  0
SECTION
  2
HEADER
  9
$ACADVER
  1
AC1032
  9
$ACADMAINTVER
 90
       73
  9
$DWGCODEPAGE
  3
ANSI_1250
  9
$LASTSAVEDBY
  1
nd7379
  9
$REQUIREDVERSIONS
160
                 0
  9
$INSBASE
 10
0.0
 20
0.0
 30
0.0
  9
$EXTMIN
 10
-44.77103500000001
 20
-35.48333333333351
 30
0.0
  9
$EXTMAX
 10
236.0058676036431
 20
52.56696931447949
 30
0.0
  9
$LIMMIN
 10
-0.5
 20
-0.5
  9
$LIMMAX
 10
5.0
 20
5.0
  9
$ORTHOMODE
 70
     0
  9
$REGENMODE
 70
     1
  9
$FILLMODE
 70
     1
  9
$QTEXTMODE
 70
     0
  9
$MIRRTEXT
 70
     1
  9
$LTSCALE
 40
1.0
  9
$ATTMODE
 70
     1
  9
$TEXTSIZE
 40
0.2
  9
$TRACEWID
 40
0.05
  9
$TEXTSTYLE
  7
Standard
  9
$CLAYER
  8
0
  9
$CELTYPE
  6
ByLayer
  9
$CECOLOR
 62
   256
  9
$CELTSCALE
 40
1.0
  9
$DISPSILH
 70
     0
  9
$DIMSCALE
 40
1.0
  9
$DIMASZ
 40
0.18
  9
$DIMEXO
 40
0.0625
  9
$DIMDLI
 40
0.38
  9
$DIMRND
 40
0.0
  9
$DIMDLE
 40
0.0
  9
$DIMEXE
 40
0.18
  9
$DIMTP
 40
0.0
  9
$DIMTM
 40
0.0
  9
$DIMTXT
 40
0.18
  9
$DIMCEN
 40
0.09
  9
$DIMTSZ
 40
0.0
  9
$DIMTOL
 70
     0
  9
$DIMLIM
 70
     0
  9
$DIMTIH
 70
     1
  9
$DIMTOH
 70
     1
  9
$DIMSE1
 70
     0
  9
$DIMSE2
 70
     0
  9
$DIMTAD
 70
     0
  9
$DIMZIN
 70
     0
  9
$DIMBLK
  1

  9
$DIMASO
 70
     1
  9
$DIMSHO
 70
     1
  9
$DIMPOST
  1

  9
$DIMAPOST
  1

  9
$DIMALT
 70
     0
  9
$DIMALTD
 70
     2
  9
$DIMALTF
 40
25.4
  9
$DIMLFAC
 40
1.0
  9
$DIMTOFL
 70
     0
  9
$DIMTVP
 40
0.0
  9
$DIMTIX
 70
     0
  9
$DIMSOXD
 70
     0
  9
$DIMSAH
 70
     0
  9
$DIMBLK1
  1

  9
$DIMBLK2
  1

  9
$DIMSTYLE
  2
Standard
  9
$DIMCLRD
 70
     0
  9
$DIMCLRE
 70
     0
  9
$DIMCLRT
 70
     0
  9
$DIMTFAC
 40
1.0
  9
$DIMGAP
 40
0.09
  9
$DIMJUST
 70
     0
  9
$DIMSD1
 70
     0
  9
$DIMSD2
 70
     0
  9
$DIMTOLJ
 70
     1
  9
$DIMTZIN
 70
     0
  9
$DIMALTZ
 70
     0
  9
$DIMALTTZ
 70
     0
  9
$DIMUPT
 70
     0
  9
$DIMDEC
 70
     4
  9
$DIMTDEC
 70
     4
  9
$DIMALTU
 70
     2
  9
$DIMALTTD
 70
     2
  9
$DIMTXSTY
  7
Standard
  9
$DIMAUNIT
 70
     0
  9
$DIMADEC
 70
     0
  9
$DIMALTRND
 40
0.0
  9
$DIMAZIN
 70
     0
  9
$DIMDSEP
 70
    46
  9
$DIMATFIT
 70
     3
  9
$DIMFRAC
 70
     0
  9
$DIMLDRBLK
  1

  9
$DIMLUNIT
 70
     2
  9
$DIMLWD
 70
    -2
  9
$DIMLWE
 70
    -2
  9
$DIMTMOVE
 70
     0
  9
$DIMFXL
 40
1.0
  9
$DIMFXLON
 70
     0
  9
$DIMJOGANG
 40
0.7853981633974483
  9
$DIMTFILL
 70
     0
  9
$DIMTFILLCLR
 70
     0
  9
$DIMARCSYM
 70
     0
  9
$DIMLTYPE
  6

  9
$DIMLTEX1
  6

  9
$DIMLTEX2
  6

  9
$DIMTXTDIRECTION
 70
     0
  9
$LUNITS
 70
     2
  9
$LUPREC
 70
     4
  9
$SKETCHINC
 40
0.1
  9
$FILLETRAD
 40
0.5
  9
$AUNITS
 70
     0
  9
$AUPREC
 70
     0
  9
$MENU
  1
.
  9
$ELEVATION
 40
0.0
  9
$PELEVATION
 40
0.0
  9
$THICKNESS
 40
0.0
  9
$LIMCHECK
 70
     0
  9
$CHAMFERA
 40
0.0
  9
$CHAMFERB
 40
0.0
  9
$CHAMFERC
 40
0.0
  9
$CHAMFERD
 40
0.0
  9
$SKPOLY
 70
     0
  9
$TDCREATE
 40
2460332.591481482
  9
$TDUCREATE
 40
2460332.549820857
  9
$TDUPDATE
 40
2460332.611250000
  9
$TDUUPDATE
 40
2460332.569583334
  9
$TDINDWG
 40
0.0193171412
  9
$TDUSRTIMER
 40
0.0193171412
  9
$USRTIMER
 70
     1
  9
$ANGBASE
 50
0.0
  9
$ANGDIR
 70
     0
  9
$PDMODE
 70
     0
  9
$PDSIZE
 40
0.0
  9
$PLINEWID
 40
0.0
  9
$SPLFRAME
 70
     0
  9
$SPLINETYPE
 70
     6
  9
$SPLINESEGS
 70
     8
  9
$HANDSEED
  5
5B3
  9
$SURFTAB1
 70
     6
  9
$SURFTAB2
 70
     6
  9
$SURFTYPE
 70
     6
  9
$SURFU
 70
     6
  9
$SURFV
 70
     6
  9
$UCSBASE
  2

  9
$UCSNAME
  2

  9
$UCSORG
 10
0.0
 20
0.0
 30
0.0
  9
$UCSXDIR
 10
1.0
 20
0.0
 30
0.0
  9
$UCSYDIR
 10
0.0
 20
1.0
 30
0.0
  9
$UCSORTHOREF
  2

  9
$UCSORTHOVIEW
 70
     0
  9
$UCSORGTOP
 10
0.0
 20
0.0
 30
0.0
  9
$UCSORGBOTTOM
 10
0.0
 20
0.0
 30
0.0
  9
$UCSORGLEFT
 10
0.0
 20
0.0
 30
0.0
  9
$UCSORGRIGHT
 10
0.0
 20
0.0
 30
0.0
  9
$UCSORGFRONT
 10
0.0
 20
0.0
 30
0.0
  9
$UCSORGBACK
 10
0.0
 20
0.0
 30
0.0
  9
$PUCSBASE
  2

  9
$PUCSNAME
  2

  9
$PUCSORG
 10
0.0
 20
0.0
 30
0.0
  9
$PUCSXDIR
 10
1.0
 20
0.0
 30
0.0
  9
$PUCSYDIR
 10
0.0
 20
1.0
 30
0.0
  9
$PUCSORTHOREF
  2

  9
$PUCSORTHOVIEW
 70
     0
  9
$PUCSORGTOP
 10
0.0
 20
0.0
 30
0.0
  9
$PUCSORGBOTTOM
 10
0.0
 20
0.0
 30
0.0
  9
$PUCSORGLEFT
 10
0.0
 20
0.0
 30
0.0
  9
$PUCSORGRIGHT
 10
0.0
 20
0.0
 30
0.0
  9
$PUCSORGFRONT
 10
0.0
 20
0.0
 30
0.0
  9
$PUCSORGBACK
 10
0.0
 20
0.0
 30
0.0
  9
$USERI1
 70
     0
  9
$USERI2
 70
     0
  9
$USERI3
 70
     0
  9
$USERI4
 70
     0
  9
$USERI5
 70
     0
  9
$USERR1
 40
0.0
  9
$USERR2
 40
0.0
  9
$USERR3
 40
0.0
  9
$USERR4
 40
0.0
  9
$USERR5
 40
0.0
  9
$WORLDVIEW
 70
     1
  9
$SHADEDGE
 70
     3
  9
$SHADEDIF
 70
    70
  9
$TILEMODE
 70
     1
  9
$MAXACTVP
 70
    64
  9
$PINSBASE
 10
0.0
 20
0.0
 30
0.0
  9
$PLIMCHECK
 70
     0
  9
$PEXTMIN
 10
-0.5
 20
-0.5
 30
-0.5
  9
$PEXTMAX
 10
5.0
 20
5.0
 30
5.0
  9
$PLIMMIN
 10
-0.5
 20
-0.5
  9
$PLIMMAX
 10
5.0
 20
5.0
  9
$UNITMODE
 70
     0
  9
$VISRETAIN
 70
     1
  9
$PLINEGEN
 70
     0
  9
$PSLTSCALE
 70
     1
  9
$TREEDEPTH
 70
  3020
  9
$CMLSTYLE
  2
Standard
  9
$CMLJUST
 70
     0
  9
$CMLSCALE
 40
1.0
  9
$PROXYGRAPHICS
 70
     1
  9
$MEASUREMENT
 70
     1
  9
$CELWEIGHT
370
    13
  9
$ENDCAPS
280
     0
  9
$JOINSTYLE
280
     0
  9
$LWDISPLAY
290
     0
  9
$INSUNITS
 70
     4
  9
$HYPERLINKBASE
  1

  9
$STYLESHEET
  1

  9
$XEDIT
290
     1
  9
$CEPSNTYPE
380
     0
  9
$PSTYLEMODE
290
     1
  9
$FINGERPRINTGUID
  2
{D3877AC1-17DF-4981-A88A-58F7F1D0555B}
  9
$VERSIONGUID
  2
{46DBF27F-638D-7542-A616-EBD444CE0BF7}
  9
$EXTNAMES
290
     1
  9
$PSVPSCALE
 40
0.0
  9
$OLESTARTUP
290
     0
  9
$SORTENTS
280
   127
  9
$INDEXCTL
280
     0
  9
$HIDETEXT
280
     1
  9
$XCLIPFRAME
280
     2
  9
$HALOGAP
280
     0
  9
$OBSCOLOR
 70
   257
  9
$OBSLTYPE
280
     0
  9
$INTERSECTIONDISPLAY
280
     0
  9
$INTERSECTIONCOLOR
 70
   257
  9
$DIMASSOC
280
     2
  9
$PROJECTNAME
  1

  9
$CAMERADISPLAY
290
     0
  9
$LENSLENGTH
 40
50.0
  9
$CAMERAHEIGHT
 40
0.0
  9
$STEPSPERSEC
 40
2.0
  9
$STEPSIZE
 40
6.0
  9
$3DDWFPREC
 40
2.0
  9
$PSOLWIDTH
 40
0.25
  9
$PSOLHEIGHT
 40
4.0
  9
$LOFTANG1
 40
1.570796326794896
  9
$LOFTANG2
 40
1.570796326794896
  9
$LOFTMAG1
 40
0.0
  9
$LOFTMAG2
 40
0.0
  9
$LOFTPARAM
 70
     7
  9
$LOFTNORMALS
280
     1
  9
$LATITUDE
 40
37.795
  9
$LONGITUDE
 40
-122.394
  9
$NORTHDIRECTION
 40
0.0
  9
$TIMEZONE
 70
 -8000
  9
$LIGHTGLYPHDISPLAY
280
     1
  9
$TILEMODELIGHTSYNCH
280
     1
  9
$CMATERIAL
347
44
  9
$SOLIDHIST
280
     0
  9
$SHOWHIST
280
     1
  9
$DWFFRAME
280
     2
  9
$DGNFRAME
280
     0
  9
$REALWORLDSCALE
290
     1
  9
$INTERFERECOLOR
 62
     1
  9
$INTERFEREOBJVS
345
33
  9
$INTERFEREVPVS
346
30
  9
$CSHADOW
280
     0
  9
$SHADOWPLANELOCATION
 40
0.0
  0
ENDSEC
  0
SECTION
  2
CLASSES
  0
CLASS
  1
ACDBDICTIONARYWDFLT
  2
AcDbDictionaryWithDefault
  3
ObjectDBX Classes
 90
        0
 91
        1
280
     0
281
     0
  0
CLASS
  1
VISUALSTYLE
  2
AcDbVisualStyle
  3
ObjectDBX Classes
 90
     4095
 91
       24
280
     0
281
     0
  0
CLASS
  1
MATERIAL
  2
AcDbMaterial
  3
ObjectDBX Classes
 90
     1153
 91
        3
280
     0
281
     0
  0
CLASS
  1
SCALE
  2
AcDbScale
  3
ObjectDBX Classes
 90
     1153
 91
       33
280
     0
281
     0
  0
CLASS
  1
TABLESTYLE
  2
AcDbTableStyle
  3
ObjectDBX Classes
 90
     4095
 91
        1
280
     0
281
     0
  0
CLASS
  1
MLEADERSTYLE
  2
AcDbMLeaderStyle
  3
ACDB_MLEADERSTYLE_CLASS
 90
     4095
 91
        1
280
     0
281
     0
  0
CLASS
  1
SUN
  2
AcDbSun
  3
SCENEOE
 90
     1153
 91
        0
280
     0
281
     0
  0
CLASS
  1
DIMASSOC
  2
AcDbDimAssoc
  3
"AcDbDimAssoc|Product Desc:     AcDim ARX App For Dimension|Company:          Autodesk, Inc.|WEB Address:      www.autodesk.com"
 90
        0
 91
        9
280
     0
281
     0
  0
CLASS
  1
DICTIONARYVAR
  2
AcDbDictionaryVar
  3
ObjectDBX Classes
 90
        0
 91
       15
280
     0
281
     0
  0
CLASS
  1
CELLSTYLEMAP
  2
AcDbCellStyleMap
  3
ObjectDBX Classes
 90
     1152
 91
        2
280
     0
281
     0
  0
CLASS
  1
ACDBSECTIONVIEWSTYLE
  2
AcDbSectionViewStyle
  3
ObjectDBX Classes
 90
     1025
 91
        1
280
     0
281
     0
  0
CLASS
  1
ACDBDETAILVIEWSTYLE
  2
AcDbDetailViewStyle
  3
ObjectDBX Classes
 90
     1025
 91
        1
280
     0
281
     0
  0
CLASS
  1
EXACXREFPANELOBJECT
  2
ExAcXREFPanelObject
  3
EXAC_ESW
 90
     1025
 91
        1
280
     0
281
     0
  0
CLASS
  1
NPOCOLLECTION
  2
AcDbImpNonPersistentObjectsCollection
  3
ObjectDBX Classes
 90
     1153
 91
        1
280
     0
281
     0
  0
ENDSEC
  0
SECTION
  2
TABLES
  0
TABLE
  2
VPORT
  5
8
330
0
100
AcDbSymbolTable
 70
    16
  0
VPORT
  5
29
330
8
100
AcDbSymbolTableRecord
100
AcDbViewportTableRecord
  2
*Active
 70
     0
 10
0.0
 20
0.0
 11
1.0
 21
1.0
 12
90.88194509622685
 22
-8.970632849846879
 13
0.0
 23
0.0
 14
0.5
 24
0.5
 15
0.5
 25
0.5
 16
0.0
 26
0.0
 36
1.0
 17
0.0
 27
0.0
 37
0.0
 40
151.7206157305409
 41
2.292712066905615
 42
50.0
 43
354.459719
 44
-354.459719
 50
0.0
 51
0.0
 71
     0
 72
   100
 73
     1
 74
     3
 75
     0
 76
     0
 77
     0
 78
     0
281
     0
 65
     1
110
0.0
120
0.0
130
0.0
111
1.0
121
0.0
131
0.0
112
0.0
122
1.0
132
0.0
 79
     0
146
0.0
348
2F
 60
     3
 61
     5
292
     1
282
     1
141
0.0
142
0.0
 63
   250
421
  3355443
1001
ACAD_NAV_VCDISPLAY
1070
     3
  0
VPORT
  5
1A9
330
8
100
AcDbSymbolTableRecord
100
AcDbViewportTableRecord
  2
L1
 70
     0
 10
0.0
 20
0.0
 11
1.0
 21
1.0
 12
256.511917
 22
288.751472
 13
0.0
 23
0.0
 14
0.5
 24
0.5
 15
0.5
 25
0.5
 16
0.0
 26
0.0
 36
1.0
 17
0.0
 27
0.0
 37
0.0
 40
208.75625
 41
0.08506
 42
50.0
 43
354.459719
 44
-354.459719
 50
0.0
 51
0.0
 71
     0
 72
   100
 73
     1
 74
     3
 75
     0
 76
     0
 77
     0
 78
     0
281
     0
 65
     1
110
0.0
120
0.0
130
0.0
111
1.0
121
0.0
131
0.0
112
0.0
122
1.0
132
0.0
 79
     0
146
0.0
348
2F
 60
     3
 61
     5
292
     1
282
     1
141
0.0
142
0.0
 63
   250
421
  3355443
  0
VPORT
  5
1AA
330
8
100
AcDbSymbolTableRecord
100
AcDbViewportTableRecord
  2
L2
 70
     0
 10
0.0
 20
0.0
 11
0.5
 21
1.0
 12
0.0
 22
0.0
 13
0.0
 23
0.0
 14
0.5
 24
0.5
 15
0.5
 25
0.5
 16
0.0
 26
-1.0
 36
0.0
 17
0.0
 27
0.0
 37
0.0
 40
1424.748748
 41
0.012463
 42
50.0
 43
736.256765
 44
-736.256765
 50
0.0
 51
0.0
 71
     0
 72
   100
 73
     1
 74
     3
 75
     0
 76
     0
 77
     0
 78
     0
281
     0
 65
     1
110
0.0
120
0.0
130
0.0
111
1.0
121
0.0
131
0.0
112
0.0
122
1.0
132
0.0
 79
     0
146
0.0
348
2F
 60
     3
 61
     5
292
     1
282
     1
141
0.0
142
0.0
 63
   250
421
  3355443
  0
VPORT
  5
1AB
330
8
100
AcDbSymbolTableRecord
100
AcDbViewportTableRecord
  2
L2
 70
     0
 10
0.5
 20
0.0
 11
1.0
 21
1.0
 12
0.0
 22
0.0
 13
0.0
 23
0.0
 14
0.5
 24
0.5
 15
0.5
 25
0.5
 16
1.0
 26
0.0
 36
0.0
 17
0.0
 27
0.0
 37
0.0
 40
1424.748748
 41
0.012463
 42
50.0
 43
719.980584
 44
-719.980584
 50
0.0
 51
0.0
 71
     0
 72
   100
 73
     1
 74
     3
 75
     0
 76
     0
 77
     0
 78
     0
281
     0
 65
     1
110
0.0
120
0.0
130
0.0
111
1.0
121
0.0
131
0.0
112
0.0
122
1.0
132
0.0
 79
     0
146
0.0
348
2F
 60
     3
 61
     5
292
     1
282
     1
141
0.0
142
0.0
 63
   250
421
  3355443
  0
VPORT
  5
1AC
330
8
100
AcDbSymbolTableRecord
100
AcDbViewportTableRecord
  2
L3
 70
     0
 10
0.0
 20
0.5
 11
1.0
 21
1.0
 12
256.511917
 22
288.751472
 13
0.0
 23
0.0
 14
0.5
 24
0.5
 15
0.5
 25
0.5
 16
0.0
 26
0.0
 36
1.0
 17
0.0
 27
0.0
 37
0.0
 40
208.75625
 41
0.08506
 42
50.0
 43
354.459719
 44
-354.459719
 50
0.0
 51
0.0
 71
     0
 72
   100
 73
     1
 74
     3
 75
     0
 76
     0
 77
     0
 78
     0
281
     0
 65
     1
110
0.0
120
0.0
130
0.0
111
1.0
121
0.0
131
0.0
112
0.0
122
1.0
132
0.0
 79
     0
146
0.0
348
2F
 60
     3
 61
     5
292
     1
282
     1
141
0.0
142
0.0
 63
   250
421
  3355443
  0
VPORT
  5
1AD
330
8
100
AcDbSymbolTableRecord
100
AcDbViewportTableRecord
  2
L3
 70
     0
 10
0.0
 20
0.0
 11
1.0
 21
0.5
 12
0.0
 22
0.0
 13
0.0
 23
0.0
 14
0.5
 24
0.5
 15
0.5
 25
0.5
 16
0.0
 26
-1.0
 36
0.0
 17
0.0
 27
0.0
 37
0.0
 40
1424.748748
 41
0.012463
 42
50.0
 43
736.256765
 44
-736.256765
 50
0.0
 51
0.0
 71
     0
 72
   100
 73
     1
 74
     3
 75
     0
 76
     0
 77
     0
 78
     0
281
     0
 65
     1
110
0.0
120
0.0
130
0.0
111
1.0
121
0.0
131
0.0
112
0.0
122
1.0
132
0.0
 79
     0
146
0.0
348
2F
 60
     3
 61
     5
292
     1
282
     1
141
0.0
142
0.0
 63
   250
421
  3355443
  0
VPORT
  5
1AE
330
8
100
AcDbSymbolTableRecord
100
AcDbViewportTableRecord
  2
L4
 70
     0
 10
0.0
 20
0.5
 11
0.5
 21
1.0
 12
256.511917
 22
288.751472
 13
0.0
 23
0.0
 14
0.5
 24
0.5
 15
0.5
 25
0.5
 16
0.0
 26
0.0
 36
1.0
 17
0.0
 27
0.0
 37
0.0
 40
208.75625
 41
0.08506
 42
50.0
 43
354.459719
 44
-354.459719
 50
0.0
 51
0.0
 71
     0
 72
   100
 73
     1
 74
     3
 75
     0
 76
     0
 77
     0
 78
     0
281
     0
 65
     1
110
0.0
120
0.0
130
0.0
111
1.0
121
0.0
131
0.0
112
0.0
122
1.0
132
0.0
 79
     0
146
0.0
348
2F
 60
     3
 61
     5
292
     1
282
     1
141
0.0
142
0.0
 63
   250
421
  3355443
  0
VPORT
  5
1AF
330
8
100
AcDbSymbolTableRecord
100
AcDbViewportTableRecord
  2
L4
 70
     0
 10
0.0
 20
0.0
 11
0.5
 21
0.5
 12
0.0
 22
0.0
 13
0.0
 23
0.0
 14
0.5
 24
0.5
 15
0.5
 25
0.5
 16
0.0
 26
-1.0
 36
0.0
 17
0.0
 27
0.0
 37
0.0
 40
1424.748748
 41
0.012463
 42
50.0
 43
736.256765
 44
-736.256765
 50
0.0
 51
0.0
 71
     0
 72
   100
 73
     1
 74
     3
 75
     0
 76
     0
 77
     0
 78
     0
281
     0
 65
     1
110
0.0
120
0.0
130
0.0
111
1.0
121
0.0
131
0.0
112
0.0
122
1.0
132
0.0
 79
     0
146
0.0
348
2F
 60
     3
 61
     5
292
     1
282
     1
141
0.0
142
0.0
 63
   250
421
  3355443
  0
VPORT
  5
1B0
330
8
100
AcDbSymbolTableRecord
100
AcDbViewportTableRecord
  2
L4
 70
     0
 10
0.5
 20
0.0
 11
1.0
 21
0.5
 12
0.0
 22
0.0
 13
0.0
 23
0.0
 14
0.5
 24
0.5
 15
0.5
 25
0.5
 16
1.0
 26
0.0
 36
0.0
 17
0.0
 27
0.0
 37
0.0
 40
1424.748748
 41
0.012463
 42
50.0
 43
719.980584
 44
-719.980584
 50
0.0
 51
0.0
 71
     0
 72
   100
 73
     1
 74
     3
 75
     0
 76
     0
 77
     0
 78
     0
281
     0
 65
     1
110
0.0
120
0.0
130
0.0
111
1.0
121
0.0
131
0.0
112
0.0
122
1.0
132
0.0
 79
     0
146
0.0
348
2F
 60
     3
 61
     5
292
     1
282
     1
141
0.0
142
0.0
 63
   250
421
  3355443
  0
VPORT
  5
1B1
330
8
100
AcDbSymbolTableRecord
100
AcDbViewportTableRecord
  2
L4
 70
     0
 10
0.5
 20
0.5
 11
1.0
 21
1.0
 12
0.0
 22
0.0
 13
0.0
 23
0.0
 14
0.5
 24
0.5
 15
0.5
 25
0.5
 16
0.5773502691896259
 26
-0.5773502691896259
 36
0.5773502691896259
 17
0.0
 27
0.0
 37
0.0
 40
1400.396929
 41
0.01268
 42
50.0
 43
729.683645
 44
-729.683645
 50
0.0
 51
0.0
 71
     0
 72
   100
 73
     1
 74
     3
 75
     0
 76
     0
 77
     0
 78
     0
281
     0
 65
     1
110
0.0
120
0.0
130
0.0
111
1.0
121
0.0
131
0.0
112
0.0
122
1.0
132
0.0
 79
     0
146
0.0
348
2F
 60
     3
 61
     5
292
     1
282
     1
141
0.0
142
0.0
 63
   250
421
  3355443
  0
VPORT
  5
1B2
330
8
100
AcDbSymbolTableRecord
100
AcDbViewportTableRecord
  2
L6
 70
     0
 10
0.0
 20
0.5
 11
0.333333
 21
1.0
 12
0.0
 22
0.0
 13
0.0
 23
0.0
 14
0.5
 24
0.5
 15
0.5
 25
0.5
 16
0.7188730927569434
 26
-0.5850486126764433
 36
0.3754192287502549
 17
0.0
 27
0.0
 37
0.0
 40
1478.324015
 41
0.012011
 42
50.0
 43
765.3161669999999
 44
-765.3161669999999
 50
0.0
 51
0.0
 71
     0
 72
   100
 73
     1
 74
     3
 75
     0
 76
     0
 77
     0
 78
     0
281
     0
 65
     1
110
0.0
120
0.0
130
0.0
111
1.0
121
0.0
131
0.0
112
0.0
122
1.0
132
0.0
 79
     0
146
0.0
348
2F
 60
     3
 61
     5
292
     1
282
     1
141
0.0
142
0.0
 63
   250
421
  3355443
  0
VPORT
  5
1B3
330
8
100
AcDbSymbolTableRecord
100
AcDbViewportTableRecord
  2
L6
 70
     0
 10
0.0
 20
0.0
 11
0.333333
 21
0.5
 12
0.0
 22
0.0
 13
0.0
 23
0.0
 14
0.5
 24
0.5
 15
0.5
 25
0.5
 16
-1.0
 26
0.0
 36
0.0
 17
0.0
 27
0.0
 37
0.0
 40
1424.748748
 41
0.012463
 42
50.0
 43
719.980584
 44
-719.980584
 50
0.0
 51
0.0
 71
     0
 72
   100
 73
     1
 74
     3
 75
     0
 76
     0
 77
     0
 78
     0
281
     0
 65
     1
110
0.0
120
0.0
130
0.0
111
1.0
121
0.0
131
0.0
112
0.0
122
1.0
132
0.0
 79
     0
146
0.0
348
2F
 60
     3
 61
     5
292
     1
282
     1
141
0.0
142
0.0
 63
   250
421
  3355443
  0
VPORT
  5
1B4
330
8
100
AcDbSymbolTableRecord
100
AcDbViewportTableRecord
  2
L6
 70
     0
 10
0.333333
 20
0.5
 11
0.666667
 21
1.0
 12
256.511917
 22
288.751472
 13
0.0
 23
0.0
 14
0.5
 24
0.5
 15
0.5
 25
0.5
 16
0.0
 26
0.0
 36
1.0
 17
0.0
 27
0.0
 37
0.0
 40
208.75625
 41
0.08506
 42
50.0
 43
354.459719
 44
-354.459719
 50
0.0
 51
0.0
 71
     0
 72
   100
 73
     1
 74
     3
 75
     0
 76
     0
 77
     0
 78
     0
281
     0
 65
     1
110
0.0
120
0.0
130
0.0
111
1.0
121
0.0
131
0.0
112
0.0
122
1.0
132
0.0
 79
     0
146
0.0
348
2F
 60
     3
 61
     5
292
     1
282
     1
141
0.0
142
0.0
 63
   250
421
  3355443
  0
VPORT
  5
1B5
330
8
100
AcDbSymbolTableRecord
100
AcDbViewportTableRecord
  2
L6
 70
     0
 10
0.333333
 20
0.0
 11
0.666667
 21
0.5
 12
0.0
 22
0.0
 13
0.0
 23
0.0
 14
0.5
 24
0.5
 15
0.5
 25
0.5
 16
0.0
 26
-1.0
 36
0.0
 17
0.0
 27
0.0
 37
0.0
 40
1424.748748
 41
0.012463
 42
50.0
 43
736.256765
 44
-736.256765
 50
0.0
 51
0.0
 71
     0
 72
   100
 73
     1
 74
     3
 75
     0
 76
     0
 77
     0
 78
     0
281
     0
 65
     1
110
0.0
120
0.0
130
0.0
111
1.0
121
0.0
131
0.0
112
0.0
122
1.0
132
0.0
 79
     0
146
0.0
348
2F
 60
     3
 61
     5
292
     1
282
     1
141
0.0
142
0.0
 63
   250
421
  3355443
  0
VPORT
  5
1B6
330
8
100
AcDbSymbolTableRecord
100
AcDbViewportTableRecord
  2
L6
 70
     0
 10
0.666667
 20
0.5
 11
1.0
 21
1.0
 12
0.0
 22
0.0
 13
0.0
 23
0.0
 14
0.5
 24
0.5
 15
0.5
 25
0.5
 16
0.5773502691896259
 26
-0.5773502691896259
 36
0.5773502691896259
 17
0.0
 27
0.0
 37
0.0
 40
1400.396929
 41
0.01268
 42
50.0
 43
729.683645
 44
-729.683645
 50
0.0
 51
0.0
 71
     0
 72
   100
 73
     1
 74
     3
 75
     0
 76
     0
 77
     0
 78
     0
281
     0
 65
     1
110
0.0
120
0.0
130
0.0
111
1.0
121
0.0
131
0.0
112
0.0
122
1.0
132
0.0
 79
     0
146
0.0
348
2F
 60
     3
 61
     5
292
     1
282
     1
141
0.0
142
0.0
 63
   250
421
  3355443
  0
VPORT
  5
1B7
330
8
100
AcDbSymbolTableRecord
100
AcDbViewportTableRecord
  2
L6
 70
     0
 10
0.666667
 20
0.0
 11
1.0
 21
0.5
 12
0.0
 22
0.0
 13
0.0
 23
0.0
 14
0.5
 24
0.5
 15
0.5
 25
0.5
 16
1.0
 26
0.0
 36
0.0
 17
0.0
 27
0.0
 37
0.0
 40
1424.748748
 41
0.012463
 42
50.0
 43
719.980584
 44
-719.980584
 50
0.0
 51
0.0
 71
     0
 72
   100
 73
     1
 74
     3
 75
     0
 76
     0
 77
     0
 78
     0
281
     0
 65
     1
110
0.0
120
0.0
130
0.0
111
1.0
121
0.0
131
0.0
112
0.0
122
1.0
132
0.0
 79
     0
146
0.0
348
2F
 60
     3
 61
     5
292
     1
282
     1
141
0.0
142
0.0
 63
   250
421
  3355443
  0
ENDTAB
  0
TABLE
  2
LTYPE
  5
5
330
0
100
AcDbSymbolTable
 70
     9
  0
LTYPE
  5
14
330
5
100
AcDbSymbolTableRecord
100
AcDbLinetypeTableRecord
  2
ByBlock
 70
     0
  3

 72
    65
 73
     0
 40
0.0
  0
LTYPE
  5
15
330
5
100
AcDbSymbolTableRecord
100
AcDbLinetypeTableRecord
  2
ByLayer
 70
     0
  3

 72
    65
 73
     0
 40
0.0
  0
LTYPE
  5
16
330
5
100
AcDbSymbolTableRecord
100
AcDbLinetypeTableRecord
  2
Continuous
 70
     0
  3
Solid line
 72
    65
 73
     0
 40
0.0
  0
LTYPE
  5
3D8
330
5
100
AcDbSymbolTableRecord
100
AcDbLinetypeTableRecord
  2
CENTER
 70
     0
  3
____ _ ____ _ ____ _ ____
 72
    65
 73
     4
 40
47.4
 49
22.0
 74
     4
 75
     0
340
0
 46
0.0
 50
0.0
 44
0.0
 45
0.0
 49
-8.5
 74
     4
 75
     0
340
0
 46
0.0
 50
0.0
 44
0.0
 45
0.0
 49
8.5
 74
     4
 75
     0
340
0
 46
0.0
 50
0.0
 44
0.0
 45
0.0
 49
-8.5
 74
     4
 75
     0
340
0
 46
0.0
 50
0.0
 44
0.0
 45
0.0
  0
LTYPE
  5
3D9
330
5
100
AcDbSymbolTableRecord
100
AcDbLinetypeTableRecord
  2
CENTRO
 70
     0
  3
Centro ____ _ ____ _ ____ _ ____ _ ____ _ ____
 72
    65
 73
     4
 40
50.8
 49
31.75
 74
     0
 49
-6.349999999999997
 74
     0
 49
6.349999999999997
 74
     0
 49
-6.349999999999997
 74
     0
  0
ENDTAB
  0
TABLE
  2
LAYER
  5
2
102
{ACAD_XDICTIONARY
360
3EE
102
}
330
0
100
AcDbSymbolTable
 70
    20
  0
LAYER
  5
10
102
{ACAD_XDICTIONARY
360
5A1
102
}
330
2
100
AcDbSymbolTableRecord
100
AcDbLayerTableRecord
  2
0
 70
     0
 62
     7
  6
Continuous
370
    -3
390
F
347
46
348
0
  0
LAYER
  5
3DA
330
2
100
AcDbSymbolTableRecord
100
AcDbLayerTableRecord
  2
Defpoints
 70
     0
 62
     7
  6
Continuous
290
     0
370
    -3
390
F
347
46
348
0
  0
LAYER
  5
3DB
102
{ACAD_XDICTIONARY
360
3DC
102
}
330
2
100
AcDbSymbolTableRecord
100
AcDbLayerTableRecord
  2
1
 70
     0
 62
     4
  6
Continuous
370
    50
390
F
347
46
348
0
  0
LAYER
  5
3DD
102
{ACAD_XDICTIONARY
360
3DE
102
}
330
2
100
AcDbSymbolTableRecord
100
AcDbLayerTableRecord
  2
2
 70
     0
 62
     7
  6
Continuous
370
    25
390
F
347
46
348
0
  0
LAYER
  5
3DF
102
{ACAD_XDICTIONARY
360
3E0
102
}
330
2
100
AcDbSymbolTableRecord
100
AcDbLayerTableRecord
  2
4
 70
     0
 62
     2
  6
CENTRO
370
    25
390
F
347
46
348
0
  0
LAYER
  5
3E1
102
{ACAD_XDICTIONARY
360
3E2
102
}
330
2
100
AcDbSymbolTableRecord
100
AcDbLayerTableRecord
  2
SK2
 70
     0
 62
     7
  6
Continuous
370
    25
390
F
347
46
348
0
  0
LAYER
  5
3E3
102
{ACAD_XDICTIONARY
360
3E4
102
}
330
2
100
AcDbSymbolTableRecord
100
AcDbLayerTableRecord
  2
SK4
 70
     0
 62
     2
  6
CENTER
370
    25
390
F
347
46
348
0
  0
LAYER
  5
3E5
102
{ACAD_XDICTIONARY
360
3E6
102
}
330
2
100
AcDbSymbolTableRecord
100
AcDbLayerTableRecord
  2
SK6
 70
     0
 62
     5
  6
Continuous
370
    -3
390
F
347
46
348
0
  0
LAYER
  5
3E7
102
{ACAD_XDICTIONARY
360
3E8
102
}
330
2
100
AcDbSymbolTableRecord
100
AcDbLayerTableRecord
  2
NOCUT
 70
     0
 62
     7
  6
Continuous
370
    25
390
F
347
46
348
0
  0
LAYER
  5
3E9
102
{ACAD_XDICTIONARY
360
3EA
102
}
330
2
100
AcDbSymbolTableRecord
100
AcDbLayerTableRecord
  2
SK1
 70
     0
 62
     4
  6
Continuous
370
    50
390
F
347
46
348
0
  0
LAYER
  5
3EB
102
{ACAD_XDICTIONARY
360
3EC
102
}
330
2
100
AcDbSymbolTableRecord
100
AcDbLayerTableRecord
  2
CUT
 70
     0
 62
     1
  6
Continuous
370
    -3
390
F
347
46
348
0
  0
ENDTAB
  0
TABLE
  2
STYLE
  5
3
330
0
100
AcDbSymbolTable
 70
     3
  0
STYLE
  5
11
330
3
100
AcDbSymbolTableRecord
100
AcDbTextStyleTableRecord
  2
Standard
 70
     0
 40
0.0
 41
1.0
 50
0.0
 71
     0
 42
0.2
  3
txt
  4

  0
STYLE
  5
128
330
3
100
AcDbSymbolTableRecord
100
AcDbTextStyleTableRecord
  2
cesky
 70
     0
 40
0.0
 41
1.0
 50
0.0
 71
     0
 42
0.2
  3
simplex.shx
  4

  0
ENDTAB
  0
TABLE
  2
VIEW
  5
6
330
0
100
AcDbSymbolTable
 70
     0
  0
ENDTAB
  0
TABLE
  2
UCS
  5
7
330
0
100
AcDbSymbolTable
 70
     0
  0
ENDTAB
  0
TABLE
  2
APPID
  5
9
330
0
100
AcDbSymbolTable
 70
    11
  0
APPID
  5
12
330
9
100
AcDbSymbolTableRecord
100
AcDbRegAppTableRecord
  2
ACAD
 70
     0
  0
APPID
  5
12A
330
9
100
AcDbSymbolTableRecord
100
AcDbRegAppTableRecord
  2
ACAD_DSTYLE_DIMBREAK
 70
     0
  0
APPID
  5
1B8
330
9
100
AcDbSymbolTableRecord
100
AcDbRegAppTableRecord
  2
ACAD_DSTYLE_DIM_LINETYPE
 70
     0
  0
APPID
  5
1B9
330
9
100
AcDbSymbolTableRecord
100
AcDbRegAppTableRecord
  2
ACAD_DSTYLE_DIM_EXT1_LINETYPE
 70
     0
  0
APPID
  5
1BA
330
9
100
AcDbSymbolTableRecord
100
AcDbRegAppTableRecord
  2
ACAD_DSTYLE_DIM_EXT2_LINETYPE
 70
     0
  0
APPID
  5
1BB
330
9
100
AcDbSymbolTableRecord
100
AcDbRegAppTableRecord
  2
ACAD_DSTYLE_DIMFLIPARROW_SYMBOL
 70
     0
  0
APPID
  5
1BC
330
9
100
AcDbSymbolTableRecord
100
AcDbRegAppTableRecord
  2
ACAD_DSTYLE_DIMFLIPARROW_WHICH_SYMBOL
 70
     0
  0
APPID
  5
1FC
330
9
100
AcDbSymbolTableRecord
100
AcDbRegAppTableRecord
  2
ACAD_MLEADERVER
 70
     0
  0
APPID
  5
393
330
9
100
AcDbSymbolTableRecord
100
AcDbRegAppTableRecord
  2
ACAD_NAV_VCDISPLAY
 70
     0
  0
APPID
  5
3ED
330
9
100
AcDbSymbolTableRecord
100
AcDbRegAppTableRecord
  2
AcLayerTools
 70
     0
  0
APPID
  5
569
330
9
100
AcDbSymbolTableRecord
100
AcDbRegAppTableRecord
  2
ACAD_EXEMPT_FROM_CAD_STANDARDS
 70
     0
  0
ENDTAB
  0
TABLE
  2
DIMSTYLE
  5
A
330
0
100
AcDbSymbolTable
 70
     2
100
AcDbDimStyleTable
 71
     1
340
27
  0
DIMSTYLE
105
27
102
{ACAD_REACTORS
330
501
330
502
330
503
330
506
330
507
102
}
330
A
100
AcDbSymbolTableRecord
100
AcDbDimStyleTableRecord
  2
Standard
 70
     0
340
11
1001
ACAD_DSTYLE_DIMBREAK
1070
   391
1040
6.349999999999999
  0
ENDTAB
  0
TABLE
  2
BLOCK_RECORD
  5
1
330
0
100
AcDbSymbolTable
 70
    24
  0
BLOCK_RECORD
  5
1F
330
1
100
AcDbSymbolTableRecord
100
AcDbBlockTableRecord
  2
*Model_Space
340
22
 70
     0
280
     1
281
     0
  0
BLOCK_RECORD
  5
1B
330
1
100
AcDbSymbolTableRecord
100
AcDbBlockTableRecord
  2
*Paper_Space
340
1E
 70
     0
280
     1
281
     0
  0
BLOCK_RECORD
  5
23
330
1
100
AcDbSymbolTableRecord
100
AcDbBlockTableRecord
  2
*Paper_Space0
340
26
 70
     0
280
     1
281
     0
  0
BLOCK_RECORD
  5
399
330
1
100
AcDbSymbolTableRecord
100
AcDbBlockTableRecord
  2
*D12
340
0
 70
     0
280
     1
281
     0
  0
BLOCK_RECORD
  5
3A5
330
1
100
AcDbSymbolTableRecord
100
AcDbBlockTableRecord
  2
*D13
340
0
 70
     0
280
     1
281
     0
  0
BLOCK_RECORD
  5
3B1
330
1
100
AcDbSymbolTableRecord
100
AcDbBlockTableRecord
  2
*D14
340
0
 70
     0
280
     1
281
     0
  0
BLOCK_RECORD
  5
3BD
330
1
100
AcDbSymbolTableRecord
100
AcDbBlockTableRecord
  2
*D15
340
0
 70
     0
280
     1
281
     0
  0
BLOCK_RECORD
  5
3CE
330
1
100
AcDbSymbolTableRecord
100
AcDbBlockTableRecord
  2
*D16
340
0
 70
     0
280
     1
281
     0
  0
BLOCK_RECORD
  5
50A
330
1
100
AcDbSymbolTableRecord
100
AcDbBlockTableRecord
  2
*D18
340
0
 70
     0
280
     1
281
     0
  0
BLOCK_RECORD
  5
516
330
1
100
AcDbSymbolTableRecord
100
AcDbBlockTableRecord
  2
*D19
340
0
 70
     0
280
     1
281
     0
  0
BLOCK_RECORD
  5
522
330
1
100
AcDbSymbolTableRecord
100
AcDbBlockTableRecord
  2
*D20
340
0
 70
     0
280
     1
281
     0
  0
BLOCK_RECORD
  5
545
330
1
100
AcDbSymbolTableRecord
100
AcDbBlockTableRecord
  2
*D21
340
0
 70
     0
280
     1
281
     0
  0
BLOCK_RECORD
  5
55F
330
1
100
AcDbSymbolTableRecord
100
AcDbBlockTableRecord
  2
*D22
340
0
 70
     0
280
     1
281
     0
  0
ENDTAB
  0
ENDSEC
  0
SECTION
  2
BLOCKS
  0
BLOCK
  5
20
330
1F
100
AcDbEntity
  8
0
100
AcDbBlockBegin
  2
*Model_Space
 70
     0
 10
0.0
 20
0.0
 30
0.0
  3
*Model_Space
  1

  0
ENDBLK
  5
21
330
1F
100
AcDbEntity
  8
0
100
AcDbBlockEnd
  0
BLOCK
  5
1C
330
1B
100
AcDbEntity
 67
     1
  8
0
100
AcDbBlockBegin
  2
*Paper_Space
 70
     0
 10
0.0
 20
0.0
 30
0.0
  3
*Paper_Space
  1

  0
ENDBLK
  5
1D
330
1B
100
AcDbEntity
 67
     1
  8
0
100
AcDbBlockEnd
  0
BLOCK
  5
24
330
23
100
AcDbEntity
 67
     1
  8
0
100
AcDbBlockBegin
  2
*Paper_Space0
 70
     0
 10
0.0
 20
0.0
 30
0.0
  3
*Paper_Space0
  1

  0
ENDBLK
  5
25
330
23
100
AcDbEntity
 67
     1
  8
0
100
AcDbBlockEnd
  0
BLOCK
  5
39A
330
399
100
AcDbEntity
  8
0
370
    13
100
AcDbBlockBegin
  2
*D12
 70
     1
 10
0.0
 20
0.0
 30
0.0
  3
*D12
  1

  0
LINE
  5
39B
330
399
100
AcDbEntity
  8
SK2
  6
Continuous
 62
     7
440
 16777216
370
    13
100
AcDbLine
 10
368.6250933027799
 20
0.9420923565145642
 30
0.0
 11
368.6250933027799
 21
32.08085035651456
 31
0.0
  0
LINE
  5
39C
330
399
100
AcDbEntity
  8
SK2
  6
Continuous
 62
     7
440
 16777216
370
    13
100
AcDbLine
 10
188.6250933027799
 20
-15.60790764348545
 30
0.0
 11
188.6250933027799
 21
32.08085035651456
 31
0.0
  0
LINE
  5
39D
330
399
100
AcDbEntity
  8
SK2
  6
Continuous
 62
     7
440
 16777216
370
    13
100
AcDbLine
 10
365.1250933027799
 20
31.08085035651456
 30
0.0
 11
192.1250933027798
 21
31.08085035651456
 31
0.0
  0
SOLID
  5
39E
330
399
100
AcDbEntity
  8
SK2
 62
     7
440
 16777216
370
    13
100
AcDbTrace
 10
365.1250933027799
 20
31.6641836898479
 30
0.0
 11
365.1250933027799
 21
30.49751702318123
 31
0.0
 12
368.6250933027799
 22
31.08085035651456
 32
0.0
 13
368.6250933027799
 23
31.08085035651456
 33
0.0
  0
SOLID
  5
39F
330
399
100
AcDbEntity
  8
SK2
 62
     7
440
 16777216
370
    13
100
AcDbTrace
 10
192.1250933027798
 20
31.6641836898479
 30
0.0
 11
192.1250933027798
 21
30.49751702318123
 31
0.0
 12
188.6250933027799
 22
31.08085035651456
 32
0.0
 13
188.6250933027799
 23
31.08085035651456
 33
0.0
  0
MTEXT
  5
3A0
330
399
100
AcDbEntity
  8
SK2
 62
     7
440
 16777216
100
AcDbMText
 10
274.4584266361132
 20
35.63085035651456
 30
0.0
 40
3.5
 41
0.0
 46
0.0
 71
     1
 72
     1
  1
\A1;180
  7
cesky
 73
     1
 44
1.0
  0
POINT
  5
3A1
330
399
100
AcDbEntity
  8
Defpoints
 62
     0
440
 16777216
370
    13
100
AcDbPoint
 10
368.6250933027799
 20
0.9420923565145642
 30
0.0
  0
POINT
  5
3A2
330
399
100
AcDbEntity
  8
Defpoints
 62
     0
440
 16777216
370
    13
100
AcDbPoint
 10
188.6250933027799
 20
-15.60790764348545
 30
0.0
  0
POINT
  5
3A3
330
399
100
AcDbEntity
  8
Defpoints
 62
     0
440
 16777216
370
    13
100
AcDbPoint
 10
188.6250933027799
 20
31.08085035651456
 30
0.0
  0
ENDBLK
  5
3A4
330
399
100
AcDbEntity
  8
0
370
    13
100
AcDbBlockEnd
  0
BLOCK
  5
3A6
330
3A5
100
AcDbEntity
  8
0
370
    13
100
AcDbBlockBegin
  2
*D13
 70
     1
 10
0.0
 20
0.0
 30
0.0
  3
*D13
  1

  0
LINE
  5
3A7
330
3A5
100
AcDbEntity
  8
2
  6
Continuous
 62
   254
440
 16777216
370
    13
100
AcDbLine
 10
188.6250933027799
 20
-15.60790764348545
 30
0.0
 11
188.6250933027799
 21
22.43888235651454
 31
0.0
  0
LINE
  5
3A8
330
3A5
100
AcDbEntity
  8
2
  6
Continuous
 62
   254
440
 16777216
370
    13
100
AcDbLine
 10
209.1250933027799
 20
0.9420923565145642
 30
0.0
 11
209.1250933027799
 21
22.43888235651454
 31
0.0
  0
LINE
  5
3A9
330
3A5
100
AcDbEntity
  8
2
  6
Continuous
 62
   254
440
 16777216
370
    13
100
AcDbLine
 10
192.1250933027798
 20
21.43888235651454
 30
0.0
 11
205.6250933027799
 21
21.43888235651454
 31
0.0
  0
SOLID
  5
3AA
330
3A5
100
AcDbEntity
  8
2
 62
   254
440
 16777216
370
    13
100
AcDbTrace
 10
192.1250933027798
 20
22.02221568984787
 30
0.0
 11
192.1250933027798
 21
20.85554902318121
 31
0.0
 12
188.6250933027799
 22
21.43888235651454
 32
0.0
 13
188.6250933027799
 23
21.43888235651454
 33
0.0
  0
SOLID
  5
3AB
330
3A5
100
AcDbEntity
  8
2
 62
   254
440
 16777216
370
    13
100
AcDbTrace
 10
205.6250933027799
 20
22.02221568984787
 30
0.0
 11
205.6250933027799
 21
20.85554902318121
 31
0.0
 12
209.1250933027799
 22
21.43888235651454
 32
0.0
 13
209.1250933027799
 23
21.43888235651454
 33
0.0
  0
MTEXT
  5
3AC
330
3A5
100
AcDbEntity
  8
2
 62
   254
440
 16777216
100
AcDbMText
 10
193.5417599694465
 20
26.65554902318121
 30
0.0
 40
3.5
 41
0.0
 46
0.0
 71
     1
 72
     1
  1
\A1;20,5
  7
cesky
 73
     1
 44
1.0
  0
POINT
  5
3AD
330
3A5
100
AcDbEntity
  8
Defpoints
 62
     0
440
 16777216
370
    13
100
AcDbPoint
 10
188.6250933027799
 20
-15.60790764348545
 30
0.0
  0
POINT
  5
3AE
330
3A5
100
AcDbEntity
  8
Defpoints
 62
     0
440
 16777216
370
    13
100
AcDbPoint
 10
209.1250933027799
 20
0.9420923565145642
 30
0.0
  0
POINT
  5
3AF
330
3A5
100
AcDbEntity
  8
Defpoints
 62
     0
440
 16777216
370
    13
100
AcDbPoint
 10
209.1250933027799
 20
21.43888235651454
 30
0.0
  0
ENDBLK
  5
3B0
330
3A5
100
AcDbEntity
  8
0
370
    13
100
AcDbBlockEnd
  0
BLOCK
  5
3B2
330
3B1
100
AcDbEntity
  8
0
370
    13
100
AcDbBlockBegin
  2
*D14
 70
     1
 10
0.0
 20
0.0
 30
0.0
  3
*D14
  1

  0
LINE
  5
3B3
330
3B1
100
AcDbEntity
  8
2
  6
Continuous
 62
   254
440
 16777216
370
    13
100
AcDbLine
 10
200.26388130278
 20
-12.05790764348544
 30
0.0
 11
167.9040583027799
 21
-12.05790764348545
 31
0.0
  0
LINE
  5
3B4
330
3B1
100
AcDbEntity
  8
2
  6
Continuous
 62
   254
440
 16777216
370
    13
100
AcDbLine
 10
202.70720780278
 20
13.94209235651457
 30
0.0
 11
167.9040583027799
 21
13.94209235651456
 31
0.0
  0
LINE
  5
3B5
330
3B1
100
AcDbEntity
  8
2
  6
Continuous
 62
   254
440
 16777216
370
    13
100
AcDbLine
 10
168.9040583027798
 20
-8.557907643485446
 30
0.0
 11
168.9040583027798
 21
10.44209235651456
 31
0.0
  0
SOLID
  5
3B6
330
3B1
100
AcDbEntity
  8
2
 62
   254
440
 16777216
370
    13
100
AcDbTrace
 10
168.3207249694465
 20
-8.557907643485446
 30
0.0
 11
169.4873916361132
 21
-8.557907643485446
 31
0.0
 12
168.9040583027798
 22
-12.05790764348545
 32
0.0
 13
168.9040583027798
 23
-12.05790764348545
 33
0.0
  0
SOLID
  5
3B7
330
3B1
100
AcDbEntity
  8
2
 62
   254
440
 16777216
370
    13
100
AcDbTrace
 10
168.3207249694465
 20
10.44209235651456
 30
0.0
 11
169.4873916361132
 21
10.44209235651456
 31
0.0
 12
168.9040583027798
 22
13.94209235651456
 32
0.0
 13
168.9040583027798
 23
13.94209235651456
 33
0.0
  0
MTEXT
  5
3B8
330
3B1
100
AcDbEntity
  8
2
 62
   254
440
 16777216
100
AcDbMText
 10
164.3540583027798
 20
-2.997669548247339
 30
0.0
 40
3.5
 41
0.0
 46
0.0
 71
     1
 72
     1
  1
\A1;\C254;\H2.63;%%c\H3.50;26
  7
cesky
 11
0.0000000000000001
 21
1.0
 31
0.0
 73
     1
 44
1.0
  0
POINT
  5
3B9
330
3B1
100
AcDbEntity
  8
Defpoints
 62
     0
440
 16777216
370
    13
100
AcDbPoint
 10
200.26388130278
 20
-12.05790764348544
 30
0.0
  0
POINT
  5
3BA
330
3B1
100
AcDbEntity
  8
Defpoints
 62
     0
440
 16777216
370
    13
100
AcDbPoint
 10
202.70720780278
 20
13.94209235651457
 30
0.0
  0
POINT
  5
3BB
330
3B1
100
AcDbEntity
  8
Defpoints
 62
     0
440
 16777216
370
    13
100
AcDbPoint
 10
168.9040583027798
 20
13.94209235651456
 30
0.0
  0
ENDBLK
  5
3BC
330
3B1
100
AcDbEntity
  8
0
370
    13
100
AcDbBlockEnd
  0
BLOCK
  5
3BE
330
3BD
100
AcDbEntity
  8
0
370
    13
100
AcDbBlockBegin
  2
*D15
 70
     1
 10
0.0
 20
0.0
 30
0.0
  3
*D15
  1

  0
LINE
  5
3BF
330
3BD
100
AcDbEntity
  8
2
  6
Continuous
 62
   254
440
 16777216
370
    13
100
AcDbLine
 10
208.62509330278
 20
0.9420923565145645
 30
0.0
 11
175.3035065836191
 21
0.9420923565145592
 31
0.0
  0
LINE
  5
3C0
330
3BD
100
AcDbEntity
  8
2
  6
Continuous
 62
   254
440
 16777216
370
    13
100
AcDbLine
 10
188.6250933027799
 20
-15.60790764348545
 30
0.0
 11
175.3035065836191
 21
-15.60790764348546
 31
0.0
  0
LINE
  5
3C1
330
3BD
100
AcDbEntity
  8
2
  6
Continuous
 62
   254
440
 16777216
370
    13
100
AcDbLine
 10
176.3035065836191
 20
-2.557907643485441
 30
0.0
 11
176.3035065836191
 21
-12.10790764348546
 31
0.0
  0
LINE
  5
3C2
330
3BD
100
AcDbEntity
  8
2
  6
Continuous
 62
   254
440
 16777216
370
    13
100
AcDbLine
 10
176.3035065836191
 20
-15.60790764348546
 30
0.0
 11
176.3035065836191
 21
-34.54124097681879
 31
0.0
  0
SOLID
  5
3C3
330
3BD
100
AcDbEntity
  8
2
 62
   254
440
 16777216
370
    13
100
AcDbTrace
 10
175.7201732502858
 20
4.442092356514559
 30
0.0
 11
176.8868399169525
 21
4.442092356514559
 31
0.0
 12
176.3035065836191
 22
0.9420923565145596
 32
0.0
 13
176.3035065836191
 23
0.9420923565145596
 33
0.0
  0
LINE
  5
3C4
330
3BD
100
AcDbEntity
  8
2
 62
   254
440
 16777216
370
    13
100
AcDbLine
 10
176.3035065836191
 20
4.442092356514559
 30
0.0
 11
176.3035065836191
 21
7.94209235651456
 31
0.0
  0
LINE
  5
3C5
330
3BD
100
AcDbEntity
  8
2
  6
Continuous
 62
   254
440
 16777216
370
    13
100
AcDbLine
 10
176.3035065836191
 20
0.9420923565145596
 30
0.0
 11
176.3035065836191
 21
-2.55790764348544
 31
0.0
  0
SOLID
  5
3C6
330
3BD
100
AcDbEntity
  8
2
 62
   254
440
 16777216
370
    13
100
AcDbTrace
 10
175.7201732502858
 20
-19.10790764348545
 30
0.0
 11
176.8868399169525
 21
-19.10790764348545
 31
0.0
 12
176.3035065836191
 22
-15.60790764348546
 32
0.0
 13
176.3035065836191
 23
-15.60790764348546
 33
0.0
  0
LINE
  5
3C7
330
3BD
100
AcDbEntity
  8
2
 62
   254
440
 16777216
370
    13
100
AcDbLine
 10
176.3035065836191
 20
-19.10790764348545
 30
0.0
 11
176.3035065836191
 21
-22.60790764348546
 31
0.0
  0
LINE
  5
3C8
330
3BD
100
AcDbEntity
  8
2
  6
Continuous
 62
   254
440
 16777216
370
    13
100
AcDbLine
 10
176.3035065836191
 20
-15.60790764348546
 30
0.0
 11
176.3035065836191
 21
-12.10790764348546
 31
0.0
  0
MTEXT
  5
3C9
330
3BD
100
AcDbEntity
  8
2
 62
   254
440
 16777216
100
AcDbMText
 10
171.0868399169525
 20
-33.49124097681884
 30
0.0
 40
3.5
 41
0.0
 46
0.0
 71
     1
 72
     1
  1
\A1;16,55
  7
cesky
 11
0.0000000000000001
 21
1.0
 31
0.0
 73
     1
 44
1.0
  0
POINT
  5
3CA
330
3BD
100
AcDbEntity
  8
Defpoints
 62
     0
440
 16777216
370
    13
100
AcDbPoint
 10
208.62509330278
 20
0.9420923565145645
 30
0.0
  0
POINT
  5
3CB
330
3BD
100
AcDbEntity
  8
Defpoints
 62
     0
440
 16777216
370
    13
100
AcDbPoint
 10
188.6250933027799
 20
-15.60790764348545
 30
0.0
  0
POINT
  5
3CC
330
3BD
100
AcDbEntity
  8
Defpoints
 62
     0
440
 16777216
370
    13
100
AcDbPoint
 10
176.3035065836191
 20
-15.60790764348546
 30
0.0
  0
ENDBLK
  5
3CD
330
3BD
100
AcDbEntity
  8
0
370
    13
100
AcDbBlockEnd
  0
BLOCK
  5
3CF
330
3CE
100
AcDbEntity
  8
0
370
    13
100
AcDbBlockBegin
  2
*D16
 70
     1
 10
0.0
 20
0.0
 30
0.0
  3
*D16
  1

  0
LINE
  5
3D0
330
3CE
100
AcDbEntity
  8
SK2
  6
Continuous
 62
     7
440
 16777216
370
    13
100
AcDbLine
 10
366.62509330278
 20
13.44209235651457
 30
0.0
 11
384.9136591959911
 21
13.44209235651457
 31
0.0
  0
LINE
  5
3D1
330
3CE
100
AcDbEntity
  8
SK2
  6
Continuous
 62
     7
440
 16777216
370
    13
100
AcDbLine
 10
383.913659195991
 20
9.942092356514571
 30
0.0
 11
383.913659195991
 21
-3.774574483845011
 31
0.0
  0
SOLID
  5
3D2
330
3CE
100
AcDbEntity
  8
SK2
 62
     7
440
 16777216
370
    13
100
AcDbTrace
 10
383.3303258626577
 20
9.942092356514571
 30
0.0
 11
384.4969925293244
 21
9.942092356514571
 31
0.0
 12
383.913659195991
 22
13.44209235651457
 32
0.0
 13
383.913659195991
 23
13.44209235651457
 33
0.0
  0
MTEXT
  5
3D3
330
3CE
100
AcDbEntity
  8
SK2
 62
     7
440
 16777216
100
AcDbMText
 10
381.113659195991
 20
1.692092182821547
 30
0.0
 40
3.5
 41
0.0
 46
0.0
 71
     5
 72
     1
  1
\A1;%%C25
  7
cesky
 11
0.0000000000000001
 21
1.0
 31
0.0
 73
     1
 44
1.0
  0
POINT
  5
3D4
330
3CE
100
AcDbEntity
  8
Defpoints
 62
     0
440
 16777216
370
    13
100
AcDbPoint
 10
366.62509330278
 20
13.44209235651457
 30
0.0
  0
POINT
  5
3D5
330
3CE
100
AcDbEntity
  8
Defpoints
 62
     0
440
 16777216
370
    13
100
AcDbPoint
 10
366.6250933260046
 20
-10.05790799087126
 30
0.0
  0
POINT
  5
3D6
330
3CE
100
AcDbEntity
  8
Defpoints
 62
     0
440
 16777216
370
    13
100
AcDbPoint
 10
383.913659195991
 20
-10.05790799087126
 30
0.0
  0
ENDBLK
  5
3D7
330
3CE
100
AcDbEntity
  8
0
370
    13
100
AcDbBlockEnd
  0
BLOCK
  5
50B
330
50A
100
AcDbEntity
  8
0
370
    13
100
AcDbBlockBegin
  2
*D18
 70
     1
 10
0.0
 20
0.0
 30
0.0
  3
*D18
  1

  0
LINE
  5
571
330
50A
100
AcDbEntity
  8
SK2
  6
Continuous
 62
     7
440
 16777216
370
    13
100
AcDbLine
 10
159.5
 20
0.0
 30
0.0
 11
159.5
 21
31.138758
 31
0.0
  0
LINE
  5
572
330
50A
100
AcDbEntity
  8
SK2
  6
Continuous
 62
     7
440
 16777216
370
    13
100
AcDbLine
 10
-20.5
 20
-16.55000000000001
 30
0.0
 11
-20.5
 21
31.138758
 31
0.0
  0
LINE
  5
573
330
50A
100
AcDbEntity
  8
SK2
  6
Continuous
 62
     7
440
 16777216
370
    13
100
AcDbLine
 10
156.0
 20
30.138758
 30
0.0
 11
-17.0
 21
30.138758
 31
0.0
  0
SOLID
  5
574
330
50A
100
AcDbEntity
  8
SK2
 62
     7
440
 16777216
370
    13
100
AcDbTrace
 10
156.0
 20
30.72209133333333
 30
0.0
 11
156.0
 21
29.55542466666667
 31
0.0
 12
159.5
 22
30.138758
 32
0.0
 13
159.5
 23
30.138758
 33
0.0
  0
SOLID
  5
575
330
50A
100
AcDbEntity
  8
SK2
 62
     7
440
 16777216
370
    13
100
AcDbTrace
 10
-17.0
 20
30.72209133333333
 30
0.0
 11
-17.0
 21
29.55542466666667
 31
0.0
 12
-20.5
 22
30.138758
 32
0.0
 13
-20.5
 23
30.138758
 33
0.0
  0
MTEXT
  5
576
330
50A
100
AcDbEntity
  8
SK2
 62
     7
440
 16777216
100
AcDbMText
 10
65.33333333333333
 20
34.68875799999999
 30
0.0
 40
3.5
 41
0.0
 46
0.0
 71
     1
 72
     1
  1
\A1;180
  7
cesky
 73
     1
 44
1.0
  0
POINT
  5
577
330
50A
100
AcDbEntity
  8
Defpoints
 62
     0
440
 16777216
370
    13
100
AcDbPoint
 10
159.5
 20
0.0
 30
0.0
  0
POINT
  5
578
330
50A
100
AcDbEntity
  8
Defpoints
 62
     0
440
 16777216
370
    13
100
AcDbPoint
 10
-20.5
 20
-16.55000000000001
 30
0.0
  0
POINT
  5
579
330
50A
100
AcDbEntity
  8
Defpoints
 62
     0
440
 16777216
370
    13
100
AcDbPoint
 10
-20.5
 20
30.138758
 30
0.0
  0
ENDBLK
  5
50C
330
50A
100
AcDbEntity
  8
0
370
    13
100
AcDbBlockEnd
  0
BLOCK
  5
517
330
516
100
AcDbEntity
  8
0
370
    13
100
AcDbBlockBegin
  2
*D19
 70
     1
 10
0.0
 20
0.0
 30
0.0
  3
*D19
  1

  0
LINE
  5
57A
330
516
100
AcDbEntity
  8
2
  6
Continuous
 62
   254
440
 16777216
370
    13
100
AcDbLine
 10
-20.5
 20
-16.55000000000001
 30
0.0
 11
-20.5
 21
21.49678999999998
 31
0.0
  0
LINE
  5
57B
330
516
100
AcDbEntity
  8
2
  6
Continuous
 62
   254
440
 16777216
370
    13
100
AcDbLine
 10
0.0
 20
0.0
 30
0.0
 11
0.0000000000000013
 21
21.49678999999998
 31
0.0
  0
LINE
  5
57C
330
516
100
AcDbEntity
  8
2
  6
Continuous
 62
   254
440
 16777216
370
    13
100
AcDbLine
 10
-17.0
 20
20.49678999999998
 30
0.0
 11
-3.499999999999998
 21
20.49678999999998
 31
0.0
  0
SOLID
  5
57D
330
516
100
AcDbEntity
  8
2
 62
   254
440
 16777216
370
    13
100
AcDbTrace
 10
-17.0
 20
21.08012333333331
 30
0.0
 11
-17.0
 21
19.91345666666664
 31
0.0
 12
-20.5
 22
20.49678999999998
 32
0.0
 13
-20.5
 23
20.49678999999998
 33
0.0
  0
SOLID
  5
57E
330
516
100
AcDbEntity
  8
2
 62
   254
440
 16777216
370
    13
100
AcDbTrace
 10
-3.499999999999998
 20
21.08012333333331
 30
0.0
 11
-3.499999999999998
 21
19.91345666666664
 31
0.0
 12
0.0000000000000013
 22
20.49678999999998
 32
0.0
 13
0.0000000000000013
 23
20.49678999999998
 33
0.0
  0
MTEXT
  5
57F
330
516
100
AcDbEntity
  8
2
 62
   254
440
 16777216
100
AcDbMText
 10
-15.58333333333333
 20
25.71345666666664
 30
0.0
 40
3.5
 41
0.0
 46
0.0
 71
     1
 72
     1
  1
\A1;20,5
  7
cesky
 73
     1
 44
1.0
  0
POINT
  5
580
330
516
100
AcDbEntity
  8
Defpoints
 62
     0
440
 16777216
370
    13
100
AcDbPoint
 10
-20.5
 20
-16.55000000000001
 30
0.0
  0
POINT
  5
581
330
516
100
AcDbEntity
  8
Defpoints
 62
     0
440
 16777216
370
    13
100
AcDbPoint
 10
0.0
 20
0.0
 30
0.0
  0
POINT
  5
582
330
516
100
AcDbEntity
  8
Defpoints
 62
     0
440
 16777216
370
    13
100
AcDbPoint
 10
0.0000000000000013
 20
20.49678999999998
 30
0.0
  0
ENDBLK
  5
518
330
516
100
AcDbEntity
  8
0
370
    13
100
AcDbBlockEnd
  0
BLOCK
  5
523
330
522
100
AcDbEntity
  8
0
370
    13
100
AcDbBlockBegin
  2
*D20
 70
     1
 10
0.0
 20
0.0
 30
0.0
  3
*D20
  1

  0
LINE
  5
58C
330
522
100
AcDbEntity
  8
2
  6
Continuous
 62
   254
440
 16777216
370
    13
100
AcDbLine
 10
-0.5000000000000002
 20
0.0
 30
0.0
 11
-33.8215867191608
 21
-0.0000000000000054
 31
0.0
  0
LINE
  5
58D
330
522
100
AcDbEntity
  8
2
  6
Continuous
 62
   254
440
 16777216
370
    13
100
AcDbLine
 10
-20.50000000000001
 20
-16.55000000000002
 30
0.0
 11
-33.82158671916079
 21
-16.55000000000002
 31
0.0
  0
LINE
  5
58E
330
522
100
AcDbEntity
  8
2
  6
Continuous
 62
   254
440
 16777216
370
    13
100
AcDbLine
 10
-32.8215867191608
 20
-3.500000000000005
 30
0.0
 11
-32.8215867191608
 21
-13.05000000000002
 31
0.0
  0
LINE
  5
58F
330
522
100
AcDbEntity
  8
2
  6
Continuous
 62
   254
440
 16777216
370
    13
100
AcDbLine
 10
-32.82158671916079
 20
-16.55000000000002
 30
0.0
 11
-32.82158671916079
 21
-35.48333333333351
 31
0.0
  0
SOLID
  5
590
330
522
100
AcDbEntity
  8
2
 62
   254
440
 16777216
370
    13
100
AcDbTrace
 10
-33.40492005249414
 20
3.499999999999995
 30
0.0
 11
-32.23825338582746
 21
3.499999999999996
 31
0.0
 12
-32.8215867191608
 22
-0.0000000000000052
 32
0.0
 13
-32.8215867191608
 23
-0.0000000000000052
 33
0.0
  0
LINE
  5
591
330
522
100
AcDbEntity
  8
2
 62
   254
440
 16777216
370
    13
100
AcDbLine
 10
-32.8215867191608
 20
3.499999999999996
 30
0.0
 11
-32.8215867191608
 21
6.999999999999996
 31
0.0
  0
LINE
  5
592
330
522
100
AcDbEntity
  8
2
  6
Continuous
 62
   254
440
 16777216
370
    13
100
AcDbLine
 10
-32.8215867191608
 20
-0.0000000000000052
 30
0.0
 11
-32.8215867191608
 21
-3.500000000000005
 31
0.0
  0
SOLID
  5
593
330
522
100
AcDbEntity
  8
2
 62
   254
440
 16777216
370
    13
100
AcDbTrace
 10
-33.40492005249413
 20
-20.05000000000002
 30
0.0
 11
-32.23825338582746
 21
-20.05000000000002
 31
0.0
 12
-32.82158671916079
 22
-16.55000000000002
 32
0.0
 13
-32.82158671916079
 23
-16.55000000000002
 33
0.0
  0
LINE
  5
594
330
522
100
AcDbEntity
  8
2
 62
   254
440
 16777216
370
    13
100
AcDbLine
 10
-32.82158671916079
 20
-20.05000000000002
 30
0.0
 11
-32.82158671916079
 21
-23.55000000000002
 31
0.0
  0
LINE
  5
595
330
522
100
AcDbEntity
  8
2
  6
Continuous
 62
   254
440
 16777216
370
    13
100
AcDbLine
 10
-32.82158671916079
 20
-16.55000000000002
 30
0.0
 11
-32.8215867191608
 21
-13.05000000000002
 31
0.0
  0
MTEXT
  5
596
330
522
100
AcDbEntity
  8
2
 62
   254
440
 16777216
100
AcDbMText
 10
-38.03825338582746
 20
-34.43333333333349
 30
0.0
 40
3.5
 41
0.0
 46
0.0
 71
     1
 72
     1
  1
\A1;16,55
  7
cesky
 11
0.0000000000000001
 21
1.0
 31
0.0
 73
     1
 44
1.0
  0
POINT
  5
597
330
522
100
AcDbEntity
  8
Defpoints
 62
     0
440
 16777216
370
    13
100
AcDbPoint
 10
-0.5000000000000002
 20
0.0
 30
0.0
  0
POINT
  5
598
330
522
100
AcDbEntity
  8
Defpoints
 62
     0
440
 16777216
370
    13
100
AcDbPoint
 10
-20.50000000000001
 20
-16.55000000000002
 30
0.0
  0
POINT
  5
599
330
522
100
AcDbEntity
  8
Defpoints
 62
     0
440
 16777216
370
    13
100
AcDbPoint
 10
-32.82158671916079
 20
-16.55000000000002
 30
0.0
  0
ENDBLK
  5
524
330
522
100
AcDbEntity
  8
0
370
    13
100
AcDbBlockEnd
  0
BLOCK
  5
546
330
545
100
AcDbEntity
  8
0
370
    13
100
AcDbBlockBegin
  2
*D21
 70
     1
 10
0.0
 20
0.0
 30
0.0
  3
*D21
  1

  0
LINE
  5
583
330
545
100
AcDbEntity
  8
2
  6
Continuous
 62
   254
440
 16777216
370
    13
100
AcDbLine
 10
-8.861212000000026
 20
-13.0
 30
0.0
 11
-41.22103500000004
 21
-13.00000000000001
 31
0.0
  0
LINE
  5
584
330
545
100
AcDbEntity
  8
2
  6
Continuous
 62
   254
440
 16777216
370
    13
100
AcDbLine
 10
-6.417885500000014
 20
13.0
 30
0.0
 11
-41.22103500000004
 21
13.0
 31
0.0
  0
LINE
  5
585
330
545
100
AcDbEntity
  8
2
  6
Continuous
 62
   254
440
 16777216
370
    13
100
AcDbLine
 10
-40.22103500000003
 20
-9.50000000000001
 30
0.0
 11
-40.22103500000003
 21
9.5
 31
0.0
  0
SOLID
  5
586
330
545
100
AcDbEntity
  8
2
 62
   254
440
 16777216
370
    13
100
AcDbTrace
 10
-40.80436833333337
 20
-9.50000000000001
 30
0.0
 11
-39.6377016666667
 21
-9.50000000000001
 31
0.0
 12
-40.22103500000003
 22
-13.00000000000001
 32
0.0
 13
-40.22103500000003
 23
-13.00000000000001
 33
0.0
  0
SOLID
  5
587
330
545
100
AcDbEntity
  8
2
 62
   254
440
 16777216
370
    13
100
AcDbTrace
 10
-40.80436833333337
 20
9.5
 30
0.0
 11
-39.6377016666667
 21
9.5
 31
0.0
 12
-40.22103500000003
 22
13.0
 32
0.0
 13
-40.22103500000003
 23
13.0
 33
0.0
  0
MTEXT
  5
588
330
545
100
AcDbEntity
  8
2
 62
   254
440
 16777216
100
AcDbMText
 10
-44.77103500000002
 20
-3.939761904761903
 30
0.0
 40
3.5
 41
0.0
 46
0.0
 71
     1
 72
     1
  1
\A1;\C254;\H2.63;%%c\H3.50;26
  7
cesky
 11
0.0000000000000001
 21
1.0
 31
0.0
 73
     1
 44
1.0
  0
POINT
  5
589
330
545
100
AcDbEntity
  8
Defpoints
 62
     0
440
 16777216
370
    13
100
AcDbPoint
 10
-8.861212000000026
 20
-13.0
 30
0.0
  0
POINT
  5
58A
330
545
100
AcDbEntity
  8
Defpoints
 62
     0
440
 16777216
370
    13
100
AcDbPoint
 10
-6.417885500000014
 20
13.0
 30
0.0
  0
POINT
  5
58B
330
545
100
AcDbEntity
  8
Defpoints
 62
     0
440
 16777216
370
    13
100
AcDbPoint
 10
-40.22103500000003
 20
13.0
 30
0.0
  0
ENDBLK
  5
547
330
545
100
AcDbEntity
  8
0
370
    13
100
AcDbBlockEnd
  0
BLOCK
  5
560
330
55F
100
AcDbEntity
  8
0
370
    13
100
AcDbBlockBegin
  2
*D22
 70
     1
 10
0.0
 20
0.0
 30
0.0
  3
*D22
  1

  0
LINE
  5
59A
330
55F
100
AcDbEntity
  8
SK2
  6
Continuous
 62
     7
440
 16777216
370
    13
100
AcDbLine
 10
157.5
 20
12.50000000000001
 30
0.0
 11
175.7885658932113
 21
12.50000000000001
 31
0.0
  0
LINE
  5
59B
330
55F
100
AcDbEntity
  8
SK2
  6
Continuous
 62
     7
440
 16777216
370
    13
100
AcDbLine
 10
174.7885658932113
 20
9.000000000000007
 30
0.0
 11
174.7885658932113
 21
-4.716666840359575
 31
0.0
  0
SOLID
  5
59C
330
55F
100
AcDbEntity
  8
SK2
 62
     7
440
 16777216
370
    13
100
AcDbTrace
 10
174.205232559878
 20
9.000000000000007
 30
0.0
 11
175.3718992265446
 21
9.000000000000007
 31
0.0
 12
174.7885658932113
 22
12.50000000000001
 32
0.0
 13
174.7885658932113
 23
12.50000000000001
 33
0.0
  0
MTEXT
  5
59D
330
55F
100
AcDbEntity
  8
SK2
 62
     7
440
 16777216
100
AcDbMText
 10
171.9885658932113
 20
0.7499998263070426
 30
0.0
 40
3.5
 41
0.0
 46
0.0
 71
     5
 72
     1
  1
\A1;%%C25
  7
cesky
 11
0.0000000000000001
 21
1.0
 31
0.0
 73
     1
 44
1.0
  0
POINT
  5
59E
330
55F
100
AcDbEntity
  8
Defpoints
 62
     0
440
 16777216
370
    13
100
AcDbPoint
 10
157.5
 20
12.50000000000001
 30
0.0
  0
POINT
  5
59F
330
55F
100
AcDbEntity
  8
Defpoints
 62
     0
440
 16777216
370
    13
100
AcDbPoint
 10
157.5000000232247
 20
-11.00000034738582
 30
0.0
  0
POINT
  5
5A0
330
55F
100
AcDbEntity
  8
Defpoints
 62
     0
440
 16777216
370
    13
100
AcDbPoint
 10
174.7885658932113
 20
-11.00000034738582
 30
0.0
  0
ENDBLK
  5
561
330
55F
100
AcDbEntity
  8
0
370
    13
100
AcDbBlockEnd
  0
ENDSEC
  0
SECTION
  2
ENTITIES
  0
POINT
  5
73
330
1F
100
AcDbEntity
  8
0
  6
Continuous
 62
   153
 60
     1
370
    18
100
AcDbPoint
 10
228.709205
 20
294.97449
 30
0.0
  0
POINT
  5
78
330
1F
100
AcDbEntity
  8
0
  6
Continuous
 62
     2
 60
     1
370
    13
100
AcDbPoint
 10
193.709205
 20
302.42449
 30
0.0
  0
POINT
  5
7A
330
1F
100
AcDbEntity
  8
0
  6
Continuous
 62
     2
 60
     1
370
    13
100
AcDbPoint
 10
174.079205
 20
302.42449
 30
0.0
  0
POINT
  5
7B
330
1F
100
AcDbEntity
  8
0
  6
Continuous
 62
    15
 60
     1
370
    13
100
AcDbPoint
 10
194.209205
 20
302.42449
 30
0.0
  0
POINT
  5
7C
330
1F
100
AcDbEntity
  8
0
  6
Continuous
 62
    15
 60
     1
370
    13
100
AcDbPoint
 10
351.709205
 20
302.42449
 30
0.0
  0
POINT
  5
7D
330
1F
100
AcDbEntity
  8
0
  6
Continuous
 62
     5
 60
     1
370
    13
100
AcDbPoint
 10
353.709205
 20
302.42449
 30
0.0
  0
LINE
  5
47F
330
1F
100
AcDbEntity
  8
SK1
100
AcDbLine
 10
159.0
 20
-11.0
 30
0.0
 11
159.5
 21
-10.5
 31
0.0
  0
LINE
  5
480
330
1F
100
AcDbEntity
  8
1
100
AcDbLine
 10
-15.43091700000002
 20
-9.587662999999963
 30
0.0
 11
-15.47561299999995
 21
-10.04501400000004
 31
0.0
  0
LINE
  5
481
330
1F
100
AcDbEntity
  8
1
100
AcDbLine
 10
-16.24098800000001
 20
-9.920558000000028
 30
0.0
 11
-16.19620199999997
 21
-9.462279999999964
 31
0.0
  0
LINE
  5
482
330
1F
100
AcDbEntity
  8
1
100
AcDbLine
 10
-14.32957399999998
 20
-8.359933000000012
 30
0.0
 11
-14.37605199999996
 21
-8.835529000000008
 31
0.0
  0
LINE
  5
483
330
1F
100
AcDbEntity
  8
1
100
AcDbLine
 10
-16.92030199999999
 20
-8.392419999999958
 30
0.0
 11
-16.87382400000001
 21
-7.916823999999962
 31
0.0
  0
LINE
  5
484
330
1F
100
AcDbEntity
  8
1
100
AcDbLine
 10
-17.09070099999997
 20
-7.936535999999989
 30
0.0
 11
-17.08442300000001
 21
-7.872296000000005
 31
0.0
  0
LINE
  5
485
330
1F
100
AcDbEntity
  8
1
100
AcDbLine
 10
-15.04595200000006
 20
-7.211051999999995
 30
0.0
 11
-15.05536600000005
 21
-7.307390999999995
 31
0.0
  0
LINE
  5
486
330
1F
100
AcDbEntity
  8
1
100
AcDbLine
 10
-15.82074199999999
 20
-7.182934999999986
 30
0.0
 11
-15.81442099999992
 21
-7.11825600000003
 31
0.0
  0
LINE
  5
487
330
1F
100
AcDbEntity
  8
1
100
AcDbLine
 10
0.0
 20
12.5
 30
0.0
 11
-0.5
 21
13.0
 31
0.0
  0
LINE
  5
488
330
1F
100
AcDbEntity
  8
1
100
AcDbLine
 10
-12.33577100000002
 20
13.0
 30
0.0
 11
-15.92510400000003
 21
10.92769800000002
 31
0.0
  0
LINE
  5
489
102
{ACAD_REACTORS
330
505
102
}
330
1F
100
AcDbEntity
  8
1
100
AcDbLine
 10
-0.5
 20
13.0
 30
0.0
 11
-12.33577100000002
 21
13.0
 31
0.0
  0
LINE
  5
48A
330
1F
100
AcDbEntity
  8
1
100
AcDbLine
 10
-20.12999999999999
 20
8.5
 30
0.0
 11
-15.92510400000003
 21
10.92769800000002
 31
0.0
  0
LINE
  5
48B
330
1F
100
AcDbEntity
  8
1
100
AcDbLine
 10
-20.12999999999999
 20
8.5
 30
0.0
 11
-20.12999999999999
 21
-0.8076019999999743
 31
0.0
  0
LINE
  5
48C
330
1F
100
AcDbEntity
  8
1
100
AcDbLine
 10
-20.12999999999999
 20
-0.8076019999999743
 30
0.0
 11
-10.27824199999997
 21
-6.205125000000009
 31
0.0
  0
LINE
  5
48D
330
1F
100
AcDbEntity
  8
1
100
AcDbLine
 10
-10.27824199999997
 20
-6.205125000000009
 30
0.0
 11
-8.277862000000027
 21
-5.074298999999996
 31
0.0
  0
LINE
  5
48E
330
1F
100
AcDbEntity
  8
1
100
AcDbLine
 10
-7.40629100000001
 20
-12.98451
 30
0.0
 11
-14.13382699999999
 21
-12.98451
 31
0.0
  0
LINE
  5
48F
330
1F
100
AcDbEntity
  8
1
100
AcDbLine
 10
-7.40629100000001
 20
-12.98451
 30
0.0
 11
0.0
 21
-11.0
 31
0.0
  0
LINE
  5
490
330
1F
100
AcDbEntity
  8
1
100
AcDbLine
 10
0.0
 20
10.41941000000003
 30
0.0
 11
0.0
 21
-11.0
 31
0.0
  0
LINE
  5
491
330
1F
100
AcDbEntity
  8
SK1
100
AcDbLine
 10
12.66153299999996
 20
-11.0
 30
0.0
 11
0.0
 21
-11.0
 31
0.0
  0
LINE
  5
492
330
1F
100
AcDbEntity
  8
1
100
AcDbLine
 10
0.0
 20
12.5
 30
0.0
 11
0.0
 21
10.41941000000003
 31
0.0
  0
LINE
  5
493
330
1F
100
AcDbEntity
  8
1
100
AcDbLine
 10
-16.96575300000006
 20
-7.604762999999991
 30
0.0
 11
-17.00833
 21
-8.040435999999999
 31
0.0
  0
LINE
  5
494
330
1F
100
AcDbEntity
  8
1
100
AcDbLine
 10
-6.121710000000007
 20
-6.821762000000035
 30
0.0
 11
-6.883165000000076
 21
-7.247506999999984
 31
0.0
  0
LINE
  5
495
330
1F
100
AcDbEntity
  8
1
100
AcDbLine
 10
-14.76230699999996
 20
-9.776962000000025
 30
0.0
 11
-14.71760600000004
 21
-9.319554999999979
 31
0.0
  0
LINE
  5
496
330
1F
100
AcDbEntity
  8
1
100
AcDbLine
 10
-14.72716500000001
 20
-9.811814999999967
 30
0.0
 11
-14.68292299999996
 21
-9.359105999999997
 31
0.0
  0
LINE
  5
497
330
1F
100
AcDbEntity
  8
1
100
AcDbLine
 10
-16.84646299999997
 20
-9.036995999999987
 30
0.0
 11
-16.89067499999999
 21
-9.489397999999994
 31
0.0
  0
LINE
  5
498
330
1F
100
AcDbEntity
  8
1
100
AcDbLine
 10
-16.79758600000002
 20
-9.007478999999989
 30
0.0
 11
-16.84229700000003
 21
-9.464985000000012
 31
0.0
  0
LINE
  5
499
330
1F
100
AcDbEntity
  8
1
100
AcDbLine
 10
-14.17603199999996
 20
-8.463919999999973
 30
0.0
 11
-14.13125400000001
 21
-8.005731000000025
 31
0.0
  0
LINE
  5
49A
330
1F
100
AcDbEntity
  8
1
100
AcDbLine
 10
-14.09072300000002
 20
-8.429647999999986
 30
0.0
 11
-14.06067500000006
 21
-8.122188999999991
 31
0.0
  0
LINE
  5
49B
330
1F
100
AcDbEntity
  8
1
100
AcDbLine
 10
-18.35985300000004
 20
-8.087762999999995
 30
0.0
 11
-18.37685999999996
 21
-8.261783999999977
 31
0.0
  0
LINE
  5
49C
330
1F
100
AcDbEntity
  8
1
100
AcDbLine
 10
-12.90293699999995
 20
-8.796735000000012
 30
0.0
 11
-12.88593000000003
 21
-8.62271400000003
 31
0.0
  0
LINE
  5
49D
330
1F
100
AcDbEntity
  8
1
100
AcDbLine
 10
-18.35985300000004
 20
-8.087762999999995
 30
0.0
 11
-18.35987799999998
 21
-8.088015999999981
 31
0.0
  0
LINE
  5
49E
330
1F
100
AcDbEntity
  8
1
100
AcDbLine
 10
-20.51944600000002
 20
0.3303879999999708
 30
0.0
 11
-20.61173799999995
 21
-0.6139989999999785
 31
0.0
  0
LINE
  5
49F
330
1F
100
AcDbEntity
  8
1
100
AcDbLine
 10
-6.180972999999994
 20
-7.63761199999999
 30
0.0
 11
-6.273265000000037
 21
-8.581999999999993
 31
0.0
  0
LINE
  5
4A0
330
1F
100
AcDbEntity
  8
1
100
AcDbLine
 10
-6.180972999999994
 20
-7.63761199999999
 30
0.0
 11
-9.525197999999932
 21
-5.779201
 31
0.0
  0
LINE
  5
4A1
330
1F
100
AcDbEntity
  8
1
100
AcDbLine
 10
-20.12984300000005
 20
0.1138829999999871
 30
0.0
 11
-20.51944600000002
 21
0.3303879999999708
 31
0.0
  0
LINE
  5
4A2
330
1F
100
AcDbEntity
  8
CUT
100
AcDbLine
 10
-20.61173799999995
 20
-0.6139989999999785
 30
0.0
 11
-6.273265000000037
 21
-8.581999999999993
 31
0.0
  0
LINE
  5
4A3
330
1F
100
AcDbEntity
  8
CUT
100
AcDbLine
 10
-20.5
 20
-16.55000000000001
 30
0.0
 11
-20.61173799999995
 21
-0.6139989999999785
 31
0.0
  0
LINE
  5
4A4
330
1F
100
AcDbEntity
  8
CUT
100
AcDbLine
 10
-6.273265000000037
 20
-8.581999999999993
 30
0.0
 11
-20.5
 21
-16.55000000000001
 31
0.0
  0
LINE
  5
4A5
330
1F
100
AcDbEntity
  8
1
100
AcDbLine
 10
-6.273265000000037
 20
-8.581999999999993
 30
0.0
 11
-20.61173799999995
 21
-0.6139989999999785
 31
0.0
  0
LINE
  5
4A6
330
1F
100
AcDbEntity
  8
1
100
AcDbLine
 10
-20.5
 20
-16.55000000000001
 30
0.0
 11
-6.273265000000037
 21
-8.581999999999993
 31
0.0
  0
LINE
  5
4A7
330
1F
100
AcDbEntity
  8
1
100
AcDbLine
 10
-20.61173799999995
 20
-0.6139989999999785
 30
0.0
 11
-20.5
 21
-16.55000000000001
 31
0.0
  0
LINE
  5
4A8
330
1F
100
AcDbEntity
  8
SK1
100
AcDbLine
 10
159.5
 20
10.5
 30
0.0
 11
159.5
 21
-10.5
 31
0.0
  0
LINE
  5
4A9
330
1F
100
AcDbEntity
  8
SK1
100
AcDbLine
 10
159.5
 20
10.5
 30
0.0
 11
157.5
 21
12.5
 31
0.0
  0
LINE
  5
4AA
102
{ACAD_REACTORS
330
509
102
}
330
1F
100
AcDbEntity
  8
SK1
100
AcDbLine
 10
157.5
 20
12.5
 30
0.0
 11
0.0
 21
12.5
 31
0.0
  0
LINE
  5
4AB
330
1F
100
AcDbEntity
  8
SK1
100
AcDbLine
 10
12.66153299999996
 20
-11.0
 30
0.0
 11
157.5
 21
-11.0
 31
0.0
  0
LINE
  5
4AC
330
1F
100
AcDbEntity
  8
NOCUT
100
AcDbLine
 10
-7.406291999999893
 20
-12.98450999999997
 30
0.0
 11
-7.464101999999911
 21
-13.0
 31
0.0
  0
LINE
  5
4AD
330
1F
100
AcDbEntity
  8
NOCUT
100
AcDbLine
 10
-0.5
 20
12.99999999999997
 30
0.0
 11
-12.3357719999999
 21
12.99999999999997
 31
0.0
  0
LINE
  5
4AE
330
1F
100
AcDbEntity
  8
NOCUT
100
AcDbLine
 10
-14.627477
 20
-13.0
 30
0.0
 11
-7.464101999999911
 21
-13.0
 31
0.0
  0
LINE
  5
4AF
330
1F
100
AcDbEntity
  8
NOCUT
100
AcDbLine
 10
-20.12999999999988
 20
8.499999999999971
 30
0.0
 11
-15.92510399999992
 21
10.92769799999999
 31
0.0
  0
LINE
  5
4B0
330
1F
100
AcDbEntity
  8
NOCUT
100
AcDbLine
 10
-20.12999999999988
 20
-0.7946149999999932
 30
0.0
 11
-6.256322999999952
 21
-8.408630999999985
 31
0.0
  0
LINE
  5
4B1
330
1F
100
AcDbEntity
  8
NOCUT
100
AcDbLine
 10
-6.256322999999952
 20
-8.408630999999985
 30
0.0
 11
-14.33725199999992
 21
-12.98450999999997
 31
0.0
  0
LINE
  5
4B2
330
1F
100
AcDbEntity
  8
NOCUT
100
AcDbLine
 10
-7.406291999999893
 20
-12.98450999999997
 30
0.0
 11
0.0
 21
-11.0
 31
0.0
  0
LINE
  5
4B3
330
1F
100
AcDbEntity
  8
NOCUT
100
AcDbLine
 10
0.0
 20
10.41941
 30
0.0
 11
0.0
 21
-11.0
 31
0.0
  0
LINE
  5
4B4
330
1F
100
AcDbEntity
  8
NOCUT
100
AcDbLine
 10
0.0
 20
12.49999999999997
 30
0.0
 11
0.0
 21
10.41941
 31
0.0
  0
LINE
  5
4B5
330
1F
100
AcDbEntity
  8
NOCUT
100
AcDbLine
 10
-20.12999999999988
 20
-10.926559
 30
0.0
 11
-20.12999999999988
 21
-0.7946310000000097
 31
0.0
  0
LINE
  5
4B6
330
1F
100
AcDbEntity
  8
NOCUT
100
AcDbLine
 10
-20.12999999999988
 20
-10.926559
 30
0.0
 11
-19.07878899999991
 21
-12.71338799999998
 31
0.0
  0
LINE
  5
4B7
330
1F
100
AcDbEntity
  8
NOCUT
100
AcDbLine
 10
-6.913644999999974
 20
-8.047961000000015
 30
0.0
 11
-15.27895499999999
 21
-12.73313999999999
 31
0.0
  0
LINE
  5
4B8
330
1F
100
AcDbEntity
  8
NOCUT
100
AcDbLine
 10
0.0
 20
12.49999999999997
 30
0.0
 11
-0.5
 21
12.99999999999997
 31
0.0
  0
LINE
  5
4B9
330
1F
100
AcDbEntity
  8
NOCUT
100
AcDbLine
 10
-12.3357719999999
 20
12.99999999999997
 30
0.0
 11
-15.92510399999992
 21
10.92769799999999
 31
0.0
  0
LINE
  5
4BA
330
1F
100
AcDbEntity
  8
NOCUT
100
AcDbLine
 10
-20.12999999999988
 20
8.499999999999971
 30
0.0
 11
-20.12999999999988
 21
-0.7946149999999932
 31
0.0
  0
LINE
  5
4BB
330
1F
100
AcDbEntity
  8
NOCUT
100
AcDbLine
 10
-7.406291999999893
 20
-12.98450999999997
 30
0.0
 11
-14.33725199999992
 21
-12.98450999999997
 31
0.0
  0
ELLIPSE
  5
4BC
330
1F
100
AcDbEntity
  8
1
100
AcDbEllipse
 10
-7.267092000000047
 20
-6.741465000000005
 30
0.0
 11
2.000639666838043
 21
0.0000000000000023
 31
0.0
210
0.0
220
0.0
230
1.0
 40
0.9656170000000001
 41
5.242029862294547
 42
8.383622515884335
  0
ELLIPSE
  5
4BD
330
1F
100
AcDbEntity
  8
1
100
AcDbEllipse
 10
-7.110183000000006
 20
-5.135876999999993
 30
0.0
 11
1.990517266950802
 21
-0.1945276586264964
 31
0.0
210
0.0
220
0.0
230
1.0
 40
0.9656170000000001
 41
5.323585951068928
 42
5.855794497807769
  0
ELLIPSE
  5
4BE
330
1F
100
AcDbEntity
  8
1
100
AcDbEllipse
 10
-15.62289199999998
 20
-8.355237999999985
 30
0.0
 11
-2.736961242057353
 21
0.2674755306114333
 31
0.0
210
0.0
220
0.0
230
1.0
 40
0.9656170000000001
 41
3.141590157215538
 42
4.659372279295666
  0
ELLIPSE
  5
4BF
330
1F
100
AcDbEntity
  8
1
100
AcDbEllipse
 10
-15.62289199999998
 20
-8.355237999999985
 30
0.0
 11
-2.736961242057353
 21
0.2674755306114333
 31
0.0
210
0.0
220
0.0
230
1.0
 40
0.9656170000000001
 41
4.659372279295667
 42
6.283185307179585
  0
ELLIPSE
  5
4C0
330
1F
100
AcDbEntity
  8
1
100
AcDbEllipse
 10
-15.91560700000002
 20
-7.17366400000003
 30
0.0
 11
-0.0948654876742348
 21
0.0092709375136437
 31
0.0
210
0.0
220
0.0
230
1.0
 40
0.9656170000000001
 41
2.67364332888705
 42
3.350375245767646
  0
ELLIPSE
  5
4C1
330
1F
100
AcDbEntity
  8
1
100
AcDbEllipse
 10
-15.72628599999996
 20
-7.15382999999997
 30
0.0
 11
-0.0948654876742346
 21
0.0092709375136437
 31
0.0
210
0.0
220
0.0
230
1.0
 40
0.9656170000000001
 41
5.291637206878669
 42
6.491967899357501
  0
ELLIPSE
  5
4C2
330
1F
100
AcDbEntity
  8
1
100
AcDbEllipse
 10
-15.49058500000001
 20
-7.587367999999969
 30
0.0
 11
-0.5980453549634383
 21
0.0584452918771718
 31
0.0
210
0.0
220
0.0
230
1.0
 40
0.9656170000000001
 41
4.027107162648285
 42
5.291637206878521
  0
ELLIPSE
  5
4C3
330
1F
100
AcDbEntity
  8
1
100
AcDbEllipse
 10
-15.13536299999998
 20
-7.242301999999995
 30
0.0
 11
-0.0948654876742368
 21
0.0092709375136439
 31
0.0
210
0.0
220
0.0
230
1.0
 40
0.9656170000000001
 41
2.826776470169531
 42
4.027107162648068
  0
ELLIPSE
  5
4C4
330
1F
100
AcDbEntity
  8
1
100
AcDbEllipse
 10
-14.96050100000002
 20
-7.316662000000007
 30
0.0
 11
-0.0948654876742368
 21
0.0092709375136439
 31
0.0
210
0.0
220
0.0
230
1.0
 40
0.9656170000000001
 41
5.968369123759158
 42
6.645101040639727
  0
ELLIPSE
  5
4C5
330
1F
100
AcDbEntity
  8
1
100
AcDbEllipse
 10
-14.47310500000003
 20
-7.190616999999974
 30
0.0
 11
-0.598045354963438
 21
0.0584452918771717
 31
0.0
210
0.0
220
0.0
230
1.0
 40
0.9656170000000001
 41
0.3619157334602111
 42
1.626445777690364
  0
ELLIPSE
  5
4C6
330
1F
100
AcDbEntity
  8
1
100
AcDbEllipse
 10
-14.49252699999999
 20
-7.678478999999981
 30
0.0
 11
-0.0948654876742348
 21
0.0092709375136437
 31
0.0
210
0.0
220
0.0
230
1.0
 40
0.9656170000000001
 41
1.62644577769018
 42
2.303177694571025
  0
ELLIPSE
  5
4C7
330
1F
100
AcDbEntity
  8
1
100
AcDbEllipse
 10
-14.37897899999996
 20
-7.827107000000012
 30
0.0
 11
-0.0948654876742346
 21
0.0092709375136437
 31
0.0
210
0.0
220
0.0
230
1.0
 40
0.9656170000000001
 41
4.24443965568142
 42
5.444770348160375
  0
ELLIPSE
  5
4C8
330
1F
100
AcDbEntity
  8
1
100
AcDbEllipse
 10
-14.64832000000001
 20
-8.238570999999978
 30
0.0
 11
-0.5980453549634383
 21
0.0584452918771718
 31
0.0
210
0.0
220
0.0
230
1.0
 40
0.9656170000000001
 41
2.979909611451688
 42
4.244439655681915
  0
ELLIPSE
  5
4C9
330
1F
100
AcDbEntity
  8
1
100
AcDbEllipse
 10
-14.15934700000002
 20
-8.365320999999994
 30
0.0
 11
-0.0948654876742368
 21
0.0092709375136439
 31
0.0
210
0.0
220
0.0
230
1.0
 40
0.9656170000000001
 41
1.779578918972745
 42
2.979909611451669
  0
ELLIPSE
  5
4CA
330
1F
100
AcDbEntity
  8
1
100
AcDbEllipse
 10
-14.13753699999995
 20
-8.548392999999975
 30
0.0
 11
-0.0948654876742368
 21
0.0092709375136439
 31
0.0
210
0.0
220
0.0
230
1.0
 40
0.9656170000000001
 41
4.921171572562254
 42
5.597903489443302
  0
ELLIPSE
  5
4CB
330
1F
100
AcDbEntity
  8
1
100
AcDbEllipse
 10
-13.778007
 20
-8.893973999999957
 30
0.0
 11
-0.598045354963438
 21
0.0584452918771717
 31
0.0
210
0.0
220
0.0
230
1.0
 40
0.9656170000000001
 41
5.597903489443251
 42
6.862433533673383
  0
ELLIPSE
  5
4CC
330
1F
100
AcDbEntity
  8
1
100
AcDbEllipse
 10
-14.225097
 20
-9.118788999999992
 30
0.0
 11
-0.0948654876742348
 21
0.0092709375136437
 31
0.0
210
0.0
220
0.0
230
1.0
 40
0.9656170000000001
 41
0.5792482264939546
 42
1.255980143374658
  0
ELLIPSE
  5
4CD
330
1F
100
AcDbEntity
  8
1
100
AcDbEllipse
 10
-14.30086999999992
 20
-9.287250999999969
 30
0.0
 11
-0.0948654876742346
 21
0.0092709375136437
 31
0.0
210
0.0
220
0.0
230
1.0
 40
0.9656170000000001
 41
3.197242104485259
 42
4.397572796964426
  0
ELLIPSE
  5
4CE
330
1F
100
AcDbEntity
  8
1
100
AcDbEllipse
 10
-14.80591200000003
 20
-9.265177999999991
 30
0.0
 11
-0.5980453549634383
 21
0.0584452918771718
 31
0.0
210
0.0
220
0.0
230
1.0
 40
0.9656170000000001
 41
1.932712060255054
 42
3.197242104485272
  0
ELLIPSE
  5
4CF
330
1F
100
AcDbEntity
  8
1
100
AcDbEllipse
 10
-14.67216100000007
 20
-9.736992999999984
 30
0.0
 11
-0.0948654876742368
 21
0.0092709375136439
 31
0.0
210
0.0
220
0.0
230
1.0
 40
0.9656170000000001
 41
0.7323813677764096
 42
1.932712060255109
  0
ELLIPSE
  5
4D0
330
1F
100
AcDbEntity
  8
1
100
AcDbEllipse
 10
-14.82521400000007
 20
-9.845706000000006
 30
0.0
 11
-0.0948654876742368
 21
0.0092709375136439
 31
0.0
210
0.0
220
0.0
230
1.0
 40
0.9656170000000001
 41
3.873974021365803
 42
4.550705938246693
  0
ELLIPSE
  5
4D1
330
1F
100
AcDbEntity
  8
1
100
AcDbEllipse
 10
-14.953079
 20
-10.31733199999996
 30
0.0
 11
-0.598045354963438
 21
0.0584452918771717
 31
0.0
210
0.0
220
0.0
230
1.0
 40
0.9656170000000001
 41
4.550705938246522
 42
5.815235982476747
  0
ELLIPSE
  5
4D2
330
1F
100
AcDbEntity
  8
1
100
AcDbEllipse
 10
-15.38074700000004
 20
-10.05428499999999
 30
0.0
 11
-0.0948654876742348
 21
0.0092709375136437
 31
0.0
210
0.0
220
0.0
230
1.0
 40
0.9656170000000001
 41
5.815235982476775
 42
6.49196789935744
  0
ELLIPSE
  5
4D3
330
1F
100
AcDbEntity
  8
1
100
AcDbEllipse
 10
-15.57006899999999
 20
-10.07411899999999
 30
0.0
 11
-0.0948654876742346
 21
0.0092709375136437
 31
0.0
210
0.0
220
0.0
230
1.0
 40
0.9656170000000001
 41
2.150044553288898
 42
3.350375245767669
  0
ELLIPSE
  5
4D4
330
1F
100
AcDbEntity
  8
1
100
AcDbEllipse
 10
-15.80576899999994
 20
-9.640580999999997
 30
0.0
 11
-0.5980453549634383
 21
0.0584452918771718
 31
0.0
210
0.0
220
0.0
230
1.0
 40
0.9656170000000001
 41
0.8855145090584548
 42
2.150044553288644
  0
ELLIPSE
  5
4D5
330
1F
100
AcDbEntity
  8
1
100
AcDbEllipse
 10
-16.16099099999997
 20
-9.985645999999974
 30
0.0
 11
-0.0948654876742368
 21
0.0092709375136439
 31
0.0
210
0.0
220
0.0
230
1.0
 40
0.9656170000000001
 41
5.968369123759252
 42
7.168699816237607
  0
ELLIPSE
  5
4D6
330
1F
100
AcDbEntity
  8
1
100
AcDbEllipse
 10
-16.33585400000004
 20
-9.911287000000015
 30
0.0
 11
-0.0948654876742368
 21
0.0092709375136439
 31
0.0
210
0.0
220
0.0
230
1.0
 40
0.9656170000000001
 41
2.82677647016933
 42
3.50350838705004
  0
ELLIPSE
  5
4D7
330
1F
100
AcDbEntity
  8
1
100
AcDbEllipse
 10
-16.82325000000003
 20
-10.03733199999999
 30
0.0
 11
-0.598045354963438
 21
0.0584452918771717
 31
0.0
210
0.0
220
0.0
230
1.0
 40
0.9656170000000001
 41
3.503508387050015
 42
4.768038431280158
  0
ELLIPSE
  5
4D8
330
1F
100
AcDbEntity
  8
1
100
AcDbEllipse
 10
-16.80382699999995
 20
-9.549469999999985
 30
0.0
 11
-0.0948654876742348
 21
0.0092709375136437
 31
0.0
210
0.0
220
0.0
230
1.0
 40
0.9656170000000001
 41
4.768038431280276
 42
5.444770348160818
  0
ELLIPSE
  5
4D9
330
1F
100
AcDbEntity
  8
1
100
AcDbEllipse
 10
-16.91737599999999
 20
-9.400842000000011
 30
0.0
 11
-0.0948654876742346
 21
0.0092709375136437
 31
0.0
210
0.0
220
0.0
230
1.0
 40
0.9656170000000001
 41
1.102847002092125
 42
2.303177694570829
  0
ELLIPSE
  5
4DA
330
1F
100
AcDbEntity
  8
1
100
AcDbEllipse
 10
-16.64803399999994
 20
-8.989377999999987
 30
0.0
 11
-0.5980453549634383
 21
0.0584452918771718
 31
0.0
210
0.0
220
0.0
230
1.0
 40
0.9656170000000001
 41
6.121502265041502
 42
7.386032309271667
  0
ELLIPSE
  5
4DB
330
1F
100
AcDbEntity
  8
1
100
AcDbEllipse
 10
-17.13700800000004
 20
-8.862627999999972
 30
0.0
 11
-0.0948654876742368
 21
0.0092709375136439
 31
0.0
210
0.0
220
0.0
230
1.0
 40
0.9656170000000001
 41
4.921171572562837
 42
6.121502265041511
  0
ELLIPSE
  5
4DC
330
1F
100
AcDbEntity
  8
1
100
AcDbEllipse
 10
-17.158817
 20
-8.67955599999999
 30
0.0
 11
-0.0948654876742368
 21
0.0092709375136439
 31
0.0
210
0.0
220
0.0
230
1.0
 40
0.9656170000000001
 41
1.779578918972454
 42
2.456310835853669
  0
ELLIPSE
  5
4DD
330
1F
100
AcDbEntity
  8
1
100
AcDbEllipse
 10
-17.51834799999994
 20
-8.333975000000009
 30
0.0
 11
-0.598045354963438
 21
0.0584452918771717
 31
0.0
210
0.0
220
0.0
230
1.0
 40
0.9656170000000001
 41
2.456310835853434
 42
3.720840880083589
  0
ELLIPSE
  5
4DE
330
1F
100
AcDbEntity
  8
1
100
AcDbEllipse
 10
-17.07125699999994
 20
-8.109160000000031
 30
0.0
 11
-0.0948654876742348
 21
0.0092709375136437
 31
0.0
210
0.0
220
0.0
230
1.0
 40
0.9656170000000001
 41
3.720840880083617
 42
4.397572796964167
  0
ELLIPSE
  5
4DF
330
1F
100
AcDbEntity
  8
1
100
AcDbEllipse
 10
-16.99548400000003
 20
-7.940697
 30
0.0
 11
-0.0948654876742346
 21
0.0092709375136437
 31
0.0
210
0.0
220
0.0
230
1.0
 40
0.9656170000000001
 41
0.0556494508954656
 42
1.255980143374929
  0
ELLIPSE
  5
4E0
330
1F
100
AcDbEntity
  8
1
100
AcDbEllipse
 10
-16.49044200000003
 20
-7.962770999999975
 30
0.0
 11
-0.5980453549634383
 21
0.0584452918771718
 31
0.0
210
0.0
220
0.0
230
1.0
 40
0.9656170000000001
 41
5.074304713844898
 42
6.338834758075081
  0
ELLIPSE
  5
4E1
330
1F
100
AcDbEntity
  8
1
100
AcDbEllipse
 10
-16.62419399999999
 20
-7.490955999999982
 30
0.0
 11
-0.0948654876742368
 21
0.0092709375136439
 31
0.0
210
0.0
220
0.0
230
1.0
 40
0.9656170000000001
 41
3.873974021366003
 42
5.074304713844902
  0
ELLIPSE
  5
4E2
330
1F
100
AcDbEntity
  8
1
100
AcDbEllipse
 10
-16.47114099999999
 20
-7.382242999999959
 30
0.0
 11
-0.0948654876742368
 21
0.0092709375136439
 31
0.0
210
0.0
220
0.0
230
1.0
 40
0.9656170000000001
 41
0.7323813677759822
 42
1.409113284656319
  0
ELLIPSE
  5
4E3
330
1F
100
AcDbEntity
  8
1
100
AcDbEllipse
 10
-16.34327500000006
 20
-6.910617000000002
 30
0.0
 11
-0.598045354963438
 21
0.0584452918771717
 31
0.0
210
0.0
220
0.0
230
1.0
 40
0.9656170000000001
 41
1.409113284656779
 42
2.673643328886929
  0
ELLIPSE
  5
4E4
330
1F
100
AcDbEntity
  8
1
100
AcDbEllipse
 10
-15.64817700000003
 20
-8.613973999999984
 30
0.0
 11
1.791465540255724
 21
-0.1750748927638468
 31
0.0
210
0.0
220
0.0
230
1.0
 40
0.9656170000000003
 41
0.0
 42
6.283185307179585
  0
ELLIPSE
  5
4E5
330
1F
100
AcDbEntity
  8
1
100
AcDbEllipse
 10
-15.63989800000001
 20
-8.529260000000022
 30
0.0
 11
2.736961242057353
 21
-0.2674755306114325
 31
0.0
210
0.0
220
0.0
230
1.0
 40
0.9656170000000001
 41
0.0
 42
6.283185307179585
  0
ELLIPSE
  5
4E6
330
1F
100
AcDbEntity
  8
1
100
AcDbEllipse
 10
-15.76718700000003
 20
-8.297390000000007
 30
0.0
 11
2.985775900426203
 21
-0.2917914879397446
 31
0.0
210
0.0
220
0.0
230
1.0
 40
0.9656170000000001
 41
3.242456168914005
 42
4.917514158744353
  0
ELLIPSE
  5
4E7
330
1F
100
AcDbEntity
  8
1
100
AcDbEllipse
 10
-15.76718700000003
 20
-8.297390000000007
 30
0.0
 11
2.985775900426203
 21
-0.2917914879397446
 31
0.0
210
0.0
220
0.0
230
1.0
 40
0.9656170000000001
 41
5.673852651038557
 42
6.283185307179585
  0
ELLIPSE
  5
4E8
330
1F
100
AcDbEntity
  8
1
100
AcDbEllipse
 10
-15.76718700000003
 20
-8.297390000000007
 30
0.0
 11
2.985775900426203
 21
-0.2917914879397446
 31
0.0
210
0.0
220
0.0
230
1.0
 40
0.9656170000000001
 41
0.0
 42
0.2846468700823283
  0
ELLIPSE
  5
4E9
330
1F
100
AcDbEntity
  8
1
100
AcDbEllipse
 10
-15.76718700000003
 20
-8.297390000000007
 30
0.0
 11
2.985775900426203
 21
-0.2917914879397446
 31
0.0
210
0.0
220
0.0
230
1.0
 40
0.9656170000000001
 41
2.856923892747073
 42
3.242456168914008
  0
ELLIPSE
  5
4EA
330
1F
100
AcDbEntity
  8
1
100
AcDbEllipse
 10
-15.79500099999996
 20
-8.581999999999993
 30
0.0
 11
-3.081557132902144
 21
0.301151918619378
 31
0.0
210
0.0
220
0.0
230
1.0
 40
0.9656170000000001
 41
0.0
 42
6.283185307179585
  0
ELLIPSE
  5
4EB
330
1F
100
AcDbEntity
  8
NOCUT
100
AcDbEllipse
 10
6.877539000000069
 20
-0.0000000000000284
 30
0.0
 11
22.13506215278343
 21
12.77873593741574
 31
0.0
210
0.0
220
0.0
230
1.0
 40
0.107896
 41
3.123386839659382
 42
3.375178421806806
  0
ELLIPSE
  5
4EC
330
1F
100
AcDbEntity
  8
NOCUT
100
AcDbEllipse
 10
-45.49739099999988
 20
-0.0002199999999846
 30
0.0
 11
513.9583786948518
 21
-3.366615973307534
 31
0.0
210
0.0
220
0.0
230
1.0
 40
0.024431
 41
4.763973890820575
 42
4.771378427590104
  0
SPLINE
  5
4ED
102
{ACAD_REACTORS
330
509
102
}
330
1F
100
AcDbEntity
  8
SK1
100
AcDbSpline
210
0.0
220
0.0
230
1.0
 70
    24
 71
     3
 72
    19
 73
    15
 74
     0
 42
0.000000001
 43
0.0000000001
 40
0.0
 40
0.0
 40
0.0
 40
0.0
 40
0.2501949389331368
 40
0.2501949389331368
 40
0.5003898778662736
 40
0.5003898778662736
 40
0.7505848167994102
 40
0.7505848167994102
 40
0.7818591841660523
 40
0.7818591841660523
 40
0.8131335515326941
 40
0.8756822862659785
 40
0.8756822862659785
 40
1.0
 40
1.0
 40
1.0
 40
1.0
 10
157.5000000232246
 20
-11.00000034738582
 30
0.0
 10
157.7218599792099
 20
-11.00000034738582
 30
0.0
 10
157.9261960331556
 20
-11.00000034738582
 30
0.0
 10
158.290719469949
 20
-11.00000034738582
 30
0.0
 10
158.4508995053484
 20
-11.00000034738582
 30
0.0
 10
158.7161895480011
 20
-11.00000034738582
 30
0.0
 10
158.8212676746747
 20
-11.00000034738582
 30
0.0
 10
158.9016344263237
 20
-11.00000034738582
 30
0.0
 10
158.9100332140084
 20
-11.00000034738582
 30
0.0
 10
158.9256992026545
 20
-11.00000034738582
 30
0.0
 10
158.947527529932
 20
-11.00000034738582
 30
0.0
 10
158.9643235166246
 20
-11.00000034738582
 30
0.0
 10
158.9910625389969
 20
-11.00000034738582
 30
0.0
 10
158.9999663821205
 20
-11.00000034738582
 30
0.0
 10
159.0000000232306
 20
-11.00000034738582
 30
0.0
  0
SPLINE
  5
4EE
330
1F
100
AcDbEntity
  8
1
100
AcDbSpline
210
0.0
220
0.0
230
1.0
 70
     8
 71
     3
 72
    16
 73
    12
 74
     0
 42
0.000000001
 43
0.0000000001
 40
0.0
 40
0.0
 40
0.0
 40
0.0
 40
0.3416550583533871
 40
0.3416550583533871
 40
0.5124825875302952
 40
0.5124825875302952
 40
0.6833101167072032
 40
0.6833101167072032
 40
0.8541376458841114
 40
0.8541376458841114
 40
1.0
 40
1.0
 40
1.0
 40
1.0
 10
-16.18427461901001
 20
-9.603669340537123
 30
0.0
 10
-16.19130106797434
 20
-9.596509094838268
 30
0.0
 10
-16.19712108479063
 20
-9.588238921845004
 30
0.0
 10
-16.20373463247608
 20
-9.574989442135517
 30
0.0
 10
-16.20560696145014
 20
-9.570407792914977
 30
0.0
 10
-16.20868217750592
 20
-9.56091169520431
 30
0.0
 10
-16.20986440940476
 20
-9.556042686564467
 30
0.0
 10
-16.21150106777031
 20
-9.546297342085097
 30
0.0
 10
-16.21196673018755
 20
-9.541387223335846
 30
0.0
 10
-16.21218588918259
 20
-9.532216291128122
 30
0.0
 10
-16.2120282579458
 20
-9.527937192468982
 30
0.0
 10
-16.21161871375545
 20
-9.52371047076599
 30
0.0
  0
SPLINE
  5
4EF
330
1F
100
AcDbEntity
  8
1
100
AcDbSpline
210
0.0
220
0.0
230
1.0
 70
     8
 71
     3
 72
    10
 73
     6
 74
     0
 42
0.000000001
 43
0.0000000001
 40
0.0
 40
0.0
 40
0.0
 40
0.0
 40
0.9431392787639815
 40
0.9431392787639815
 40
1.0
 40
1.0
 40
1.0
 40
1.0
 10
-16.19890023791924
 20
-9.426407592922146
 30
0.0
 10
-16.19606253060976
 20
-9.437493150015825
 30
0.0
 10
-16.1951346985652
 20
-9.448803086495786
 30
0.0
 10
-16.19606900775591
 20
-9.460843711375162
 30
0.0
 10
-16.19612851877991
 20
-9.461526804668096
 30
0.0
 10
-16.19619441028021
 20
-9.462208353986341
 30
0.0
  0
SPLINE
  5
4F0
330
1F
100
AcDbEntity
  8
1
100
AcDbSpline
210
0.0
220
0.0
230
1.0
 70
     8
 71
     3
 72
    18
 73
    14
 74
     0
 42
0.000000001
 43
0.0000000001
 40
0.0
 40
0.0
 40
0.0
 40
0.0
 40
0.2650322865633771
 40
0.2650322865633771
 40
0.3975484298450607
 40
0.3975484298450607
 40
0.5300645731267445
 40
0.5300645731267445
 40
0.7950968596902494
 40
0.7950968596902494
 40
0.9276130029719421
 40
0.9276130029719421
 40
1.0
 40
1.0
 40
1.0
 40
1.0
 10
-16.92446810891908
 20
-9.031382991764644
 30
0.0
 10
-16.95141783660722
 20
-9.016064868982368
 30
0.0
 10
-16.9767886514395
 20
-8.998707375458877
 30
0.0
 10
-17.01250921775022
 20
-8.969674881692299
 30
0.0
 10
-17.02402502559596
 20
-8.959495660415484
 30
0.0
 10
-17.04625820132867
 20
-8.938115584670811
 30
0.0
 10
-17.05700155249633
 20
-8.926878437324603
 30
0.0
 10
-17.08750939656636
 20
-8.892159219713107
 30
0.0
 10
-17.10572676381628
 20
-8.86753787840513
 30
0.0
 10
-17.12992079805144
 20
-8.828434265918815
 30
0.0
 10
-17.13746104699498
 20
-8.815036062197009
 30
0.0
 10
-17.14829266946583
 20
-8.793745695352811
 30
0.0
 10
-17.15196698849581
 20
-8.786093440271201
 30
0.0
 10
-17.15546776235999
 20
-8.778354814784677
 30
0.0
  0
SPLINE
  5
4F1
330
1F
100
AcDbEntity
  8
1
100
AcDbSpline
210
0.0
220
0.0
230
1.0
 70
     8
 71
     3
 72
    16
 73
    12
 74
     0
 42
0.000000001
 43
0.0000000001
 40
0.0
 40
0.0
 40
0.0
 40
0.0
 40
0.2721832257720086
 40
0.2721832257720086
 40
0.5443664515440175
 40
0.5443664515440175
 40
0.6804580644300185
 40
0.6804580644300185
 40
0.8165496773160194
 40
0.8165496773160194
 40
1.0
 40
1.0
 40
1.0
 40
1.0
 10
-16.9419026943857
 20
-7.605658608381361
 30
0.0
 10
-16.92712883420449
 20
-7.630161032272837
 30
0.0
 10
-16.91461477689915
 20
-7.65574686994131
 30
0.0
 10
-16.89407387229164
 20
-7.709174310593994
 30
0.0
 10
-16.88604486895895
 20
-7.737014703929105
 30
0.0
 10
-16.87762043902103
 20
-7.780679042648898
 30
0.0
 10
-16.87544176765766
 20
-7.795463389467613
 30
0.0
 10
-16.87238947992614
 20
-7.825137784568141
 30
0.0
 10
-16.87150500328028
 20
-7.840081581007666
 30
0.0
 10
-16.87093392253553
 20
-7.875427400263163
 30
0.0
 10
-16.87176854231904
 20
-7.895940677383123
 30
0.0
 10
-16.87380464111322
 20
-7.916641671008619
 30
0.0
  0
SPLINE
  5
4F2
330
1F
100
AcDbEntity
  8
1
100
AcDbSpline
210
0.0
220
0.0
230
1.0
 70
     8
 71
     3
 72
    18
 73
    14
 74
     0
 42
0.000000001
 43
0.0000000001
 40
0.0
 40
0.0
 40
0.0
 40
0.0
 40
0.2499999999994975
 40
0.2499999999994975
 40
0.3749999999995859
 40
0.3749999999995859
 40
0.4999999999996743
 40
0.4999999999996743
 40
0.6249999999997627
 40
0.6249999999997627
 40
0.749999999999851
 40
0.749999999999851
 40
1.0
 40
1.0
 40
1.0
 40
1.0
 10
-14.60325724768359
 20
-9.378912080024178
 30
0.0
 10
-14.61279574927937
 20
-9.381016684988537
 30
0.0
 10
-14.62261655289398
 20
-9.381499165668628
 30
0.0
 10
-14.63693186088221
 20
-9.37996985648283
 30
0.0
 10
-14.64166501165175
 20
-9.379088894739311
 30
0.0
 10
-14.65105270962658
 20
-9.376578859605388
 30
0.0
 10
-14.6556610138922
 20
-9.374956137277308
 30
0.0
 10
-14.66449999891142
 20
-9.371088348379828
 30
0.0
 10
-14.66876481675399
 20
-9.368834485521176
 30
0.0
 10
-14.67698903963185
 20
-9.363696292321321
 30
0.0
 10
-14.68097660377907
 20
-9.360784811156861
 30
0.0
 10
-14.6921592783558
 20
-9.351328004280219
 30
0.0
 10
-14.69865103916584
 20
-9.344066157322686
 30
0.0
 10
-14.70417161818034
 20
-9.335840146129157
 30
0.0
  0
SPLINE
  5
4F3
330
1F
100
AcDbEntity
  8
1
100
AcDbSpline
210
0.0
220
0.0
230
1.0
 70
     8
 71
     3
 72
    10
 73
     6
 74
     0
 42
0.000000001
 43
0.0000000001
 40
0.0
 40
0.0
 40
0.0
 40
0.0
 40
0.5
 40
0.5
 40
1.0
 40
1.0
 40
1.0
 40
1.0
 10
-14.75604312085465
 20
-9.295672923987865
 30
0.0
 10
-14.74546083310201
 20
-9.29923603638781
 30
0.0
 10
-14.73570996252579
 20
-9.304546860765299
 30
0.0
 10
-14.71803547153615
 20
-9.318303411149827
 30
0.0
 10
-14.71047500063207
 20
-9.326447708402838
 30
0.0
 10
-14.70417161818034
 20
-9.335840146129157
 30
0.0
  0
SPLINE
  5
4F4
330
1F
100
AcDbEntity
  8
1
100
AcDbSpline
210
0.0
220
0.0
230
1.0
 70
     8
 71
     3
 72
    17
 73
    13
 74
     0
 42
0.000000001
 43
0.0000000001
 40
0.0
 40
0.0
 40
0.0
 40
0.0
 40
0.0138679552167336
 40
0.0138679552167336
 40
0.2604009664124304
 40
0.2604009664124304
 40
0.3836674720103588
 40
0.3836674720103588
 40
0.5069339776082871
 40
0.5069339776082871
 40
0.7534669888041436
 40
1.0
 40
1.0
 40
1.0
 40
1.0
 10
-14.28925610772398
 20
-9.185382546862683
 30
0.0
 10
-14.29036101949725
 20
-9.186745157763823
 30
0.0
 10
-14.29147165660004
 20
-9.188101671717845
 30
0.0
 10
-14.31242898019002
 20
-9.213452108902515
 30
0.0
 10
-14.3340047649018
 20
-9.235495212375781
 30
0.0
 10
-14.36889114254632
 20
-9.265710763999834
 30
0.0
 10
-14.38094240476516
 20
-9.275305434699873
 30
0.0
 10
-14.40590058367604
 20
-9.293527257000619
 30
0.0
 10
-14.41885694344853
 20
-9.302183913804981
 30
0.0
 10
-14.4586982361443
 20
-9.326443478957457
 30
0.0
 10
-14.5138302637215
 20
-9.353953734025367
 30
0.0
 10
-14.57279363098917
 20
-9.372190491912704
 30
0.0
 10
-14.60325724768359
 20
-9.378912080024178
 30
0.0
  0
SPLINE
  5
4F5
330
1F
100
AcDbEntity
  8
1
100
AcDbSpline
210
0.0
220
0.0
230
1.0
 70
     8
 71
     3
 72
    14
 73
    10
 74
     0
 42
0.000000001
 43
0.0000000001
 40
0.0
 40
0.0
 40
0.0
 40
0.0
 40
0.1661676923684594
 40
0.1661676923684594
 40
0.3746257692765577
 40
0.3746257692765577
 40
0.5830838461846558
 40
0.5830838461846558
 40
1.0
 40
1.0
 40
1.0
 40
1.0
 10
-15.43671746388281
 20
-9.655571542780364
 30
0.0
 10
-15.4380714296376
 20
-9.65929164257318
 30
0.0
 10
-15.43964685528055
 20
-9.662960145321505
 30
0.0
 10
-15.44364148651061
 20
-9.670942268146802
 30
0.0
 10
-15.44616838965714
 20
-9.67518943948761
 30
0.0
 10
-15.45183605901673
 20
-9.683291172664496
 30
0.0
 10
-15.45499968987894
 20
-9.687169414330355
 30
0.0
 10
-15.46532274643641
 20
-9.69800213643208
 30
0.0
 10
-15.47313815329301
 20
-9.704040335985382
 30
0.0
 10
-15.48194472984346
 20
-9.708821384289592
 30
0.0
  0
SPLINE
  5
4F6
330
1F
100
AcDbEntity
  8
1
100
AcDbSpline
210
0.0
220
0.0
230
1.0
 70
     8
 71
     3
 72
    10
 73
     6
 74
     0
 42
0.000000001
 43
0.0000000001
 40
0.0
 40
0.0
 40
0.0
 40
0.0
 40
0.2741423725651007
 40
0.2741423725651007
 40
1.0
 40
1.0
 40
1.0
 40
1.0
 10
-15.43091952429665
 20
-9.58761608128151
 30
0.0
 10
-15.43050210874037
 20
-9.583374669613306
 30
0.0
 10
-15.42982732456983
 20
-9.57914958476789
 30
0.0
 10
-15.42642223878454
 20
-9.563815676415458
 30
0.0
 10
-15.42226285527033
 20
-9.553345889304125
 30
0.0
 10
-15.41631271694598
 20
-9.54357571934662
 30
0.0
  0
SPLINE
  5
4F7
330
1F
100
AcDbEntity
  8
1
100
AcDbSpline
210
0.0
220
0.0
230
1.0
 70
     8
 71
     3
 72
    24
 73
    20
 74
     0
 42
0.000000001
 43
0.0000000001
 40
0.0
 40
0.0
 40
0.0
 40
0.0
 40
0.124999999999944
 40
0.124999999999944
 40
0.2499999999998881
 40
0.2499999999998881
 40
0.31249999999986
 40
0.31249999999986
 40
0.3749999999998319
 40
0.3749999999998319
 40
0.4999999999998657
 40
0.4999999999998657
 40
0.6249999999998992
 40
0.6249999999998992
 40
0.7499999999999327
 40
0.7499999999999327
 40
0.8749999999999664
 40
0.8749999999999664
 40
1.0
 40
1.0
 40
1.0
 40
1.0
 10
-15.41631271694598
 20
-9.54357571934662
 30
0.0
 10
-15.39946168017332
 20
-9.515906195672698
 30
0.0
 10
-15.38070422760677
 20
-9.489873685265365
 30
0.0
 10
-15.33936907522945
 20
-9.441087338998784
 30
0.0
 10
-15.31679325304537
 20
-9.418331893744209
 30
0.0
 10
-15.27982029503107
 20
-9.386865798371502
 30
0.0
 10
-15.26704902368385
 20
-9.376894735032806
 30
0.0
 10
-15.24092591047508
 20
-9.358228623729701
 30
0.0
 10
-15.2275288973866
 20
-9.349494487316178
 30
0.0
 10
-15.18633116518072
 20
-9.325093580970133
 30
0.0
 10
-15.15748284553012
 20
-9.311198560995364
 30
0.0
 10
-15.09715118932058
 20
-9.288557372571631
 30
0.0
 10
-15.06655402631384
 20
-9.280133944931833
 30
0.0
 10
-15.00453840983698
 20
-9.268736620813172
 30
0.0
 10
-14.97310735024496
 20
-9.265763539360136
 30
0.0
 10
-14.90943683533157
 20
-9.265330580017632
 30
0.0
 10
-14.87812442165807
 20
-9.267871089990592
 30
0.0
 10
-14.81641182160808
 20
-9.277995524621871
 30
0.0
 10
-14.78601218514961
 20
-9.285582181126187
 30
0.0
 10
-14.75604312085465
 20
-9.295672923987865
 30
0.0
  0
SPLINE
  5
4F8
330
1F
100
AcDbEntity
  8
1
100
AcDbSpline
210
0.0
220
0.0
230
1.0
 70
     8
 71
     3
 72
    27
 73
    23
 74
     0
 42
0.000000001
 43
0.0000000001
 40
0.0
 40
0.0
 40
0.0
 40
0.0
 40
0.1249999999999778
 40
0.1249999999999778
 40
0.1875000000000183
 40
0.1875000000000183
 40
0.2500000000000588
 40
0.2500000000000588
 40
0.3750000000001398
 40
0.3750000000001398
 40
0.4375000000001254
 40
0.4375000000001254
 40
0.500000000000111
 40
0.500000000000111
 40
0.6250000000000832
 40
0.6250000000000832
 40
0.6875000000000693
 40
0.6875000000000693
 40
0.7500000000000555
 40
0.7500000000000555
 40
0.8750000000000277
 40
1.0
 40
1.0
 40
1.0
 40
1.0
 10
-15.48194472984346
 20
-9.708821384289592
 30
0.0
 10
-15.51011298961043
 20
-9.724113797842107
 30
0.0
 10
-15.53918555878874
 20
-9.736990806780625
 30
0.0
 10
-15.58412623561389
 20
-9.752749136097179
 30
0.0
 10
-15.59932946347328
 20
-9.757406292436826
 30
0.0
 10
-15.63019044406508
 20
-9.765506622252132
 30
0.0
 10
-15.64589437073766
 20
-9.768953488361319
 30
0.0
 10
-15.69294452044994
 20
-9.777293305500961
 30
0.0
 10
-15.72443944181202
 20
-9.780268242373381
 30
0.0
 10
-15.77187060047765
 20
-9.780919746023982
 30
0.0
 10
-15.78771259911207
 20
-9.780498767319613
 30
0.0
 10
-15.8194610757971
 20
-9.778354916586863
 30
0.0
 10
-15.83544071674907
 20
-9.776618586102642
 30
0.0
 10
-15.88276517512406
 20
-9.769501157426077
 30
0.0
 10
-15.91356703740223
 20
-9.76224798502767
 30
0.0
 10
-15.95868173654025
 20
-9.747718035016646
 30
0.0
 10
-15.97353773827899
 20
-9.742263384480168
 30
0.0
 10
-16.00288041881504
 20
-9.730114915318154
 30
0.0
 10
-16.0174194223606
 20
-9.723393684439884
 30
0.0
 10
-16.0600914609771
 20
-9.701504748528805
 30
0.0
 10
-16.11390974905043
 20
-9.668081494808689
 30
0.0
 10
-16.16183354199609
 20
-9.626537737643616
 30
0.0
 10
-16.18427461901001
 20
-9.603669340537123
 30
0.0
  0
SPLINE
  5
4F9
330
1F
100
AcDbEntity
  8
1
100
AcDbSpline
210
0.0
220
0.0
230
1.0
 70
     8
 71
     3
 72
    16
 73
    12
 74
     0
 42
0.000000001
 43
0.0000000001
 40
0.0
 40
0.0
 40
0.0
 40
0.0
 40
0.075359280784676
 40
0.075359280784676
 40
0.3065194605885069
 40
0.3065194605885069
 40
0.5376796403923381
 40
0.5376796403923381
 40
0.7688398201961691
 40
0.7688398201961691
 40
1.0
 40
1.0
 40
1.0
 40
1.0
 10
-14.32949461614896
 20
-8.359111973358778
 30
0.0
 10
-14.32849493779133
 20
-8.348947276537614
 30
0.0
 10
-14.3272215087818
 20
-8.338813789158507
 30
0.0
 10
-14.32091129035882
 20
-8.297746863921872
 30
0.0
 10
-14.31368462833336
 20
-8.268030471186477
 30
0.0
 10
-14.29457018330004
 20
-8.210941779350605
 30
0.0
 10
-14.28267627253819
 20
-8.183560247454124
 30
0.0
 10
-14.2541410670583
 20
-8.131166418640816
 30
0.0
 10
-14.237919805876
 20
-8.106914876419125
 30
0.0
 10
-14.20183386911458
 20
-8.061912488640984
 30
0.0
 10
-14.18196730595196
 20
-8.041163614306867
 30
0.0
 10
-14.16025660072853
 20
-8.022123543529346
 30
0.0
  0
SPLINE
  5
4FA
330
1F
100
AcDbEntity
  8
1
100
AcDbSpline
210
0.0
220
0.0
230
1.0
 70
     8
 71
     3
 72
    10
 73
     6
 74
     0
 42
0.000000001
 43
0.0000000001
 40
0.0
 40
0.0
 40
0.0
 40
0.0
 40
0.5
 40
0.5
 40
1.0
 40
1.0
 40
1.0
 40
1.0
 10
-14.16025660072853
 20
-8.022123543529346
 30
0.0
 10
-14.15259098524211
 20
-8.015400875614602
 30
0.0
 10
-14.14385296641751
 20
-8.01029384217287
 30
0.0
 10
-14.12460577121078
 20
-8.003254184059812
 30
0.0
 10
-14.11450345230503
 20
-8.001453785105979
 30
0.0
 10
-14.10392650489586
 20
-8.001347687170266
 30
0.0
  0
SPLINE
  5
4FB
330
1F
100
AcDbEntity
  8
1
100
AcDbSpline
210
0.0
220
0.0
230
1.0
 70
     8
 71
     3
 72
    24
 73
    20
 74
     0
 42
0.000000001
 43
0.0000000001
 40
0.0
 40
0.0
 40
0.0
 40
0.0
 40
0.1249999999999986
 40
0.1249999999999986
 40
0.249999999999997
 40
0.249999999999997
 40
0.3124999999999972
 40
0.3124999999999972
 40
0.3749999999999976
 40
0.3749999999999976
 40
0.4999999999999981
 40
0.4999999999999981
 40
0.6249999999999984
 40
0.6249999999999984
 40
0.7499999999999991
 40
0.7499999999999991
 40
0.8749999999999996
 40
0.8749999999999996
 40
1.0
 40
1.0
 40
1.0
 40
1.0
 10
-16.75510169353856
 20
-8.996376115264354
 30
0.0
 10
-16.72369789200388
 20
-8.995474060854689
 30
0.0
 10
-16.69262810301347
 20
-8.997093310701359
 30
0.0
 10
-16.63111150746329
 20
-9.005414353310982
 30
0.0
 10
-16.60066445010318
 20
-9.012113612957705
 30
0.0
 10
-16.55546379737291
 20
-9.026323200914987
 30
0.0
 10
-16.54057215226873
 20
-9.031732857933093
 30
0.0
 10
-16.51149703484486
 20
-9.043766870605111
 30
0.0
 10
-16.49725775412685
 20
-9.050408246210508
 30
0.0
 10
-16.45543248778824
 20
-9.072212478034316
 30
0.0
 10
-16.42869257312566
 20
-9.089274357214378
 30
0.0
 10
-16.37787838528982
 20
-9.128574426390855
 30
0.0
 10
-16.35454318411439
 20
-9.150229495826579
 30
0.0
 10
-16.31177782204304
 20
-9.197310386419474
 30
0.0
 10
-16.29234178574245
 20
-9.222747168203
 30
0.0
 10
-16.25746825571229
 20
-9.277391941367284
 30
0.0
 10
-16.24253486238706
 20
-9.305799999877137
 30
0.0
 10
-16.21726800169926
 20
-9.364609406963893
 30
0.0
 10
-16.20693700099934
 20
-9.395011826461654
 30
0.0
 10
-16.19890023791924
 20
-9.426407592922146
 30
0.0
  0
SPLINE
  5
4FC
330
1F
100
AcDbEntity
  8
1
100
AcDbSpline
210
0.0
220
0.0
230
1.0
 70
     8
 71
     3
 72
    10
 73
     6
 74
     0
 42
0.000000001
 43
0.0000000001
 40
0.0
 40
0.0
 40
0.0
 40
0.0
 40
0.5
 40
0.5
 40
1.0
 40
1.0
 40
1.0
 40
1.0
 10
-16.81608586282152
 20
-9.019646712701955
 30
0.0
 10
-16.8073568923885
 20
-9.012504543574152
 30
0.0
 10
-16.79775385770983
 20
-9.006898402419324
 30
0.0
 10
-16.77692928341116
 20
-8.998907336424849
 30
0.0
 10
-16.76619097039611
 20
-8.996694647754168
 30
0.0
 10
-16.75510169353856
 20
-8.996376115264354
 30
0.0
  0
SPLINE
  5
4FD
330
1F
100
AcDbEntity
  8
1
100
AcDbSpline
210
0.0
220
0.0
230
1.0
 70
     8
 71
     3
 72
    20
 73
    16
 74
     0
 42
0.000000001
 43
0.0000000001
 40
0.0
 40
0.0
 40
0.0
 40
0.0
 40
0.1249999999999176
 40
0.1249999999999176
 40
0.2499999999998354
 40
0.2499999999998354
 40
0.374999999999753
 40
0.374999999999753
 40
0.4999999999996706
 40
0.4999999999996706
 40
0.6249999999995884
 40
0.6249999999995884
 40
0.7499999999995061
 40
0.7499999999995061
 40
1.0
 40
1.0
 40
1.0
 40
1.0
 10
-16.81608586282152
 20
-9.019646712701955
 30
0.0
 10
-16.81990484072798
 20
-9.022771455340489
 30
0.0
 10
-16.82390514755934
 20
-9.025605972440189
 30
0.0
 10
-16.83226596664121
 20
-9.03069831179971
 30
0.0
 10
-16.83663458513695
 20
-9.032954377452597
 30
0.0
 10
-16.84552805312501
 20
-9.0367795449622
 30
0.0
 10
-16.85007732022757
 20
-9.038365407848516
 30
0.0
 10
-16.85938371479449
 20
-9.040873192798869
 30
0.0
 10
-16.8641791985201
 20
-9.041797731658107
 30
0.0
 10
-16.87375483446374
 20
-9.042907005683332
 30
0.0
 10
-16.87853861309941
 20
-9.043099836304179
 30
0.0
 10
-16.88809722881046
 20
-9.042755462633124
 30
0.0
 10
-16.89290346387634
 20
-9.042211897711354
 30
0.0
 10
-16.90708496688046
 20
-9.039445505591629
 30
0.0
 10
-16.91604205168494
 20
-9.03617233066933
 30
0.0
 10
-16.92446810891908
 20
-9.031382991764644
 30
0.0
  0
LINE
  5
4FE
330
1F
100
AcDbEntity
  8
4
100
AcDbLine
 10
3.5
 20
0.0
 30
0.0
 11
-24.13
 21
0.0
 31
0.0
  0
LINE
  5
4FF
330
1F
100
AcDbEntity
  8
SK4
100
AcDbLine
 10
-4.0
 20
0.0
 30
0.0
 11
161.5
 21
0.0
 31
0.0
  0
MTEXT
  5
500
330
1F
100
AcDbEntity
  8
SK6
100
AcDbMText
 10
58.10088759300254
 20
-30.19459801020608
 30
0.0
 40
3.5
 41
0.0
 46
0.0
 71
     7
 72
     5
  1
\W0.8044;SIR 2325 Q 16
  7
cesky
 73
     2
 44
0.8433729999999998
  0
DIMENSION
  5
501
330
1F
100
AcDbEntity
  8
SK2
100
AcDbDimension
280
     0
  2
*D18
 10
-20.5
 20
30.138758
 30
0.0
 11
69.5
 21
30.138758
 31
0.0
 70
   160
 42
180.0
 73
     0
 74
     0
 75
     0
  3
Standard
100
AcDbAlignedDimension
 13
159.5
 23
0.0
 33
0.0
 14
-20.5
 24
-16.55000000000001
 34
0.0
100
AcDbRotatedDimension
1001
ACAD_DSTYLE_DIM_LINETYPE
1070
   380
1005
16
1001
ACAD_DSTYLE_DIM_EXT1_LINETYPE
1070
   381
1005
16
1001
ACAD_DSTYLE_DIM_EXT2_LINETYPE
1070
   382
1005
16
1001
ACAD
1000
DSTYLE
1002
{
1070
    41
1040
3.5
1070
    42
1040
0.0
1070
    44
1040
1.0
1070
    48
1040
-0.1
1070
    74
1070
     0
1070
    77
1070
     1
1070
    78
1070
     8
1070
   140
1040
3.5
1070
   147
1040
1.05
1070
   171
1070
     3
1070
   172
1070
     1
1070
   173
1070
     1
1070
   176
1070
     7
1070
   177
1070
     7
1070
   178
1070
     7
1070
   271
1070
     1
1070
   272
1070
     3
1070
   274
1070
     4
1070
   278
1070
    44
1070
   284
1070
     8
1070
   340
1005
128
1070
   345
1005
16
1070
   346
1005
16
1070
   347
1005
16
1070
   371
1070
    13
1070
   372
1070
    13
1002
}
  0
DIMENSION
  5
502
330
1F
100
AcDbEntity
  8
2
100
AcDbDimension
280
     0
  2
*D19
 10
0.0000000000000013
 20
20.49678999999998
 30
0.0
 11
-10.25
 21
20.49678999999998
 31
0.0
 70
   160
 42
20.5
 73
     0
 74
     0
 75
     0
  3
Standard
100
AcDbAlignedDimension
 13
-20.5
 23
-16.55000000000001
 33
0.0
 14
0.0
 24
0.0
 34
0.0
100
AcDbRotatedDimension
1001
ACAD
1000
DSTYLE
1002
{
1070
   371
1070
    13
1070
   372
1070
    13
1070
   170
1070
     0
1070
   144
1040
1.0
1070
   277
1070
     2
1070
   284
1070
     8
1070
   278
1070
    44
1070
   146
1040
1.0
1070
   345
1005
16
1070
   347
1005
16
1070
   346
1005
16
1070
   344
1005
0
1070
   343
1005
0
1070
   172
1070
     1
1070
    76
1070
     0
1070
    75
1070
     0
1070
   282
1070
     0
1070
   281
1070
     0
1070
    71
1070
     0
1070
    74
1070
     0
1070
   279
1070
     0
1070
   173
1070
     1
1070
   340
1005
128
1070
   271
1070
     1
1070
   272
1070
     3
1070
    77
1070
     1
1070
    73
1070
     1
1070
   171
1070
     3
1070
   274
1070
     4
1070
   177
1070
   254
1070
   176
1070
   254
1070
   178
1070
   254
1070
    78
1070
     8
1070
    48
1040
-0.1
1070
    41
1040
3.5
1070
   147
1040
1.05
1070
    42
1040
0.0
1070
    44
1040
1.0
1070
   140
1040
3.5
1002
}
1001
ACAD_DSTYLE_DIM_LINETYPE
1070
   380
1005
16
1001
ACAD_DSTYLE_DIM_EXT1_LINETYPE
1070
   381
1005
16
1001
ACAD_DSTYLE_DIM_EXT2_LINETYPE
1070
   382
1005
16
  0
DIMENSION
  5
503
102
{ACAD_XDICTIONARY
360
504
102
}
102
{ACAD_REACTORS
330
505
102
}
330
1F
100
AcDbEntity
  8
2
100
AcDbDimension
280
     0
  2
*D21
 10
-40.22103500000003
 20
13.0
 30
0.0
 11
-40.22103500000002
 21
0.0
 31
0.0
 70
   160
 42
26.00000000000001
 73
     0
 74
     0
 75
     0
  3
Standard
100
AcDbAlignedDimension
 13
-8.861212000000023
 23
-13.0
 33
0.0
 14
-6.417885500000011
 24
13.0
 34
0.0
 50
90.0
100
AcDbRotatedDimension
1001
ACAD
1000
DSTYLE
1002
{
1070
   371
1070
    13
1070
   372
1070
    13
1070
     3
1000
\C254;\H2.63;%%c\H3.50;<>
1070
   170
1070
     0
1070
   144
1040
1.0
1070
   277
1070
     2
1070
   284
1070
     8
1070
   278
1070
    44
1070
   146
1040
1.0
1070
   345
1005
16
1070
   347
1005
16
1070
   346
1005
16
1070
   344
1005
0
1070
   343
1005
0
1070
   172
1070
     1
1070
    76
1070
     0
1070
    75
1070
     0
1070
   282
1070
     0
1070
   281
1070
     0
1070
    71
1070
     0
1070
    74
1070
     0
1070
   279
1070
     0
1070
   173
1070
     1
1070
   340
1005
128
1070
   271
1070
     0
1070
   272
1070
     3
1070
    77
1070
     1
1070
    73
1070
     0
1070
   171
1070
     3
1070
   274
1070
     4
1070
   177
1070
   254
1070
   176
1070
   254
1070
   178
1070
   254
1070
    78
1070
     8
1070
    48
1040
-0.1
1070
    41
1040
3.5
1070
   147
1040
1.05
1070
    42
1040
0.0
1070
    44
1040
1.0
1070
   140
1040
3.5
1002
}
1001
ACAD_DSTYLE_DIM_LINETYPE
1070
   380
1005
16
1001
ACAD_DSTYLE_DIM_EXT1_LINETYPE
1070
   381
1005
16
1001
ACAD_DSTYLE_DIM_EXT2_LINETYPE
1070
   382
1005
16
  0
DIMENSION
  5
506
330
1F
100
AcDbEntity
  8
2
100
AcDbDimension
280
     0
  2
*D20
 10
-32.82158671916079
 20
-16.55000000000002
 30
0.0
 11
-32.82158671916079
 21
-27.76666666666683
 31
0.0
 70
   160
 42
16.55000000000001
 73
     0
 74
     1
 75
     1
  3
Standard
100
AcDbAlignedDimension
 13
-0.5
 23
0.0
 33
0.0
 14
-20.5
 24
-16.55000000000001
 34
0.0
 50
90.0
100
AcDbRotatedDimension
1001
ACAD_DSTYLE_DIM_LINETYPE
1070
   380
1005
16
1001
ACAD_DSTYLE_DIM_EXT1_LINETYPE
1070
   381
1005
16
1001
ACAD_DSTYLE_DIM_EXT2_LINETYPE
1070
   382
1005
16
1001
ACAD
1000
DSTYLE
1002
{
1070
    41
1040
3.5
1070
    42
1040
0.0
1070
    44
1040
1.0
1070
    48
1040
-0.1
1070
    73
1070
     0
1070
    74
1070
     0
1070
    77
1070
     1
1070
    78
1070
     8
1070
   140
1040
3.5
1070
   147
1040
1.05
1070
   171
1070
     3
1070
   172
1070
     1
1070
   173
1070
     1
1070
   176
1070
   254
1070
   177
1070
   254
1070
   178
1070
   254
1070
   271
1070
     3
1070
   272
1070
     3
1070
   274
1070
     4
1070
   278
1070
    44
1070
   284
1070
     8
1070
   340
1005
128
1070
   345
1005
16
1070
   346
1005
16
1070
   347
1005
16
1070
   371
1070
    13
1070
   372
1070
    13
1002
}
  0
DIMENSION
  5
507
102
{ACAD_XDICTIONARY
360
508
102
}
102
{ACAD_REACTORS
330
509
102
}
330
1F
100
AcDbEntity
  8
SK2
100
AcDbDimension
280
     0
  2
*D22
 10
174.7885658932113
 20
-11.00000034738582
 30
0.0
 11
171.9885658932113
 21
0.7499998263070426
 31
0.0
 70
    33
  1
%%C25
 71
     5
 42
23.50000034738583
 73
     0
 74
     0
 75
     0
  3
Standard
100
AcDbAlignedDimension
 13
157.5
 23
12.5
 33
0.0
 14
157.5000000232246
 24
-11.00000034738582
 34
0.0
1001
ACAD
1000
DSTYLE
1002
{
1070
    41
1040
3.5
1070
    42
1040
0.0
1070
    44
1040
1.0
1070
    48
1040
-0.1
1070
    73
1070
     0
1070
    74
1070
     0
1070
    76
1070
     1
1070
    77
1070
     1
1070
    78
1070
     8
1070
   140
1040
3.5
1070
   147
1040
1.05
1070
   171
1070
     3
1070
   172
1070
     1
1070
   173
1070
     1
1070
   176
1070
     7
1070
   177
1070
     7
1070
   178
1070
     7
1070
   271
1070
     3
1070
   272
1070
     3
1070
   274
1070
     4
1070
   278
1070
    44
1070
   282
1070
     1
1070
   284
1070
     8
1070
   340
1005
128
1070
   345
1005
16
1070
   346
1005
16
1070
   347
1005
16
1070
   371
1070
    13
1070
   372
1070
    13
1002
}
  0
ENDSEC
  0
SECTION
  2
OBJECTS
  0
DICTIONARY
  5
C
330
0
100
AcDbDictionary
281
     1
  3
ACAD_CIP_PREVIOUS_PRODUCT_INFO
350
218
  3
ACAD_COLOR
350
206
  3
ACAD_DETAILVIEWSTYLE
350
202
  3
ACAD_GROUP
350
D
  3
ACAD_LAYOUT
350
1A
  3
ACAD_MATERIAL
350
43
  3
ACAD_MLEADERSTYLE
350
6B
  3
ACAD_MLINESTYLE
350
17
  3
ACAD_PLOTSETTINGS
350
19
  3
ACAD_PLOTSTYLENAME
350
E
  3
ACAD_SCALELIST
350
47
  3
ACAD_SECTIONVIEWSTYLE
350
203
  3
ACAD_TABLESTYLE
350
69
  3
ACAD_VISUALSTYLE
350
2A
  3
ACDB_RECOMPOSE_DATA
350
5B2
  3
AcDbVariableDictionary
350
1BF
  0
DICTIONARY
  5
3EE
330
2
100
AcDbDictionary
280
     1
281
     1
  3
ACAD_LAYERSTATES
360
3EF
  0
DICTIONARY
  5
5A1
330
10
100
AcDbDictionary
280
     1
281
     1
  3
ADSK_XREC_LAYER_RECONCILED
360
5A2
  0
DICTIONARY
  5
3DC
330
3DB
100
AcDbDictionary
280
     1
281
     1
  3
ADSK_XREC_LAYER_RECONCILED
360
5A3
  0
DICTIONARY
  5
3DE
330
3DD
100
AcDbDictionary
280
     1
281
     1
  3
ADSK_XREC_LAYER_RECONCILED
360
5A4
  0
DICTIONARY
  5
3E0
330
3DF
100
AcDbDictionary
280
     1
281
     1
  3
ADSK_XREC_LAYER_RECONCILED
360
5A5
  0
DICTIONARY
  5
3E2
330
3E1
100
AcDbDictionary
280
     1
281
     1
  3
ADSK_XREC_LAYER_RECONCILED
360
5A6
  0
DICTIONARY
  5
3E4
330
3E3
100
AcDbDictionary
280
     1
281
     1
  3
ADSK_XREC_LAYER_RECONCILED
360
5A7
  0
DICTIONARY
  5
3E6
330
3E5
100
AcDbDictionary
280
     1
281
     1
  3
ADSK_XREC_LAYER_RECONCILED
360
5A8
  0
DICTIONARY
  5
3E8
330
3E7
100
AcDbDictionary
280
     1
281
     1
  3
ADSK_XREC_LAYER_RECONCILED
360
5A9
  0
DICTIONARY
  5
3EA
330
3E9
100
AcDbDictionary
280
     1
281
     1
  3
ADSK_XREC_LAYER_RECONCILED
360
5AA
  0
DICTIONARY
  5
3EC
330
3EB
100
AcDbDictionary
280
     1
281
     1
  3
ADSK_XREC_LAYER_RECONCILED
360
5AB
  0
DICTIONARY
  5
504
330
503
100
AcDbDictionary
280
     1
281
     1
  3
ACAD_DIMASSOC
360
505
  0
DICTIONARY
  5
508
330
507
100
AcDbDictionary
280
     1
281
     1
  3
ACAD_DIMASSOC
360
509
  0
XRECORD
  5
218
102
{ACAD_REACTORS
330
C
102
}
330
C
100
AcDbXrecord
280
     1
300
ACD
300
2019
300
87084ACD_2019_0F
  0
DICTIONARY
  5
206
102
{ACAD_REACTORS
330
C
102
}
330
C
100
AcDbDictionary
281
     1
  0
DICTIONARY
  5
202
102
{ACAD_REACTORS
330
C
102
}
330
C
100
AcDbDictionary
281
     1
  3
Metric50
350
208
  0
DICTIONARY
  5
D
102
{ACAD_REACTORS
330
C
102
}
330
C
100
AcDbDictionary
281
     1
  0
DICTIONARY
  5
1A
102
{ACAD_REACTORS
330
C
102
}
330
C
100
AcDbDictionary
281
     1
  3
Layout1
350
1E
  3
Layout2
350
26
  3
Model
350
22
  0
DICTIONARY
  5
43
102
{ACAD_REACTORS
330
C
102
}
330
C
100
AcDbDictionary
281
     1
  3
ByBlock
350
45
  3
ByLayer
350
44
  3
Global
350
46
  0
DICTIONARY
  5
6B
102
{ACAD_REACTORS
330
C
102
}
330
C
100
AcDbDictionary
281
     1
  3
Standard
350
6C
  0
DICTIONARY
  5
17
102
{ACAD_REACTORS
330
C
102
}
330
C
100
AcDbDictionary
281
     1
  3
Standard
350
18
  0
DICTIONARY
  5
19
102
{ACAD_REACTORS
330
C
102
}
330
C
100
AcDbDictionary
281
     1
  0
ACDBDICTIONARYWDFLT
  5
E
102
{ACAD_REACTORS
330
C
102
}
330
C
100
AcDbDictionary
281
     1
  3
Normal
350
F
100
AcDbDictionaryWithDefault
340
F
  0
DICTIONARY
  5
47
102
{ACAD_REACTORS
330
C
102
}
330
C
100
AcDbDictionary
281
     1
  3
A0
350
48
  3
A1
350
49
  3
A2
350
4A
  3
A3
350
4B
  3
A4
350
4C
  3
A5
350
4D
  3
A6
350
4E
  3
A7
350
4F
  3
A8
350
50
  3
A9
350
51
  3
B0
350
52
  3
B1
350
53
  3
B2
350
54
  3
B3
350
55
  3
B4
350
56
  3
B5
350
57
  3
B6
350
58
  3
B7
350
59
  3
B8
350
5A
  3
B9
350
5B
  3
C0
350
5C
  3
C1
350
5D
  3
C2
350
5E
  3
C3
350
5F
  3
C4
350
60
  3
C5
350
61
  3
C6
350
62
  3
C7
350
63
  3
C8
350
64
  3
C9
350
65
  3
D0
350
66
  3
D1
350
67
  3
D2
350
68
  0
DICTIONARY
  5
203
102
{ACAD_REACTORS
330
C
102
}
330
C
100
AcDbDictionary
281
     1
  3
Metric50
350
207
  0
DICTIONARY
  5
69
102
{ACAD_REACTORS
330
C
102
}
330
C
100
AcDbDictionary
281
     1
  3
Standard
350
6A
  0
DICTIONARY
  5
2A
102
{ACAD_REACTORS
330
C
102
}
330
C
100
AcDbDictionary
281
     1
  3
2dWireframe
350
2F
  3
Basic
350
32
  3
Brighten
350
36
  3
ColorChange
350
3A
  3
Conceptual
350
34
  3
Dim
350
35
  3
EdgeColorOff
350
3D
  3
Facepattern
350
39
  3
Flat
350
2B
  3
FlatWithEdges
350
2C
  3
Gouraud
350
2D
  3
GouraudWithEdges
350
2E
  3
Hidden
350
31
  3
JitterOff
350
3B
  3
Linepattern
350
38
  3
OverhangOff
350
3C
  3
Realistic
350
33
  3
Shaded
350
42
  3
Shaded with edges
350
41
  3
Shades of Gray
350
3E
  3
Sketchy
350
3F
  3
Thicken
350
37
  3
Wireframe
350
30
  3
X-Ray
350
40
  0
XRECORD
  5
5B2
102
{ACAD_REACTORS
330
C
102
}
330
C
100
AcDbXrecord
280
     1
 90
        1
330
6A
  0
DICTIONARY
  5
1BF
102
{ACAD_REACTORS
330
C
102
}
330
C
100
AcDbDictionary
281
     1
  3
CANNOSCALE
350
1C0
  3
CMLEADERSTYLE
350
201
  3
CTABLESTYLE
350
200
  3
CVIEWDETAILSTYLE
350
5AC
  3
CVIEWSECTIONSTYLE
350
5AD
  3
LAYEREVAL
350
5AF
  3
LAYERNOTIFY
350
5B0
  3
LIGHTINGUNITS
350
5AE
  3
MSLTSCALE
350
1C1
  0
DICTIONARY
  5
3EF
102
{ACAD_REACTORS
330
3EE
102
}
330
3EE
100
AcDbDictionary
281
     1
  0
XRECORD
  5
5A2
102
{ACAD_REACTORS
330
5A1
102
}
330
5A1
100
AcDbXrecord
280
     1
290
     1
  0
XRECORD
  5
5A3
102
{ACAD_REACTORS
330
3DC
102
}
330
3DC
100
AcDbXrecord
280
     1
290
     1
  0
XRECORD
  5
5A4
102
{ACAD_REACTORS
330
3DE
102
}
330
3DE
100
AcDbXrecord
280
     1
290
     1
  0
XRECORD
  5
5A5
102
{ACAD_REACTORS
330
3E0
102
}
330
3E0
100
AcDbXrecord
280
     1
290
     1
  0
XRECORD
  5
5A6
102
{ACAD_REACTORS
330
3E2
102
}
330
3E2
100
AcDbXrecord
280
     1
290
     1
  0
XRECORD
  5
5A7
102
{ACAD_REACTORS
330
3E4
102
}
330
3E4
100
AcDbXrecord
280
     1
290
     1
  0
XRECORD
  5
5A8
102
{ACAD_REACTORS
330
3E6
102
}
330
3E6
100
AcDbXrecord
280
     1
290
     1
  0
XRECORD
  5
5A9
102
{ACAD_REACTORS
330
3E8
102
}
330
3E8
100
AcDbXrecord
280
     1
290
     1
  0
XRECORD
  5
5AA
102
{ACAD_REACTORS
330
3EA
102
}
330
3EA
100
AcDbXrecord
280
     1
290
     1
  0
XRECORD
  5
5AB
102
{ACAD_REACTORS
330
3EC
102
}
330
3EC
100
AcDbXrecord
280
     1
290
     1
  0
DIMASSOC
  5
505
102
{ACAD_REACTORS
330
504
102
}
330
504
100
AcDbDimAssoc
330
503
 90
        2
 70
     0
 71
     1
  1
AcDbOsnapPointRef
 72
     2
331
489
 73
     2
 91
        2
 40
5.917886
 10
187.791319
 20
315.42449
 30
0.0
 75
     0
  0
DIMASSOC
  5
509
102
{ACAD_REACTORS
330
508
102
}
330
508
100
AcDbDimAssoc
330
507
 90
        3
 70
     0
 71
     0
  1
AcDbOsnapPointRef
 72
    13
331
4AA
 73
     2
 91
        0
 40
0.0
 10
366.6250933027799
 20
13.44209235651456
 30
0.0
 75
     0
  1
AcDbOsnapPointRef
 72
    13
331
4ED
 73
     2
 91
        0
 40
0.0
 10
366.6250933260045
 20
-10.05790799087125
 30
0.0
 75
     0
  0
ACDBDETAILVIEWSTYLE
  5
208
102
{ACAD_REACTORS
330
202
102
}
330
202
100
AcDbModelDocViewStyle
 70
     0
  3
Metric50
290
     0
300
Metric50
 90
        0
100
AcDbDetailViewStyle
 70
     0
 71
     0
 90
        3
 71
     1
340
11
 62
   256
 40
5.0
340
0
 62
   256
 40
5.0
300

 40
0.0
280
     1
 71
     2
340
16
 90
       25
 62
   256
 71
     3
340
11
 62
   256
 40
5.0
 90
        0
 40
15.0
 90
        1
300
%<\AcVar ViewDetailId>% (%<\AcVar ViewScale \f "%sn">%)
 71
     4
340
16
 90
       25
 62
   256
340
16
 90
       25
 62
   256
280
     0
  0
LAYOUT
  5
1E
102
{ACAD_REACTORS
330
1A
102
}
330
1A
100
AcDbPlotSettings
  1

  2
none_device
  4

  6

 40
0.0
 41
0.0
 42
0.0
 43
0.0
 44
0.0
 45
0.0
 46
0.0
 47
0.0
 48
0.0
 49
0.0
140
0.0
141
0.0
142
1.0
143
1.0
 70
   688
 72
     0
 73
     0
 74
     5
  7

 75
    16
147
1.0
 76
     0
 77
     2
 78
   300
148
0.0
149
0.0
100
AcDbLayout
  1
Layout1
 70
     1
 71
     1
 10
-0.5
 20
-0.5
 11
5.0
 21
5.0
 12
0.0
 22
0.0
 32
0.0
 14
-0.5
 24
-0.5
 34
-0.5
 15
5.0
 25
5.0
 35
5.0
146
0.0
 13
0.0
 23
0.0
 33
0.0
 16
1.0
 26
0.0
 36
0.0
 17
0.0
 27
1.0
 37
0.0
 76
     0
330
1B
  0
LAYOUT
  5
26
102
{ACAD_REACTORS
330
1A
102
}
330
1A
100
AcDbPlotSettings
  1

  2
none_device
  4

  6

 40
0.0
 41
0.0
 42
0.0
 43
0.0
 44
0.0
 45
0.0
 46
0.0
 47
0.0
 48
0.0
 49
0.0
140
0.0
141
0.0
142
1.0
143
1.0
 70
   688
 72
     0
 73
     0
 74
     5
  7

 75
    16
147
1.0
 76
     0
 77
     2
 78
   300
148
0.0
149
0.0
100
AcDbLayout
  1
Layout2
 70
     1
 71
     2
 10
0.0
 20
0.0
 11
0.0
 21
0.0
 12
0.0
 22
0.0
 32
0.0
 14
0.0
 24
0.0
 34
0.0
 15
0.0
 25
0.0
 35
0.0
146
0.0
 13
0.0
 23
0.0
 33
0.0
 16
1.0
 26
0.0
 36
0.0
 17
0.0
 27
1.0
 37
0.0
 76
     0
330
23
  0
LAYOUT
  5
22
102
{ACAD_REACTORS
330
1A
102
}
330
1A
100
AcDbPlotSettings
  1

  2
none_device
  4
Letter_(8.50_x_11.00_Inches)
  6

 40
6.349999999999999
 41
6.349999999999999
 42
6.350005
 43
6.350005
 44
215.9
 45
279.4
 46
0.0
 47
0.0
 48
0.0
 49
0.0
140
0.0
141
0.0
142
1.0
143
1.0
 70
  1712
 72
     0
 73
     0
 74
     0
  7

 75
     0
147
1.0
 76
     0
 77
     2
 78
   300
148
0.0
149
0.0
100
AcDbLayout
  1
Model
 70
     1
 71
     0
 10
-0.5
 20
-0.5
 11
5.0
 21
5.0
 12
0.0
 22
0.0
 32
0.0
 14
-0.5
 24
-0.5
 34
-0.5
 15
5.0
 25
5.0
 35
5.0
146
0.0
 13
0.0
 23
0.0
 33
0.0
 16
1.0
 26
0.0
 36
0.0
 17
0.0
 27
1.0
 37
0.0
 76
     0
330
1F
331
29
  0
MATERIAL
  5
45
102
{ACAD_XDICTIONARY
360
1F5
102
}
102
{ACAD_REACTORS
330
43
102
}
330
43
100
AcDbMaterial
  1
ByBlock
  0
MATERIAL
  5
44
102
{ACAD_XDICTIONARY
360
1F3
102
}
102
{ACAD_REACTORS
330
43
102
}
330
43
100
AcDbMaterial
  1
ByLayer
  0
MATERIAL
  5
46
102
{ACAD_XDICTIONARY
360
1F7
102
}
102
{ACAD_REACTORS
330
43
102
}
330
43
100
AcDbMaterial
  1
Global
  0
MLEADERSTYLE
  5
6C
102
{ACAD_REACTORS
330
6B
102
}
330
6B
100
AcDbMLeaderStyle
179
     2
170
     2
171
     1
172
     0
 90
        2
 40
0.0
 41
0.0
173
     1
 91
-1056964608
340
14
 92
       -2
290
     1
 42
0.09
291
     1
 43
0.36
  3
Standard
 44
0.18
300

342
11
174
     1
178
     6
175
     1
176
     0
 93
-1056964608
 45
0.18
292
     0
297
     0
 46
0.18
 94
-1056964608
 47
1.0
 49
1.0
140
1.0
293
     1
141
0.0
294
     1
177
     0
142
1.0
295
     0
296
     0
143
0.125
271
     0
272
     9
273
     9
298
     0
1001
ACAD_MLEADERVER
1070
     2
  0
MLINESTYLE
  5
18
102
{ACAD_REACTORS
330
17
102
}
330
17
100
AcDbMlineStyle
  2
STANDARD
 70
     0
  3

 62
   256
 51
90.0
 52
90.0
 71
     2
 49
0.5
 62
   256
  6
BYLAYER
 49
-0.5
 62
   256
  6
BYLAYER
  0
ACDBPLACEHOLDER
  5
F
102
{ACAD_REACTORS
330
E
102
}
330
E
  0
SCALE
  5
48
102
{ACAD_REACTORS
330
47
102
}
330
47
100
AcDbScale
 70
     0
300
1:1
140
1.0
141
1.0
290
     1
  0
SCALE
  5
49
102
{ACAD_REACTORS
330
47
102
}
330
47
100
AcDbScale
 70
     0
300
1:2
140
1.0
141
2.0
290
     0
  0
SCALE
  5
4A
102
{ACAD_REACTORS
330
47
102
}
330
47
100
AcDbScale
 70
     0
300
1:4
140
1.0
141
4.0
290
     0
  0
SCALE
  5
4B
102
{ACAD_REACTORS
330
47
102
}
330
47
100
AcDbScale
 70
     0
300
1:5
140
1.0
141
5.0
290
     0
  0
SCALE
  5
4C
102
{ACAD_REACTORS
330
47
102
}
330
47
100
AcDbScale
 70
     0
300
1:8
140
1.0
141
8.0
290
     0
  0
SCALE
  5
4D
102
{ACAD_REACTORS
330
47
102
}
330
47
100
AcDbScale
 70
     0
300
1:10
140
1.0
141
10.0
290
     0
  0
SCALE
  5
4E
102
{ACAD_REACTORS
330
47
102
}
330
47
100
AcDbScale
 70
     0
300
1:16
140
1.0
141
16.0
290
     0
  0
SCALE
  5
4F
102
{ACAD_REACTORS
330
47
102
}
330
47
100
AcDbScale
 70
     0
300
1:20
140
1.0
141
20.0
290
     0
  0
SCALE
  5
50
102
{ACAD_REACTORS
330
47
102
}
330
47
100
AcDbScale
 70
     0
300
1:30
140
1.0
141
30.0
290
     0
  0
SCALE
  5
51
102
{ACAD_REACTORS
330
47
102
}
330
47
100
AcDbScale
 70
     0
300
1:40
140
1.0
141
40.0
290
     0
  0
SCALE
  5
52
102
{ACAD_REACTORS
330
47
102
}
330
47
100
AcDbScale
 70
     0
300
1:50
140
1.0
141
50.0
290
     0
  0
SCALE
  5
53
102
{ACAD_REACTORS
330
47
102
}
330
47
100
AcDbScale
 70
     0
300
1:100
140
1.0
141
100.0
290
     0
  0
SCALE
  5
54
102
{ACAD_REACTORS
330
47
102
}
330
47
100
AcDbScale
 70
     0
300
2:1
140
2.0
141
1.0
290
     0
  0
SCALE
  5
55
102
{ACAD_REACTORS
330
47
102
}
330
47
100
AcDbScale
 70
     0
300
4:1
140
4.0
141
1.0
290
     0
  0
SCALE
  5
56
102
{ACAD_REACTORS
330
47
102
}
330
47
100
AcDbScale
 70
     0
300
8:1
140
8.0
141
1.0
290
     0
  0
SCALE
  5
57
102
{ACAD_REACTORS
330
47
102
}
330
47
100
AcDbScale
 70
     0
300
10:1
140
10.0
141
1.0
290
     0
  0
SCALE
  5
58
102
{ACAD_REACTORS
330
47
102
}
330
47
100
AcDbScale
 70
     0
300
100:1
140
100.0
141
1.0
290
     0
  0
SCALE
  5
59
102
{ACAD_REACTORS
330
47
102
}
330
47
100
AcDbScale
 70
     0
300
1/128" = 1'-0"
140
0.007812
141
12.0
290
     0
  0
SCALE
  5
5A
102
{ACAD_REACTORS
330
47
102
}
330
47
100
AcDbScale
 70
     0
300
1/64" = 1'-0"
140
0.015625
141
12.0
290
     0
  0
SCALE
  5
5B
102
{ACAD_REACTORS
330
47
102
}
330
47
100
AcDbScale
 70
     0
300
1/32" = 1'-0"
140
0.03125
141
12.0
290
     0
  0
SCALE
  5
5C
102
{ACAD_REACTORS
330
47
102
}
330
47
100
AcDbScale
 70
     0
300
1/16" = 1'-0"
140
0.0625
141
12.0
290
     0
  0
SCALE
  5
5D
102
{ACAD_REACTORS
330
47
102
}
330
47
100
AcDbScale
 70
     0
300
3/32" = 1'-0"
140
0.09375
141
12.0
290
     0
  0
SCALE
  5
5E
102
{ACAD_REACTORS
330
47
102
}
330
47
100
AcDbScale
 70
     0
300
1/8" = 1'-0"
140
0.125
141
12.0
290
     0
  0
SCALE
  5
5F
102
{ACAD_REACTORS
330
47
102
}
330
47
100
AcDbScale
 70
     0
300
3/16" = 1'-0"
140
0.1875
141
12.0
290
     0
  0
SCALE
  5
60
102
{ACAD_REACTORS
330
47
102
}
330
47
100
AcDbScale
 70
     0
300
1/4" = 1'-0"
140
0.25
141
12.0
290
     0
  0
SCALE
  5
61
102
{ACAD_REACTORS
330
47
102
}
330
47
100
AcDbScale
 70
     0
300
3/8" = 1'-0"
140
0.375
141
12.0
290
     0
  0
SCALE
  5
62
102
{ACAD_REACTORS
330
47
102
}
330
47
100
AcDbScale
 70
     0
300
1/2" = 1'-0"
140
0.5
141
12.0
290
     0
  0
SCALE
  5
63
102
{ACAD_REACTORS
330
47
102
}
330
47
100
AcDbScale
 70
     0
300
3/4" = 1'-0"
140
0.75
141
12.0
290
     0
  0
SCALE
  5
64
102
{ACAD_REACTORS
330
47
102
}
330
47
100
AcDbScale
 70
     0
300
1" = 1'-0"
140
1.0
141
12.0
290
     0
  0
SCALE
  5
65
102
{ACAD_REACTORS
330
47
102
}
330
47
100
AcDbScale
 70
     0
300
1-1/2" = 1'-0"
140
1.5
141
12.0
290
     0
  0
SCALE
  5
66
102
{ACAD_REACTORS
330
47
102
}
330
47
100
AcDbScale
 70
     0
300
3" = 1'-0"
140
3.0
141
12.0
290
     0
  0
SCALE
  5
67
102
{ACAD_REACTORS
330
47
102
}
330
47
100
AcDbScale
 70
     0
300
6" = 1'-0"
140
6.0
141
12.0
290
     0
  0
SCALE
  5
68
102
{ACAD_REACTORS
330
47
102
}
330
47
100
AcDbScale
 70
     0
300
1'-0" = 1'-0"
140
12.0
141
12.0
290
     0
  0
ACDBSECTIONVIEWSTYLE
  5
207
102
{ACAD_REACTORS
330
203
102
}
330
203
100
AcDbModelDocViewStyle
 70
     0
  3
Metric50
290
     0
300
Metric50
 90
        0
100
AcDbSectionViewStyle
 70
     0
 71
     0
 90
      102
 71
     1
340
11
 62
   256
 40
5.0
340
0
340
0
 62
   256
 40
5.0
300
I, O, Q, S, X, Z
 40
10.0
 90
        0
 40
2.5
 90
        0
 71
     2
340
16
 90
       25
 62
   256
340
16
 90
       50
 62
   256
 40
5.0
 40
2.5
 40
5.0
 71
     3
340
11
 62
   256
 40
5.0
 90
        0
 40
15.0
 90
        1
300
%<\AcVar ViewSectionStartId>%-%<\AcVar ViewSectionEndId>% (%<\AcVar ViewScale \f "%sn">%)
 71
     4
 62
   256
 62
   257
300
ANSI31
 40
1.0
 90
        0
290
     0
290
     0
 90
        6
 40
0.0
 40
1.570796326794896
 40
0.2617993877991494
 40
1.308996938995747
 40
-0.2617993877991494
 40
1.832595714594046
  0
TABLESTYLE
  5
6A
102
{ACAD_XDICTIONARY
360
1F9
102
}
102
{ACAD_REACTORS
330
69
102
}
330
69
100
AcDbTableStyle
280
     0
  3
Standard
 70
     0
 71
     0
 40
0.06
 41
0.06
280
     0
281
     0
  7
Standard
140
0.18
170
     2
 62
     0
 63
     7
283
     0
 90
        4
 91
        0
  1

274
    -2
284
     1
 64
     0
275
    -2
285
     1
 65
     0
276
    -2
286
     1
 66
     0
277
    -2
287
     1
 67
     0
278
    -2
288
     1
 68
     0
279
    -2
289
     1
 69
     0
  7
Standard
140
0.25
170
     5
 62
     0
 63
     7
283
     0
 90
        4
 91
        0
  1

274
    -2
284
     1
 64
     0
275
    -2
285
     1
 65
     0
276
    -2
286
     1
 66
     0
277
    -2
287
     1
 67
     0
278
    -2
288
     1
 68
     0
279
    -2
289
     1
 69
     0
  7
Standard
140
0.18
170
     5
 62
     0
 63
     7
283
     0
 90
        4
 91
        0
  1

274
    -2
284
     1
 64
     0
275
    -2
285
     1
 65
     0
276
    -2
286
     1
 66
     0
277
    -2
287
     1
 67
     0
278
    -2
288
     1
 68
     0
279
    -2
289
     1
 69
     0
  0
VISUALSTYLE
  5
2F
102
{ACAD_REACTORS
330
2A
102
}
330
2A
100
AcDbVisualStyle
  2

 70
     4
177
     3
291
     0
 70
    58
 90
        0
176
     1
 90
        2
176
     1
 90
        0
176
     1
 90
        0
176
     1
 40
0.6
176
     1
 40
30.0
176
     1
 62
     7
420
 16777215
176
     1
 90
        1
176
     1
 90
        4
176
     1
 62
     7
176
     1
 62
   257
176
     1
 90
        1
176
     1
 90
        1
176
     1
 40
1.0
176
     1
 90
        0
176
     1
 62
   257
176
     1
 40
1.0
176
     1
 90
        1
176
     1
 90
        6
176
     1
 90
        2
176
     1
 62
     7
176
     1
 90
        5
176
     1
 90
        0
176
     1
 90
        0
176
     1
290
     0
176
     1
 90
        1
176
     1
 40
0.0
176
     1
 90
        0
176
     1
290
     1
176
     1
290
     1
176
     1
290
     0
176
     1
290
     0
176
     1
290
     0
176
     1
290
     0
176
     1
290
     0
176
     1
290
     0
176
     1
290
     0
176
     1
 90
       50
176
     1
 40
0.0
176
     1
 40
1.0
176
     1
 90
        0
176
     1
 62
    18
420
        0
176
     1
 90
       50
176
     1
 90
        3
176
     1
 62
     5
420
      255
176
     1
290
     0
176
     1
 90
       50
176
     1
 90
       50
176
     1
 90
       50
176
     1
290
     0
176
     1
 90
       50
176
     1
 62
   256
176
     0
 40
1.0
176
     0
 90
        2
176
     1
  1
strokes_ogs.tif
176
     1
290
     0
176
     1
 40
1.0
176
     1
 40
1.0
176
     1
1001
ACAD
1000
AcDbSavedByObjectVersion
1070
     0
  0
VISUALSTYLE
  5
32
102
{ACAD_REACTORS
330
2A
102
}
330
2A
100
AcDbVisualStyle
  2

 70
     7
177
     3
291
     1
 70
    58
 90
        1
176
     1
 90
        0
176
     1
 90
        1
176
     1
 90
        0
176
     1
 40
0.6
176
     1
 40
30.0
176
     1
 62
     7
420
 16777215
176
     1
 90
        0
176
     1
 90
        4
176
     1
 62
     7
176
     1
 62
   257
176
     1
 90
        1
176
     1
 90
        1
176
     1
 40
1.0
176
     1
 90
        8
176
     1
 62
     7
176
     1
 40
1.0
176
     1
 90
        1
176
     1
 90
        6
176
     1
 90
        2
176
     1
 62
     7
176
     1
 90
        5
176
     1
 90
        0
176
     1
 90
        0
176
     1
290
     0
176
     1
 90
        1
176
     1
 40
0.0
176
     1
 90
        0
176
     1
290
     0
176
     1
290
     1
176
     1
290
     1
176
     1
290
     0
176
     1
290
     0
176
     1
290
     0
176
     1
290
     0
176
     1
290
     0
176
     1
290
     0
176
     1
 90
       50
176
     1
 40
0.0
176
     1
 40
1.0
176
     1
 90
        0
176
     1
 62
    18
420
        0
176
     1
 90
       50
176
     1
 90
        3
176
     1
 62
     5
420
      255
176
     1
290
     0
176
     1
 90
       50
176
     1
 90
       50
176
     1
 90
       50
176
     1
290
     0
176
     1
 90
       50
176
     1
 62
   256
176
     0
 40
1.0
176
     0
 90
        2
176
     1
  1
strokes_ogs.tif
176
     1
290
     0
176
     1
 40
1.0
176
     1
 40
1.0
176
     1
1001
ACAD
1000
AcDbSavedByObjectVersion
1070
     0
  0
VISUALSTYLE
  5
36
102
{ACAD_REACTORS
330
2A
102
}
330
2A
100
AcDbVisualStyle
  2

 70
    12
177
     3
291
     1
 70
    58
 90
        2
176
     1
 90
        2
176
     1
 90
        0
176
     1
 90
        0
176
     1
 40
0.6
176
     1
 40
30.0
176
     1
 62
     7
420
 16777215
176
     1
 90
        1
176
     1
 90
        4
176
     1
 62
     7
176
     1
 62
   257
176
     1
 90
        1
176
     1
 90
        1
176
     1
 40
1.0
176
     1
 90
        8
176
     1
 62
     7
176
     1
 40
1.0
176
     1
 90
        1
176
     1
 90
        6
176
     1
 90
        2
176
     1
 62
     7
176
     1
 90
        5
176
     1
 90
        0
176
     1
 90
        0
176
     1
290
     0
176
     1
 90
        1
176
     1
 40
50.0
176
     1
 90
        0
176
     1
290
     0
176
     1
290
     1
176
     1
290
     1
176
     1
290
     0
176
     1
290
     0
176
     1
290
     0
176
     1
290
     0
176
     1
290
     0
176
     1
290
     0
176
     1
 90
       50
176
     1
 40
0.0
176
     1
 40
1.0
176
     1
 90
        0
176
     1
 62
    18
420
        0
176
     1
 90
       50
176
     1
 90
        3
176
     1
 62
     5
420
      255
176
     1
290
     0
176
     1
 90
       50
176
     1
 90
       50
176
     1
 90
       50
176
     1
290
     0
176
     1
 90
       50
176
     1
 62
   256
176
     0
 40
1.0
176
     0
 90
        2
176
     1
  1
strokes_ogs.tif
176
     1
290
     0
176
     1
 40
1.0
176
     1
 40
1.0
176
     1
1001
ACAD
1000
AcDbSavedByObjectVersion
1070
     0
  0
VISUALSTYLE
  5
3A
102
{ACAD_REACTORS
330
2A
102
}
330
2A
100
AcDbVisualStyle
  2

 70
    16
177
     3
291
     1
 70
    58
 90
        2
176
     1
 90
        2
176
     1
 90
        3
176
     1
 90
        0
176
     1
 40
0.6
176
     1
 40
30.0
176
     1
 62
     8
420
  8421504
176
     1
 90
        1
176
     1
 90
        4
176
     1
 62
     7
176
     1
 62
   257
176
     1
 90
        1
176
     1
 90
        1
176
     1
 40
1.0
176
     1
 90
        8
176
     1
 62
     8
420
  8421504
176
     1
 40
1.0
176
     1
 90
        1
176
     1
 90
        6
176
     1
 90
        2
176
     1
 62
     7
176
     1
 90
        5
176
     1
 90
        0
176
     1
 90
        0
176
     1
290
     0
176
     1
 90
        1
176
     1
 40
0.0
176
     1
 90
        0
176
     1
290
     0
176
     1
290
     1
176
     1
290
     1
176
     1
290
     0
176
     1
290
     0
176
     1
290
     0
176
     1
290
     0
176
     1
290
     0
176
     1
290
     0
176
     1
 90
       50
176
     1
 40
0.0
176
     1
 40
1.0
176
     1
 90
        0
176
     1
 62
    18
420
        0
176
     1
 90
       50
176
     1
 90
        3
176
     1
 62
     5
420
      255
176
     1
290
     0
176
     1
 90
       50
176
     1
 90
       50
176
     1
 90
       50
176
     1
290
     0
176
     1
 90
       50
176
     1
 62
   256
176
     0
 40
1.0
176
     0
 90
        2
176
     1
  1
strokes_ogs.tif
176
     1
290
     0
176
     1
 40
1.0
176
     1
 40
1.0
176
     1
1001
ACAD
1000
AcDbSavedByObjectVersion
1070
     0
  0
VISUALSTYLE
  5
34
102
{ACAD_REACTORS
330
2A
102
}
330
2A
100
AcDbVisualStyle
  2

 70
     9
177
     3
291
     0
 70
    58
 90
        3
176
     1
 90
        2
176
     1
 90
        0
176
     1
 90
        0
176
     1
 40
0.6
176
     1
 40
30.0
176
     1
 62
     7
420
 16777215
176
     1
 90
        2
176
     1
 90
        2
176
     1
 62
     7
176
     1
 62
   257
176
     1
 90
        1
176
     1
 90
        1
176
     1
 40
179.0
176
     1
 90
        8
176
     1
 62
     7
176
     1
 40
1.0
176
     1
 90
        1
176
     1
 90
        6
176
     1
 90
        2
176
     1
 62
     7
176
     1
 90
        3
176
     1
 90
        0
176
     1
 90
        0
176
     1
290
     0
176
     1
 90
        1
176
     1
 40
0.0
176
     1
 90
        0
176
     1
290
     0
176
     1
290
     1
176
     1
290
     1
176
     1
290
     0
176
     1
290
     0
176
     1
290
     0
176
     1
290
     0
176
     1
290
     0
176
     1
290
     0
176
     1
 90
       50
176
     1
 40
0.0
176
     1
 40
1.0
176
     1
 90
        0
176
     1
 62
    18
420
        0
176
     1
 90
       50
176
     1
 90
        3
176
     1
 62
     5
420
      255
176
     1
290
     0
176
     1
 90
       50
176
     1
 90
       50
176
     1
 90
       50
176
     1
290
     0
176
     1
 90
       50
176
     1
 62
   256
176
     0
 40
1.0
176
     0
 90
        2
176
     1
  1
strokes_ogs.tif
176
     1
290
     0
176
     1
 40
1.0
176
     1
 40
1.0
176
     1
1001
ACAD
1000
AcDbSavedByObjectVersion
1070
     0
  0
VISUALSTYLE
  5
35
102
{ACAD_REACTORS
330
2A
102
}
330
2A
100
AcDbVisualStyle
  2

 70
    11
177
     3
291
     1
 70
    58
 90
        2
176
     1
 90
        2
176
     1
 90
        0
176
     1
 90
        0
176
     1
 40
0.6
176
     1
 40
30.0
176
     1
 62
     7
420
 16777215
176
     1
 90
        1
176
     1
 90
        4
176
     1
 62
     7
176
     1
 62
   257
176
     1
 90
        1
176
     1
 90
        1
176
     1
 40
1.0
176
     1
 90
        8
176
     1
 62
     7
176
     1
 40
1.0
176
     1
 90
        1
176
     1
 90
        6
176
     1
 90
        2
176
     1
 62
     7
176
     1
 90
        5
176
     1
 90
        0
176
     1
 90
        0
176
     1
290
     0
176
     1
 90
        1
176
     1
 40
-50.0
176
     1
 90
        0
176
     1
290
     0
176
     1
290
     1
176
     1
290
     1
176
     1
290
     0
176
     1
290
     0
176
     1
290
     0
176
     1
290
     0
176
     1
290
     0
176
     1
290
     0
176
     1
 90
       50
176
     1
 40
0.0
176
     1
 40
1.0
176
     1
 90
        0
176
     1
 62
    18
420
        0
176
     1
 90
       50
176
     1
 90
        3
176
     1
 62
     5
420
      255
176
     1
290
     0
176
     1
 90
       50
176
     1
 90
       50
176
     1
 90
       50
176
     1
290
     0
176
     1
 90
       50
176
     1
 62
   256
176
     0
 40
1.0
176
     0
 90
        2
176
     1
  1
strokes_ogs.tif
176
     1
290
     0
176
     1
 40
1.0
176
     1
 40
1.0
176
     1
1001
ACAD
1000
AcDbSavedByObjectVersion
1070
     0
  0
VISUALSTYLE
  5
3D
102
{ACAD_REACTORS
330
2A
102
}
330
2A
100
AcDbVisualStyle
  2

 70
    22
177
     3
291
     1
 70
    58
 90
        2
176
     0
 90
        2
176
     0
 90
        0
176
     0
 90
        0
176
     0
 40
0.6
176
     0
 40
30.0
176
     0
 62
     7
420
 16777215
176
     0
 90
        1
176
     0
 90
        4
176
     0
 62
     7
176
     0
 62
   257
176
     0
 90
        1
176
     0
 90
        1
176
     0
 40
1.0
176
     0
 90
        8
176
     2
 62
     7
176
     0
 40
1.0
176
     0
 90
        1
176
     0
 90
        6
176
     0
 90
        2
176
     0
 62
     7
176
     0
 90
        5
176
     0
 90
        0
176
     0
 90
        0
176
     0
290
     0
176
     0
 90
        1
176
     0
 40
0.0
176
     0
 90
        0
176
     0
290
     0
176
     0
290
     1
176
     0
290
     1
176
     0
290
     0
176
     0
290
     0
176
     0
290
     0
176
     0
290
     0
176
     0
290
     0
176
     0
290
     0
176
     0
 90
       50
176
     0
 40
0.0
176
     0
 40
1.0
176
     0
 90
        0
176
     0
 62
    18
420
        0
176
     0
 90
       50
176
     0
 90
        3
176
     0
 62
     5
420
      255
176
     0
290
     0
176
     0
 90
       50
176
     0
 90
       50
176
     0
 90
       50
176
     0
290
     0
176
     0
 90
       50
176
     0
 62
   256
176
     0
 40
1.0
176
     0
 90
        2
176
     0
  1
strokes_ogs.tif
176
     0
290
     0
176
     0
 40
1.0
176
     0
 40
1.0
176
     0
1001
ACAD
1000
AcDbSavedByObjectVersion
1070
     0
  0
VISUALSTYLE
  5
39
102
{ACAD_REACTORS
330
2A
102
}
330
2A
100
AcDbVisualStyle
  2

 70
    15
177
     3
291
     1
 70
    58
 90
        2
176
     1
 90
        2
176
     1
 90
        0
176
     1
 90
        0
176
     1
 40
0.6
176
     1
 40
30.0
176
     1
 62
     7
420
 16777215
176
     1
 90
        1
176
     1
 90
        4
176
     1
 62
     7
176
     1
 62
   257
176
     1
 90
        1
176
     1
 90
        1
176
     1
 40
1.0
176
     1
 90
        8
176
     1
 62
     7
176
     1
 40
1.0
176
     1
 90
        1
176
     1
 90
        6
176
     1
 90
        2
176
     1
 62
     7
176
     1
 90
        5
176
     1
 90
        0
176
     1
 90
        0
176
     1
290
     0
176
     1
 90
        1
176
     1
 40
0.0
176
     1
 90
        0
176
     1
290
     0
176
     1
290
     1
176
     1
290
     1
176
     1
290
     0
176
     1
290
     0
176
     1
290
     0
176
     1
290
     0
176
     1
290
     0
176
     1
290
     0
176
     1
 90
       50
176
     1
 40
0.0
176
     1
 40
1.0
176
     1
 90
        0
176
     1
 62
    18
420
        0
176
     1
 90
       50
176
     1
 90
        3
176
     1
 62
     5
420
      255
176
     1
290
     0
176
     1
 90
       50
176
     1
 90
       50
176
     1
 90
       50
176
     1
290
     0
176
     1
 90
       50
176
     1
 62
   256
176
     0
 40
1.0
176
     0
 90
        2
176
     1
  1
strokes_ogs.tif
176
     1
290
     0
176
     1
 40
1.0
176
     1
 40
1.0
176
     1
1001
ACAD
1000
AcDbSavedByObjectVersion
1070
     0
  0
VISUALSTYLE
  5
2B
102
{ACAD_REACTORS
330
2A
102
}
330
2A
100
AcDbVisualStyle
  2

 70
     0
177
     3
291
     1
 70
    58
 90
        2
176
     1
 90
        1
176
     1
 90
        1
176
     1
 90
        2
176
     1
 40
0.6
176
     1
 40
30.0
176
     1
 62
     7
420
 16777215
176
     1
 90
        0
176
     1
 90
        0
176
     1
 62
     7
176
     1
 62
   257
176
     1
 90
        1
176
     1
 90
        1
176
     1
 40
1.0
176
     1
 90
        8
176
     1
 62
     7
176
     1
 40
1.0
176
     1
 90
        1
176
     1
 90
        6
176
     1
 90
        2
176
     1
 62
     7
176
     1
 90
        5
176
     1
 90
        0
176
     1
 90
        0
176
     1
290
     0
176
     1
 90
       13
176
     1
 40
0.0
176
     1
 90
        0
176
     1
290
     0
176
     1
290
     1
176
     1
290
     1
176
     1
290
     0
176
     1
290
     0
176
     1
290
     0
176
     1
290
     0
176
     1
290
     0
176
     1
290
     0
176
     1
 90
       50
176
     1
 40
0.0
176
     1
 40
1.0
176
     1
 90
        0
176
     1
 62
    18
420
        0
176
     1
 90
       50
176
     1
 90
        3
176
     1
 62
     5
420
      255
176
     1
290
     0
176
     1
 90
       50
176
     1
 90
       50
176
     1
 90
       50
176
     1
290
     0
176
     1
 90
       50
176
     1
 62
   256
176
     0
 40
1.0
176
     0
 90
        2
176
     1
  1
strokes_ogs.tif
176
     1
290
     0
176
     1
 40
1.0
176
     1
 40
1.0
176
     1
1001
ACAD
1000
AcDbSavedByObjectVersion
1070
     0
  0
VISUALSTYLE
  5
2C
102
{ACAD_REACTORS
330
2A
102
}
330
2A
100
AcDbVisualStyle
  2

 70
     1
177
     3
291
     1
 70
    58
 90
        2
176
     1
 90
        1
176
     1
 90
        1
176
     1
 90
        2
176
     1
 40
0.6
176
     1
 40
30.0
176
     1
 62
     7
420
 16777215
176
     1
 90
        1
176
     1
 90
        0
176
     1
 62
     7
176
     1
 62
   257
176
     1
 90
        1
176
     1
 90
        1
176
     1
 40
1.0
176
     1
 90
        0
176
     1
 62
   257
176
     1
 40
1.0
176
     1
 90
        1
176
     1
 90
        6
176
     1
 90
        2
176
     1
 62
     7
176
     1
 90
        5
176
     1
 90
        0
176
     1
 90
        0
176
     1
290
     0
176
     1
 90
       13
176
     1
 40
0.0
176
     1
 90
        0
176
     1
290
     0
176
     1
290
     1
176
     1
290
     1
176
     1
290
     0
176
     1
290
     0
176
     1
290
     0
176
     1
290
     0
176
     1
290
     0
176
     1
290
     0
176
     1
 90
       50
176
     1
 40
0.0
176
     1
 40
1.0
176
     1
 90
        0
176
     1
 62
    18
420
        0
176
     1
 90
       50
176
     1
 90
        3
176
     1
 62
     5
420
      255
176
     1
290
     0
176
     1
 90
       50
176
     1
 90
       50
176
     1
 90
       50
176
     1
290
     0
176
     1
 90
       50
176
     1
 62
   256
176
     0
 40
1.0
176
     0
 90
        2
176
     1
  1
strokes_ogs.tif
176
     1
290
     0
176
     1
 40
1.0
176
     1
 40
1.0
176
     1
1001
ACAD
1000
AcDbSavedByObjectVersion
1070
     0
  0
VISUALSTYLE
  5
2D
102
{ACAD_REACTORS
330
2A
102
}
330
2A
100
AcDbVisualStyle
  2

 70
     2
177
     3
291
     1
 70
    58
 90
        2
176
     1
 90
        2
176
     1
 90
        1
176
     1
 90
        2
176
     1
 40
0.6
176
     1
 40
30.0
176
     1
 62
     7
420
 16777215
176
     1
 90
        0
176
     1
 90
        0
176
     1
 62
     7
176
     1
 62
   257
176
     1
 90
        1
176
     1
 90
        1
176
     1
 40
1.0
176
     1
 90
        0
176
     1
 62
     7
176
     1
 40
1.0
176
     1
 90
        1
176
     1
 90
        6
176
     1
 90
        2
176
     1
 62
     7
176
     1
 90
        5
176
     1
 90
        0
176
     1
 90
        0
176
     1
290
     0
176
     1
 90
       13
176
     1
 40
0.0
176
     1
 90
        0
176
     1
290
     0
176
     1
290
     1
176
     1
290
     1
176
     1
290
     0
176
     1
290
     0
176
     1
290
     0
176
     1
290
     0
176
     1
290
     0
176
     1
290
     0
176
     1
 90
       50
176
     1
 40
0.0
176
     1
 40
1.0
176
     1
 90
        0
176
     1
 62
    18
420
        0
176
     1
 90
       50
176
     1
 90
        3
176
     1
 62
     5
420
      255
176
     1
290
     0
176
     1
 90
       50
176
     1
 90
       50
176
     1
 90
       50
176
     1
290
     0
176
     1
 90
       50
176
     1
 62
   256
176
     0
 40
1.0
176
     0
 90
        2
176
     1
  1
strokes_ogs.tif
176
     1
290
     0
176
     1
 40
1.0
176
     1
 40
1.0
176
     1
1001
ACAD
1000
AcDbSavedByObjectVersion
1070
     0
  0
VISUALSTYLE
  5
2E
102
{ACAD_REACTORS
330
2A
102
}
330
2A
100
AcDbVisualStyle
  2

 70
     3
177
     3
291
     1
 70
    58
 90
        2
176
     1
 90
        2
176
     1
 90
        1
176
     1
 90
        2
176
     1
 40
0.6
176
     1
 40
30.0
176
     1
 62
     7
420
 16777215
176
     1
 90
        1
176
     1
 90
        0
176
     1
 62
     7
176
     1
 62
   257
176
     1
 90
        1
176
     1
 90
        1
176
     1
 40
1.0
176
     1
 90
        0
176
     1
 62
   257
176
     1
 40
1.0
176
     1
 90
        1
176
     1
 90
        6
176
     1
 90
        2
176
     1
 62
     7
176
     1
 90
        5
176
     1
 90
        0
176
     1
 90
        0
176
     1
290
     0
176
     1
 90
       13
176
     1
 40
0.0
176
     1
 90
        0
176
     1
290
     0
176
     1
290
     1
176
     1
290
     1
176
     1
290
     0
176
     1
290
     0
176
     1
290
     0
176
     1
290
     0
176
     1
290
     0
176
     1
290
     0
176
     1
 90
       50
176
     1
 40
0.0
176
     1
 40
1.0
176
     1
 90
        0
176
     1
 62
    18
420
        0
176
     1
 90
       50
176
     1
 90
        3
176
     1
 62
     5
420
      255
176
     1
290
     0
176
     1
 90
       50
176
     1
 90
       50
176
     1
 90
       50
176
     1
290
     0
176
     1
 90
       50
176
     1
 62
   256
176
     0
 40
1.0
176
     0
 90
        2
176
     1
  1
strokes_ogs.tif
176
     1
290
     0
176
     1
 40
1.0
176
     1
 40
1.0
176
     1
1001
ACAD
1000
AcDbSavedByObjectVersion
1070
     0
  0
VISUALSTYLE
  5
31
102
{ACAD_REACTORS
330
2A
102
}
330
2A
100
AcDbVisualStyle
  2

 70
     6
177
     3
291
     0
 70
    58
 90
        1
176
     1
 90
        2
176
     1
 90
        2
176
     1
 90
        0
176
     1
 40
0.6
176
     1
 40
30.0
176
     1
 62
     7
420
 16777215
176
     1
 90
        2
176
     1
 90
        2
176
     1
 62
     7
176
     1
 62
   257
176
     1
 90
        2
176
     1
 90
        1
176
     1
 40
40.0
176
     1
 90
        0
176
     1
 62
   257
176
     1
 40
1.0
176
     1
 90
        1
176
     1
 90
        6
176
     1
 90
        2
176
     1
 62
     7
176
     1
 90
        3
176
     1
 90
        0
176
     1
 90
        0
176
     1
290
     0
176
     1
 90
        1
176
     1
 40
0.0
176
     1
 90
        0
176
     1
290
     0
176
     1
290
     1
176
     1
290
     1
176
     1
290
     0
176
     1
290
     0
176
     1
290
     0
176
     1
290
     0
176
     1
290
     0
176
     1
290
     0
176
     1
 90
       50
176
     1
 40
0.0
176
     1
 40
1.0
176
     1
 90
        0
176
     1
 62
    18
420
        0
176
     1
 90
       50
176
     1
 90
        3
176
     1
 62
     5
420
      255
176
     1
290
     0
176
     1
 90
       50
176
     1
 90
       50
176
     1
 90
       50
176
     1
290
     0
176
     1
 90
       50
176
     1
 62
   256
176
     0
 40
1.0
176
     0
 90
        2
176
     1
  1
strokes_ogs.tif
176
     1
290
     0
176
     1
 40
1.0
176
     1
 40
1.0
176
     1
1001
ACAD
1000
AcDbSavedByObjectVersion
1070
     0
  0
VISUALSTYLE
  5
3B
102
{ACAD_REACTORS
330
2A
102
}
330
2A
100
AcDbVisualStyle
  2

 70
    20
177
     3
291
     1
 70
    58
 90
        2
176
     0
 90
        2
176
     0
 90
        0
176
     0
 90
        0
176
     0
 40
0.6
176
     0
 40
30.0
176
     0
 62
     7
420
 16777215
176
     0
 90
        1
176
     0
 90
        4
176
     0
 62
     7
176
     0
 62
   257
176
     0
 90
        1
176
     0
 90
        1
176
     0
 40
1.0
176
     0
 90
       10
176
     2
 62
     7
176
     0
 40
1.0
176
     0
 90
        1
176
     0
 90
        6
176
     0
 90
        2
176
     0
 62
     7
176
     0
 90
        5
176
     0
 90
        0
176
     0
 90
        0
176
     0
290
     0
176
     0
 90
        1
176
     0
 40
0.0
176
     0
 90
        0
176
     0
290
     0
176
     0
290
     1
176
     0
290
     1
176
     0
290
     0
176
     0
290
     0
176
     0
290
     0
176
     0
290
     0
176
     0
290
     0
176
     0
290
     0
176
     0
 90
       50
176
     0
 40
0.0
176
     0
 40
1.0
176
     0
 90
        0
176
     0
 62
    18
420
        0
176
     0
 90
       50
176
     0
 90
        3
176
     0
 62
     5
420
      255
176
     0
290
     0
176
     0
 90
       50
176
     0
 90
       50
176
     0
 90
       50
176
     0
290
     0
176
     0
 90
       50
176
     0
 62
   256
176
     0
 40
1.0
176
     0
 90
        2
176
     0
  1
strokes_ogs.tif
176
     0
290
     0
176
     0
 40
1.0
176
     0
 40
1.0
176
     0
1001
ACAD
1000
AcDbSavedByObjectVersion
1070
     0
  0
VISUALSTYLE
  5
38
102
{ACAD_REACTORS
330
2A
102
}
330
2A
100
AcDbVisualStyle
  2

 70
    14
177
     3
291
     1
 70
    58
 90
        2
176
     1
 90
        2
176
     1
 90
        0
176
     1
 90
        0
176
     1
 40
0.6
176
     1
 40
30.0
176
     1
 62
     7
420
 16777215
176
     1
 90
        1
176
     1
 90
        4
176
     1
 62
     7
176
     1
 62
   257
176
     1
 90
        7
176
     1
 90
        7
176
     1
 40
1.0
176
     1
 90
        8
176
     1
 62
     7
176
     1
 40
1.0
176
     1
 90
        1
176
     1
 90
        6
176
     1
 90
        2
176
     1
 62
     7
176
     1
 90
        5
176
     1
 90
        0
176
     1
 90
        0
176
     1
290
     0
176
     1
 90
        1
176
     1
 40
0.0
176
     1
 90
        0
176
     1
290
     0
176
     1
290
     1
176
     1
290
     1
176
     1
290
     0
176
     1
290
     0
176
     1
290
     0
176
     1
290
     0
176
     1
290
     0
176
     1
290
     0
176
     1
 90
       50
176
     1
 40
0.0
176
     1
 40
1.0
176
     1
 90
        0
176
     1
 62
    18
420
        0
176
     1
 90
       50
176
     1
 90
        3
176
     1
 62
     5
420
      255
176
     1
290
     0
176
     1
 90
       50
176
     1
 90
       50
176
     1
 90
       50
176
     1
290
     0
176
     1
 90
       50
176
     1
 62
   256
176
     0
 40
1.0
176
     0
 90
        2
176
     1
  1
strokes_ogs.tif
176
     1
290
     0
176
     1
 40
1.0
176
     1
 40
1.0
176
     1
1001
ACAD
1000
AcDbSavedByObjectVersion
1070
     0
  0
VISUALSTYLE
  5
3C
102
{ACAD_REACTORS
330
2A
102
}
330
2A
100
AcDbVisualStyle
  2

 70
    21
177
     3
291
     1
 70
    58
 90
        2
176
     0
 90
        2
176
     0
 90
        0
176
     0
 90
        0
176
     0
 40
0.6
176
     0
 40
30.0
176
     0
 62
     7
420
 16777215
176
     0
 90
        1
176
     0
 90
        4
176
     0
 62
     7
176
     0
 62
   257
176
     0
 90
        1
176
     0
 90
        1
176
     0
 40
1.0
176
     0
 90
        9
176
     2
 62
     7
176
     0
 40
1.0
176
     0
 90
        1
176
     0
 90
        6
176
     0
 90
        2
176
     0
 62
     7
176
     0
 90
        5
176
     0
 90
        0
176
     0
 90
        0
176
     0
290
     0
176
     0
 90
        1
176
     0
 40
0.0
176
     0
 90
        0
176
     0
290
     0
176
     0
290
     1
176
     0
290
     1
176
     0
290
     0
176
     0
290
     0
176
     0
290
     0
176
     0
290
     0
176
     0
290
     0
176
     0
290
     0
176
     0
 90
       50
176
     0
 40
0.0
176
     0
 40
1.0
176
     0
 90
        0
176
     0
 62
    18
420
        0
176
     0
 90
       50
176
     0
 90
        3
176
     0
 62
     5
420
      255
176
     0
290
     0
176
     0
 90
       50
176
     0
 90
       50
176
     0
 90
       50
176
     0
290
     0
176
     0
 90
       50
176
     0
 62
   256
176
     0
 40
1.0
176
     0
 90
        2
176
     0
  1
strokes_ogs.tif
176
     0
290
     0
176
     0
 40
1.0
176
     0
 40
1.0
176
     0
1001
ACAD
1000
AcDbSavedByObjectVersion
1070
     0
  0
VISUALSTYLE
  5
33
102
{ACAD_REACTORS
330
2A
102
}
330
2A
100
AcDbVisualStyle
  2

 70
     8
177
     3
291
     0
 70
    58
 90
        2
176
     1
 90
        3
176
     1
 90
        0
176
     1
 90
        2
176
     1
 40
0.6
176
     1
 40
30.0
176
     1
 62
     7
420
 16777215
176
     1
 90
        0
176
     1
 90
        0
176
     1
 62
     7
176
     1
 62
   257
176
     1
 90
        1
176
     1
 90
        1
176
     1
 40
1.0
176
     1
 90
        8
176
     1
 62
   257
176
     1
 40
1.0
176
     1
 90
        1
176
     1
 90
        6
176
     1
 90
        2
176
     1
 62
     7
176
     1
 90
        3
176
     1
 90
        0
176
     1
 90
        0
176
     1
290
     0
176
     1
 90
       13
176
     1
 40
0.0
176
     1
 90
        0
176
     1
290
     0
176
     1
290
     1
176
     1
290
     1
176
     1
290
     0
176
     1
290
     0
176
     1
290
     0
176
     1
290
     0
176
     1
290
     0
176
     1
290
     0
176
     1
 90
       50
176
     1
 40
0.0
176
     1
 40
1.0
176
     1
 90
        0
176
     1
 62
    18
420
        0
176
     1
 90
       50
176
     1
 90
        3
176
     1
 62
     5
420
      255
176
     1
290
     0
176
     1
 90
       50
176
     1
 90
       50
176
     1
 90
       50
176
     1
290
     0
176
     1
 90
       50
176
     1
 62
   256
176
     0
 40
1.0
176
     0
 90
        2
176
     1
  1
strokes_ogs.tif
176
     1
290
     0
176
     1
 40
1.0
176
     1
 40
1.0
176
     1
1001
ACAD
1000
AcDbSavedByObjectVersion
1070
     0
  0
VISUALSTYLE
  5
42
102
{ACAD_REACTORS
330
2A
102
}
330
2A
100
AcDbVisualStyle
  2

 70
    27
177
     3
291
     0
 70
    58
 90
        2
176
     1
 90
        2
176
     1
 90
        1
176
     1
 90
        2
176
     1
 40
0.6
176
     1
 40
30.0
176
     1
 62
     7
420
 16777215
176
     1
 90
        0
176
     1
 90
        4
176
     1
 62
     7
176
     1
 62
   257
176
     1
 90
        1
176
     1
 90
        1
176
     1
 40
1.0
176
     1
 90
        8
176
     1
 62
   257
176
     1
 40
1.0
176
     1
 90
        1
176
     1
 90
        6
176
     1
 90
        2
176
     1
 62
     8
420
  7895160
176
     1
 90
        3
176
     1
 90
        0
176
     1
 90
        0
176
     1
290
     0
176
     1
 90
        5
176
     1
 40
0.0
176
     1
 90
        0
176
     1
290
     0
176
     1
290
     1
176
     1
290
     1
176
     1
290
     0
176
     1
290
     0
176
     1
290
     0
176
     1
290
     0
176
     1
290
     0
176
     1
290
     0
176
     1
 90
       50
176
     1
 40
0.0
176
     1
 40
1.0
176
     1
 90
        0
176
     1
 62
    18
420
        0
176
     1
 90
       50
176
     1
 90
        3
176
     1
 62
     5
420
      255
176
     1
290
     0
176
     1
 90
       50
176
     1
 90
       50
176
     1
 90
       50
176
     1
290
     0
176
     1
 90
       50
176
     1
 62
   256
176
     0
 40
1.0
176
     0
 90
        2
176
     1
  1
strokes_ogs.tif
176
     1
290
     0
176
     1
 40
1.0
176
     1
 40
1.0
176
     1
1001
ACAD
1000
AcDbSavedByObjectVersion
1070
     0
  0
VISUALSTYLE
  5
41
102
{ACAD_REACTORS
330
2A
102
}
330
2A
100
AcDbVisualStyle
  2

 70
    26
177
     3
291
     0
 70
    58
 90
        2
176
     1
 90
        2
176
     1
 90
        1
176
     1
 90
        2
176
     1
 40
0.6
176
     1
 40
30.0
176
     1
 62
     7
420
 16777215
176
     1
 90
        1
176
     1
 90
       10
176
     1
 62
     7
176
     1
 62
   257
176
     1
 90
        2
176
     1
 90
        1
176
     1
 40
1.0
176
     1
 90
        8
176
     1
 62
   257
176
     1
 40
1.0
176
     1
 90
        1
176
     1
 90
        6
176
     1
 90
        2
176
     1
 62
     7
176
     1
 90
        3
176
     1
 90
        0
176
     1
 90
        0
176
     1
290
     0
176
     1
 90
        5
176
     1
 40
0.0
176
     1
 90
        0
176
     1
290
     0
176
     1
290
     1
176
     1
290
     1
176
     1
290
     0
176
     1
290
     0
176
     1
290
     0
176
     1
290
     0
176
     1
290
     0
176
     1
290
     0
176
     1
 90
       50
176
     1
 40
0.0
176
     1
 40
1.0
176
     1
 90
        0
176
     1
 62
    18
420
        0
176
     1
 90
       50
176
     1
 90
        3
176
     1
 62
     5
420
      255
176
     1
290
     0
176
     1
 90
       50
176
     1
 90
       50
176
     1
 90
       50
176
     1
290
     0
176
     1
 90
       50
176
     1
 62
   256
176
     0
 40
1.0
176
     0
 90
        2
176
     1
  1
strokes_ogs.tif
176
     1
290
     0
176
     1
 40
1.0
176
     1
 40
1.0
176
     1
1001
ACAD
1000
AcDbSavedByObjectVersion
1070
     0
  0
VISUALSTYLE
  5
3E
102
{ACAD_REACTORS
330
2A
102
}
330
2A
100
AcDbVisualStyle
  2

 70
    23
177
     3
291
     0
 70
    58
 90
        2
176
     1
 90
        2
176
     1
 90
        3
176
     1
 90
        0
176
     1
 40
0.6
176
     1
 40
30.0
176
     1
 62
     7
420
 16777215
176
     1
 90
        2
176
     1
 90
        2
176
     1
 62
     7
176
     1
 62
     7
176
     1
 90
        1
176
     1
 90
        1
176
     1
 40
40.0
176
     1
 90
        8
176
     1
 62
     7
176
     1
 40
1.0
176
     1
 90
        1
176
     1
 90
        6
176
     1
 90
        2
176
     1
 62
     7
176
     1
 90
        3
176
     1
 90
        0
176
     1
 90
        0
176
     1
290
     0
176
     1
 90
        1
176
     1
 40
0.0
176
     1
 90
        0
176
     1
290
     0
176
     1
290
     1
176
     1
290
     1
176
     1
290
     0
176
     1
290
     0
176
     1
290
     0
176
     1
290
     0
176
     1
290
     0
176
     1
290
     0
176
     1
 90
       50
176
     1
 40
0.0
176
     1
 40
1.0
176
     1
 90
        0
176
     1
 62
    18
420
        0
176
     1
 90
       50
176
     1
 90
        3
176
     1
 62
     5
420
      255
176
     1
290
     0
176
     1
 90
       50
176
     1
 90
       50
176
     1
 90
       50
176
     1
290
     0
176
     1
 90
       50
176
     1
 62
   256
176
     0
 40
1.0
176
     0
 90
        2
176
     1
  1
strokes_ogs.tif
176
     1
290
     0
176
     1
 40
1.0
176
     1
 40
1.0
176
     1
1001
ACAD
1000
AcDbSavedByObjectVersion
1070
     0
  0
VISUALSTYLE
  5
3F
102
{ACAD_REACTORS
330
2A
102
}
330
2A
100
AcDbVisualStyle
  2

 70
    24
177
     3
291
     0
 70
    58
 90
        1
176
     1
 90
        2
176
     1
 90
        2
176
     1
 90
        0
176
     1
 40
0.6
176
     1
 40
30.0
176
     1
 62
     7
420
 16777215
176
     1
 90
        2
176
     1
 90
        2
176
     1
 62
     7
176
     1
 62
     7
176
     1
 90
        1
176
     1
 90
        1
176
     1
 40
40.0
176
     1
 90
       11
176
     1
 62
     7
176
     1
 40
1.0
176
     1
 90
        1
176
     1
 90
        6
176
     1
 90
        2
176
     1
 62
     7
176
     1
 90
        6
176
     1
 90
        0
176
     1
 90
        0
176
     1
290
     0
176
     1
 90
        1
176
     1
 40
0.0
176
     1
 90
        0
176
     1
290
     0
176
     1
290
     1
176
     1
290
     1
176
     1
290
     0
176
     1
290
     0
176
     1
290
     0
176
     1
290
     0
176
     1
290
     0
176
     1
290
     0
176
     1
 90
       50
176
     1
 40
0.0
176
     1
 40
1.0
176
     1
 90
        0
176
     1
 62
    18
420
        0
176
     1
 90
       50
176
     1
 90
        3
176
     1
 62
     5
420
      255
176
     1
290
     0
176
     1
 90
       50
176
     1
 90
       50
176
     1
 90
       50
176
     1
290
     0
176
     1
 90
       50
176
     1
 62
   256
176
     0
 40
1.0
176
     0
 90
        2
176
     1
  1
strokes_ogs.tif
176
     1
290
     0
176
     1
 40
1.0
176
     1
 40
1.0
176
     1
1001
ACAD
1000
AcDbSavedByObjectVersion
1070
     0
  0
VISUALSTYLE
  5
37
102
{ACAD_REACTORS
330
2A
102
}
330
2A
100
AcDbVisualStyle
  2

 70
    13
177
     3
291
     1
 70
    58
 90
        2
176
     1
 90
        2
176
     1
 90
        0
176
     1
 90
        0
176
     1
 40
0.6
176
     1
 40
30.0
176
     1
 62
     7
420
 16777215
176
     1
 90
        1
176
     1
 90
        4
176
     1
 62
     7
176
     1
 62
   257
176
     1
 90
        1
176
     1
 90
        1
176
     1
 40
1.0
176
     1
 90
       12
176
     1
 62
     7
176
     1
 40
1.0
176
     1
 90
        1
176
     1
 90
        6
176
     1
 90
        2
176
     1
 62
     7
176
     1
 90
        5
176
     1
 90
        0
176
     1
 90
        0
176
     1
290
     0
176
     1
 90
        1
176
     1
 40
0.0
176
     1
 90
        0
176
     1
290
     0
176
     1
290
     1
176
     1
290
     1
176
     1
290
     0
176
     1
290
     0
176
     1
290
     0
176
     1
290
     0
176
     1
290
     0
176
     1
290
     0
176
     1
 90
       50
176
     1
 40
0.0
176
     1
 40
1.0
176
     1
 90
        0
176
     1
 62
    18
420
        0
176
     1
 90
       50
176
     1
 90
        3
176
     1
 62
     5
420
      255
176
     1
290
     0
176
     1
 90
       50
176
     1
 90
       50
176
     1
 90
       50
176
     1
290
     0
176
     1
 90
       50
176
     1
 62
   256
176
     0
 40
1.0
176
     0
 90
        2
176
     1
  1
strokes_ogs.tif
176
     1
290
     0
176
     1
 40
1.0
176
     1
 40
1.0
176
     1
1001
ACAD
1000
AcDbSavedByObjectVersion
1070
     0
  0
VISUALSTYLE
  5
30
102
{ACAD_REACTORS
330
2A
102
}
330
2A
100
AcDbVisualStyle
  2

 70
     5
177
     3
291
     0
 70
    58
 90
        0
176
     1
 90
        2
176
     1
 90
        0
176
     1
 90
        0
176
     1
 40
0.6
176
     1
 40
30.0
176
     1
 62
     7
420
 16777215
176
     1
 90
        1
176
     1
 90
        4
176
     1
 62
     7
176
     1
 62
   257
176
     1
 90
        1
176
     1
 90
        1
176
     1
 40
1.0
176
     1
 90
        0
176
     1
 62
   257
176
     1
 40
1.0
176
     1
 90
        1
176
     1
 90
        6
176
     1
 90
        2
176
     1
 62
     7
176
     1
 90
        3
176
     1
 90
        0
176
     1
 90
        0
176
     1
290
     0
176
     1
 90
        1
176
     1
 40
0.0
176
     1
 90
        0
176
     1
290
     0
176
     1
290
     1
176
     1
290
     1
176
     1
290
     0
176
     1
290
     0
176
     1
290
     0
176
     1
290
     0
176
     1
290
     0
176
     1
290
     0
176
     1
 90
       50
176
     1
 40
0.0
176
     1
 40
1.0
176
     1
 90
        0
176
     1
 62
    18
420
        0
176
     1
 90
       50
176
     1
 90
        3
176
     1
 62
     5
420
      255
176
     1
290
     0
176
     1
 90
       50
176
     1
 90
       50
176
     1
 90
       50
176
     1
290
     0
176
     1
 90
       50
176
     1
 62
   256
176
     0
 40
1.0
176
     0
 90
        2
176
     1
  1
strokes_ogs.tif
176
     1
290
     0
176
     1
 40
1.0
176
     1
 40
1.0
176
     1
1001
ACAD
1000
AcDbSavedByObjectVersion
1070
     0
  0
VISUALSTYLE
  5
40
102
{ACAD_REACTORS
330
2A
102
}
330
2A
100
AcDbVisualStyle
  2

 70
    25
177
     3
291
     0
 70
    58
 90
        2
176
     1
 90
        2
176
     1
 90
        1
176
     1
 90
        1
176
     1
 40
0.5
176
     1
 40
30.0
176
     1
 62
     7
420
 16777215
176
     1
 90
        1
176
     1
 90
        0
176
     1
 62
     7
176
     1
 62
   257
176
     1
 90
        1
176
     1
 90
        1
176
     1
 40
1.0
176
     1
 90
        8
176
     1
 62
     7
176
     1
 40
1.0
176
     1
 90
        1
176
     1
 90
        6
176
     1
 90
        2
176
     1
 62
     7
176
     1
 90
        3
176
     1
 90
        0
176
     1
 90
        0
176
     1
290
     0
176
     1
 90
       13
176
     1
 40
0.0
176
     1
 90
        0
176
     1
290
     0
176
     1
290
     1
176
     1
290
     1
176
     1
290
     0
176
     1
290
     0
176
     1
290
     0
176
     1
290
     0
176
     1
290
     0
176
     1
290
     0
176
     1
 90
       50
176
     1
 40
0.0
176
     1
 40
1.0
176
     1
 90
        0
176
     1
 62
    18
420
        0
176
     1
 90
       50
176
     1
 90
        3
176
     1
 62
     5
420
      255
176
     1
290
     0
176
     1
 90
       50
176
     1
 90
       50
176
     1
 90
       50
176
     1
290
     0
176
     1
 90
       50
176
     1
 62
   256
176
     0
 40
1.0
176
     0
 90
        2
176
     1
  1
strokes_ogs.tif
176
     1
290
     0
176
     1
 40
1.0
176
     1
 40
1.0
176
     1
1001
ACAD
1000
AcDbSavedByObjectVersion
1070
     0
  0
DICTIONARYVAR
  5
1C0
102
{ACAD_REACTORS
330
1BF
102
}
330
1BF
100
DictionaryVariables
280
     0
  1
1:1
  0
DICTIONARYVAR
  5
201
102
{ACAD_REACTORS
330
1BF
102
}
330
1BF
100
DictionaryVariables
280
     0
  1
STANDARD
  0
DICTIONARYVAR
  5
200
102
{ACAD_REACTORS
330
1BF
102
}
330
1BF
100
DictionaryVariables
280
     0
  1
STANDARD
  0
DICTIONARYVAR
  5
5AC
102
{ACAD_REACTORS
330
1BF
102
}
330
1BF
100
DictionaryVariables
280
     0
  1
Metric50
  0
DICTIONARYVAR
  5
5AD
102
{ACAD_REACTORS
330
1BF
102
}
330
1BF
100
DictionaryVariables
280
     0
  1
Metric50
  0
DICTIONARYVAR
  5
5AF
102
{ACAD_REACTORS
330
1BF
102
}
330
1BF
100
DictionaryVariables
280
     0
  1
1
  0
DICTIONARYVAR
  5
5B0
102
{ACAD_REACTORS
330
1BF
102
}
330
1BF
100
DictionaryVariables
280
     0
  1
15
  0
DICTIONARYVAR
  5
5AE
102
{ACAD_REACTORS
330
1BF
102
}
330
1BF
100
DictionaryVariables
280
     0
  1
0
  0
DICTIONARYVAR
  5
1C1
102
{ACAD_REACTORS
330
1BF
102
}
330
1BF
100
DictionaryVariables
280
     0
  1
1
  0
DICTIONARY
  5
1F5
330
45
100
AcDbDictionary
280
     1
281
     1
  3
ACAD_XREC_ROUNDTRIP
360
1F6
  0
DICTIONARY
  5
1F3
330
44
100
AcDbDictionary
280
     1
281
     1
  3
ACAD_XREC_ROUNDTRIP
360
1F4
  0
DICTIONARY
  5
1F7
330
46
100
AcDbDictionary
280
     1
281
     1
  3
ACAD_XREC_ROUNDTRIP
360
1F8
  0
DICTIONARY
  5
1F9
330
6A
100
AcDbDictionary
280
     1
281
     1
  3
ACAD_ROUNDTRIP_2008_TABLESTYLE_CELLSTYLEMAP
360
5B1
  0
XRECORD
  5
1F6
102
{ACAD_REACTORS
330
1F5
102
}
330
1F5
100
AcDbXrecord
280
     1
102
MATERIAL
148
0.0
149
0.0
149
0.0
 93
        0
 94
      127
282
     0
 72
     1
 77
     1
171
     1
175
     1
179
     1
273
     0
  0
XRECORD
  5
1F4
102
{ACAD_REACTORS
330
1F3
102
}
330
1F3
100
AcDbXrecord
280
     1
102
MATERIAL
148
0.0
149
0.0
149
0.0
 93
        0
 94
      127
282
     0
 72
     1
 77
     1
171
     1
175
     1
179
     1
273
     0
  0
XRECORD
  5
1F8
102
{ACAD_REACTORS
330
1F7
102
}
330
1F7
100
AcDbXrecord
280
     1
102
MATERIAL
148
0.0
149
0.0
149
0.0
 93
        0
 94
      127
282
     0
 72
     1
 77
     1
171
     1
175
     1
179
     1
273
     0
  0
CELLSTYLEMAP
  5
5B1
102
{ACAD_REACTORS
330
1F9
102
}
330
1F9
100
AcDbCellStyleMap
 90
        3
300
CELLSTYLE
  1
TABLEFORMAT_BEGIN
 90
        5
170
     1
 91
        0
 92
    32768
 62
   257
 93
        1
300
CONTENTFORMAT
  1
CONTENTFORMAT_BEGIN
 90
        0
 91
        0
 92
        4
 93
        0
300

 40
0.0
140
1.0
 94
        5
 62
     0
340
11
144
0.25
309
CONTENTFORMAT_END
171
     1
301
MARGIN
  1
CELLMARGIN_BEGIN
 40
0.06
 40
0.06
 40
0.06
 40
0.06
 40
0.18
 40
0.18
309
CELLMARGIN_END
 94
        6
 95
        1
302
GRIDFORMAT
  1
GRIDFORMAT_BEGIN
 90
        0
 91
        1
 62
     0
 92
       -2
340
14
 93
        0
 40
0.045
309
GRIDFORMAT_END
 95
        2
302
GRIDFORMAT
  1
GRIDFORMAT_BEGIN
 90
        0
 91
        1
 62
     0
 92
       -2
340
14
 93
        0
 40
0.045
309
GRIDFORMAT_END
 95
        4
302
GRIDFORMAT
  1
GRIDFORMAT_BEGIN
 90
        0
 91
        1
 62
     0
 92
       -2
340
14
 93
        0
 40
0.045
309
GRIDFORMAT_END
 95
        8
302
GRIDFORMAT
  1
GRIDFORMAT_BEGIN
 90
        0
 91
        1
 62
     0
 92
       -2
340
14
 93
        0
 40
0.045
309
GRIDFORMAT_END
 95
       16
302
GRIDFORMAT
  1
GRIDFORMAT_BEGIN
 90
        0
 91
        1
 62
     0
 92
       -2
340
14
 93
        0
 40
0.045
309
GRIDFORMAT_END
 95
       32
302
GRIDFORMAT
  1
GRIDFORMAT_BEGIN
 90
        0
 91
        1
 62
     0
 92
       -2
340
14
 93
        0
 40
0.045
309
GRIDFORMAT_END
309
TABLEFORMAT_END
  1
CELLSTYLE_BEGIN
 90
        1
 91
        1
300
_TITLE
309
CELLSTYLE_END
300
CELLSTYLE
  1
TABLEFORMAT_BEGIN
 90
        5
170
     1
 91
        0
 92
        0
 62
   257
 93
        1
300
CONTENTFORMAT
  1
CONTENTFORMAT_BEGIN
 90
        0
 91
        0
 92
        4
 93
        0
300

 40
0.0
140
1.0
 94
        5
 62
     0
340
11
144
0.18
309
CONTENTFORMAT_END
171
     1
301
MARGIN
  1
CELLMARGIN_BEGIN
 40
0.06
 40
0.06
 40
0.06
 40
0.06
 40
0.18
 40
0.18
309
CELLMARGIN_END
 94
        6
 95
        1
302
GRIDFORMAT
  1
GRIDFORMAT_BEGIN
 90
        0
 91
        1
 62
     0
 92
       -2
340
14
 93
        0
 40
0.045
309
GRIDFORMAT_END
 95
        2
302
GRIDFORMAT
  1
GRIDFORMAT_BEGIN
 90
        0
 91
        1
 62
     0
 92
       -2
340
14
 93
        0
 40
0.045
309
GRIDFORMAT_END
 95
        4
302
GRIDFORMAT
  1
GRIDFORMAT_BEGIN
 90
        0
 91
        1
 62
     0
 92
       -2
340
14
 93
        0
 40
0.045
309
GRIDFORMAT_END
 95
        8
302
GRIDFORMAT
  1
GRIDFORMAT_BEGIN
 90
        0
 91
        1
 62
     0
 92
       -2
340
14
 93
        0
 40
0.045
309
GRIDFORMAT_END
 95
       16
302
GRIDFORMAT
  1
GRIDFORMAT_BEGIN
 90
        0
 91
        1
 62
     0
 92
       -2
340
14
 93
        0
 40
0.045
309
GRIDFORMAT_END
 95
       32
302
GRIDFORMAT
  1
GRIDFORMAT_BEGIN
 90
        0
 91
        1
 62
     0
 92
       -2
340
14
 93
        0
 40
0.045
309
GRIDFORMAT_END
309
TABLEFORMAT_END
  1
CELLSTYLE_BEGIN
 90
        2
 91
        1
300
_HEADER
309
CELLSTYLE_END
300
CELLSTYLE
  1
TABLEFORMAT_BEGIN
 90
        5
170
     1
 91
        0
 92
        0
 62
   257
 93
        1
300
CONTENTFORMAT
  1
CONTENTFORMAT_BEGIN
 90
        0
 91
        0
 92
        4
 93
        0
300

 40
0.0
140
1.0
 94
        2
 62
     0
340
11
144
0.18
309
CONTENTFORMAT_END
171
     1
301
MARGIN
  1
CELLMARGIN_BEGIN
 40
0.06
 40
0.06
 40
0.06
 40
0.06
 40
0.18
 40
0.18
309
CELLMARGIN_END
 94
        6
 95
        1
302
GRIDFORMAT
  1
GRIDFORMAT_BEGIN
 90
        0
 91
        1
 62
     0
 92
       -2
340
14
 93
        0
 40
0.045
309
GRIDFORMAT_END
 95
        2
302
GRIDFORMAT
  1
GRIDFORMAT_BEGIN
 90
        0
 91
        1
 62
     0
 92
       -2
340
14
 93
        0
 40
0.045
309
GRIDFORMAT_END
 95
        4
302
GRIDFORMAT
  1
GRIDFORMAT_BEGIN
 90
        0
 91
        1
 62
     0
 92
       -2
340
14
 93
        0
 40
0.045
309
GRIDFORMAT_END
 95
        8
302
GRIDFORMAT
  1
GRIDFORMAT_BEGIN
 90
        0
 91
        1
 62
     0
 92
       -2
340
14
 93
        0
 40
0.045
309
GRIDFORMAT_END
 95
       16
302
GRIDFORMAT
  1
GRIDFORMAT_BEGIN
 90
        0
 91
        1
 62
     0
 92
       -2
340
14
 93
        0
 40
0.045
309
GRIDFORMAT_END
 95
       32
302
GRIDFORMAT
  1
GRIDFORMAT_BEGIN
 90
        0
 91
        1
 62
     0
 92
       -2
340
14
 93
        0
 40
0.045
309
GRIDFORMAT_END
309
TABLEFORMAT_END
  1
CELLSTYLE_BEGIN
 90
        3
 91
        2
300
_DATA
309
CELLSTYLE_END
  0
ENDSEC
  0
EOF
