  0
SECTION
  2
HEADER
  9
$ACADVER
  1
AC1015
  9
$ACADMAINTVER
 70
    20
  9
$DWGCODEPAGE
  3
ANSI_1250
  9
$INSBASE
 10
0.0
 20
0.0
 30
0.0
  9
$EXTMIN
 10
-66.35983103881563
 20
-24.45114018680886
 30
-0.0015258207003583
  9
$EXTMAX
 10
68.78871262793973
 20
93.88153156950329
 30
0.0000000349246037
  9
$LIMMIN
 10
-170.0
 20
-170.0
  9
$LIMMAX
 10
519.0
 20
260.0
  9
$ORTHOMODE
 70
     1
  9
$REGENMODE
 70
     1
  9
$FILLMODE
 70
     1
  9
$QTEXTMODE
 70
     0
  9
$MIRRTEXT
 70
     0
  9
$LTSCALE
 40
1.0
  9
$ATTMODE
 70
     1
  9
$TEXTSIZE
 40
3.5
  9
$TRACEWID
 40
1.0
  9
$TEXTSTYLE
  7
SIMPLEX
  9
$CLAYER
  8
1
  9
$CELTYPE
  6
BYLAYER
  9
$CECOLOR
 62
   256
  9
$CELTSCALE
 40
1.0
  9
$DISPSILH
 70
     0
  9
$DIMSCALE
 40
1.0
  9
$DIMASZ
 40
2.5
  9
$DIMEXO
 40
0.0
  9
$DIMDLI
 40
3.75
  9
$DIMRND
 40
0.0
  9
$DIMDLE
 40
0.0
  9
$DIMEXE
 40
1.25
  9
$DIMTP
 40
0.0
  9
$DIMTM
 40
0.0
  9
$DIMTXT
 40
3.5
  9
$DIMCEN
 40
0.0
  9
$DIMTSZ
 40
0.0
  9
$DIMTOL
 70
     0
  9
$DIMLIM
 70
     0
  9
$DIMTIH
 70
     0
  9
$DIMTOH
 70
     0
  9
$DIMSE1
 70
     0
  9
$DIMSE2
 70
     0
  9
$DIMTAD
 70
     1
  9
$DIMZIN
 70
     8
  9
$DIMBLK
  1

  9
$DIMASO
 70
     1
  9
$DIMSHO
 70
     1
  9
$DIMPOST
  1

  9
$DIMAPOST
  1

  9
$DIMALT
 70
     0
  9
$DIMALTD
 70
     3
  9
$DIMALTF
 40
0.039370078
  9
$DIMLFAC
 40
1.0
  9
$DIMTOFL
 70
     0
  9
$DIMTVP
 40
0.0
  9
$DIMTIX
 70
     0
  9
$DIMSOXD
 70
     0
  9
$DIMSAH
 70
     0
  9
$DIMBLK1
  1

  9
$DIMBLK2
  1

  9
$DIMSTYLE
  2
STANDARD
  9
$DIMCLRD
 70
     0
  9
$DIMCLRE
 70
     0
  9
$DIMCLRT
 70
     0
  9
$DIMTFAC
 40
1.0
  9
$DIMGAP
 40
0.625
  9
$DIMJUST
 70
     0
  9
$DIMSD1
 70
     0
  9
$DIMSD2
 70
     0
  9
$DIMTOLJ
 70
     0
  9
$DIMTZIN
 70
     8
  9
$DIMALTZ
 70
     0
  9
$DIMALTTZ
 70
     0
  9
$DIMUPT
 70
     0
  9
$DIMDEC
 70
     2
  9
$DIMTDEC
 70
     2
  9
$DIMALTU
 70
     2
  9
$DIMALTTD
 70
     3
  9
$DIMTXSTY
  7
SIMPLEX
  9
$DIMAUNIT
 70
     0
  9
$DIMADEC
 70
     2
  9
$DIMALTRND
 40
0.0
  9
$DIMAZIN
 70
     2
  9
$DIMDSEP
 70
    46
  9
$DIMATFIT
 70
     3
  9
$DIMFRAC
 70
     0
  9
$DIMLDRBLK
  1

  9
$DIMLUNIT
 70
     2
  9
$DIMLWD
 70
    -2
  9
$DIMLWE
 70
    -2
  9
$DIMTMOVE
 70
     0
  9
$LUNITS
 70
     2
  9
$LUPREC
 70
     4
  9
$SKETCHINC
 40
1.0
  9
$FILLETRAD
 40
0.3
  9
$AUNITS
 70
     0
  9
$AUPREC
 70
     0
  9
$MENU
  1
c:\tdm21\cad\caduti13\tdm13
  9
$ELEVATION
 40
0.0
  9
$PELEVATION
 40
0.0
  9
$THICKNESS
 40
0.0
  9
$LIMCHECK
 70
     0
  9
$CHAMFERA
 40
0.0
  9
$CHAMFERB
 40
0.0
  9
$CHAMFERC
 40
0.0
  9
$CHAMFERD
 40
0.0
  9
$SKPOLY
 70
     0
  9
$TDCREATE
 40
2454957.593634259
  9
$TDUCREATE
 40
2454957.510309306
  9
$TDUPDATE
 40
2459551.401296296
  9
$TDUUPDATE
 40
2459551.359629630
  9
$TDINDWG
 40
0.2031981481
  9
$TDUSRTIMER
 40
0.2031813194
  9
$USRTIMER
 70
     1
  9
$ANGBASE
 50
0.0
  9
$ANGDIR
 70
     0
  9
$PDMODE
 70
     1
  9
$PDSIZE
 40
0.0
  9
$PLINEWID
 40
0.0
  9
$SPLFRAME
 70
     0
  9
$SPLINETYPE
 70
     6
  9
$SPLINESEGS
 70
     8
  9
$HANDSEED
  5
410C
  9
$SURFTAB1
 70
     6
  9
$SURFTAB2
 70
     6
  9
$SURFTYPE
 70
     6
  9
$SURFU
 70
     6
  9
$SURFV
 70
     6
  9
$UCSBASE
  2

  9
$UCSNAME
  2

  9
$UCSORG
 10
0.0
 20
0.0
 30
0.0
  9
$UCSXDIR
 10
1.0
 20
0.0
 30
0.0
  9
$UCSYDIR
 10
0.0
 20
1.0
 30
0.0
  9
$UCSORTHOREF
  2

  9
$UCSORTHOVIEW
 70
     0
  9
$UCSORGTOP
 10
0.0
 20
0.0
 30
0.0
  9
$UCSORGBOTTOM
 10
0.0
 20
0.0
 30
0.0
  9
$UCSORGLEFT
 10
0.0
 20
0.0
 30
0.0
  9
$UCSORGRIGHT
 10
0.0
 20
0.0
 30
0.0
  9
$UCSORGFRONT
 10
0.0
 20
0.0
 30
0.0
  9
$UCSORGBACK
 10
0.0
 20
0.0
 30
0.0
  9
$PUCSBASE
  2

  9
$PUCSNAME
  2

  9
$PUCSORG
 10
0.0
 20
0.0
 30
0.0
  9
$PUCSXDIR
 10
1.0
 20
0.0
 30
0.0
  9
$PUCSYDIR
 10
0.0
 20
1.0
 30
0.0
  9
$PUCSORTHOREF
  2

  9
$PUCSORTHOVIEW
 70
     0
  9
$PUCSORGTOP
 10
0.0
 20
0.0
 30
0.0
  9
$PUCSORGBOTTOM
 10
0.0
 20
0.0
 30
0.0
  9
$PUCSORGLEFT
 10
0.0
 20
0.0
 30
0.0
  9
$PUCSORGRIGHT
 10
0.0
 20
0.0
 30
0.0
  9
$PUCSORGFRONT
 10
0.0
 20
0.0
 30
0.0
  9
$PUCSORGBACK
 10
0.0
 20
0.0
 30
0.0
  9
$USERI1
 70
     0
  9
$USERI2
 70
     0
  9
$USERI3
 70
     0
  9
$USERI4
 70
     0
  9
$USERI5
 70
     0
  9
$USERR1
 40
0.0
  9
$USERR2
 40
0.0
  9
$USERR3
 40
0.0
  9
$USERR4
 40
0.0
  9
$USERR5
 40
0.0
  9
$WORLDVIEW
 70
     1
  9
$SHADEDGE
 70
     3
  9
$SHADEDIF
 70
    70
  9
$TILEMODE
 70
     1
  9
$MAXACTVP
 70
    64
  9
$PINSBASE
 10
0.0
 20
0.0
 30
0.0
  9
$PLIMCHECK
 70
     0
  9
$PEXTMIN
 10
25.69999999999999
 20
19.5
 30
0.0
  9
$PEXTMAX
 10
231.3
 20
175.5
 30
0.0
  9
$PLIMMIN
 10
-20.0
 20
-7.5
  9
$PLIMMAX
 10
277.0
 20
202.5
  9
$UNITMODE
 70
     0
  9
$VISRETAIN
 70
     0
  9
$PLINEGEN
 70
     0
  9
$PSLTSCALE
 70
     1
  9
$TREEDEPTH
 70
  3020
  9
$CMLSTYLE
  2
STANDARD
  9
$CMLJUST
 70
     0
  9
$CMLSCALE
 40
20.0
  9
$PROXYGRAPHICS
 70
     1
  9
$MEASUREMENT
 70
     1
  9
$CELWEIGHT
370
    -1
  9
$ENDCAPS
280
     0
  9
$JOINSTYLE
280
     0
  9
$LWDISPLAY
290
     0
  9
$INSUNITS
 70
     4
  9
$HYPERLINKBASE
  1

  9
$STYLESHEET
  1
MONOCHROME.CTB
  9
$XEDIT
290
     1
  9
$CEPSNTYPE
380
     0
  9
$PSTYLEMODE
290
     1
  9
$FINGERPRINTGUID
  2
{46B44192-1510-48B1-B61B-CBE2ADA013A7}
  9
$VERSIONGUID
  2
{99DA13D8-4C72-1744-AF14-756D82E5D6BC}
  9
$EXTNAMES
290
     1
  9
$PSVPSCALE
 40
0.0
  9
$OLESTARTUP
290
     0
  0
ENDSEC
  0
SECTION
  2
CLASSES
  0
CLASS
  1
ACDBDICTIONARYWDFLT
  2
AcDbDictionaryWithDefault
  3
ObjectDBX Classes
 90
        0
280
     0
281
     0
  0
CLASS
  1
DICTIONARYVAR
  2
AcDbDictionaryVar
  3
ObjectDBX Classes
 90
        0
280
     0
281
     0
  0
CLASS
  1
TABLESTYLE
  2
AcDbTableStyle
  3
ObjectDBX Classes
 90
     4095
280
     0
281
     0
  0
CLASS
  1
SCALE
  2
AcDbScale
  3
ObjectDBX Classes
 90
     1153
280
     0
281
     0
  0
CLASS
  1
VISUALSTYLE
  2
AcDbVisualStyle
  3
ObjectDBX Classes
 90
     4095
280
     0
281
     0
  0
CLASS
  1
MATERIAL
  2
AcDbMaterial
  3
ObjectDBX Classes
 90
     1153
280
     0
281
     0
  0
CLASS
  1
MLEADERSTYLE
  2
AcDbMLeaderStyle
  3
ACDB_MLEADERSTYLE_CLASS
 90
     4095
280
     0
281
     0
  0
CLASS
  1
ACDBSECTIONVIEWSTYLE
  2
AcDbSectionViewStyle
  3
ObjectDBX Classes
 90
     1025
280
     0
281
     0
  0
CLASS
  1
ACDBDETAILVIEWSTYLE
  2
AcDbDetailViewStyle
  3
ObjectDBX Classes
 90
     1025
280
     0
281
     0
  0
CLASS
  1
CELLSTYLEMAP
  2
AcDbCellStyleMap
  3
ObjectDBX Classes
 90
     1152
280
     0
281
     0
  0
CLASS
  1
SORTENTSTABLE
  2
AcDbSortentsTable
  3
ObjectDBX Classes
 90
        0
280
     0
281
     0
  0
CLASS
  1
ACDBPLACEHOLDER
  2
AcDbPlaceHolder
  3
ObjectDBX Classes
 90
        0
280
     0
281
     0
  0
CLASS
  1
LAYOUT
  2
AcDbLayout
  3
ObjectDBX Classes
 90
        0
280
     0
281
     0
  0
CLASS
  1
EXACXREFPANELOBJECT
  2
ExAcXREFPanelObject
  3
EXAC_ESW
 90
    33793
280
     0
281
     0
  0
CLASS
  1
NPOCOLLECTION
  2
AcDbImpNonPersistentObjectsCollection
  3
ObjectDBX Classes
 90
    33921
280
     0
281
     0
  0
CLASS
  1
DIMASSOC
  2
AcDbDimAssoc
  3
"AcDbDimAssoc|Product Desc:     AcDim ARX App For Dimension|Company:          Autodesk, Inc.|WEB Address:      www.autodesk.com"
 90
    32768
280
     0
281
     0
  0
ENDSEC
  0
SECTION
  2
TABLES
  0
TABLE
  2
VPORT
  5
8
330
0
100
AcDbSymbolTable
 70
     1
  0
VPORT
  5
39A
330
8
100
AcDbSymbolTableRecord
100
AcDbViewportTableRecord
  2
*Active
 70
     0
 10
0.0
 20
0.0
 11
1.0
 21
1.0
 12
1.644182898008693
 22
34.68423401795678
 13
0.0
 23
0.0
 14
5.0
 24
5.0
 15
5.0
 25
5.0
 16
0.0
 26
0.0
 36
1.0
 17
0.0
 27
0.0
 37
0.0
 40
119.589228106469
 41
2.292712066905615
 42
50.0
 43
0.0
 44
0.0
 50
0.0
 51
0.0
 71
     0
 72
  2000
 73
     1
 74
     1
 75
     0
 76
     0
 77
     0
 78
     0
281
     0
 65
     1
110
0.0
120
0.0
130
0.0
111
1.0
121
0.0
131
0.0
112
0.0
122
1.0
132
0.0
 79
     0
146
0.0
1001
ACAD_NAV_VCDISPLAY
1070
     3
  0
ENDTAB
  0
TABLE
  2
LTYPE
  5
5
330
0
100
AcDbSymbolTable
 70
     5
  0
LTYPE
  5
12
330
5
100
AcDbSymbolTableRecord
100
AcDbLinetypeTableRecord
  2
BYBLOCK
 70
     0
  3

 72
    65
 73
     0
 40
0.0
  0
LTYPE
  5
13
330
5
100
AcDbSymbolTableRecord
100
AcDbLinetypeTableRecord
  2
BYLAYER
 70
     0
  3

 72
    65
 73
     0
 40
0.0
  0
LTYPE
  5
14
330
5
100
AcDbSymbolTableRecord
100
AcDbLinetypeTableRecord
  2
CONTINUOUS
 70
     0
  3
Solid line
 72
    65
 73
     0
 40
0.0
  0
LTYPE
  5
20
330
5
100
AcDbSymbolTableRecord
100
AcDbLinetypeTableRecord
  2
HIDDEN
 70
     0
  3
Hidden __ __ __ __ __ __ __ __ __ __ __ __ __ _
 72
    65
 73
     2
 40
9.524999999999996
 49
6.349999999999997
 74
     0
 49
-3.174999999999998
 74
     0
  0
LTYPE
  5
351
330
5
100
AcDbSymbolTableRecord
100
AcDbLinetypeTableRecord
  2
CENTER
 70
     0
  3
Dash dot __ . __ . __ . __ . __ . __ . __ . __
 72
    65
 73
     4
 40
25.4
 49
12.7
 74
     0
 49
-6.349999999999997
 74
     0
 49
0.0
 74
     0
 49
-6.349999999999997
 74
     0
  0
LTYPE
  5
1819
330
5
100
AcDbSymbolTableRecord
100
AcDbLinetypeTableRecord
  2
Continuous2
 70
     0
  3
Solid Line
 72
    65
 73
     0
 40
0.0
  0
LTYPE
  5
1F8F
330
5
100
AcDbSymbolTableRecord
100
AcDbLinetypeTableRecord
  2
CENTER2
 70
     0
  3
Center (0.5x) ___ _ ___ _ ___ _ ___ _ ___ _ ___
 72
    65
 73
     4
 40
1.125
 49
0.75
 74
     0
 49
-0.125
 74
     0
 49
0.125
 74
     0
 49
-0.125
 74
     0
  0
ENDTAB
  0
TABLE
  2
LAYER
  5
2
102
{ACAD_XDICTIONARY
360
5BC
102
}
330
0
100
AcDbSymbolTable
 70
    17
  0
LAYER
  5
F
102
{ACAD_XDICTIONARY
360
59B
102
}
330
2
100
AcDbSymbolTableRecord
100
AcDbLayerTableRecord
  2
0
 70
     0
 62
     7
  6
CONTINUOUS
370
    -3
390
300
  0
LAYER
  5
23
102
{ACAD_XDICTIONARY
360
59D
102
}
330
2
100
AcDbSymbolTableRecord
100
AcDbLayerTableRecord
  2
1
 70
     0
 62
     4
  6
CONTINUOUS
370
    -3
390
300
  0
LAYER
  5
24
102
{ACAD_XDICTIONARY
360
59F
102
}
330
2
100
AcDbSymbolTableRecord
100
AcDbLayerTableRecord
  2
SK1
 70
     0
 62
     4
  6
CONTINUOUS
370
    -3
390
300
  0
LAYER
  5
25
102
{ACAD_XDICTIONARY
360
5A1
102
}
330
2
100
AcDbSymbolTableRecord
100
AcDbLayerTableRecord
  2
2
 70
     0
 62
     7
  6
CONTINUOUS
370
    -3
390
300
  0
LAYER
  5
26
102
{ACAD_XDICTIONARY
360
5A3
102
}
330
2
100
AcDbSymbolTableRecord
100
AcDbLayerTableRecord
  2
2L
 70
     0
 62
     7
  6
CONTINUOUS
370
    -3
390
300
  0
LAYER
  5
27
102
{ACAD_XDICTIONARY
360
5A5
102
}
330
2
100
AcDbSymbolTableRecord
100
AcDbLayerTableRecord
  2
SK2
 70
     0
 62
     7
  6
CONTINUOUS
370
    -3
390
300
  0
LAYER
  5
28
102
{ACAD_XDICTIONARY
360
5A7
102
}
330
2
100
AcDbSymbolTableRecord
100
AcDbLayerTableRecord
  2
3
 70
     0
 62
     1
  6
HIDDEN
370
    -3
390
300
  0
LAYER
  5
29
102
{ACAD_XDICTIONARY
360
5A9
102
}
330
2
100
AcDbSymbolTableRecord
100
AcDbLayerTableRecord
  2
SK3
 70
     0
 62
     1
  6
HIDDEN
370
    -3
390
300
  0
LAYER
  5
2A
102
{ACAD_XDICTIONARY
360
5AB
102
}
330
2
100
AcDbSymbolTableRecord
100
AcDbLayerTableRecord
  2
4
 70
     0
 62
     2
  6
CENTER
370
    -3
390
300
  0
LAYER
  5
2B
102
{ACAD_XDICTIONARY
360
5AD
102
}
330
2
100
AcDbSymbolTableRecord
100
AcDbLayerTableRecord
  2
SK4
 70
     0
 62
     2
  6
CENTER
370
    -3
390
300
  0
LAYER
  5
2C
102
{ACAD_XDICTIONARY
360
5AF
102
}
330
2
100
AcDbSymbolTableRecord
100
AcDbLayerTableRecord
  2
5
 70
     0
 62
     7
  6
CONTINUOUS
370
    -3
390
300
  0
LAYER
  5
2D
102
{ACAD_XDICTIONARY
360
5B1
102
}
330
2
100
AcDbSymbolTableRecord
100
AcDbLayerTableRecord
  2
6
 70
     0
 62
     5
  6
CONTINUOUS
370
    -3
390
300
  0
LAYER
  5
2E
102
{ACAD_XDICTIONARY
360
5B3
102
}
330
2
100
AcDbSymbolTableRecord
100
AcDbLayerTableRecord
  2
SK6
 70
     0
 62
     5
  6
CONTINUOUS
370
    -3
390
300
  0
LAYER
  5
2F
330
2
100
AcDbSymbolTableRecord
100
AcDbLayerTableRecord
  2
DEFPOINTS
 70
     0
 62
     7
  6
CONTINUOUS
290
     0
370
    -3
390
300
  0
LAYER
  5
375
102
{ACAD_XDICTIONARY
360
5B5
102
}
330
2
100
AcDbSymbolTableRecord
100
AcDbLayerTableRecord
  2
CUT
 70
     0
 62
     1
  6
CONTINUOUS
370
    -3
390
300
  0
LAYER
  5
376
102
{ACAD_XDICTIONARY
360
5B7
102
}
330
2
100
AcDbSymbolTableRecord
100
AcDbLayerTableRecord
  2
NOCUT
 70
     0
 62
     7
  6
CONTINUOUS
370
    -3
390
300
  0
ENDTAB
  0
TABLE
  2
STYLE
  5
3
330
0
100
AcDbSymbolTable
 70
     7
  0
STYLE
  5
10
330
3
100
AcDbSymbolTableRecord
100
AcDbTextStyleTableRecord
  2
STANDARD
 70
     0
 40
0.0
 41
1.0
 50
0.0
 71
     0
 42
5.0
  3
txt
  4

  0
STYLE
  5
1D
330
3
100
AcDbSymbolTableRecord
100
AcDbTextStyleTableRecord
  2
TXT
 70
     0
 40
8.0
 41
1.0
 50
0.0
 71
     0
 42
8.0
  3
txt
  4

  0
STYLE
  5
1E
330
3
100
AcDbSymbolTableRecord
100
AcDbTextStyleTableRecord
  2
SIMPLEX
 70
     0
 40
0.0
 41
1.0
 50
0.0
 71
     0
 42
3.5
  3
simplex
  4

  0
STYLE
  5
34C
330
3
100
AcDbSymbolTableRecord
100
AcDbTextStyleTableRecord
  2

 70
     1
 40
0.0
 41
1.0
 50
0.0
 71
     0
 42
2.5
  3
ltypeshp.shx
  4

  0
STYLE
  5
649
330
3
100
AcDbSymbolTableRecord
100
AcDbTextStyleTableRecord
  2
cesky
 70
     0
 40
0.0
 41
1.0
 50
0.0
 71
     0
 42
0.2
  3
monos.ttf
  4

1001
ACAD
1000
Monospac821 BT
1071
        0
  0
STYLE
  5
181B
330
3
100
AcDbSymbolTableRecord
100
AcDbTextStyleTableRecord
  2
MCArial
 70
     0
 40
0.0
 41
1.0
 50
0.0
 71
     0
 42
2.5
  3
arial.ttf
  4

1001
ACAD
1000
Arial
1071
      256
  0
STYLE
  5
1F91
330
3
100
AcDbSymbolTableRecord
100
AcDbTextStyleTableRecord
  2
HPMT L
 70
     0
 40
2.0
 41
0.8
 50
0.0
 71
     0
 42
0.8
  3
arial.ttf
  4

1001
ACAD
1000
Arial
1071
      290
  0
ENDTAB
  0
TABLE
  2
VIEW
  5
6
330
0
100
AcDbSymbolTable
 70
     0
  0
ENDTAB
  0
TABLE
  2
UCS
  5
7
330
0
100
AcDbSymbolTable
 70
     0
  0
ENDTAB
  0
TABLE
  2
APPID
  5
9
330
0
100
AcDbSymbolTable
 70
    17
  0
APPID
  5
11
330
9
100
AcDbSymbolTableRecord
100
AcDbRegAppTableRecord
  2
ACAD
 70
     0
  0
APPID
  5
58E
330
9
100
AcDbSymbolTableRecord
100
AcDbRegAppTableRecord
  2
ACAD_MLEADERVER
 70
     0
  0
APPID
  5
5C5
330
9
100
AcDbSymbolTableRecord
100
AcDbRegAppTableRecord
  2
ACAD_NAV_VCDISPLAY
 70
     0
  0
APPID
  5
617
330
9
100
AcDbSymbolTableRecord
100
AcDbRegAppTableRecord
  2
ACAD_PSEXT
 70
     0
  0
APPID
  5
623
330
9
100
AcDbSymbolTableRecord
100
AcDbRegAppTableRecord
  2
ACAD_EXEMPT_FROM_CAD_STANDARDS
 70
     0
  0
APPID
  5
64A
330
9
100
AcDbSymbolTableRecord
100
AcDbRegAppTableRecord
  2
ACAD_DSTYLE_DIMBREAK
 70
     0
  0
APPID
  5
78A
330
9
100
AcDbSymbolTableRecord
100
AcDbRegAppTableRecord
  2
DCO15
 70
     0
  0
APPID
  5
1D92
330
9
100
AcDbSymbolTableRecord
100
AcDbRegAppTableRecord
  2
ACAD_DSTYLE_DIMRADIAL_EXTENSION
 70
     0
  0
APPID
  5
1F97
330
9
100
AcDbSymbolTableRecord
100
AcDbRegAppTableRecord
  2
AcAecLayerStandard
 70
     0
  0
APPID
  5
1F98
330
9
100
AcDbSymbolTableRecord
100
AcDbRegAppTableRecord
  2
AcadAnnotative
 70
     0
  0
APPID
  5
1F99
330
9
100
AcDbSymbolTableRecord
100
AcDbRegAppTableRecord
  2
ACAD_DSTYLE_DIMTALN
 70
     0
  0
APPID
  5
3892
330
9
100
AcDbSymbolTableRecord
100
AcDbRegAppTableRecord
  2
ACAD_DSTYLE_DIMJOGGED_JOGANGLE_SYMBOL
 70
     0
  0
APPID
  5
3893
330
9
100
AcDbSymbolTableRecord
100
AcDbRegAppTableRecord
  2
ACAD_DSTYLE_DIM_LINETYPE
 70
     0
  0
APPID
  5
3894
330
9
100
AcDbSymbolTableRecord
100
AcDbRegAppTableRecord
  2
ACAD_DSTYLE_DIM_EXT1_LINETYPE
 70
     0
  0
APPID
  5
3895
330
9
100
AcDbSymbolTableRecord
100
AcDbRegAppTableRecord
  2
ACAD_DSTYLE_DIM_EXT2_LINETYPE
 70
     0
  0
APPID
  5
3896
330
9
100
AcDbSymbolTableRecord
100
AcDbRegAppTableRecord
  2
ACAD_DSTYLE_DIMARC_LENGTH_SYMBOL
 70
     0
  0
APPID
  5
3E4E
330
9
100
AcDbSymbolTableRecord
100
AcDbRegAppTableRecord
  2
AcCmTransparency
 70
     0
  0
ENDTAB
  0
TABLE
  2
DIMSTYLE
  5
A
330
0
100
AcDbSymbolTable
 70
     7
100
AcDbDimStyleTable
 71
     1
340
3F
  0
DIMSTYLE
105
3F
102
{ACAD_REACTORS
330
3740
330
3768
330
3790
330
37C1
330
37E9
330
3824
102
}
330
A
100
AcDbSymbolTableRecord
100
AcDbDimStyleTableRecord
  2
STANDARD
 70
     0
 41
2.5
 42
0.0
 43
3.75
 44
1.25
 73
     0
 74
     0
 77
     1
 78
     8
 79
     2
140
3.5
141
0.0
143
0.039370078
147
0.625
171
     3
179
     2
271
     2
272
     2
274
     3
283
     0
284
     8
340
1E
  0
DIMSTYLE
105
181C
330
A
100
AcDbSymbolTableRecord
100
AcDbDimStyleTableRecord
  2
ISO-25
 70
     0
 41
2.5
 42
0.625
 43
3.75
 44
1.25
 73
     0
 74
     0
 77
     1
 78
     8
140
2.5
141
2.5
143
0.03937007874016
147
0.625
171
     3
172
     1
271
     2
272
     2
274
     3
278
    44
283
     0
284
     8
340
10
  0
DIMSTYLE
105
1F92
330
A
100
AcDbSymbolTableRecord
100
AcDbDimStyleTableRecord
  2
HPMT 1
 70
     0
 41
1.5
 42
1.0
 44
0.2
 48
0.000000001
 74
     0
140
2.0
141
0.0
143
2.0
147
1.0
171
     1
176
   256
177
   256
178
   256
271
     3
272
     2
274
     1
288
     1
289
     2
340
1F91
371
    -1
372
    -1
1001
AcadAnnotative
1000
AnnotativeData
1002
{
1070
     1
1070
     0
1002
}
1001
ACAD_DSTYLE_DIMBREAK
1070
   391
1040
0.125
1001
ACAD_DSTYLE_DIMTALN
1070
   392
1070
     0
1001
ACAD_DSTYLE_DIMJOGGED_JOGANGLE_SYMBOL
1070
   384
1040
0.7853981634000001
1001
ACAD_DSTYLE_DIM_LINETYPE
1070
   380
1005
13
1001
ACAD_DSTYLE_DIM_EXT1_LINETYPE
1070
   381
1005
13
1001
ACAD_DSTYLE_DIM_EXT2_LINETYPE
1070
   382
1005
13
  0
DIMSTYLE
105
1F93
330
A
100
AcDbSymbolTableRecord
100
AcDbDimStyleTableRecord
  2
HPMT 2
 70
     0
 41
1.5
 42
1.0
 44
0.2
 48
0.000000001
140
2.0
141
0.0
143
2.0
147
1.0
171
     1
172
     1
176
   256
177
   256
271
     3
272
     2
274
     1
288
     1
289
     2
340
1F91
371
    -1
372
    -1
1001
AcadAnnotative
1000
AnnotativeData
1002
{
1070
     1
1070
     0
1002
}
1001
ACAD_DSTYLE_DIMBREAK
1070
   391
1040
0.125
1001
ACAD_DSTYLE_DIMTALN
1070
   392
1070
     0
1001
ACAD_DSTYLE_DIMJOGGED_JOGANGLE_SYMBOL
1070
   384
1040
0.7853981634000001
1001
ACAD_DSTYLE_DIM_LINETYPE
1070
   380
1005
13
1001
ACAD_DSTYLE_DIM_EXT1_LINETYPE
1070
   381
1005
13
1001
ACAD_DSTYLE_DIM_EXT2_LINETYPE
1070
   382
1005
13
  0
DIMSTYLE
105
1F94
330
A
100
AcDbSymbolTableRecord
100
AcDbDimStyleTableRecord
  2
HPMT 3
 70
     0
 41
1.5
 42
1.0
 44
0.2
 48
0.000000001
 74
     0
140
2.0
141
0.0
143
2.0
147
1.0
171
     1
176
   256
177
   256
178
   256
271
     3
272
     2
274
     1
288
     1
289
     2
340
1F91
371
    -1
372
    -1
1001
AcadAnnotative
1000
AnnotativeData
1002
{
1070
     1
1070
     0
1002
}
1001
ACAD_DSTYLE_DIMBREAK
1070
   391
1040
0.125
1001
ACAD_DSTYLE_DIMTALN
1070
   392
1070
     0
1001
ACAD_DSTYLE_DIMARC_LENGTH_SYMBOL
1070
   379
1070
     2
1001
ACAD_DSTYLE_DIMJOGGED_JOGANGLE_SYMBOL
1070
   384
1040
0.7853981634000001
1001
ACAD_DSTYLE_DIM_LINETYPE
1070
   380
1005
13
1001
ACAD_DSTYLE_DIM_EXT1_LINETYPE
1070
   381
1005
13
1001
ACAD_DSTYLE_DIM_EXT2_LINETYPE
1070
   382
1005
13
  0
DIMSTYLE
105
1F95
330
A
100
AcDbSymbolTableRecord
100
AcDbDimStyleTableRecord
  2
HPMT 4
 70
     0
 41
1.5
 42
1.0
 44
0.2
 48
0.000000001
140
2.0
141
0.0
143
2.0
147
1.0
171
     1
176
   256
177
   256
178
   256
271
     3
272
     2
274
     1
279
     2
288
     1
289
     2
340
1F91
371
    -1
372
    -1
1001
AcadAnnotative
1000
AnnotativeData
1002
{
1070
     1
1070
     0
1002
}
1001
ACAD_DSTYLE_DIMBREAK
1070
   391
1040
0.125
1001
ACAD_DSTYLE_DIMTALN
1070
   392
1070
     0
1001
ACAD_DSTYLE_DIMJOGGED_JOGANGLE_SYMBOL
1070
   384
1040
0.7853981634000001
1001
ACAD_DSTYLE_DIM_LINETYPE
1070
   380
1005
13
1001
ACAD_DSTYLE_DIM_EXT1_LINETYPE
1070
   381
1005
13
1001
ACAD_DSTYLE_DIM_EXT2_LINETYPE
1070
   382
1005
13
  0
DIMSTYLE
105
1F96
330
A
100
AcDbSymbolTableRecord
100
AcDbDimStyleTableRecord
  2
HPMT 5
 70
     0
 41
1.5
 42
1.0
 44
0.2
 48
0.000000001
 73
     0
140
2.0
141
0.0
143
2.0
147
1.0
171
     1
176
   256
177
   256
178
   256
271
     3
272
     2
274
     1
279
     1
289
     2
340
1F91
371
    -1
372
    -1
1001
AcadAnnotative
1000
AnnotativeData
1002
{
1070
     1
1070
     0
1002
}
1001
ACAD_DSTYLE_DIMBREAK
1070
   391
1040
0.125
1001
ACAD_DSTYLE_DIMTALN
1070
   392
1070
     0
1001
ACAD_DSTYLE_DIMARC_LENGTH_SYMBOL
1070
   379
1070
     2
1001
ACAD_DSTYLE_DIMJOGGED_JOGANGLE_SYMBOL
1070
   384
1040
0.7853981634000001
1001
ACAD_DSTYLE_DIM_LINETYPE
1070
   380
1005
13
1001
ACAD_DSTYLE_DIM_EXT1_LINETYPE
1070
   381
1005
13
1001
ACAD_DSTYLE_DIM_EXT2_LINETYPE
1070
   382
1005
13
  0
ENDTAB
  0
TABLE
  2
BLOCK_RECORD
  5
1
330
0
100
AcDbSymbolTable
 70
    19
  0
BLOCK_RECORD
  5
18
102
{ACAD_XDICTIONARY
360
16F5
102
}
330
1
100
AcDbSymbolTableRecord
100
AcDbBlockTableRecord
  2
*MODEL_SPACE
340
303
  0
BLOCK_RECORD
  5
338
330
1
100
AcDbSymbolTableRecord
100
AcDbBlockTableRecord
  2
*Paper_Space
340
33B
  0
BLOCK_RECORD
  5
500
330
1
100
AcDbSymbolTableRecord
100
AcDbBlockTableRecord
  2
*D0
340
0
  0
BLOCK_RECORD
  5
50D
330
1
100
AcDbSymbolTableRecord
100
AcDbBlockTableRecord
  2
*D1
340
0
  0
BLOCK_RECORD
  5
51A
330
1
100
AcDbSymbolTableRecord
100
AcDbBlockTableRecord
  2
*D2
340
0
  0
BLOCK_RECORD
  5
527
330
1
100
AcDbSymbolTableRecord
100
AcDbBlockTableRecord
  2
*D3
340
0
  0
BLOCK_RECORD
  5
534
330
1
100
AcDbSymbolTableRecord
100
AcDbBlockTableRecord
  2
*D4
340
0
  0
BLOCK_RECORD
  5
541
330
1
100
AcDbSymbolTableRecord
100
AcDbBlockTableRecord
  2
*D5
340
0
  0
BLOCK_RECORD
  5
1C50
330
1
100
AcDbSymbolTableRecord
100
AcDbBlockTableRecord
  2
*D6
340
0
  0
BLOCK_RECORD
  5
1CBF
330
1
100
AcDbSymbolTableRecord
100
AcDbBlockTableRecord
  2
*D7
340
0
  0
BLOCK_RECORD
  5
1D6B
330
1
100
AcDbSymbolTableRecord
100
AcDbBlockTableRecord
  2
*D8
340
0
  0
BLOCK_RECORD
  5
1D94
330
1
100
AcDbSymbolTableRecord
100
AcDbBlockTableRecord
  2
*D9
340
0
  0
BLOCK_RECORD
  5
1DAF
330
1
100
AcDbSymbolTableRecord
100
AcDbBlockTableRecord
  2
*D10
340
0
  0
BLOCK_RECORD
  5
1DBB
330
1
100
AcDbSymbolTableRecord
100
AcDbBlockTableRecord
  2
*D11
340
0
  0
BLOCK_RECORD
  5
3741
330
1
100
AcDbSymbolTableRecord
100
AcDbBlockTableRecord
  2
*D12
340
0
  0
BLOCK_RECORD
  5
3769
330
1
100
AcDbSymbolTableRecord
100
AcDbBlockTableRecord
  2
*D13
340
0
  0
BLOCK_RECORD
  5
3791
330
1
100
AcDbSymbolTableRecord
100
AcDbBlockTableRecord
  2
*D14
340
0
  0
BLOCK_RECORD
  5
37C2
330
1
100
AcDbSymbolTableRecord
100
AcDbBlockTableRecord
  2
*D15
340
0
  0
BLOCK_RECORD
  5
37EA
330
1
100
AcDbSymbolTableRecord
100
AcDbBlockTableRecord
  2
*D16
340
0
  0
BLOCK_RECORD
  5
3812
330
1
100
AcDbSymbolTableRecord
100
AcDbBlockTableRecord
  2
*D17
340
0
  0
BLOCK_RECORD
  5
3825
330
1
100
AcDbSymbolTableRecord
100
AcDbBlockTableRecord
  2
*D18
340
0
  0
ENDTAB
  0
ENDSEC
  0
SECTION
  2
BLOCKS
  0
BLOCK
  5
32
330
18
100
AcDbEntity
  8
0
100
AcDbBlockBegin
  2
*MODEL_SPACE
 70
     0
 10
0.0
 20
0.0
 30
0.0
  3
*MODEL_SPACE
  1

  0
ENDBLK
  5
33
330
18
100
AcDbEntity
  8
0
100
AcDbBlockEnd
  0
BLOCK
  5
339
330
338
100
AcDbEntity
 67
     1
  8
0
100
AcDbBlockBegin
  2
*Paper_Space
 70
     0
 10
0.0
 20
0.0
 30
0.0
  3
*Paper_Space
  1

  0
ENDBLK
  5
33A
330
338
100
AcDbEntity
 67
     1
  8
0
100
AcDbBlockEnd
  0
BLOCK
  5
501
330
500
100
AcDbEntity
  8
0
100
AcDbBlockBegin
  2
*D0
 70
     1
 10
0.0
 20
0.0
 30
0.0
  3
*D0
  1

  0
LINE
  5
1E49
330
500
100
AcDbEntity
  8
2
 62
     0
370
    -2
100
AcDbLine
 10
236.6667411095106
 20
4.750842884378243
 30
0.0
 11
252.9167411095107
 21
4.750842884378247
 31
0.0
  0
LINE
  5
1E4A
330
500
100
AcDbEntity
  8
2
 62
     0
370
    -2
100
AcDbLine
 10
236.6667411095106
 20
-5.249157115621756
 30
0.0
 11
252.9167411095107
 21
-5.249157115621755
 31
0.0
  0
LINE
  5
1E4B
330
500
100
AcDbEntity
  8
2
 62
     0
370
    -2
100
AcDbLine
 10
251.6667411095107
 20
2.250842884378247
 30
0.0
 11
251.6667411095107
 21
-2.749157115621752
 31
0.0
  0
SOLID
  5
1E4C
330
500
100
AcDbEntity
  8
2
 62
     0
100
AcDbTrace
 10
251.2500744428441
 20
2.250842884378247
 30
0.0
 11
252.0834077761774
 21
2.250842884378247
 31
0.0
 12
251.6667411095107
 22
4.750842884378247
 32
0.0
 13
251.6667411095107
 23
4.750842884378247
 33
0.0
  0
SOLID
  5
1E4D
330
500
100
AcDbEntity
  8
2
 62
     0
100
AcDbTrace
 10
251.2500744428441
 20
-2.749157115621752
 30
0.0
 11
252.0834077761774
 21
-2.749157115621752
 31
0.0
 12
251.6667411095107
 22
-5.249157115621755
 32
0.0
 13
251.6667411095107
 23
-5.249157115621755
 33
0.0
  0
MTEXT
  5
1E4E
330
500
100
AcDbEntity
  8
2
 62
     0
100
AcDbMText
 10
249.2917411095107
 20
-0.2491571156218244
 30
0.0
 40
3.5
 41
0.0
 71
     5
 72
     1
  1
%%c10
  7
SIMPLEX
 11
0.0000000000000001
 21
1.0
 31
0.0
 73
     1
 44
1.0
1001
ACAD
1000
MTEXTBEGIN
1070
    73
1070
     1
1070
    44
1040
1.0
1070
    74
1070
     0
1000
MTEXTEND
  0
POINT
  5
1E4F
330
500
100
AcDbEntity
  8
DEFPOINTS
 62
     0
100
AcDbPoint
 10
236.6667411095106
 20
4.750842884378243
 30
0.0
  0
POINT
  5
1E50
330
500
100
AcDbEntity
  8
DEFPOINTS
 62
     0
100
AcDbPoint
 10
236.6667411095106
 20
-5.249157115621756
 30
0.0
  0
POINT
  5
1E51
330
500
100
AcDbEntity
  8
DEFPOINTS
 62
     0
100
AcDbPoint
 10
251.6667411095107
 20
-5.249157115621755
 30
0.0
  0
ENDBLK
  5
502
330
500
100
AcDbEntity
  8
0
100
AcDbBlockEnd
  0
BLOCK
  5
50E
330
50D
100
AcDbEntity
  8
0
100
AcDbBlockBegin
  2
*D1
 70
     1
 10
0.0
 20
0.0
 30
0.0
  3
*D1
  1

  0
LINE
  5
1E52
330
50D
100
AcDbEntity
  8
2
 62
     0
370
    -2
100
AcDbLine
 10
204.6667411095104
 20
-0.249157115621756
 30
0.0
 11
204.6667411095104
 21
76.00084288437823
 31
0.0
  0
LINE
  5
1E53
330
50D
100
AcDbEntity
  8
2
 62
     0
370
    -2
100
AcDbLine
 10
236.6667411095104
 20
-0.249157115621756
 30
0.0
 11
236.6667411095104
 21
76.00084288437823
 31
0.0
  0
LINE
  5
1E54
330
50D
100
AcDbEntity
  8
2
 62
     0
370
    -2
100
AcDbLine
 10
207.1667411095104
 20
74.75084288437823
 30
0.0
 11
234.1667411095104
 21
74.75084288437823
 31
0.0
  0
SOLID
  5
1E55
330
50D
100
AcDbEntity
  8
2
 62
     0
100
AcDbTrace
 10
207.1667411095104
 20
75.1675095510449
 30
0.0
 11
207.1667411095104
 21
74.33417621771154
 31
0.0
 12
204.6667411095104
 22
74.75084288437823
 32
0.0
 13
204.6667411095104
 23
74.75084288437823
 33
0.0
  0
SOLID
  5
1E56
330
50D
100
AcDbEntity
  8
2
 62
     0
100
AcDbTrace
 10
234.1667411095104
 20
75.1675095510449
 30
0.0
 11
234.1667411095104
 21
74.33417621771154
 31
0.0
 12
236.6667411095104
 22
74.75084288437823
 32
0.0
 13
236.6667411095104
 23
74.75084288437823
 33
0.0
  0
MTEXT
  5
1E57
330
50D
100
AcDbEntity
  8
2
 62
     0
100
AcDbMText
 10
220.6667411095105
 20
77.12584288437823
 30
0.0
 40
3.5
 41
0.0
 71
     5
 72
     1
  1
32
  7
SIMPLEX
 73
     1
 44
1.0
1001
ACAD
1000
MTEXTBEGIN
1070
    73
1070
     1
1070
    44
1040
1.0
1070
    74
1070
     0
1000
MTEXTEND
  0
POINT
  5
1E58
330
50D
100
AcDbEntity
  8
DEFPOINTS
 62
     0
100
AcDbPoint
 10
204.6667411095104
 20
-0.249157115621756
 30
0.0
  0
POINT
  5
1E59
330
50D
100
AcDbEntity
  8
DEFPOINTS
 62
     0
100
AcDbPoint
 10
236.6667411095104
 20
-0.249157115621756
 30
0.0
  0
POINT
  5
1E5A
330
50D
100
AcDbEntity
  8
DEFPOINTS
 62
     0
100
AcDbPoint
 10
236.6667411095104
 20
74.75084288437823
 30
0.0
  0
ENDBLK
  5
50F
330
50D
100
AcDbEntity
  8
0
100
AcDbBlockEnd
  0
BLOCK
  5
51B
330
51A
100
AcDbEntity
  8
0
100
AcDbBlockBegin
  2
*D2
 70
     1
 10
0.0
 20
0.0
 30
0.0
  3
*D2
  1

  0
LINE
  5
1E5B
330
51A
100
AcDbEntity
  8
2
 62
     0
370
    -2
100
AcDbLine
 10
214.1667411095105
 20
4.750842884378243
 30
0.0
 11
214.1667411095105
 21
61.00084288437824
 31
0.0
  0
LINE
  5
1E5C
330
51A
100
AcDbEntity
  8
2
 62
     0
370
    -2
100
AcDbLine
 10
236.6667411095104
 20
4.750842884378243
 30
0.0
 11
236.6667411095104
 21
61.00084288437824
 31
0.0
  0
LINE
  5
1E5D
330
51A
100
AcDbEntity
  8
2
 62
     0
370
    -2
100
AcDbLine
 10
216.6667411095104
 20
59.75084288437824
 30
0.0
 11
234.1667411095104
 21
59.75084288437824
 31
0.0
  0
SOLID
  5
1E5E
330
51A
100
AcDbEntity
  8
2
 62
     0
100
AcDbTrace
 10
216.6667411095104
 20
60.1675095510449
 30
0.0
 11
216.6667411095104
 21
59.33417621771158
 31
0.0
 12
214.1667411095105
 22
59.75084288437824
 32
0.0
 13
214.1667411095105
 23
59.75084288437824
 33
0.0
  0
SOLID
  5
1E5F
330
51A
100
AcDbEntity
  8
2
 62
     0
100
AcDbTrace
 10
234.1667411095104
 20
60.1675095510449
 30
0.0
 11
234.1667411095104
 21
59.33417621771158
 31
0.0
 12
236.6667411095104
 22
59.75084288437824
 32
0.0
 13
236.6667411095104
 23
59.75084288437824
 33
0.0
  0
MTEXT
  5
1E60
330
51A
100
AcDbEntity
  8
2
 62
     0
100
AcDbMText
 10
225.4167411095104
 20
62.12584288437824
 30
0.0
 40
3.5
 41
0.0
 71
     5
 72
     1
  1
22.5
  7
SIMPLEX
 73
     1
 44
1.0
1001
ACAD
1000
MTEXTBEGIN
1070
    73
1070
     1
1070
    44
1040
1.0
1070
    74
1070
     0
1000
MTEXTEND
  0
POINT
  5
1E61
330
51A
100
AcDbEntity
  8
DEFPOINTS
 62
     0
100
AcDbPoint
 10
214.1667411095105
 20
4.750842884378243
 30
0.0
  0
POINT
  5
1E62
330
51A
100
AcDbEntity
  8
DEFPOINTS
 62
     0
100
AcDbPoint
 10
236.6667411095104
 20
4.750842884378243
 30
0.0
  0
POINT
  5
1E63
330
51A
100
AcDbEntity
  8
DEFPOINTS
 62
     0
100
AcDbPoint
 10
236.6667411095104
 20
59.75084288437824
 30
0.0
  0
ENDBLK
  5
51C
330
51A
100
AcDbEntity
  8
0
100
AcDbBlockEnd
  0
BLOCK
  5
528
330
527
100
AcDbEntity
  8
0
100
AcDbBlockBegin
  2
*D3
 70
     1
 10
0.0
 20
0.0
 30
0.0
  3
*D3
  1

  0
LINE
  5
1E64
330
527
100
AcDbEntity
  8
SK2
 62
     0
370
    -2
100
AcDbLine
 10
164.6667411095105
 20
4.750842884378243
 30
0.0
 11
148.4167411095361
 21
4.750842884378243
 31
0.0
  0
LINE
  5
1E65
330
527
100
AcDbEntity
  8
SK2
 62
     0
370
    -2
100
AcDbLine
 10
164.6667411095105
 20
-5.249157115621756
 30
0.0
 11
148.4167411095361
 21
-5.249157115621757
 31
0.0
  0
LINE
  5
1E66
330
527
100
AcDbEntity
  8
SK2
 62
     0
370
    -2
100
AcDbLine
 10
149.6667411095361
 20
2.250842884378243
 30
0.0
 11
149.6667411095361
 21
-2.749157115621759
 31
0.0
  0
SOLID
  5
1E67
330
527
100
AcDbEntity
  8
SK2
 62
     0
100
AcDbTrace
 10
149.2500744428694
 20
2.250842884378243
 30
0.0
 11
150.0834077762027
 21
2.250842884378243
 31
0.0
 12
149.6667411095361
 22
4.750842884378243
 32
0.0
 13
149.6667411095361
 23
4.750842884378243
 33
0.0
  0
SOLID
  5
1E68
330
527
100
AcDbEntity
  8
SK2
 62
     0
100
AcDbTrace
 10
149.2500744428694
 20
-2.749157115621759
 30
0.0
 11
150.0834077762027
 21
-2.749157115621759
 31
0.0
 12
149.6667411095361
 22
-5.249157115621757
 32
0.0
 13
149.6667411095361
 23
-5.249157115621757
 33
0.0
  0
MTEXT
  5
1E69
330
527
100
AcDbEntity
  8
SK2
 62
     0
100
AcDbMText
 10
147.2917411095361
 20
-0.2491571156218004
 30
0.0
 40
3.5
 41
0.0
 71
     5
 72
     1
  1
%%c10
  7
SIMPLEX
 11
0.0000000000000001
 21
1.0
 31
0.0
 73
     1
 44
1.0
1001
ACAD
1000
MTEXTBEGIN
1070
    73
1070
     1
1070
    44
1040
1.0
1070
    74
1070
     0
1000
MTEXTEND
  0
POINT
  5
1E6A
330
527
100
AcDbEntity
  8
DEFPOINTS
 62
     0
100
AcDbPoint
 10
164.6667411095105
 20
4.750842884378243
 30
0.0
  0
POINT
  5
1E6B
330
527
100
AcDbEntity
  8
DEFPOINTS
 62
     0
100
AcDbPoint
 10
164.6667411095105
 20
-5.249157115621756
 30
0.0
  0
POINT
  5
1E6C
330
527
100
AcDbEntity
  8
DEFPOINTS
 62
     0
100
AcDbPoint
 10
149.6667411095361
 20
-5.249157115621757
 30
0.0
  0
ENDBLK
  5
529
330
527
100
AcDbEntity
  8
0
100
AcDbBlockEnd
  0
BLOCK
  5
535
330
534
100
AcDbEntity
  8
0
100
AcDbBlockBegin
  2
*D4
 70
     1
 10
0.0
 20
0.0
 30
0.0
  3
*D4
  1

  0
LINE
  5
1E6D
330
534
100
AcDbEntity
  8
SK2
 62
     0
370
    -2
100
AcDbLine
 10
164.6667411095104
 20
-0.249157115621756
 30
0.0
 11
164.6667411095104
 21
91.00084288437825
 31
0.0
  0
LINE
  5
1E6E
330
534
100
AcDbEntity
  8
SK2
 62
     0
370
    -2
100
AcDbLine
 10
236.6667411095104
 20
-0.249157115621756
 30
0.0
 11
236.6667411095104
 21
91.00084288437825
 31
0.0
  0
LINE
  5
1E6F
330
534
100
AcDbEntity
  8
SK2
 62
     0
370
    -2
100
AcDbLine
 10
167.1667411095104
 20
89.75084288437825
 30
0.0
 11
234.1667411095104
 21
89.75084288437825
 31
0.0
  0
SOLID
  5
1E70
330
534
100
AcDbEntity
  8
SK2
 62
     0
100
AcDbTrace
 10
167.1667411095104
 20
90.16750955104491
 30
0.0
 11
167.1667411095104
 21
89.33417621771154
 31
0.0
 12
164.6667411095104
 22
89.75084288437825
 32
0.0
 13
164.6667411095104
 23
89.75084288437825
 33
0.0
  0
SOLID
  5
1E71
330
534
100
AcDbEntity
  8
SK2
 62
     0
100
AcDbTrace
 10
234.1667411095104
 20
90.16750955104491
 30
0.0
 11
234.1667411095104
 21
89.33417621771154
 31
0.0
 12
236.6667411095104
 22
89.75084288437825
 32
0.0
 13
236.6667411095104
 23
89.75084288437825
 33
0.0
  0
MTEXT
  5
1E72
330
534
100
AcDbEntity
  8
SK2
 62
     0
100
AcDbMText
 10
200.6667411095104
 20
92.12584288437824
 30
0.0
 40
3.5
 41
0.0
 71
     5
 72
     1
  1
72
  7
SIMPLEX
 73
     1
 44
1.0
1001
ACAD
1000
MTEXTBEGIN
1070
    73
1070
     1
1070
    44
1040
1.0
1070
    74
1070
     0
1000
MTEXTEND
  0
POINT
  5
1E73
330
534
100
AcDbEntity
  8
DEFPOINTS
 62
     0
100
AcDbPoint
 10
164.6667411095104
 20
-0.249157115621756
 30
0.0
  0
POINT
  5
1E74
330
534
100
AcDbEntity
  8
DEFPOINTS
 62
     0
100
AcDbPoint
 10
236.6667411095104
 20
-0.249157115621756
 30
0.0
  0
POINT
  5
1E75
330
534
100
AcDbEntity
  8
DEFPOINTS
 62
     0
100
AcDbPoint
 10
236.6667411095104
 20
89.75084288437825
 30
0.0
  0
ENDBLK
  5
536
330
534
100
AcDbEntity
  8
0
100
AcDbBlockEnd
  0
BLOCK
  5
542
330
541
100
AcDbEntity
  8
0
100
AcDbBlockBegin
  2
*D5
 70
     1
 10
0.0
 20
0.0
 30
0.0
  3
*D5
  1

  0
LINE
  5
1E76
330
541
100
AcDbEntity
  8
2
 62
     0
370
    -2
100
AcDbLine
 10
236.4667411095104
 20
4.750842884378243
 30
0.0
 11
236.4667411095104
 21
21.00084288437825
 31
0.0
  0
LINE
  5
1E77
330
541
100
AcDbEntity
  8
2
 62
     0
370
    -2
100
AcDbLine
 10
236.6667411095104
 20
4.750842884378243
 30
0.0
 11
236.6667411095104
 21
21.00084288437825
 31
0.0
  0
LINE
  5
1E78
330
541
100
AcDbEntity
  8
2
 62
     0
370
    -2
100
AcDbLine
 10
233.9667411095105
 20
19.75084288437823
 30
0.0
 11
231.4667411095105
 21
19.75084288437823
 31
0.0
  0
LINE
  5
1E79
330
541
100
AcDbEntity
  8
2
 62
     0
370
    -2
100
AcDbLine
 10
239.1667411095105
 20
19.75084288437823
 30
0.0
 11
261.4167411095104
 21
19.75084288437823
 31
0.0
  0
SOLID
  5
1E7A
330
541
100
AcDbEntity
  8
2
 62
     0
100
AcDbTrace
 10
233.9667411095105
 20
20.16750955104491
 30
0.0
 11
233.9667411095105
 21
19.33417621771157
 31
0.0
 12
236.4667411095104
 22
19.75084288437823
 32
0.0
 13
236.4667411095104
 23
19.75084288437823
 33
0.0
  0
SOLID
  5
1E7B
330
541
100
AcDbEntity
  8
2
 62
     0
100
AcDbTrace
 10
239.1667411095105
 20
20.16750955104491
 30
0.0
 11
239.1667411095105
 21
19.33417621771157
 31
0.0
 12
236.6667411095104
 22
19.75084288437823
 32
0.0
 13
236.6667411095104
 23
19.75084288437823
 33
0.0
  0
MTEXT
  5
1E7C
330
541
100
AcDbEntity
  8
2
 62
     0
100
AcDbMText
 10
251.5417411095104
 20
22.12584288437824
 30
0.0
 40
3.5
 41
0.0
 71
     5
 72
     1
  1
0.2x45°
  7
SIMPLEX
 73
     1
 44
1.0
1001
ACAD
1000
MTEXTBEGIN
1070
    73
1070
     1
1070
    44
1040
1.0
1070
    74
1070
     0
1000
MTEXTEND
  0
POINT
  5
1E7D
330
541
100
AcDbEntity
  8
DEFPOINTS
 62
     0
100
AcDbPoint
 10
236.4667411095104
 20
4.750842884378243
 30
0.0
  0
POINT
  5
1E7E
330
541
100
AcDbEntity
  8
DEFPOINTS
 62
     0
100
AcDbPoint
 10
236.6667411095104
 20
4.750842884378243
 30
0.0
  0
POINT
  5
1E7F
330
541
100
AcDbEntity
  8
DEFPOINTS
 62
     0
100
AcDbPoint
 10
236.6667411095104
 20
19.75084288437823
 30
0.0
  0
ENDBLK
  5
543
330
541
100
AcDbEntity
  8
0
100
AcDbBlockEnd
  0
BLOCK
  5
1C51
330
1C50
100
AcDbEntity
  8
0
100
AcDbBlockBegin
  2
*D6
 70
     1
 10
0.0
 20
0.0
 30
0.0
  3
*D6
  1

  0
LINE
  5
1F57
330
1C50
100
AcDbEntity
  8
2
 62
     0
370
    -2
100
AcDbLine
 10
303.5215678334946
 20
10.0
 30
0.0
 11
320.0518808810477
 21
10.0
 31
0.0
  0
LINE
  5
1F58
330
1C50
100
AcDbEntity
  8
2
 62
     0
370
    -2
100
AcDbLine
 10
303.5215678334946
 20
-9.99999999999998
 30
0.0
 11
320.0518808810477
 21
-9.999999999999976
 31
0.0
  0
LINE
  5
1F59
330
1C50
100
AcDbEntity
  8
2
 62
     0
370
    -2
100
AcDbLine
 10
318.8018808810477
 20
7.500000000000003
 30
0.0
 11
318.8018808810477
 21
-7.499999999999976
 31
0.0
  0
SOLID
  5
1F5A
330
1C50
100
AcDbEntity
  8
2
 62
     0
100
AcDbTrace
 10
318.385214214381
 20
7.500000000000003
 30
0.0
 11
319.2185475477144
 21
7.500000000000003
 31
0.0
 12
318.8018808810477
 22
10.0
 32
0.0
 13
318.8018808810477
 23
10.0
 33
0.0
  0
SOLID
  5
1F5B
330
1C50
100
AcDbEntity
  8
2
 62
     0
100
AcDbTrace
 10
318.385214214381
 20
-7.499999999999976
 30
0.0
 11
319.2185475477144
 21
-7.499999999999976
 31
0.0
 12
318.8018808810477
 22
-9.999999999999976
 32
0.0
 13
318.8018808810477
 23
-9.999999999999976
 33
0.0
  0
MTEXT
  5
1F5C
330
1C50
100
AcDbEntity
  8
2
 62
     0
100
AcDbMText
 10
316.4268808810477
 20
-0.000000000000077
 30
0.0
 40
3.5
 41
0.0
 71
     5
 72
     1
  1
%%c20
  7
SIMPLEX
 11
0.0000000000000001
 21
1.0
 31
0.0
 73
     1
 44
1.0
1001
ACAD
1000
MTEXTBEGIN
1070
    73
1070
     1
1070
    44
1040
1.0
1070
    74
1070
     0
1000
MTEXTEND
  0
POINT
  5
1F5D
330
1C50
100
AcDbEntity
  8
DEFPOINTS
 62
     0
100
AcDbPoint
 10
303.5215678334946
 20
10.0
 30
0.0
  0
POINT
  5
1F5E
330
1C50
100
AcDbEntity
  8
DEFPOINTS
 62
     0
100
AcDbPoint
 10
303.5215678334946
 20
-9.99999999999998
 30
0.0
  0
POINT
  5
1F5F
330
1C50
100
AcDbEntity
  8
DEFPOINTS
 62
     0
100
AcDbPoint
 10
318.8018808810477
 20
-9.999999999999976
 30
0.0
  0
ENDBLK
  5
1C52
330
1C50
100
AcDbEntity
  8
0
100
AcDbBlockEnd
  0
BLOCK
  5
1CC0
330
1CBF
100
AcDbEntity
  8
0
100
AcDbBlockBegin
  2
*D7
 70
     1
 10
0.0
 20
0.0
 30
0.0
  3
*D7
  1

  0
LINE
  5
1F60
330
1CBF
100
AcDbEntity
  8
2
 62
     0
370
    -2
100
AcDbLine
 10
238.5215678334945
 20
10.0
 30
0.0
 11
238.5215678334945
 21
61.00084288437824
 31
0.0
  0
LINE
  5
1F61
330
1CBF
100
AcDbEntity
  8
2
 62
     0
370
    -2
100
AcDbLine
 10
303.5215678334945
 20
9.700000000000006
 30
0.0
 11
303.5215678334945
 21
61.00084288437824
 31
0.0
  0
LINE
  5
1F62
330
1CBF
100
AcDbEntity
  8
2
 62
     0
370
    -2
100
AcDbLine
 10
241.0215678334945
 20
59.75084288437824
 30
0.0
 11
301.0215678334945
 21
59.75084288437824
 31
0.0
  0
SOLID
  5
1F63
330
1CBF
100
AcDbEntity
  8
2
 62
     0
100
AcDbTrace
 10
241.0215678334945
 20
60.1675095510449
 30
0.0
 11
241.0215678334945
 21
59.33417621771158
 31
0.0
 12
238.5215678334945
 22
59.75084288437824
 32
0.0
 13
238.5215678334945
 23
59.75084288437824
 33
0.0
  0
SOLID
  5
1F64
330
1CBF
100
AcDbEntity
  8
2
 62
     0
100
AcDbTrace
 10
301.0215678334945
 20
60.1675095510449
 30
0.0
 11
301.0215678334945
 21
59.33417621771158
 31
0.0
 12
303.5215678334945
 22
59.75084288437824
 32
0.0
 13
303.5215678334945
 23
59.75084288437824
 33
0.0
  0
MTEXT
  5
1F65
330
1CBF
100
AcDbEntity
  8
2
 62
     0
100
AcDbMText
 10
271.0215678334945
 20
62.12584288437824
 30
0.0
 40
3.5
 41
0.0
 71
     5
 72
     1
  1
65
  7
SIMPLEX
 73
     1
 44
1.0
1001
ACAD
1000
MTEXTBEGIN
1070
    73
1070
     1
1070
    44
1040
1.0
1070
    74
1070
     0
1000
MTEXTEND
  0
POINT
  5
1F66
330
1CBF
100
AcDbEntity
  8
DEFPOINTS
 62
     0
100
AcDbPoint
 10
238.5215678334945
 20
10.0
 30
0.0
  0
POINT
  5
1F67
330
1CBF
100
AcDbEntity
  8
DEFPOINTS
 62
     0
100
AcDbPoint
 10
303.5215678334945
 20
9.700000000000006
 30
0.0
  0
POINT
  5
1F68
330
1CBF
100
AcDbEntity
  8
DEFPOINTS
 62
     0
100
AcDbPoint
 10
303.5215678334945
 20
59.75084288437824
 30
0.0
  0
ENDBLK
  5
1CC1
330
1CBF
100
AcDbEntity
  8
0
100
AcDbBlockEnd
  0
BLOCK
  5
1D6C
330
1D6B
100
AcDbEntity
  8
0
100
AcDbBlockBegin
  2
*D8
 70
     1
 10
0.0
 20
0.0
 30
0.0
  3
*D8
  1

  0
LINE
  5
1F69
330
1D6B
100
AcDbEntity
  8
2
 62
     0
370
    -2
100
AcDbLine
 10
228.5215678334945
 20
9.500000000000008
 30
0.0
 11
228.5215678334945
 21
76.00084288437823
 31
0.0
  0
LINE
  5
1F6A
330
1D6B
100
AcDbEntity
  8
2
 62
     0
370
    -2
100
AcDbLine
 10
303.5215678334945
 20
9.700000000000006
 30
0.0
 11
303.5215678334945
 21
76.00084288437823
 31
0.0
  0
LINE
  5
1F6B
330
1D6B
100
AcDbEntity
  8
2
 62
     0
370
    -2
100
AcDbLine
 10
231.0215678334945
 20
74.75084288437823
 30
0.0
 11
301.0215678334945
 21
74.75084288437823
 31
0.0
  0
SOLID
  5
1F6C
330
1D6B
100
AcDbEntity
  8
2
 62
     0
100
AcDbTrace
 10
231.0215678334945
 20
75.1675095510449
 30
0.0
 11
231.0215678334945
 21
74.33417621771154
 31
0.0
 12
228.5215678334945
 22
74.75084288437823
 32
0.0
 13
228.5215678334945
 23
74.75084288437823
 33
0.0
  0
SOLID
  5
1F6D
330
1D6B
100
AcDbEntity
  8
2
 62
     0
100
AcDbTrace
 10
301.0215678334945
 20
75.1675095510449
 30
0.0
 11
301.0215678334945
 21
74.33417621771154
 31
0.0
 12
303.5215678334945
 22
74.75084288437823
 32
0.0
 13
303.5215678334945
 23
74.75084288437823
 33
0.0
  0
MTEXT
  5
1F6E
330
1D6B
100
AcDbEntity
  8
2
 62
     0
100
AcDbMText
 10
266.0215678334945
 20
77.12584288437823
 30
0.0
 40
3.5
 41
0.0
 71
     5
 72
     1
  1
75
  7
SIMPLEX
 73
     1
 44
1.0
1001
ACAD
1000
MTEXTBEGIN
1070
    73
1070
     1
1070
    44
1040
1.0
1070
    74
1070
     0
1000
MTEXTEND
  0
POINT
  5
1F6F
330
1D6B
100
AcDbEntity
  8
DEFPOINTS
 62
     0
100
AcDbPoint
 10
228.5215678334945
 20
9.500000000000008
 30
0.0
  0
POINT
  5
1F70
330
1D6B
100
AcDbEntity
  8
DEFPOINTS
 62
     0
100
AcDbPoint
 10
303.5215678334945
 20
9.700000000000006
 30
0.0
  0
POINT
  5
1F71
330
1D6B
100
AcDbEntity
  8
DEFPOINTS
 62
     0
100
AcDbPoint
 10
303.5215678334945
 20
74.75084288437823
 30
0.0
  0
ENDBLK
  5
1D6D
330
1D6B
100
AcDbEntity
  8
0
100
AcDbBlockEnd
  0
BLOCK
  5
1D95
330
1D94
100
AcDbEntity
  8
0
100
AcDbBlockBegin
  2
*D9
 70
     1
 10
0.0
 20
0.0
 30
0.0
  3
*D9
  1

  0
LINE
  5
1F89
330
1D94
100
AcDbEntity
  8
2
 62
     0
370
    -2
100
AcDbLine
 10
318.9769677319961
 20
22.99133401813268
 30
0.0
 11
305.3617369366695
 21
11.50545734090147
 31
0.0
  0
MTEXT
  5
1F8A
330
1D94
100
AcDbEntity
  8
2
 62
     0
100
AcDbMText
 10
312.8276286190234
 20
20.9109519414998
 30
0.0
 40
3.5
 41
0.0
 71
     5
 72
     1
  1
R0.3
  7
SIMPLEX
 11
0.7643461082768097
 21
0.6448061931790789
 31
0.0
 73
     1
 44
1.0
1001
ACAD
1000
MTEXTBEGIN
1070
    73
1070
     1
1070
    44
1040
1.0
1070
    74
1070
     0
1000
MTEXTEND
  0
SOLID
  5
1F8B
330
1D94
100
AcDbEntity
  8
2
 62
     0
100
AcDbTrace
 10
305.0930676895116
 20
11.82393488601681
 30
0.0
 11
305.6304061838275
 21
11.18697979578616
 31
0.0
 12
303.4508716659776
 22
9.893441857953773
 32
0.0
 13
303.4508716659776
 23
9.893441857953773
 33
0.0
  0
POINT
  5
1F8C
330
1D94
100
AcDbEntity
  8
DEFPOINTS
 62
     0
100
AcDbPoint
 10
303.4508716659776
 20
9.893441857953773
 30
0.0
  0
POINT
  5
1F8D
330
1D94
100
AcDbEntity
  8
DEFPOINTS
 62
     0
100
AcDbPoint
 10
303.2215678334945
 20
9.699999999999988
 30
0.0
  0
ENDBLK
  5
1D96
330
1D94
100
AcDbEntity
  8
0
100
AcDbBlockEnd
  0
BLOCK
  5
1DB0
330
1DAF
100
AcDbEntity
  8
0
100
AcDbBlockBegin
  2
*D10
 70
     1
 10
0.0
 20
0.0
 30
0.0
  3
*D10
  1

  0
LINE
  5
1F77
330
1DAF
100
AcDbEntity
  8
SK2
 62
     0
370
    -2
100
AcDbLine
 10
179.5215678334945
 20
10.0
 30
0.0
 11
163.1002887109334
 21
10.0
 31
0.0
  0
LINE
  5
1F78
330
1DAF
100
AcDbEntity
  8
SK2
 62
     0
370
    -2
100
AcDbLine
 10
179.5215678334945
 20
-9.999999999999994
 30
0.0
 11
163.1002887109334
 21
-9.999999999999996
 31
0.0
  0
LINE
  5
1F79
330
1DAF
100
AcDbEntity
  8
SK2
 62
     0
370
    -2
100
AcDbLine
 10
164.3502887109334
 20
7.500000000000002
 30
0.0
 11
164.3502887109334
 21
-7.499999999999995
 31
0.0
  0
SOLID
  5
1F7A
330
1DAF
100
AcDbEntity
  8
SK2
 62
     0
100
AcDbTrace
 10
163.9336220442667
 20
7.500000000000002
 30
0.0
 11
164.7669553776
 21
7.500000000000002
 31
0.0
 12
164.3502887109334
 22
10.0
 32
0.0
 13
164.3502887109334
 23
10.0
 33
0.0
  0
SOLID
  5
1F7B
330
1DAF
100
AcDbEntity
  8
SK2
 62
     0
100
AcDbTrace
 10
163.9336220442667
 20
-7.499999999999995
 30
0.0
 11
164.7669553776
 21
-7.499999999999995
 31
0.0
 12
164.3502887109334
 22
-9.999999999999994
 32
0.0
 13
164.3502887109334
 23
-9.999999999999994
 33
0.0
  0
MTEXT
  5
1F7C
330
1DAF
100
AcDbEntity
  8
SK2
 62
     0
100
AcDbMText
 10
161.9752887109333
 20
-0.0000000000000426
 30
0.0
 40
3.5
 41
0.0
 71
     5
 72
     1
  1
%%c20
  7
SIMPLEX
 11
0.0000000000000001
 21
1.0
 31
0.0
 73
     1
 44
1.0
1001
ACAD
1000
MTEXTBEGIN
1070
    73
1070
     1
1070
    44
1040
1.0
1070
    74
1070
     0
1000
MTEXTEND
  0
POINT
  5
1F7D
330
1DAF
100
AcDbEntity
  8
DEFPOINTS
 62
     0
100
AcDbPoint
 10
179.5215678334945
 20
10.0
 30
0.0
  0
POINT
  5
1F7E
330
1DAF
100
AcDbEntity
  8
DEFPOINTS
 62
     0
100
AcDbPoint
 10
179.5215678334945
 20
-9.999999999999994
 30
0.0
  0
POINT
  5
1F7F
330
1DAF
100
AcDbEntity
  8
DEFPOINTS
 62
     0
100
AcDbPoint
 10
164.3502887109334
 20
-9.999999999999994
 30
0.0
  0
ENDBLK
  5
1DB1
330
1DAF
100
AcDbEntity
  8
0
100
AcDbBlockEnd
  0
BLOCK
  5
1DBC
330
1DBB
100
AcDbEntity
  8
0
100
AcDbBlockBegin
  2
*D11
 70
     1
 10
0.0
 20
0.0
 30
0.0
  3
*D11
  1

  0
LINE
  5
1F80
330
1DBB
100
AcDbEntity
  8
SK2
 62
     0
370
    -2
100
AcDbLine
 10
178.5215678334945
 20
8.999999999999976
 30
0.0
 11
178.5215678334945
 21
91.00084288437825
 31
0.0
  0
LINE
  5
1F81
330
1DBB
100
AcDbEntity
  8
SK2
 62
     0
370
    -2
100
AcDbLine
 10
303.5215678334945
 20
9.700000000000006
 30
0.0
 11
303.5215678334945
 21
91.00084288437825
 31
0.0
  0
LINE
  5
1F82
330
1DBB
100
AcDbEntity
  8
SK2
 62
     0
370
    -2
100
AcDbLine
 10
181.0215678334945
 20
89.75084288437825
 30
0.0
 11
301.0215678334945
 21
89.75084288437825
 31
0.0
  0
SOLID
  5
1F83
330
1DBB
100
AcDbEntity
  8
SK2
 62
     0
100
AcDbTrace
 10
181.0215678334945
 20
90.16750955104491
 30
0.0
 11
181.0215678334945
 21
89.33417621771154
 31
0.0
 12
178.5215678334945
 22
89.75084288437825
 32
0.0
 13
178.5215678334945
 23
89.75084288437825
 33
0.0
  0
SOLID
  5
1F84
330
1DBB
100
AcDbEntity
  8
SK2
 62
     0
100
AcDbTrace
 10
301.0215678334945
 20
90.16750955104491
 30
0.0
 11
301.0215678334945
 21
89.33417621771154
 31
0.0
 12
303.5215678334945
 22
89.75084288437825
 32
0.0
 13
303.5215678334945
 23
89.75084288437825
 33
0.0
  0
MTEXT
  5
1F85
330
1DBB
100
AcDbEntity
  8
SK2
 62
     0
100
AcDbMText
 10
241.0215678334945
 20
92.12584288437824
 30
0.0
 40
3.5
 41
0.0
 71
     5
 72
     1
  1
125
  7
SIMPLEX
 73
     1
 44
1.0
1001
ACAD
1000
MTEXTBEGIN
1070
    73
1070
     1
1070
    44
1040
1.0
1070
    74
1070
     0
1000
MTEXTEND
  0
POINT
  5
1F86
330
1DBB
100
AcDbEntity
  8
DEFPOINTS
 62
     0
100
AcDbPoint
 10
178.5215678334945
 20
8.999999999999976
 30
0.0
  0
POINT
  5
1F87
330
1DBB
100
AcDbEntity
  8
DEFPOINTS
 62
     0
100
AcDbPoint
 10
303.5215678334945
 20
9.700000000000006
 30
0.0
  0
POINT
  5
1F88
330
1DBB
100
AcDbEntity
  8
DEFPOINTS
 62
     0
100
AcDbPoint
 10
303.5215678334945
 20
89.75084288437825
 30
0.0
  0
ENDBLK
  5
1DBD
330
1DBB
100
AcDbEntity
  8
0
100
AcDbBlockEnd
  0
BLOCK
  5
3742
330
3741
100
AcDbEntity
  8
0
100
AcDbBlockBegin
  2
*D12
 70
     1
 10
0.0
 20
0.0
 30
0.0
  3
*D12
  1

  0
LINE
  5
375F
330
3741
100
AcDbEntity
  8
SK2
 62
     0
370
    -2
100
AcDbLine
 10
-47.50000000000002
 20
8.000000000000001
 30
0.0
 11
-63.46707448610266
 21
8.000000000000001
 31
0.0
  0
LINE
  5
3760
330
3741
100
AcDbEntity
  8
SK2
 62
     0
370
    -2
100
AcDbLine
 10
-47.50000000000002
 20
-8.000000000000001
 30
0.0
 11
-63.46707448610266
 21
-8.000000000000005
 31
0.0
  0
LINE
  5
3761
330
3741
100
AcDbEntity
  8
SK2
 62
     0
370
    -2
100
AcDbLine
 10
-62.21707448610266
 20
5.5
 30
0.0
 11
-62.21707448610266
 21
-5.500000000000003
 31
0.0
  0
SOLID
  5
3762
330
3741
100
AcDbEntity
  8
SK2
 62
     0
100
AcDbTrace
 10
-62.63374115276931
 20
5.5
 30
0.0
 11
-61.80040781943599
 21
5.5
 31
0.0
 12
-62.21707448610266
 22
8.000000000000001
 32
0.0
 13
-62.21707448610266
 23
8.000000000000001
 33
0.0
  0
SOLID
  5
3763
330
3741
100
AcDbEntity
  8
SK2
 62
     0
100
AcDbTrace
 10
-62.63374115276931
 20
-5.500000000000003
 30
0.0
 11
-61.80040781943599
 21
-5.500000000000002
 31
0.0
 12
-62.21707448610266
 22
-8.000000000000005
 32
0.0
 13
-62.21707448610266
 23
-8.000000000000005
 33
0.0
  0
MTEXT
  5
3764
330
3741
100
AcDbEntity
  8
SK2
 62
     0
100
AcDbMText
 10
-64.59207448610263
 20
0.0000000000000161
 30
0.0
 40
3.5
 41
0.0
 71
     5
 72
     1
  1
%%c16
  7
SIMPLEX
 11
0.0000000000000001
 21
1.0
 31
0.0
 73
     1
 44
1.0
1001
ACAD
1000
MTEXTBEGIN
1070
    73
1070
     1
1070
    44
1040
1.0
1070
    74
1070
     0
1000
MTEXTEND
  0
POINT
  5
3765
330
3741
100
AcDbEntity
  8
DEFPOINTS
 62
     0
100
AcDbPoint
 10
-47.50000000000002
 20
8.000000000000001
 30
0.0
  0
POINT
  5
3766
330
3741
100
AcDbEntity
  8
DEFPOINTS
 62
     0
100
AcDbPoint
 10
-47.50000000000002
 20
-8.000000000000001
 30
0.0
  0
POINT
  5
3767
330
3741
100
AcDbEntity
  8
DEFPOINTS
 62
     0
100
AcDbPoint
 10
-62.21707448610266
 20
-8.000000000000005
 30
0.0
  0
ENDBLK
  5
3743
330
3741
100
AcDbEntity
  8
0
100
AcDbBlockEnd
  0
BLOCK
  5
376A
330
3769
100
AcDbEntity
  8
0
100
AcDbBlockBegin
  2
*D13
 70
     1
 10
0.0
 20
0.0
 30
0.0
  3
*D13
  1

  0
LINE
  5
3787
330
3769
100
AcDbEntity
  8
SK2
 62
     0
370
    -2
100
AcDbLine
 10
-48.0
 20
7.5
 30
0.0
 11
-48.0
 21
91.00084288437825
 31
0.0
  0
LINE
  5
3788
330
3769
100
AcDbEntity
  8
SK2
 62
     0
370
    -2
100
AcDbLine
 10
43.99999999999999
 20
7.7
 30
0.0
 11
44.0
 21
91.00084288437825
 31
0.0
  0
LINE
  5
3789
330
3769
100
AcDbEntity
  8
SK2
 62
     0
370
    -2
100
AcDbLine
 10
-45.49999999999999
 20
89.75084288437825
 30
0.0
 11
41.5
 21
89.75084288437825
 31
0.0
  0
SOLID
  5
378A
330
3769
100
AcDbEntity
  8
SK2
 62
     0
100
AcDbTrace
 10
-45.49999999999999
 20
90.16750955104491
 30
0.0
 11
-45.49999999999999
 21
89.33417621771154
 31
0.0
 12
-48.0
 22
89.75084288437825
 32
0.0
 13
-48.0
 23
89.75084288437825
 33
0.0
  0
SOLID
  5
378B
330
3769
100
AcDbEntity
  8
SK2
 62
     0
100
AcDbTrace
 10
41.5
 20
90.16750955104491
 30
0.0
 11
41.5
 21
89.33417621771154
 31
0.0
 12
44.0
 22
89.75084288437825
 32
0.0
 13
44.0
 23
89.75084288437825
 33
0.0
  0
MTEXT
  5
378C
330
3769
100
AcDbEntity
  8
SK2
 62
     0
100
AcDbMText
 10
-1.999999999999999
 20
92.12584288437824
 30
0.0
 40
3.5
 41
0.0
 71
     5
 72
     1
  1
92
  7
SIMPLEX
 73
     1
 44
1.0
1001
ACAD
1000
MTEXTBEGIN
1070
    73
1070
     1
1070
    44
1040
1.0
1070
    74
1070
     0
1000
MTEXTEND
  0
POINT
  5
378D
330
3769
100
AcDbEntity
  8
DEFPOINTS
 62
     0
100
AcDbPoint
 10
-48.0
 20
7.5
 30
0.0
  0
POINT
  5
378E
330
3769
100
AcDbEntity
  8
DEFPOINTS
 62
     0
100
AcDbPoint
 10
43.99999999999999
 20
7.7
 30
0.0
  0
POINT
  5
378F
330
3769
100
AcDbEntity
  8
DEFPOINTS
 62
     0
100
AcDbPoint
 10
44.0
 20
89.75084288437825
 30
0.0
  0
ENDBLK
  5
376B
330
3769
100
AcDbEntity
  8
0
100
AcDbBlockEnd
  0
BLOCK
  5
3792
330
3791
100
AcDbEntity
  8
0
100
AcDbBlockBegin
  2
*D14
 70
     1
 10
0.0
 20
0.0
 30
0.0
  3
*D14
  1

  0
LINE
  5
37B8
330
3791
100
AcDbEntity
  8
2
 62
     0
370
    -2
100
AcDbLine
 10
0.0
 20
0.0
 30
0.0
 11
0.0000000000000046
 21
75.4518375340509
 31
0.0
  0
LINE
  5
37B9
330
3791
100
AcDbEntity
  8
2
 62
     0
370
    -2
100
AcDbLine
 10
43.99999999999999
 20
7.7
 30
0.0
 11
44.0
 21
75.4518375340509
 31
0.0
  0
LINE
  5
37BA
330
3791
100
AcDbEntity
  8
2
 62
     0
370
    -2
100
AcDbLine
 10
2.500000000000003
 20
74.2018375340509
 30
0.0
 11
41.5
 21
74.2018375340509
 31
0.0
  0
SOLID
  5
37BB
330
3791
100
AcDbEntity
  8
2
 62
     0
100
AcDbTrace
 10
2.500000000000003
 20
74.61850420071758
 30
0.0
 11
2.500000000000003
 21
73.78517086738423
 31
0.0
 12
0.0000000000000045
 22
74.2018375340509
 32
0.0
 13
0.0000000000000045
 23
74.2018375340509
 33
0.0
  0
SOLID
  5
37BC
330
3791
100
AcDbEntity
  8
2
 62
     0
100
AcDbTrace
 10
41.5
 20
74.61850420071758
 30
0.0
 11
41.5
 21
73.78517086738423
 31
0.0
 12
44.0
 22
74.2018375340509
 32
0.0
 13
44.0
 23
74.2018375340509
 33
0.0
  0
MTEXT
  5
37BD
330
3791
100
AcDbEntity
  8
2
 62
     0
100
AcDbMText
 10
22.00000000000001
 20
76.57683753405091
 30
0.0
 40
3.5
 41
0.0
 71
     5
 72
     1
  1
44
  7
SIMPLEX
 73
     1
 44
1.0
1001
ACAD
1000
MTEXTBEGIN
1070
    73
1070
     1
1070
    44
1040
1.0
1070
    74
1070
     0
1000
MTEXTEND
  0
POINT
  5
37BE
330
3791
100
AcDbEntity
  8
DEFPOINTS
 62
     0
100
AcDbPoint
 10
0.0
 20
0.0
 30
0.0
  0
POINT
  5
37BF
330
3791
100
AcDbEntity
  8
DEFPOINTS
 62
     0
100
AcDbPoint
 10
43.99999999999999
 20
7.7
 30
0.0
  0
POINT
  5
37C0
330
3791
100
AcDbEntity
  8
DEFPOINTS
 62
     0
100
AcDbPoint
 10
44.0
 20
74.2018375340509
 30
0.0
  0
ENDBLK
  5
3793
330
3791
100
AcDbEntity
  8
0
100
AcDbBlockEnd
  0
BLOCK
  5
37C3
330
37C2
100
AcDbEntity
  8
0
100
AcDbBlockBegin
  2
*D15
 70
     1
 10
0.0
 20
0.0
 30
0.0
  3
*D15
  1

  0
LINE
  5
37E0
330
37C2
100
AcDbEntity
  8
2
 62
     0
370
    -2
100
AcDbLine
 10
12.0
 20
8.0
 30
0.0
 11
12.0
 21
61.00084288437824
 31
0.0
  0
LINE
  5
37E1
330
37C2
100
AcDbEntity
  8
2
 62
     0
370
    -2
100
AcDbLine
 10
43.99999999999999
 20
7.7
 30
0.0
 11
43.99999999999999
 21
61.00084288437824
 31
0.0
  0
LINE
  5
37E2
330
37C2
100
AcDbEntity
  8
2
 62
     0
370
    -2
100
AcDbLine
 10
14.5
 20
59.75084288437824
 30
0.0
 11
41.49999999999999
 21
59.75084288437824
 31
0.0
  0
SOLID
  5
37E3
330
37C2
100
AcDbEntity
  8
2
 62
     0
100
AcDbTrace
 10
14.5
 20
60.1675095510449
 30
0.0
 11
14.5
 21
59.33417621771158
 31
0.0
 12
12.0
 22
59.75084288437824
 32
0.0
 13
12.0
 23
59.75084288437824
 33
0.0
  0
SOLID
  5
37E4
330
37C2
100
AcDbEntity
  8
2
 62
     0
100
AcDbTrace
 10
41.49999999999999
 20
60.1675095510449
 30
0.0
 11
41.49999999999999
 21
59.33417621771158
 31
0.0
 12
43.99999999999999
 22
59.75084288437824
 32
0.0
 13
43.99999999999999
 23
59.75084288437824
 33
0.0
  0
MTEXT
  5
37E5
330
37C2
100
AcDbEntity
  8
2
 62
     0
100
AcDbMText
 10
28.0
 20
62.12584288437824
 30
0.0
 40
3.5
 41
0.0
 71
     5
 72
     1
  1
32
  7
SIMPLEX
 73
     1
 44
1.0
1001
ACAD
1000
MTEXTBEGIN
1070
    73
1070
     1
1070
    44
1040
1.0
1070
    74
1070
     0
1000
MTEXTEND
  0
POINT
  5
37E6
330
37C2
100
AcDbEntity
  8
DEFPOINTS
 62
     0
100
AcDbPoint
 10
12.0
 20
8.0
 30
0.0
  0
POINT
  5
37E7
330
37C2
100
AcDbEntity
  8
DEFPOINTS
 62
     0
100
AcDbPoint
 10
43.99999999999999
 20
7.7
 30
0.0
  0
POINT
  5
37E8
330
37C2
100
AcDbEntity
  8
DEFPOINTS
 62
     0
100
AcDbPoint
 10
43.99999999999999
 20
59.75084288437824
 30
0.0
  0
ENDBLK
  5
37C4
330
37C2
100
AcDbEntity
  8
0
100
AcDbBlockEnd
  0
BLOCK
  5
37EB
330
37EA
100
AcDbEntity
  8
0
100
AcDbBlockBegin
  2
*D16
 70
     1
 10
0.0
 20
0.0
 30
0.0
  3
*D16
  1

  0
LINE
  5
3809
330
37EA
100
AcDbEntity
  8
2
 62
     0
370
    -2
100
AcDbLine
 10
43.7
 20
8.000000000000001
 30
0.0
 11
61.27694303108361
 21
8.000000000000008
 31
0.0
  0
LINE
  5
380A
330
37EA
100
AcDbEntity
  8
2
 62
     0
370
    -2
100
AcDbLine
 10
43.7
 20
-8.000000000000001
 30
0.0
 11
61.27694303108361
 21
-8.0
 31
0.0
  0
LINE
  5
380B
330
37EA
100
AcDbEntity
  8
2
 62
     0
370
    -2
100
AcDbLine
 10
60.02694303108361
 20
5.500000000000003
 30
0.0
 11
60.02694303108361
 21
-5.5
 31
0.0
  0
SOLID
  5
380C
330
37EA
100
AcDbEntity
  8
2
 62
     0
100
AcDbTrace
 10
59.61027636441695
 20
5.500000000000003
 30
0.0
 11
60.44360969775028
 21
5.500000000000003
 31
0.0
 12
60.02694303108361
 22
8.000000000000008
 32
0.0
 13
60.02694303108361
 23
8.000000000000008
 33
0.0
  0
SOLID
  5
380D
330
37EA
100
AcDbEntity
  8
2
 62
     0
100
AcDbTrace
 10
59.61027636441695
 20
-5.5
 30
0.0
 11
60.44360969775028
 21
-5.5
 31
0.0
 12
60.02694303108361
 22
-8.0
 32
0.0
 13
60.02694303108361
 23
-8.0
 33
0.0
  0
MTEXT
  5
380E
330
37EA
100
AcDbEntity
  8
2
 62
     0
100
AcDbMText
 10
57.6519430310836
 20
-0.000000000000014
 30
0.0
 40
3.5
 41
0.0
 71
     5
 72
     1
  1
%%c16
  7
SIMPLEX
 11
0.0000000000000001
 21
1.0
 31
0.0
 73
     1
 44
1.0
1001
ACAD
1000
MTEXTBEGIN
1070
    73
1070
     1
1070
    44
1040
1.0
1070
    74
1070
     0
1000
MTEXTEND
  0
POINT
  5
380F
330
37EA
100
AcDbEntity
  8
DEFPOINTS
 62
     0
100
AcDbPoint
 10
43.7
 20
8.000000000000001
 30
0.0
  0
POINT
  5
3810
330
37EA
100
AcDbEntity
  8
DEFPOINTS
 62
     0
100
AcDbPoint
 10
43.7
 20
-8.000000000000001
 30
0.0
  0
POINT
  5
3811
330
37EA
100
AcDbEntity
  8
DEFPOINTS
 62
     0
100
AcDbPoint
 10
60.02694303108361
 20
-8.0
 30
0.0
  0
ENDBLK
  5
37EC
330
37EA
100
AcDbEntity
  8
0
100
AcDbBlockEnd
  0
BLOCK
  5
3813
330
3812
100
AcDbEntity
  8
0
100
AcDbBlockBegin
  2
*D17
 70
     1
 10
0.0
 20
0.0
 30
0.0
  3
*D17
  1

  0
LINE
  5
3814
330
3812
100
AcDbEntity
  8
2
 62
     0
370
    -2
100
AcDbLine
 10
31.8
 20
5.0
 30
0.0
 11
31.8
 21
21.25
 31
0.0
  0
LINE
  5
3815
330
3812
100
AcDbEntity
  8
2
 62
     0
370
    -2
100
AcDbLine
 10
32.0
 20
5.0
 30
0.0
 11
32.0
 21
21.25
 31
0.0
  0
LINE
  5
3816
330
3812
100
AcDbEntity
  8
2
 62
     0
370
    -2
100
AcDbLine
 10
34.5
 20
20.0
 30
0.0
 11
56.681
 21
20.0
 31
0.0
  0
LINE
  5
3817
330
3812
100
AcDbEntity
  8
2
 62
     0
370
    -2
100
AcDbLine
 10
29.3
 20
20.0
 30
0.0
 11
26.8
 21
20.0
 31
0.0
  0
SOLID
  5
3818
330
3812
100
AcDbEntity
  8
2
 62
     0
100
AcDbTrace
 10
29.3
 20
19.58333333333333
 30
0.0
 11
29.3
 21
20.41666666666667
 31
0.0
 12
31.8
 22
20.0
 32
0.0
 13
31.8
 23
20.0
 33
0.0
  0
SOLID
  5
3819
330
3812
100
AcDbEntity
  8
2
 62
     0
100
AcDbTrace
 10
34.5
 20
20.41666666666667
 30
0.0
 11
34.5
 21
19.58333333333333
 31
0.0
 12
32.0
 22
20.0
 32
0.0
 13
32.0
 23
20.0
 33
0.0
  0
MTEXT
  5
381A
330
3812
100
AcDbEntity
  8
2
 62
     0
100
AcDbMText
 10
46.8405
 20
22.438
 30
0.0
 40
3.5
 41
0.0
 71
     5
 72
     1
  1
0.2x45°
  7
SIMPLEX
 73
     1
 44
1.0
1001
ACAD
1000
MTEXTBEGIN
1070
    73
1070
     1
1070
    44
1040
1.0
1070
    74
1070
     0
1000
MTEXTEND
  0
POINT
  5
381B
330
3812
100
AcDbEntity
  8
DEFPOINTS
 62
     0
100
AcDbPoint
 10
31.8
 20
5.0
 30
0.0
  0
POINT
  5
381C
330
3812
100
AcDbEntity
  8
DEFPOINTS
 62
     0
100
AcDbPoint
 10
32.0
 20
5.0
 30
0.0
  0
POINT
  5
381D
330
3812
100
AcDbEntity
  8
DEFPOINTS
 62
     0
100
AcDbPoint
 10
32.0
 20
20.0
 30
0.0
  0
ENDBLK
  5
381E
330
3812
100
AcDbEntity
  8
0
100
AcDbBlockEnd
  0
BLOCK
  5
3826
330
3825
100
AcDbEntity
  8
0
100
AcDbBlockBegin
  2
*D18
 70
     1
 10
0.0
 20
0.0
 30
0.0
  3
*D18
  1

  0
LINE
  5
3846
330
3825
100
AcDbEntity
  8
2
 62
     0
370
    -2
100
AcDbLine
 10
43.7
 20
8.000000000000001
 30
0.0
 11
43.7
 21
24.9923289533815
 31
0.0
  0
LINE
  5
3847
330
3825
100
AcDbEntity
  8
2
 62
     0
370
    -2
100
AcDbLine
 10
43.99999999999999
 20
7.7
 30
0.0
 11
43.99999999999999
 21
24.9923289533815
 31
0.0
  0
LINE
  5
3848
330
3825
100
AcDbEntity
  8
2
 62
     0
370
    -2
100
AcDbLine
 10
41.2
 20
23.7423289533815
 30
0.0
 11
38.7
 21
23.7423289533815
 31
0.0
  0
LINE
  5
3849
330
3825
100
AcDbEntity
  8
2
 62
     0
370
    -2
100
AcDbLine
 10
46.49999999999999
 20
23.7423289533815
 30
0.0
 11
68.75
 21
23.7423289533815
 31
0.0
  0
SOLID
  5
384A
330
3825
100
AcDbEntity
  8
2
 62
     0
100
AcDbTrace
 10
41.2
 20
24.15899562004817
 30
0.0
 11
41.2
 21
23.32566228671483
 31
0.0
 12
43.7
 22
23.7423289533815
 32
0.0
 13
43.7
 23
23.7423289533815
 33
0.0
  0
SOLID
  5
384B
330
3825
100
AcDbEntity
  8
2
 62
     0
100
AcDbTrace
 10
46.49999999999999
 20
24.15899562004817
 30
0.0
 11
46.49999999999999
 21
23.32566228671483
 31
0.0
 12
43.99999999999999
 22
23.7423289533815
 32
0.0
 13
43.99999999999999
 23
23.7423289533815
 33
0.0
  0
MTEXT
  5
384C
330
3825
100
AcDbEntity
  8
2
 62
     0
100
AcDbMText
 10
58.87499999999999
 20
26.1173289533815
 30
0.0
 40
3.5
 41
0.0
 71
     5
 72
     1
  1
0.3x45°
  7
SIMPLEX
 73
     1
 44
1.0
1001
ACAD
1000
MTEXTBEGIN
1070
    73
1070
     1
1070
    44
1040
1.0
1070
    74
1070
     0
1000
MTEXTEND
  0
POINT
  5
384D
330
3825
100
AcDbEntity
  8
DEFPOINTS
 62
     0
100
AcDbPoint
 10
43.7
 20
8.000000000000001
 30
0.0
  0
POINT
  5
384E
330
3825
100
AcDbEntity
  8
DEFPOINTS
 62
     0
100
AcDbPoint
 10
43.99999999999999
 20
7.7
 30
0.0
  0
POINT
  5
384F
330
3825
100
AcDbEntity
  8
DEFPOINTS
 62
     0
100
AcDbPoint
 10
43.99999999999999
 20
23.7423289533815
 30
0.0
  0
ENDBLK
  5
3827
330
3825
100
AcDbEntity
  8
0
100
AcDbBlockEnd
  0
ENDSEC
  0
SECTION
  2
ENTITIES
  0
MTEXT
  5
654
330
18
100
AcDbEntity
  8
SK6
100
AcDbMText
 10
-10.58997826544052
 20
-24.42262341644778
 30
0.0
 40
3.5
 41
0.0
 71
     7
 72
     5
  1
{\W0.8173;S76616.0}
  7
cesky
 73
     2
 44
0.8433729999999998
1001
ACAD
1000
MTEXTBEGIN
1070
    73
1070
     2
1070
    44
1040
0.8433729999999998
1070
    74
1070
     0
1000
MTEXTEND
  0
LINE
  5
2EB1
330
18
100
AcDbEntity
  8
SK4
100
AcDbLine
 10
-49.58984234298464
 20
0.0
 30
0.0
 11
0.0
 21
0.0
 31
0.0
  0
LINE
  5
2EB2
330
18
100
AcDbEntity
  8
SK4
100
AcDbLine
 10
0.0
 20
0.0
 30
0.0
 11
45.20439708778028
 21
0.0
 31
0.0
  0
LINE
  5
2EB3
330
18
100
AcDbEntity
  8
SK1
100
AcDbLine
 10
-47.5
 20
8.0
 30
0.0
 11
0.0
 21
8.0
 31
0.0
  0
LINE
  5
2EFD
330
18
100
AcDbEntity
  8
SK1
100
AcDbLine
 10
-47.99999999999999
 20
-7.500000000000013
 30
0.0
 11
-48.0
 21
7.5
 31
0.0
  0
LINE
  5
2EFE
330
18
100
AcDbEntity
  8
SK1
100
AcDbLine
 10
-47.5
 20
8.0
 30
0.0
 11
-48.0
 21
7.5
 31
0.0
  0
LINE
  5
2EFF
330
18
100
AcDbEntity
  8
SK1
100
AcDbLine
 10
-47.5
 20
8.0
 30
0.0
 11
-47.5
 21
-8.0
 31
0.0
  0
LINE
  5
2F00
330
18
100
AcDbEntity
  8
SK1
100
AcDbLine
 10
-47.5
 20
-8.0
 30
0.0
 11
0.0
 21
-8.0
 31
0.0
  0
LINE
  5
2F01
330
18
100
AcDbEntity
  8
SK1
100
AcDbLine
 10
-47.5
 20
-8.0
 30
0.0
 11
-48.0
 21
-7.5
 31
0.0
  0
LINE
  5
2F02
330
18
100
AcDbEntity
  8
CUT
100
AcDbLine
 10
44.0
 20
0.0
 30
0.0
 11
43.99999999999999
 21
7.7
 31
0.0
  0
LINE
  5
2F03
330
18
100
AcDbEntity
  8
CUT
100
AcDbLine
 10
11.99999999999999
 20
8.0
 30
0.0
 11
43.7
 21
8.0
 31
0.0
  0
LINE
  5
2F04
330
18
100
AcDbEntity
  8
CUT
100
AcDbLine
 10
43.7
 20
8.0
 30
0.0
 11
43.99999999999999
 21
7.7
 31
0.0
  0
LINE
  5
2F05
330
18
100
AcDbEntity
  8
CUT
100
AcDbLine
 10
12.0
 20
0.0
 30
0.0
 11
11.99999999999999
 21
8.0
 31
0.0
  0
LINE
  5
2F06
330
18
100
AcDbEntity
  8
CUT
100
AcDbLine
 10
12.0
 20
0.0
 30
0.0
 11
44.0
 21
0.0
 31
0.0
  0
LINE
  5
2F07
330
18
100
AcDbEntity
  8
NOCUT
100
AcDbLine
 10
12.0
 20
0.0
 30
0.0
 11
12.0
 21
8.0
 31
0.0
  0
LINE
  5
2F08
330
18
100
AcDbEntity
  8
NOCUT
100
AcDbLine
 10
12.0
 20
8.0
 30
0.0
 11
-47.5
 21
8.0
 31
0.0
  0
LINE
  5
2F09
330
18
100
AcDbEntity
  8
NOCUT
100
AcDbLine
 10
-47.5
 20
8.0
 30
0.0
 11
-48.0
 21
7.5
 31
0.0
  0
LINE
  5
2F0A
330
18
100
AcDbEntity
  8
NOCUT
100
AcDbLine
 10
-48.0
 20
7.5
 30
0.0
 11
-48.0
 21
-0.0000000000000075
 31
0.0
  0
LINE
  5
2F0B
330
18
100
AcDbEntity
  8
NOCUT
100
AcDbLine
 10
-48.0
 20
-0.0000000000000075
 30
0.0
 11
12.0
 21
0.0
 31
0.0
  0
LINE
  5
373D
330
18
100
AcDbEntity
  8
1
100
AcDbLine
 10
0.0
 20
8.0
 30
0.0
 11
11.99999999999999
 21
8.0
 31
0.0
  0
LINE
  5
373E
330
18
100
AcDbEntity
  8
1
100
AcDbLine
 10
0.0
 20
-8.0
 30
0.0
 11
10.91366247610267
 21
-8.0
 31
0.0
  0
LINE
  5
373F
330
18
100
AcDbEntity
  8
4
100
AcDbLine
 10
-2.014707561941121
 20
0.0000000000000142
 30
0.0
 11
45.6206816375252
 21
0.0000000000000142
 31
0.0
  0
DIMENSION
  5
3740
330
18
100
AcDbEntity
  8
SK2
100
AcDbDimension
  2
*D12
 10
-62.21707448610266
 20
-8.000000000000005
 30
0.0
 11
-64.59207448610263
 21
0.0000000000000161
 31
0.0
 70
    32
  1
%%c<>
 71
     5
 42
16.0
  3
STANDARD
100
AcDbAlignedDimension
 13
-47.5
 23
8.0
 33
0.0
 14
-47.5
 24
-8.0
 34
0.0
 50
90.00000000029309
100
AcDbRotatedDimension
  0
DIMENSION
  5
3768
330
18
100
AcDbEntity
  8
SK2
100
AcDbDimension
  2
*D13
 10
44.0
 20
89.75084288437825
 30
0.0
 11
-1.999999999999999
 21
92.12584288437824
 31
0.0
 70
    32
  1
<>
 71
     5
 42
92.0
  3
STANDARD
100
AcDbAlignedDimension
 13
-48.0
 23
7.5
 33
0.0
 14
43.99999999999999
 24
7.7
 34
0.0
100
AcDbRotatedDimension
  0
DIMENSION
  5
3790
330
18
100
AcDbEntity
  8
2
100
AcDbDimension
  2
*D14
 10
44.0
 20
74.2018375340509
 30
0.0
 11
22.00000000000001
 21
76.57683753405091
 31
0.0
 70
    32
  1
<>
 71
     5
 42
43.99999999999999
  3
STANDARD
100
AcDbAlignedDimension
 13
0.0
 23
0.0
 33
0.0
 14
43.99999999999999
 24
7.7
 34
0.0
100
AcDbRotatedDimension
  0
DIMENSION
  5
37C1
330
18
100
AcDbEntity
  8
2
100
AcDbDimension
  2
*D15
 10
43.99999999999999
 20
59.75084288437824
 30
0.0
 11
28.0
 21
62.12584288437824
 31
0.0
 70
    32
  1
<>
 71
     5
 42
31.99999999999999
  3
STANDARD
100
AcDbAlignedDimension
 13
12.0
 23
8.0
 33
0.0
 14
43.99999999999999
 24
7.7
 34
0.0
100
AcDbRotatedDimension
  0
DIMENSION
  5
37E9
330
18
100
AcDbEntity
  8
2
100
AcDbDimension
  2
*D16
 10
60.02694303108361
 20
-8.0
 30
0.0
 11
57.6519430310836
 21
-0.000000000000014
 31
0.0
 70
    32
  1
%%c<>
 71
     5
 42
16.0
  3
STANDARD
100
AcDbAlignedDimension
 13
43.7
 23
8.0
 33
0.0
 14
43.7
 24
-8.0
 34
0.0
 50
90.0
100
AcDbRotatedDimension
  0
DIMENSION
  5
3824
330
18
100
AcDbEntity
  8
2
100
AcDbDimension
  2
*D18
 10
43.99999999999999
 20
23.7423289533815
 30
0.0
 11
58.87499999999999
 21
26.1173289533815
 31
0.0
 70
    32
  1
<>x45°
 71
     5
 42
0.2999999999999971
  3
STANDARD
100
AcDbAlignedDimension
 13
43.7
 23
8.000000000000001
 33
0.0
 14
43.99999999999999
 24
7.7
 34
0.0
100
AcDbRotatedDimension
  0
LINE
  5
3E54
330
18
100
AcDbEntity
  8
1
100
AcDbLine
 10
43.75733265826553
 20
0.954669354686068
 30
0.0
 11
43.99102831141791
 21
7.635076611558773
 31
0.0
  0
LINE
  5
3E55
330
18
100
AcDbEntity
  8
1
100
AcDbLine
 10
43.99102831141791
 20
7.635076611558773
 30
0.0
 11
43.59626553810474
 21
7.991755836347842
 31
0.0
  0
LINE
  5
3E56
330
18
100
AcDbEntity
  8
1
100
AcDbLine
 10
43.59626553810474
 20
7.991755836347842
 30
0.0
 11
42.66239624185099
 21
7.931488999969957
 31
0.0
  0
LINE
  5
3E57
330
18
100
AcDbEntity
  8
1
100
AcDbLine
 10
42.66239624185099
 20
7.931488999969957
 30
0.0
 11
41.84132726326224
 21
7.822155358763332
 31
0.0
  0
LINE
  5
3E58
330
18
100
AcDbEntity
  8
1
100
AcDbLine
 10
41.84132726326224
 20
7.822155358763332
 30
0.0
 11
41.16852536877813
 21
7.695488335423853
 31
0.0
  0
LINE
  5
3E59
330
18
100
AcDbEntity
  8
1
100
AcDbLine
 10
41.16852536877813
 20
7.695488335423853
 30
0.0
 11
40.42932328733252
 21
7.517621167859942
 31
0.0
  0
LINE
  5
3E5A
330
18
100
AcDbEntity
  8
1
100
AcDbLine
 10
40.42932328733252
 20
7.517621167859942
 30
0.0
 11
39.83732162037319
 21
7.346954020657065
 31
0.0
  0
LINE
  5
3E5B
330
18
100
AcDbEntity
  8
1
100
AcDbLine
 10
39.83732162037319
 20
7.346954020657065
 30
0.0
 11
38.65411828878747
 21
6.933086188705949
 31
0.0
  0
LINE
  5
3E5C
330
18
100
AcDbEntity
  8
1
100
AcDbLine
 10
38.65411828878747
 20
6.933086188705949
 30
0.0
 11
38.49411783824503
 21
6.869886010758342
 31
0.0
  0
LINE
  5
3E5D
330
18
100
AcDbEntity
  8
1
100
AcDbLine
 10
38.49411783824503
 20
6.869886010758342
 30
0.0
 11
37.31678118979874
 21
6.354151225247008
 31
0.0
  0
LINE
  5
3E5E
330
18
100
AcDbEntity
  8
1
100
AcDbLine
 10
37.31678118979874
 20
6.354151225247008
 30
0.0
 11
36.68984609112941
 21
6.032016984766542
 31
0.0
  0
LINE
  5
3E5F
330
18
100
AcDbEntity
  8
1
100
AcDbLine
 10
43.74634929968293
 20
-0.6406998503742543
 30
0.0
 11
43.99102831141791
 21
-7.635076611558744
 31
0.0
  0
LINE
  5
3E60
330
18
100
AcDbEntity
  8
1
100
AcDbLine
 10
43.99102831141791
 20
-7.635076611558744
 30
0.0
 11
43.59626553810474
 21
-7.991755836347813
 31
0.0
  0
LINE
  5
3E61
330
18
100
AcDbEntity
  8
1
100
AcDbLine
 10
43.59626553810474
 20
-7.991755836347813
 30
0.0
 11
42.66239624185099
 21
-7.931488999969928
 31
0.0
  0
LINE
  5
3E62
330
18
100
AcDbEntity
  8
1
100
AcDbLine
 10
42.66239624185099
 20
-7.931488999969928
 30
0.0
 11
41.84132726326224
 21
-7.822155358763303
 31
0.0
  0
LINE
  5
3E63
330
18
100
AcDbEntity
  8
1
100
AcDbLine
 10
41.84132726326224
 20
-7.822155358763303
 30
0.0
 11
41.16852536877813
 21
-7.695488335423824
 31
0.0
  0
LINE
  5
3E64
330
18
100
AcDbEntity
  8
1
100
AcDbLine
 10
44.0024000149651
 20
-0.6394684672810627
 30
0.0
 11
43.82639951935259
 21
0.5482682103813659
 31
0.0
  0
LINE
  5
3E65
330
18
100
AcDbEntity
  8
1
100
AcDbLine
 10
43.82639951935259
 20
0.5482682103813659
 30
0.0
 11
43.43039840426404
 21
1.901338686995913
 31
0.0
  0
LINE
  5
3E66
330
18
100
AcDbEntity
  8
1
100
AcDbLine
 10
43.43039840426404
 20
1.901338686995913
 30
0.0
 11
43.09786413472622
 21
2.981075060673298
 31
0.0
  0
LINE
  5
3E67
330
18
100
AcDbEntity
  8
1
100
AcDbLine
 10
43.09786413472622
 20
2.981075060673298
 30
0.0
 11
42.89706356917553
 21
3.588010102925508
 31
0.0
  0
LINE
  5
3E68
330
18
100
AcDbEntity
  8
1
100
AcDbLine
 10
42.89706356917553
 20
3.588010102925508
 30
0.0
 11
41.15875933023207
 21
4.300294300458347
 31
0.0
  0
LINE
  5
3E69
330
18
100
AcDbEntity
  8
1
100
AcDbLine
 10
41.15875933023207
 20
4.300294300458347
 30
0.0
 11
39.73038798584762
 21
4.846146978896506
 31
0.0
  0
LINE
  5
3E6A
330
18
100
AcDbEntity
  8
1
100
AcDbLine
 10
39.73038798584762
 20
4.846146978896506
 30
0.0
 11
37.374114684448
 21
5.761082888510408
 31
0.0
  0
LINE
  5
3E6B
330
18
100
AcDbEntity
  8
1
100
AcDbLine
 10
37.374114684448
 20
5.761082888510408
 30
0.0
 11
36.68984609112941
 21
6.032016984766542
 31
0.0
  0
LINE
  5
3E6C
330
18
100
AcDbEntity
  8
1
100
AcDbLine
 10
36.68984609112941
 20
6.032016984766542
 30
0.0
 11
35.69650996067188
 21
6.421084746938376
 31
0.0
  0
LINE
  5
3E6D
330
18
100
AcDbEntity
  8
1
100
AcDbLine
 10
35.69650996067188
 20
6.421084746938376
 30
0.0
 11
34.63677364341157
 21
6.808552504603234
 31
0.0
  0
LINE
  5
3E6E
330
18
100
AcDbEntity
  8
1
100
AcDbLine
 10
34.63677364341157
 20
6.808552504603234
 30
0.0
 11
33.95730506345515
 21
7.017886427418794
 31
0.0
  0
LINE
  5
3E6F
330
18
100
AcDbEntity
  8
1
100
AcDbLine
 10
33.95730506345515
 20
7.017886427418794
 30
0.0
 11
33.29943654442283
 21
7.191486916191358
 31
0.0
  0
LINE
  5
3E70
330
18
100
AcDbEntity
  8
1
100
AcDbLine
 10
33.29943654442283
 20
7.191486916191358
 30
0.0
 11
32.6101012701389
 21
7.340820670073377
 31
0.0
  0
LINE
  5
3E71
330
18
100
AcDbEntity
  8
1
100
AcDbLine
 10
32.6101012701389
 20
7.340820670073377
 30
0.0
 11
31.96209944543412
 21
7.451487648342663
 31
0.0
  0
LINE
  5
3E72
330
18
100
AcDbEntity
  8
1
100
AcDbLine
 10
31.96209944543412
 20
7.451487648342663
 30
0.0
 11
31.26236414177514
 21
7.537087889388438
 31
0.0
  0
LINE
  5
3E73
330
18
100
AcDbEntity
  8
1
100
AcDbLine
 10
31.26236414177514
 20
7.537087889388438
 30
0.0
 11
30.47996193879902
 21
7.590154705564195
 31
0.0
  0
LINE
  5
3E74
330
18
100
AcDbEntity
  8
1
100
AcDbLine
 10
43.49786526100288
 20
7.99015583184083
 30
0.0
 11
43.53871784196581
 21
7.47221782107286
 31
0.0
  0
ARC
  5
3E75
330
18
100
AcDbEntity
  8
1
100
AcDbCircle
 10
40.23502551693741
 20
7.472217821072874
 30
0.0
 40
3.303692325028395
100
AcDbArc
 50
286.236720181758
 51
359.9999999999996
  0
LINE
  5
3EBF
330
18
100
AcDbEntity
  8
1
100
AcDbLine
 10
44.0024000149651
 20
-0.6394684672810627
 30
0.0
 11
43.5587987659121
 21
-0.6416018066767464
 31
0.0
  0
LINE
  5
3EC0
330
18
100
AcDbEntity
  8
1
100
AcDbLine
 10
43.5587987659121
 20
-0.6416018066767464
 30
0.0
 11
41.75012700636246
 21
0.7818688682463773
 31
0.0
  0
LINE
  5
3EC1
330
18
100
AcDbEntity
  8
1
100
AcDbLine
 10
41.75012700636246
 20
0.7818688682463773
 30
0.0
 11
40.11932241437678
 21
2.034539062165038
 31
0.0
  0
LINE
  5
3EC2
330
18
100
AcDbEntity
  8
1
100
AcDbLine
 10
40.11932241437678
 20
2.034539062165038
 30
0.0
 11
38.65411828878747
 21
3.117342111054867
 31
0.0
  0
LINE
  5
3EC3
330
18
100
AcDbEntity
  8
1
100
AcDbLine
 10
38.65411828878747
 20
3.117342111054867
 30
0.0
 11
37.31678118979874
 21
4.05014473753134
 31
0.0
  0
LINE
  5
3EC4
330
18
100
AcDbEntity
  8
1
100
AcDbLine
 10
37.31678118979874
 20
4.05014473753134
 30
0.0
 11
35.85064372807487
 21
4.985347370927208
 31
0.0
  0
LINE
  5
3EC5
330
18
100
AcDbEntity
  8
1
100
AcDbLine
 10
35.85064372807487
 20
4.985347370927208
 30
0.0
 11
34.54197337649025
 21
5.73561615019981
 31
0.0
  0
LINE
  5
3EC6
330
18
100
AcDbEntity
  8
1
100
AcDbLine
 10
34.54197337649025
 20
5.73561615019981
 30
0.0
 11
33.25170307665676
 21
6.402684695187183
 31
0.0
  0
LINE
  5
3EC7
330
18
100
AcDbEntity
  8
1
100
AcDbLine
 10
33.25170307665676
 20
6.402684695187183
 30
0.0
 11
31.90769929235454
 21
6.97548630806235
 31
0.0
  0
LINE
  5
3EC8
330
18
100
AcDbEntity
  8
1
100
AcDbLine
 10
31.90769929235454
 20
6.97548630806235
 30
0.0
 11
31.14529714547777
 21
7.248020408825482
 31
0.0
  0
LINE
  5
3EC9
330
18
100
AcDbEntity
  8
1
100
AcDbLine
 10
43.43839842679909
 20
1.874938612709641
 30
0.0
 11
42.7951966157742
 21
2.33467324047551
 31
0.0
  0
LINE
  5
3ECA
330
18
100
AcDbEntity
  8
1
100
AcDbLine
 10
42.7951966157742
 20
2.33467324047551
 30
0.0
 11
42.03892781964003
 21
2.863208062042936
 31
0.0
  0
LINE
  5
3ECB
330
18
100
AcDbEntity
  8
1
100
AcDbLine
 10
42.03892781964003
 20
2.863208062042936
 30
0.0
 11
41.04292501505705
 21
3.532276612783242
 31
0.0
  0
LINE
  5
3ECC
330
18
100
AcDbEntity
  8
1
100
AcDbLine
 10
41.04292501505705
 20
3.532276612783242
 30
0.0
 11
39.98612203936652
 21
4.209078518455378
 31
0.0
  0
LINE
  5
3ECD
330
18
100
AcDbEntity
  8
1
100
AcDbLine
 10
39.98612203936652
 20
4.209078518455378
 30
0.0
 11
38.64878494037777
 21
4.998414074348204
 31
0.0
  0
LINE
  5
3ECE
330
18
100
AcDbEntity
  8
1
100
AcDbLine
 10
38.64878494037777
 20
4.998414074348204
 30
0.0
 11
37.84064933148784
 21
5.427215281751102
 31
0.0
  0
LINE
  5
3ECF
330
18
100
AcDbEntity
  8
1
100
AcDbLine
 10
37.84064933148784
 20
5.427215281751102
 30
0.0
 11
37.03304705748653
 21
5.836016432895725
 31
0.0
  0
LINE
  5
3ED0
330
18
100
AcDbEntity
  8
1
100
AcDbLine
 10
37.03304705748653
 20
5.836016432895725
 30
0.0
 11
36.50357889994343
 21
6.072683765973195
 31
0.0
  0
LINE
  5
3ED1
330
18
100
AcDbEntity
  8
1
100
AcDbLine
 10
36.50357889994343
 20
6.072683765973195
 30
0.0
 11
35.97411074240033
 21
6.309351099050658
 31
0.0
  0
LINE
  5
3ED2
330
18
100
AcDbEntity
  8
1
100
AcDbLine
 10
31.14529714547777
 20
7.248020408825482
 30
0.0
 11
30.70009589191772
 21
7.387220800776702
 31
0.0
  0
LINE
  5
3ED3
330
18
100
AcDbEntity
  8
1
100
AcDbLine
 10
30.70009589191772
 20
7.387220800776702
 30
0.0
 11
30.02649399525961
 21
7.563221296309848
 31
0.0
  0
LINE
  5
3ED4
330
18
100
AcDbEntity
  8
1
100
AcDbLine
 10
30.02649399525961
 20
7.563221296309848
 30
0.0
 11
29.35462543675121
 21
7.725621753612799
 31
0.0
  0
LINE
  5
3ED5
330
18
100
AcDbEntity
  8
1
100
AcDbLine
 10
29.35462543675121
 20
7.725621753612799
 30
0.0
 11
28.48342298355638
 21
7.874688840050467
 31
0.0
  0
LINE
  5
3ED6
330
18
100
AcDbEntity
  8
1
100
AcDbLine
 10
28.48342298355638
 20
7.874688840050467
 30
0.0
 11
27.73088753132487
 21
7.95708907208219
 31
0.0
  0
LINE
  5
3ED7
330
18
100
AcDbEntity
  8
1
100
AcDbLine
 10
27.73088753132487
 20
7.95708907208219
 30
0.0
 11
26.79515156311981
 21
7.999489191438613
 31
0.0
  0
LINE
  5
3ED8
330
18
100
AcDbEntity
  8
1
100
AcDbLine
 10
26.79515156311981
 20
7.999489191438613
 30
0.0
 11
25.44794776964467
 21
7.943222366248811
 31
0.0
  0
LINE
  5
3ED9
330
18
100
AcDbEntity
  8
1
100
AcDbLine
 10
25.44794776964467
 20
7.943222366248811
 30
0.0
 11
24.1010106437727
 21
7.749888488662307
 31
0.0
  0
LINE
  5
3EDA
330
18
100
AcDbEntity
  8
1
100
AcDbLine
 10
24.1010106437727
 20
7.749888488662307
 30
0.0
 11
23.84447658807977
 21
7.697888342104945
 31
0.0
  0
LINE
  5
3EDB
330
18
100
AcDbEntity
  8
1
100
AcDbLine
 10
23.84447658807977
 20
7.697888342104945
 30
0.0
 11
23.09540781214769
 21
7.517621167859942
 31
0.0
  0
LINE
  5
3EDC
330
18
100
AcDbEntity
  8
1
100
AcDbLine
 10
23.09540781214769
 20
7.517621167859942
 30
0.0
 11
21.95393793138707
 21
7.156953485647868
 31
0.0
  0
LINE
  5
3EDD
330
18
100
AcDbEntity
  8
1
100
AcDbLine
 10
21.95393793138707
 20
7.156953485647868
 30
0.0
 11
21.40713639171114
 21
6.967219618082971
 31
0.0
  0
LINE
  5
3EDE
330
18
100
AcDbEntity
  8
1
100
AcDbLine
 10
21.40713639171114
 20
6.967219618082971
 30
0.0
 11
20.8296680989576
 21
6.721885593939099
 31
0.0
  0
LINE
  5
3EDF
330
18
100
AcDbEntity
  8
1
100
AcDbLine
 10
20.8296680989576
 20
6.721885593939099
 30
0.0
 11
20.33593652704735
 21
6.511407526412142
 31
0.0
  0
LINE
  5
3EE0
330
18
100
AcDbEntity
  8
1
100
AcDbLine
 10
43.37466491412174
 20
-0.4824013583083726
 30
0.0
 11
42.6909296555329
 21
-0.4365345624936268
 31
0.0
  0
LINE
  5
3EE1
330
18
100
AcDbEntity
  8
1
100
AcDbLine
 10
42.6909296555329
 20
-0.4365345624936268
 30
0.0
 11
41.54639309940093
 21
-0.4026678005608844
 31
0.0
  0
LINE
  5
3EE2
330
18
100
AcDbEntity
  8
1
100
AcDbLine
 10
41.54639309940093
 20
-0.4026678005608844
 30
0.0
 11
41.36052590930195
 21
-0.5136014462745422
 31
0.0
  0
LINE
  5
3EE3
330
18
100
AcDbEntity
  8
1
100
AcDbLine
 10
41.36052590930195
 20
-0.5136014462745422
 30
0.0
 11
41.35092588225989
 21
-0.6016016940014098
 31
0.0
  0
LINE
  5
3EE4
330
18
100
AcDbEntity
  8
1
100
AcDbLine
 10
41.35092588225989
 20
-0.6016016940014098
 30
0.0
 11
41.35945923968363
 21
-0.6445351482464546
 31
0.0
  0
LINE
  5
3EE5
330
18
100
AcDbEntity
  8
1
100
AcDbLine
 10
41.35945923968363
 20
-0.6445351482464546
 30
0.0
 11
41.54212642076852
 21
-1.068536342128268
 31
0.0
  0
LINE
  5
3EE6
330
18
100
AcDbEntity
  8
1
100
AcDbLine
 10
41.54212642076852
 20
-1.068536342128268
 30
0.0
 11
41.68652682732786
 21
-1.458404106553651
 31
0.0
  0
LINE
  5
3EE7
330
18
100
AcDbEntity
  8
1
100
AcDbLine
 10
41.68652682732786
 20
-1.458404106553651
 30
0.0
 11
41.81212718096953
 21
-1.848005203614135
 31
0.0
  0
LINE
  5
3EE8
330
18
100
AcDbEntity
  8
1
100
AcDbLine
 10
41.81212718096953
 20
-1.848005203614135
 30
0.0
 11
41.92052748612108
 21
-2.288806444819627
 31
0.0
  0
LINE
  5
3EE9
330
18
100
AcDbEntity
  8
1
100
AcDbLine
 10
41.92052748612108
 20
-2.288806444819627
 30
0.0
 11
42.05492786471014
 21
-2.844274675561941
 31
0.0
  0
LINE
  5
3EEA
330
18
100
AcDbEntity
  8
1
100
AcDbLine
 10
42.05492786471014
 20
-2.844274675561941
 30
0.0
 11
43.03013061054308
 21
-3.470676439342639
 31
0.0
  0
LINE
  5
3EEB
330
18
100
AcDbEntity
  8
1
100
AcDbLine
 10
43.03013061054308
 20
-3.470676439342639
 30
0.0
 11
43.16133097995928
 21
-3.55067666469332
 31
0.0
  0
LINE
  5
3F38
330
18
100
AcDbEntity
  8
1
100
AcDbLine
 10
41.16852536877813
 20
-7.695488335423824
 30
0.0
 11
40.42932328733252
 21
-7.517621167859914
 31
0.0
  0
LINE
  5
3F39
330
18
100
AcDbEntity
  8
1
100
AcDbLine
 10
40.42932328733252
 20
-7.517621167859914
 30
0.0
 11
39.83732162037319
 21
-7.346954020657037
 31
0.0
  0
LINE
  5
3F3A
330
18
100
AcDbEntity
  8
1
100
AcDbLine
 10
39.83732162037319
 20
-7.346954020657037
 30
0.0
 11
38.65411828878747
 21
-6.933086188705921
 31
0.0
  0
LINE
  5
3F3B
330
18
100
AcDbEntity
  8
1
100
AcDbLine
 10
38.65411828878747
 20
-6.933086188705921
 30
0.0
 11
38.49411783824503
 21
-6.869886010758314
 31
0.0
  0
LINE
  5
3F3C
330
18
100
AcDbEntity
  8
1
100
AcDbLine
 10
38.49411783824503
 20
-6.869886010758314
 30
0.0
 11
37.31678118979874
 21
-6.35415122524698
 31
0.0
  0
LINE
  5
3F3D
330
18
100
AcDbEntity
  8
1
100
AcDbLine
 10
37.31678118979874
 20
-6.35415122524698
 30
0.0
 11
36.68984609112941
 21
-6.032016984766514
 31
0.0
  0
LINE
  5
3F60
330
18
100
AcDbEntity
  8
1
100
AcDbLine
 10
43.89530528746408
 20
-7.721506660703553
 30
0.0
 11
43.82639951935259
 21
-7.562687961500671
 31
0.0
  0
LINE
  5
3F61
330
18
100
AcDbEntity
  8
1
100
AcDbLine
 10
43.82639951935259
 20
-7.562687961500671
 30
0.0
 11
43.60026554929286
 21
-0.9277359456700082
 31
0.0
  0
LINE
  5
3F62
330
18
100
AcDbEntity
  8
1
100
AcDbLine
 10
43.60026554929286
 20
-0.9277359456700082
 30
0.0
 11
43.64464457874612
 21
-0.641188962360225
 31
0.0
  0
LINE
  5
3F63
330
18
100
AcDbEntity
  8
1
100
AcDbLine
 10
42.6909296555329
 20
-0.4365345624936268
 30
0.0
 11
42.74292980193138
 21
-0.5374681800781645
 31
0.0
  0
LINE
  5
3F64
330
18
100
AcDbEntity
  8
1
100
AcDbLine
 10
42.74292980193138
 20
-0.5374681800781645
 30
0.0
 11
42.80452997529253
 21
-0.6860019317066204
 31
0.0
  0
LINE
  5
3F65
330
18
100
AcDbEntity
  8
1
100
AcDbLine
 10
42.80452997529253
 20
-0.6860019317066204
 30
0.0
 11
42.86226347118772
 21
-0.785735545791745
 31
0.0
  0
LINE
  5
3F66
330
18
100
AcDbEntity
  8
1
100
AcDbLine
 10
42.86226347118772
 20
-0.785735545791745
 30
0.0
 11
42.90013024454684
 21
-0.8322690102172813
 31
0.0
  0
LINE
  5
3F67
330
18
100
AcDbEntity
  8
1
100
AcDbLine
 10
42.90013024454684
 20
-0.8322690102172813
 30
0.0
 11
42.93613034595463
 21
-0.8621357609619053
 31
0.0
  0
LINE
  5
3F68
330
18
100
AcDbEntity
  8
1
100
AcDbLine
 10
42.93613034595463
 20
-0.8621357609619053
 30
0.0
 11
42.96493042700144
 21
-0.8709357856710369
 31
0.0
  0
LINE
  5
3F69
330
18
100
AcDbEntity
  8
1
100
AcDbLine
 10
42.96493042700144
 20
-0.8709357856710369
 30
0.0
 11
43.60026554929286
 21
-0.9277359456700082
 31
0.0
  0
LINE
  5
3F6A
330
18
100
AcDbEntity
  8
1
100
AcDbLine
 10
43.16133097995928
 20
-3.55067666469332
 30
0.0
 11
43.65941869303977
 21
-2.663336617442901
 31
0.0
  0
LINE
  5
3F6B
330
18
100
AcDbEntity
  8
1
100
AcDbLine
 10
43.16133097995928
 20
-3.55067666469332
 30
0.0
 11
43.17439768345964
 21
-4.522946068956478
 31
0.0
  0
LINE
  5
3F6C
330
18
100
AcDbEntity
  8
1
100
AcDbLine
 10
43.17439768345964
 20
-4.522946068956478
 30
0.0
 11
43.20133109263458
 21
-5.150681169958737
 31
0.0
  0
LINE
  5
3F6D
330
18
100
AcDbEntity
  8
1
100
AcDbLine
 10
43.20133109263458
 20
-5.150681169958737
 30
0.0
 11
43.28293132249227
 21
-5.933883375267825
 31
0.0
  0
LINE
  5
3F6E
330
18
100
AcDbEntity
  8
1
100
AcDbLine
 10
43.28293132249227
 20
-5.933883375267825
 30
0.0
 11
43.41733170092246
 21
-6.74241898524481
 31
0.0
  0
LINE
  5
3F6F
330
18
100
AcDbEntity
  8
1
100
AcDbLine
 10
43.41733170092246
 20
-6.74241898524481
 30
0.0
 11
43.51306530374007
 21
-7.182686891641068
 31
0.0
  0
LINE
  5
3F70
330
18
100
AcDbEntity
  8
1
100
AcDbLine
 10
43.51306530374007
 20
-7.182686891641068
 30
0.0
 11
43.82639951935259
 21
-7.563221296389272
 31
0.0
  0
LINE
  5
3F71
330
18
100
AcDbEntity
  8
1
100
AcDbLine
 10
43.82639951935259
 20
-7.563221296389272
 30
0.0
 11
43.89434148243927
 21
-7.722435870178728
 31
0.0
  0
LINE
  5
3F72
330
18
100
AcDbEntity
  8
1
100
AcDbLine
 10
24.73238788194166
 20
4.846146978896506
 30
0.0
 11
22.37611458054205
 21
5.761082888510408
 31
0.0
  0
LINE
  5
3F73
330
18
100
AcDbEntity
  8
1
100
AcDbLine
 10
22.37611458054205
 20
5.761082888510408
 30
0.0
 11
21.69184598722346
 21
6.032016984766542
 31
0.0
  0
LINE
  5
3F74
330
18
100
AcDbEntity
  8
1
100
AcDbLine
 10
21.69184598722346
 20
6.032016984766542
 30
0.0
 11
20.69850985676593
 21
6.421084746938376
 31
0.0
  0
LINE
  5
3F75
330
18
100
AcDbEntity
  8
1
100
AcDbLine
 10
20.69850985676593
 20
6.421084746938376
 30
0.0
 11
19.63877353950562
 21
6.808552504603234
 31
0.0
  0
LINE
  5
3F76
330
18
100
AcDbEntity
  8
1
100
AcDbLine
 10
19.63877353950562
 20
6.808552504603234
 30
0.0
 11
18.95930495954919
 21
7.017886427418794
 31
0.0
  0
LINE
  5
3F77
330
18
100
AcDbEntity
  8
1
100
AcDbLine
 10
18.95930495954919
 20
7.017886427418794
 30
0.0
 11
18.30143644051687
 21
7.191486916191358
 31
0.0
  0
LINE
  5
3F78
330
18
100
AcDbEntity
  8
1
100
AcDbLine
 10
18.30143644051687
 20
7.191486916191358
 30
0.0
 11
17.61210116623295
 21
7.340820670073377
 31
0.0
  0
LINE
  5
3F79
330
18
100
AcDbEntity
  8
1
100
AcDbLine
 10
17.61210116623295
 20
7.340820670073377
 30
0.0
 11
16.96409934152817
 21
7.451487648342663
 31
0.0
  0
LINE
  5
3F7A
330
18
100
AcDbEntity
  8
1
100
AcDbLine
 10
16.96409934152817
 20
7.451487648342663
 30
0.0
 11
16.26436403786919
 21
7.537087889388438
 31
0.0
  0
LINE
  5
3F7B
330
18
100
AcDbEntity
  8
1
100
AcDbLine
 10
16.26436403786919
 20
7.537087889388438
 30
0.0
 11
15.48196183489307
 21
7.590154705564195
 31
0.0
  0
LINE
  5
3F7C
330
18
100
AcDbEntity
  8
1
100
AcDbLine
 10
28.56079866200615
 20
-0.6416018066767464
 30
0.0
 11
26.75212690245651
 21
0.7818688682463773
 31
0.0
  0
LINE
  5
3F7D
330
18
100
AcDbEntity
  8
1
100
AcDbLine
 10
26.75212690245651
 20
0.7818688682463773
 30
0.0
 11
25.12132231047083
 21
2.034539062165038
 31
0.0
  0
LINE
  5
3F7E
330
18
100
AcDbEntity
  8
1
100
AcDbLine
 10
25.12132231047083
 20
2.034539062165038
 30
0.0
 11
23.65611818488152
 21
3.117342111054867
 31
0.0
  0
LINE
  5
3F7F
330
18
100
AcDbEntity
  8
1
100
AcDbLine
 10
23.65611818488152
 20
3.117342111054867
 30
0.0
 11
22.31878108589279
 21
4.05014473753134
 31
0.0
  0
LINE
  5
3F80
330
18
100
AcDbEntity
  8
1
100
AcDbLine
 10
22.31878108589279
 20
4.05014473753134
 30
0.0
 11
20.85264362416892
 21
4.985347370927208
 31
0.0
  0
LINE
  5
3F81
330
18
100
AcDbEntity
  8
1
100
AcDbLine
 10
20.85264362416892
 20
4.985347370927208
 30
0.0
 11
19.54397327258429
 21
5.73561615019981
 31
0.0
  0
LINE
  5
3F82
330
18
100
AcDbEntity
  8
1
100
AcDbLine
 10
19.54397327258429
 20
5.73561615019981
 30
0.0
 11
18.25370297275081
 21
6.402684695187183
 31
0.0
  0
LINE
  5
3F83
330
18
100
AcDbEntity
  8
1
100
AcDbLine
 10
18.25370297275081
 20
6.402684695187183
 30
0.0
 11
16.90969918844858
 21
6.97548630806235
 31
0.0
  0
LINE
  5
3F84
330
18
100
AcDbEntity
  8
1
100
AcDbLine
 10
16.90969918844858
 20
6.97548630806235
 30
0.0
 11
16.14729704157182
 21
7.248020408825482
 31
0.0
  0
LINE
  5
3F85
330
18
100
AcDbEntity
  8
1
100
AcDbLine
 10
28.44039832289315
 20
1.874938612709641
 30
0.0
 11
27.79719651186825
 21
2.33467324047551
 31
0.0
  0
LINE
  5
3F86
330
18
100
AcDbEntity
  8
1
100
AcDbLine
 10
27.79719651186825
 20
2.33467324047551
 30
0.0
 11
27.04092771573408
 21
2.863208062042936
 31
0.0
  0
LINE
  5
3F87
330
18
100
AcDbEntity
  8
1
100
AcDbLine
 10
27.04092771573408
 20
2.863208062042936
 30
0.0
 11
26.0449249111511
 21
3.532276612783242
 31
0.0
  0
LINE
  5
3F88
330
18
100
AcDbEntity
  8
1
100
AcDbLine
 10
26.0449249111511
 20
3.532276612783242
 30
0.0
 11
24.98812193546057
 21
4.209078518455378
 31
0.0
  0
LINE
  5
3F89
330
18
100
AcDbEntity
  8
1
100
AcDbLine
 10
24.98812193546057
 20
4.209078518455378
 30
0.0
 11
23.65078483647182
 21
4.998414074348204
 31
0.0
  0
LINE
  5
3F8A
330
18
100
AcDbEntity
  8
1
100
AcDbLine
 10
23.65078483647182
 20
4.998414074348204
 30
0.0
 11
22.84264922758189
 21
5.427215281751102
 31
0.0
  0
LINE
  5
3F8B
330
18
100
AcDbEntity
  8
1
100
AcDbLine
 10
22.84264922758189
 20
5.427215281751102
 30
0.0
 11
22.03504695358057
 21
5.836016432895725
 31
0.0
  0
LINE
  5
3F8C
330
18
100
AcDbEntity
  8
1
100
AcDbLine
 10
22.03504695358057
 20
5.836016432895725
 30
0.0
 11
21.50557879603748
 21
6.072683765973195
 31
0.0
  0
LINE
  5
3F8D
330
18
100
AcDbEntity
  8
1
100
AcDbLine
 10
21.50557879603748
 20
6.072683765973195
 30
0.0
 11
20.97611063849438
 21
6.309351099050658
 31
0.0
  0
LINE
  5
3F8E
330
18
100
AcDbEntity
  8
1
100
AcDbLine
 10
16.14729704157182
 20
7.248020408825482
 30
0.0
 11
15.70209578801177
 21
7.387220800776702
 31
0.0
  0
LINE
  5
3F8F
330
18
100
AcDbEntity
  8
1
100
AcDbLine
 10
15.70209578801177
 20
7.387220800776702
 30
0.0
 11
15.02849389135366
 21
7.563221296309848
 31
0.0
  0
LINE
  5
3F90
330
18
100
AcDbEntity
  8
1
100
AcDbLine
 10
15.02849389135366
 20
7.563221296309848
 30
0.0
 11
14.35662533284526
 21
7.725621753612799
 31
0.0
  0
LINE
  5
3F91
330
18
100
AcDbEntity
  8
1
100
AcDbLine
 10
14.35662533284526
 20
7.725621753612799
 30
0.0
 11
13.48542287965043
 21
7.874688840050467
 31
0.0
  0
LINE
  5
3F92
330
18
100
AcDbEntity
  8
1
100
AcDbLine
 10
13.48542287965043
 20
7.874688840050467
 30
0.0
 11
12.73288742741892
 21
7.95708907208219
 31
0.0
  0
LINE
  5
3F93
330
18
100
AcDbEntity
  8
1
100
AcDbLine
 10
12.73288742741892
 20
7.95708907208219
 30
0.0
 11
11.79715145921385
 21
7.999489191438613
 31
0.0
  0
LINE
  5
3FE4
330
18
100
AcDbEntity
  8
1
100
AcDbLine
 10
28.44039832289315
 20
1.874938612709641
 30
0.0
 11
31.12876376567787
 21
-0.1774671664768448
 31
0.0
  0
LINE
  5
3FE5
330
18
100
AcDbEntity
  8
1
100
AcDbLine
 10
31.12876376567787
 20
-0.1774671664768448
 30
0.0
 11
33.75010448011471
 21
-2.098539242366101
 31
0.0
  0
LINE
  5
3FE6
330
18
100
AcDbEntity
  8
1
100
AcDbLine
 10
33.75010448011471
 20
-2.098539242366101
 30
0.0
 11
35.97277740533764
 21
-3.628276883204001
 31
0.0
  0
LINE
  5
3FE7
330
18
100
AcDbEntity
  8
1
100
AcDbLine
 10
35.97277740533764
 20
-3.628276883204001
 30
0.0
 11
37.76078243993879
 21
-4.732013324327688
 31
0.0
  0
LINE
  5
3FE8
330
18
100
AcDbEntity
  8
1
100
AcDbLine
 10
37.76078243993879
 20
-4.732013324327688
 30
0.0
 11
39.2478532938171
 21
-5.539615598329014
 31
0.0
  0
LINE
  5
3FE9
330
18
100
AcDbEntity
  8
1
100
AcDbLine
 10
39.2478532938171
 20
-5.539615598329014
 30
0.0
 11
41.10332518515711
 21
-6.396818012047759
 31
0.0
  0
LINE
  5
3FEA
330
18
100
AcDbEntity
  8
1
100
AcDbLine
 10
41.10332518515711
 20
-6.396818012047759
 30
0.0
 11
42.22106166583633
 21
-6.809619174380472
 31
0.0
  0
LINE
  5
3FEB
330
18
100
AcDbEntity
  8
1
100
AcDbLine
 10
42.22106166583633
 20
-6.809619174380472
 30
0.0
 11
43.08639743573283
 21
-7.066419897517754
 31
0.0
  0
LINE
  5
3FEC
330
18
100
AcDbEntity
  8
1
100
AcDbLine
 10
43.08639743573283
 20
-7.066419897517754
 30
0.0
 11
43.51333197118438
 21
-7.18375356125945
 31
0.0
  0
LINE
  5
3FED
330
18
100
AcDbEntity
  8
1
100
AcDbLine
 10
28.56079866200615
 20
-0.6416018066767464
 30
0.0
 11
31.77943226450802
 21
-2.944808291900592
 31
0.0
  0
LINE
  5
3FEE
330
18
100
AcDbEntity
  8
1
100
AcDbLine
 10
31.77943226450802
 20
-2.944808291900592
 30
0.0
 11
33.97343844232689
 21
-4.449612529157633
 31
0.0
  0
LINE
  5
3FEF
330
18
100
AcDbEntity
  8
1
100
AcDbLine
 10
33.97343844232689
 20
-4.449612529157633
 30
0.0
 11
35.31077554131561
 21
-5.274814852815524
 31
0.0
  0
LINE
  5
3FF0
330
18
100
AcDbEntity
  8
1
100
AcDbLine
 10
35.31077554131561
 20
-5.274814852815524
 30
0.0
 11
36.68984609112941
 21
-6.032016984766514
 31
0.0
  0
LINE
  5
4039
330
18
100
AcDbEntity
  8
1
100
AcDbLine
 10
24.8061572348968
 20
-7.822155358763303
 30
0.0
 11
24.13335534041269
 21
-7.695488335423824
 31
0.0
  0
LINE
  5
403A
330
18
100
AcDbEntity
  8
1
100
AcDbLine
 10
24.13335534041269
 20
-7.695488335423824
 30
0.0
 11
23.39415325896708
 21
-7.517621167859914
 31
0.0
  0
LINE
  5
403B
330
18
100
AcDbEntity
  8
1
100
AcDbLine
 10
23.39415325896708
 20
-7.517621167859914
 30
0.0
 11
22.80215159200774
 21
-7.346954020657037
 31
0.0
  0
LINE
  5
403C
330
18
100
AcDbEntity
  8
1
100
AcDbLine
 10
22.80215159200774
 20
-7.346954020657037
 30
0.0
 11
21.61894826042203
 21
-6.933086188705921
 31
0.0
  0
LINE
  5
403D
330
18
100
AcDbEntity
  8
1
100
AcDbLine
 10
21.61894826042203
 20
-6.933086188705921
 30
0.0
 11
21.45894780987958
 21
-6.869886010758314
 31
0.0
  0
LINE
  5
403E
330
18
100
AcDbEntity
  8
1
100
AcDbLine
 10
21.45894780987958
 20
-6.869886010758314
 30
0.0
 11
20.28161116143329
 21
-6.35415122524698
 31
0.0
  0
LINE
  5
403F
330
18
100
AcDbEntity
  8
1
100
AcDbLine
 10
20.28161116143329
 20
-6.35415122524698
 30
0.0
 11
19.65467606276396
 21
-6.032016984766514
 31
0.0
  0
LINE
  5
4045
330
18
100
AcDbEntity
  8
1
100
AcDbLine
 10
11.90177629331767
 20
1.442670728848433
 30
0.0
 11
14.09359373731242
 21
-0.1774671664768448
 31
0.0
  0
LINE
  5
4046
330
18
100
AcDbEntity
  8
1
100
AcDbLine
 10
14.09359373731242
 20
-0.1774671664768448
 30
0.0
 11
16.71493445174927
 21
-2.098539242366101
 31
0.0
  0
LINE
  5
4047
330
18
100
AcDbEntity
  8
1
100
AcDbLine
 10
16.71493445174927
 20
-2.098539242366101
 30
0.0
 11
18.93760737697219
 21
-3.628276883204001
 31
0.0
  0
LINE
  5
4048
330
18
100
AcDbEntity
  8
1
100
AcDbLine
 10
18.93760737697219
 20
-3.628276883204001
 30
0.0
 11
20.72561241157335
 21
-4.732013324327688
 31
0.0
  0
LINE
  5
4049
330
18
100
AcDbEntity
  8
1
100
AcDbLine
 10
20.72561241157335
 20
-4.732013324327688
 30
0.0
 11
22.21268326545166
 21
-5.539615598329014
 31
0.0
  0
LINE
  5
404A
330
18
100
AcDbEntity
  8
1
100
AcDbLine
 10
22.21268326545166
 20
-5.539615598329014
 30
0.0
 11
24.06815515679167
 21
-6.396818012047759
 31
0.0
  0
LINE
  5
404B
330
18
100
AcDbEntity
  8
1
100
AcDbLine
 10
11.5256286336407
 20
-0.6416018066767464
 30
0.0
 11
14.74426223614257
 21
-2.944808291900592
 31
0.0
  0
LINE
  5
404C
330
18
100
AcDbEntity
  8
1
100
AcDbLine
 10
14.74426223614257
 20
-2.944808291900592
 30
0.0
 11
16.93826841396144
 21
-4.449612529157633
 31
0.0
  0
LINE
  5
404D
330
18
100
AcDbEntity
  8
1
100
AcDbLine
 10
16.93826841396144
 20
-4.449612529157633
 30
0.0
 11
18.27560551295016
 21
-5.274814852815524
 31
0.0
  0
LINE
  5
404E
330
18
100
AcDbEntity
  8
1
100
AcDbLine
 10
18.27560551295016
 20
-5.274814852815524
 30
0.0
 11
19.65467606276396
 21
-6.032016984766514
 31
0.0
  0
LINE
  5
404F
330
18
100
AcDbEntity
  8
1
100
AcDbLine
 10
24.06815515679167
 20
-6.396818012047759
 30
0.0
 11
25.14074690469533
 21
-6.78615244174334
 31
0.0
  0
LINE
  5
4050
330
18
100
AcDbEntity
  8
1
100
AcDbLine
 10
25.14074690469533
 20
-6.78615244174334
 30
0.0
 11
26.11181630569745
 21
-7.079086599931144
 31
0.0
  0
LINE
  5
4051
330
18
100
AcDbEntity
  8
1
100
AcDbLine
 10
26.11181630569745
 20
-7.079086599931144
 30
0.0
 11
27.45955343398172
 21
-7.380954116550235
 31
0.0
  0
LINE
  5
4052
330
18
100
AcDbEntity
  8
1
100
AcDbLine
 10
27.45955343398172
 20
-7.380954116550235
 30
0.0
 11
28.80715722846449
 21
-7.555087940132025
 31
0.0
  0
LINE
  5
4053
330
18
100
AcDbEntity
  8
1
100
AcDbLine
 10
28.80715722846449
 20
-7.555087940132025
 30
0.0
 11
30.17742775356913
 21
-7.599621398884089
 31
0.0
  0
LINE
  5
4054
330
18
100
AcDbEntity
  8
1
100
AcDbLine
 10
30.17742775356913
 20
-7.599621398884089
 30
0.0
 11
31.15583050849549
 21
-7.536554554658643
 31
0.0
  0
LINE
  5
4055
330
18
100
AcDbEntity
  8
1
100
AcDbLine
 10
31.15583050849549
 20
-7.536554554658643
 30
0.0
 11
32.17636671549283
 21
-7.41122086846132
 31
0.0
  0
LINE
  5
4056
330
18
100
AcDbEntity
  8
1
100
AcDbLine
 10
32.17636671549283
 20
-7.41122086846132
 30
0.0
 11
33.02343576736028
 21
-7.254420426853485
 31
0.0
  0
LINE
  5
4057
330
18
100
AcDbEntity
  8
1
100
AcDbLine
 10
33.02343576736028
 20
-7.254420426853485
 30
0.0
 11
33.82970470421945
 21
-7.043886500697411
 31
0.0
  0
LINE
  5
4058
330
18
100
AcDbEntity
  8
1
100
AcDbLine
 10
33.82970470421945
 20
-7.043886500697411
 30
0.0
 11
34.63677364341157
 21
-6.80855250476209
 31
0.0
  0
LINE
  5
4059
330
18
100
AcDbEntity
  8
1
100
AcDbLine
 10
34.63677364341157
 20
-6.80855250476209
 30
0.0
 11
35.30317551986762
 21
-6.573885177278654
 31
0.0
  0
LINE
  5
405A
330
18
100
AcDbEntity
  8
1
100
AcDbLine
 10
35.30317551986762
 20
-6.573885177278654
 30
0.0
 11
36.04557761032727
 21
-6.2749510022293
 31
0.0
  0
LINE
  5
405B
330
18
100
AcDbEntity
  8
1
100
AcDbLine
 10
36.04557761032727
 20
-6.2749510022293
 30
0.0
 11
36.65314179921922
 21
-6.01186386925702
 31
0.0
  0
LINE
  5
405C
330
18
100
AcDbEntity
  8
1
100
AcDbLine
 10
24.8061572348968
 20
-7.822155358763303
 30
0.0
 11
26.18181650283953
 21
-7.99095583417376
 31
0.0
  0
LINE
  5
405D
330
18
100
AcDbEntity
  8
1
100
AcDbLine
 10
26.18181650283953
 20
-7.99095583417376
 30
0.0
 11
27.63888727225106
 21
-7.966955766568553
 31
0.0
  0
LINE
  5
405E
330
18
100
AcDbEntity
  8
1
100
AcDbLine
 10
27.63888727225106
 20
-7.966955766568553
 30
0.0
 11
28.97622437123978
 21
-7.835222062263724
 31
0.0
  0
LINE
  5
405F
330
18
100
AcDbEntity
  8
1
100
AcDbLine
 10
28.97622437123978
 20
-7.835222062263724
 30
0.0
 11
30.18642069422417
 21
-7.599041723096611
 31
0.0
  0
LINE
  5
4060
330
18
100
AcDbEntity
  8
1
100
AcDbLine
 10
17.68744262359791
 20
-6.294794680621635
 30
0.0
 11
19.30290332029853
 21
-5.838870179773081
 31
0.0
  0
LINE
  5
4061
330
18
100
AcDbEntity
  8
1
100
AcDbLine
 10
17.68744262359791
 20
-6.294794680621635
 30
0.0
 11
15.04074865437337
 21
-7.130394817792705
 31
0.0
  0
LINE
  5
4062
330
18
100
AcDbEntity
  8
1
100
AcDbLine
 10
15.04074865437337
 20
-7.130394817792705
 30
0.0
 11
12.43363254550195
 21
-7.763523786989935
 31
0.0
  0
LINE
  5
4063
330
18
100
AcDbEntity
  8
1
100
AcDbLine
 10
12.43363254550195
 20
-7.763523786989935
 30
0.0
 11
11.28634513806407
 21
-7.958503709020902
 31
0.0
  0
LINE
  5
4064
330
18
100
AcDbEntity
  8
1
100
AcDbLine
 10
11.28634513806407
 20
-7.958503709020902
 30
0.0
 11
10.55540974659777
 21
-7.962237052923569
 31
0.0
  0
LINE
  5
4065
330
18
100
AcDbEntity
  8
1
100
AcDbLine
 10
10.55540974659777
 20
-7.962237052923569
 30
0.0
 11
9.925274638914467
 21
-7.670769565520629
 31
0.0
  0
LINE
  5
4066
330
18
100
AcDbEntity
  8
1
100
AcDbLine
 10
9.925274638914467
 20
-7.670769565520629
 30
0.0
 11
9.875407831911587
 21
-7.479835694615175
 31
0.0
  0
LINE
  5
4067
330
18
100
AcDbEntity
  8
1
100
AcDbLine
 10
9.875407831911587
 20
-7.479835694615175
 30
0.0
 11
10.30237794555182
 21
-6.409989790559166
 31
0.0
  0
LINE
  5
4068
330
18
100
AcDbEntity
  8
1
100
AcDbLine
 10
10.30237794555182
 20
-6.409989790559166
 30
0.0
 11
10.74718131199529
 21
-5.573621683029102
 31
0.0
  0
LINE
  5
4069
330
18
100
AcDbEntity
  8
1
100
AcDbLine
 10
10.74718131199529
 20
-5.573621683029102
 30
0.0
 11
11.61546381493076
 21
-4.252871586571359
 31
0.0
  0
LINE
  5
406A
330
18
100
AcDbEntity
  8
1
100
AcDbLine
 10
11.61546381493076
 20
-4.252871586571359
 30
0.0
 11
13.43196886431757
 21
-2.005750611599779
 31
0.0
  0
LINE
  5
406B
330
18
100
AcDbEntity
  8
1
100
AcDbLine
 10
11.5256286336407
 20
-0.6416018066767464
 30
0.0
 11
11.31200998406019
 21
-0.4398278560120801
 31
0.0
  0
LINE
  5
406C
330
18
100
AcDbEntity
  8
1
100
AcDbLine
 10
11.31200998406019
 20
-0.4398278560120801
 30
0.0
 11
10.96294233440481
 21
0.1284404107863608
 31
0.0
  0
LINE
  5
406D
330
18
100
AcDbEntity
  8
1
100
AcDbLine
 10
10.96294233440481
 20
0.1284404107863608
 30
0.0
 11
10.74267504748449
 21
0.7065753719123578
 31
0.0
  0
LINE
  5
406E
330
18
100
AcDbEntity
  8
1
100
AcDbLine
 10
10.74267504748449
 20
0.7065753719123578
 30
0.0
 11
10.65040812112526
 21
1.488710907603021
 31
0.0
  0
LINE
  5
406F
330
18
100
AcDbEntity
  8
1
100
AcDbLine
 10
10.65040812112526
 20
1.488710907603021
 30
0.0
 11
10.75654175331788
 21
1.921512126352872
 31
0.0
  0
LINE
  5
4070
330
18
100
AcDbEntity
  8
1
100
AcDbLine
 10
10.75654175331788
 20
1.921512126352872
 30
0.0
 11
11.90177629331767
 21
1.442670728848433
 31
0.0
  0
LINE
  5
4071
330
18
100
AcDbEntity
  8
1
100
AcDbLine
 10
10.75654175331788
 20
1.921512126352872
 30
0.0
 11
10.47067428161002
 21
2.354846679832476
 31
0.0
  0
LINE
  5
4072
330
18
100
AcDbEntity
  8
1
100
AcDbLine
 10
10.47067428161002
 20
2.354846679832476
 30
0.0
 11
10.23040693843153
 21
2.725514390253124
 31
0.0
  0
LINE
  5
4073
330
18
100
AcDbEntity
  8
1
100
AcDbLine
 10
10.23040693843153
 20
2.725514390253124
 30
0.0
 11
10.06933981827067
 21
3.071115363291319
 31
0.0
  0
LINE
  5
4074
330
18
100
AcDbEntity
  8
1
100
AcDbLine
 10
10.06933981827067
 20
3.071115363291319
 30
0.0
 11
9.831205814328903
 21
3.775917347915665
 31
0.0
  0
LINE
  5
4075
330
18
100
AcDbEntity
  8
1
100
AcDbLine
 10
9.831205814328903
 20
3.775917347915665
 30
0.0
 11
9.710672141732068
 21
4.749786756844713
 31
0.0
  0
LINE
  5
4076
330
18
100
AcDbEntity
  8
1
100
AcDbLine
 10
9.710672141732068
 20
4.749786756844713
 30
0.0
 11
9.798139054570293
 21
5.515655580021004
 31
0.0
  0
LINE
  5
4077
330
18
100
AcDbEntity
  8
1
100
AcDbLine
 10
9.798139054570293
 20
5.515655580021004
 30
0.0
 11
9.984272912113533
 21
6.09565721309827
 31
0.0
  0
LINE
  5
4078
330
18
100
AcDbEntity
  8
1
100
AcDbLine
 10
9.984272912113533
 20
6.09565721309827
 30
0.0
 11
10.59400796221331
 21
7.097126699654182
 31
0.0
  0
LINE
  5
4079
330
18
100
AcDbEntity
  8
1
100
AcDbLine
 10
10.59400796221331
 20
7.097126699654182
 30
0.0
 11
10.96294233440481
 21
7.498594496874567
 31
0.0
  0
LINE
  5
407A
330
18
100
AcDbEntity
  8
1
100
AcDbLine
 10
10.96294233440481
 20
7.498594496874567
 30
0.0
 11
11.63777554997825
 21
7.99868918910564
 31
0.0
  0
LINE
  5
407B
330
18
100
AcDbEntity
  8
1
100
AcDbLine
 10
11.63777554997825
 20
7.99868918910564
 30
0.0
 11
11.79715145921385
 21
7.999489191438613
 31
0.0
  0
VIEWPORT
  5
614
102
{ACAD_XDICTIONARY
360
615
102
}
330
338
100
AcDbEntity
 67
     1
  8
0
100
AcDbViewport
 10
128.5
 20
97.5
 30
0.0
 40
509.3947670250896
 41
222.18
 68
     1
 69
     1
 12
128.5
 22
97.5
 13
0.0
 23
0.0
 14
10.0
 24
10.0
 15
10.0
 25
10.0
 16
0.0
 26
0.0
 36
1.0
 17
0.0
 27
0.0
 37
0.0
 42
50.0
 43
0.0
 44
0.0
 45
222.18
 50
0.0
 51
0.0
 72
  2000
 90
   819232
  1

281
     0
 71
     1
 74
     0
110
0.0
120
0.0
130
0.0
111
1.0
121
0.0
131
0.0
112
0.0
122
1.0
132
0.0
 79
     0
146
0.0
  0
VIEWPORT
  5
619
102
{ACAD_XDICTIONARY
360
61A
102
}
330
338
100
AcDbEntity
 67
     1
  8
1
100
AcDbViewport
 10
128.5
 20
97.5
 30
0.0
 40
205.6
 41
156.0
 68
     2
 69
     2
 12
-1.22990277517806
 22
44.55711464811713
 13
0.0
 23
0.0
 14
5.0
 24
5.0
 15
5.0
 25
5.0
 16
0.0
 26
0.0
 36
1.0
 17
0.0
 27
0.0
 37
0.0
 42
50.0
 43
0.0
 44
0.0
 45
100.1891669330764
 50
0.0
 51
0.0
 72
  2000
 90
   819232
  1

281
     0
 71
     1
 74
     0
110
0.0
120
0.0
130
0.0
111
1.0
121
0.0
131
0.0
112
0.0
122
1.0
132
0.0
 79
     0
146
0.0
  0
ENDSEC
  0
SECTION
  2
OBJECTS
  0
DICTIONARY
  5
C
330
0
100
AcDbDictionary
281
     1
  3
ACAD_2007HEADERVARS_RT
350
40C7
  3
ACAD_CIP_PREVIOUS_PRODUCT_INFO
350
59A
  3
ACAD_COLOR
350
387
  3
ACAD_DETAILVIEWSTYLE
350
595
  3
ACAD_GROUP
350
D
  3
ACAD_LAYOUT
350
301
  3
ACAD_MATERIAL
350
386
  3
ACAD_MLEADERSTYLE
350
3DE
  3
ACAD_MLINESTYLE
350
E
  3
ACAD_PLOTSETTINGS
350
302
  3
ACAD_PLOTSTYLENAME
350
2FF
  3
ACAD_SCALELIST
350
3A0
  3
ACAD_SECTIONVIEWSTYLE
350
593
  3
ACAD_TABLESTYLE
350
388
  3
ACAD_VISUALSTYLE
350
3C2
  3
ACDB_RECOMPOSE_DATA
350
40C5
  3
AcDbVariableDictionary
350
357
  3
ASE_INDEX_DICTIONARY
350
16FA
  3
DWGPROPS
350
40C6
  0
DICTIONARY
  5
5BC
330
2
100
AcDbDictionary
280
     1
281
     1
  3
ACAD_LAYERSTATES
360
5BD
  0
DICTIONARY
  5
59B
330
F
100
AcDbDictionary
280
     1
281
     1
  3
ADSK_XREC_LAYER_RECONCILED
360
59C
  0
DICTIONARY
  5
59D
330
23
100
AcDbDictionary
280
     1
281
     1
  3
ADSK_XREC_LAYER_RECONCILED
360
59E
  0
DICTIONARY
  5
59F
330
24
100
AcDbDictionary
280
     1
281
     1
  3
ADSK_XREC_LAYER_RECONCILED
360
5A0
  0
DICTIONARY
  5
5A1
330
25
100
AcDbDictionary
280
     1
281
     1
  3
ADSK_XREC_LAYER_RECONCILED
360
5A2
  0
DICTIONARY
  5
5A3
330
26
100
AcDbDictionary
280
     1
281
     1
  3
ADSK_XREC_LAYER_RECONCILED
360
5A4
  0
DICTIONARY
  5
5A5
330
27
100
AcDbDictionary
280
     1
281
     1
  3
ADSK_XREC_LAYER_RECONCILED
360
5A6
  0
DICTIONARY
  5
5A7
330
28
100
AcDbDictionary
280
     1
281
     1
  3
ADSK_XREC_LAYER_RECONCILED
360
5A8
  0
DICTIONARY
  5
5A9
330
29
100
AcDbDictionary
280
     1
281
     1
  3
ADSK_XREC_LAYER_RECONCILED
360
5AA
  0
DICTIONARY
  5
5AB
330
2A
100
AcDbDictionary
280
     1
281
     1
  3
ADSK_XREC_LAYER_RECONCILED
360
5AC
  0
DICTIONARY
  5
5AD
330
2B
100
AcDbDictionary
280
     1
281
     1
  3
ADSK_XREC_LAYER_RECONCILED
360
5AE
  0
DICTIONARY
  5
5AF
330
2C
100
AcDbDictionary
280
     1
281
     1
  3
ADSK_XREC_LAYER_RECONCILED
360
5B0
  0
DICTIONARY
  5
5B1
330
2D
100
AcDbDictionary
280
     1
281
     1
  3
ADSK_XREC_LAYER_RECONCILED
360
5B2
  0
DICTIONARY
  5
5B3
330
2E
100
AcDbDictionary
280
     1
281
     1
  3
ADSK_XREC_LAYER_RECONCILED
360
5B4
  0
DICTIONARY
  5
5B5
330
375
100
AcDbDictionary
280
     1
281
     1
  3
ADSK_XREC_LAYER_RECONCILED
360
5B6
  0
DICTIONARY
  5
5B7
330
376
100
AcDbDictionary
280
     1
281
     1
  3
ADSK_XREC_LAYER_RECONCILED
360
5B8
  0
DICTIONARY
  5
16F5
330
18
100
AcDbDictionary
280
     1
281
     1
  3
ACAD_SORTENTS
360
16F6
  0
DICTIONARY
  5
615
330
614
100
AcDbDictionary
280
     1
281
     1
  3
ACAD_XREC_ROUNDTRIP
360
4106
  3
ASDK_XREC_ANNOTATION_SCALE_INFO
360
616
  0
DICTIONARY
  5
61A
330
619
100
AcDbDictionary
280
     1
281
     1
  3
ACAD_XREC_ROUNDTRIP
360
4107
  3
ASDK_XREC_ANNOTATION_SCALE_INFO
360
61B
  0
DICTIONARY
  5
40C7
102
{ACAD_REACTORS
330
C
102
}
330
C
100
AcDbDictionary
281
     1
  3
DIMARCSYM
350
40C8
  3
DIMJOGANG
350
40C9
  3
DIMLTEX1
350
40CB
  3
DIMLTEX2
350
40CC
  3
DIMLTYPE
350
40CA
  0
XRECORD
  5
59A
102
{ACAD_REACTORS
330
C
102
}
330
C
100
AcDbXrecord
280
     1
300
ACD
300
2019
300

  0
DICTIONARY
  5
387
102
{ACAD_REACTORS
330
C
102
}
330
C
100
AcDbDictionary
281
     1
  0
DICTIONARY
  5
595
102
{ACAD_REACTORS
330
C
102
}
330
C
100
AcDbDictionary
281
     1
  3
Imperial24
350
78C
  3
Metric50
350
596
  0
DICTIONARY
  5
D
102
{ACAD_REACTORS
330
C
102
}
330
C
100
AcDbDictionary
281
     1
  0
DICTIONARY
  5
301
102
{ACAD_REACTORS
330
C
102
}
330
C
100
AcDbDictionary
281
     1
  3
Layout1
350
33B
  3
Model
350
303
  0
DICTIONARY
  5
386
102
{ACAD_REACTORS
330
C
102
}
330
C
100
AcDbDictionary
281
     1
  3
ByBlock
350
3DC
  3
ByLayer
350
3DB
  3
Global
350
3DD
  0
DICTIONARY
  5
3DE
102
{ACAD_REACTORS
330
C
102
}
330
C
100
AcDbDictionary
281
     1
  3
Standard
350
3DF
  0
DICTIONARY
  5
E
102
{ACAD_REACTORS
330
C
102
}
330
C
100
AcDbDictionary
281
     1
  3
STANDARD
350
1B
  0
DICTIONARY
  5
302
102
{ACAD_REACTORS
330
C
102
}
330
C
100
AcDbDictionary
281
     1
  0
ACDBDICTIONARYWDFLT
  5
2FF
102
{ACAD_REACTORS
330
C
102
}
330
C
100
AcDbDictionary
281
     1
  3
Normal
350
300
100
AcDbDictionaryWithDefault
340
300
  0
DICTIONARY
  5
3A0
102
{ACAD_REACTORS
330
C
102
}
330
C
100
AcDbDictionary
281
     1
  3
A0
350
3A1
  3
A1
350
3A2
  3
A2
350
3A3
  3
A3
350
3A4
  3
A4
350
3A5
  3
A5
350
3A6
  3
A6
350
3A7
  3
A7
350
3A8
  3
A8
350
3A9
  3
A9
350
3AA
  3
B0
350
3AB
  3
B1
350
3AC
  3
B2
350
3AD
  3
B3
350
3AE
  3
B4
350
3AF
  3
B5
350
3B0
  3
B6
350
3B1
  3
B7
350
3B2
  3
B8
350
3B3
  3
B9
350
3B4
  3
C0
350
3B5
  3
C1
350
3B6
  3
C2
350
3B7
  3
C3
350
3B8
  3
C4
350
3B9
  3
C5
350
3BA
  3
C6
350
3BB
  3
C7
350
3BC
  3
C8
350
3BD
  3
C9
350
3BE
  3
D0
350
3BF
  3
D1
350
3C0
  3
D2
350
3C1
  0
DICTIONARY
  5
593
102
{ACAD_REACTORS
330
C
102
}
330
C
100
AcDbDictionary
281
     1
  3
Imperial24
350
78B
  3
Metric50
350
594
  0
DICTIONARY
  5
388
102
{ACAD_REACTORS
330
C
102
}
330
C
100
AcDbDictionary
281
     1
  3
Standard
350
389
  0
DICTIONARY
  5
3C2
102
{ACAD_REACTORS
330
C
102
}
330
C
100
AcDbDictionary
281
     1
  3
2dWireframe
350
3C7
  3
Basic
350
3CA
  3
Brighten
350
3CE
  3
ColorChange
350
3D2
  3
Conceptual
350
3CC
  3
Dim
350
3CD
  3
EdgeColorOff
350
3D5
  3
Facepattern
350
3D1
  3
Flat
350
3C3
  3
FlatWithEdges
350
3C4
  3
Gouraud
350
3C5
  3
GouraudWithEdges
350
3C6
  3
Hidden
350
3C9
  3
JitterOff
350
3D3
  3
Linepattern
350
3D0
  3
OverhangOff
350
3D4
  3
Realistic
350
3CB
  3
Shaded
350
3DA
  3
Shaded with edges
350
3D9
  3
Shades of Gray
350
3D6
  3
Sketchy
350
3D7
  3
Thicken
350
3CF
  3
Wireframe
350
3C8
  3
X-Ray
350
3D8
  0
XRECORD
  5
40C5
102
{ACAD_REACTORS
330
C
102
}
330
C
100
AcDbXrecord
280
     1
 90
        1
330
389
  0
DICTIONARY
  5
357
102
{ACAD_REACTORS
330
C
102
}
330
C
100
AcDbDictionary
281
     1
  3
ANNOALLVISIBLE
350
656
  3
CANNOSCALE
350
557
  3
CMLEADERSTYLE
350
54E
  3
CTABLESTYLE
350
38D
  3
CVIEWDETAILSTYLE
350
5C2
  3
CVIEWSECTIONSTYLE
350
5C3
  3
DIMASSOC
350
359
  3
HIDETEXT
350
358
  3
INDEXCTL
350
658
  3
MSLTSCALE
350
54F
  3
PROJECTNAME
350
38E
  3
SORTENTS
350
657
  3
XCLIPFRAME
350
3E76
  0
DICTIONARY
  5
16FA
102
{ACAD_REACTORS
330
C
102
}
330
C
100
AcDbDictionary
281
     1
  3
ASEBlockHierarchyIndexRecord
350
16FB
1001
DCO15
1040
2050047918.0
  0
XRECORD
  5
40C6
102
{ACAD_REACTORS
330
C
102
}
330
C
100
AcDbXrecord
280
     1
  1
DWGPROPS COOKIE
  2

  3

  4

  6

  7

  8
fo3459
  9

300
=
301
=
302
=
303
=
304
=
305
=
306
=
307
=
308
=
309
=
 40
0.2031981481481481
 41
2454957.593634259
 42
2459551.401296296
  1

 90
        0
  0
DICTIONARY
  5
5BD
102
{ACAD_REACTORS
330
5BC
102
}
330
5BC
100
AcDbDictionary
281
     1
  0
XRECORD
  5
59C
102
{ACAD_REACTORS
330
59B
102
}
330
59B
100
AcDbXrecord
280
     1
290
     1
  0
XRECORD
  5
59E
102
{ACAD_REACTORS
330
59D
102
}
330
59D
100
AcDbXrecord
280
     1
290
     1
  0
XRECORD
  5
5A0
102
{ACAD_REACTORS
330
59F
102
}
330
59F
100
AcDbXrecord
280
     1
290
     1
  0
XRECORD
  5
5A2
102
{ACAD_REACTORS
330
5A1
102
}
330
5A1
100
AcDbXrecord
280
     1
290
     1
  0
XRECORD
  5
5A4
102
{ACAD_REACTORS
330
5A3
102
}
330
5A3
100
AcDbXrecord
280
     1
290
     1
  0
XRECORD
  5
5A6
102
{ACAD_REACTORS
330
5A5
102
}
330
5A5
100
AcDbXrecord
280
     1
290
     1
  0
XRECORD
  5
5A8
102
{ACAD_REACTORS
330
5A7
102
}
330
5A7
100
AcDbXrecord
280
     1
290
     1
  0
XRECORD
  5
5AA
102
{ACAD_REACTORS
330
5A9
102
}
330
5A9
100
AcDbXrecord
280
     1
290
     1
  0
XRECORD
  5
5AC
102
{ACAD_REACTORS
330
5AB
102
}
330
5AB
100
AcDbXrecord
280
     1
290
     1
  0
XRECORD
  5
5AE
102
{ACAD_REACTORS
330
5AD
102
}
330
5AD
100
AcDbXrecord
280
     1
290
     1
  0
XRECORD
  5
5B0
102
{ACAD_REACTORS
330
5AF
102
}
330
5AF
100
AcDbXrecord
280
     1
290
     1
  0
XRECORD
  5
5B2
102
{ACAD_REACTORS
330
5B1
102
}
330
5B1
100
AcDbXrecord
280
     1
290
     1
  0
XRECORD
  5
5B4
102
{ACAD_REACTORS
330
5B3
102
}
330
5B3
100
AcDbXrecord
280
     1
290
     1
  0
XRECORD
  5
5B6
102
{ACAD_REACTORS
330
5B5
102
}
330
5B5
100
AcDbXrecord
280
     1
290
     1
  0
XRECORD
  5
5B8
102
{ACAD_REACTORS
330
5B7
102
}
330
5B7
100
AcDbXrecord
280
     1
290
     1
  0
SORTENTSTABLE
  5
16F6
102
{ACAD_REACTORS
330
16F5
102
}
330
16F5
100
AcDbSortentsTable
330
18
331
2F03
  5
2F04
331
2F04
  5
2F03
  0
XRECORD
  5
4106
102
{ACAD_REACTORS
330
615
102
}
330
615
100
AcDbXrecord
280
     1
102
SHADEPLOT
 70
     0
  0
XRECORD
  5
616
102
{ACAD_REACTORS
330
615
102
}
330
615
100
AcDbXrecord
280
     1
 90
        1
340
3A1
  0
XRECORD
  5
4107
102
{ACAD_REACTORS
330
61A
102
}
330
61A
100
AcDbXrecord
280
     1
102
SHADEPLOT
 70
     0
  0
XRECORD
  5
61B
102
{ACAD_REACTORS
330
61A
102
}
330
61A
100
AcDbXrecord
280
     1
 90
        1
340
3A1
  0
XRECORD
  5
40C8
102
{ACAD_REACTORS
330
40C7
102
}
330
40C7
100
AcDbXrecord
280
     1
 70
     2
  0
XRECORD
  5
40C9
102
{ACAD_REACTORS
330
40C7
102
}
330
40C7
100
AcDbXrecord
280
     1
 40
0.7853981634000001
  0
XRECORD
  5
40CB
102
{ACAD_REACTORS
330
40C7
102
}
330
40C7
100
AcDbXrecord
280
     1
340
13
  0
XRECORD
  5
40CC
102
{ACAD_REACTORS
330
40C7
102
}
330
40C7
100
AcDbXrecord
280
     1
340
13
  0
XRECORD
  5
40CA
102
{ACAD_REACTORS
330
40C7
102
}
330
40C7
100
AcDbXrecord
280
     1
340
13
  0
ACDBDETAILVIEWSTYLE
  5
78C
102
{ACAD_XDICTIONARY
360
410A
102
}
102
{ACAD_REACTORS
330
595
102
}
330
595
100
AcDbModelDocViewStyle
 70
     0
  3
Imperial24
290
     0
100
AcDbDetailViewStyle
 70
     0
 71
     0
 90
        3
 71
     1
340
10
 40
0.24
340
0
 40
0.24
300

 40
0.36
280
     3
 71
     2
340
14
 90
       25
 71
     3
340
10
 40
0.24
 90
        1
 40
0.75
 90
        1
300
%<\AcVar ViewType \f "%tc1">% %<\AcVar ViewDetailId>%\PSCALE %<\AcVar ViewScale \f "%sn">%
 71
     4
340
14
 90
       25
340
14
 90
       25
280
     0
  0
ACDBDETAILVIEWSTYLE
  5
596
102
{ACAD_XDICTIONARY
360
4104
102
}
102
{ACAD_REACTORS
330
595
102
}
330
595
100
AcDbModelDocViewStyle
 70
     0
  3
Metric50
290
     0
100
AcDbDetailViewStyle
 70
     0
 71
     0
 90
        3
 71
     1
340
10
 40
5.0
340
0
 40
5.0
300

 40
0.0
280
     1
 71
     2
340
14
 90
       25
 71
     3
340
10
 40
5.0
 90
        0
 40
15.0
 90
        1
300
%<\AcVar ViewDetailId>% (%<\AcVar ViewScale \f "%sn">%)
 71
     4
340
14
 90
       25
340
14
 90
       25
280
     0
  0
LAYOUT
  5
33B
102
{ACAD_XDICTIONARY
360
40CF
102
}
102
{ACAD_REACTORS
330
301
102
}
330
301
100
AcDbPlotSettings
  1

  2
None
  4
ISO_A4_(210.00_x_297.00_MM)
  6

 40
7.5
 41
20.0
 42
7.5
 43
20.0
 44
210.0
 45
297.0
 46
0.0
 47
0.0
 48
0.0
 49
0.0
140
0.0
141
0.0
142
1.0
143
1.0
 70
   688
 72
     1
 73
     1
 74
     5
  7
monochrome.ctb
 75
    16
147
1.0
148
0.0
149
0.0
100
AcDbLayout
  1
Layout1
 70
     1
 71
     1
 10
-20.0
 20
-7.5
 11
277.0
 21
202.5
 12
0.0
 22
0.0
 32
0.0
 14
25.69999999999999
 24
19.5
 34
0.0
 15
231.3
 25
175.5
 35
0.0
146
0.0
 13
0.0
 23
0.0
 33
0.0
 16
1.0
 26
0.0
 36
0.0
 17
0.0
 27
1.0
 37
0.0
 76
     0
330
338
331
614
1001
ACAD_PSEXT
1000
None
1000
None
1000
Not applicable
1000
The layout will not be plotted unless a new plotter configuration name is selected.
1070
     0
  0
LAYOUT
  5
303
102
{ACAD_XDICTIONARY
360
40CD
102
}
102
{ACAD_REACTORS
330
301
102
}
330
301
100
AcDbPlotSettings
  1

  2
Lexmark Optra Rx
  4
A4
  6

 40
6.805083274841307
 41
5.535083293914794
 42
6.974411010742187
 43
7.14373779296875
 44
209.9733276367186
 45
296.9259948730469
 46
0.0
 47
0.0
 48
0.0
 49
0.0
140
0.0
141
0.0
142
1.0
143
2.976565420630883
 70
 11952
 72
     1
 73
     1
 74
     0
  7
monochrome.ctb
 75
     0
147
0.335957675604539
148
204.1199660668592
149
172.3933209647495
100
AcDbLayout
  1
Model
 70
     1
 71
     0
 10
0.0
 20
0.0
 11
12.0
 21
9.0
 12
0.0
 22
0.0
 32
0.0
 14
0.0
 24
0.0
 34
0.0
 15
0.0
 25
0.0
 35
0.0
146
0.0
 13
0.0
 23
0.0
 33
0.0
 16
1.0
 26
0.0
 36
0.0
 17
0.0
 27
1.0
 37
0.0
 76
     0
330
18
331
39A
  0
MATERIAL
  5
3DC
102
{ACAD_XDICTIONARY
360
55A
102
}
102
{ACAD_REACTORS
330
386
102
}
330
386
100
AcDbMaterial
  1
ByBlock
  0
MATERIAL
  5
3DB
102
{ACAD_XDICTIONARY
360
558
102
}
102
{ACAD_REACTORS
330
386
102
}
330
386
100
AcDbMaterial
  1
ByLayer
  0
MATERIAL
  5
3DD
102
{ACAD_XDICTIONARY
360
55C
102
}
102
{ACAD_REACTORS
330
386
102
}
330
386
100
AcDbMaterial
  1
Global
  0
MLEADERSTYLE
  5
3DF
102
{ACAD_REACTORS
330
3DE
102
}
330
3DE
100
AcDbMLeaderStyle
170
     2
171
     1
172
     0
 90
        2
 40
0.0
 41
0.0
173
     1
 91
-1056964608
340
12
 92
       -2
290
     1
 42
2.0
291
     1
 43
8.0
  3
Standard
 44
4.0
300

342
10
174
     1
178
     6
175
     1
176
     0
 93
-1056964608
 45
4.0
292
     0
297
     0
 46
4.0
 94
-1056964608
 47
1.0
 49
1.0
140
1.0
293
     1
141
0.0
294
     1
177
     0
142
1.0
295
     0
296
     0
143
3.75
1001
ACAD_MLEADERVER
1070
     2
  0
MLINESTYLE
  5
1B
102
{ACAD_REACTORS
330
E
102
}
330
E
100
AcDbMlineStyle
  2
STANDARD
 70
     0
  3

 62
     0
 51
90.0
 52
90.0
 71
     2
 49
0.5
 62
   256
  6
BYLAYER
 49
-0.5
 62
   256
  6
BYLAYER
  0
ACDBPLACEHOLDER
  5
300
102
{ACAD_REACTORS
330
2FF
102
}
330
2FF
  0
SCALE
  5
3A1
102
{ACAD_REACTORS
330
3A0
102
}
330
3A0
100
AcDbScale
 70
     0
300
1:1
140
1.0
141
1.0
290
     1
  0
SCALE
  5
3A2
102
{ACAD_REACTORS
330
3A0
102
}
330
3A0
100
AcDbScale
 70
     0
300
1:2
140
1.0
141
2.0
290
     0
  0
SCALE
  5
3A3
102
{ACAD_REACTORS
330
3A0
102
}
330
3A0
100
AcDbScale
 70
     0
300
1:4
140
1.0
141
4.0
290
     0
  0
SCALE
  5
3A4
102
{ACAD_REACTORS
330
3A0
102
}
330
3A0
100
AcDbScale
 70
     0
300
1:5
140
1.0
141
5.0
290
     0
  0
SCALE
  5
3A5
102
{ACAD_REACTORS
330
3A0
102
}
330
3A0
100
AcDbScale
 70
     0
300
1:8
140
1.0
141
8.0
290
     0
  0
SCALE
  5
3A6
102
{ACAD_REACTORS
330
3A0
102
}
330
3A0
100
AcDbScale
 70
     0
300
1:10
140
1.0
141
10.0
290
     0
  0
SCALE
  5
3A7
102
{ACAD_REACTORS
330
3A0
102
}
330
3A0
100
AcDbScale
 70
     0
300
1:16
140
1.0
141
16.0
290
     0
  0
SCALE
  5
3A8
102
{ACAD_REACTORS
330
3A0
102
}
330
3A0
100
AcDbScale
 70
     0
300
1:20
140
1.0
141
20.0
290
     0
  0
SCALE
  5
3A9
102
{ACAD_REACTORS
330
3A0
102
}
330
3A0
100
AcDbScale
 70
     0
300
1:30
140
1.0
141
30.0
290
     0
  0
SCALE
  5
3AA
102
{ACAD_REACTORS
330
3A0
102
}
330
3A0
100
AcDbScale
 70
     0
300
1:40
140
1.0
141
40.0
290
     0
  0
SCALE
  5
3AB
102
{ACAD_REACTORS
330
3A0
102
}
330
3A0
100
AcDbScale
 70
     0
300
1:50
140
1.0
141
50.0
290
     0
  0
SCALE
  5
3AC
102
{ACAD_REACTORS
330
3A0
102
}
330
3A0
100
AcDbScale
 70
     0
300
1:100
140
1.0
141
100.0
290
     0
  0
SCALE
  5
3AD
102
{ACAD_REACTORS
330
3A0
102
}
330
3A0
100
AcDbScale
 70
     0
300
2:1
140
2.0
141
1.0
290
     0
  0
SCALE
  5
3AE
102
{ACAD_REACTORS
330
3A0
102
}
330
3A0
100
AcDbScale
 70
     0
300
4:1
140
4.0
141
1.0
290
     0
  0
SCALE
  5
3AF
102
{ACAD_REACTORS
330
3A0
102
}
330
3A0
100
AcDbScale
 70
     0
300
8:1
140
8.0
141
1.0
290
     0
  0
SCALE
  5
3B0
102
{ACAD_REACTORS
330
3A0
102
}
330
3A0
100
AcDbScale
 70
     0
300
10:1
140
10.0
141
1.0
290
     0
  0
SCALE
  5
3B1
102
{ACAD_REACTORS
330
3A0
102
}
330
3A0
100
AcDbScale
 70
     0
300
100:1
140
100.0
141
1.0
290
     0
  0
SCALE
  5
3B2
102
{ACAD_REACTORS
330
3A0
102
}
330
3A0
100
AcDbScale
 70
     0
300
1/128" = 1'-0"
140
0.0078125
141
12.0
290
     0
  0
SCALE
  5
3B3
102
{ACAD_REACTORS
330
3A0
102
}
330
3A0
100
AcDbScale
 70
     0
300
1/64" = 1'-0"
140
0.015625
141
12.0
290
     0
  0
SCALE
  5
3B4
102
{ACAD_REACTORS
330
3A0
102
}
330
3A0
100
AcDbScale
 70
     0
300
1/32" = 1'-0"
140
0.03125
141
12.0
290
     0
  0
SCALE
  5
3B5
102
{ACAD_REACTORS
330
3A0
102
}
330
3A0
100
AcDbScale
 70
     0
300
1/16" = 1'-0"
140
0.0625
141
12.0
290
     0
  0
SCALE
  5
3B6
102
{ACAD_REACTORS
330
3A0
102
}
330
3A0
100
AcDbScale
 70
     0
300
3/32" = 1'-0"
140
0.09375
141
12.0
290
     0
  0
SCALE
  5
3B7
102
{ACAD_REACTORS
330
3A0
102
}
330
3A0
100
AcDbScale
 70
     0
300
1/8" = 1'-0"
140
0.125
141
12.0
290
     0
  0
SCALE
  5
3B8
102
{ACAD_REACTORS
330
3A0
102
}
330
3A0
100
AcDbScale
 70
     0
300
3/16" = 1'-0"
140
0.1875
141
12.0
290
     0
  0
SCALE
  5
3B9
102
{ACAD_REACTORS
330
3A0
102
}
330
3A0
100
AcDbScale
 70
     0
300
1/4" = 1'-0"
140
0.25
141
12.0
290
     0
  0
SCALE
  5
3BA
102
{ACAD_REACTORS
330
3A0
102
}
330
3A0
100
AcDbScale
 70
     0
300
3/8" = 1'-0"
140
0.375
141
12.0
290
     0
  0
SCALE
  5
3BB
102
{ACAD_REACTORS
330
3A0
102
}
330
3A0
100
AcDbScale
 70
     0
300
1/2" = 1'-0"
140
0.5
141
12.0
290
     0
  0
SCALE
  5
3BC
102
{ACAD_REACTORS
330
3A0
102
}
330
3A0
100
AcDbScale
 70
     0
300
3/4" = 1'-0"
140
0.75
141
12.0
290
     0
  0
SCALE
  5
3BD
102
{ACAD_REACTORS
330
3A0
102
}
330
3A0
100
AcDbScale
 70
     0
300
1" = 1'-0"
140
1.0
141
12.0
290
     0
  0
SCALE
  5
3BE
102
{ACAD_REACTORS
330
3A0
102
}
330
3A0
100
AcDbScale
 70
     0
300
1-1/2" = 1'-0"
140
1.5
141
12.0
290
     0
  0
SCALE
  5
3BF
102
{ACAD_REACTORS
330
3A0
102
}
330
3A0
100
AcDbScale
 70
     0
300
3" = 1'-0"
140
3.0
141
12.0
290
     0
  0
SCALE
  5
3C0
102
{ACAD_REACTORS
330
3A0
102
}
330
3A0
100
AcDbScale
 70
     0
300
6" = 1'-0"
140
6.0
141
12.0
290
     0
  0
SCALE
  5
3C1
102
{ACAD_REACTORS
330
3A0
102
}
330
3A0
100
AcDbScale
 70
     0
300
1'-0" = 1'-0"
140
12.0
141
12.0
290
     0
  0
ACDBSECTIONVIEWSTYLE
  5
78B
102
{ACAD_XDICTIONARY
360
4108
102
}
102
{ACAD_REACTORS
330
593
102
}
330
593
100
AcDbModelDocViewStyle
 70
     0
  3
Imperial24
290
     0
100
AcDbSectionViewStyle
 70
     0
 71
     0
 90
       78
 71
     1
340
10
 40
0.24
340
0
340
0
 40
0.24
300
I, O, Q, S, X, Z
 40
0.48
 90
        3
 40
0.18
 90
        1
 71
     2
340
14
 90
       25
340
14
 90
       50
 40
0.24
 40
0.0
 40
0.24
 71
     3
340
10
 40
0.24
 90
        1
 40
0.75
 90
        1
300
%<\AcVar ViewType \f "%tc1">% %<\AcVar ViewSectionStartId>%-%<\AcVar ViewSectionEndId>%\PSCALE %<\AcVar ViewScale \f "%sn">%
 71
     4
300
ANSI31
 40
1.0
 90
        0
290
     0
290
     0
 90
        6
 40
0.0
 40
1.570796326794896
 40
0.2617993877991494
 40
1.308996938995747
 40
-0.2617993877991494
 40
1.832595714594044
  0
ACDBSECTIONVIEWSTYLE
  5
594
102
{ACAD_XDICTIONARY
360
4102
102
}
102
{ACAD_REACTORS
330
593
102
}
330
593
100
AcDbModelDocViewStyle
 70
     0
  3
Metric50
290
     0
100
AcDbSectionViewStyle
 70
     0
 71
     0
 90
      102
 71
     1
340
10
 40
5.0
340
0
340
0
 40
5.0
300
I, O, Q, S, X, Z
 40
10.0
 90
        0
 40
2.5
 90
        0
 71
     2
340
14
 90
       25
340
14
 90
       50
 40
5.0
 40
2.5
 40
5.0
 71
     3
340
10
 40
5.0
 90
        0
 40
15.0
 90
        1
300
%<\AcVar ViewSectionStartId>%-%<\AcVar ViewSectionEndId>% (%<\AcVar ViewScale \f "%sn">%)
 71
     4
300
ANSI31
 40
1.0
 90
        0
290
     0
290
     0
 90
        6
 40
0.0
 40
1.570796326794896
 40
0.2617993877991494
 40
1.308996938995747
 40
-0.2617993877991494
 40
1.832595714594044
  0
TABLESTYLE
  5
389
102
{ACAD_XDICTIONARY
360
5C6
102
}
102
{ACAD_REACTORS
330
388
102
}
330
388
100
AcDbTableStyle
  3
Standard
 70
     0
 71
     0
 40
1.5
 41
1.5
280
     0
281
     0
  7
STANDARD
140
4.5
170
     2
 62
     0
 63
     7
283
     0
274
    -2
284
     1
 64
     0
275
    -2
285
     1
 65
     0
276
    -2
286
     1
 66
     0
277
    -2
287
     1
 67
     0
278
    -2
288
     1
 68
     0
279
    -2
289
     1
 69
     0
  7
STANDARD
140
6.0
170
     5
 62
     0
 63
     7
283
     0
274
    -2
284
     1
 64
     0
275
    -2
285
     1
 65
     0
276
    -2
286
     1
 66
     0
277
    -2
287
     1
 67
     0
278
    -2
288
     1
 68
     0
279
    -2
289
     1
 69
     0
  7
STANDARD
140
4.5
170
     5
 62
     0
 63
     7
283
     0
274
    -2
284
     1
 64
     0
275
    -2
285
     1
 65
     0
276
    -2
286
     1
 66
     0
277
    -2
287
     1
 67
     0
278
    -2
288
     1
 68
     0
279
    -2
289
     1
 69
     0
  0
VISUALSTYLE
  5
3C7
102
{ACAD_XDICTIONARY
360
40DA
102
}
102
{ACAD_REACTORS
330
3C2
102
}
330
3C2
100
AcDbVisualStyle
  2

 70
     4
 71
     0
 72
     2
 73
     0
 90
        0
 40
-0.6
 41
-30.0
 62
     5
 63
     7
 74
     1
 91
        4
 64
     7
 65
   257
 75
     1
175
     1
 42
1.0
 92
        0
 66
   257
 43
1.0
 76
     1
 77
     6
 78
     2
 67
     7
 79
     5
170
     0
171
     0
290
     0
174
     0
 93
        1
 44
0.0
173
     0
291
     0
 45
0.0
1001
ACAD
1000
AcDbSavedByObjectVersion
1070
     0
  0
VISUALSTYLE
  5
3CA
102
{ACAD_XDICTIONARY
360
40E0
102
}
102
{ACAD_REACTORS
330
3C2
102
}
330
3C2
100
AcDbVisualStyle
  2

 70
     7
 71
     1
 72
     0
 73
     1
 90
        0
 40
-0.6
 41
-30.0
 62
     5
 63
     7
 74
     0
 91
        4
 64
     7
 65
   257
 75
     1
175
     1
 42
1.0
 92
        8
 66
     7
 43
1.0
 76
     1
 77
     6
 78
     2
 67
     7
 79
     5
170
     0
171
     0
290
     0
174
     0
 93
        1
 44
0.0
173
     0
291
     1
 45
0.0
1001
ACAD
1000
AcDbSavedByObjectVersion
1070
     0
  0
VISUALSTYLE
  5
3CE
102
{ACAD_XDICTIONARY
360
40E8
102
}
102
{ACAD_REACTORS
330
3C2
102
}
330
3C2
100
AcDbVisualStyle
  2

 70
    12
 71
     2
 72
     2
 73
     0
 90
        0
 40
-0.6
 41
-30.0
 62
     5
 63
     7
 74
     1
 91
        4
 64
     7
 65
   257
 75
     1
175
     1
 42
1.0
 92
        8
 66
     7
 43
1.0
 76
     1
 77
     6
 78
     2
 67
     7
 79
     5
170
     0
171
     0
290
     0
174
     0
 93
        1
 44
50.0
173
     0
291
     1
 45
0.0
1001
ACAD
1000
AcDbSavedByObjectVersion
1070
     0
  0
VISUALSTYLE
  5
3D2
102
{ACAD_XDICTIONARY
360
40F0
102
}
102
{ACAD_REACTORS
330
3C2
102
}
330
3C2
100
AcDbVisualStyle
  2

 70
    16
 71
     2
 72
     2
 73
     3
 90
        0
 40
-0.6
 41
-30.0
 62
     5
 63
     8
 74
     1
 91
        4
 64
     7
 65
   257
 75
     1
175
     1
 42
1.0
 92
        8
 66
     8
 43
1.0
 76
     1
 77
     6
 78
     2
 67
     7
 79
     5
170
     0
171
     0
290
     0
174
     0
 93
        1
 44
0.0
173
     0
291
     1
 45
0.0
1001
ACAD
1000
AcDbSavedByObjectVersion
1070
     0
  0
VISUALSTYLE
  5
3CC
102
{ACAD_XDICTIONARY
360
40E4
102
}
102
{ACAD_REACTORS
330
3C2
102
}
330
3C2
100
AcDbVisualStyle
  2

 70
     9
 71
     3
 72
     2
 73
     0
 90
        0
 40
-0.6
 41
-30.0
 62
     5
 63
     7
 74
     2
 91
        2
 64
     7
 65
   257
 75
     1
175
     1
 42
179.0
 92
        8
 66
     7
 43
1.0
 76
     1
 77
     6
 78
     2
 67
     7
 79
     3
170
     0
171
     0
290
     0
174
     0
 93
        1
 44
0.0
173
     0
291
     0
 45
0.0
1001
ACAD
1000
AcDbSavedByObjectVersion
1070
     0
  0
VISUALSTYLE
  5
3CD
102
{ACAD_XDICTIONARY
360
40E6
102
}
102
{ACAD_REACTORS
330
3C2
102
}
330
3C2
100
AcDbVisualStyle
  2

 70
    11
 71
     2
 72
     2
 73
     0
 90
        0
 40
-0.6
 41
-30.0
 62
     5
 63
     7
 74
     1
 91
        4
 64
     7
 65
   257
 75
     1
175
     1
 42
1.0
 92
        8
 66
     7
 43
1.0
 76
     1
 77
     6
 78
     2
 67
     7
 79
     5
170
     0
171
     0
290
     0
174
     0
 93
        1
 44
-50.0
173
     0
291
     1
 45
0.0
1001
ACAD
1000
AcDbSavedByObjectVersion
1070
     0
  0
VISUALSTYLE
  5
3D5
102
{ACAD_XDICTIONARY
360
40F6
102
}
102
{ACAD_REACTORS
330
3C2
102
}
330
3C2
100
AcDbVisualStyle
  2

 70
    22
 71
     2
 72
     2
 73
     0
 90
        0
 40
-0.6
 41
-30.0
 62
     5
 63
     7
 74
     1
 91
        4
 64
     7
 65
   257
 75
     1
175
     1
 42
1.0
 92
        8
 66
     7
 43
1.0
 76
     1
 77
     6
 78
     2
 67
     7
 79
     5
170
     0
171
     0
290
     0
174
     0
 93
        1
 44
0.0
173
     0
291
     1
 45
0.0
1001
ACAD
1000
AcDbSavedByObjectVersion
1070
     0
  0
VISUALSTYLE
  5
3D1
102
{ACAD_XDICTIONARY
360
40EE
102
}
102
{ACAD_REACTORS
330
3C2
102
}
330
3C2
100
AcDbVisualStyle
  2

 70
    15
 71
     2
 72
     2
 73
     0
 90
        0
 40
-0.6
 41
-30.0
 62
     5
 63
     7
 74
     1
 91
        4
 64
     7
 65
   257
 75
     1
175
     1
 42
1.0
 92
        8
 66
     7
 43
1.0
 76
     1
 77
     6
 78
     2
 67
     7
 79
     5
170
     0
171
     0
290
     0
174
     0
 93
        1
 44
0.0
173
     0
291
     1
 45
0.0
1001
ACAD
1000
AcDbSavedByObjectVersion
1070
     0
  0
VISUALSTYLE
  5
3C3
102
{ACAD_XDICTIONARY
360
40D2
102
}
102
{ACAD_REACTORS
330
3C2
102
}
330
3C2
100
AcDbVisualStyle
  2

 70
     0
 71
     2
 72
     1
 73
     1
 90
        2
 40
-0.6
 41
30.0
 62
     5
 63
     7
 74
     0
 91
        0
 64
     7
 65
   257
 75
     1
175
     1
 42
1.0
 92
        8
 66
     7
 43
1.0
 76
     1
 77
     6
 78
     2
 67
     7
 79
     5
170
     0
171
     0
290
     0
174
     0
 93
       13
 44
0.0
173
     0
291
     1
 45
0.0
1001
ACAD
1000
AcDbSavedByObjectVersion
1070
     0
  0
VISUALSTYLE
  5
3C4
102
{ACAD_XDICTIONARY
360
40D4
102
}
102
{ACAD_REACTORS
330
3C2
102
}
330
3C2
100
AcDbVisualStyle
  2

 70
     1
 71
     2
 72
     1
 73
     1
 90
        2
 40
-0.6
 41
30.0
 62
     5
 63
     7
 74
     1
 91
        0
 64
     7
 65
   257
 75
     1
175
     1
 42
1.0
 92
        0
 66
   257
 43
1.0
 76
     1
 77
     6
 78
     2
 67
     7
 79
     5
170
     0
171
     0
290
     0
174
     0
 93
       13
 44
0.0
173
     0
291
     1
 45
0.0
1001
ACAD
1000
AcDbSavedByObjectVersion
1070
     0
  0
VISUALSTYLE
  5
3C5
102
{ACAD_XDICTIONARY
360
40D6
102
}
102
{ACAD_REACTORS
330
3C2
102
}
330
3C2
100
AcDbVisualStyle
  2

 70
     2
 71
     2
 72
     2
 73
     1
 90
        2
 40
-0.6
 41
30.0
 62
     5
 63
     7
 74
     0
 91
        0
 64
     7
 65
   257
 75
     1
175
     1
 42
1.0
 92
        0
 66
     7
 43
1.0
 76
     1
 77
     6
 78
     2
 67
     7
 79
     5
170
     0
171
     0
290
     0
174
     0
 93
       13
 44
0.0
173
     0
291
     1
 45
0.0
1001
ACAD
1000
AcDbSavedByObjectVersion
1070
     0
  0
VISUALSTYLE
  5
3C6
102
{ACAD_XDICTIONARY
360
40D8
102
}
102
{ACAD_REACTORS
330
3C2
102
}
330
3C2
100
AcDbVisualStyle
  2

 70
     3
 71
     2
 72
     2
 73
     1
 90
        2
 40
-0.6
 41
30.0
 62
     5
 63
     7
 74
     1
 91
        0
 64
     7
 65
   257
 75
     1
175
     1
 42
1.0
 92
        0
 66
   257
 43
1.0
 76
     1
 77
     6
 78
     2
 67
     7
 79
     5
170
     0
171
     0
290
     0
174
     0
 93
       13
 44
0.0
173
     0
291
     1
 45
0.0
1001
ACAD
1000
AcDbSavedByObjectVersion
1070
     0
  0
VISUALSTYLE
  5
3C9
102
{ACAD_XDICTIONARY
360
40DE
102
}
102
{ACAD_REACTORS
330
3C2
102
}
330
3C2
100
AcDbVisualStyle
  2

 70
     6
 71
     1
 72
     2
 73
     2
 90
        0
 40
-0.6
 41
-30.0
 62
     5
 63
     7
 74
     2
 91
        2
 64
     7
 65
   257
 75
     2
175
     1
 42
40.0
 92
        0
 66
   257
 43
1.0
 76
     1
 77
     6
 78
     2
 67
     7
 79
     3
170
     0
171
     0
290
     0
174
     0
 93
        1
 44
0.0
173
     0
291
     0
 45
0.0
1001
ACAD
1000
AcDbSavedByObjectVersion
1070
     0
  0
VISUALSTYLE
  5
3D3
102
{ACAD_XDICTIONARY
360
40F2
102
}
102
{ACAD_REACTORS
330
3C2
102
}
330
3C2
100
AcDbVisualStyle
  2

 70
    20
 71
     2
 72
     2
 73
     0
 90
        0
 40
-0.6
 41
-30.0
 62
     5
 63
     7
 74
     1
 91
        4
 64
     7
 65
   257
 75
     1
175
     1
 42
1.0
 92
       10
 66
     7
 43
1.0
 76
     1
 77
     6
 78
     2
 67
     7
 79
     5
170
     0
171
     0
290
     0
174
     0
 93
        1
 44
0.0
173
     0
291
     1
 45
0.0
1001
ACAD
1000
AcDbSavedByObjectVersion
1070
     0
  0
VISUALSTYLE
  5
3D0
102
{ACAD_XDICTIONARY
360
40EC
102
}
102
{ACAD_REACTORS
330
3C2
102
}
330
3C2
100
AcDbVisualStyle
  2

 70
    14
 71
     2
 72
     2
 73
     0
 90
        0
 40
-0.6
 41
-30.0
 62
     5
 63
     7
 74
     1
 91
        4
 64
     7
 65
   257
 75
     7
175
     7
 42
1.0
 92
        8
 66
     7
 43
1.0
 76
     1
 77
     6
 78
     2
 67
     7
 79
     5
170
     0
171
     0
290
     0
174
     0
 93
        1
 44
0.0
173
     0
291
     1
 45
0.0
1001
ACAD
1000
AcDbSavedByObjectVersion
1070
     0
  0
VISUALSTYLE
  5
3D4
102
{ACAD_XDICTIONARY
360
40F4
102
}
102
{ACAD_REACTORS
330
3C2
102
}
330
3C2
100
AcDbVisualStyle
  2

 70
    21
 71
     2
 72
     2
 73
     0
 90
        0
 40
-0.6
 41
-30.0
 62
     5
 63
     7
 74
     1
 91
        4
 64
     7
 65
   257
 75
     1
175
     1
 42
1.0
 92
        9
 66
     7
 43
1.0
 76
     1
 77
     6
 78
     2
 67
     7
 79
     5
170
     0
171
     0
290
     0
174
     0
 93
        1
 44
0.0
173
     0
291
     1
 45
0.0
1001
ACAD
1000
AcDbSavedByObjectVersion
1070
     0
  0
VISUALSTYLE
  5
3CB
102
{ACAD_XDICTIONARY
360
40E2
102
}
102
{ACAD_REACTORS
330
3C2
102
}
330
3C2
100
AcDbVisualStyle
  2

 70
     8
 71
     2
 72
     3
 73
     0
 90
        2
 40
-0.6
 41
30.0
 62
     5
 63
     7
 74
     0
 91
        0
 64
     7
 65
   257
 75
     1
175
     1
 42
1.0
 92
        8
 66
   257
 43
1.0
 76
     1
 77
     6
 78
     2
 67
     7
 79
     3
170
     0
171
     0
290
     0
174
     0
 93
       13
 44
0.0
173
     0
291
     0
 45
0.0
1001
ACAD
1000
AcDbSavedByObjectVersion
1070
     0
  0
VISUALSTYLE
  5
3DA
102
{ACAD_XDICTIONARY
360
4100
102
}
102
{ACAD_REACTORS
330
3C2
102
}
330
3C2
100
AcDbVisualStyle
  2

 70
    27
 71
     2
 72
     2
 73
     1
 90
        2
 40
-0.6
 41
30.0
 62
     5
 63
     7
 74
     0
 91
        4
 64
     7
 65
   257
 75
     1
175
     1
 42
1.0
 92
        8
 66
   257
 43
1.0
 76
     1
 77
     6
 78
     2
 67
     8
 79
     3
170
     0
171
     0
290
     0
174
     0
 93
        5
 44
0.0
173
     0
291
     0
 45
0.0
1001
ACAD
1000
AcDbSavedByObjectVersion
1070
     0
  0
VISUALSTYLE
  5
3D9
102
{ACAD_XDICTIONARY
360
40FE
102
}
102
{ACAD_REACTORS
330
3C2
102
}
330
3C2
100
AcDbVisualStyle
  2

 70
    26
 71
     2
 72
     2
 73
     1
 90
        2
 40
-0.6
 41
30.0
 62
     5
 63
     7
 74
     1
 91
        2
 64
     7
 65
   257
 75
     2
175
     1
 42
1.0
 92
        8
 66
   257
 43
1.0
 76
     1
 77
     6
 78
     2
 67
     7
 79
     3
170
     0
171
     0
290
     0
174
     0
 93
        5
 44
0.0
173
     0
291
     0
 45
0.0
1001
ACAD
1000
AcDbSavedByObjectVersion
1070
     0
  0
VISUALSTYLE
  5
3D6
102
{ACAD_XDICTIONARY
360
40F8
102
}
102
{ACAD_REACTORS
330
3C2
102
}
330
3C2
100
AcDbVisualStyle
  2

 70
    23
 71
     2
 72
     2
 73
     3
 90
        0
 40
-0.6
 41
-30.0
 62
     5
 63
     7
 74
     2
 91
        2
 64
     7
 65
     7
 75
     1
175
     1
 42
40.0
 92
        8
 66
     7
 43
1.0
 76
     1
 77
     6
 78
     2
 67
     7
 79
     3
170
     0
171
     0
290
     0
174
     0
 93
        1
 44
0.0
173
     0
291
     0
 45
0.0
1001
ACAD
1000
AcDbSavedByObjectVersion
1070
     0
  0
VISUALSTYLE
  5
3D7
102
{ACAD_XDICTIONARY
360
40FA
102
}
102
{ACAD_REACTORS
330
3C2
102
}
330
3C2
100
AcDbVisualStyle
  2

 70
    24
 71
     1
 72
     2
 73
     2
 90
        0
 40
-0.6
 41
-30.0
 62
     5
 63
     7
 74
     2
 91
        2
 64
     7
 65
     7
 75
     1
175
     1
 42
40.0
 92
       11
 66
     7
 43
1.0
 76
     1
 77
     6
 78
     2
 67
     7
 79
     6
170
     0
171
     0
290
     0
174
     0
 93
        1
 44
0.0
173
     0
291
     0
 45
0.0
1001
ACAD
1000
AcDbSavedByObjectVersion
1070
     0
  0
VISUALSTYLE
  5
3CF
102
{ACAD_XDICTIONARY
360
40EA
102
}
102
{ACAD_REACTORS
330
3C2
102
}
330
3C2
100
AcDbVisualStyle
  2

 70
    13
 71
     2
 72
     2
 73
     0
 90
        0
 40
-0.6
 41
-30.0
 62
     5
 63
     7
 74
     1
 91
        4
 64
     7
 65
   257
 75
     1
175
     1
 42
1.0
 92
       12
 66
     7
 43
1.0
 76
     1
 77
     6
 78
     2
 67
     7
 79
     5
170
     0
171
     0
290
     0
174
     0
 93
        1
 44
0.0
173
     0
291
     1
 45
0.0
1001
ACAD
1000
AcDbSavedByObjectVersion
1070
     0
  0
VISUALSTYLE
  5
3C8
102
{ACAD_XDICTIONARY
360
40DC
102
}
102
{ACAD_REACTORS
330
3C2
102
}
330
3C2
100
AcDbVisualStyle
  2

 70
     5
 71
     0
 72
     2
 73
     0
 90
        0
 40
-0.6
 41
-30.0
 62
     5
 63
     7
 74
     1
 91
        4
 64
     7
 65
   257
 75
     1
175
     1
 42
1.0
 92
        0
 66
   257
 43
1.0
 76
     1
 77
     6
 78
     2
 67
     7
 79
     3
170
     0
171
     0
290
     0
174
     0
 93
        1
 44
0.0
173
     0
291
     0
 45
0.0
1001
ACAD
1000
AcDbSavedByObjectVersion
1070
     0
  0
VISUALSTYLE
  5
3D8
102
{ACAD_XDICTIONARY
360
40FC
102
}
102
{ACAD_REACTORS
330
3C2
102
}
330
3C2
100
AcDbVisualStyle
  2

 70
    25
 71
     2
 72
     2
 73
     1
 90
        1
 40
0.5
 41
-30.0
 62
     5
 63
     7
 74
     1
 91
        0
 64
     7
 65
   257
 75
     1
175
     1
 42
1.0
 92
        8
 66
     7
 43
1.0
 76
     1
 77
     6
 78
     2
 67
     7
 79
     3
170
     0
171
     0
290
     0
174
     0
 93
       13
 44
0.0
173
     0
291
     0
 45
0.0
1001
ACAD
1000
AcDbSavedByObjectVersion
1070
     0
  0
DICTIONARYVAR
  5
656
102
{ACAD_REACTORS
330
357
102
}
330
357
100
DictionaryVariables
280
     0
  1
0
  0
DICTIONARYVAR
  5
557
102
{ACAD_REACTORS
330
357
102
}
330
357
100
DictionaryVariables
280
     0
  1
1:1
  0
DICTIONARYVAR
  5
54E
102
{ACAD_REACTORS
330
357
102
}
330
357
100
DictionaryVariables
280
     0
  1
STANDARD
  0
DICTIONARYVAR
  5
38D
102
{ACAD_REACTORS
330
357
102
}
330
357
100
DictionaryVariables
280
     0
  1
STANDARD
  0
DICTIONARYVAR
  5
5C2
102
{ACAD_REACTORS
330
357
102
}
330
357
100
DictionaryVariables
280
     0
  1
Metric50
  0
DICTIONARYVAR
  5
5C3
102
{ACAD_REACTORS
330
357
102
}
330
357
100
DictionaryVariables
280
     0
  1
Metric50
  0
DICTIONARYVAR
  5
359
102
{ACAD_REACTORS
330
357
102
}
330
357
100
DictionaryVariables
280
     0
  1
2
  0
DICTIONARYVAR
  5
358
102
{ACAD_REACTORS
330
357
102
}
330
357
100
DictionaryVariables
280
     0
  1
1
  0
DICTIONARYVAR
  5
658
102
{ACAD_REACTORS
330
357
102
}
330
357
100
DictionaryVariables
280
     0
  1
0
  0
DICTIONARYVAR
  5
54F
102
{ACAD_REACTORS
330
357
102
}
330
357
100
DictionaryVariables
280
     0
  1
0
  0
DICTIONARYVAR
  5
38E
102
{ACAD_REACTORS
330
357
102
}
330
357
100
DictionaryVariables
280
     0
  1

  0
DICTIONARYVAR
  5
657
102
{ACAD_REACTORS
330
357
102
}
330
357
100
DictionaryVariables
280
     0
  1
127
  0
DICTIONARYVAR
  5
3E76
102
{ACAD_REACTORS
330
357
102
}
330
357
100
DictionaryVariables
280
     0
  1
2
  0
XRECORD
  5
16FB
102
{ACAD_REACTORS
330
16FA
102
}
330
16FA
100
AcDbXrecord
280
     1
  0
DICTIONARY
  5
410A
330
78C
100
AcDbDictionary
280
     1
281
     1
  3
ACAD_XREC_ROUNDTRIP
360
410B
  0
DICTIONARY
  5
4104
330
596
100
AcDbDictionary
280
     1
281
     1
  3
ACAD_XREC_ROUNDTRIP
360
4105
  0
DICTIONARY
  5
40CF
330
33B
100
AcDbDictionary
280
     1
281
     1
  3
ACAD_XREC_ROUNDTRIP
360
40D0
  0
DICTIONARY
  5
40CD
330
303
100
AcDbDictionary
280
     1
281
     1
  3
ACAD_XREC_ROUNDTRIP
360
40CE
  0
DICTIONARY
  5
55A
330
3DC
100
AcDbDictionary
280
     1
281
     1
  3
ACAD_XREC_ROUNDTRIP
360
55B
  0
DICTIONARY
  5
558
330
3DB
100
AcDbDictionary
280
     1
281
     1
  3
ACAD_XREC_ROUNDTRIP
360
559
  0
DICTIONARY
  5
55C
330
3DD
100
AcDbDictionary
280
     1
281
     1
  3
ACAD_XREC_ROUNDTRIP
360
55D
  0
DICTIONARY
  5
4108
330
78B
100
AcDbDictionary
280
     1
281
     1
  3
ACAD_XREC_ROUNDTRIP
360
4109
  0
DICTIONARY
  5
4102
330
594
100
AcDbDictionary
280
     1
281
     1
  3
ACAD_XREC_ROUNDTRIP
360
4103
  0
DICTIONARY
  5
5C6
330
389
100
AcDbDictionary
280
     1
281
     1
  3
ACAD_ROUNDTRIP_2008_TABLESTYLE_CELLSTYLEMAP
360
40C4
  3
ACAD_XREC_ROUNDTRIP
360
40D1
  0
DICTIONARY
  5
40DA
330
3C7
100
AcDbDictionary
280
     1
281
     1
  3
ACAD_XREC_ROUNDTRIP
360
40DB
  0
DICTIONARY
  5
40E0
330
3CA
100
AcDbDictionary
280
     1
281
     1
  3
ACAD_XREC_ROUNDTRIP
360
40E1
  0
DICTIONARY
  5
40E8
330
3CE
100
AcDbDictionary
280
     1
281
     1
  3
ACAD_XREC_ROUNDTRIP
360
40E9
  0
DICTIONARY
  5
40F0
330
3D2
100
AcDbDictionary
280
     1
281
     1
  3
ACAD_XREC_ROUNDTRIP
360
40F1
  0
DICTIONARY
  5
40E4
330
3CC
100
AcDbDictionary
280
     1
281
     1
  3
ACAD_XREC_ROUNDTRIP
360
40E5
  0
DICTIONARY
  5
40E6
330
3CD
100
AcDbDictionary
280
     1
281
     1
  3
ACAD_XREC_ROUNDTRIP
360
40E7
  0
DICTIONARY
  5
40F6
330
3D5
100
AcDbDictionary
280
     1
281
     1
  3
ACAD_XREC_ROUNDTRIP
360
40F7
  0
DICTIONARY
  5
40EE
330
3D1
100
AcDbDictionary
280
     1
281
     1
  3
ACAD_XREC_ROUNDTRIP
360
40EF
  0
DICTIONARY
  5
40D2
330
3C3
100
AcDbDictionary
280
     1
281
     1
  3
ACAD_XREC_ROUNDTRIP
360
40D3
  0
DICTIONARY
  5
40D4
330
3C4
100
AcDbDictionary
280
     1
281
     1
  3
ACAD_XREC_ROUNDTRIP
360
40D5
  0
DICTIONARY
  5
40D6
330
3C5
100
AcDbDictionary
280
     1
281
     1
  3
ACAD_XREC_ROUNDTRIP
360
40D7
  0
DICTIONARY
  5
40D8
330
3C6
100
AcDbDictionary
280
     1
281
     1
  3
ACAD_XREC_ROUNDTRIP
360
40D9
  0
DICTIONARY
  5
40DE
330
3C9
100
AcDbDictionary
280
     1
281
     1
  3
ACAD_XREC_ROUNDTRIP
360
40DF
  0
DICTIONARY
  5
40F2
330
3D3
100
AcDbDictionary
280
     1
281
     1
  3
ACAD_XREC_ROUNDTRIP
360
40F3
  0
DICTIONARY
  5
40EC
330
3D0
100
AcDbDictionary
280
     1
281
     1
  3
ACAD_XREC_ROUNDTRIP
360
40ED
  0
DICTIONARY
  5
40F4
330
3D4
100
AcDbDictionary
280
     1
281
     1
  3
ACAD_XREC_ROUNDTRIP
360
40F5
  0
DICTIONARY
  5
40E2
330
3CB
100
AcDbDictionary
280
     1
281
     1
  3
ACAD_XREC_ROUNDTRIP
360
40E3
  0
DICTIONARY
  5
4100
330
3DA
100
AcDbDictionary
280
     1
281
     1
  3
ACAD_XREC_ROUNDTRIP
360
4101
  0
DICTIONARY
  5
40FE
330
3D9
100
AcDbDictionary
280
     1
281
     1
  3
ACAD_XREC_ROUNDTRIP
360
40FF
  0
DICTIONARY
  5
40F8
330
3D6
100
AcDbDictionary
280
     1
281
     1
  3
ACAD_XREC_ROUNDTRIP
360
40F9
  0
DICTIONARY
  5
40FA
330
3D7
100
AcDbDictionary
280
     1
281
     1
  3
ACAD_XREC_ROUNDTRIP
360
40FB
  0
DICTIONARY
  5
40EA
330
3CF
100
AcDbDictionary
280
     1
281
     1
  3
ACAD_XREC_ROUNDTRIP
360
40EB
  0
DICTIONARY
  5
40DC
330
3C8
100
AcDbDictionary
280
     1
281
     1
  3
ACAD_XREC_ROUNDTRIP
360
40DD
  0
DICTIONARY
  5
40FC
330
3D8
100
AcDbDictionary
280
     1
281
     1
  3
ACAD_XREC_ROUNDTRIP
360
40FD
  0
XRECORD
  5
410B
102
{ACAD_REACTORS
330
410A
102
}
330
410A
100
AcDbXrecord
280
     1
102
DISPLAYNAME
  1
Imperial24
102
FLAGS
 90
        0
  0
XRECORD
  5
4105
102
{ACAD_REACTORS
330
4104
102
}
330
4104
100
AcDbXrecord
280
     1
102
DISPLAYNAME
  1
Metric50
102
FLAGS
 90
        0
  0
XRECORD
  5
40D0
102
{ACAD_REACTORS
330
40CF
102
}
330
40CF
100
AcDbXrecord
280
     1
102
SHADEPLOT
 70
     0
102
SHADEPLOTRESLEVEL
 70
     2
102
SHADEPLOTCUSTOMDPI
 70
   300
  0
XRECORD
  5
40CE
102
{ACAD_REACTORS
330
40CD
102
}
330
40CD
100
AcDbXrecord
280
     1
102
SHADEPLOT
 70
     0
102
SHADEPLOTRESLEVEL
 70
     2
102
SHADEPLOTCUSTOMDPI
 70
   300
  0
XRECORD
  5
55B
102
{ACAD_REACTORS
330
55A
102
}
330
55A
100
AcDbXrecord
280
     1
102
MATERIAL
148
0.0
149
0.0
149
0.0
 93
        0
 94
      127
282
     0
 72
     1
 77
     1
171
     1
175
     1
179
     1
273
     0
  0
XRECORD
  5
559
102
{ACAD_REACTORS
330
558
102
}
330
558
100
AcDbXrecord
280
     1
102
MATERIAL
148
0.0
149
0.0
149
0.0
 93
        0
 94
      127
282
     0
 72
     1
 77
     1
171
     1
175
     1
179
     1
273
     0
  0
XRECORD
  5
55D
102
{ACAD_REACTORS
330
55C
102
}
330
55C
100
AcDbXrecord
280
     1
102
MATERIAL
148
0.0
149
0.0
149
0.0
 93
        0
 94
      127
282
     0
 72
     1
 77
     1
171
     1
175
     1
179
     1
273
     0
  0
XRECORD
  5
4109
102
{ACAD_REACTORS
330
4108
102
}
330
4108
100
AcDbXrecord
280
     1
102
DISPLAYNAME
  1
Imperial24
102
FLAGS
 90
        0
  0
XRECORD
  5
4103
102
{ACAD_REACTORS
330
4102
102
}
330
4102
100
AcDbXrecord
280
     1
102
DISPLAYNAME
  1
Metric50
102
FLAGS
 90
        0
  0
CELLSTYLEMAP
  5
40C4
102
{ACAD_REACTORS
330
5C6
102
}
330
5C6
100
AcDbCellStyleMap
 90
        3
300
CELLSTYLE
  1
TABLEFORMAT_BEGIN
 90
        5
170
     1
 91
        0
 92
    32768
 62
   257
 93
        1
300
CONTENTFORMAT
  1
CONTENTFORMAT_BEGIN
 90
        0
 91
        0
 92
        4
 93
        0
300

 40
0.0
140
1.0
 94
        5
 62
     0
340
10
144
6.0
309
CONTENTFORMAT_END
171
     1
301
MARGIN
  1
CELLMARGIN_BEGIN
 40
1.5
 40
1.5
 40
1.5
 40
1.5
 40
0.18
 40
0.18
309
CELLMARGIN_END
 94
        6
 95
        1
302
GRIDFORMAT
  1
GRIDFORMAT_BEGIN
 90
        0
 91
        1
 62
     0
 92
       -2
340
0
 93
        0
 40
0.045
309
GRIDFORMAT_END
 95
        2
302
GRIDFORMAT
  1
GRIDFORMAT_BEGIN
 90
        0
 91
        1
 62
     0
 92
       -2
340
0
 93
        0
 40
0.045
309
GRIDFORMAT_END
 95
        4
302
GRIDFORMAT
  1
GRIDFORMAT_BEGIN
 90
        0
 91
        1
 62
     0
 92
       -2
340
0
 93
        0
 40
0.045
309
GRIDFORMAT_END
 95
        8
302
GRIDFORMAT
  1
GRIDFORMAT_BEGIN
 90
        0
 91
        1
 62
     0
 92
       -2
340
0
 93
        0
 40
0.045
309
GRIDFORMAT_END
 95
       16
302
GRIDFORMAT
  1
GRIDFORMAT_BEGIN
 90
        0
 91
        1
 62
     0
 92
       -2
340
0
 93
        0
 40
0.045
309
GRIDFORMAT_END
 95
       32
302
GRIDFORMAT
  1
GRIDFORMAT_BEGIN
 90
        0
 91
        1
 62
     0
 92
       -2
340
0
 93
        0
 40
0.045
309
GRIDFORMAT_END
309
TABLEFORMAT_END
  1
CELLSTYLE_BEGIN
 90
        1
 91
        1
300
_TITLE
309
CELLSTYLE_END
300
CELLSTYLE
  1
TABLEFORMAT_BEGIN
 90
        5
170
     1
 91
        0
 92
        0
 62
   257
 93
        1
300
CONTENTFORMAT
  1
CONTENTFORMAT_BEGIN
 90
        0
 91
        0
 92
        4
 93
        0
300

 40
0.0
140
1.0
 94
        5
 62
     0
340
10
144
4.5
309
CONTENTFORMAT_END
171
     1
301
MARGIN
  1
CELLMARGIN_BEGIN
 40
1.5
 40
1.5
 40
1.5
 40
1.5
 40
0.18
 40
0.18
309
CELLMARGIN_END
 94
        6
 95
        1
302
GRIDFORMAT
  1
GRIDFORMAT_BEGIN
 90
        0
 91
        1
 62
     0
 92
       -2
340
0
 93
        0
 40
0.045
309
GRIDFORMAT_END
 95
        2
302
GRIDFORMAT
  1
GRIDFORMAT_BEGIN
 90
        0
 91
        1
 62
     0
 92
       -2
340
0
 93
        0
 40
0.045
309
GRIDFORMAT_END
 95
        4
302
GRIDFORMAT
  1
GRIDFORMAT_BEGIN
 90
        0
 91
        1
 62
     0
 92
       -2
340
0
 93
        0
 40
0.045
309
GRIDFORMAT_END
 95
        8
302
GRIDFORMAT
  1
GRIDFORMAT_BEGIN
 90
        0
 91
        1
 62
     0
 92
       -2
340
0
 93
        0
 40
0.045
309
GRIDFORMAT_END
 95
       16
302
GRIDFORMAT
  1
GRIDFORMAT_BEGIN
 90
        0
 91
        1
 62
     0
 92
       -2
340
0
 93
        0
 40
0.045
309
GRIDFORMAT_END
 95
       32
302
GRIDFORMAT
  1
GRIDFORMAT_BEGIN
 90
        0
 91
        1
 62
     0
 92
       -2
340
0
 93
        0
 40
0.045
309
GRIDFORMAT_END
309
TABLEFORMAT_END
  1
CELLSTYLE_BEGIN
 90
        2
 91
        1
300
_HEADER
309
CELLSTYLE_END
300
CELLSTYLE
  1
TABLEFORMAT_BEGIN
 90
        5
170
     1
 91
        0
 92
        0
 62
   257
 93
        1
300
CONTENTFORMAT
  1
CONTENTFORMAT_BEGIN
 90
        0
 91
        0
 92
        4
 93
        0
300

 40
0.0
140
1.0
 94
        2
 62
     0
340
10
144
4.5
309
CONTENTFORMAT_END
171
     1
301
MARGIN
  1
CELLMARGIN_BEGIN
 40
1.5
 40
1.5
 40
1.5
 40
1.5
 40
0.18
 40
0.18
309
CELLMARGIN_END
 94
        6
 95
        1
302
GRIDFORMAT
  1
GRIDFORMAT_BEGIN
 90
        0
 91
        1
 62
     0
 92
       -2
340
0
 93
        0
 40
0.045
309
GRIDFORMAT_END
 95
        2
302
GRIDFORMAT
  1
GRIDFORMAT_BEGIN
 90
        0
 91
        1
 62
     0
 92
       -2
340
0
 93
        0
 40
0.045
309
GRIDFORMAT_END
 95
        4
302
GRIDFORMAT
  1
GRIDFORMAT_BEGIN
 90
        0
 91
        1
 62
     0
 92
       -2
340
0
 93
        0
 40
0.045
309
GRIDFORMAT_END
 95
        8
302
GRIDFORMAT
  1
GRIDFORMAT_BEGIN
 90
        0
 91
        1
 62
     0
 92
       -2
340
0
 93
        0
 40
0.045
309
GRIDFORMAT_END
 95
       16
302
GRIDFORMAT
  1
GRIDFORMAT_BEGIN
 90
        0
 91
        1
 62
     0
 92
       -2
340
0
 93
        0
 40
0.045
309
GRIDFORMAT_END
 95
       32
302
GRIDFORMAT
  1
GRIDFORMAT_BEGIN
 90
        0
 91
        1
 62
     0
 92
       -2
340
0
 93
        0
 40
0.045
309
GRIDFORMAT_END
309
TABLEFORMAT_END
  1
CELLSTYLE_BEGIN
 90
        3
 91
        2
300
_DATA
309
CELLSTYLE_END
  0
XRECORD
  5
40D1
102
{ACAD_REACTORS
330
5C6
102
}
330
5C6
100
AcDbXrecord
280
     1
102
ACAD_ROUNDTRIP_PRE2007_TABLESTYLE
 90
        4
 91
        0
  1

 92
        4
 93
        0
  2

 94
        4
 95
        0
  3

  0
XRECORD
  5
40DB
102
{ACAD_REACTORS
330
40DA
102
}
330
40DA
100
AcDbXrecord
280
     1
102
RTVSPost2010Prop28
280
     1
102
RTVSPost2010PropOp28
 70
     1
102
RTVSPost2010Prop29
280
     1
102
RTVSPost2010PropOp29
 70
     1
102
RTVSPost2010Prop30
280
     0
102
RTVSPost2010PropOp30
 70
     1
102
RTVSPost2010Prop31
280
     0
102
RTVSPost2010PropOp31
 70
     1
102
RTVSPost2010Prop32
280
     0
102
RTVSPost2010PropOp32
 70
     1
102
RTVSPost2010Prop33
280
     0
102
RTVSPost2010PropOp33
 70
     1
102
RTVSPost2010Prop34
280
     0
102
RTVSPost2010PropOp34
 70
     1
102
RTVSPost2010Prop35
280
     0
102
RTVSPost2010PropOp35
 70
     1
102
RTVSPost2010Prop36
280
     0
102
RTVSPost2010PropOp36
 70
     1
102
RTVSPost2010Prop37
 90
       50
102
RTVSPost2010PropOp37
 70
     1
102
RTVSPost2010Prop38
140
0.0
102
RTVSPost2010PropOp38
 70
     1
102
RTVSPost2010Prop39
140
1.0
102
RTVSPost2010PropOp39
 70
     1
102
RTVSPost2010Prop40
 90
        0
102
RTVSPost2010PropOp40
 70
     1
102
RTVSPost2010Prop41ColorIndex
 90
       18
102
RTVSPost2010Prop41ColorRGB
 90
        0
102
RTVSPost2010PropOp41
 70
     1
102
RTVSPost2010Prop42
 90
       50
102
RTVSPost2010PropOp42
 70
     1
102
RTVSPost2010Prop43
 90
        3
102
RTVSPost2010PropOp43
 70
     1
102
RTVSPost2010Prop44ColorIndex
 90
        5
102
RTVSPost2010Prop44ColorRGB
 90
      255
102
RTVSPost2010PropOp44
 70
     1
102
RTVSPost2010Prop45
280
     0
102
RTVSPost2010PropOp45
 70
     1
102
RTVSPost2010Prop46
 90
       50
102
RTVSPost2010PropOp46
 70
     1
102
RTVSPost2010Prop47
 90
       50
102
RTVSPost2010PropOp47
 70
     1
102
RTVSPost2010Prop48
 90
       50
102
RTVSPost2010PropOp48
 70
     1
102
RTVSPost2010Prop49
280
     0
102
RTVSPost2010PropOp49
 70
     1
102
RTVSPost2010Prop50
 90
       50
102
RTVSPost2010PropOp50
 70
     1
102
RTVSPost2010Prop51ColorIndex
 90
      256
102
RTVSPost2010Prop51ColorRGB
 90
-16777216
102
RTVSPost2010PropOp51
 70
     0
102
RTVSPost2010Prop52
140
1.0
102
RTVSPost2010PropOp52
 70
     0
102
RTVSPost2010Prop53
 90
        2
102
RTVSPost2010PropOp53
 70
     1
102
RTVSPost2010Prop54
  1
strokes_ogs.tif
102
RTVSPost2010PropOp54
 70
     1
102
RTVSPost2010Prop55
280
     0
102
RTVSPost2010PropOp55
 70
     1
102
RTVSPost2010Prop56
140
1.0
102
RTVSPost2010PropOp56
 70
     1
102
RTVSPost2010Prop57
140
1.0
102
RTVSPost2010PropOp57
 70
     1
102
RTVSPropertyOp0
 70
     1
102
RTVSPropertyOp1
 70
     1
102
RTVSPropertyOp2
 70
     1
102
RTVSPropertyOp3
 70
     1
102
RTVSPropertyOp4
 70
     1
102
RTVSPropertyOp5
 70
     1
102
RTVSPropertyOp6
 70
     1
102
RTVSPropertyOp7
 70
     1
102
RTVSPropertyOp8
 70
     1
102
RTVSPropertyOp9
 70
     1
102
RTVSPropertyOp10
 70
     1
102
RTVSPropertyOp11
 70
     1
102
RTVSPropertyOp12
 70
     1
102
RTVSPropertyOp13
 70
     1
102
RTVSPropertyOp14
 70
     1
102
RTVSPropertyOp15
 70
     1
102
RTVSPropertyOp16
 70
     1
102
RTVSPropertyOp17
 70
     1
102
RTVSPropertyOp18
 70
     1
102
RTVSPropertyOp19
 70
     1
102
RTVSPropertyOp20
 70
     1
102
RTVSPropertyOp21
 70
     1
102
RTVSPropertyOp22
 70
     1
102
RTVSPropertyOp23
 70
     1
102
RTVSPropertyOp24
 70
     1
102
RTVSPropertyOp25
 70
     1
102
RTVSPropertyOp26
 70
     1
102
RTVSPropertyOp27
 70
     1
102
RTVSPropertyOp28
 70
     1
102
RTVSPropertyOp29
 70
     1
102
RTVSPropertyOp30
 70
     1
102
RTVSPropertyOp31
 70
     1
102
RTVSPropertyOp32
 70
     1
102
RTVSPropertyOp33
 70
     1
102
RTVSPropertyOp34
 70
     1
102
RTVSPropertyOp35
 70
     1
102
RTVSPropertyOp36
 70
     1
102
RTVSPropertyOp37
 70
     1
102
RTVSPropertyOp38
 70
     1
102
RTVSPropertyOp39
 70
     1
102
RTVSPropertyOp40
 70
     1
102
RTVSPropertyOp41
 70
     1
102
RTVSPropertyOp42
 70
     1
102
RTVSPropertyOp43
 70
     1
102
RTVSPropertyOp44
 70
     1
102
RTVSPropertyOp45
 70
     1
102
RTVSPropertyOp46
 70
     1
102
RTVSPropertyOp47
 70
     1
102
RTVSPropertyOp48
 70
     1
102
RTVSPropertyOp49
 70
     1
102
RTVSPropertyOp50
 70
     1
102
RTVSPropertyOp51
 70
     0
102
RTVSPropertyOp52
 70
     0
102
RTVSPropertyOp53
 70
     1
102
RTVSPropertyOp54
 70
     1
102
RTVSPropertyOp55
 70
     1
102
RTVSPropertyOp56
 70
     1
102
RTVSPropertyOp57
 70
     1
102
RTVSPropertyOp58
 70
     1
102
RTVSPropertyOp59
 70
     1
102
RTVSPropertyOp60
 70
     1
102
RTVSPropertyOp61
 70
     1
102
RTVSPropertyOp62
 70
     1
  0
XRECORD
  5
40E1
102
{ACAD_REACTORS
330
40E0
102
}
330
40E0
100
AcDbXrecord
280
     1
102
RTVSPost2010Prop28
280
     0
102
RTVSPost2010PropOp28
 70
     1
102
RTVSPost2010Prop29
280
     1
102
RTVSPost2010PropOp29
 70
     1
102
RTVSPost2010Prop30
280
     1
102
RTVSPost2010PropOp30
 70
     1
102
RTVSPost2010Prop31
280
     0
102
RTVSPost2010PropOp31
 70
     1
102
RTVSPost2010Prop32
280
     0
102
RTVSPost2010PropOp32
 70
     1
102
RTVSPost2010Prop33
280
     0
102
RTVSPost2010PropOp33
 70
     1
102
RTVSPost2010Prop34
280
     0
102
RTVSPost2010PropOp34
 70
     1
102
RTVSPost2010Prop35
280
     0
102
RTVSPost2010PropOp35
 70
     1
102
RTVSPost2010Prop36
280
     0
102
RTVSPost2010PropOp36
 70
     1
102
RTVSPost2010Prop37
 90
       50
102
RTVSPost2010PropOp37
 70
     1
102
RTVSPost2010Prop38
140
0.0
102
RTVSPost2010PropOp38
 70
     1
102
RTVSPost2010Prop39
140
1.0
102
RTVSPost2010PropOp39
 70
     1
102
RTVSPost2010Prop40
 90
        0
102
RTVSPost2010PropOp40
 70
     1
102
RTVSPost2010Prop41ColorIndex
 90
       18
102
RTVSPost2010Prop41ColorRGB
 90
        0
102
RTVSPost2010PropOp41
 70
     1
102
RTVSPost2010Prop42
 90
       50
102
RTVSPost2010PropOp42
 70
     1
102
RTVSPost2010Prop43
 90
        3
102
RTVSPost2010PropOp43
 70
     1
102
RTVSPost2010Prop44ColorIndex
 90
        5
102
RTVSPost2010Prop44ColorRGB
 90
      255
102
RTVSPost2010PropOp44
 70
     1
102
RTVSPost2010Prop45
280
     0
102
RTVSPost2010PropOp45
 70
     1
102
RTVSPost2010Prop46
 90
       50
102
RTVSPost2010PropOp46
 70
     1
102
RTVSPost2010Prop47
 90
       50
102
RTVSPost2010PropOp47
 70
     1
102
RTVSPost2010Prop48
 90
       50
102
RTVSPost2010PropOp48
 70
     1
102
RTVSPost2010Prop49
280
     0
102
RTVSPost2010PropOp49
 70
     1
102
RTVSPost2010Prop50
 90
       50
102
RTVSPost2010PropOp50
 70
     1
102
RTVSPost2010Prop51ColorIndex
 90
      256
102
RTVSPost2010Prop51ColorRGB
 90
-16777216
102
RTVSPost2010PropOp51
 70
     0
102
RTVSPost2010Prop52
140
1.0
102
RTVSPost2010PropOp52
 70
     0
102
RTVSPost2010Prop53
 90
        2
102
RTVSPost2010PropOp53
 70
     1
102
RTVSPost2010Prop54
  1
strokes_ogs.tif
102
RTVSPost2010PropOp54
 70
     1
102
RTVSPost2010Prop55
280
     0
102
RTVSPost2010PropOp55
 70
     1
102
RTVSPost2010Prop56
140
1.0
102
RTVSPost2010PropOp56
 70
     1
102
RTVSPost2010Prop57
140
1.0
102
RTVSPost2010PropOp57
 70
     1
102
RTVSPropertyOp0
 70
     1
102
RTVSPropertyOp1
 70
     1
102
RTVSPropertyOp2
 70
     1
102
RTVSPropertyOp3
 70
     1
102
RTVSPropertyOp4
 70
     1
102
RTVSPropertyOp5
 70
     1
102
RTVSPropertyOp6
 70
     1
102
RTVSPropertyOp7
 70
     1
102
RTVSPropertyOp8
 70
     1
102
RTVSPropertyOp9
 70
     1
102
RTVSPropertyOp10
 70
     1
102
RTVSPropertyOp11
 70
     1
102
RTVSPropertyOp12
 70
     1
102
RTVSPropertyOp13
 70
     1
102
RTVSPropertyOp14
 70
     1
102
RTVSPropertyOp15
 70
     1
102
RTVSPropertyOp16
 70
     1
102
RTVSPropertyOp17
 70
     1
102
RTVSPropertyOp18
 70
     1
102
RTVSPropertyOp19
 70
     1
102
RTVSPropertyOp20
 70
     1
102
RTVSPropertyOp21
 70
     1
102
RTVSPropertyOp22
 70
     1
102
RTVSPropertyOp23
 70
     1
102
RTVSPropertyOp24
 70
     1
102
RTVSPropertyOp25
 70
     1
102
RTVSPropertyOp26
 70
     1
102
RTVSPropertyOp27
 70
     1
102
RTVSPropertyOp28
 70
     1
102
RTVSPropertyOp29
 70
     1
102
RTVSPropertyOp30
 70
     1
102
RTVSPropertyOp31
 70
     1
102
RTVSPropertyOp32
 70
     1
102
RTVSPropertyOp33
 70
     1
102
RTVSPropertyOp34
 70
     1
102
RTVSPropertyOp35
 70
     1
102
RTVSPropertyOp36
 70
     1
102
RTVSPropertyOp37
 70
     1
102
RTVSPropertyOp38
 70
     1
102
RTVSPropertyOp39
 70
     1
102
RTVSPropertyOp40
 70
     1
102
RTVSPropertyOp41
 70
     1
102
RTVSPropertyOp42
 70
     1
102
RTVSPropertyOp43
 70
     1
102
RTVSPropertyOp44
 70
     1
102
RTVSPropertyOp45
 70
     1
102
RTVSPropertyOp46
 70
     1
102
RTVSPropertyOp47
 70
     1
102
RTVSPropertyOp48
 70
     1
102
RTVSPropertyOp49
 70
     1
102
RTVSPropertyOp50
 70
     1
102
RTVSPropertyOp51
 70
     0
102
RTVSPropertyOp52
 70
     0
102
RTVSPropertyOp53
 70
     1
102
RTVSPropertyOp54
 70
     1
102
RTVSPropertyOp55
 70
     1
102
RTVSPropertyOp56
 70
     1
102
RTVSPropertyOp57
 70
     1
102
RTVSPropertyOp58
 70
     1
102
RTVSPropertyOp59
 70
     1
102
RTVSPropertyOp60
 70
     1
102
RTVSPropertyOp61
 70
     1
102
RTVSPropertyOp62
 70
     1
  0
XRECORD
  5
40E9
102
{ACAD_REACTORS
330
40E8
102
}
330
40E8
100
AcDbXrecord
280
     1
102
RTVSPost2010Prop28
280
     0
102
RTVSPost2010PropOp28
 70
     1
102
RTVSPost2010Prop29
280
     1
102
RTVSPost2010PropOp29
 70
     1
102
RTVSPost2010Prop30
280
     1
102
RTVSPost2010PropOp30
 70
     1
102
RTVSPost2010Prop31
280
     0
102
RTVSPost2010PropOp31
 70
     1
102
RTVSPost2010Prop32
280
     0
102
RTVSPost2010PropOp32
 70
     1
102
RTVSPost2010Prop33
280
     0
102
RTVSPost2010PropOp33
 70
     1
102
RTVSPost2010Prop34
280
     0
102
RTVSPost2010PropOp34
 70
     1
102
RTVSPost2010Prop35
280
     0
102
RTVSPost2010PropOp35
 70
     1
102
RTVSPost2010Prop36
280
     0
102
RTVSPost2010PropOp36
 70
     1
102
RTVSPost2010Prop37
 90
       50
102
RTVSPost2010PropOp37
 70
     1
102
RTVSPost2010Prop38
140
0.0
102
RTVSPost2010PropOp38
 70
     1
102
RTVSPost2010Prop39
140
1.0
102
RTVSPost2010PropOp39
 70
     1
102
RTVSPost2010Prop40
 90
        0
102
RTVSPost2010PropOp40
 70
     1
102
RTVSPost2010Prop41ColorIndex
 90
       18
102
RTVSPost2010Prop41ColorRGB
 90
        0
102
RTVSPost2010PropOp41
 70
     1
102
RTVSPost2010Prop42
 90
       50
102
RTVSPost2010PropOp42
 70
     1
102
RTVSPost2010Prop43
 90
        3
102
RTVSPost2010PropOp43
 70
     1
102
RTVSPost2010Prop44ColorIndex
 90
        5
102
RTVSPost2010Prop44ColorRGB
 90
      255
102
RTVSPost2010PropOp44
 70
     1
102
RTVSPost2010Prop45
280
     0
102
RTVSPost2010PropOp45
 70
     1
102
RTVSPost2010Prop46
 90
       50
102
RTVSPost2010PropOp46
 70
     1
102
RTVSPost2010Prop47
 90
       50
102
RTVSPost2010PropOp47
 70
     1
102
RTVSPost2010Prop48
 90
       50
102
RTVSPost2010PropOp48
 70
     1
102
RTVSPost2010Prop49
280
     0
102
RTVSPost2010PropOp49
 70
     1
102
RTVSPost2010Prop50
 90
       50
102
RTVSPost2010PropOp50
 70
     1
102
RTVSPost2010Prop51ColorIndex
 90
      256
102
RTVSPost2010Prop51ColorRGB
 90
-16777216
102
RTVSPost2010PropOp51
 70
     0
102
RTVSPost2010Prop52
140
1.0
102
RTVSPost2010PropOp52
 70
     0
102
RTVSPost2010Prop53
 90
        2
102
RTVSPost2010PropOp53
 70
     1
102
RTVSPost2010Prop54
  1
strokes_ogs.tif
102
RTVSPost2010PropOp54
 70
     1
102
RTVSPost2010Prop55
280
     0
102
RTVSPost2010PropOp55
 70
     1
102
RTVSPost2010Prop56
140
1.0
102
RTVSPost2010PropOp56
 70
     1
102
RTVSPost2010Prop57
140
1.0
102
RTVSPost2010PropOp57
 70
     1
102
RTVSPropertyOp0
 70
     1
102
RTVSPropertyOp1
 70
     1
102
RTVSPropertyOp2
 70
     1
102
RTVSPropertyOp3
 70
     1
102
RTVSPropertyOp4
 70
     1
102
RTVSPropertyOp5
 70
     1
102
RTVSPropertyOp6
 70
     1
102
RTVSPropertyOp7
 70
     1
102
RTVSPropertyOp8
 70
     1
102
RTVSPropertyOp9
 70
     1
102
RTVSPropertyOp10
 70
     1
102
RTVSPropertyOp11
 70
     1
102
RTVSPropertyOp12
 70
     1
102
RTVSPropertyOp13
 70
     1
102
RTVSPropertyOp14
 70
     1
102
RTVSPropertyOp15
 70
     1
102
RTVSPropertyOp16
 70
     1
102
RTVSPropertyOp17
 70
     1
102
RTVSPropertyOp18
 70
     1
102
RTVSPropertyOp19
 70
     1
102
RTVSPropertyOp20
 70
     1
102
RTVSPropertyOp21
 70
     1
102
RTVSPropertyOp22
 70
     1
102
RTVSPropertyOp23
 70
     1
102
RTVSPropertyOp24
 70
     1
102
RTVSPropertyOp25
 70
     1
102
RTVSPropertyOp26
 70
     1
102
RTVSPropertyOp27
 70
     1
102
RTVSPropertyOp28
 70
     1
102
RTVSPropertyOp29
 70
     1
102
RTVSPropertyOp30
 70
     1
102
RTVSPropertyOp31
 70
     1
102
RTVSPropertyOp32
 70
     1
102
RTVSPropertyOp33
 70
     1
102
RTVSPropertyOp34
 70
     1
102
RTVSPropertyOp35
 70
     1
102
RTVSPropertyOp36
 70
     1
102
RTVSPropertyOp37
 70
     1
102
RTVSPropertyOp38
 70
     1
102
RTVSPropertyOp39
 70
     1
102
RTVSPropertyOp40
 70
     1
102
RTVSPropertyOp41
 70
     1
102
RTVSPropertyOp42
 70
     1
102
RTVSPropertyOp43
 70
     1
102
RTVSPropertyOp44
 70
     1
102
RTVSPropertyOp45
 70
     1
102
RTVSPropertyOp46
 70
     1
102
RTVSPropertyOp47
 70
     1
102
RTVSPropertyOp48
 70
     1
102
RTVSPropertyOp49
 70
     1
102
RTVSPropertyOp50
 70
     1
102
RTVSPropertyOp51
 70
     0
102
RTVSPropertyOp52
 70
     0
102
RTVSPropertyOp53
 70
     1
102
RTVSPropertyOp54
 70
     1
102
RTVSPropertyOp55
 70
     1
102
RTVSPropertyOp56
 70
     1
102
RTVSPropertyOp57
 70
     1
102
RTVSPropertyOp58
 70
     1
102
RTVSPropertyOp59
 70
     1
102
RTVSPropertyOp60
 70
     1
102
RTVSPropertyOp61
 70
     1
102
RTVSPropertyOp62
 70
     1
  0
XRECORD
  5
40F1
102
{ACAD_REACTORS
330
40F0
102
}
330
40F0
100
AcDbXrecord
280
     1
102
RTVSPost2010Prop28
280
     0
102
RTVSPost2010PropOp28
 70
     1
102
RTVSPost2010Prop29
280
     1
102
RTVSPost2010PropOp29
 70
     1
102
RTVSPost2010Prop30
280
     1
102
RTVSPost2010PropOp30
 70
     1
102
RTVSPost2010Prop31
280
     0
102
RTVSPost2010PropOp31
 70
     1
102
RTVSPost2010Prop32
280
     0
102
RTVSPost2010PropOp32
 70
     1
102
RTVSPost2010Prop33
280
     0
102
RTVSPost2010PropOp33
 70
     1
102
RTVSPost2010Prop34
280
     0
102
RTVSPost2010PropOp34
 70
     1
102
RTVSPost2010Prop35
280
     0
102
RTVSPost2010PropOp35
 70
     1
102
RTVSPost2010Prop36
280
     0
102
RTVSPost2010PropOp36
 70
     1
102
RTVSPost2010Prop37
 90
       50
102
RTVSPost2010PropOp37
 70
     1
102
RTVSPost2010Prop38
140
0.0
102
RTVSPost2010PropOp38
 70
     1
102
RTVSPost2010Prop39
140
1.0
102
RTVSPost2010PropOp39
 70
     1
102
RTVSPost2010Prop40
 90
        0
102
RTVSPost2010PropOp40
 70
     1
102
RTVSPost2010Prop41ColorIndex
 90
       18
102
RTVSPost2010Prop41ColorRGB
 90
        0
102
RTVSPost2010PropOp41
 70
     1
102
RTVSPost2010Prop42
 90
       50
102
RTVSPost2010PropOp42
 70
     1
102
RTVSPost2010Prop43
 90
        3
102
RTVSPost2010PropOp43
 70
     1
102
RTVSPost2010Prop44ColorIndex
 90
        5
102
RTVSPost2010Prop44ColorRGB
 90
      255
102
RTVSPost2010PropOp44
 70
     1
102
RTVSPost2010Prop45
280
     0
102
RTVSPost2010PropOp45
 70
     1
102
RTVSPost2010Prop46
 90
       50
102
RTVSPost2010PropOp46
 70
     1
102
RTVSPost2010Prop47
 90
       50
102
RTVSPost2010PropOp47
 70
     1
102
RTVSPost2010Prop48
 90
       50
102
RTVSPost2010PropOp48
 70
     1
102
RTVSPost2010Prop49
280
     0
102
RTVSPost2010PropOp49
 70
     1
102
RTVSPost2010Prop50
 90
       50
102
RTVSPost2010PropOp50
 70
     1
102
RTVSPost2010Prop51ColorIndex
 90
      256
102
RTVSPost2010Prop51ColorRGB
 90
-16777216
102
RTVSPost2010PropOp51
 70
     0
102
RTVSPost2010Prop52
140
1.0
102
RTVSPost2010PropOp52
 70
     0
102
RTVSPost2010Prop53
 90
        2
102
RTVSPost2010PropOp53
 70
     1
102
RTVSPost2010Prop54
  1
strokes_ogs.tif
102
RTVSPost2010PropOp54
 70
     1
102
RTVSPost2010Prop55
280
     0
102
RTVSPost2010PropOp55
 70
     1
102
RTVSPost2010Prop56
140
1.0
102
RTVSPost2010PropOp56
 70
     1
102
RTVSPost2010Prop57
140
1.0
102
RTVSPost2010PropOp57
 70
     1
102
RTVSPropertyOp0
 70
     1
102
RTVSPropertyOp1
 70
     1
102
RTVSPropertyOp2
 70
     1
102
RTVSPropertyOp3
 70
     1
102
RTVSPropertyOp4
 70
     1
102
RTVSPropertyOp5
 70
     1
102
RTVSPropertyOp6
 70
     1
102
RTVSPropertyOp7
 70
     1
102
RTVSPropertyOp8
 70
     1
102
RTVSPropertyOp9
 70
     1
102
RTVSPropertyOp10
 70
     1
102
RTVSPropertyOp11
 70
     1
102
RTVSPropertyOp12
 70
     1
102
RTVSPropertyOp13
 70
     1
102
RTVSPropertyOp14
 70
     1
102
RTVSPropertyOp15
 70
     1
102
RTVSPropertyOp16
 70
     1
102
RTVSPropertyOp17
 70
     1
102
RTVSPropertyOp18
 70
     1
102
RTVSPropertyOp19
 70
     1
102
RTVSPropertyOp20
 70
     1
102
RTVSPropertyOp21
 70
     1
102
RTVSPropertyOp22
 70
     1
102
RTVSPropertyOp23
 70
     1
102
RTVSPropertyOp24
 70
     1
102
RTVSPropertyOp25
 70
     1
102
RTVSPropertyOp26
 70
     1
102
RTVSPropertyOp27
 70
     1
102
RTVSPropertyOp28
 70
     1
102
RTVSPropertyOp29
 70
     1
102
RTVSPropertyOp30
 70
     1
102
RTVSPropertyOp31
 70
     1
102
RTVSPropertyOp32
 70
     1
102
RTVSPropertyOp33
 70
     1
102
RTVSPropertyOp34
 70
     1
102
RTVSPropertyOp35
 70
     1
102
RTVSPropertyOp36
 70
     1
102
RTVSPropertyOp37
 70
     1
102
RTVSPropertyOp38
 70
     1
102
RTVSPropertyOp39
 70
     1
102
RTVSPropertyOp40
 70
     1
102
RTVSPropertyOp41
 70
     1
102
RTVSPropertyOp42
 70
     1
102
RTVSPropertyOp43
 70
     1
102
RTVSPropertyOp44
 70
     1
102
RTVSPropertyOp45
 70
     1
102
RTVSPropertyOp46
 70
     1
102
RTVSPropertyOp47
 70
     1
102
RTVSPropertyOp48
 70
     1
102
RTVSPropertyOp49
 70
     1
102
RTVSPropertyOp50
 70
     1
102
RTVSPropertyOp51
 70
     0
102
RTVSPropertyOp52
 70
     0
102
RTVSPropertyOp53
 70
     1
102
RTVSPropertyOp54
 70
     1
102
RTVSPropertyOp55
 70
     1
102
RTVSPropertyOp56
 70
     1
102
RTVSPropertyOp57
 70
     1
102
RTVSPropertyOp58
 70
     1
102
RTVSPropertyOp59
 70
     1
102
RTVSPropertyOp60
 70
     1
102
RTVSPropertyOp61
 70
     1
102
RTVSPropertyOp62
 70
     1
  0
XRECORD
  5
40E5
102
{ACAD_REACTORS
330
40E4
102
}
330
40E4
100
AcDbXrecord
280
     1
102
RTVSPost2010Prop28
280
     0
102
RTVSPost2010PropOp28
 70
     1
102
RTVSPost2010Prop29
280
     1
102
RTVSPost2010PropOp29
 70
     1
102
RTVSPost2010Prop30
280
     1
102
RTVSPost2010PropOp30
 70
     1
102
RTVSPost2010Prop31
280
     0
102
RTVSPost2010PropOp31
 70
     1
102
RTVSPost2010Prop32
280
     0
102
RTVSPost2010PropOp32
 70
     1
102
RTVSPost2010Prop33
280
     0
102
RTVSPost2010PropOp33
 70
     1
102
RTVSPost2010Prop34
280
     0
102
RTVSPost2010PropOp34
 70
     1
102
RTVSPost2010Prop35
280
     0
102
RTVSPost2010PropOp35
 70
     1
102
RTVSPost2010Prop36
280
     0
102
RTVSPost2010PropOp36
 70
     1
102
RTVSPost2010Prop37
 90
       50
102
RTVSPost2010PropOp37
 70
     1
102
RTVSPost2010Prop38
140
0.0
102
RTVSPost2010PropOp38
 70
     1
102
RTVSPost2010Prop39
140
1.0
102
RTVSPost2010PropOp39
 70
     1
102
RTVSPost2010Prop40
 90
        0
102
RTVSPost2010PropOp40
 70
     1
102
RTVSPost2010Prop41ColorIndex
 90
       18
102
RTVSPost2010Prop41ColorRGB
 90
        0
102
RTVSPost2010PropOp41
 70
     1
102
RTVSPost2010Prop42
 90
       50
102
RTVSPost2010PropOp42
 70
     1
102
RTVSPost2010Prop43
 90
        3
102
RTVSPost2010PropOp43
 70
     1
102
RTVSPost2010Prop44ColorIndex
 90
        5
102
RTVSPost2010Prop44ColorRGB
 90
      255
102
RTVSPost2010PropOp44
 70
     1
102
RTVSPost2010Prop45
280
     0
102
RTVSPost2010PropOp45
 70
     1
102
RTVSPost2010Prop46
 90
       50
102
RTVSPost2010PropOp46
 70
     1
102
RTVSPost2010Prop47
 90
       50
102
RTVSPost2010PropOp47
 70
     1
102
RTVSPost2010Prop48
 90
       50
102
RTVSPost2010PropOp48
 70
     1
102
RTVSPost2010Prop49
280
     0
102
RTVSPost2010PropOp49
 70
     1
102
RTVSPost2010Prop50
 90
       50
102
RTVSPost2010PropOp50
 70
     1
102
RTVSPost2010Prop51ColorIndex
 90
      256
102
RTVSPost2010Prop51ColorRGB
 90
-16777216
102
RTVSPost2010PropOp51
 70
     0
102
RTVSPost2010Prop52
140
1.0
102
RTVSPost2010PropOp52
 70
     0
102
RTVSPost2010Prop53
 90
        2
102
RTVSPost2010PropOp53
 70
     1
102
RTVSPost2010Prop54
  1
strokes_ogs.tif
102
RTVSPost2010PropOp54
 70
     1
102
RTVSPost2010Prop55
280
     0
102
RTVSPost2010PropOp55
 70
     1
102
RTVSPost2010Prop56
140
1.0
102
RTVSPost2010PropOp56
 70
     1
102
RTVSPost2010Prop57
140
1.0
102
RTVSPost2010PropOp57
 70
     1
102
RTVSPropertyOp0
 70
     1
102
RTVSPropertyOp1
 70
     1
102
RTVSPropertyOp2
 70
     1
102
RTVSPropertyOp3
 70
     1
102
RTVSPropertyOp4
 70
     1
102
RTVSPropertyOp5
 70
     1
102
RTVSPropertyOp6
 70
     1
102
RTVSPropertyOp7
 70
     1
102
RTVSPropertyOp8
 70
     1
102
RTVSPropertyOp9
 70
     1
102
RTVSPropertyOp10
 70
     1
102
RTVSPropertyOp11
 70
     1
102
RTVSPropertyOp12
 70
     1
102
RTVSPropertyOp13
 70
     1
102
RTVSPropertyOp14
 70
     1
102
RTVSPropertyOp15
 70
     1
102
RTVSPropertyOp16
 70
     1
102
RTVSPropertyOp17
 70
     1
102
RTVSPropertyOp18
 70
     1
102
RTVSPropertyOp19
 70
     1
102
RTVSPropertyOp20
 70
     1
102
RTVSPropertyOp21
 70
     1
102
RTVSPropertyOp22
 70
     1
102
RTVSPropertyOp23
 70
     1
102
RTVSPropertyOp24
 70
     1
102
RTVSPropertyOp25
 70
     1
102
RTVSPropertyOp26
 70
     1
102
RTVSPropertyOp27
 70
     1
102
RTVSPropertyOp28
 70
     1
102
RTVSPropertyOp29
 70
     1
102
RTVSPropertyOp30
 70
     1
102
RTVSPropertyOp31
 70
     1
102
RTVSPropertyOp32
 70
     1
102
RTVSPropertyOp33
 70
     1
102
RTVSPropertyOp34
 70
     1
102
RTVSPropertyOp35
 70
     1
102
RTVSPropertyOp36
 70
     1
102
RTVSPropertyOp37
 70
     1
102
RTVSPropertyOp38
 70
     1
102
RTVSPropertyOp39
 70
     1
102
RTVSPropertyOp40
 70
     1
102
RTVSPropertyOp41
 70
     1
102
RTVSPropertyOp42
 70
     1
102
RTVSPropertyOp43
 70
     1
102
RTVSPropertyOp44
 70
     1
102
RTVSPropertyOp45
 70
     1
102
RTVSPropertyOp46
 70
     1
102
RTVSPropertyOp47
 70
     1
102
RTVSPropertyOp48
 70
     1
102
RTVSPropertyOp49
 70
     1
102
RTVSPropertyOp50
 70
     1
102
RTVSPropertyOp51
 70
     0
102
RTVSPropertyOp52
 70
     0
102
RTVSPropertyOp53
 70
     1
102
RTVSPropertyOp54
 70
     1
102
RTVSPropertyOp55
 70
     1
102
RTVSPropertyOp56
 70
     1
102
RTVSPropertyOp57
 70
     1
102
RTVSPropertyOp58
 70
     1
102
RTVSPropertyOp59
 70
     1
102
RTVSPropertyOp60
 70
     1
102
RTVSPropertyOp61
 70
     1
102
RTVSPropertyOp62
 70
     1
  0
XRECORD
  5
40E7
102
{ACAD_REACTORS
330
40E6
102
}
330
40E6
100
AcDbXrecord
280
     1
102
RTVSPost2010Prop28
280
     0
102
RTVSPost2010PropOp28
 70
     1
102
RTVSPost2010Prop29
280
     1
102
RTVSPost2010PropOp29
 70
     1
102
RTVSPost2010Prop30
280
     1
102
RTVSPost2010PropOp30
 70
     1
102
RTVSPost2010Prop31
280
     0
102
RTVSPost2010PropOp31
 70
     1
102
RTVSPost2010Prop32
280
     0
102
RTVSPost2010PropOp32
 70
     1
102
RTVSPost2010Prop33
280
     0
102
RTVSPost2010PropOp33
 70
     1
102
RTVSPost2010Prop34
280
     0
102
RTVSPost2010PropOp34
 70
     1
102
RTVSPost2010Prop35
280
     0
102
RTVSPost2010PropOp35
 70
     1
102
RTVSPost2010Prop36
280
     0
102
RTVSPost2010PropOp36
 70
     1
102
RTVSPost2010Prop37
 90
       50
102
RTVSPost2010PropOp37
 70
     1
102
RTVSPost2010Prop38
140
0.0
102
RTVSPost2010PropOp38
 70
     1
102
RTVSPost2010Prop39
140
1.0
102
RTVSPost2010PropOp39
 70
     1
102
RTVSPost2010Prop40
 90
        0
102
RTVSPost2010PropOp40
 70
     1
102
RTVSPost2010Prop41ColorIndex
 90
       18
102
RTVSPost2010Prop41ColorRGB
 90
        0
102
RTVSPost2010PropOp41
 70
     1
102
RTVSPost2010Prop42
 90
       50
102
RTVSPost2010PropOp42
 70
     1
102
RTVSPost2010Prop43
 90
        3
102
RTVSPost2010PropOp43
 70
     1
102
RTVSPost2010Prop44ColorIndex
 90
        5
102
RTVSPost2010Prop44ColorRGB
 90
      255
102
RTVSPost2010PropOp44
 70
     1
102
RTVSPost2010Prop45
280
     0
102
RTVSPost2010PropOp45
 70
     1
102
RTVSPost2010Prop46
 90
       50
102
RTVSPost2010PropOp46
 70
     1
102
RTVSPost2010Prop47
 90
       50
102
RTVSPost2010PropOp47
 70
     1
102
RTVSPost2010Prop48
 90
       50
102
RTVSPost2010PropOp48
 70
     1
102
RTVSPost2010Prop49
280
     0
102
RTVSPost2010PropOp49
 70
     1
102
RTVSPost2010Prop50
 90
       50
102
RTVSPost2010PropOp50
 70
     1
102
RTVSPost2010Prop51ColorIndex
 90
      256
102
RTVSPost2010Prop51ColorRGB
 90
-16777216
102
RTVSPost2010PropOp51
 70
     0
102
RTVSPost2010Prop52
140
1.0
102
RTVSPost2010PropOp52
 70
     0
102
RTVSPost2010Prop53
 90
        2
102
RTVSPost2010PropOp53
 70
     1
102
RTVSPost2010Prop54
  1
strokes_ogs.tif
102
RTVSPost2010PropOp54
 70
     1
102
RTVSPost2010Prop55
280
     0
102
RTVSPost2010PropOp55
 70
     1
102
RTVSPost2010Prop56
140
1.0
102
RTVSPost2010PropOp56
 70
     1
102
RTVSPost2010Prop57
140
1.0
102
RTVSPost2010PropOp57
 70
     1
102
RTVSPropertyOp0
 70
     1
102
RTVSPropertyOp1
 70
     1
102
RTVSPropertyOp2
 70
     1
102
RTVSPropertyOp3
 70
     1
102
RTVSPropertyOp4
 70
     1
102
RTVSPropertyOp5
 70
     1
102
RTVSPropertyOp6
 70
     1
102
RTVSPropertyOp7
 70
     1
102
RTVSPropertyOp8
 70
     1
102
RTVSPropertyOp9
 70
     1
102
RTVSPropertyOp10
 70
     1
102
RTVSPropertyOp11
 70
     1
102
RTVSPropertyOp12
 70
     1
102
RTVSPropertyOp13
 70
     1
102
RTVSPropertyOp14
 70
     1
102
RTVSPropertyOp15
 70
     1
102
RTVSPropertyOp16
 70
     1
102
RTVSPropertyOp17
 70
     1
102
RTVSPropertyOp18
 70
     1
102
RTVSPropertyOp19
 70
     1
102
RTVSPropertyOp20
 70
     1
102
RTVSPropertyOp21
 70
     1
102
RTVSPropertyOp22
 70
     1
102
RTVSPropertyOp23
 70
     1
102
RTVSPropertyOp24
 70
     1
102
RTVSPropertyOp25
 70
     1
102
RTVSPropertyOp26
 70
     1
102
RTVSPropertyOp27
 70
     1
102
RTVSPropertyOp28
 70
     1
102
RTVSPropertyOp29
 70
     1
102
RTVSPropertyOp30
 70
     1
102
RTVSPropertyOp31
 70
     1
102
RTVSPropertyOp32
 70
     1
102
RTVSPropertyOp33
 70
     1
102
RTVSPropertyOp34
 70
     1
102
RTVSPropertyOp35
 70
     1
102
RTVSPropertyOp36
 70
     1
102
RTVSPropertyOp37
 70
     1
102
RTVSPropertyOp38
 70
     1
102
RTVSPropertyOp39
 70
     1
102
RTVSPropertyOp40
 70
     1
102
RTVSPropertyOp41
 70
     1
102
RTVSPropertyOp42
 70
     1
102
RTVSPropertyOp43
 70
     1
102
RTVSPropertyOp44
 70
     1
102
RTVSPropertyOp45
 70
     1
102
RTVSPropertyOp46
 70
     1
102
RTVSPropertyOp47
 70
     1
102
RTVSPropertyOp48
 70
     1
102
RTVSPropertyOp49
 70
     1
102
RTVSPropertyOp50
 70
     1
102
RTVSPropertyOp51
 70
     0
102
RTVSPropertyOp52
 70
     0
102
RTVSPropertyOp53
 70
     1
102
RTVSPropertyOp54
 70
     1
102
RTVSPropertyOp55
 70
     1
102
RTVSPropertyOp56
 70
     1
102
RTVSPropertyOp57
 70
     1
102
RTVSPropertyOp58
 70
     1
102
RTVSPropertyOp59
 70
     1
102
RTVSPropertyOp60
 70
     1
102
RTVSPropertyOp61
 70
     1
102
RTVSPropertyOp62
 70
     1
  0
XRECORD
  5
40F7
102
{ACAD_REACTORS
330
40F6
102
}
330
40F6
100
AcDbXrecord
280
     1
102
RTVSPost2010Prop28
280
     0
102
RTVSPost2010PropOp28
 70
     0
102
RTVSPost2010Prop29
280
     1
102
RTVSPost2010PropOp29
 70
     0
102
RTVSPost2010Prop30
280
     1
102
RTVSPost2010PropOp30
 70
     0
102
RTVSPost2010Prop31
280
     0
102
RTVSPost2010PropOp31
 70
     0
102
RTVSPost2010Prop32
280
     0
102
RTVSPost2010PropOp32
 70
     0
102
RTVSPost2010Prop33
280
     0
102
RTVSPost2010PropOp33
 70
     0
102
RTVSPost2010Prop34
280
     0
102
RTVSPost2010PropOp34
 70
     0
102
RTVSPost2010Prop35
280
     0
102
RTVSPost2010PropOp35
 70
     0
102
RTVSPost2010Prop36
280
     0
102
RTVSPost2010PropOp36
 70
     0
102
RTVSPost2010Prop37
 90
       50
102
RTVSPost2010PropOp37
 70
     0
102
RTVSPost2010Prop38
140
0.0
102
RTVSPost2010PropOp38
 70
     0
102
RTVSPost2010Prop39
140
1.0
102
RTVSPost2010PropOp39
 70
     0
102
RTVSPost2010Prop40
 90
        0
102
RTVSPost2010PropOp40
 70
     0
102
RTVSPost2010Prop41ColorIndex
 90
       18
102
RTVSPost2010Prop41ColorRGB
 90
        0
102
RTVSPost2010PropOp41
 70
     0
102
RTVSPost2010Prop42
 90
       50
102
RTVSPost2010PropOp42
 70
     0
102
RTVSPost2010Prop43
 90
        3
102
RTVSPost2010PropOp43
 70
     0
102
RTVSPost2010Prop44ColorIndex
 90
        5
102
RTVSPost2010Prop44ColorRGB
 90
      255
102
RTVSPost2010PropOp44
 70
     0
102
RTVSPost2010Prop45
280
     0
102
RTVSPost2010PropOp45
 70
     0
102
RTVSPost2010Prop46
 90
       50
102
RTVSPost2010PropOp46
 70
     0
102
RTVSPost2010Prop47
 90
       50
102
RTVSPost2010PropOp47
 70
     0
102
RTVSPost2010Prop48
 90
       50
102
RTVSPost2010PropOp48
 70
     0
102
RTVSPost2010Prop49
280
     0
102
RTVSPost2010PropOp49
 70
     0
102
RTVSPost2010Prop50
 90
       50
102
RTVSPost2010PropOp50
 70
     0
102
RTVSPost2010Prop51ColorIndex
 90
      256
102
RTVSPost2010Prop51ColorRGB
 90
-16777216
102
RTVSPost2010PropOp51
 70
     0
102
RTVSPost2010Prop52
140
1.0
102
RTVSPost2010PropOp52
 70
     0
102
RTVSPost2010Prop53
 90
        2
102
RTVSPost2010PropOp53
 70
     0
102
RTVSPost2010Prop54
  1
strokes_ogs.tif
102
RTVSPost2010PropOp54
 70
     0
102
RTVSPost2010Prop55
280
     0
102
RTVSPost2010PropOp55
 70
     0
102
RTVSPost2010Prop56
140
1.0
102
RTVSPost2010PropOp56
 70
     0
102
RTVSPost2010Prop57
140
1.0
102
RTVSPost2010PropOp57
 70
     0
102
RTVSPropertyOp0
 70
     0
102
RTVSPropertyOp1
 70
     0
102
RTVSPropertyOp2
 70
     0
102
RTVSPropertyOp3
 70
     0
102
RTVSPropertyOp4
 70
     0
102
RTVSPropertyOp5
 70
     0
102
RTVSPropertyOp6
 70
     0
102
RTVSPropertyOp7
 70
     0
102
RTVSPropertyOp8
 70
     0
102
RTVSPropertyOp9
 70
     0
102
RTVSPropertyOp10
 70
     0
102
RTVSPropertyOp11
 70
     0
102
RTVSPropertyOp12
 70
     0
102
RTVSPropertyOp13
 70
     0
102
RTVSPropertyOp14
 70
     2
102
RTVSPropertyOp15
 70
     0
102
RTVSPropertyOp16
 70
     0
102
RTVSPropertyOp17
 70
     0
102
RTVSPropertyOp18
 70
     0
102
RTVSPropertyOp19
 70
     0
102
RTVSPropertyOp20
 70
     0
102
RTVSPropertyOp21
 70
     0
102
RTVSPropertyOp22
 70
     0
102
RTVSPropertyOp23
 70
     0
102
RTVSPropertyOp24
 70
     0
102
RTVSPropertyOp25
 70
     0
102
RTVSPropertyOp26
 70
     0
102
RTVSPropertyOp27
 70
     0
102
RTVSPropertyOp28
 70
     0
102
RTVSPropertyOp29
 70
     0
102
RTVSPropertyOp30
 70
     0
102
RTVSPropertyOp31
 70
     0
102
RTVSPropertyOp32
 70
     0
102
RTVSPropertyOp33
 70
     0
102
RTVSPropertyOp34
 70
     0
102
RTVSPropertyOp35
 70
     0
102
RTVSPropertyOp36
 70
     0
102
RTVSPropertyOp37
 70
     0
102
RTVSPropertyOp38
 70
     0
102
RTVSPropertyOp39
 70
     0
102
RTVSPropertyOp40
 70
     0
102
RTVSPropertyOp41
 70
     0
102
RTVSPropertyOp42
 70
     0
102
RTVSPropertyOp43
 70
     0
102
RTVSPropertyOp44
 70
     0
102
RTVSPropertyOp45
 70
     0
102
RTVSPropertyOp46
 70
     0
102
RTVSPropertyOp47
 70
     0
102
RTVSPropertyOp48
 70
     0
102
RTVSPropertyOp49
 70
     0
102
RTVSPropertyOp50
 70
     0
102
RTVSPropertyOp51
 70
     0
102
RTVSPropertyOp52
 70
     0
102
RTVSPropertyOp53
 70
     0
102
RTVSPropertyOp54
 70
     0
102
RTVSPropertyOp55
 70
     0
102
RTVSPropertyOp56
 70
     0
102
RTVSPropertyOp57
 70
     0
102
RTVSPropertyOp58
 70
     1
102
RTVSPropertyOp59
 70
     1
102
RTVSPropertyOp60
 70
     1
102
RTVSPropertyOp61
 70
     1
102
RTVSPropertyOp62
 70
     1
  0
XRECORD
  5
40EF
102
{ACAD_REACTORS
330
40EE
102
}
330
40EE
100
AcDbXrecord
280
     1
102
RTVSPost2010Prop28
280
     0
102
RTVSPost2010PropOp28
 70
     1
102
RTVSPost2010Prop29
280
     1
102
RTVSPost2010PropOp29
 70
     1
102
RTVSPost2010Prop30
280
     1
102
RTVSPost2010PropOp30
 70
     1
102
RTVSPost2010Prop31
280
     0
102
RTVSPost2010PropOp31
 70
     1
102
RTVSPost2010Prop32
280
     0
102
RTVSPost2010PropOp32
 70
     1
102
RTVSPost2010Prop33
280
     0
102
RTVSPost2010PropOp33
 70
     1
102
RTVSPost2010Prop34
280
     0
102
RTVSPost2010PropOp34
 70
     1
102
RTVSPost2010Prop35
280
     0
102
RTVSPost2010PropOp35
 70
     1
102
RTVSPost2010Prop36
280
     0
102
RTVSPost2010PropOp36
 70
     1
102
RTVSPost2010Prop37
 90
       50
102
RTVSPost2010PropOp37
 70
     1
102
RTVSPost2010Prop38
140
0.0
102
RTVSPost2010PropOp38
 70
     1
102
RTVSPost2010Prop39
140
1.0
102
RTVSPost2010PropOp39
 70
     1
102
RTVSPost2010Prop40
 90
        0
102
RTVSPost2010PropOp40
 70
     1
102
RTVSPost2010Prop41ColorIndex
 90
       18
102
RTVSPost2010Prop41ColorRGB
 90
        0
102
RTVSPost2010PropOp41
 70
     1
102
RTVSPost2010Prop42
 90
       50
102
RTVSPost2010PropOp42
 70
     1
102
RTVSPost2010Prop43
 90
        3
102
RTVSPost2010PropOp43
 70
     1
102
RTVSPost2010Prop44ColorIndex
 90
        5
102
RTVSPost2010Prop44ColorRGB
 90
      255
102
RTVSPost2010PropOp44
 70
     1
102
RTVSPost2010Prop45
280
     0
102
RTVSPost2010PropOp45
 70
     1
102
RTVSPost2010Prop46
 90
       50
102
RTVSPost2010PropOp46
 70
     1
102
RTVSPost2010Prop47
 90
       50
102
RTVSPost2010PropOp47
 70
     1
102
RTVSPost2010Prop48
 90
       50
102
RTVSPost2010PropOp48
 70
     1
102
RTVSPost2010Prop49
280
     0
102
RTVSPost2010PropOp49
 70
     1
102
RTVSPost2010Prop50
 90
       50
102
RTVSPost2010PropOp50
 70
     1
102
RTVSPost2010Prop51ColorIndex
 90
      256
102
RTVSPost2010Prop51ColorRGB
 90
-16777216
102
RTVSPost2010PropOp51
 70
     0
102
RTVSPost2010Prop52
140
1.0
102
RTVSPost2010PropOp52
 70
     0
102
RTVSPost2010Prop53
 90
        2
102
RTVSPost2010PropOp53
 70
     1
102
RTVSPost2010Prop54
  1
strokes_ogs.tif
102
RTVSPost2010PropOp54
 70
     1
102
RTVSPost2010Prop55
280
     0
102
RTVSPost2010PropOp55
 70
     1
102
RTVSPost2010Prop56
140
1.0
102
RTVSPost2010PropOp56
 70
     1
102
RTVSPost2010Prop57
140
1.0
102
RTVSPost2010PropOp57
 70
     1
102
RTVSPropertyOp0
 70
     1
102
RTVSPropertyOp1
 70
     1
102
RTVSPropertyOp2
 70
     1
102
RTVSPropertyOp3
 70
     1
102
RTVSPropertyOp4
 70
     1
102
RTVSPropertyOp5
 70
     1
102
RTVSPropertyOp6
 70
     1
102
RTVSPropertyOp7
 70
     1
102
RTVSPropertyOp8
 70
     1
102
RTVSPropertyOp9
 70
     1
102
RTVSPropertyOp10
 70
     1
102
RTVSPropertyOp11
 70
     1
102
RTVSPropertyOp12
 70
     1
102
RTVSPropertyOp13
 70
     1
102
RTVSPropertyOp14
 70
     1
102
RTVSPropertyOp15
 70
     1
102
RTVSPropertyOp16
 70
     1
102
RTVSPropertyOp17
 70
     1
102
RTVSPropertyOp18
 70
     1
102
RTVSPropertyOp19
 70
     1
102
RTVSPropertyOp20
 70
     1
102
RTVSPropertyOp21
 70
     1
102
RTVSPropertyOp22
 70
     1
102
RTVSPropertyOp23
 70
     1
102
RTVSPropertyOp24
 70
     1
102
RTVSPropertyOp25
 70
     1
102
RTVSPropertyOp26
 70
     1
102
RTVSPropertyOp27
 70
     1
102
RTVSPropertyOp28
 70
     1
102
RTVSPropertyOp29
 70
     1
102
RTVSPropertyOp30
 70
     1
102
RTVSPropertyOp31
 70
     1
102
RTVSPropertyOp32
 70
     1
102
RTVSPropertyOp33
 70
     1
102
RTVSPropertyOp34
 70
     1
102
RTVSPropertyOp35
 70
     1
102
RTVSPropertyOp36
 70
     1
102
RTVSPropertyOp37
 70
     1
102
RTVSPropertyOp38
 70
     1
102
RTVSPropertyOp39
 70
     1
102
RTVSPropertyOp40
 70
     1
102
RTVSPropertyOp41
 70
     1
102
RTVSPropertyOp42
 70
     1
102
RTVSPropertyOp43
 70
     1
102
RTVSPropertyOp44
 70
     1
102
RTVSPropertyOp45
 70
     1
102
RTVSPropertyOp46
 70
     1
102
RTVSPropertyOp47
 70
     1
102
RTVSPropertyOp48
 70
     1
102
RTVSPropertyOp49
 70
     1
102
RTVSPropertyOp50
 70
     1
102
RTVSPropertyOp51
 70
     0
102
RTVSPropertyOp52
 70
     0
102
RTVSPropertyOp53
 70
     1
102
RTVSPropertyOp54
 70
     1
102
RTVSPropertyOp55
 70
     1
102
RTVSPropertyOp56
 70
     1
102
RTVSPropertyOp57
 70
     1
102
RTVSPropertyOp58
 70
     1
102
RTVSPropertyOp59
 70
     1
102
RTVSPropertyOp60
 70
     1
102
RTVSPropertyOp61
 70
     1
102
RTVSPropertyOp62
 70
     1
  0
XRECORD
  5
40D3
102
{ACAD_REACTORS
330
40D2
102
}
330
40D2
100
AcDbXrecord
280
     1
102
RTVSPost2010Prop28
280
     0
102
RTVSPost2010PropOp28
 70
     1
102
RTVSPost2010Prop29
280
     1
102
RTVSPost2010PropOp29
 70
     1
102
RTVSPost2010Prop30
280
     1
102
RTVSPost2010PropOp30
 70
     1
102
RTVSPost2010Prop31
280
     0
102
RTVSPost2010PropOp31
 70
     1
102
RTVSPost2010Prop32
280
     0
102
RTVSPost2010PropOp32
 70
     1
102
RTVSPost2010Prop33
280
     0
102
RTVSPost2010PropOp33
 70
     1
102
RTVSPost2010Prop34
280
     0
102
RTVSPost2010PropOp34
 70
     1
102
RTVSPost2010Prop35
280
     0
102
RTVSPost2010PropOp35
 70
     1
102
RTVSPost2010Prop36
280
     0
102
RTVSPost2010PropOp36
 70
     1
102
RTVSPost2010Prop37
 90
       50
102
RTVSPost2010PropOp37
 70
     1
102
RTVSPost2010Prop38
140
0.0
102
RTVSPost2010PropOp38
 70
     1
102
RTVSPost2010Prop39
140
1.0
102
RTVSPost2010PropOp39
 70
     1
102
RTVSPost2010Prop40
 90
        0
102
RTVSPost2010PropOp40
 70
     1
102
RTVSPost2010Prop41ColorIndex
 90
       18
102
RTVSPost2010Prop41ColorRGB
 90
        0
102
RTVSPost2010PropOp41
 70
     1
102
RTVSPost2010Prop42
 90
       50
102
RTVSPost2010PropOp42
 70
     1
102
RTVSPost2010Prop43
 90
        3
102
RTVSPost2010PropOp43
 70
     1
102
RTVSPost2010Prop44ColorIndex
 90
        5
102
RTVSPost2010Prop44ColorRGB
 90
      255
102
RTVSPost2010PropOp44
 70
     1
102
RTVSPost2010Prop45
280
     0
102
RTVSPost2010PropOp45
 70
     1
102
RTVSPost2010Prop46
 90
       50
102
RTVSPost2010PropOp46
 70
     1
102
RTVSPost2010Prop47
 90
       50
102
RTVSPost2010PropOp47
 70
     1
102
RTVSPost2010Prop48
 90
       50
102
RTVSPost2010PropOp48
 70
     1
102
RTVSPost2010Prop49
280
     0
102
RTVSPost2010PropOp49
 70
     1
102
RTVSPost2010Prop50
 90
       50
102
RTVSPost2010PropOp50
 70
     1
102
RTVSPost2010Prop51ColorIndex
 90
      256
102
RTVSPost2010Prop51ColorRGB
 90
-16777216
102
RTVSPost2010PropOp51
 70
     0
102
RTVSPost2010Prop52
140
1.0
102
RTVSPost2010PropOp52
 70
     0
102
RTVSPost2010Prop53
 90
        2
102
RTVSPost2010PropOp53
 70
     1
102
RTVSPost2010Prop54
  1
strokes_ogs.tif
102
RTVSPost2010PropOp54
 70
     1
102
RTVSPost2010Prop55
280
     0
102
RTVSPost2010PropOp55
 70
     1
102
RTVSPost2010Prop56
140
1.0
102
RTVSPost2010PropOp56
 70
     1
102
RTVSPost2010Prop57
140
1.0
102
RTVSPost2010PropOp57
 70
     1
102
RTVSPropertyOp0
 70
     1
102
RTVSPropertyOp1
 70
     1
102
RTVSPropertyOp2
 70
     1
102
RTVSPropertyOp3
 70
     1
102
RTVSPropertyOp4
 70
     1
102
RTVSPropertyOp5
 70
     1
102
RTVSPropertyOp6
 70
     1
102
RTVSPropertyOp7
 70
     1
102
RTVSPropertyOp8
 70
     1
102
RTVSPropertyOp9
 70
     1
102
RTVSPropertyOp10
 70
     1
102
RTVSPropertyOp11
 70
     1
102
RTVSPropertyOp12
 70
     1
102
RTVSPropertyOp13
 70
     1
102
RTVSPropertyOp14
 70
     1
102
RTVSPropertyOp15
 70
     1
102
RTVSPropertyOp16
 70
     1
102
RTVSPropertyOp17
 70
     1
102
RTVSPropertyOp18
 70
     1
102
RTVSPropertyOp19
 70
     1
102
RTVSPropertyOp20
 70
     1
102
RTVSPropertyOp21
 70
     1
102
RTVSPropertyOp22
 70
     1
102
RTVSPropertyOp23
 70
     1
102
RTVSPropertyOp24
 70
     1
102
RTVSPropertyOp25
 70
     1
102
RTVSPropertyOp26
 70
     1
102
RTVSPropertyOp27
 70
     1
102
RTVSPropertyOp28
 70
     1
102
RTVSPropertyOp29
 70
     1
102
RTVSPropertyOp30
 70
     1
102
RTVSPropertyOp31
 70
     1
102
RTVSPropertyOp32
 70
     1
102
RTVSPropertyOp33
 70
     1
102
RTVSPropertyOp34
 70
     1
102
RTVSPropertyOp35
 70
     1
102
RTVSPropertyOp36
 70
     1
102
RTVSPropertyOp37
 70
     1
102
RTVSPropertyOp38
 70
     1
102
RTVSPropertyOp39
 70
     1
102
RTVSPropertyOp40
 70
     1
102
RTVSPropertyOp41
 70
     1
102
RTVSPropertyOp42
 70
     1
102
RTVSPropertyOp43
 70
     1
102
RTVSPropertyOp44
 70
     1
102
RTVSPropertyOp45
 70
     1
102
RTVSPropertyOp46
 70
     1
102
RTVSPropertyOp47
 70
     1
102
RTVSPropertyOp48
 70
     1
102
RTVSPropertyOp49
 70
     1
102
RTVSPropertyOp50
 70
     1
102
RTVSPropertyOp51
 70
     0
102
RTVSPropertyOp52
 70
     0
102
RTVSPropertyOp53
 70
     1
102
RTVSPropertyOp54
 70
     1
102
RTVSPropertyOp55
 70
     1
102
RTVSPropertyOp56
 70
     1
102
RTVSPropertyOp57
 70
     1
102
RTVSPropertyOp58
 70
     1
102
RTVSPropertyOp59
 70
     1
102
RTVSPropertyOp60
 70
     1
102
RTVSPropertyOp61
 70
     1
102
RTVSPropertyOp62
 70
     1
  0
XRECORD
  5
40D5
102
{ACAD_REACTORS
330
40D4
102
}
330
40D4
100
AcDbXrecord
280
     1
102
RTVSPost2010Prop28
280
     0
102
RTVSPost2010PropOp28
 70
     1
102
RTVSPost2010Prop29
280
     1
102
RTVSPost2010PropOp29
 70
     1
102
RTVSPost2010Prop30
280
     1
102
RTVSPost2010PropOp30
 70
     1
102
RTVSPost2010Prop31
280
     0
102
RTVSPost2010PropOp31
 70
     1
102
RTVSPost2010Prop32
280
     0
102
RTVSPost2010PropOp32
 70
     1
102
RTVSPost2010Prop33
280
     0
102
RTVSPost2010PropOp33
 70
     1
102
RTVSPost2010Prop34
280
     0
102
RTVSPost2010PropOp34
 70
     1
102
RTVSPost2010Prop35
280
     0
102
RTVSPost2010PropOp35
 70
     1
102
RTVSPost2010Prop36
280
     0
102
RTVSPost2010PropOp36
 70
     1
102
RTVSPost2010Prop37
 90
       50
102
RTVSPost2010PropOp37
 70
     1
102
RTVSPost2010Prop38
140
0.0
102
RTVSPost2010PropOp38
 70
     1
102
RTVSPost2010Prop39
140
1.0
102
RTVSPost2010PropOp39
 70
     1
102
RTVSPost2010Prop40
 90
        0
102
RTVSPost2010PropOp40
 70
     1
102
RTVSPost2010Prop41ColorIndex
 90
       18
102
RTVSPost2010Prop41ColorRGB
 90
        0
102
RTVSPost2010PropOp41
 70
     1
102
RTVSPost2010Prop42
 90
       50
102
RTVSPost2010PropOp42
 70
     1
102
RTVSPost2010Prop43
 90
        3
102
RTVSPost2010PropOp43
 70
     1
102
RTVSPost2010Prop44ColorIndex
 90
        5
102
RTVSPost2010Prop44ColorRGB
 90
      255
102
RTVSPost2010PropOp44
 70
     1
102
RTVSPost2010Prop45
280
     0
102
RTVSPost2010PropOp45
 70
     1
102
RTVSPost2010Prop46
 90
       50
102
RTVSPost2010PropOp46
 70
     1
102
RTVSPost2010Prop47
 90
       50
102
RTVSPost2010PropOp47
 70
     1
102
RTVSPost2010Prop48
 90
       50
102
RTVSPost2010PropOp48
 70
     1
102
RTVSPost2010Prop49
280
     0
102
RTVSPost2010PropOp49
 70
     1
102
RTVSPost2010Prop50
 90
       50
102
RTVSPost2010PropOp50
 70
     1
102
RTVSPost2010Prop51ColorIndex
 90
      256
102
RTVSPost2010Prop51ColorRGB
 90
-16777216
102
RTVSPost2010PropOp51
 70
     0
102
RTVSPost2010Prop52
140
1.0
102
RTVSPost2010PropOp52
 70
     0
102
RTVSPost2010Prop53
 90
        2
102
RTVSPost2010PropOp53
 70
     1
102
RTVSPost2010Prop54
  1
strokes_ogs.tif
102
RTVSPost2010PropOp54
 70
     1
102
RTVSPost2010Prop55
280
     0
102
RTVSPost2010PropOp55
 70
     1
102
RTVSPost2010Prop56
140
1.0
102
RTVSPost2010PropOp56
 70
     1
102
RTVSPost2010Prop57
140
1.0
102
RTVSPost2010PropOp57
 70
     1
102
RTVSPropertyOp0
 70
     1
102
RTVSPropertyOp1
 70
     1
102
RTVSPropertyOp2
 70
     1
102
RTVSPropertyOp3
 70
     1
102
RTVSPropertyOp4
 70
     1
102
RTVSPropertyOp5
 70
     1
102
RTVSPropertyOp6
 70
     1
102
RTVSPropertyOp7
 70
     1
102
RTVSPropertyOp8
 70
     1
102
RTVSPropertyOp9
 70
     1
102
RTVSPropertyOp10
 70
     1
102
RTVSPropertyOp11
 70
     1
102
RTVSPropertyOp12
 70
     1
102
RTVSPropertyOp13
 70
     1
102
RTVSPropertyOp14
 70
     1
102
RTVSPropertyOp15
 70
     1
102
RTVSPropertyOp16
 70
     1
102
RTVSPropertyOp17
 70
     1
102
RTVSPropertyOp18
 70
     1
102
RTVSPropertyOp19
 70
     1
102
RTVSPropertyOp20
 70
     1
102
RTVSPropertyOp21
 70
     1
102
RTVSPropertyOp22
 70
     1
102
RTVSPropertyOp23
 70
     1
102
RTVSPropertyOp24
 70
     1
102
RTVSPropertyOp25
 70
     1
102
RTVSPropertyOp26
 70
     1
102
RTVSPropertyOp27
 70
     1
102
RTVSPropertyOp28
 70
     1
102
RTVSPropertyOp29
 70
     1
102
RTVSPropertyOp30
 70
     1
102
RTVSPropertyOp31
 70
     1
102
RTVSPropertyOp32
 70
     1
102
RTVSPropertyOp33
 70
     1
102
RTVSPropertyOp34
 70
     1
102
RTVSPropertyOp35
 70
     1
102
RTVSPropertyOp36
 70
     1
102
RTVSPropertyOp37
 70
     1
102
RTVSPropertyOp38
 70
     1
102
RTVSPropertyOp39
 70
     1
102
RTVSPropertyOp40
 70
     1
102
RTVSPropertyOp41
 70
     1
102
RTVSPropertyOp42
 70
     1
102
RTVSPropertyOp43
 70
     1
102
RTVSPropertyOp44
 70
     1
102
RTVSPropertyOp45
 70
     1
102
RTVSPropertyOp46
 70
     1
102
RTVSPropertyOp47
 70
     1
102
RTVSPropertyOp48
 70
     1
102
RTVSPropertyOp49
 70
     1
102
RTVSPropertyOp50
 70
     1
102
RTVSPropertyOp51
 70
     0
102
RTVSPropertyOp52
 70
     0
102
RTVSPropertyOp53
 70
     1
102
RTVSPropertyOp54
 70
     1
102
RTVSPropertyOp55
 70
     1
102
RTVSPropertyOp56
 70
     1
102
RTVSPropertyOp57
 70
     1
102
RTVSPropertyOp58
 70
     1
102
RTVSPropertyOp59
 70
     1
102
RTVSPropertyOp60
 70
     1
102
RTVSPropertyOp61
 70
     1
102
RTVSPropertyOp62
 70
     1
  0
XRECORD
  5
40D7
102
{ACAD_REACTORS
330
40D6
102
}
330
40D6
100
AcDbXrecord
280
     1
102
RTVSPost2010Prop28
280
     0
102
RTVSPost2010PropOp28
 70
     1
102
RTVSPost2010Prop29
280
     1
102
RTVSPost2010PropOp29
 70
     1
102
RTVSPost2010Prop30
280
     1
102
RTVSPost2010PropOp30
 70
     1
102
RTVSPost2010Prop31
280
     0
102
RTVSPost2010PropOp31
 70
     1
102
RTVSPost2010Prop32
280
     0
102
RTVSPost2010PropOp32
 70
     1
102
RTVSPost2010Prop33
280
     0
102
RTVSPost2010PropOp33
 70
     1
102
RTVSPost2010Prop34
280
     0
102
RTVSPost2010PropOp34
 70
     1
102
RTVSPost2010Prop35
280
     0
102
RTVSPost2010PropOp35
 70
     1
102
RTVSPost2010Prop36
280
     0
102
RTVSPost2010PropOp36
 70
     1
102
RTVSPost2010Prop37
 90
       50
102
RTVSPost2010PropOp37
 70
     1
102
RTVSPost2010Prop38
140
0.0
102
RTVSPost2010PropOp38
 70
     1
102
RTVSPost2010Prop39
140
1.0
102
RTVSPost2010PropOp39
 70
     1
102
RTVSPost2010Prop40
 90
        0
102
RTVSPost2010PropOp40
 70
     1
102
RTVSPost2010Prop41ColorIndex
 90
       18
102
RTVSPost2010Prop41ColorRGB
 90
        0
102
RTVSPost2010PropOp41
 70
     1
102
RTVSPost2010Prop42
 90
       50
102
RTVSPost2010PropOp42
 70
     1
102
RTVSPost2010Prop43
 90
        3
102
RTVSPost2010PropOp43
 70
     1
102
RTVSPost2010Prop44ColorIndex
 90
        5
102
RTVSPost2010Prop44ColorRGB
 90
      255
102
RTVSPost2010PropOp44
 70
     1
102
RTVSPost2010Prop45
280
     0
102
RTVSPost2010PropOp45
 70
     1
102
RTVSPost2010Prop46
 90
       50
102
RTVSPost2010PropOp46
 70
     1
102
RTVSPost2010Prop47
 90
       50
102
RTVSPost2010PropOp47
 70
     1
102
RTVSPost2010Prop48
 90
       50
102
RTVSPost2010PropOp48
 70
     1
102
RTVSPost2010Prop49
280
     0
102
RTVSPost2010PropOp49
 70
     1
102
RTVSPost2010Prop50
 90
       50
102
RTVSPost2010PropOp50
 70
     1
102
RTVSPost2010Prop51ColorIndex
 90
      256
102
RTVSPost2010Prop51ColorRGB
 90
-16777216
102
RTVSPost2010PropOp51
 70
     0
102
RTVSPost2010Prop52
140
1.0
102
RTVSPost2010PropOp52
 70
     0
102
RTVSPost2010Prop53
 90
        2
102
RTVSPost2010PropOp53
 70
     1
102
RTVSPost2010Prop54
  1
strokes_ogs.tif
102
RTVSPost2010PropOp54
 70
     1
102
RTVSPost2010Prop55
280
     0
102
RTVSPost2010PropOp55
 70
     1
102
RTVSPost2010Prop56
140
1.0
102
RTVSPost2010PropOp56
 70
     1
102
RTVSPost2010Prop57
140
1.0
102
RTVSPost2010PropOp57
 70
     1
102
RTVSPropertyOp0
 70
     1
102
RTVSPropertyOp1
 70
     1
102
RTVSPropertyOp2
 70
     1
102
RTVSPropertyOp3
 70
     1
102
RTVSPropertyOp4
 70
     1
102
RTVSPropertyOp5
 70
     1
102
RTVSPropertyOp6
 70
     1
102
RTVSPropertyOp7
 70
     1
102
RTVSPropertyOp8
 70
     1
102
RTVSPropertyOp9
 70
     1
102
RTVSPropertyOp10
 70
     1
102
RTVSPropertyOp11
 70
     1
102
RTVSPropertyOp12
 70
     1
102
RTVSPropertyOp13
 70
     1
102
RTVSPropertyOp14
 70
     1
102
RTVSPropertyOp15
 70
     1
102
RTVSPropertyOp16
 70
     1
102
RTVSPropertyOp17
 70
     1
102
RTVSPropertyOp18
 70
     1
102
RTVSPropertyOp19
 70
     1
102
RTVSPropertyOp20
 70
     1
102
RTVSPropertyOp21
 70
     1
102
RTVSPropertyOp22
 70
     1
102
RTVSPropertyOp23
 70
     1
102
RTVSPropertyOp24
 70
     1
102
RTVSPropertyOp25
 70
     1
102
RTVSPropertyOp26
 70
     1
102
RTVSPropertyOp27
 70
     1
102
RTVSPropertyOp28
 70
     1
102
RTVSPropertyOp29
 70
     1
102
RTVSPropertyOp30
 70
     1
102
RTVSPropertyOp31
 70
     1
102
RTVSPropertyOp32
 70
     1
102
RTVSPropertyOp33
 70
     1
102
RTVSPropertyOp34
 70
     1
102
RTVSPropertyOp35
 70
     1
102
RTVSPropertyOp36
 70
     1
102
RTVSPropertyOp37
 70
     1
102
RTVSPropertyOp38
 70
     1
102
RTVSPropertyOp39
 70
     1
102
RTVSPropertyOp40
 70
     1
102
RTVSPropertyOp41
 70
     1
102
RTVSPropertyOp42
 70
     1
102
RTVSPropertyOp43
 70
     1
102
RTVSPropertyOp44
 70
     1
102
RTVSPropertyOp45
 70
     1
102
RTVSPropertyOp46
 70
     1
102
RTVSPropertyOp47
 70
     1
102
RTVSPropertyOp48
 70
     1
102
RTVSPropertyOp49
 70
     1
102
RTVSPropertyOp50
 70
     1
102
RTVSPropertyOp51
 70
     0
102
RTVSPropertyOp52
 70
     0
102
RTVSPropertyOp53
 70
     1
102
RTVSPropertyOp54
 70
     1
102
RTVSPropertyOp55
 70
     1
102
RTVSPropertyOp56
 70
     1
102
RTVSPropertyOp57
 70
     1
102
RTVSPropertyOp58
 70
     1
102
RTVSPropertyOp59
 70
     1
102
RTVSPropertyOp60
 70
     1
102
RTVSPropertyOp61
 70
     1
102
RTVSPropertyOp62
 70
     1
  0
XRECORD
  5
40D9
102
{ACAD_REACTORS
330
40D8
102
}
330
40D8
100
AcDbXrecord
280
     1
102
RTVSPost2010Prop28
280
     0
102
RTVSPost2010PropOp28
 70
     1
102
RTVSPost2010Prop29
280
     1
102
RTVSPost2010PropOp29
 70
     1
102
RTVSPost2010Prop30
280
     1
102
RTVSPost2010PropOp30
 70
     1
102
RTVSPost2010Prop31
280
     0
102
RTVSPost2010PropOp31
 70
     1
102
RTVSPost2010Prop32
280
     0
102
RTVSPost2010PropOp32
 70
     1
102
RTVSPost2010Prop33
280
     0
102
RTVSPost2010PropOp33
 70
     1
102
RTVSPost2010Prop34
280
     0
102
RTVSPost2010PropOp34
 70
     1
102
RTVSPost2010Prop35
280
     0
102
RTVSPost2010PropOp35
 70
     1
102
RTVSPost2010Prop36
280
     0
102
RTVSPost2010PropOp36
 70
     1
102
RTVSPost2010Prop37
 90
       50
102
RTVSPost2010PropOp37
 70
     1
102
RTVSPost2010Prop38
140
0.0
102
RTVSPost2010PropOp38
 70
     1
102
RTVSPost2010Prop39
140
1.0
102
RTVSPost2010PropOp39
 70
     1
102
RTVSPost2010Prop40
 90
        0
102
RTVSPost2010PropOp40
 70
     1
102
RTVSPost2010Prop41ColorIndex
 90
       18
102
RTVSPost2010Prop41ColorRGB
 90
        0
102
RTVSPost2010PropOp41
 70
     1
102
RTVSPost2010Prop42
 90
       50
102
RTVSPost2010PropOp42
 70
     1
102
RTVSPost2010Prop43
 90
        3
102
RTVSPost2010PropOp43
 70
     1
102
RTVSPost2010Prop44ColorIndex
 90
        5
102
RTVSPost2010Prop44ColorRGB
 90
      255
102
RTVSPost2010PropOp44
 70
     1
102
RTVSPost2010Prop45
280
     0
102
RTVSPost2010PropOp45
 70
     1
102
RTVSPost2010Prop46
 90
       50
102
RTVSPost2010PropOp46
 70
     1
102
RTVSPost2010Prop47
 90
       50
102
RTVSPost2010PropOp47
 70
     1
102
RTVSPost2010Prop48
 90
       50
102
RTVSPost2010PropOp48
 70
     1
102
RTVSPost2010Prop49
280
     0
102
RTVSPost2010PropOp49
 70
     1
102
RTVSPost2010Prop50
 90
       50
102
RTVSPost2010PropOp50
 70
     1
102
RTVSPost2010Prop51ColorIndex
 90
      256
102
RTVSPost2010Prop51ColorRGB
 90
-16777216
102
RTVSPost2010PropOp51
 70
     0
102
RTVSPost2010Prop52
140
1.0
102
RTVSPost2010PropOp52
 70
     0
102
RTVSPost2010Prop53
 90
        2
102
RTVSPost2010PropOp53
 70
     1
102
RTVSPost2010Prop54
  1
strokes_ogs.tif
102
RTVSPost2010PropOp54
 70
     1
102
RTVSPost2010Prop55
280
     0
102
RTVSPost2010PropOp55
 70
     1
102
RTVSPost2010Prop56
140
1.0
102
RTVSPost2010PropOp56
 70
     1
102
RTVSPost2010Prop57
140
1.0
102
RTVSPost2010PropOp57
 70
     1
102
RTVSPropertyOp0
 70
     1
102
RTVSPropertyOp1
 70
     1
102
RTVSPropertyOp2
 70
     1
102
RTVSPropertyOp3
 70
     1
102
RTVSPropertyOp4
 70
     1
102
RTVSPropertyOp5
 70
     1
102
RTVSPropertyOp6
 70
     1
102
RTVSPropertyOp7
 70
     1
102
RTVSPropertyOp8
 70
     1
102
RTVSPropertyOp9
 70
     1
102
RTVSPropertyOp10
 70
     1
102
RTVSPropertyOp11
 70
     1
102
RTVSPropertyOp12
 70
     1
102
RTVSPropertyOp13
 70
     1
102
RTVSPropertyOp14
 70
     1
102
RTVSPropertyOp15
 70
     1
102
RTVSPropertyOp16
 70
     1
102
RTVSPropertyOp17
 70
     1
102
RTVSPropertyOp18
 70
     1
102
RTVSPropertyOp19
 70
     1
102
RTVSPropertyOp20
 70
     1
102
RTVSPropertyOp21
 70
     1
102
RTVSPropertyOp22
 70
     1
102
RTVSPropertyOp23
 70
     1
102
RTVSPropertyOp24
 70
     1
102
RTVSPropertyOp25
 70
     1
102
RTVSPropertyOp26
 70
     1
102
RTVSPropertyOp27
 70
     1
102
RTVSPropertyOp28
 70
     1
102
RTVSPropertyOp29
 70
     1
102
RTVSPropertyOp30
 70
     1
102
RTVSPropertyOp31
 70
     1
102
RTVSPropertyOp32
 70
     1
102
RTVSPropertyOp33
 70
     1
102
RTVSPropertyOp34
 70
     1
102
RTVSPropertyOp35
 70
     1
102
RTVSPropertyOp36
 70
     1
102
RTVSPropertyOp37
 70
     1
102
RTVSPropertyOp38
 70
     1
102
RTVSPropertyOp39
 70
     1
102
RTVSPropertyOp40
 70
     1
102
RTVSPropertyOp41
 70
     1
102
RTVSPropertyOp42
 70
     1
102
RTVSPropertyOp43
 70
     1
102
RTVSPropertyOp44
 70
     1
102
RTVSPropertyOp45
 70
     1
102
RTVSPropertyOp46
 70
     1
102
RTVSPropertyOp47
 70
     1
102
RTVSPropertyOp48
 70
     1
102
RTVSPropertyOp49
 70
     1
102
RTVSPropertyOp50
 70
     1
102
RTVSPropertyOp51
 70
     0
102
RTVSPropertyOp52
 70
     0
102
RTVSPropertyOp53
 70
     1
102
RTVSPropertyOp54
 70
     1
102
RTVSPropertyOp55
 70
     1
102
RTVSPropertyOp56
 70
     1
102
RTVSPropertyOp57
 70
     1
102
RTVSPropertyOp58
 70
     1
102
RTVSPropertyOp59
 70
     1
102
RTVSPropertyOp60
 70
     1
102
RTVSPropertyOp61
 70
     1
102
RTVSPropertyOp62
 70
     1
  0
XRECORD
  5
40DF
102
{ACAD_REACTORS
330
40DE
102
}
330
40DE
100
AcDbXrecord
280
     1
102
RTVSPost2010Prop28
280
     0
102
RTVSPost2010PropOp28
 70
     1
102
RTVSPost2010Prop29
280
     1
102
RTVSPost2010PropOp29
 70
     1
102
RTVSPost2010Prop30
280
     1
102
RTVSPost2010PropOp30
 70
     1
102
RTVSPost2010Prop31
280
     0
102
RTVSPost2010PropOp31
 70
     1
102
RTVSPost2010Prop32
280
     0
102
RTVSPost2010PropOp32
 70
     1
102
RTVSPost2010Prop33
280
     0
102
RTVSPost2010PropOp33
 70
     1
102
RTVSPost2010Prop34
280
     0
102
RTVSPost2010PropOp34
 70
     1
102
RTVSPost2010Prop35
280
     0
102
RTVSPost2010PropOp35
 70
     1
102
RTVSPost2010Prop36
280
     0
102
RTVSPost2010PropOp36
 70
     1
102
RTVSPost2010Prop37
 90
       50
102
RTVSPost2010PropOp37
 70
     1
102
RTVSPost2010Prop38
140
0.0
102
RTVSPost2010PropOp38
 70
     1
102
RTVSPost2010Prop39
140
1.0
102
RTVSPost2010PropOp39
 70
     1
102
RTVSPost2010Prop40
 90
        0
102
RTVSPost2010PropOp40
 70
     1
102
RTVSPost2010Prop41ColorIndex
 90
       18
102
RTVSPost2010Prop41ColorRGB
 90
        0
102
RTVSPost2010PropOp41
 70
     1
102
RTVSPost2010Prop42
 90
       50
102
RTVSPost2010PropOp42
 70
     1
102
RTVSPost2010Prop43
 90
        3
102
RTVSPost2010PropOp43
 70
     1
102
RTVSPost2010Prop44ColorIndex
 90
        5
102
RTVSPost2010Prop44ColorRGB
 90
      255
102
RTVSPost2010PropOp44
 70
     1
102
RTVSPost2010Prop45
280
     0
102
RTVSPost2010PropOp45
 70
     1
102
RTVSPost2010Prop46
 90
       50
102
RTVSPost2010PropOp46
 70
     1
102
RTVSPost2010Prop47
 90
       50
102
RTVSPost2010PropOp47
 70
     1
102
RTVSPost2010Prop48
 90
       50
102
RTVSPost2010PropOp48
 70
     1
102
RTVSPost2010Prop49
280
     0
102
RTVSPost2010PropOp49
 70
     1
102
RTVSPost2010Prop50
 90
       50
102
RTVSPost2010PropOp50
 70
     1
102
RTVSPost2010Prop51ColorIndex
 90
      256
102
RTVSPost2010Prop51ColorRGB
 90
-16777216
102
RTVSPost2010PropOp51
 70
     0
102
RTVSPost2010Prop52
140
1.0
102
RTVSPost2010PropOp52
 70
     0
102
RTVSPost2010Prop53
 90
        2
102
RTVSPost2010PropOp53
 70
     1
102
RTVSPost2010Prop54
  1
strokes_ogs.tif
102
RTVSPost2010PropOp54
 70
     1
102
RTVSPost2010Prop55
280
     0
102
RTVSPost2010PropOp55
 70
     1
102
RTVSPost2010Prop56
140
1.0
102
RTVSPost2010PropOp56
 70
     1
102
RTVSPost2010Prop57
140
1.0
102
RTVSPost2010PropOp57
 70
     1
102
RTVSPropertyOp0
 70
     1
102
RTVSPropertyOp1
 70
     1
102
RTVSPropertyOp2
 70
     1
102
RTVSPropertyOp3
 70
     1
102
RTVSPropertyOp4
 70
     1
102
RTVSPropertyOp5
 70
     1
102
RTVSPropertyOp6
 70
     1
102
RTVSPropertyOp7
 70
     1
102
RTVSPropertyOp8
 70
     1
102
RTVSPropertyOp9
 70
     1
102
RTVSPropertyOp10
 70
     1
102
RTVSPropertyOp11
 70
     1
102
RTVSPropertyOp12
 70
     1
102
RTVSPropertyOp13
 70
     1
102
RTVSPropertyOp14
 70
     1
102
RTVSPropertyOp15
 70
     1
102
RTVSPropertyOp16
 70
     1
102
RTVSPropertyOp17
 70
     1
102
RTVSPropertyOp18
 70
     1
102
RTVSPropertyOp19
 70
     1
102
RTVSPropertyOp20
 70
     1
102
RTVSPropertyOp21
 70
     1
102
RTVSPropertyOp22
 70
     1
102
RTVSPropertyOp23
 70
     1
102
RTVSPropertyOp24
 70
     1
102
RTVSPropertyOp25
 70
     1
102
RTVSPropertyOp26
 70
     1
102
RTVSPropertyOp27
 70
     1
102
RTVSPropertyOp28
 70
     1
102
RTVSPropertyOp29
 70
     1
102
RTVSPropertyOp30
 70
     1
102
RTVSPropertyOp31
 70
     1
102
RTVSPropertyOp32
 70
     1
102
RTVSPropertyOp33
 70
     1
102
RTVSPropertyOp34
 70
     1
102
RTVSPropertyOp35
 70
     1
102
RTVSPropertyOp36
 70
     1
102
RTVSPropertyOp37
 70
     1
102
RTVSPropertyOp38
 70
     1
102
RTVSPropertyOp39
 70
     1
102
RTVSPropertyOp40
 70
     1
102
RTVSPropertyOp41
 70
     1
102
RTVSPropertyOp42
 70
     1
102
RTVSPropertyOp43
 70
     1
102
RTVSPropertyOp44
 70
     1
102
RTVSPropertyOp45
 70
     1
102
RTVSPropertyOp46
 70
     1
102
RTVSPropertyOp47
 70
     1
102
RTVSPropertyOp48
 70
     1
102
RTVSPropertyOp49
 70
     1
102
RTVSPropertyOp50
 70
     1
102
RTVSPropertyOp51
 70
     0
102
RTVSPropertyOp52
 70
     0
102
RTVSPropertyOp53
 70
     1
102
RTVSPropertyOp54
 70
     1
102
RTVSPropertyOp55
 70
     1
102
RTVSPropertyOp56
 70
     1
102
RTVSPropertyOp57
 70
     1
102
RTVSPropertyOp58
 70
     1
102
RTVSPropertyOp59
 70
     1
102
RTVSPropertyOp60
 70
     1
102
RTVSPropertyOp61
 70
     1
102
RTVSPropertyOp62
 70
     1
  0
XRECORD
  5
40F3
102
{ACAD_REACTORS
330
40F2
102
}
330
40F2
100
AcDbXrecord
280
     1
102
RTVSPost2010Prop28
280
     0
102
RTVSPost2010PropOp28
 70
     0
102
RTVSPost2010Prop29
280
     1
102
RTVSPost2010PropOp29
 70
     0
102
RTVSPost2010Prop30
280
     1
102
RTVSPost2010PropOp30
 70
     0
102
RTVSPost2010Prop31
280
     0
102
RTVSPost2010PropOp31
 70
     0
102
RTVSPost2010Prop32
280
     0
102
RTVSPost2010PropOp32
 70
     0
102
RTVSPost2010Prop33
280
     0
102
RTVSPost2010PropOp33
 70
     0
102
RTVSPost2010Prop34
280
     0
102
RTVSPost2010PropOp34
 70
     0
102
RTVSPost2010Prop35
280
     0
102
RTVSPost2010PropOp35
 70
     0
102
RTVSPost2010Prop36
280
     0
102
RTVSPost2010PropOp36
 70
     0
102
RTVSPost2010Prop37
 90
       50
102
RTVSPost2010PropOp37
 70
     0
102
RTVSPost2010Prop38
140
0.0
102
RTVSPost2010PropOp38
 70
     0
102
RTVSPost2010Prop39
140
1.0
102
RTVSPost2010PropOp39
 70
     0
102
RTVSPost2010Prop40
 90
        0
102
RTVSPost2010PropOp40
 70
     0
102
RTVSPost2010Prop41ColorIndex
 90
       18
102
RTVSPost2010Prop41ColorRGB
 90
        0
102
RTVSPost2010PropOp41
 70
     0
102
RTVSPost2010Prop42
 90
       50
102
RTVSPost2010PropOp42
 70
     0
102
RTVSPost2010Prop43
 90
        3
102
RTVSPost2010PropOp43
 70
     0
102
RTVSPost2010Prop44ColorIndex
 90
        5
102
RTVSPost2010Prop44ColorRGB
 90
      255
102
RTVSPost2010PropOp44
 70
     0
102
RTVSPost2010Prop45
280
     0
102
RTVSPost2010PropOp45
 70
     0
102
RTVSPost2010Prop46
 90
       50
102
RTVSPost2010PropOp46
 70
     0
102
RTVSPost2010Prop47
 90
       50
102
RTVSPost2010PropOp47
 70
     0
102
RTVSPost2010Prop48
 90
       50
102
RTVSPost2010PropOp48
 70
     0
102
RTVSPost2010Prop49
280
     0
102
RTVSPost2010PropOp49
 70
     0
102
RTVSPost2010Prop50
 90
       50
102
RTVSPost2010PropOp50
 70
     0
102
RTVSPost2010Prop51ColorIndex
 90
      256
102
RTVSPost2010Prop51ColorRGB
 90
-16777216
102
RTVSPost2010PropOp51
 70
     0
102
RTVSPost2010Prop52
140
1.0
102
RTVSPost2010PropOp52
 70
     0
102
RTVSPost2010Prop53
 90
        2
102
RTVSPost2010PropOp53
 70
     0
102
RTVSPost2010Prop54
  1
strokes_ogs.tif
102
RTVSPost2010PropOp54
 70
     0
102
RTVSPost2010Prop55
280
     0
102
RTVSPost2010PropOp55
 70
     0
102
RTVSPost2010Prop56
140
1.0
102
RTVSPost2010PropOp56
 70
     0
102
RTVSPost2010Prop57
140
1.0
102
RTVSPost2010PropOp57
 70
     0
102
RTVSPropertyOp0
 70
     0
102
RTVSPropertyOp1
 70
     0
102
RTVSPropertyOp2
 70
     0
102
RTVSPropertyOp3
 70
     0
102
RTVSPropertyOp4
 70
     0
102
RTVSPropertyOp5
 70
     0
102
RTVSPropertyOp6
 70
     0
102
RTVSPropertyOp7
 70
     0
102
RTVSPropertyOp8
 70
     0
102
RTVSPropertyOp9
 70
     0
102
RTVSPropertyOp10
 70
     0
102
RTVSPropertyOp11
 70
     0
102
RTVSPropertyOp12
 70
     0
102
RTVSPropertyOp13
 70
     0
102
RTVSPropertyOp14
 70
     2
102
RTVSPropertyOp15
 70
     0
102
RTVSPropertyOp16
 70
     0
102
RTVSPropertyOp17
 70
     0
102
RTVSPropertyOp18
 70
     0
102
RTVSPropertyOp19
 70
     0
102
RTVSPropertyOp20
 70
     0
102
RTVSPropertyOp21
 70
     0
102
RTVSPropertyOp22
 70
     0
102
RTVSPropertyOp23
 70
     0
102
RTVSPropertyOp24
 70
     0
102
RTVSPropertyOp25
 70
     0
102
RTVSPropertyOp26
 70
     0
102
RTVSPropertyOp27
 70
     0
102
RTVSPropertyOp28
 70
     0
102
RTVSPropertyOp29
 70
     0
102
RTVSPropertyOp30
 70
     0
102
RTVSPropertyOp31
 70
     0
102
RTVSPropertyOp32
 70
     0
102
RTVSPropertyOp33
 70
     0
102
RTVSPropertyOp34
 70
     0
102
RTVSPropertyOp35
 70
     0
102
RTVSPropertyOp36
 70
     0
102
RTVSPropertyOp37
 70
     0
102
RTVSPropertyOp38
 70
     0
102
RTVSPropertyOp39
 70
     0
102
RTVSPropertyOp40
 70
     0
102
RTVSPropertyOp41
 70
     0
102
RTVSPropertyOp42
 70
     0
102
RTVSPropertyOp43
 70
     0
102
RTVSPropertyOp44
 70
     0
102
RTVSPropertyOp45
 70
     0
102
RTVSPropertyOp46
 70
     0
102
RTVSPropertyOp47
 70
     0
102
RTVSPropertyOp48
 70
     0
102
RTVSPropertyOp49
 70
     0
102
RTVSPropertyOp50
 70
     0
102
RTVSPropertyOp51
 70
     0
102
RTVSPropertyOp52
 70
     0
102
RTVSPropertyOp53
 70
     0
102
RTVSPropertyOp54
 70
     0
102
RTVSPropertyOp55
 70
     0
102
RTVSPropertyOp56
 70
     0
102
RTVSPropertyOp57
 70
     0
102
RTVSPropertyOp58
 70
     1
102
RTVSPropertyOp59
 70
     1
102
RTVSPropertyOp60
 70
     1
102
RTVSPropertyOp61
 70
     1
102
RTVSPropertyOp62
 70
     1
  0
XRECORD
  5
40ED
102
{ACAD_REACTORS
330
40EC
102
}
330
40EC
100
AcDbXrecord
280
     1
102
RTVSPost2010Prop28
280
     0
102
RTVSPost2010PropOp28
 70
     1
102
RTVSPost2010Prop29
280
     1
102
RTVSPost2010PropOp29
 70
     1
102
RTVSPost2010Prop30
280
     1
102
RTVSPost2010PropOp30
 70
     1
102
RTVSPost2010Prop31
280
     0
102
RTVSPost2010PropOp31
 70
     1
102
RTVSPost2010Prop32
280
     0
102
RTVSPost2010PropOp32
 70
     1
102
RTVSPost2010Prop33
280
     0
102
RTVSPost2010PropOp33
 70
     1
102
RTVSPost2010Prop34
280
     0
102
RTVSPost2010PropOp34
 70
     1
102
RTVSPost2010Prop35
280
     0
102
RTVSPost2010PropOp35
 70
     1
102
RTVSPost2010Prop36
280
     0
102
RTVSPost2010PropOp36
 70
     1
102
RTVSPost2010Prop37
 90
       50
102
RTVSPost2010PropOp37
 70
     1
102
RTVSPost2010Prop38
140
0.0
102
RTVSPost2010PropOp38
 70
     1
102
RTVSPost2010Prop39
140
1.0
102
RTVSPost2010PropOp39
 70
     1
102
RTVSPost2010Prop40
 90
        0
102
RTVSPost2010PropOp40
 70
     1
102
RTVSPost2010Prop41ColorIndex
 90
       18
102
RTVSPost2010Prop41ColorRGB
 90
        0
102
RTVSPost2010PropOp41
 70
     1
102
RTVSPost2010Prop42
 90
       50
102
RTVSPost2010PropOp42
 70
     1
102
RTVSPost2010Prop43
 90
        3
102
RTVSPost2010PropOp43
 70
     1
102
RTVSPost2010Prop44ColorIndex
 90
        5
102
RTVSPost2010Prop44ColorRGB
 90
      255
102
RTVSPost2010PropOp44
 70
     1
102
RTVSPost2010Prop45
280
     0
102
RTVSPost2010PropOp45
 70
     1
102
RTVSPost2010Prop46
 90
       50
102
RTVSPost2010PropOp46
 70
     1
102
RTVSPost2010Prop47
 90
       50
102
RTVSPost2010PropOp47
 70
     1
102
RTVSPost2010Prop48
 90
       50
102
RTVSPost2010PropOp48
 70
     1
102
RTVSPost2010Prop49
280
     0
102
RTVSPost2010PropOp49
 70
     1
102
RTVSPost2010Prop50
 90
       50
102
RTVSPost2010PropOp50
 70
     1
102
RTVSPost2010Prop51ColorIndex
 90
      256
102
RTVSPost2010Prop51ColorRGB
 90
-16777216
102
RTVSPost2010PropOp51
 70
     0
102
RTVSPost2010Prop52
140
1.0
102
RTVSPost2010PropOp52
 70
     0
102
RTVSPost2010Prop53
 90
        2
102
RTVSPost2010PropOp53
 70
     1
102
RTVSPost2010Prop54
  1
strokes_ogs.tif
102
RTVSPost2010PropOp54
 70
     1
102
RTVSPost2010Prop55
280
     0
102
RTVSPost2010PropOp55
 70
     1
102
RTVSPost2010Prop56
140
1.0
102
RTVSPost2010PropOp56
 70
     1
102
RTVSPost2010Prop57
140
1.0
102
RTVSPost2010PropOp57
 70
     1
102
RTVSPropertyOp0
 70
     1
102
RTVSPropertyOp1
 70
     1
102
RTVSPropertyOp2
 70
     1
102
RTVSPropertyOp3
 70
     1
102
RTVSPropertyOp4
 70
     1
102
RTVSPropertyOp5
 70
     1
102
RTVSPropertyOp6
 70
     1
102
RTVSPropertyOp7
 70
     1
102
RTVSPropertyOp8
 70
     1
102
RTVSPropertyOp9
 70
     1
102
RTVSPropertyOp10
 70
     1
102
RTVSPropertyOp11
 70
     1
102
RTVSPropertyOp12
 70
     1
102
RTVSPropertyOp13
 70
     1
102
RTVSPropertyOp14
 70
     1
102
RTVSPropertyOp15
 70
     1
102
RTVSPropertyOp16
 70
     1
102
RTVSPropertyOp17
 70
     1
102
RTVSPropertyOp18
 70
     1
102
RTVSPropertyOp19
 70
     1
102
RTVSPropertyOp20
 70
     1
102
RTVSPropertyOp21
 70
     1
102
RTVSPropertyOp22
 70
     1
102
RTVSPropertyOp23
 70
     1
102
RTVSPropertyOp24
 70
     1
102
RTVSPropertyOp25
 70
     1
102
RTVSPropertyOp26
 70
     1
102
RTVSPropertyOp27
 70
     1
102
RTVSPropertyOp28
 70
     1
102
RTVSPropertyOp29
 70
     1
102
RTVSPropertyOp30
 70
     1
102
RTVSPropertyOp31
 70
     1
102
RTVSPropertyOp32
 70
     1
102
RTVSPropertyOp33
 70
     1
102
RTVSPropertyOp34
 70
     1
102
RTVSPropertyOp35
 70
     1
102
RTVSPropertyOp36
 70
     1
102
RTVSPropertyOp37
 70
     1
102
RTVSPropertyOp38
 70
     1
102
RTVSPropertyOp39
 70
     1
102
RTVSPropertyOp40
 70
     1
102
RTVSPropertyOp41
 70
     1
102
RTVSPropertyOp42
 70
     1
102
RTVSPropertyOp43
 70
     1
102
RTVSPropertyOp44
 70
     1
102
RTVSPropertyOp45
 70
     1
102
RTVSPropertyOp46
 70
     1
102
RTVSPropertyOp47
 70
     1
102
RTVSPropertyOp48
 70
     1
102
RTVSPropertyOp49
 70
     1
102
RTVSPropertyOp50
 70
     1
102
RTVSPropertyOp51
 70
     0
102
RTVSPropertyOp52
 70
     0
102
RTVSPropertyOp53
 70
     1
102
RTVSPropertyOp54
 70
     1
102
RTVSPropertyOp55
 70
     1
102
RTVSPropertyOp56
 70
     1
102
RTVSPropertyOp57
 70
     1
102
RTVSPropertyOp58
 70
     1
102
RTVSPropertyOp59
 70
     1
102
RTVSPropertyOp60
 70
     1
102
RTVSPropertyOp61
 70
     1
102
RTVSPropertyOp62
 70
     1
  0
XRECORD
  5
40F5
102
{ACAD_REACTORS
330
40F4
102
}
330
40F4
100
AcDbXrecord
280
     1
102
RTVSPost2010Prop28
280
     0
102
RTVSPost2010PropOp28
 70
     0
102
RTVSPost2010Prop29
280
     1
102
RTVSPost2010PropOp29
 70
     0
102
RTVSPost2010Prop30
280
     1
102
RTVSPost2010PropOp30
 70
     0
102
RTVSPost2010Prop31
280
     0
102
RTVSPost2010PropOp31
 70
     0
102
RTVSPost2010Prop32
280
     0
102
RTVSPost2010PropOp32
 70
     0
102
RTVSPost2010Prop33
280
     0
102
RTVSPost2010PropOp33
 70
     0
102
RTVSPost2010Prop34
280
     0
102
RTVSPost2010PropOp34
 70
     0
102
RTVSPost2010Prop35
280
     0
102
RTVSPost2010PropOp35
 70
     0
102
RTVSPost2010Prop36
280
     0
102
RTVSPost2010PropOp36
 70
     0
102
RTVSPost2010Prop37
 90
       50
102
RTVSPost2010PropOp37
 70
     0
102
RTVSPost2010Prop38
140
0.0
102
RTVSPost2010PropOp38
 70
     0
102
RTVSPost2010Prop39
140
1.0
102
RTVSPost2010PropOp39
 70
     0
102
RTVSPost2010Prop40
 90
        0
102
RTVSPost2010PropOp40
 70
     0
102
RTVSPost2010Prop41ColorIndex
 90
       18
102
RTVSPost2010Prop41ColorRGB
 90
        0
102
RTVSPost2010PropOp41
 70
     0
102
RTVSPost2010Prop42
 90
       50
102
RTVSPost2010PropOp42
 70
     0
102
RTVSPost2010Prop43
 90
        3
102
RTVSPost2010PropOp43
 70
     0
102
RTVSPost2010Prop44ColorIndex
 90
        5
102
RTVSPost2010Prop44ColorRGB
 90
      255
102
RTVSPost2010PropOp44
 70
     0
102
RTVSPost2010Prop45
280
     0
102
RTVSPost2010PropOp45
 70
     0
102
RTVSPost2010Prop46
 90
       50
102
RTVSPost2010PropOp46
 70
     0
102
RTVSPost2010Prop47
 90
       50
102
RTVSPost2010PropOp47
 70
     0
102
RTVSPost2010Prop48
 90
       50
102
RTVSPost2010PropOp48
 70
     0
102
RTVSPost2010Prop49
280
     0
102
RTVSPost2010PropOp49
 70
     0
102
RTVSPost2010Prop50
 90
       50
102
RTVSPost2010PropOp50
 70
     0
102
RTVSPost2010Prop51ColorIndex
 90
      256
102
RTVSPost2010Prop51ColorRGB
 90
-16777216
102
RTVSPost2010PropOp51
 70
     0
102
RTVSPost2010Prop52
140
1.0
102
RTVSPost2010PropOp52
 70
     0
102
RTVSPost2010Prop53
 90
        2
102
RTVSPost2010PropOp53
 70
     0
102
RTVSPost2010Prop54
  1
strokes_ogs.tif
102
RTVSPost2010PropOp54
 70
     0
102
RTVSPost2010Prop55
280
     0
102
RTVSPost2010PropOp55
 70
     0
102
RTVSPost2010Prop56
140
1.0
102
RTVSPost2010PropOp56
 70
     0
102
RTVSPost2010Prop57
140
1.0
102
RTVSPost2010PropOp57
 70
     0
102
RTVSPropertyOp0
 70
     0
102
RTVSPropertyOp1
 70
     0
102
RTVSPropertyOp2
 70
     0
102
RTVSPropertyOp3
 70
     0
102
RTVSPropertyOp4
 70
     0
102
RTVSPropertyOp5
 70
     0
102
RTVSPropertyOp6
 70
     0
102
RTVSPropertyOp7
 70
     0
102
RTVSPropertyOp8
 70
     0
102
RTVSPropertyOp9
 70
     0
102
RTVSPropertyOp10
 70
     0
102
RTVSPropertyOp11
 70
     0
102
RTVSPropertyOp12
 70
     0
102
RTVSPropertyOp13
 70
     0
102
RTVSPropertyOp14
 70
     2
102
RTVSPropertyOp15
 70
     0
102
RTVSPropertyOp16
 70
     0
102
RTVSPropertyOp17
 70
     0
102
RTVSPropertyOp18
 70
     0
102
RTVSPropertyOp19
 70
     0
102
RTVSPropertyOp20
 70
     0
102
RTVSPropertyOp21
 70
     0
102
RTVSPropertyOp22
 70
     0
102
RTVSPropertyOp23
 70
     0
102
RTVSPropertyOp24
 70
     0
102
RTVSPropertyOp25
 70
     0
102
RTVSPropertyOp26
 70
     0
102
RTVSPropertyOp27
 70
     0
102
RTVSPropertyOp28
 70
     0
102
RTVSPropertyOp29
 70
     0
102
RTVSPropertyOp30
 70
     0
102
RTVSPropertyOp31
 70
     0
102
RTVSPropertyOp32
 70
     0
102
RTVSPropertyOp33
 70
     0
102
RTVSPropertyOp34
 70
     0
102
RTVSPropertyOp35
 70
     0
102
RTVSPropertyOp36
 70
     0
102
RTVSPropertyOp37
 70
     0
102
RTVSPropertyOp38
 70
     0
102
RTVSPropertyOp39
 70
     0
102
RTVSPropertyOp40
 70
     0
102
RTVSPropertyOp41
 70
     0
102
RTVSPropertyOp42
 70
     0
102
RTVSPropertyOp43
 70
     0
102
RTVSPropertyOp44
 70
     0
102
RTVSPropertyOp45
 70
     0
102
RTVSPropertyOp46
 70
     0
102
RTVSPropertyOp47
 70
     0
102
RTVSPropertyOp48
 70
     0
102
RTVSPropertyOp49
 70
     0
102
RTVSPropertyOp50
 70
     0
102
RTVSPropertyOp51
 70
     0
102
RTVSPropertyOp52
 70
     0
102
RTVSPropertyOp53
 70
     0
102
RTVSPropertyOp54
 70
     0
102
RTVSPropertyOp55
 70
     0
102
RTVSPropertyOp56
 70
     0
102
RTVSPropertyOp57
 70
     0
102
RTVSPropertyOp58
 70
     1
102
RTVSPropertyOp59
 70
     1
102
RTVSPropertyOp60
 70
     1
102
RTVSPropertyOp61
 70
     1
102
RTVSPropertyOp62
 70
     1
  0
XRECORD
  5
40E3
102
{ACAD_REACTORS
330
40E2
102
}
330
40E2
100
AcDbXrecord
280
     1
102
RTVSPost2010Prop28
280
     0
102
RTVSPost2010PropOp28
 70
     1
102
RTVSPost2010Prop29
280
     1
102
RTVSPost2010PropOp29
 70
     1
102
RTVSPost2010Prop30
280
     1
102
RTVSPost2010PropOp30
 70
     1
102
RTVSPost2010Prop31
280
     0
102
RTVSPost2010PropOp31
 70
     1
102
RTVSPost2010Prop32
280
     0
102
RTVSPost2010PropOp32
 70
     1
102
RTVSPost2010Prop33
280
     0
102
RTVSPost2010PropOp33
 70
     1
102
RTVSPost2010Prop34
280
     0
102
RTVSPost2010PropOp34
 70
     1
102
RTVSPost2010Prop35
280
     0
102
RTVSPost2010PropOp35
 70
     1
102
RTVSPost2010Prop36
280
     0
102
RTVSPost2010PropOp36
 70
     1
102
RTVSPost2010Prop37
 90
       50
102
RTVSPost2010PropOp37
 70
     1
102
RTVSPost2010Prop38
140
0.0
102
RTVSPost2010PropOp38
 70
     1
102
RTVSPost2010Prop39
140
1.0
102
RTVSPost2010PropOp39
 70
     1
102
RTVSPost2010Prop40
 90
        0
102
RTVSPost2010PropOp40
 70
     1
102
RTVSPost2010Prop41ColorIndex
 90
       18
102
RTVSPost2010Prop41ColorRGB
 90
        0
102
RTVSPost2010PropOp41
 70
     1
102
RTVSPost2010Prop42
 90
       50
102
RTVSPost2010PropOp42
 70
     1
102
RTVSPost2010Prop43
 90
        3
102
RTVSPost2010PropOp43
 70
     1
102
RTVSPost2010Prop44ColorIndex
 90
        5
102
RTVSPost2010Prop44ColorRGB
 90
      255
102
RTVSPost2010PropOp44
 70
     1
102
RTVSPost2010Prop45
280
     0
102
RTVSPost2010PropOp45
 70
     1
102
RTVSPost2010Prop46
 90
       50
102
RTVSPost2010PropOp46
 70
     1
102
RTVSPost2010Prop47
 90
       50
102
RTVSPost2010PropOp47
 70
     1
102
RTVSPost2010Prop48
 90
       50
102
RTVSPost2010PropOp48
 70
     1
102
RTVSPost2010Prop49
280
     0
102
RTVSPost2010PropOp49
 70
     1
102
RTVSPost2010Prop50
 90
       50
102
RTVSPost2010PropOp50
 70
     1
102
RTVSPost2010Prop51ColorIndex
 90
      256
102
RTVSPost2010Prop51ColorRGB
 90
-16777216
102
RTVSPost2010PropOp51
 70
     0
102
RTVSPost2010Prop52
140
1.0
102
RTVSPost2010PropOp52
 70
     0
102
RTVSPost2010Prop53
 90
        2
102
RTVSPost2010PropOp53
 70
     1
102
RTVSPost2010Prop54
  1
strokes_ogs.tif
102
RTVSPost2010PropOp54
 70
     1
102
RTVSPost2010Prop55
280
     0
102
RTVSPost2010PropOp55
 70
     1
102
RTVSPost2010Prop56
140
1.0
102
RTVSPost2010PropOp56
 70
     1
102
RTVSPost2010Prop57
140
1.0
102
RTVSPost2010PropOp57
 70
     1
102
RTVSPropertyOp0
 70
     1
102
RTVSPropertyOp1
 70
     1
102
RTVSPropertyOp2
 70
     1
102
RTVSPropertyOp3
 70
     1
102
RTVSPropertyOp4
 70
     1
102
RTVSPropertyOp5
 70
     1
102
RTVSPropertyOp6
 70
     1
102
RTVSPropertyOp7
 70
     1
102
RTVSPropertyOp8
 70
     1
102
RTVSPropertyOp9
 70
     1
102
RTVSPropertyOp10
 70
     1
102
RTVSPropertyOp11
 70
     1
102
RTVSPropertyOp12
 70
     1
102
RTVSPropertyOp13
 70
     1
102
RTVSPropertyOp14
 70
     1
102
RTVSPropertyOp15
 70
     1
102
RTVSPropertyOp16
 70
     1
102
RTVSPropertyOp17
 70
     1
102
RTVSPropertyOp18
 70
     1
102
RTVSPropertyOp19
 70
     1
102
RTVSPropertyOp20
 70
     1
102
RTVSPropertyOp21
 70
     1
102
RTVSPropertyOp22
 70
     1
102
RTVSPropertyOp23
 70
     1
102
RTVSPropertyOp24
 70
     1
102
RTVSPropertyOp25
 70
     1
102
RTVSPropertyOp26
 70
     1
102
RTVSPropertyOp27
 70
     1
102
RTVSPropertyOp28
 70
     1
102
RTVSPropertyOp29
 70
     1
102
RTVSPropertyOp30
 70
     1
102
RTVSPropertyOp31
 70
     1
102
RTVSPropertyOp32
 70
     1
102
RTVSPropertyOp33
 70
     1
102
RTVSPropertyOp34
 70
     1
102
RTVSPropertyOp35
 70
     1
102
RTVSPropertyOp36
 70
     1
102
RTVSPropertyOp37
 70
     1
102
RTVSPropertyOp38
 70
     1
102
RTVSPropertyOp39
 70
     1
102
RTVSPropertyOp40
 70
     1
102
RTVSPropertyOp41
 70
     1
102
RTVSPropertyOp42
 70
     1
102
RTVSPropertyOp43
 70
     1
102
RTVSPropertyOp44
 70
     1
102
RTVSPropertyOp45
 70
     1
102
RTVSPropertyOp46
 70
     1
102
RTVSPropertyOp47
 70
     1
102
RTVSPropertyOp48
 70
     1
102
RTVSPropertyOp49
 70
     1
102
RTVSPropertyOp50
 70
     1
102
RTVSPropertyOp51
 70
     0
102
RTVSPropertyOp52
 70
     0
102
RTVSPropertyOp53
 70
     1
102
RTVSPropertyOp54
 70
     1
102
RTVSPropertyOp55
 70
     1
102
RTVSPropertyOp56
 70
     1
102
RTVSPropertyOp57
 70
     1
102
RTVSPropertyOp58
 70
     1
102
RTVSPropertyOp59
 70
     1
102
RTVSPropertyOp60
 70
     1
102
RTVSPropertyOp61
 70
     1
102
RTVSPropertyOp62
 70
     1
  0
XRECORD
  5
4101
102
{ACAD_REACTORS
330
4100
102
}
330
4100
100
AcDbXrecord
280
     1
102
RTVSPost2010Prop28
280
     0
102
RTVSPost2010PropOp28
 70
     1
102
RTVSPost2010Prop29
280
     1
102
RTVSPost2010PropOp29
 70
     1
102
RTVSPost2010Prop30
280
     1
102
RTVSPost2010PropOp30
 70
     1
102
RTVSPost2010Prop31
280
     0
102
RTVSPost2010PropOp31
 70
     1
102
RTVSPost2010Prop32
280
     0
102
RTVSPost2010PropOp32
 70
     1
102
RTVSPost2010Prop33
280
     0
102
RTVSPost2010PropOp33
 70
     1
102
RTVSPost2010Prop34
280
     0
102
RTVSPost2010PropOp34
 70
     1
102
RTVSPost2010Prop35
280
     0
102
RTVSPost2010PropOp35
 70
     1
102
RTVSPost2010Prop36
280
     0
102
RTVSPost2010PropOp36
 70
     1
102
RTVSPost2010Prop37
 90
       50
102
RTVSPost2010PropOp37
 70
     1
102
RTVSPost2010Prop38
140
0.0
102
RTVSPost2010PropOp38
 70
     1
102
RTVSPost2010Prop39
140
1.0
102
RTVSPost2010PropOp39
 70
     1
102
RTVSPost2010Prop40
 90
        0
102
RTVSPost2010PropOp40
 70
     1
102
RTVSPost2010Prop41ColorIndex
 90
       18
102
RTVSPost2010Prop41ColorRGB
 90
        0
102
RTVSPost2010PropOp41
 70
     1
102
RTVSPost2010Prop42
 90
       50
102
RTVSPost2010PropOp42
 70
     1
102
RTVSPost2010Prop43
 90
        3
102
RTVSPost2010PropOp43
 70
     1
102
RTVSPost2010Prop44ColorIndex
 90
        5
102
RTVSPost2010Prop44ColorRGB
 90
      255
102
RTVSPost2010PropOp44
 70
     1
102
RTVSPost2010Prop45
280
     0
102
RTVSPost2010PropOp45
 70
     1
102
RTVSPost2010Prop46
 90
       50
102
RTVSPost2010PropOp46
 70
     1
102
RTVSPost2010Prop47
 90
       50
102
RTVSPost2010PropOp47
 70
     1
102
RTVSPost2010Prop48
 90
       50
102
RTVSPost2010PropOp48
 70
     1
102
RTVSPost2010Prop49
280
     0
102
RTVSPost2010PropOp49
 70
     1
102
RTVSPost2010Prop50
 90
       50
102
RTVSPost2010PropOp50
 70
     1
102
RTVSPost2010Prop51ColorIndex
 90
      256
102
RTVSPost2010Prop51ColorRGB
 90
-16777216
102
RTVSPost2010PropOp51
 70
     0
102
RTVSPost2010Prop52
140
1.0
102
RTVSPost2010PropOp52
 70
     0
102
RTVSPost2010Prop53
 90
        2
102
RTVSPost2010PropOp53
 70
     1
102
RTVSPost2010Prop54
  1
strokes_ogs.tif
102
RTVSPost2010PropOp54
 70
     1
102
RTVSPost2010Prop55
280
     0
102
RTVSPost2010PropOp55
 70
     1
102
RTVSPost2010Prop56
140
1.0
102
RTVSPost2010PropOp56
 70
     1
102
RTVSPost2010Prop57
140
1.0
102
RTVSPost2010PropOp57
 70
     1
102
RTVSPropertyOp0
 70
     1
102
RTVSPropertyOp1
 70
     1
102
RTVSPropertyOp2
 70
     1
102
RTVSPropertyOp3
 70
     1
102
RTVSPropertyOp4
 70
     1
102
RTVSPropertyOp5
 70
     1
102
RTVSPropertyOp6
 70
     1
102
RTVSPropertyOp7
 70
     1
102
RTVSPropertyOp8
 70
     1
102
RTVSPropertyOp9
 70
     1
102
RTVSPropertyOp10
 70
     1
102
RTVSPropertyOp11
 70
     1
102
RTVSPropertyOp12
 70
     1
102
RTVSPropertyOp13
 70
     1
102
RTVSPropertyOp14
 70
     1
102
RTVSPropertyOp15
 70
     1
102
RTVSPropertyOp16
 70
     1
102
RTVSPropertyOp17
 70
     1
102
RTVSPropertyOp18
 70
     1
102
RTVSPropertyOp19
 70
     1
102
RTVSPropertyOp20
 70
     1
102
RTVSPropertyOp21
 70
     1
102
RTVSPropertyOp22
 70
     1
102
RTVSPropertyOp23
 70
     1
102
RTVSPropertyOp24
 70
     1
102
RTVSPropertyOp25
 70
     1
102
RTVSPropertyOp26
 70
     1
102
RTVSPropertyOp27
 70
     1
102
RTVSPropertyOp28
 70
     1
102
RTVSPropertyOp29
 70
     1
102
RTVSPropertyOp30
 70
     1
102
RTVSPropertyOp31
 70
     1
102
RTVSPropertyOp32
 70
     1
102
RTVSPropertyOp33
 70
     1
102
RTVSPropertyOp34
 70
     1
102
RTVSPropertyOp35
 70
     1
102
RTVSPropertyOp36
 70
     1
102
RTVSPropertyOp37
 70
     1
102
RTVSPropertyOp38
 70
     1
102
RTVSPropertyOp39
 70
     1
102
RTVSPropertyOp40
 70
     1
102
RTVSPropertyOp41
 70
     1
102
RTVSPropertyOp42
 70
     1
102
RTVSPropertyOp43
 70
     1
102
RTVSPropertyOp44
 70
     1
102
RTVSPropertyOp45
 70
     1
102
RTVSPropertyOp46
 70
     1
102
RTVSPropertyOp47
 70
     1
102
RTVSPropertyOp48
 70
     1
102
RTVSPropertyOp49
 70
     1
102
RTVSPropertyOp50
 70
     1
102
RTVSPropertyOp51
 70
     0
102
RTVSPropertyOp52
 70
     0
102
RTVSPropertyOp53
 70
     1
102
RTVSPropertyOp54
 70
     1
102
RTVSPropertyOp55
 70
     1
102
RTVSPropertyOp56
 70
     1
102
RTVSPropertyOp57
 70
     1
102
RTVSPropertyOp58
 70
     1
102
RTVSPropertyOp59
 70
     1
102
RTVSPropertyOp60
 70
     1
102
RTVSPropertyOp61
 70
     1
102
RTVSPropertyOp62
 70
     1
  0
XRECORD
  5
40FF
102
{ACAD_REACTORS
330
40FE
102
}
330
40FE
100
AcDbXrecord
280
     1
102
RTVSPost2010Prop28
280
     0
102
RTVSPost2010PropOp28
 70
     1
102
RTVSPost2010Prop29
280
     1
102
RTVSPost2010PropOp29
 70
     1
102
RTVSPost2010Prop30
280
     1
102
RTVSPost2010PropOp30
 70
     1
102
RTVSPost2010Prop31
280
     0
102
RTVSPost2010PropOp31
 70
     1
102
RTVSPost2010Prop32
280
     0
102
RTVSPost2010PropOp32
 70
     1
102
RTVSPost2010Prop33
280
     0
102
RTVSPost2010PropOp33
 70
     1
102
RTVSPost2010Prop34
280
     0
102
RTVSPost2010PropOp34
 70
     1
102
RTVSPost2010Prop35
280
     0
102
RTVSPost2010PropOp35
 70
     1
102
RTVSPost2010Prop36
280
     0
102
RTVSPost2010PropOp36
 70
     1
102
RTVSPost2010Prop37
 90
       50
102
RTVSPost2010PropOp37
 70
     1
102
RTVSPost2010Prop38
140
0.0
102
RTVSPost2010PropOp38
 70
     1
102
RTVSPost2010Prop39
140
1.0
102
RTVSPost2010PropOp39
 70
     1
102
RTVSPost2010Prop40
 90
        0
102
RTVSPost2010PropOp40
 70
     1
102
RTVSPost2010Prop41ColorIndex
 90
       18
102
RTVSPost2010Prop41ColorRGB
 90
        0
102
RTVSPost2010PropOp41
 70
     1
102
RTVSPost2010Prop42
 90
       50
102
RTVSPost2010PropOp42
 70
     1
102
RTVSPost2010Prop43
 90
        3
102
RTVSPost2010PropOp43
 70
     1
102
RTVSPost2010Prop44ColorIndex
 90
        5
102
RTVSPost2010Prop44ColorRGB
 90
      255
102
RTVSPost2010PropOp44
 70
     1
102
RTVSPost2010Prop45
280
     0
102
RTVSPost2010PropOp45
 70
     1
102
RTVSPost2010Prop46
 90
       50
102
RTVSPost2010PropOp46
 70
     1
102
RTVSPost2010Prop47
 90
       50
102
RTVSPost2010PropOp47
 70
     1
102
RTVSPost2010Prop48
 90
       50
102
RTVSPost2010PropOp48
 70
     1
102
RTVSPost2010Prop49
280
     0
102
RTVSPost2010PropOp49
 70
     1
102
RTVSPost2010Prop50
 90
       50
102
RTVSPost2010PropOp50
 70
     1
102
RTVSPost2010Prop51ColorIndex
 90
      256
102
RTVSPost2010Prop51ColorRGB
 90
-16777216
102
RTVSPost2010PropOp51
 70
     0
102
RTVSPost2010Prop52
140
1.0
102
RTVSPost2010PropOp52
 70
     0
102
RTVSPost2010Prop53
 90
        2
102
RTVSPost2010PropOp53
 70
     1
102
RTVSPost2010Prop54
  1
strokes_ogs.tif
102
RTVSPost2010PropOp54
 70
     1
102
RTVSPost2010Prop55
280
     0
102
RTVSPost2010PropOp55
 70
     1
102
RTVSPost2010Prop56
140
1.0
102
RTVSPost2010PropOp56
 70
     1
102
RTVSPost2010Prop57
140
1.0
102
RTVSPost2010PropOp57
 70
     1
102
RTVSPropertyOp0
 70
     1
102
RTVSPropertyOp1
 70
     1
102
RTVSPropertyOp2
 70
     1
102
RTVSPropertyOp3
 70
     1
102
RTVSPropertyOp4
 70
     1
102
RTVSPropertyOp5
 70
     1
102
RTVSPropertyOp6
 70
     1
102
RTVSPropertyOp7
 70
     1
102
RTVSPropertyOp8
 70
     1
102
RTVSPropertyOp9
 70
     1
102
RTVSPropertyOp10
 70
     1
102
RTVSPropertyOp11
 70
     1
102
RTVSPropertyOp12
 70
     1
102
RTVSPropertyOp13
 70
     1
102
RTVSPropertyOp14
 70
     1
102
RTVSPropertyOp15
 70
     1
102
RTVSPropertyOp16
 70
     1
102
RTVSPropertyOp17
 70
     1
102
RTVSPropertyOp18
 70
     1
102
RTVSPropertyOp19
 70
     1
102
RTVSPropertyOp20
 70
     1
102
RTVSPropertyOp21
 70
     1
102
RTVSPropertyOp22
 70
     1
102
RTVSPropertyOp23
 70
     1
102
RTVSPropertyOp24
 70
     1
102
RTVSPropertyOp25
 70
     1
102
RTVSPropertyOp26
 70
     1
102
RTVSPropertyOp27
 70
     1
102
RTVSPropertyOp28
 70
     1
102
RTVSPropertyOp29
 70
     1
102
RTVSPropertyOp30
 70
     1
102
RTVSPropertyOp31
 70
     1
102
RTVSPropertyOp32
 70
     1
102
RTVSPropertyOp33
 70
     1
102
RTVSPropertyOp34
 70
     1
102
RTVSPropertyOp35
 70
     1
102
RTVSPropertyOp36
 70
     1
102
RTVSPropertyOp37
 70
     1
102
RTVSPropertyOp38
 70
     1
102
RTVSPropertyOp39
 70
     1
102
RTVSPropertyOp40
 70
     1
102
RTVSPropertyOp41
 70
     1
102
RTVSPropertyOp42
 70
     1
102
RTVSPropertyOp43
 70
     1
102
RTVSPropertyOp44
 70
     1
102
RTVSPropertyOp45
 70
     1
102
RTVSPropertyOp46
 70
     1
102
RTVSPropertyOp47
 70
     1
102
RTVSPropertyOp48
 70
     1
102
RTVSPropertyOp49
 70
     1
102
RTVSPropertyOp50
 70
     1
102
RTVSPropertyOp51
 70
     0
102
RTVSPropertyOp52
 70
     0
102
RTVSPropertyOp53
 70
     1
102
RTVSPropertyOp54
 70
     1
102
RTVSPropertyOp55
 70
     1
102
RTVSPropertyOp56
 70
     1
102
RTVSPropertyOp57
 70
     1
102
RTVSPropertyOp58
 70
     1
102
RTVSPropertyOp59
 70
     1
102
RTVSPropertyOp60
 70
     1
102
RTVSPropertyOp61
 70
     1
102
RTVSPropertyOp62
 70
     1
  0
XRECORD
  5
40F9
102
{ACAD_REACTORS
330
40F8
102
}
330
40F8
100
AcDbXrecord
280
     1
102
RTVSPost2010Prop28
280
     0
102
RTVSPost2010PropOp28
 70
     1
102
RTVSPost2010Prop29
280
     1
102
RTVSPost2010PropOp29
 70
     1
102
RTVSPost2010Prop30
280
     1
102
RTVSPost2010PropOp30
 70
     1
102
RTVSPost2010Prop31
280
     0
102
RTVSPost2010PropOp31
 70
     1
102
RTVSPost2010Prop32
280
     0
102
RTVSPost2010PropOp32
 70
     1
102
RTVSPost2010Prop33
280
     0
102
RTVSPost2010PropOp33
 70
     1
102
RTVSPost2010Prop34
280
     0
102
RTVSPost2010PropOp34
 70
     1
102
RTVSPost2010Prop35
280
     0
102
RTVSPost2010PropOp35
 70
     1
102
RTVSPost2010Prop36
280
     0
102
RTVSPost2010PropOp36
 70
     1
102
RTVSPost2010Prop37
 90
       50
102
RTVSPost2010PropOp37
 70
     1
102
RTVSPost2010Prop38
140
0.0
102
RTVSPost2010PropOp38
 70
     1
102
RTVSPost2010Prop39
140
1.0
102
RTVSPost2010PropOp39
 70
     1
102
RTVSPost2010Prop40
 90
        0
102
RTVSPost2010PropOp40
 70
     1
102
RTVSPost2010Prop41ColorIndex
 90
       18
102
RTVSPost2010Prop41ColorRGB
 90
        0
102
RTVSPost2010PropOp41
 70
     1
102
RTVSPost2010Prop42
 90
       50
102
RTVSPost2010PropOp42
 70
     1
102
RTVSPost2010Prop43
 90
        3
102
RTVSPost2010PropOp43
 70
     1
102
RTVSPost2010Prop44ColorIndex
 90
        5
102
RTVSPost2010Prop44ColorRGB
 90
      255
102
RTVSPost2010PropOp44
 70
     1
102
RTVSPost2010Prop45
280
     0
102
RTVSPost2010PropOp45
 70
     1
102
RTVSPost2010Prop46
 90
       50
102
RTVSPost2010PropOp46
 70
     1
102
RTVSPost2010Prop47
 90
       50
102
RTVSPost2010PropOp47
 70
     1
102
RTVSPost2010Prop48
 90
       50
102
RTVSPost2010PropOp48
 70
     1
102
RTVSPost2010Prop49
280
     0
102
RTVSPost2010PropOp49
 70
     1
102
RTVSPost2010Prop50
 90
       50
102
RTVSPost2010PropOp50
 70
     1
102
RTVSPost2010Prop51ColorIndex
 90
      256
102
RTVSPost2010Prop51ColorRGB
 90
-16777216
102
RTVSPost2010PropOp51
 70
     0
102
RTVSPost2010Prop52
140
1.0
102
RTVSPost2010PropOp52
 70
     0
102
RTVSPost2010Prop53
 90
        2
102
RTVSPost2010PropOp53
 70
     1
102
RTVSPost2010Prop54
  1
strokes_ogs.tif
102
RTVSPost2010PropOp54
 70
     1
102
RTVSPost2010Prop55
280
     0
102
RTVSPost2010PropOp55
 70
     1
102
RTVSPost2010Prop56
140
1.0
102
RTVSPost2010PropOp56
 70
     1
102
RTVSPost2010Prop57
140
1.0
102
RTVSPost2010PropOp57
 70
     1
102
RTVSPropertyOp0
 70
     1
102
RTVSPropertyOp1
 70
     1
102
RTVSPropertyOp2
 70
     1
102
RTVSPropertyOp3
 70
     1
102
RTVSPropertyOp4
 70
     1
102
RTVSPropertyOp5
 70
     1
102
RTVSPropertyOp6
 70
     1
102
RTVSPropertyOp7
 70
     1
102
RTVSPropertyOp8
 70
     1
102
RTVSPropertyOp9
 70
     1
102
RTVSPropertyOp10
 70
     1
102
RTVSPropertyOp11
 70
     1
102
RTVSPropertyOp12
 70
     1
102
RTVSPropertyOp13
 70
     1
102
RTVSPropertyOp14
 70
     1
102
RTVSPropertyOp15
 70
     1
102
RTVSPropertyOp16
 70
     1
102
RTVSPropertyOp17
 70
     1
102
RTVSPropertyOp18
 70
     1
102
RTVSPropertyOp19
 70
     1
102
RTVSPropertyOp20
 70
     1
102
RTVSPropertyOp21
 70
     1
102
RTVSPropertyOp22
 70
     1
102
RTVSPropertyOp23
 70
     1
102
RTVSPropertyOp24
 70
     1
102
RTVSPropertyOp25
 70
     1
102
RTVSPropertyOp26
 70
     1
102
RTVSPropertyOp27
 70
     1
102
RTVSPropertyOp28
 70
     1
102
RTVSPropertyOp29
 70
     1
102
RTVSPropertyOp30
 70
     1
102
RTVSPropertyOp31
 70
     1
102
RTVSPropertyOp32
 70
     1
102
RTVSPropertyOp33
 70
     1
102
RTVSPropertyOp34
 70
     1
102
RTVSPropertyOp35
 70
     1
102
RTVSPropertyOp36
 70
     1
102
RTVSPropertyOp37
 70
     1
102
RTVSPropertyOp38
 70
     1
102
RTVSPropertyOp39
 70
     1
102
RTVSPropertyOp40
 70
     1
102
RTVSPropertyOp41
 70
     1
102
RTVSPropertyOp42
 70
     1
102
RTVSPropertyOp43
 70
     1
102
RTVSPropertyOp44
 70
     1
102
RTVSPropertyOp45
 70
     1
102
RTVSPropertyOp46
 70
     1
102
RTVSPropertyOp47
 70
     1
102
RTVSPropertyOp48
 70
     1
102
RTVSPropertyOp49
 70
     1
102
RTVSPropertyOp50
 70
     1
102
RTVSPropertyOp51
 70
     0
102
RTVSPropertyOp52
 70
     0
102
RTVSPropertyOp53
 70
     1
102
RTVSPropertyOp54
 70
     1
102
RTVSPropertyOp55
 70
     1
102
RTVSPropertyOp56
 70
     1
102
RTVSPropertyOp57
 70
     1
102
RTVSPropertyOp58
 70
     1
102
RTVSPropertyOp59
 70
     1
102
RTVSPropertyOp60
 70
     1
102
RTVSPropertyOp61
 70
     1
102
RTVSPropertyOp62
 70
     1
  0
XRECORD
  5
40FB
102
{ACAD_REACTORS
330
40FA
102
}
330
40FA
100
AcDbXrecord
280
     1
102
RTVSPost2010Prop28
280
     0
102
RTVSPost2010PropOp28
 70
     1
102
RTVSPost2010Prop29
280
     1
102
RTVSPost2010PropOp29
 70
     1
102
RTVSPost2010Prop30
280
     1
102
RTVSPost2010PropOp30
 70
     1
102
RTVSPost2010Prop31
280
     0
102
RTVSPost2010PropOp31
 70
     1
102
RTVSPost2010Prop32
280
     0
102
RTVSPost2010PropOp32
 70
     1
102
RTVSPost2010Prop33
280
     0
102
RTVSPost2010PropOp33
 70
     1
102
RTVSPost2010Prop34
280
     0
102
RTVSPost2010PropOp34
 70
     1
102
RTVSPost2010Prop35
280
     0
102
RTVSPost2010PropOp35
 70
     1
102
RTVSPost2010Prop36
280
     0
102
RTVSPost2010PropOp36
 70
     1
102
RTVSPost2010Prop37
 90
       50
102
RTVSPost2010PropOp37
 70
     1
102
RTVSPost2010Prop38
140
0.0
102
RTVSPost2010PropOp38
 70
     1
102
RTVSPost2010Prop39
140
1.0
102
RTVSPost2010PropOp39
 70
     1
102
RTVSPost2010Prop40
 90
        0
102
RTVSPost2010PropOp40
 70
     1
102
RTVSPost2010Prop41ColorIndex
 90
       18
102
RTVSPost2010Prop41ColorRGB
 90
        0
102
RTVSPost2010PropOp41
 70
     1
102
RTVSPost2010Prop42
 90
       50
102
RTVSPost2010PropOp42
 70
     1
102
RTVSPost2010Prop43
 90
        3
102
RTVSPost2010PropOp43
 70
     1
102
RTVSPost2010Prop44ColorIndex
 90
        5
102
RTVSPost2010Prop44ColorRGB
 90
      255
102
RTVSPost2010PropOp44
 70
     1
102
RTVSPost2010Prop45
280
     0
102
RTVSPost2010PropOp45
 70
     1
102
RTVSPost2010Prop46
 90
       50
102
RTVSPost2010PropOp46
 70
     1
102
RTVSPost2010Prop47
 90
       50
102
RTVSPost2010PropOp47
 70
     1
102
RTVSPost2010Prop48
 90
       50
102
RTVSPost2010PropOp48
 70
     1
102
RTVSPost2010Prop49
280
     0
102
RTVSPost2010PropOp49
 70
     1
102
RTVSPost2010Prop50
 90
       50
102
RTVSPost2010PropOp50
 70
     1
102
RTVSPost2010Prop51ColorIndex
 90
      256
102
RTVSPost2010Prop51ColorRGB
 90
-16777216
102
RTVSPost2010PropOp51
 70
     0
102
RTVSPost2010Prop52
140
1.0
102
RTVSPost2010PropOp52
 70
     0
102
RTVSPost2010Prop53
 90
        2
102
RTVSPost2010PropOp53
 70
     1
102
RTVSPost2010Prop54
  1
strokes_ogs.tif
102
RTVSPost2010PropOp54
 70
     1
102
RTVSPost2010Prop55
280
     0
102
RTVSPost2010PropOp55
 70
     1
102
RTVSPost2010Prop56
140
1.0
102
RTVSPost2010PropOp56
 70
     1
102
RTVSPost2010Prop57
140
1.0
102
RTVSPost2010PropOp57
 70
     1
102
RTVSPropertyOp0
 70
     1
102
RTVSPropertyOp1
 70
     1
102
RTVSPropertyOp2
 70
     1
102
RTVSPropertyOp3
 70
     1
102
RTVSPropertyOp4
 70
     1
102
RTVSPropertyOp5
 70
     1
102
RTVSPropertyOp6
 70
     1
102
RTVSPropertyOp7
 70
     1
102
RTVSPropertyOp8
 70
     1
102
RTVSPropertyOp9
 70
     1
102
RTVSPropertyOp10
 70
     1
102
RTVSPropertyOp11
 70
     1
102
RTVSPropertyOp12
 70
     1
102
RTVSPropertyOp13
 70
     1
102
RTVSPropertyOp14
 70
     1
102
RTVSPropertyOp15
 70
     1
102
RTVSPropertyOp16
 70
     1
102
RTVSPropertyOp17
 70
     1
102
RTVSPropertyOp18
 70
     1
102
RTVSPropertyOp19
 70
     1
102
RTVSPropertyOp20
 70
     1
102
RTVSPropertyOp21
 70
     1
102
RTVSPropertyOp22
 70
     1
102
RTVSPropertyOp23
 70
     1
102
RTVSPropertyOp24
 70
     1
102
RTVSPropertyOp25
 70
     1
102
RTVSPropertyOp26
 70
     1
102
RTVSPropertyOp27
 70
     1
102
RTVSPropertyOp28
 70
     1
102
RTVSPropertyOp29
 70
     1
102
RTVSPropertyOp30
 70
     1
102
RTVSPropertyOp31
 70
     1
102
RTVSPropertyOp32
 70
     1
102
RTVSPropertyOp33
 70
     1
102
RTVSPropertyOp34
 70
     1
102
RTVSPropertyOp35
 70
     1
102
RTVSPropertyOp36
 70
     1
102
RTVSPropertyOp37
 70
     1
102
RTVSPropertyOp38
 70
     1
102
RTVSPropertyOp39
 70
     1
102
RTVSPropertyOp40
 70
     1
102
RTVSPropertyOp41
 70
     1
102
RTVSPropertyOp42
 70
     1
102
RTVSPropertyOp43
 70
     1
102
RTVSPropertyOp44
 70
     1
102
RTVSPropertyOp45
 70
     1
102
RTVSPropertyOp46
 70
     1
102
RTVSPropertyOp47
 70
     1
102
RTVSPropertyOp48
 70
     1
102
RTVSPropertyOp49
 70
     1
102
RTVSPropertyOp50
 70
     1
102
RTVSPropertyOp51
 70
     0
102
RTVSPropertyOp52
 70
     0
102
RTVSPropertyOp53
 70
     1
102
RTVSPropertyOp54
 70
     1
102
RTVSPropertyOp55
 70
     1
102
RTVSPropertyOp56
 70
     1
102
RTVSPropertyOp57
 70
     1
102
RTVSPropertyOp58
 70
     1
102
RTVSPropertyOp59
 70
     1
102
RTVSPropertyOp60
 70
     1
102
RTVSPropertyOp61
 70
     1
102
RTVSPropertyOp62
 70
     1
  0
XRECORD
  5
40EB
102
{ACAD_REACTORS
330
40EA
102
}
330
40EA
100
AcDbXrecord
280
     1
102
RTVSPost2010Prop28
280
     0
102
RTVSPost2010PropOp28
 70
     1
102
RTVSPost2010Prop29
280
     1
102
RTVSPost2010PropOp29
 70
     1
102
RTVSPost2010Prop30
280
     1
102
RTVSPost2010PropOp30
 70
     1
102
RTVSPost2010Prop31
280
     0
102
RTVSPost2010PropOp31
 70
     1
102
RTVSPost2010Prop32
280
     0
102
RTVSPost2010PropOp32
 70
     1
102
RTVSPost2010Prop33
280
     0
102
RTVSPost2010PropOp33
 70
     1
102
RTVSPost2010Prop34
280
     0
102
RTVSPost2010PropOp34
 70
     1
102
RTVSPost2010Prop35
280
     0
102
RTVSPost2010PropOp35
 70
     1
102
RTVSPost2010Prop36
280
     0
102
RTVSPost2010PropOp36
 70
     1
102
RTVSPost2010Prop37
 90
       50
102
RTVSPost2010PropOp37
 70
     1
102
RTVSPost2010Prop38
140
0.0
102
RTVSPost2010PropOp38
 70
     1
102
RTVSPost2010Prop39
140
1.0
102
RTVSPost2010PropOp39
 70
     1
102
RTVSPost2010Prop40
 90
        0
102
RTVSPost2010PropOp40
 70
     1
102
RTVSPost2010Prop41ColorIndex
 90
       18
102
RTVSPost2010Prop41ColorRGB
 90
        0
102
RTVSPost2010PropOp41
 70
     1
102
RTVSPost2010Prop42
 90
       50
102
RTVSPost2010PropOp42
 70
     1
102
RTVSPost2010Prop43
 90
        3
102
RTVSPost2010PropOp43
 70
     1
102
RTVSPost2010Prop44ColorIndex
 90
        5
102
RTVSPost2010Prop44ColorRGB
 90
      255
102
RTVSPost2010PropOp44
 70
     1
102
RTVSPost2010Prop45
280
     0
102
RTVSPost2010PropOp45
 70
     1
102
RTVSPost2010Prop46
 90
       50
102
RTVSPost2010PropOp46
 70
     1
102
RTVSPost2010Prop47
 90
       50
102
RTVSPost2010PropOp47
 70
     1
102
RTVSPost2010Prop48
 90
       50
102
RTVSPost2010PropOp48
 70
     1
102
RTVSPost2010Prop49
280
     0
102
RTVSPost2010PropOp49
 70
     1
102
RTVSPost2010Prop50
 90
       50
102
RTVSPost2010PropOp50
 70
     1
102
RTVSPost2010Prop51ColorIndex
 90
      256
102
RTVSPost2010Prop51ColorRGB
 90
-16777216
102
RTVSPost2010PropOp51
 70
     0
102
RTVSPost2010Prop52
140
1.0
102
RTVSPost2010PropOp52
 70
     0
102
RTVSPost2010Prop53
 90
        2
102
RTVSPost2010PropOp53
 70
     1
102
RTVSPost2010Prop54
  1
strokes_ogs.tif
102
RTVSPost2010PropOp54
 70
     1
102
RTVSPost2010Prop55
280
     0
102
RTVSPost2010PropOp55
 70
     1
102
RTVSPost2010Prop56
140
1.0
102
RTVSPost2010PropOp56
 70
     1
102
RTVSPost2010Prop57
140
1.0
102
RTVSPost2010PropOp57
 70
     1
102
RTVSPropertyOp0
 70
     1
102
RTVSPropertyOp1
 70
     1
102
RTVSPropertyOp2
 70
     1
102
RTVSPropertyOp3
 70
     1
102
RTVSPropertyOp4
 70
     1
102
RTVSPropertyOp5
 70
     1
102
RTVSPropertyOp6
 70
     1
102
RTVSPropertyOp7
 70
     1
102
RTVSPropertyOp8
 70
     1
102
RTVSPropertyOp9
 70
     1
102
RTVSPropertyOp10
 70
     1
102
RTVSPropertyOp11
 70
     1
102
RTVSPropertyOp12
 70
     1
102
RTVSPropertyOp13
 70
     1
102
RTVSPropertyOp14
 70
     1
102
RTVSPropertyOp15
 70
     1
102
RTVSPropertyOp16
 70
     1
102
RTVSPropertyOp17
 70
     1
102
RTVSPropertyOp18
 70
     1
102
RTVSPropertyOp19
 70
     1
102
RTVSPropertyOp20
 70
     1
102
RTVSPropertyOp21
 70
     1
102
RTVSPropertyOp22
 70
     1
102
RTVSPropertyOp23
 70
     1
102
RTVSPropertyOp24
 70
     1
102
RTVSPropertyOp25
 70
     1
102
RTVSPropertyOp26
 70
     1
102
RTVSPropertyOp27
 70
     1
102
RTVSPropertyOp28
 70
     1
102
RTVSPropertyOp29
 70
     1
102
RTVSPropertyOp30
 70
     1
102
RTVSPropertyOp31
 70
     1
102
RTVSPropertyOp32
 70
     1
102
RTVSPropertyOp33
 70
     1
102
RTVSPropertyOp34
 70
     1
102
RTVSPropertyOp35
 70
     1
102
RTVSPropertyOp36
 70
     1
102
RTVSPropertyOp37
 70
     1
102
RTVSPropertyOp38
 70
     1
102
RTVSPropertyOp39
 70
     1
102
RTVSPropertyOp40
 70
     1
102
RTVSPropertyOp41
 70
     1
102
RTVSPropertyOp42
 70
     1
102
RTVSPropertyOp43
 70
     1
102
RTVSPropertyOp44
 70
     1
102
RTVSPropertyOp45
 70
     1
102
RTVSPropertyOp46
 70
     1
102
RTVSPropertyOp47
 70
     1
102
RTVSPropertyOp48
 70
     1
102
RTVSPropertyOp49
 70
     1
102
RTVSPropertyOp50
 70
     1
102
RTVSPropertyOp51
 70
     0
102
RTVSPropertyOp52
 70
     0
102
RTVSPropertyOp53
 70
     1
102
RTVSPropertyOp54
 70
     1
102
RTVSPropertyOp55
 70
     1
102
RTVSPropertyOp56
 70
     1
102
RTVSPropertyOp57
 70
     1
102
RTVSPropertyOp58
 70
     1
102
RTVSPropertyOp59
 70
     1
102
RTVSPropertyOp60
 70
     1
102
RTVSPropertyOp61
 70
     1
102
RTVSPropertyOp62
 70
     1
  0
XRECORD
  5
40DD
102
{ACAD_REACTORS
330
40DC
102
}
330
40DC
100
AcDbXrecord
280
     1
102
RTVSPost2010Prop28
280
     0
102
RTVSPost2010PropOp28
 70
     1
102
RTVSPost2010Prop29
280
     1
102
RTVSPost2010PropOp29
 70
     1
102
RTVSPost2010Prop30
280
     1
102
RTVSPost2010PropOp30
 70
     1
102
RTVSPost2010Prop31
280
     0
102
RTVSPost2010PropOp31
 70
     1
102
RTVSPost2010Prop32
280
     0
102
RTVSPost2010PropOp32
 70
     1
102
RTVSPost2010Prop33
280
     0
102
RTVSPost2010PropOp33
 70
     1
102
RTVSPost2010Prop34
280
     0
102
RTVSPost2010PropOp34
 70
     1
102
RTVSPost2010Prop35
280
     0
102
RTVSPost2010PropOp35
 70
     1
102
RTVSPost2010Prop36
280
     0
102
RTVSPost2010PropOp36
 70
     1
102
RTVSPost2010Prop37
 90
       50
102
RTVSPost2010PropOp37
 70
     1
102
RTVSPost2010Prop38
140
0.0
102
RTVSPost2010PropOp38
 70
     1
102
RTVSPost2010Prop39
140
1.0
102
RTVSPost2010PropOp39
 70
     1
102
RTVSPost2010Prop40
 90
        0
102
RTVSPost2010PropOp40
 70
     1
102
RTVSPost2010Prop41ColorIndex
 90
       18
102
RTVSPost2010Prop41ColorRGB
 90
        0
102
RTVSPost2010PropOp41
 70
     1
102
RTVSPost2010Prop42
 90
       50
102
RTVSPost2010PropOp42
 70
     1
102
RTVSPost2010Prop43
 90
        3
102
RTVSPost2010PropOp43
 70
     1
102
RTVSPost2010Prop44ColorIndex
 90
        5
102
RTVSPost2010Prop44ColorRGB
 90
      255
102
RTVSPost2010PropOp44
 70
     1
102
RTVSPost2010Prop45
280
     0
102
RTVSPost2010PropOp45
 70
     1
102
RTVSPost2010Prop46
 90
       50
102
RTVSPost2010PropOp46
 70
     1
102
RTVSPost2010Prop47
 90
       50
102
RTVSPost2010PropOp47
 70
     1
102
RTVSPost2010Prop48
 90
       50
102
RTVSPost2010PropOp48
 70
     1
102
RTVSPost2010Prop49
280
     0
102
RTVSPost2010PropOp49
 70
     1
102
RTVSPost2010Prop50
 90
       50
102
RTVSPost2010PropOp50
 70
     1
102
RTVSPost2010Prop51ColorIndex
 90
      256
102
RTVSPost2010Prop51ColorRGB
 90
-16777216
102
RTVSPost2010PropOp51
 70
     0
102
RTVSPost2010Prop52
140
1.0
102
RTVSPost2010PropOp52
 70
     0
102
RTVSPost2010Prop53
 90
        2
102
RTVSPost2010PropOp53
 70
     1
102
RTVSPost2010Prop54
  1
strokes_ogs.tif
102
RTVSPost2010PropOp54
 70
     1
102
RTVSPost2010Prop55
280
     0
102
RTVSPost2010PropOp55
 70
     1
102
RTVSPost2010Prop56
140
1.0
102
RTVSPost2010PropOp56
 70
     1
102
RTVSPost2010Prop57
140
1.0
102
RTVSPost2010PropOp57
 70
     1
102
RTVSPropertyOp0
 70
     1
102
RTVSPropertyOp1
 70
     1
102
RTVSPropertyOp2
 70
     1
102
RTVSPropertyOp3
 70
     1
102
RTVSPropertyOp4
 70
     1
102
RTVSPropertyOp5
 70
     1
102
RTVSPropertyOp6
 70
     1
102
RTVSPropertyOp7
 70
     1
102
RTVSPropertyOp8
 70
     1
102
RTVSPropertyOp9
 70
     1
102
RTVSPropertyOp10
 70
     1
102
RTVSPropertyOp11
 70
     1
102
RTVSPropertyOp12
 70
     1
102
RTVSPropertyOp13
 70
     1
102
RTVSPropertyOp14
 70
     1
102
RTVSPropertyOp15
 70
     1
102
RTVSPropertyOp16
 70
     1
102
RTVSPropertyOp17
 70
     1
102
RTVSPropertyOp18
 70
     1
102
RTVSPropertyOp19
 70
     1
102
RTVSPropertyOp20
 70
     1
102
RTVSPropertyOp21
 70
     1
102
RTVSPropertyOp22
 70
     1
102
RTVSPropertyOp23
 70
     1
102
RTVSPropertyOp24
 70
     1
102
RTVSPropertyOp25
 70
     1
102
RTVSPropertyOp26
 70
     1
102
RTVSPropertyOp27
 70
     1
102
RTVSPropertyOp28
 70
     1
102
RTVSPropertyOp29
 70
     1
102
RTVSPropertyOp30
 70
     1
102
RTVSPropertyOp31
 70
     1
102
RTVSPropertyOp32
 70
     1
102
RTVSPropertyOp33
 70
     1
102
RTVSPropertyOp34
 70
     1
102
RTVSPropertyOp35
 70
     1
102
RTVSPropertyOp36
 70
     1
102
RTVSPropertyOp37
 70
     1
102
RTVSPropertyOp38
 70
     1
102
RTVSPropertyOp39
 70
     1
102
RTVSPropertyOp40
 70
     1
102
RTVSPropertyOp41
 70
     1
102
RTVSPropertyOp42
 70
     1
102
RTVSPropertyOp43
 70
     1
102
RTVSPropertyOp44
 70
     1
102
RTVSPropertyOp45
 70
     1
102
RTVSPropertyOp46
 70
     1
102
RTVSPropertyOp47
 70
     1
102
RTVSPropertyOp48
 70
     1
102
RTVSPropertyOp49
 70
     1
102
RTVSPropertyOp50
 70
     1
102
RTVSPropertyOp51
 70
     0
102
RTVSPropertyOp52
 70
     0
102
RTVSPropertyOp53
 70
     1
102
RTVSPropertyOp54
 70
     1
102
RTVSPropertyOp55
 70
     1
102
RTVSPropertyOp56
 70
     1
102
RTVSPropertyOp57
 70
     1
102
RTVSPropertyOp58
 70
     1
102
RTVSPropertyOp59
 70
     1
102
RTVSPropertyOp60
 70
     1
102
RTVSPropertyOp61
 70
     1
102
RTVSPropertyOp62
 70
     1
  0
XRECORD
  5
40FD
102
{ACAD_REACTORS
330
40FC
102
}
330
40FC
100
AcDbXrecord
280
     1
102
RTVSPost2010Prop28
280
     0
102
RTVSPost2010PropOp28
 70
     1
102
RTVSPost2010Prop29
280
     1
102
RTVSPost2010PropOp29
 70
     1
102
RTVSPost2010Prop30
280
     1
102
RTVSPost2010PropOp30
 70
     1
102
RTVSPost2010Prop31
280
     0
102
RTVSPost2010PropOp31
 70
     1
102
RTVSPost2010Prop32
280
     0
102
RTVSPost2010PropOp32
 70
     1
102
RTVSPost2010Prop33
280
     0
102
RTVSPost2010PropOp33
 70
     1
102
RTVSPost2010Prop34
280
     0
102
RTVSPost2010PropOp34
 70
     1
102
RTVSPost2010Prop35
280
     0
102
RTVSPost2010PropOp35
 70
     1
102
RTVSPost2010Prop36
280
     0
102
RTVSPost2010PropOp36
 70
     1
102
RTVSPost2010Prop37
 90
       50
102
RTVSPost2010PropOp37
 70
     1
102
RTVSPost2010Prop38
140
0.0
102
RTVSPost2010PropOp38
 70
     1
102
RTVSPost2010Prop39
140
1.0
102
RTVSPost2010PropOp39
 70
     1
102
RTVSPost2010Prop40
 90
        0
102
RTVSPost2010PropOp40
 70
     1
102
RTVSPost2010Prop41ColorIndex
 90
       18
102
RTVSPost2010Prop41ColorRGB
 90
        0
102
RTVSPost2010PropOp41
 70
     1
102
RTVSPost2010Prop42
 90
       50
102
RTVSPost2010PropOp42
 70
     1
102
RTVSPost2010Prop43
 90
        3
102
RTVSPost2010PropOp43
 70
     1
102
RTVSPost2010Prop44ColorIndex
 90
        5
102
RTVSPost2010Prop44ColorRGB
 90
      255
102
RTVSPost2010PropOp44
 70
     1
102
RTVSPost2010Prop45
280
     0
102
RTVSPost2010PropOp45
 70
     1
102
RTVSPost2010Prop46
 90
       50
102
RTVSPost2010PropOp46
 70
     1
102
RTVSPost2010Prop47
 90
       50
102
RTVSPost2010PropOp47
 70
     1
102
RTVSPost2010Prop48
 90
       50
102
RTVSPost2010PropOp48
 70
     1
102
RTVSPost2010Prop49
280
     0
102
RTVSPost2010PropOp49
 70
     1
102
RTVSPost2010Prop50
 90
       50
102
RTVSPost2010PropOp50
 70
     1
102
RTVSPost2010Prop51ColorIndex
 90
      256
102
RTVSPost2010Prop51ColorRGB
 90
-16777216
102
RTVSPost2010PropOp51
 70
     0
102
RTVSPost2010Prop52
140
1.0
102
RTVSPost2010PropOp52
 70
     0
102
RTVSPost2010Prop53
 90
        2
102
RTVSPost2010PropOp53
 70
     1
102
RTVSPost2010Prop54
  1
strokes_ogs.tif
102
RTVSPost2010PropOp54
 70
     1
102
RTVSPost2010Prop55
280
     0
102
RTVSPost2010PropOp55
 70
     1
102
RTVSPost2010Prop56
140
1.0
102
RTVSPost2010PropOp56
 70
     1
102
RTVSPost2010Prop57
140
1.0
102
RTVSPost2010PropOp57
 70
     1
102
RTVSPropertyOp0
 70
     1
102
RTVSPropertyOp1
 70
     1
102
RTVSPropertyOp2
 70
     1
102
RTVSPropertyOp3
 70
     1
102
RTVSPropertyOp4
 70
     1
102
RTVSPropertyOp5
 70
     1
102
RTVSPropertyOp6
 70
     1
102
RTVSPropertyOp7
 70
     1
102
RTVSPropertyOp8
 70
     1
102
RTVSPropertyOp9
 70
     1
102
RTVSPropertyOp10
 70
     1
102
RTVSPropertyOp11
 70
     1
102
RTVSPropertyOp12
 70
     1
102
RTVSPropertyOp13
 70
     1
102
RTVSPropertyOp14
 70
     1
102
RTVSPropertyOp15
 70
     1
102
RTVSPropertyOp16
 70
     1
102
RTVSPropertyOp17
 70
     1
102
RTVSPropertyOp18
 70
     1
102
RTVSPropertyOp19
 70
     1
102
RTVSPropertyOp20
 70
     1
102
RTVSPropertyOp21
 70
     1
102
RTVSPropertyOp22
 70
     1
102
RTVSPropertyOp23
 70
     1
102
RTVSPropertyOp24
 70
     1
102
RTVSPropertyOp25
 70
     1
102
RTVSPropertyOp26
 70
     1
102
RTVSPropertyOp27
 70
     1
102
RTVSPropertyOp28
 70
     1
102
RTVSPropertyOp29
 70
     1
102
RTVSPropertyOp30
 70
     1
102
RTVSPropertyOp31
 70
     1
102
RTVSPropertyOp32
 70
     1
102
RTVSPropertyOp33
 70
     1
102
RTVSPropertyOp34
 70
     1
102
RTVSPropertyOp35
 70
     1
102
RTVSPropertyOp36
 70
     1
102
RTVSPropertyOp37
 70
     1
102
RTVSPropertyOp38
 70
     1
102
RTVSPropertyOp39
 70
     1
102
RTVSPropertyOp40
 70
     1
102
RTVSPropertyOp41
 70
     1
102
RTVSPropertyOp42
 70
     1
102
RTVSPropertyOp43
 70
     1
102
RTVSPropertyOp44
 70
     1
102
RTVSPropertyOp45
 70
     1
102
RTVSPropertyOp46
 70
     1
102
RTVSPropertyOp47
 70
     1
102
RTVSPropertyOp48
 70
     1
102
RTVSPropertyOp49
 70
     1
102
RTVSPropertyOp50
 70
     1
102
RTVSPropertyOp51
 70
     0
102
RTVSPropertyOp52
 70
     0
102
RTVSPropertyOp53
 70
     1
102
RTVSPropertyOp54
 70
     1
102
RTVSPropertyOp55
 70
     1
102
RTVSPropertyOp56
 70
     1
102
RTVSPropertyOp57
 70
     1
102
RTVSPropertyOp58
 70
     1
102
RTVSPropertyOp59
 70
     1
102
RTVSPropertyOp60
 70
     1
102
RTVSPropertyOp61
 70
     1
102
RTVSPropertyOp62
 70
     1
  0
ENDSEC
  0
EOF
