  0
SECTION
  2
HEADER
  9
$ACADVER
  1
AC1015
  9
$ACADMAINTVER
 70
    20
  9
$DWGCODEPAGE
  3
ANSI_1250
  9
$INSBASE
 10
0.0
 20
0.0
 30
0.0
  9
$EXTMIN
 10
-65.83416575500064
 20
-24.45114018680886
 30
-0.0000000349181948
  9
$EXTMAX
 10
120.3039104418176
 20
93.88153156950329
 30
0.0000000814935747
  9
$LIMMIN
 10
-170.0
 20
-170.0
  9
$LIMMAX
 10
519.0
 20
260.0
  9
$ORTHOMODE
 70
     0
  9
$REGENMODE
 70
     1
  9
$FILLMODE
 70
     1
  9
$QTEXTMODE
 70
     0
  9
$MIRRTEXT
 70
     0
  9
$LTSCALE
 40
1.0
  9
$ATTMODE
 70
     1
  9
$TEXTSIZE
 40
3.5
  9
$TRACEWID
 40
1.0
  9
$TEXTSTYLE
  7
SIMPLEX
  9
$CLAYER
  8
0
  9
$CELTYPE
  6
BYLAYER
  9
$CECOLOR
 62
   256
  9
$CELTSCALE
 40
1.0
  9
$DISPSILH
 70
     0
  9
$DIMSCALE
 40
1.0
  9
$DIMASZ
 40
2.5
  9
$DIMEXO
 40
0.0
  9
$DIMDLI
 40
3.75
  9
$DIMRND
 40
0.0
  9
$DIMDLE
 40
0.0
  9
$DIMEXE
 40
1.25
  9
$DIMTP
 40
0.0
  9
$DIMTM
 40
0.0
  9
$DIMTXT
 40
3.5
  9
$DIMCEN
 40
0.0
  9
$DIMTSZ
 40
0.0
  9
$DIMTOL
 70
     0
  9
$DIMLIM
 70
     0
  9
$DIMTIH
 70
     0
  9
$DIMTOH
 70
     0
  9
$DIMSE1
 70
     0
  9
$DIMSE2
 70
     0
  9
$DIMTAD
 70
     1
  9
$DIMZIN
 70
     8
  9
$DIMBLK
  1

  9
$DIMASO
 70
     1
  9
$DIMSHO
 70
     1
  9
$DIMPOST
  1

  9
$DIMAPOST
  1

  9
$DIMALT
 70
     0
  9
$DIMALTD
 70
     3
  9
$DIMALTF
 40
0.039370078
  9
$DIMLFAC
 40
1.0
  9
$DIMTOFL
 70
     0
  9
$DIMTVP
 40
0.0
  9
$DIMTIX
 70
     0
  9
$DIMSOXD
 70
     0
  9
$DIMSAH
 70
     0
  9
$DIMBLK1
  1

  9
$DIMBLK2
  1

  9
$DIMSTYLE
  2
STANDARD
  9
$DIMCLRD
 70
     0
  9
$DIMCLRE
 70
     0
  9
$DIMCLRT
 70
     0
  9
$DIMTFAC
 40
1.0
  9
$DIMGAP
 40
0.625
  9
$DIMJUST
 70
     0
  9
$DIMSD1
 70
     0
  9
$DIMSD2
 70
     0
  9
$DIMTOLJ
 70
     0
  9
$DIMTZIN
 70
     8
  9
$DIMALTZ
 70
     0
  9
$DIMALTTZ
 70
     0
  9
$DIMUPT
 70
     0
  9
$DIMDEC
 70
     2
  9
$DIMTDEC
 70
     2
  9
$DIMALTU
 70
     2
  9
$DIMALTTD
 70
     3
  9
$DIMTXSTY
  7
SIMPLEX
  9
$DIMAUNIT
 70
     0
  9
$DIMADEC
 70
     2
  9
$DIMALTRND
 40
0.0
  9
$DIMAZIN
 70
     2
  9
$DIMDSEP
 70
    46
  9
$DIMATFIT
 70
     3
  9
$DIMFRAC
 70
     0
  9
$DIMLDRBLK
  1

  9
$DIMLUNIT
 70
     2
  9
$DIMLWD
 70
    -2
  9
$DIMLWE
 70
    -2
  9
$DIMTMOVE
 70
     0
  9
$LUNITS
 70
     2
  9
$LUPREC
 70
     4
  9
$SKETCHINC
 40
1.0
  9
$FILLETRAD
 40
0.3
  9
$AUNITS
 70
     0
  9
$AUPREC
 70
     0
  9
$MENU
  1
c:\tdm21\cad\caduti13\tdm13
  9
$ELEVATION
 40
0.0
  9
$PELEVATION
 40
0.0
  9
$THICKNESS
 40
0.0
  9
$LIMCHECK
 70
     0
  9
$CHAMFERA
 40
0.0
  9
$CHAMFERB
 40
0.0
  9
$CHAMFERC
 40
0.0
  9
$CHAMFERD
 40
0.0
  9
$SKPOLY
 70
     0
  9
$TDCREATE
 40
2454957.593634259
  9
$TDUCREATE
 40
2454957.510309306
  9
$TDUPDATE
 40
2459548.596157408
  9
$TDUUPDATE
 40
2459548.554490741
  9
$TDINDWG
 40
0.2308138889
  9
$TDUSRTIMER
 40
0.2307970602
  9
$USRTIMER
 70
     1
  9
$ANGBASE
 50
0.0
  9
$ANGDIR
 70
     0
  9
$PDMODE
 70
     1
  9
$PDSIZE
 40
0.0
  9
$PLINEWID
 40
0.0
  9
$SPLFRAME
 70
     0
  9
$SPLINETYPE
 70
     6
  9
$SPLINESEGS
 70
     8
  9
$HANDSEED
  5
74C3
  9
$SURFTAB1
 70
     6
  9
$SURFTAB2
 70
     6
  9
$SURFTYPE
 70
     6
  9
$SURFU
 70
     6
  9
$SURFV
 70
     6
  9
$UCSBASE
  2

  9
$UCSNAME
  2

  9
$UCSORG
 10
0.0
 20
0.0
 30
0.0
  9
$UCSXDIR
 10
1.0
 20
0.0
 30
0.0
  9
$UCSYDIR
 10
0.0
 20
1.0
 30
0.0
  9
$UCSORTHOREF
  2

  9
$UCSORTHOVIEW
 70
     0
  9
$UCSORGTOP
 10
0.0
 20
0.0
 30
0.0
  9
$UCSORGBOTTOM
 10
0.0
 20
0.0
 30
0.0
  9
$UCSORGLEFT
 10
0.0
 20
0.0
 30
0.0
  9
$UCSORGRIGHT
 10
0.0
 20
0.0
 30
0.0
  9
$UCSORGFRONT
 10
0.0
 20
0.0
 30
0.0
  9
$UCSORGBACK
 10
0.0
 20
0.0
 30
0.0
  9
$PUCSBASE
  2

  9
$PUCSNAME
  2

  9
$PUCSORG
 10
0.0
 20
0.0
 30
0.0
  9
$PUCSXDIR
 10
1.0
 20
0.0
 30
0.0
  9
$PUCSYDIR
 10
0.0
 20
1.0
 30
0.0
  9
$PUCSORTHOREF
  2

  9
$PUCSORTHOVIEW
 70
     0
  9
$PUCSORGTOP
 10
0.0
 20
0.0
 30
0.0
  9
$PUCSORGBOTTOM
 10
0.0
 20
0.0
 30
0.0
  9
$PUCSORGLEFT
 10
0.0
 20
0.0
 30
0.0
  9
$PUCSORGRIGHT
 10
0.0
 20
0.0
 30
0.0
  9
$PUCSORGFRONT
 10
0.0
 20
0.0
 30
0.0
  9
$PUCSORGBACK
 10
0.0
 20
0.0
 30
0.0
  9
$USERI1
 70
     0
  9
$USERI2
 70
     0
  9
$USERI3
 70
     0
  9
$USERI4
 70
     0
  9
$USERI5
 70
     0
  9
$USERR1
 40
0.0
  9
$USERR2
 40
0.0
  9
$USERR3
 40
0.0
  9
$USERR4
 40
0.0
  9
$USERR5
 40
0.0
  9
$WORLDVIEW
 70
     1
  9
$SHADEDGE
 70
     3
  9
$SHADEDIF
 70
    70
  9
$TILEMODE
 70
     1
  9
$MAXACTVP
 70
    64
  9
$PINSBASE
 10
0.0
 20
0.0
 30
0.0
  9
$PLIMCHECK
 70
     0
  9
$PEXTMIN
 10
25.69999999999999
 20
19.5
 30
0.0
  9
$PEXTMAX
 10
231.3
 20
175.5
 30
0.0
  9
$PLIMMIN
 10
-20.0
 20
-7.5
  9
$PLIMMAX
 10
277.0
 20
202.5
  9
$UNITMODE
 70
     0
  9
$VISRETAIN
 70
     0
  9
$PLINEGEN
 70
     0
  9
$PSLTSCALE
 70
     1
  9
$TREEDEPTH
 70
  3020
  9
$CMLSTYLE
  2
STANDARD
  9
$CMLJUST
 70
     0
  9
$CMLSCALE
 40
20.0
  9
$PROXYGRAPHICS
 70
     1
  9
$MEASUREMENT
 70
     1
  9
$CELWEIGHT
370
    -1
  9
$ENDCAPS
280
     0
  9
$JOINSTYLE
280
     0
  9
$LWDISPLAY
290
     0
  9
$INSUNITS
 70
     4
  9
$HYPERLINKBASE
  1

  9
$STYLESHEET
  1
MONOCHROME.CTB
  9
$XEDIT
290
     1
  9
$CEPSNTYPE
380
     0
  9
$PSTYLEMODE
290
     1
  9
$FINGERPRINTGUID
  2
{46B44192-1510-48B1-B61B-CBE2ADA013A7}
  9
$VERSIONGUID
  2
{CA5B7A3B-90CA-714B-8468-7F8132E90B7B}
  9
$EXTNAMES
290
     1
  9
$PSVPSCALE
 40
0.0
  9
$OLESTARTUP
290
     0
  0
ENDSEC
  0
SECTION
  2
CLASSES
  0
CLASS
  1
ACDBDICTIONARYWDFLT
  2
AcDbDictionaryWithDefault
  3
ObjectDBX Classes
 90
        0
280
     0
281
     0
  0
CLASS
  1
DICTIONARYVAR
  2
AcDbDictionaryVar
  3
ObjectDBX Classes
 90
        0
280
     0
281
     0
  0
CLASS
  1
TABLESTYLE
  2
AcDbTableStyle
  3
ObjectDBX Classes
 90
     4095
280
     0
281
     0
  0
CLASS
  1
SCALE
  2
AcDbScale
  3
ObjectDBX Classes
 90
     1153
280
     0
281
     0
  0
CLASS
  1
VISUALSTYLE
  2
AcDbVisualStyle
  3
ObjectDBX Classes
 90
     4095
280
     0
281
     0
  0
CLASS
  1
MATERIAL
  2
AcDbMaterial
  3
ObjectDBX Classes
 90
     1153
280
     0
281
     0
  0
CLASS
  1
MLEADERSTYLE
  2
AcDbMLeaderStyle
  3
ACDB_MLEADERSTYLE_CLASS
 90
     4095
280
     0
281
     0
  0
CLASS
  1
ACDBSECTIONVIEWSTYLE
  2
AcDbSectionViewStyle
  3
ObjectDBX Classes
 90
     1025
280
     0
281
     0
  0
CLASS
  1
ACDBDETAILVIEWSTYLE
  2
AcDbDetailViewStyle
  3
ObjectDBX Classes
 90
     1025
280
     0
281
     0
  0
CLASS
  1
CELLSTYLEMAP
  2
AcDbCellStyleMap
  3
ObjectDBX Classes
 90
     1152
280
     0
281
     0
  0
CLASS
  1
SORTENTSTABLE
  2
AcDbSortentsTable
  3
ObjectDBX Classes
 90
        0
280
     0
281
     0
  0
CLASS
  1
ACDBPLACEHOLDER
  2
AcDbPlaceHolder
  3
ObjectDBX Classes
 90
        0
280
     0
281
     0
  0
CLASS
  1
LAYOUT
  2
AcDbLayout
  3
ObjectDBX Classes
 90
        0
280
     0
281
     0
  0
CLASS
  1
EXACXREFPANELOBJECT
  2
ExAcXREFPanelObject
  3
EXAC_ESW
 90
    33793
280
     0
281
     0
  0
CLASS
  1
NPOCOLLECTION
  2
AcDbImpNonPersistentObjectsCollection
  3
ObjectDBX Classes
 90
    33921
280
     0
281
     0
  0
CLASS
  1
DIMASSOC
  2
AcDbDimAssoc
  3
"AcDbDimAssoc|Product Desc:     AcDim ARX App For Dimension|Company:          Autodesk, Inc.|WEB Address:      www.autodesk.com"
 90
    32768
280
     0
281
     0
  0
ENDSEC
  0
SECTION
  2
TABLES
  0
TABLE
  2
VPORT
  5
8
330
0
100
AcDbSymbolTable
 70
     1
  0
VPORT
  5
39A
330
8
100
AcDbSymbolTableRecord
100
AcDbViewportTableRecord
  2
*Active
 70
     0
 10
0.0
 20
0.0
 11
1.0
 21
1.0
 12
12.49340395218718
 22
30.44351376530267
 13
0.0
 23
0.0
 14
5.0
 24
5.0
 15
5.0
 25
5.0
 16
0.0
 26
0.0
 36
1.0
 17
0.0
 27
0.0
 37
0.0
 40
190.6593981148623
 41
2.292712066905615
 42
50.0
 43
0.0
 44
0.0
 50
0.0
 51
0.0
 71
     0
 72
  2000
 73
     1
 74
     1
 75
     0
 76
     0
 77
     0
 78
     0
281
     0
 65
     1
110
0.0
120
0.0
130
0.0
111
1.0
121
0.0
131
0.0
112
0.0
122
1.0
132
0.0
 79
     0
146
0.0
1001
ACAD_NAV_VCDISPLAY
1070
     3
  0
ENDTAB
  0
TABLE
  2
LTYPE
  5
5
330
0
100
AcDbSymbolTable
 70
     6
  0
LTYPE
  5
12
330
5
100
AcDbSymbolTableRecord
100
AcDbLinetypeTableRecord
  2
BYBLOCK
 70
     0
  3

 72
    65
 73
     0
 40
0.0
  0
LTYPE
  5
13
330
5
100
AcDbSymbolTableRecord
100
AcDbLinetypeTableRecord
  2
BYLAYER
 70
     0
  3

 72
    65
 73
     0
 40
0.0
  0
LTYPE
  5
14
330
5
100
AcDbSymbolTableRecord
100
AcDbLinetypeTableRecord
  2
CONTINUOUS
 70
     0
  3
Solid line
 72
    65
 73
     0
 40
0.0
  0
LTYPE
  5
20
330
5
100
AcDbSymbolTableRecord
100
AcDbLinetypeTableRecord
  2
HIDDEN
 70
     0
  3
Hidden __ __ __ __ __ __ __ __ __ __ __ __ __ _
 72
    65
 73
     2
 40
9.524999999999996
 49
6.349999999999997
 74
     0
 49
-3.174999999999998
 74
     0
  0
LTYPE
  5
351
330
5
100
AcDbSymbolTableRecord
100
AcDbLinetypeTableRecord
  2
CENTER
 70
     0
  3
Dash dot __ . __ . __ . __ . __ . __ . __ . __
 72
    65
 73
     4
 40
25.4
 49
12.7
 74
     0
 49
-6.349999999999997
 74
     0
 49
0.0
 74
     0
 49
-6.349999999999997
 74
     0
  0
LTYPE
  5
1819
330
5
100
AcDbSymbolTableRecord
100
AcDbLinetypeTableRecord
  2
Continuous2
 70
     0
  3
Solid Line
 72
    65
 73
     0
 40
0.0
  0
LTYPE
  5
1F8F
330
5
100
AcDbSymbolTableRecord
100
AcDbLinetypeTableRecord
  2
CENTER2
 70
     0
  3
Center (0.5x) ___ _ ___ _ ___ _ ___ _ ___ _ ___
 72
    65
 73
     4
 40
1.125
 49
0.75
 74
     0
 49
-0.125
 74
     0
 49
0.125
 74
     0
 49
-0.125
 74
     0
  0
LTYPE
  5
4F59
330
5
100
AcDbSymbolTableRecord
100
AcDbLinetypeTableRecord
  2
ACAD_DYNDIM_LINETYPE
 70
     0
  3
Dot (.5x) .....................................
 72
    83
 73
     2
 40
0.125
 49
0.0
 74
     0
 49
-0.125
 74
     0
1001
ACAD_EXEMPT_FROM_CAD_STANDARDS
1070
     1
  0
ENDTAB
  0
TABLE
  2
LAYER
  5
2
102
{ACAD_XDICTIONARY
360
5BC
102
}
330
0
100
AcDbSymbolTable
 70
    20
  0
LAYER
  5
F
102
{ACAD_XDICTIONARY
360
59B
102
}
330
2
100
AcDbSymbolTableRecord
100
AcDbLayerTableRecord
  2
0
 70
     0
 62
     7
  6
CONTINUOUS
370
    -3
390
300
  0
LAYER
  5
23
102
{ACAD_XDICTIONARY
360
59D
102
}
330
2
100
AcDbSymbolTableRecord
100
AcDbLayerTableRecord
  2
1
 70
     0
 62
     4
  6
CONTINUOUS
370
    -3
390
300
  0
LAYER
  5
24
102
{ACAD_XDICTIONARY
360
59F
102
}
330
2
100
AcDbSymbolTableRecord
100
AcDbLayerTableRecord
  2
SK1
 70
     0
 62
     4
  6
CONTINUOUS
370
    -3
390
300
  0
LAYER
  5
25
102
{ACAD_XDICTIONARY
360
5A1
102
}
330
2
100
AcDbSymbolTableRecord
100
AcDbLayerTableRecord
  2
2
 70
     0
 62
     7
  6
CONTINUOUS
370
    -3
390
300
  0
LAYER
  5
26
102
{ACAD_XDICTIONARY
360
5A3
102
}
330
2
100
AcDbSymbolTableRecord
100
AcDbLayerTableRecord
  2
2L
 70
     0
 62
     7
  6
CONTINUOUS
370
    -3
390
300
  0
LAYER
  5
27
102
{ACAD_XDICTIONARY
360
5A5
102
}
330
2
100
AcDbSymbolTableRecord
100
AcDbLayerTableRecord
  2
SK2
 70
     0
 62
     7
  6
CONTINUOUS
370
    -3
390
300
  0
LAYER
  5
28
102
{ACAD_XDICTIONARY
360
5A7
102
}
330
2
100
AcDbSymbolTableRecord
100
AcDbLayerTableRecord
  2
3
 70
     0
 62
     1
  6
HIDDEN
370
    -3
390
300
  0
LAYER
  5
29
102
{ACAD_XDICTIONARY
360
5A9
102
}
330
2
100
AcDbSymbolTableRecord
100
AcDbLayerTableRecord
  2
SK3
 70
     0
 62
     1
  6
HIDDEN
370
    -3
390
300
  0
LAYER
  5
2A
102
{ACAD_XDICTIONARY
360
5AB
102
}
330
2
100
AcDbSymbolTableRecord
100
AcDbLayerTableRecord
  2
4
 70
     0
 62
     2
  6
CENTER
370
    -3
390
300
  0
LAYER
  5
2B
102
{ACAD_XDICTIONARY
360
5AD
102
}
330
2
100
AcDbSymbolTableRecord
100
AcDbLayerTableRecord
  2
SK4
 70
     0
 62
     2
  6
CENTER
370
    -3
390
300
  0
LAYER
  5
2C
102
{ACAD_XDICTIONARY
360
5AF
102
}
330
2
100
AcDbSymbolTableRecord
100
AcDbLayerTableRecord
  2
5
 70
     0
 62
     7
  6
CONTINUOUS
370
    -3
390
300
  0
LAYER
  5
2D
102
{ACAD_XDICTIONARY
360
5B1
102
}
330
2
100
AcDbSymbolTableRecord
100
AcDbLayerTableRecord
  2
6
 70
     0
 62
     5
  6
CONTINUOUS
370
    -3
390
300
  0
LAYER
  5
2E
102
{ACAD_XDICTIONARY
360
5B3
102
}
330
2
100
AcDbSymbolTableRecord
100
AcDbLayerTableRecord
  2
SK6
 70
     0
 62
     5
  6
CONTINUOUS
370
    -3
390
300
  0
LAYER
  5
2F
330
2
100
AcDbSymbolTableRecord
100
AcDbLayerTableRecord
  2
DEFPOINTS
 70
     0
 62
     7
  6
CONTINUOUS
290
     0
370
    -3
390
300
  0
LAYER
  5
375
102
{ACAD_XDICTIONARY
360
5B5
102
}
330
2
100
AcDbSymbolTableRecord
100
AcDbLayerTableRecord
  2
CUT
 70
     0
 62
     1
  6
CONTINUOUS
370
    -3
390
300
  0
LAYER
  5
376
102
{ACAD_XDICTIONARY
360
5B7
102
}
330
2
100
AcDbSymbolTableRecord
100
AcDbLayerTableRecord
  2
NOCUT
 70
     0
 62
    -7
  6
CONTINUOUS
370
    -3
390
300
  0
LAYER
  5
39BB
330
2
100
AcDbSymbolTableRecord
100
AcDbLayerTableRecord
  2
CENTER LINE
 70
     0
 62
     1
  6
CENTER2
370
    -3
390
300
1001
AcAecLayerStandard
1000

1000

  0
LAYER
  5
39BC
330
2
100
AcDbSymbolTableRecord
100
AcDbLayerTableRecord
  2
LAYOUT
 70
     0
 62
     7
  6
CONTINUOUS
370
    -3
390
300
1001
AcAecLayerStandard
1000

1000

  0
ENDTAB
  0
TABLE
  2
STYLE
  5
3
330
0
100
AcDbSymbolTable
 70
     8
  0
STYLE
  5
10
330
3
100
AcDbSymbolTableRecord
100
AcDbTextStyleTableRecord
  2
STANDARD
 70
     0
 40
0.0
 41
1.0
 50
0.0
 71
     0
 42
5.0
  3
txt
  4

  0
STYLE
  5
1D
330
3
100
AcDbSymbolTableRecord
100
AcDbTextStyleTableRecord
  2
TXT
 70
     0
 40
8.0
 41
1.0
 50
0.0
 71
     0
 42
8.0
  3
txt
  4

  0
STYLE
  5
1E
330
3
100
AcDbSymbolTableRecord
100
AcDbTextStyleTableRecord
  2
SIMPLEX
 70
     0
 40
0.0
 41
1.0
 50
0.0
 71
     0
 42
3.5
  3
simplex
  4

  0
STYLE
  5
34C
330
3
100
AcDbSymbolTableRecord
100
AcDbTextStyleTableRecord
  2

 70
     1
 40
0.0
 41
1.0
 50
0.0
 71
     0
 42
2.5
  3
ltypeshp.shx
  4

  0
STYLE
  5
649
330
3
100
AcDbSymbolTableRecord
100
AcDbTextStyleTableRecord
  2
cesky
 70
     0
 40
0.0
 41
1.0
 50
0.0
 71
     0
 42
0.2
  3
monos.ttf
  4

1001
ACAD
1000
Monospac821 BT
1071
        0
  0
STYLE
  5
181B
330
3
100
AcDbSymbolTableRecord
100
AcDbTextStyleTableRecord
  2
MCArial
 70
     0
 40
0.0
 41
1.0
 50
0.0
 71
     0
 42
2.5
  3
arial.ttf
  4

1001
ACAD
1000
Arial
1071
      256
  0
STYLE
  5
1F91
330
3
100
AcDbSymbolTableRecord
100
AcDbTextStyleTableRecord
  2
HPMT L
 70
     0
 40
2.0
 41
0.8
 50
0.0
 71
     0
 42
0.8
  3
arial.ttf
  4

1001
ACAD
1000
Arial
1071
      290
  0
STYLE
  5
39BD
330
3
100
AcDbSymbolTableRecord
100
AcDbTextStyleTableRecord
  2
HPMT XL
 70
     0
 40
2.5
 41
0.8
 50
0.0
 71
     0
 42
0.8
  3
arial.ttf
  4

1001
ACAD
1000
Arial
1071
      290
  0
ENDTAB
  0
TABLE
  2
VIEW
  5
6
330
0
100
AcDbSymbolTable
 70
     0
  0
ENDTAB
  0
TABLE
  2
UCS
  5
7
330
0
100
AcDbSymbolTable
 70
     0
  0
ENDTAB
  0
TABLE
  2
APPID
  5
9
330
0
100
AcDbSymbolTable
 70
    18
  0
APPID
  5
11
330
9
100
AcDbSymbolTableRecord
100
AcDbRegAppTableRecord
  2
ACAD
 70
     0
  0
APPID
  5
58E
330
9
100
AcDbSymbolTableRecord
100
AcDbRegAppTableRecord
  2
ACAD_MLEADERVER
 70
     0
  0
APPID
  5
5C5
330
9
100
AcDbSymbolTableRecord
100
AcDbRegAppTableRecord
  2
ACAD_NAV_VCDISPLAY
 70
     0
  0
APPID
  5
617
330
9
100
AcDbSymbolTableRecord
100
AcDbRegAppTableRecord
  2
ACAD_PSEXT
 70
     0
  0
APPID
  5
623
330
9
100
AcDbSymbolTableRecord
100
AcDbRegAppTableRecord
  2
ACAD_EXEMPT_FROM_CAD_STANDARDS
 70
     0
  0
APPID
  5
64A
330
9
100
AcDbSymbolTableRecord
100
AcDbRegAppTableRecord
  2
ACAD_DSTYLE_DIMBREAK
 70
     0
  0
APPID
  5
78A
330
9
100
AcDbSymbolTableRecord
100
AcDbRegAppTableRecord
  2
DCO15
 70
     0
  0
APPID
  5
1D92
330
9
100
AcDbSymbolTableRecord
100
AcDbRegAppTableRecord
  2
ACAD_DSTYLE_DIMRADIAL_EXTENSION
 70
     0
  0
APPID
  5
1F97
330
9
100
AcDbSymbolTableRecord
100
AcDbRegAppTableRecord
  2
AcAecLayerStandard
 70
     0
  0
APPID
  5
1F98
330
9
100
AcDbSymbolTableRecord
100
AcDbRegAppTableRecord
  2
AcadAnnotative
 70
     0
  0
APPID
  5
1F99
330
9
100
AcDbSymbolTableRecord
100
AcDbRegAppTableRecord
  2
ACAD_DSTYLE_DIMTALN
 70
     0
  0
APPID
  5
3892
330
9
100
AcDbSymbolTableRecord
100
AcDbRegAppTableRecord
  2
ACAD_DSTYLE_DIMJOGGED_JOGANGLE_SYMBOL
 70
     0
  0
APPID
  5
3893
330
9
100
AcDbSymbolTableRecord
100
AcDbRegAppTableRecord
  2
ACAD_DSTYLE_DIM_LINETYPE
 70
     0
  0
APPID
  5
3894
330
9
100
AcDbSymbolTableRecord
100
AcDbRegAppTableRecord
  2
ACAD_DSTYLE_DIM_EXT1_LINETYPE
 70
     0
  0
APPID
  5
3895
330
9
100
AcDbSymbolTableRecord
100
AcDbRegAppTableRecord
  2
ACAD_DSTYLE_DIM_EXT2_LINETYPE
 70
     0
  0
APPID
  5
3896
330
9
100
AcDbSymbolTableRecord
100
AcDbRegAppTableRecord
  2
ACAD_DSTYLE_DIMARC_LENGTH_SYMBOL
 70
     0
  0
APPID
  5
39BE
330
9
100
AcDbSymbolTableRecord
100
AcDbRegAppTableRecord
  2
ACAD_DSTYLE_DIMINSPECT
 70
     0
  0
APPID
  5
7192
330
9
100
AcDbSymbolTableRecord
100
AcDbRegAppTableRecord
  2
AcCmTransparency
 70
     0
  0
ENDTAB
  0
TABLE
  2
DIMSTYLE
  5
A
330
0
100
AcDbSymbolTable
 70
     8
100
AcDbDimStyleTable
 71
     1
340
3F
  0
DIMSTYLE
105
3F
102
{ACAD_REACTORS
330
703A
330
703B
330
70B2
330
70B3
330
7102
102
}
330
A
100
AcDbSymbolTableRecord
100
AcDbDimStyleTableRecord
  2
STANDARD
 70
     0
 41
2.5
 42
0.0
 43
3.75
 44
1.25
 73
     0
 74
     0
 77
     1
 78
     8
 79
     2
140
3.5
141
0.0
143
0.039370078
147
0.625
171
     3
179
     2
271
     2
272
     2
274
     3
283
     0
284
     8
340
1E
  0
DIMSTYLE
105
181C
330
A
100
AcDbSymbolTableRecord
100
AcDbDimStyleTableRecord
  2
ISO-25
 70
     0
 41
2.5
 42
0.625
 43
3.75
 44
1.25
 73
     0
 74
     0
 77
     1
 78
     8
140
2.5
141
2.5
143
0.03937007874016
147
0.625
171
     3
172
     1
271
     2
272
     2
274
     3
278
    44
283
     0
284
     8
340
10
  0
DIMSTYLE
105
1F92
330
A
100
AcDbSymbolTableRecord
100
AcDbDimStyleTableRecord
  2
HPMT 1
 70
     0
 41
1.5
 42
1.0
 44
0.2
 48
0.000000001
 74
     0
140
2.0
141
0.0
143
2.0
147
1.0
171
     1
176
   256
177
   256
178
   256
271
     3
272
     2
274
     1
288
     1
289
     2
340
1F91
371
    -1
372
    -1
1001
AcadAnnotative
1000
AnnotativeData
1002
{
1070
     1
1070
     0
1002
}
1001
ACAD_DSTYLE_DIMBREAK
1070
   391
1040
0.125
1001
ACAD_DSTYLE_DIMTALN
1070
   392
1070
     0
1001
ACAD_DSTYLE_DIMJOGGED_JOGANGLE_SYMBOL
1070
   384
1040
0.7853981634000001
1001
ACAD_DSTYLE_DIM_LINETYPE
1070
   380
1005
13
1001
ACAD_DSTYLE_DIM_EXT1_LINETYPE
1070
   381
1005
13
1001
ACAD_DSTYLE_DIM_EXT2_LINETYPE
1070
   382
1005
13
  0
DIMSTYLE
105
1F93
330
A
100
AcDbSymbolTableRecord
100
AcDbDimStyleTableRecord
  2
HPMT 2
 70
     0
 41
1.5
 42
1.0
 44
0.2
 48
0.000000001
140
2.0
141
0.0
143
2.0
147
1.0
171
     1
172
     1
176
   256
177
   256
271
     3
272
     2
274
     1
288
     1
289
     2
340
1F91
371
    -1
372
    -1
1001
AcadAnnotative
1000
AnnotativeData
1002
{
1070
     1
1070
     0
1002
}
1001
ACAD_DSTYLE_DIMBREAK
1070
   391
1040
0.125
1001
ACAD_DSTYLE_DIMTALN
1070
   392
1070
     0
1001
ACAD_DSTYLE_DIMJOGGED_JOGANGLE_SYMBOL
1070
   384
1040
0.7853981634000001
1001
ACAD_DSTYLE_DIM_LINETYPE
1070
   380
1005
13
1001
ACAD_DSTYLE_DIM_EXT1_LINETYPE
1070
   381
1005
13
1001
ACAD_DSTYLE_DIM_EXT2_LINETYPE
1070
   382
1005
13
  0
DIMSTYLE
105
1F94
330
A
100
AcDbSymbolTableRecord
100
AcDbDimStyleTableRecord
  2
HPMT 3
 70
     0
 41
1.5
 42
1.0
 44
0.2
 48
0.000000001
 74
     0
140
2.0
141
0.0
143
2.0
147
1.0
171
     1
176
   256
177
   256
178
   256
271
     3
272
     2
274
     1
288
     1
289
     2
340
1F91
371
    -1
372
    -1
1001
AcadAnnotative
1000
AnnotativeData
1002
{
1070
     1
1070
     0
1002
}
1001
ACAD_DSTYLE_DIMBREAK
1070
   391
1040
0.125
1001
ACAD_DSTYLE_DIMTALN
1070
   392
1070
     0
1001
ACAD_DSTYLE_DIMARC_LENGTH_SYMBOL
1070
   379
1070
     2
1001
ACAD_DSTYLE_DIMJOGGED_JOGANGLE_SYMBOL
1070
   384
1040
0.7853981634000001
1001
ACAD_DSTYLE_DIM_LINETYPE
1070
   380
1005
13
1001
ACAD_DSTYLE_DIM_EXT1_LINETYPE
1070
   381
1005
13
1001
ACAD_DSTYLE_DIM_EXT2_LINETYPE
1070
   382
1005
13
  0
DIMSTYLE
105
1F95
330
A
100
AcDbSymbolTableRecord
100
AcDbDimStyleTableRecord
  2
HPMT 4
 70
     0
 41
1.5
 42
1.0
 44
0.2
 48
0.000000001
140
2.0
141
0.0
143
2.0
147
1.0
171
     1
176
   256
177
   256
178
   256
271
     3
272
     2
274
     1
279
     2
288
     1
289
     2
340
1F91
371
    -1
372
    -1
1001
AcadAnnotative
1000
AnnotativeData
1002
{
1070
     1
1070
     0
1002
}
1001
ACAD_DSTYLE_DIMBREAK
1070
   391
1040
0.125
1001
ACAD_DSTYLE_DIMTALN
1070
   392
1070
     0
1001
ACAD_DSTYLE_DIMJOGGED_JOGANGLE_SYMBOL
1070
   384
1040
0.7853981634000001
1001
ACAD_DSTYLE_DIM_LINETYPE
1070
   380
1005
13
1001
ACAD_DSTYLE_DIM_EXT1_LINETYPE
1070
   381
1005
13
1001
ACAD_DSTYLE_DIM_EXT2_LINETYPE
1070
   382
1005
13
  0
DIMSTYLE
105
1F96
330
A
100
AcDbSymbolTableRecord
100
AcDbDimStyleTableRecord
  2
HPMT 5
 70
     0
 41
1.5
 42
1.0
 44
0.2
 48
0.000000001
 73
     0
140
2.0
141
0.0
143
2.0
147
1.0
171
     1
176
   256
177
   256
178
   256
271
     3
272
     2
274
     1
279
     1
289
     2
340
1F91
371
    -1
372
    -1
1001
AcadAnnotative
1000
AnnotativeData
1002
{
1070
     1
1070
     0
1002
}
1001
ACAD_DSTYLE_DIMBREAK
1070
   391
1040
0.125
1001
ACAD_DSTYLE_DIMTALN
1070
   392
1070
     0
1001
ACAD_DSTYLE_DIMARC_LENGTH_SYMBOL
1070
   379
1070
     2
1001
ACAD_DSTYLE_DIMJOGGED_JOGANGLE_SYMBOL
1070
   384
1040
0.7853981634000001
1001
ACAD_DSTYLE_DIM_LINETYPE
1070
   380
1005
13
1001
ACAD_DSTYLE_DIM_EXT1_LINETYPE
1070
   381
1005
13
1001
ACAD_DSTYLE_DIM_EXT2_LINETYPE
1070
   382
1005
13
  0
ENDTAB
  0
TABLE
  2
BLOCK_RECORD
  5
1
330
0
100
AcDbSymbolTable
 70
    33
  0
BLOCK_RECORD
  5
18
102
{ACAD_XDICTIONARY
360
16F5
102
}
330
1
100
AcDbSymbolTableRecord
100
AcDbBlockTableRecord
  2
*MODEL_SPACE
340
303
  0
BLOCK_RECORD
  5
338
330
1
100
AcDbSymbolTableRecord
100
AcDbBlockTableRecord
  2
*Paper_Space
340
33B
  0
BLOCK_RECORD
  5
500
330
1
100
AcDbSymbolTableRecord
100
AcDbBlockTableRecord
  2
*D0
340
0
  0
BLOCK_RECORD
  5
50D
330
1
100
AcDbSymbolTableRecord
100
AcDbBlockTableRecord
  2
*D1
340
0
  0
BLOCK_RECORD
  5
51A
330
1
100
AcDbSymbolTableRecord
100
AcDbBlockTableRecord
  2
*D2
340
0
  0
BLOCK_RECORD
  5
527
330
1
100
AcDbSymbolTableRecord
100
AcDbBlockTableRecord
  2
*D3
340
0
  0
BLOCK_RECORD
  5
534
330
1
100
AcDbSymbolTableRecord
100
AcDbBlockTableRecord
  2
*D4
340
0
  0
BLOCK_RECORD
  5
541
330
1
100
AcDbSymbolTableRecord
100
AcDbBlockTableRecord
  2
*D5
340
0
  0
BLOCK_RECORD
  5
1C50
330
1
100
AcDbSymbolTableRecord
100
AcDbBlockTableRecord
  2
*D6
340
0
  0
BLOCK_RECORD
  5
1CBF
330
1
100
AcDbSymbolTableRecord
100
AcDbBlockTableRecord
  2
*D7
340
0
  0
BLOCK_RECORD
  5
1D6B
330
1
100
AcDbSymbolTableRecord
100
AcDbBlockTableRecord
  2
*D8
340
0
  0
BLOCK_RECORD
  5
1D94
330
1
100
AcDbSymbolTableRecord
100
AcDbBlockTableRecord
  2
*D9
340
0
  0
BLOCK_RECORD
  5
1DAF
330
1
100
AcDbSymbolTableRecord
100
AcDbBlockTableRecord
  2
*D10
340
0
  0
BLOCK_RECORD
  5
1DBB
330
1
100
AcDbSymbolTableRecord
100
AcDbBlockTableRecord
  2
*D11
340
0
  0
BLOCK_RECORD
  5
3741
330
1
100
AcDbSymbolTableRecord
100
AcDbBlockTableRecord
  2
*D12
340
0
  0
BLOCK_RECORD
  5
3769
330
1
100
AcDbSymbolTableRecord
100
AcDbBlockTableRecord
  2
*D13
340
0
  0
BLOCK_RECORD
  5
3791
330
1
100
AcDbSymbolTableRecord
100
AcDbBlockTableRecord
  2
*D14
340
0
  0
BLOCK_RECORD
  5
37C2
330
1
100
AcDbSymbolTableRecord
100
AcDbBlockTableRecord
  2
*D15
340
0
  0
BLOCK_RECORD
  5
37EA
330
1
100
AcDbSymbolTableRecord
100
AcDbBlockTableRecord
  2
*D16
340
0
  0
BLOCK_RECORD
  5
3812
330
1
100
AcDbSymbolTableRecord
100
AcDbBlockTableRecord
  2
*D17
340
0
  0
BLOCK_RECORD
  5
3825
330
1
100
AcDbSymbolTableRecord
100
AcDbBlockTableRecord
  2
*D18
340
0
  0
BLOCK_RECORD
  5
3986
330
1
100
AcDbSymbolTableRecord
100
AcDbBlockTableRecord
  2
*D19
340
0
  0
BLOCK_RECORD
  5
3993
330
1
100
AcDbSymbolTableRecord
100
AcDbBlockTableRecord
  2
*D20
340
0
  0
BLOCK_RECORD
  5
39A0
330
1
100
AcDbSymbolTableRecord
100
AcDbBlockTableRecord
  2
*D21
340
0
  0
BLOCK_RECORD
  5
39AD
330
1
100
AcDbSymbolTableRecord
100
AcDbBlockTableRecord
  2
*D22
340
0
  0
BLOCK_RECORD
  5
4E7B
330
1
100
AcDbSymbolTableRecord
100
AcDbBlockTableRecord
  2
*D23
340
0
  0
BLOCK_RECORD
  5
4E88
330
1
100
AcDbSymbolTableRecord
100
AcDbBlockTableRecord
  2
*D24
340
0
  0
BLOCK_RECORD
  5
4E95
330
1
100
AcDbSymbolTableRecord
100
AcDbBlockTableRecord
  2
*D25
340
0
  0
BLOCK_RECORD
  5
4EB6
330
1
100
AcDbSymbolTableRecord
100
AcDbBlockTableRecord
  2
*D26
340
0
  0
BLOCK_RECORD
  5
703C
330
1
100
AcDbSymbolTableRecord
100
AcDbBlockTableRecord
  2
*D27
340
0
  0
BLOCK_RECORD
  5
7048
330
1
100
AcDbSymbolTableRecord
100
AcDbBlockTableRecord
  2
*D28
340
0
  0
BLOCK_RECORD
  5
70B4
330
1
100
AcDbSymbolTableRecord
100
AcDbBlockTableRecord
  2
*D29
340
0
  0
BLOCK_RECORD
  5
70C0
330
1
100
AcDbSymbolTableRecord
100
AcDbBlockTableRecord
  2
*D30
340
0
  0
BLOCK_RECORD
  5
7103
330
1
100
AcDbSymbolTableRecord
100
AcDbBlockTableRecord
  2
*D31
340
0
  0
ENDTAB
  0
ENDSEC
  0
SECTION
  2
BLOCKS
  0
BLOCK
  5
32
330
18
100
AcDbEntity
  8
0
100
AcDbBlockBegin
  2
*MODEL_SPACE
 70
     0
 10
0.0
 20
0.0
 30
0.0
  3
*MODEL_SPACE
  1

  0
ENDBLK
  5
33
330
18
100
AcDbEntity
  8
0
100
AcDbBlockEnd
  0
BLOCK
  5
339
330
338
100
AcDbEntity
 67
     1
  8
0
100
AcDbBlockBegin
  2
*Paper_Space
 70
     0
 10
0.0
 20
0.0
 30
0.0
  3
*Paper_Space
  1

  0
ENDBLK
  5
33A
330
338
100
AcDbEntity
 67
     1
  8
0
100
AcDbBlockEnd
  0
BLOCK
  5
501
330
500
100
AcDbEntity
  8
0
100
AcDbBlockBegin
  2
*D0
 70
     1
 10
0.0
 20
0.0
 30
0.0
  3
*D0
  1

  0
LINE
  5
1E49
330
500
100
AcDbEntity
  8
2
 62
     0
370
    -2
100
AcDbLine
 10
236.6667411095106
 20
4.750842884378243
 30
0.0
 11
252.9167411095107
 21
4.750842884378247
 31
0.0
  0
LINE
  5
1E4A
330
500
100
AcDbEntity
  8
2
 62
     0
370
    -2
100
AcDbLine
 10
236.6667411095106
 20
-5.249157115621756
 30
0.0
 11
252.9167411095107
 21
-5.249157115621755
 31
0.0
  0
LINE
  5
1E4B
330
500
100
AcDbEntity
  8
2
 62
     0
370
    -2
100
AcDbLine
 10
251.6667411095107
 20
2.250842884378247
 30
0.0
 11
251.6667411095107
 21
-2.749157115621752
 31
0.0
  0
SOLID
  5
1E4C
330
500
100
AcDbEntity
  8
2
 62
     0
100
AcDbTrace
 10
251.2500744428441
 20
2.250842884378247
 30
0.0
 11
252.0834077761774
 21
2.250842884378247
 31
0.0
 12
251.6667411095107
 22
4.750842884378247
 32
0.0
 13
251.6667411095107
 23
4.750842884378247
 33
0.0
  0
SOLID
  5
1E4D
330
500
100
AcDbEntity
  8
2
 62
     0
100
AcDbTrace
 10
251.2500744428441
 20
-2.749157115621752
 30
0.0
 11
252.0834077761774
 21
-2.749157115621752
 31
0.0
 12
251.6667411095107
 22
-5.249157115621755
 32
0.0
 13
251.6667411095107
 23
-5.249157115621755
 33
0.0
  0
MTEXT
  5
1E4E
330
500
100
AcDbEntity
  8
2
 62
     0
100
AcDbMText
 10
249.2917411095107
 20
-0.2491571156218244
 30
0.0
 40
3.5
 41
0.0
 71
     5
 72
     1
  1
%%c10
  7
SIMPLEX
 11
0.0000000000000001
 21
1.0
 31
0.0
 73
     1
 44
1.0
1001
ACAD
1000
MTEXTBEGIN
1070
    73
1070
     1
1070
    44
1040
1.0
1070
    74
1070
     0
1000
MTEXTEND
  0
POINT
  5
1E4F
330
500
100
AcDbEntity
  8
DEFPOINTS
 62
     0
100
AcDbPoint
 10
236.6667411095106
 20
4.750842884378243
 30
0.0
  0
POINT
  5
1E50
330
500
100
AcDbEntity
  8
DEFPOINTS
 62
     0
100
AcDbPoint
 10
236.6667411095106
 20
-5.249157115621756
 30
0.0
  0
POINT
  5
1E51
330
500
100
AcDbEntity
  8
DEFPOINTS
 62
     0
100
AcDbPoint
 10
251.6667411095107
 20
-5.249157115621755
 30
0.0
  0
ENDBLK
  5
502
330
500
100
AcDbEntity
  8
0
100
AcDbBlockEnd
  0
BLOCK
  5
50E
330
50D
100
AcDbEntity
  8
0
100
AcDbBlockBegin
  2
*D1
 70
     1
 10
0.0
 20
0.0
 30
0.0
  3
*D1
  1

  0
LINE
  5
1E52
330
50D
100
AcDbEntity
  8
2
 62
     0
370
    -2
100
AcDbLine
 10
204.6667411095104
 20
-0.249157115621756
 30
0.0
 11
204.6667411095104
 21
76.00084288437823
 31
0.0
  0
LINE
  5
1E53
330
50D
100
AcDbEntity
  8
2
 62
     0
370
    -2
100
AcDbLine
 10
236.6667411095104
 20
-0.249157115621756
 30
0.0
 11
236.6667411095104
 21
76.00084288437823
 31
0.0
  0
LINE
  5
1E54
330
50D
100
AcDbEntity
  8
2
 62
     0
370
    -2
100
AcDbLine
 10
207.1667411095104
 20
74.75084288437823
 30
0.0
 11
234.1667411095104
 21
74.75084288437823
 31
0.0
  0
SOLID
  5
1E55
330
50D
100
AcDbEntity
  8
2
 62
     0
100
AcDbTrace
 10
207.1667411095104
 20
75.1675095510449
 30
0.0
 11
207.1667411095104
 21
74.33417621771154
 31
0.0
 12
204.6667411095104
 22
74.75084288437823
 32
0.0
 13
204.6667411095104
 23
74.75084288437823
 33
0.0
  0
SOLID
  5
1E56
330
50D
100
AcDbEntity
  8
2
 62
     0
100
AcDbTrace
 10
234.1667411095104
 20
75.1675095510449
 30
0.0
 11
234.1667411095104
 21
74.33417621771154
 31
0.0
 12
236.6667411095104
 22
74.75084288437823
 32
0.0
 13
236.6667411095104
 23
74.75084288437823
 33
0.0
  0
MTEXT
  5
1E57
330
50D
100
AcDbEntity
  8
2
 62
     0
100
AcDbMText
 10
220.6667411095105
 20
77.12584288437823
 30
0.0
 40
3.5
 41
0.0
 71
     5
 72
     1
  1
32
  7
SIMPLEX
 73
     1
 44
1.0
1001
ACAD
1000
MTEXTBEGIN
1070
    73
1070
     1
1070
    44
1040
1.0
1070
    74
1070
     0
1000
MTEXTEND
  0
POINT
  5
1E58
330
50D
100
AcDbEntity
  8
DEFPOINTS
 62
     0
100
AcDbPoint
 10
204.6667411095104
 20
-0.249157115621756
 30
0.0
  0
POINT
  5
1E59
330
50D
100
AcDbEntity
  8
DEFPOINTS
 62
     0
100
AcDbPoint
 10
236.6667411095104
 20
-0.249157115621756
 30
0.0
  0
POINT
  5
1E5A
330
50D
100
AcDbEntity
  8
DEFPOINTS
 62
     0
100
AcDbPoint
 10
236.6667411095104
 20
74.75084288437823
 30
0.0
  0
ENDBLK
  5
50F
330
50D
100
AcDbEntity
  8
0
100
AcDbBlockEnd
  0
BLOCK
  5
51B
330
51A
100
AcDbEntity
  8
0
100
AcDbBlockBegin
  2
*D2
 70
     1
 10
0.0
 20
0.0
 30
0.0
  3
*D2
  1

  0
LINE
  5
1E5B
330
51A
100
AcDbEntity
  8
2
 62
     0
370
    -2
100
AcDbLine
 10
214.1667411095105
 20
4.750842884378243
 30
0.0
 11
214.1667411095105
 21
61.00084288437824
 31
0.0
  0
LINE
  5
1E5C
330
51A
100
AcDbEntity
  8
2
 62
     0
370
    -2
100
AcDbLine
 10
236.6667411095104
 20
4.750842884378243
 30
0.0
 11
236.6667411095104
 21
61.00084288437824
 31
0.0
  0
LINE
  5
1E5D
330
51A
100
AcDbEntity
  8
2
 62
     0
370
    -2
100
AcDbLine
 10
216.6667411095104
 20
59.75084288437824
 30
0.0
 11
234.1667411095104
 21
59.75084288437824
 31
0.0
  0
SOLID
  5
1E5E
330
51A
100
AcDbEntity
  8
2
 62
     0
100
AcDbTrace
 10
216.6667411095104
 20
60.1675095510449
 30
0.0
 11
216.6667411095104
 21
59.33417621771158
 31
0.0
 12
214.1667411095105
 22
59.75084288437824
 32
0.0
 13
214.1667411095105
 23
59.75084288437824
 33
0.0
  0
SOLID
  5
1E5F
330
51A
100
AcDbEntity
  8
2
 62
     0
100
AcDbTrace
 10
234.1667411095104
 20
60.1675095510449
 30
0.0
 11
234.1667411095104
 21
59.33417621771158
 31
0.0
 12
236.6667411095104
 22
59.75084288437824
 32
0.0
 13
236.6667411095104
 23
59.75084288437824
 33
0.0
  0
MTEXT
  5
1E60
330
51A
100
AcDbEntity
  8
2
 62
     0
100
AcDbMText
 10
225.4167411095104
 20
62.12584288437824
 30
0.0
 40
3.5
 41
0.0
 71
     5
 72
     1
  1
22.5
  7
SIMPLEX
 73
     1
 44
1.0
1001
ACAD
1000
MTEXTBEGIN
1070
    73
1070
     1
1070
    44
1040
1.0
1070
    74
1070
     0
1000
MTEXTEND
  0
POINT
  5
1E61
330
51A
100
AcDbEntity
  8
DEFPOINTS
 62
     0
100
AcDbPoint
 10
214.1667411095105
 20
4.750842884378243
 30
0.0
  0
POINT
  5
1E62
330
51A
100
AcDbEntity
  8
DEFPOINTS
 62
     0
100
AcDbPoint
 10
236.6667411095104
 20
4.750842884378243
 30
0.0
  0
POINT
  5
1E63
330
51A
100
AcDbEntity
  8
DEFPOINTS
 62
     0
100
AcDbPoint
 10
236.6667411095104
 20
59.75084288437824
 30
0.0
  0
ENDBLK
  5
51C
330
51A
100
AcDbEntity
  8
0
100
AcDbBlockEnd
  0
BLOCK
  5
528
330
527
100
AcDbEntity
  8
0
100
AcDbBlockBegin
  2
*D3
 70
     1
 10
0.0
 20
0.0
 30
0.0
  3
*D3
  1

  0
LINE
  5
1E64
330
527
100
AcDbEntity
  8
SK2
 62
     0
370
    -2
100
AcDbLine
 10
164.6667411095105
 20
4.750842884378243
 30
0.0
 11
148.4167411095361
 21
4.750842884378243
 31
0.0
  0
LINE
  5
1E65
330
527
100
AcDbEntity
  8
SK2
 62
     0
370
    -2
100
AcDbLine
 10
164.6667411095105
 20
-5.249157115621756
 30
0.0
 11
148.4167411095361
 21
-5.249157115621756
 31
0.0
  0
LINE
  5
1E66
330
527
100
AcDbEntity
  8
SK2
 62
     0
370
    -2
100
AcDbLine
 10
149.6667411095361
 20
2.250842884378243
 30
0.0
 11
149.6667411095361
 21
-2.749157115621759
 31
0.0
  0
SOLID
  5
1E67
330
527
100
AcDbEntity
  8
SK2
 62
     0
100
AcDbTrace
 10
149.2500744428694
 20
2.250842884378243
 30
0.0
 11
150.0834077762027
 21
2.250842884378243
 31
0.0
 12
149.6667411095361
 22
4.750842884378243
 32
0.0
 13
149.6667411095361
 23
4.750842884378243
 33
0.0
  0
SOLID
  5
1E68
330
527
100
AcDbEntity
  8
SK2
 62
     0
100
AcDbTrace
 10
149.2500744428694
 20
-2.749157115621759
 30
0.0
 11
150.0834077762027
 21
-2.749157115621759
 31
0.0
 12
149.6667411095361
 22
-5.249157115621756
 32
0.0
 13
149.6667411095361
 23
-5.249157115621756
 33
0.0
  0
MTEXT
  5
1E69
330
527
100
AcDbEntity
  8
SK2
 62
     0
100
AcDbMText
 10
147.2917411095361
 20
-0.2491571156218004
 30
0.0
 40
3.5
 41
0.0
 71
     5
 72
     1
  1
%%c10
  7
SIMPLEX
 11
0.0000000000000001
 21
1.0
 31
0.0
 73
     1
 44
1.0
1001
ACAD
1000
MTEXTBEGIN
1070
    73
1070
     1
1070
    44
1040
1.0
1070
    74
1070
     0
1000
MTEXTEND
  0
POINT
  5
1E6A
330
527
100
AcDbEntity
  8
DEFPOINTS
 62
     0
100
AcDbPoint
 10
164.6667411095105
 20
4.750842884378243
 30
0.0
  0
POINT
  5
1E6B
330
527
100
AcDbEntity
  8
DEFPOINTS
 62
     0
100
AcDbPoint
 10
164.6667411095105
 20
-5.249157115621756
 30
0.0
  0
POINT
  5
1E6C
330
527
100
AcDbEntity
  8
DEFPOINTS
 62
     0
100
AcDbPoint
 10
149.6667411095361
 20
-5.249157115621756
 30
0.0
  0
ENDBLK
  5
529
330
527
100
AcDbEntity
  8
0
100
AcDbBlockEnd
  0
BLOCK
  5
535
330
534
100
AcDbEntity
  8
0
100
AcDbBlockBegin
  2
*D4
 70
     1
 10
0.0
 20
0.0
 30
0.0
  3
*D4
  1

  0
LINE
  5
1E6D
330
534
100
AcDbEntity
  8
SK2
 62
     0
370
    -2
100
AcDbLine
 10
164.6667411095104
 20
-0.249157115621756
 30
0.0
 11
164.6667411095104
 21
91.00084288437825
 31
0.0
  0
LINE
  5
1E6E
330
534
100
AcDbEntity
  8
SK2
 62
     0
370
    -2
100
AcDbLine
 10
236.6667411095104
 20
-0.249157115621756
 30
0.0
 11
236.6667411095104
 21
91.00084288437825
 31
0.0
  0
LINE
  5
1E6F
330
534
100
AcDbEntity
  8
SK2
 62
     0
370
    -2
100
AcDbLine
 10
167.1667411095104
 20
89.75084288437825
 30
0.0
 11
234.1667411095104
 21
89.75084288437825
 31
0.0
  0
SOLID
  5
1E70
330
534
100
AcDbEntity
  8
SK2
 62
     0
100
AcDbTrace
 10
167.1667411095104
 20
90.16750955104491
 30
0.0
 11
167.1667411095104
 21
89.33417621771154
 31
0.0
 12
164.6667411095104
 22
89.75084288437825
 32
0.0
 13
164.6667411095104
 23
89.75084288437825
 33
0.0
  0
SOLID
  5
1E71
330
534
100
AcDbEntity
  8
SK2
 62
     0
100
AcDbTrace
 10
234.1667411095104
 20
90.16750955104491
 30
0.0
 11
234.1667411095104
 21
89.33417621771154
 31
0.0
 12
236.6667411095104
 22
89.75084288437825
 32
0.0
 13
236.6667411095104
 23
89.75084288437825
 33
0.0
  0
MTEXT
  5
1E72
330
534
100
AcDbEntity
  8
SK2
 62
     0
100
AcDbMText
 10
200.6667411095104
 20
92.12584288437824
 30
0.0
 40
3.5
 41
0.0
 71
     5
 72
     1
  1
72
  7
SIMPLEX
 73
     1
 44
1.0
1001
ACAD
1000
MTEXTBEGIN
1070
    73
1070
     1
1070
    44
1040
1.0
1070
    74
1070
     0
1000
MTEXTEND
  0
POINT
  5
1E73
330
534
100
AcDbEntity
  8
DEFPOINTS
 62
     0
100
AcDbPoint
 10
164.6667411095104
 20
-0.249157115621756
 30
0.0
  0
POINT
  5
1E74
330
534
100
AcDbEntity
  8
DEFPOINTS
 62
     0
100
AcDbPoint
 10
236.6667411095104
 20
-0.249157115621756
 30
0.0
  0
POINT
  5
1E75
330
534
100
AcDbEntity
  8
DEFPOINTS
 62
     0
100
AcDbPoint
 10
236.6667411095104
 20
89.75084288437825
 30
0.0
  0
ENDBLK
  5
536
330
534
100
AcDbEntity
  8
0
100
AcDbBlockEnd
  0
BLOCK
  5
542
330
541
100
AcDbEntity
  8
0
100
AcDbBlockBegin
  2
*D5
 70
     1
 10
0.0
 20
0.0
 30
0.0
  3
*D5
  1

  0
LINE
  5
1E76
330
541
100
AcDbEntity
  8
2
 62
     0
370
    -2
100
AcDbLine
 10
236.4667411095104
 20
4.750842884378243
 30
0.0
 11
236.4667411095104
 21
21.00084288437825
 31
0.0
  0
LINE
  5
1E77
330
541
100
AcDbEntity
  8
2
 62
     0
370
    -2
100
AcDbLine
 10
236.6667411095104
 20
4.750842884378243
 30
0.0
 11
236.6667411095104
 21
21.00084288437825
 31
0.0
  0
LINE
  5
1E78
330
541
100
AcDbEntity
  8
2
 62
     0
370
    -2
100
AcDbLine
 10
233.9667411095105
 20
19.75084288437823
 30
0.0
 11
231.4667411095105
 21
19.75084288437823
 31
0.0
  0
LINE
  5
1E79
330
541
100
AcDbEntity
  8
2
 62
     0
370
    -2
100
AcDbLine
 10
239.1667411095105
 20
19.75084288437823
 30
0.0
 11
261.4167411095104
 21
19.75084288437823
 31
0.0
  0
SOLID
  5
1E7A
330
541
100
AcDbEntity
  8
2
 62
     0
100
AcDbTrace
 10
233.9667411095105
 20
20.16750955104491
 30
0.0
 11
233.9667411095105
 21
19.33417621771157
 31
0.0
 12
236.4667411095104
 22
19.75084288437823
 32
0.0
 13
236.4667411095104
 23
19.75084288437823
 33
0.0
  0
SOLID
  5
1E7B
330
541
100
AcDbEntity
  8
2
 62
     0
100
AcDbTrace
 10
239.1667411095105
 20
20.16750955104491
 30
0.0
 11
239.1667411095105
 21
19.33417621771157
 31
0.0
 12
236.6667411095104
 22
19.75084288437823
 32
0.0
 13
236.6667411095104
 23
19.75084288437823
 33
0.0
  0
MTEXT
  5
1E7C
330
541
100
AcDbEntity
  8
2
 62
     0
100
AcDbMText
 10
251.5417411095104
 20
22.12584288437824
 30
0.0
 40
3.5
 41
0.0
 71
     5
 72
     1
  1
0.2x45°
  7
SIMPLEX
 73
     1
 44
1.0
1001
ACAD
1000
MTEXTBEGIN
1070
    73
1070
     1
1070
    44
1040
1.0
1070
    74
1070
     0
1000
MTEXTEND
  0
POINT
  5
1E7D
330
541
100
AcDbEntity
  8
DEFPOINTS
 62
     0
100
AcDbPoint
 10
236.4667411095104
 20
4.750842884378243
 30
0.0
  0
POINT
  5
1E7E
330
541
100
AcDbEntity
  8
DEFPOINTS
 62
     0
100
AcDbPoint
 10
236.6667411095104
 20
4.750842884378243
 30
0.0
  0
POINT
  5
1E7F
330
541
100
AcDbEntity
  8
DEFPOINTS
 62
     0
100
AcDbPoint
 10
236.6667411095104
 20
19.75084288437823
 30
0.0
  0
ENDBLK
  5
543
330
541
100
AcDbEntity
  8
0
100
AcDbBlockEnd
  0
BLOCK
  5
1C51
330
1C50
100
AcDbEntity
  8
0
100
AcDbBlockBegin
  2
*D6
 70
     1
 10
0.0
 20
0.0
 30
0.0
  3
*D6
  1

  0
LINE
  5
1F57
330
1C50
100
AcDbEntity
  8
2
 62
     0
370
    -2
100
AcDbLine
 10
303.5215678334946
 20
10.0
 30
0.0
 11
320.0518808810477
 21
10.0
 31
0.0
  0
LINE
  5
1F58
330
1C50
100
AcDbEntity
  8
2
 62
     0
370
    -2
100
AcDbLine
 10
303.5215678334946
 20
-9.99999999999998
 30
0.0
 11
320.0518808810477
 21
-9.999999999999976
 31
0.0
  0
LINE
  5
1F59
330
1C50
100
AcDbEntity
  8
2
 62
     0
370
    -2
100
AcDbLine
 10
318.8018808810477
 20
7.500000000000002
 30
0.0
 11
318.8018808810477
 21
-7.499999999999976
 31
0.0
  0
SOLID
  5
1F5A
330
1C50
100
AcDbEntity
  8
2
 62
     0
100
AcDbTrace
 10
318.385214214381
 20
7.500000000000002
 30
0.0
 11
319.2185475477144
 21
7.500000000000002
 31
0.0
 12
318.8018808810477
 22
10.0
 32
0.0
 13
318.8018808810477
 23
10.0
 33
0.0
  0
SOLID
  5
1F5B
330
1C50
100
AcDbEntity
  8
2
 62
     0
100
AcDbTrace
 10
318.385214214381
 20
-7.499999999999976
 30
0.0
 11
319.2185475477144
 21
-7.499999999999976
 31
0.0
 12
318.8018808810477
 22
-9.999999999999976
 32
0.0
 13
318.8018808810477
 23
-9.999999999999976
 33
0.0
  0
MTEXT
  5
1F5C
330
1C50
100
AcDbEntity
  8
2
 62
     0
100
AcDbMText
 10
316.4268808810477
 20
-0.000000000000077
 30
0.0
 40
3.5
 41
0.0
 71
     5
 72
     1
  1
%%c20
  7
SIMPLEX
 11
0.0000000000000001
 21
1.0
 31
0.0
 73
     1
 44
1.0
1001
ACAD
1000
MTEXTBEGIN
1070
    73
1070
     1
1070
    44
1040
1.0
1070
    74
1070
     0
1000
MTEXTEND
  0
POINT
  5
1F5D
330
1C50
100
AcDbEntity
  8
DEFPOINTS
 62
     0
100
AcDbPoint
 10
303.5215678334946
 20
10.0
 30
0.0
  0
POINT
  5
1F5E
330
1C50
100
AcDbEntity
  8
DEFPOINTS
 62
     0
100
AcDbPoint
 10
303.5215678334946
 20
-9.99999999999998
 30
0.0
  0
POINT
  5
1F5F
330
1C50
100
AcDbEntity
  8
DEFPOINTS
 62
     0
100
AcDbPoint
 10
318.8018808810477
 20
-9.999999999999976
 30
0.0
  0
ENDBLK
  5
1C52
330
1C50
100
AcDbEntity
  8
0
100
AcDbBlockEnd
  0
BLOCK
  5
1CC0
330
1CBF
100
AcDbEntity
  8
0
100
AcDbBlockBegin
  2
*D7
 70
     1
 10
0.0
 20
0.0
 30
0.0
  3
*D7
  1

  0
LINE
  5
1F60
330
1CBF
100
AcDbEntity
  8
2
 62
     0
370
    -2
100
AcDbLine
 10
238.5215678334945
 20
10.0
 30
0.0
 11
238.5215678334945
 21
61.00084288437824
 31
0.0
  0
LINE
  5
1F61
330
1CBF
100
AcDbEntity
  8
2
 62
     0
370
    -2
100
AcDbLine
 10
303.5215678334945
 20
9.700000000000006
 30
0.0
 11
303.5215678334945
 21
61.00084288437824
 31
0.0
  0
LINE
  5
1F62
330
1CBF
100
AcDbEntity
  8
2
 62
     0
370
    -2
100
AcDbLine
 10
241.0215678334945
 20
59.75084288437824
 30
0.0
 11
301.0215678334945
 21
59.75084288437824
 31
0.0
  0
SOLID
  5
1F63
330
1CBF
100
AcDbEntity
  8
2
 62
     0
100
AcDbTrace
 10
241.0215678334945
 20
60.1675095510449
 30
0.0
 11
241.0215678334945
 21
59.33417621771158
 31
0.0
 12
238.5215678334945
 22
59.75084288437824
 32
0.0
 13
238.5215678334945
 23
59.75084288437824
 33
0.0
  0
SOLID
  5
1F64
330
1CBF
100
AcDbEntity
  8
2
 62
     0
100
AcDbTrace
 10
301.0215678334945
 20
60.1675095510449
 30
0.0
 11
301.0215678334945
 21
59.33417621771158
 31
0.0
 12
303.5215678334945
 22
59.75084288437824
 32
0.0
 13
303.5215678334945
 23
59.75084288437824
 33
0.0
  0
MTEXT
  5
1F65
330
1CBF
100
AcDbEntity
  8
2
 62
     0
100
AcDbMText
 10
271.0215678334945
 20
62.12584288437824
 30
0.0
 40
3.5
 41
0.0
 71
     5
 72
     1
  1
65
  7
SIMPLEX
 73
     1
 44
1.0
1001
ACAD
1000
MTEXTBEGIN
1070
    73
1070
     1
1070
    44
1040
1.0
1070
    74
1070
     0
1000
MTEXTEND
  0
POINT
  5
1F66
330
1CBF
100
AcDbEntity
  8
DEFPOINTS
 62
     0
100
AcDbPoint
 10
238.5215678334945
 20
10.0
 30
0.0
  0
POINT
  5
1F67
330
1CBF
100
AcDbEntity
  8
DEFPOINTS
 62
     0
100
AcDbPoint
 10
303.5215678334945
 20
9.700000000000006
 30
0.0
  0
POINT
  5
1F68
330
1CBF
100
AcDbEntity
  8
DEFPOINTS
 62
     0
100
AcDbPoint
 10
303.5215678334945
 20
59.75084288437824
 30
0.0
  0
ENDBLK
  5
1CC1
330
1CBF
100
AcDbEntity
  8
0
100
AcDbBlockEnd
  0
BLOCK
  5
1D6C
330
1D6B
100
AcDbEntity
  8
0
100
AcDbBlockBegin
  2
*D8
 70
     1
 10
0.0
 20
0.0
 30
0.0
  3
*D8
  1

  0
LINE
  5
1F69
330
1D6B
100
AcDbEntity
  8
2
 62
     0
370
    -2
100
AcDbLine
 10
228.5215678334945
 20
9.500000000000008
 30
0.0
 11
228.5215678334945
 21
76.00084288437823
 31
0.0
  0
LINE
  5
1F6A
330
1D6B
100
AcDbEntity
  8
2
 62
     0
370
    -2
100
AcDbLine
 10
303.5215678334945
 20
9.700000000000006
 30
0.0
 11
303.5215678334945
 21
76.00084288437823
 31
0.0
  0
LINE
  5
1F6B
330
1D6B
100
AcDbEntity
  8
2
 62
     0
370
    -2
100
AcDbLine
 10
231.0215678334945
 20
74.75084288437823
 30
0.0
 11
301.0215678334945
 21
74.75084288437823
 31
0.0
  0
SOLID
  5
1F6C
330
1D6B
100
AcDbEntity
  8
2
 62
     0
100
AcDbTrace
 10
231.0215678334945
 20
75.1675095510449
 30
0.0
 11
231.0215678334945
 21
74.33417621771154
 31
0.0
 12
228.5215678334945
 22
74.75084288437823
 32
0.0
 13
228.5215678334945
 23
74.75084288437823
 33
0.0
  0
SOLID
  5
1F6D
330
1D6B
100
AcDbEntity
  8
2
 62
     0
100
AcDbTrace
 10
301.0215678334945
 20
75.1675095510449
 30
0.0
 11
301.0215678334945
 21
74.33417621771154
 31
0.0
 12
303.5215678334945
 22
74.75084288437823
 32
0.0
 13
303.5215678334945
 23
74.75084288437823
 33
0.0
  0
MTEXT
  5
1F6E
330
1D6B
100
AcDbEntity
  8
2
 62
     0
100
AcDbMText
 10
266.0215678334945
 20
77.12584288437823
 30
0.0
 40
3.5
 41
0.0
 71
     5
 72
     1
  1
75
  7
SIMPLEX
 73
     1
 44
1.0
1001
ACAD
1000
MTEXTBEGIN
1070
    73
1070
     1
1070
    44
1040
1.0
1070
    74
1070
     0
1000
MTEXTEND
  0
POINT
  5
1F6F
330
1D6B
100
AcDbEntity
  8
DEFPOINTS
 62
     0
100
AcDbPoint
 10
228.5215678334945
 20
9.500000000000008
 30
0.0
  0
POINT
  5
1F70
330
1D6B
100
AcDbEntity
  8
DEFPOINTS
 62
     0
100
AcDbPoint
 10
303.5215678334945
 20
9.700000000000006
 30
0.0
  0
POINT
  5
1F71
330
1D6B
100
AcDbEntity
  8
DEFPOINTS
 62
     0
100
AcDbPoint
 10
303.5215678334945
 20
74.75084288437823
 30
0.0
  0
ENDBLK
  5
1D6D
330
1D6B
100
AcDbEntity
  8
0
100
AcDbBlockEnd
  0
BLOCK
  5
1D95
330
1D94
100
AcDbEntity
  8
0
100
AcDbBlockBegin
  2
*D9
 70
     1
 10
0.0
 20
0.0
 30
0.0
  3
*D9
  1

  0
LINE
  5
1F89
330
1D94
100
AcDbEntity
  8
2
 62
     0
370
    -2
100
AcDbLine
 10
318.9769677319961
 20
22.99133401813268
 30
0.0
 11
305.3617369366695
 21
11.50545734090147
 31
0.0
  0
MTEXT
  5
1F8A
330
1D94
100
AcDbEntity
  8
2
 62
     0
100
AcDbMText
 10
312.8276286190234
 20
20.9109519414998
 30
0.0
 40
3.5
 41
0.0
 71
     5
 72
     1
  1
R0.3
  7
SIMPLEX
 11
0.7643461082768097
 21
0.644806193179079
 31
0.0
 73
     1
 44
1.0
1001
ACAD
1000
MTEXTBEGIN
1070
    73
1070
     1
1070
    44
1040
1.0
1070
    74
1070
     0
1000
MTEXTEND
  0
SOLID
  5
1F8B
330
1D94
100
AcDbEntity
  8
2
 62
     0
100
AcDbTrace
 10
305.0930676895116
 20
11.82393488601681
 30
0.0
 11
305.6304061838275
 21
11.18697979578616
 31
0.0
 12
303.4508716659776
 22
9.893441857953773
 32
0.0
 13
303.4508716659776
 23
9.893441857953773
 33
0.0
  0
POINT
  5
1F8C
330
1D94
100
AcDbEntity
  8
DEFPOINTS
 62
     0
100
AcDbPoint
 10
303.4508716659776
 20
9.893441857953773
 30
0.0
  0
POINT
  5
1F8D
330
1D94
100
AcDbEntity
  8
DEFPOINTS
 62
     0
100
AcDbPoint
 10
303.2215678334945
 20
9.699999999999988
 30
0.0
  0
ENDBLK
  5
1D96
330
1D94
100
AcDbEntity
  8
0
100
AcDbBlockEnd
  0
BLOCK
  5
1DB0
330
1DAF
100
AcDbEntity
  8
0
100
AcDbBlockBegin
  2
*D10
 70
     1
 10
0.0
 20
0.0
 30
0.0
  3
*D10
  1

  0
LINE
  5
1F77
330
1DAF
100
AcDbEntity
  8
SK2
 62
     0
370
    -2
100
AcDbLine
 10
179.5215678334945
 20
10.0
 30
0.0
 11
163.1002887109334
 21
10.0
 31
0.0
  0
LINE
  5
1F78
330
1DAF
100
AcDbEntity
  8
SK2
 62
     0
370
    -2
100
AcDbLine
 10
179.5215678334945
 20
-9.999999999999994
 30
0.0
 11
163.1002887109334
 21
-9.999999999999996
 31
0.0
  0
LINE
  5
1F79
330
1DAF
100
AcDbEntity
  8
SK2
 62
     0
370
    -2
100
AcDbLine
 10
164.3502887109334
 20
7.500000000000002
 30
0.0
 11
164.3502887109334
 21
-7.499999999999995
 31
0.0
  0
SOLID
  5
1F7A
330
1DAF
100
AcDbEntity
  8
SK2
 62
     0
100
AcDbTrace
 10
163.9336220442667
 20
7.500000000000002
 30
0.0
 11
164.7669553776
 21
7.500000000000002
 31
0.0
 12
164.3502887109334
 22
10.0
 32
0.0
 13
164.3502887109334
 23
10.0
 33
0.0
  0
SOLID
  5
1F7B
330
1DAF
100
AcDbEntity
  8
SK2
 62
     0
100
AcDbTrace
 10
163.9336220442667
 20
-7.499999999999995
 30
0.0
 11
164.7669553776
 21
-7.499999999999995
 31
0.0
 12
164.3502887109334
 22
-9.999999999999994
 32
0.0
 13
164.3502887109334
 23
-9.999999999999994
 33
0.0
  0
MTEXT
  5
1F7C
330
1DAF
100
AcDbEntity
  8
SK2
 62
     0
100
AcDbMText
 10
161.9752887109333
 20
-0.0000000000000426
 30
0.0
 40
3.5
 41
0.0
 71
     5
 72
     1
  1
%%c20
  7
SIMPLEX
 11
0.0000000000000001
 21
1.0
 31
0.0
 73
     1
 44
1.0
1001
ACAD
1000
MTEXTBEGIN
1070
    73
1070
     1
1070
    44
1040
1.0
1070
    74
1070
     0
1000
MTEXTEND
  0
POINT
  5
1F7D
330
1DAF
100
AcDbEntity
  8
DEFPOINTS
 62
     0
100
AcDbPoint
 10
179.5215678334945
 20
10.0
 30
0.0
  0
POINT
  5
1F7E
330
1DAF
100
AcDbEntity
  8
DEFPOINTS
 62
     0
100
AcDbPoint
 10
179.5215678334945
 20
-9.999999999999994
 30
0.0
  0
POINT
  5
1F7F
330
1DAF
100
AcDbEntity
  8
DEFPOINTS
 62
     0
100
AcDbPoint
 10
164.3502887109334
 20
-9.999999999999994
 30
0.0
  0
ENDBLK
  5
1DB1
330
1DAF
100
AcDbEntity
  8
0
100
AcDbBlockEnd
  0
BLOCK
  5
1DBC
330
1DBB
100
AcDbEntity
  8
0
100
AcDbBlockBegin
  2
*D11
 70
     1
 10
0.0
 20
0.0
 30
0.0
  3
*D11
  1

  0
LINE
  5
1F80
330
1DBB
100
AcDbEntity
  8
SK2
 62
     0
370
    -2
100
AcDbLine
 10
178.5215678334945
 20
8.999999999999976
 30
0.0
 11
178.5215678334945
 21
91.00084288437825
 31
0.0
  0
LINE
  5
1F81
330
1DBB
100
AcDbEntity
  8
SK2
 62
     0
370
    -2
100
AcDbLine
 10
303.5215678334945
 20
9.700000000000006
 30
0.0
 11
303.5215678334945
 21
91.00084288437825
 31
0.0
  0
LINE
  5
1F82
330
1DBB
100
AcDbEntity
  8
SK2
 62
     0
370
    -2
100
AcDbLine
 10
181.0215678334945
 20
89.75084288437825
 30
0.0
 11
301.0215678334945
 21
89.75084288437825
 31
0.0
  0
SOLID
  5
1F83
330
1DBB
100
AcDbEntity
  8
SK2
 62
     0
100
AcDbTrace
 10
181.0215678334945
 20
90.16750955104491
 30
0.0
 11
181.0215678334945
 21
89.33417621771154
 31
0.0
 12
178.5215678334945
 22
89.75084288437825
 32
0.0
 13
178.5215678334945
 23
89.75084288437825
 33
0.0
  0
SOLID
  5
1F84
330
1DBB
100
AcDbEntity
  8
SK2
 62
     0
100
AcDbTrace
 10
301.0215678334945
 20
90.16750955104491
 30
0.0
 11
301.0215678334945
 21
89.33417621771154
 31
0.0
 12
303.5215678334945
 22
89.75084288437825
 32
0.0
 13
303.5215678334945
 23
89.75084288437825
 33
0.0
  0
MTEXT
  5
1F85
330
1DBB
100
AcDbEntity
  8
SK2
 62
     0
100
AcDbMText
 10
241.0215678334945
 20
92.12584288437824
 30
0.0
 40
3.5
 41
0.0
 71
     5
 72
     1
  1
125
  7
SIMPLEX
 73
     1
 44
1.0
1001
ACAD
1000
MTEXTBEGIN
1070
    73
1070
     1
1070
    44
1040
1.0
1070
    74
1070
     0
1000
MTEXTEND
  0
POINT
  5
1F86
330
1DBB
100
AcDbEntity
  8
DEFPOINTS
 62
     0
100
AcDbPoint
 10
178.5215678334945
 20
8.999999999999976
 30
0.0
  0
POINT
  5
1F87
330
1DBB
100
AcDbEntity
  8
DEFPOINTS
 62
     0
100
AcDbPoint
 10
303.5215678334945
 20
9.700000000000006
 30
0.0
  0
POINT
  5
1F88
330
1DBB
100
AcDbEntity
  8
DEFPOINTS
 62
     0
100
AcDbPoint
 10
303.5215678334945
 20
89.75084288437825
 30
0.0
  0
ENDBLK
  5
1DBD
330
1DBB
100
AcDbEntity
  8
0
100
AcDbBlockEnd
  0
BLOCK
  5
3742
330
3741
100
AcDbEntity
  8
0
100
AcDbBlockBegin
  2
*D12
 70
     1
 10
0.0
 20
0.0
 30
0.0
  3
*D12
  1

  0
LINE
  5
4F1D
330
3741
100
AcDbEntity
  8
SK2
 62
     0
370
    -2
100
AcDbLine
 10
188.6596855606735
 20
8.000000000000001
 30
0.0
 11
172.6926110745709
 21
8.000000000000001
 31
0.0
  0
LINE
  5
4F1E
330
3741
100
AcDbEntity
  8
SK2
 62
     0
370
    -2
100
AcDbLine
 10
188.6596855606735
 20
-8.000000000000001
 30
0.0
 11
172.6926110745709
 21
-8.000000000000005
 31
0.0
  0
LINE
  5
4F1F
330
3741
100
AcDbEntity
  8
SK2
 62
     0
370
    -2
100
AcDbLine
 10
173.9426110745709
 20
5.5
 30
0.0
 11
173.9426110745709
 21
-5.500000000000004
 31
0.0
  0
SOLID
  5
4F20
330
3741
100
AcDbEntity
  8
SK2
 62
     0
100
AcDbTrace
 10
173.5259444079042
 20
5.5
 30
0.0
 11
174.3592777412375
 21
5.5
 31
0.0
 12
173.9426110745709
 22
8.000000000000001
 32
0.0
 13
173.9426110745709
 23
8.000000000000001
 33
0.0
  0
SOLID
  5
4F21
330
3741
100
AcDbEntity
  8
SK2
 62
     0
100
AcDbTrace
 10
173.5259444079042
 20
-5.500000000000004
 30
0.0
 11
174.3592777412375
 21
-5.500000000000003
 31
0.0
 12
173.9426110745709
 22
-8.000000000000005
 32
0.0
 13
173.9426110745709
 23
-8.000000000000005
 33
0.0
  0
MTEXT
  5
4F22
330
3741
100
AcDbEntity
  8
SK2
 62
     0
100
AcDbMText
 10
171.5676110745708
 20
-0.0000000000000512
 30
0.0
 40
3.5
 41
0.0
 71
     5
 72
     1
  1
%%c16
  7
SIMPLEX
 11
0.0000000000000001
 21
1.0
 31
0.0
 73
     1
 44
1.0
1001
ACAD
1000
MTEXTBEGIN
1070
    73
1070
     1
1070
    44
1040
1.0
1070
    74
1070
     0
1000
MTEXTEND
  0
POINT
  5
4F23
330
3741
100
AcDbEntity
  8
DEFPOINTS
 62
     0
100
AcDbPoint
 10
188.6596855606735
 20
8.000000000000001
 30
0.0
  0
POINT
  5
4F24
330
3741
100
AcDbEntity
  8
DEFPOINTS
 62
     0
100
AcDbPoint
 10
188.6596855606735
 20
-8.000000000000001
 30
0.0
  0
POINT
  5
4F25
330
3741
100
AcDbEntity
  8
DEFPOINTS
 62
     0
100
AcDbPoint
 10
173.9426110745709
 20
-8.000000000000005
 30
0.0
  0
ENDBLK
  5
3743
330
3741
100
AcDbEntity
  8
0
100
AcDbBlockEnd
  0
BLOCK
  5
376A
330
3769
100
AcDbEntity
  8
0
100
AcDbBlockBegin
  2
*D13
 70
     1
 10
0.0
 20
0.0
 30
0.0
  3
*D13
  1

  0
LINE
  5
4F26
330
3769
100
AcDbEntity
  8
SK2
 62
     0
370
    -2
100
AcDbLine
 10
188.1596855606734
 20
7.5
 30
0.0
 11
188.1596855606734
 21
91.00084288437825
 31
0.0
  0
LINE
  5
4F27
330
3769
100
AcDbEntity
  8
SK2
 62
     0
370
    -2
100
AcDbLine
 10
280.1596855606734
 20
7.7
 30
0.0
 11
280.1596855606734
 21
91.00084288437825
 31
0.0
  0
LINE
  5
4F28
330
3769
100
AcDbEntity
  8
SK2
 62
     0
370
    -2
100
AcDbLine
 10
190.6596855606734
 20
89.75084288437825
 30
0.0
 11
277.6596855606734
 21
89.75084288437825
 31
0.0
  0
SOLID
  5
4F29
330
3769
100
AcDbEntity
  8
SK2
 62
     0
100
AcDbTrace
 10
190.6596855606734
 20
90.16750955104491
 30
0.0
 11
190.6596855606734
 21
89.33417621771155
 31
0.0
 12
188.1596855606734
 22
89.75084288437825
 32
0.0
 13
188.1596855606734
 23
89.75084288437825
 33
0.0
  0
SOLID
  5
4F2A
330
3769
100
AcDbEntity
  8
SK2
 62
     0
100
AcDbTrace
 10
277.6596855606734
 20
90.16750955104491
 30
0.0
 11
277.6596855606734
 21
89.33417621771155
 31
0.0
 12
280.1596855606734
 22
89.75084288437825
 32
0.0
 13
280.1596855606734
 23
89.75084288437825
 33
0.0
  0
MTEXT
  5
4F2B
330
3769
100
AcDbEntity
  8
SK2
 62
     0
100
AcDbMText
 10
234.1596855606734
 20
92.12584288437824
 30
0.0
 40
3.5
 41
0.0
 71
     5
 72
     1
  1
92
  7
SIMPLEX
 73
     1
 44
1.0
1001
ACAD
1000
MTEXTBEGIN
1070
    73
1070
     1
1070
    44
1040
1.0
1070
    74
1070
     0
1000
MTEXTEND
  0
POINT
  5
4F2C
330
3769
100
AcDbEntity
  8
DEFPOINTS
 62
     0
100
AcDbPoint
 10
188.1596855606734
 20
7.5
 30
0.0
  0
POINT
  5
4F2D
330
3769
100
AcDbEntity
  8
DEFPOINTS
 62
     0
100
AcDbPoint
 10
280.1596855606734
 20
7.7
 30
0.0
  0
POINT
  5
4F2E
330
3769
100
AcDbEntity
  8
DEFPOINTS
 62
     0
100
AcDbPoint
 10
280.1596855606734
 20
89.75084288437825
 30
0.0
  0
ENDBLK
  5
376B
330
3769
100
AcDbEntity
  8
0
100
AcDbBlockEnd
  0
BLOCK
  5
3792
330
3791
100
AcDbEntity
  8
0
100
AcDbBlockBegin
  2
*D14
 70
     1
 10
0.0
 20
0.0
 30
0.0
  3
*D14
  1

  0
LINE
  5
4F2F
330
3791
100
AcDbEntity
  8
2
 62
     0
370
    -2
100
AcDbLine
 10
236.1596855606734
 20
0.0
 30
0.0
 11
236.1596855606734
 21
75.4518375340509
 31
0.0
  0
LINE
  5
4F30
330
3791
100
AcDbEntity
  8
2
 62
     0
370
    -2
100
AcDbLine
 10
280.1596855606734
 20
7.7
 30
0.0
 11
280.1596855606734
 21
75.4518375340509
 31
0.0
  0
LINE
  5
4F31
330
3791
100
AcDbEntity
  8
2
 62
     0
370
    -2
100
AcDbLine
 10
238.6596855606734
 20
74.2018375340509
 30
0.0
 11
277.6596855606734
 21
74.2018375340509
 31
0.0
  0
SOLID
  5
4F32
330
3791
100
AcDbEntity
  8
2
 62
     0
100
AcDbTrace
 10
238.6596855606734
 20
74.61850420071758
 30
0.0
 11
238.6596855606734
 21
73.78517086738423
 31
0.0
 12
236.1596855606734
 22
74.2018375340509
 32
0.0
 13
236.1596855606734
 23
74.2018375340509
 33
0.0
  0
SOLID
  5
4F33
330
3791
100
AcDbEntity
  8
2
 62
     0
100
AcDbTrace
 10
277.6596855606734
 20
74.61850420071758
 30
0.0
 11
277.6596855606734
 21
73.78517086738423
 31
0.0
 12
280.1596855606734
 22
74.2018375340509
 32
0.0
 13
280.1596855606734
 23
74.2018375340509
 33
0.0
  0
MTEXT
  5
4F34
330
3791
100
AcDbEntity
  8
2
 62
     0
100
AcDbMText
 10
258.1596855606735
 20
76.57683753405091
 30
0.0
 40
3.5
 41
0.0
 71
     5
 72
     1
  1
44
  7
SIMPLEX
 73
     1
 44
1.0
1001
ACAD
1000
MTEXTBEGIN
1070
    73
1070
     1
1070
    44
1040
1.0
1070
    74
1070
     0
1000
MTEXTEND
  0
POINT
  5
4F35
330
3791
100
AcDbEntity
  8
DEFPOINTS
 62
     0
100
AcDbPoint
 10
236.1596855606734
 20
0.0
 30
0.0
  0
POINT
  5
4F36
330
3791
100
AcDbEntity
  8
DEFPOINTS
 62
     0
100
AcDbPoint
 10
280.1596855606734
 20
7.7
 30
0.0
  0
POINT
  5
4F37
330
3791
100
AcDbEntity
  8
DEFPOINTS
 62
     0
100
AcDbPoint
 10
280.1596855606734
 20
74.2018375340509
 30
0.0
  0
ENDBLK
  5
3793
330
3791
100
AcDbEntity
  8
0
100
AcDbBlockEnd
  0
BLOCK
  5
37C3
330
37C2
100
AcDbEntity
  8
0
100
AcDbBlockBegin
  2
*D15
 70
     1
 10
0.0
 20
0.0
 30
0.0
  3
*D15
  1

  0
LINE
  5
4F38
330
37C2
100
AcDbEntity
  8
2
 62
     0
370
    -2
100
AcDbLine
 10
248.1596855606734
 20
8.0
 30
0.0
 11
248.1596855606734
 21
61.00084288437824
 31
0.0
  0
LINE
  5
4F39
330
37C2
100
AcDbEntity
  8
2
 62
     0
370
    -2
100
AcDbLine
 10
280.1596855606734
 20
7.7
 30
0.0
 11
280.1596855606734
 21
61.00084288437824
 31
0.0
  0
LINE
  5
4F3A
330
37C2
100
AcDbEntity
  8
2
 62
     0
370
    -2
100
AcDbLine
 10
250.6596855606734
 20
59.75084288437824
 30
0.0
 11
277.6596855606734
 21
59.75084288437824
 31
0.0
  0
SOLID
  5
4F3B
330
37C2
100
AcDbEntity
  8
2
 62
     0
100
AcDbTrace
 10
250.6596855606734
 20
60.1675095510449
 30
0.0
 11
250.6596855606734
 21
59.33417621771158
 31
0.0
 12
248.1596855606734
 22
59.75084288437824
 32
0.0
 13
248.1596855606734
 23
59.75084288437824
 33
0.0
  0
SOLID
  5
4F3C
330
37C2
100
AcDbEntity
  8
2
 62
     0
100
AcDbTrace
 10
277.6596855606734
 20
60.1675095510449
 30
0.0
 11
277.6596855606734
 21
59.33417621771158
 31
0.0
 12
280.1596855606734
 22
59.75084288437824
 32
0.0
 13
280.1596855606734
 23
59.75084288437824
 33
0.0
  0
MTEXT
  5
4F3D
330
37C2
100
AcDbEntity
  8
2
 62
     0
100
AcDbMText
 10
264.1596855606735
 20
62.12584288437824
 30
0.0
 40
3.5
 41
0.0
 71
     5
 72
     1
  1
32
  7
SIMPLEX
 73
     1
 44
1.0
1001
ACAD
1000
MTEXTBEGIN
1070
    73
1070
     1
1070
    44
1040
1.0
1070
    74
1070
     0
1000
MTEXTEND
  0
POINT
  5
4F3E
330
37C2
100
AcDbEntity
  8
DEFPOINTS
 62
     0
100
AcDbPoint
 10
248.1596855606734
 20
8.0
 30
0.0
  0
POINT
  5
4F3F
330
37C2
100
AcDbEntity
  8
DEFPOINTS
 62
     0
100
AcDbPoint
 10
280.1596855606734
 20
7.7
 30
0.0
  0
POINT
  5
4F40
330
37C2
100
AcDbEntity
  8
DEFPOINTS
 62
     0
100
AcDbPoint
 10
280.1596855606734
 20
59.75084288437824
 30
0.0
  0
ENDBLK
  5
37C4
330
37C2
100
AcDbEntity
  8
0
100
AcDbBlockEnd
  0
BLOCK
  5
37EB
330
37EA
100
AcDbEntity
  8
0
100
AcDbBlockBegin
  2
*D16
 70
     1
 10
0.0
 20
0.0
 30
0.0
  3
*D16
  1

  0
LINE
  5
4F41
330
37EA
100
AcDbEntity
  8
2
 62
     0
370
    -2
100
AcDbLine
 10
279.8596855606735
 20
8.000000000000001
 30
0.0
 11
297.4366285917573
 21
8.000000000000008
 31
0.0
  0
LINE
  5
4F42
330
37EA
100
AcDbEntity
  8
2
 62
     0
370
    -2
100
AcDbLine
 10
279.8596855606735
 20
-8.000000000000001
 30
0.0
 11
297.4366285917573
 21
-8.000000000000001
 31
0.0
  0
LINE
  5
4F43
330
37EA
100
AcDbEntity
  8
2
 62
     0
370
    -2
100
AcDbLine
 10
296.1866285917573
 20
5.500000000000004
 30
0.0
 11
296.1866285917573
 21
-5.5
 31
0.0
  0
SOLID
  5
4F44
330
37EA
100
AcDbEntity
  8
2
 62
     0
100
AcDbTrace
 10
295.7699619250906
 20
5.500000000000004
 30
0.0
 11
296.603295258424
 21
5.500000000000004
 31
0.0
 12
296.1866285917573
 22
8.000000000000008
 32
0.0
 13
296.1866285917573
 23
8.000000000000008
 33
0.0
  0
SOLID
  5
4F45
330
37EA
100
AcDbEntity
  8
2
 62
     0
100
AcDbTrace
 10
295.7699619250906
 20
-5.5
 30
0.0
 11
296.603295258424
 21
-5.5
 31
0.0
 12
296.1866285917573
 22
-8.000000000000001
 32
0.0
 13
296.1866285917573
 23
-8.000000000000001
 33
0.0
  0
MTEXT
  5
4F46
330
37EA
100
AcDbEntity
  8
2
 62
     0
100
AcDbMText
 10
293.8116285917573
 20
-0.0000000000000814
 30
0.0
 40
3.5
 41
0.0
 71
     5
 72
     1
  1
%%c16
  7
SIMPLEX
 11
0.0000000000000001
 21
1.0
 31
0.0
 73
     1
 44
1.0
1001
ACAD
1000
MTEXTBEGIN
1070
    73
1070
     1
1070
    44
1040
1.0
1070
    74
1070
     0
1000
MTEXTEND
  0
POINT
  5
4F47
330
37EA
100
AcDbEntity
  8
DEFPOINTS
 62
     0
100
AcDbPoint
 10
279.8596855606735
 20
8.000000000000001
 30
0.0
  0
POINT
  5
4F48
330
37EA
100
AcDbEntity
  8
DEFPOINTS
 62
     0
100
AcDbPoint
 10
279.8596855606735
 20
-8.000000000000001
 30
0.0
  0
POINT
  5
4F49
330
37EA
100
AcDbEntity
  8
DEFPOINTS
 62
     0
100
AcDbPoint
 10
296.1866285917573
 20
-8.000000000000001
 30
0.0
  0
ENDBLK
  5
37EC
330
37EA
100
AcDbEntity
  8
0
100
AcDbBlockEnd
  0
BLOCK
  5
3813
330
3812
100
AcDbEntity
  8
0
100
AcDbBlockBegin
  2
*D17
 70
     1
 10
0.0
 20
0.0
 30
0.0
  3
*D17
  1

  0
LINE
  5
3814
330
3812
100
AcDbEntity
  8
2
 62
     0
370
    -2
100
AcDbLine
 10
31.8
 20
5.0
 30
0.0
 11
31.8
 21
21.25
 31
0.0
  0
LINE
  5
3815
330
3812
100
AcDbEntity
  8
2
 62
     0
370
    -2
100
AcDbLine
 10
32.0
 20
5.0
 30
0.0
 11
32.0
 21
21.25
 31
0.0
  0
LINE
  5
3816
330
3812
100
AcDbEntity
  8
2
 62
     0
370
    -2
100
AcDbLine
 10
34.5
 20
20.0
 30
0.0
 11
56.681
 21
20.0
 31
0.0
  0
LINE
  5
3817
330
3812
100
AcDbEntity
  8
2
 62
     0
370
    -2
100
AcDbLine
 10
29.3
 20
20.0
 30
0.0
 11
26.8
 21
20.0
 31
0.0
  0
SOLID
  5
3818
330
3812
100
AcDbEntity
  8
2
 62
     0
100
AcDbTrace
 10
29.3
 20
19.58333333333333
 30
0.0
 11
29.3
 21
20.41666666666667
 31
0.0
 12
31.8
 22
20.0
 32
0.0
 13
31.8
 23
20.0
 33
0.0
  0
SOLID
  5
3819
330
3812
100
AcDbEntity
  8
2
 62
     0
100
AcDbTrace
 10
34.5
 20
20.41666666666667
 30
0.0
 11
34.5
 21
19.58333333333333
 31
0.0
 12
32.0
 22
20.0
 32
0.0
 13
32.0
 23
20.0
 33
0.0
  0
MTEXT
  5
381A
330
3812
100
AcDbEntity
  8
2
 62
     0
100
AcDbMText
 10
46.8405
 20
22.438
 30
0.0
 40
3.5
 41
0.0
 71
     5
 72
     1
  1
0.2x45°
  7
SIMPLEX
 73
     1
 44
1.0
1001
ACAD
1000
MTEXTBEGIN
1070
    73
1070
     1
1070
    44
1040
1.0
1070
    74
1070
     0
1000
MTEXTEND
  0
POINT
  5
381B
330
3812
100
AcDbEntity
  8
DEFPOINTS
 62
     0
100
AcDbPoint
 10
31.8
 20
5.0
 30
0.0
  0
POINT
  5
381C
330
3812
100
AcDbEntity
  8
DEFPOINTS
 62
     0
100
AcDbPoint
 10
32.0
 20
5.0
 30
0.0
  0
POINT
  5
381D
330
3812
100
AcDbEntity
  8
DEFPOINTS
 62
     0
100
AcDbPoint
 10
32.0
 20
20.0
 30
0.0
  0
ENDBLK
  5
381E
330
3812
100
AcDbEntity
  8
0
100
AcDbBlockEnd
  0
BLOCK
  5
3826
330
3825
100
AcDbEntity
  8
0
100
AcDbBlockBegin
  2
*D18
 70
     1
 10
0.0
 20
0.0
 30
0.0
  3
*D18
  1

  0
LINE
  5
4F4A
330
3825
100
AcDbEntity
  8
2
 62
     0
370
    -2
100
AcDbLine
 10
279.8596855606734
 20
8.000000000000001
 30
0.0
 11
279.8596855606734
 21
24.99232895338149
 31
0.0
  0
LINE
  5
4F4B
330
3825
100
AcDbEntity
  8
2
 62
     0
370
    -2
100
AcDbLine
 10
280.1596855606734
 20
7.7
 30
0.0
 11
280.1596855606734
 21
24.9923289533815
 31
0.0
  0
LINE
  5
4F4C
330
3825
100
AcDbEntity
  8
2
 62
     0
370
    -2
100
AcDbLine
 10
277.3596855606734
 20
23.7423289533815
 30
0.0
 11
274.8596855606734
 21
23.7423289533815
 31
0.0
  0
LINE
  5
4F4D
330
3825
100
AcDbEntity
  8
2
 62
     0
370
    -2
100
AcDbLine
 10
282.6596855606734
 20
23.7423289533815
 30
0.0
 11
304.9096855606734
 21
23.7423289533815
 31
0.0
  0
SOLID
  5
4F4E
330
3825
100
AcDbEntity
  8
2
 62
     0
100
AcDbTrace
 10
277.3596855606734
 20
24.15899562004817
 30
0.0
 11
277.3596855606734
 21
23.32566228671483
 31
0.0
 12
279.8596855606734
 22
23.7423289533815
 32
0.0
 13
279.8596855606734
 23
23.7423289533815
 33
0.0
  0
SOLID
  5
4F4F
330
3825
100
AcDbEntity
  8
2
 62
     0
100
AcDbTrace
 10
282.6596855606734
 20
24.15899562004817
 30
0.0
 11
282.6596855606734
 21
23.32566228671483
 31
0.0
 12
280.1596855606734
 22
23.7423289533815
 32
0.0
 13
280.1596855606734
 23
23.7423289533815
 33
0.0
  0
MTEXT
  5
4F50
330
3825
100
AcDbEntity
  8
2
 62
     0
100
AcDbMText
 10
295.0346855606735
 20
26.1173289533815
 30
0.0
 40
3.5
 41
0.0
 71
     5
 72
     1
  1
0.3x45°
  7
SIMPLEX
 73
     1
 44
1.0
1001
ACAD
1000
MTEXTBEGIN
1070
    73
1070
     1
1070
    44
1040
1.0
1070
    74
1070
     0
1000
MTEXTEND
  0
POINT
  5
4F51
330
3825
100
AcDbEntity
  8
DEFPOINTS
 62
     0
100
AcDbPoint
 10
279.8596855606734
 20
8.000000000000001
 30
0.0
  0
POINT
  5
4F52
330
3825
100
AcDbEntity
  8
DEFPOINTS
 62
     0
100
AcDbPoint
 10
280.1596855606734
 20
7.7
 30
0.0
  0
POINT
  5
4F53
330
3825
100
AcDbEntity
  8
DEFPOINTS
 62
     0
100
AcDbPoint
 10
280.1596855606734
 20
23.7423289533815
 30
0.0
  0
ENDBLK
  5
3827
330
3825
100
AcDbEntity
  8
0
100
AcDbBlockEnd
  0
BLOCK
  5
3987
330
3986
100
AcDbEntity
  8
0
 48
4.0
100
AcDbBlockBegin
  2
*D19
 70
     1
 10
0.0
 20
0.0
 30
0.0
  3
*D19
  1

  0
LINE
  5
3988
330
3986
100
AcDbEntity
  8
0
 48
4.0
100
AcDbLine
 10
224.6152643361944
 20
108.9856095705176
 30
0.0
 11
224.6152643361944
 21
79.36943195344158
 31
0.0
  0
LINE
  5
3989
330
3986
100
AcDbEntity
  8
0
 48
4.0
100
AcDbLine
 10
47.8275968073844
 20
109.7340567876976
 30
0.0
 11
47.8275968073844
 21
79.36943195344158
 31
0.0
  0
LINE
  5
398A
330
3986
100
AcDbEntity
  8
0
 48
4.0
100
AcDbLine
 10
222.1152643361944
 20
79.56943195344158
 30
0.0
 11
140.702898106512
 21
79.56943195344158
 31
0.0
  0
LINE
  5
398B
330
3986
100
AcDbEntity
  8
0
 48
4.0
100
AcDbLine
 10
50.3275968073844
 20
79.56943195344158
 30
0.0
 11
124.7656539046021
 21
79.56943195344158
 31
0.0
  0
SOLID
  5
398C
330
3986
100
AcDbEntity
  8
0
 48
4.0
100
AcDbTrace
 10
222.1152643361944
 20
79.15276528677491
 30
0.0
 11
222.1152643361944
 21
79.98609862010825
 31
0.0
 12
224.6152643361944
 22
79.56943195344158
 32
0.0
 13
224.6152643361944
 23
79.56943195344158
 33
0.0
  0
SOLID
  5
398D
330
3986
100
AcDbEntity
  8
0
 48
4.0
100
AcDbTrace
 10
50.3275968073844
 20
79.98609862010825
 30
0.0
 11
50.3275968073844
 21
79.15276528677491
 31
0.0
 12
47.8275968073844
 22
79.56943195344158
 32
0.0
 13
47.8275968073844
 23
79.56943195344158
 33
0.0
  0
MTEXT
  5
398E
330
3986
100
AcDbEntity
  8
0
 48
4.0
100
AcDbMText
 10
132.7342760055571
 20
79.56943195344158
 30
0.0
 40
2.5
 41
0.0
 71
     5
 72
     1
  1
\A1;TL 150.000
  7
HPMT XL
 73
     1
 44
1.0
1001
ACAD
1000
MTEXTBEGIN
1070
    73
1070
     1
1070
    44
1040
1.0
1070
    74
1070
     0
1000
MTEXTEND
  0
POINT
  5
398F
330
3986
100
AcDbEntity
  8
DEFPOINTS
 62
     0
 48
4.0
100
AcDbPoint
 10
224.6152643361944
 20
109.9856095705176
 30
0.0
  0
POINT
  5
3990
330
3986
100
AcDbEntity
  8
DEFPOINTS
 62
     0
 48
4.0
100
AcDbPoint
 10
47.8275968073844
 20
110.7340567876976
 30
0.0
  0
POINT
  5
3991
330
3986
100
AcDbEntity
  8
DEFPOINTS
 62
     0
 48
4.0
100
AcDbPoint
 10
47.8275968073844
 20
79.56943195344158
 30
0.0
  0
ENDBLK
  5
3992
330
3986
100
AcDbEntity
  8
0
 48
4.0
100
AcDbBlockEnd
  0
BLOCK
  5
3994
330
3993
100
AcDbEntity
  8
0
 48
4.0
100
AcDbBlockBegin
  2
*D20
 70
     1
 10
0.0
 20
0.0
 30
0.0
  3
*D20
  1

  0
LINE
  5
3995
330
3993
100
AcDbEntity
  8
0
 48
4.0
100
AcDbLine
 10
224.6152643361944
 20
108.9856095705176
 30
0.0
 11
224.6152643361944
 21
93.6180425829527
 31
0.0
  0
LINE
  5
3996
330
3993
100
AcDbEntity
  8
0
 48
4.0
100
AcDbLine
 10
145.9755224149916
 20
116.8979775539076
 30
0.0
 11
145.9755224149916
 21
93.6180425829527
 31
0.0
  0
LINE
  5
3997
330
3993
100
AcDbEntity
  8
0
 48
4.0
100
AcDbLine
 10
222.1152643361944
 20
93.81804258295272
 30
0.0
 11
193.5001759397922
 21
93.81804258295272
 31
0.0
  0
LINE
  5
3998
330
3993
100
AcDbEntity
  8
0
 48
4.0
100
AcDbLine
 10
148.4755224149916
 20
93.81804258295272
 30
0.0
 11
178.8794392412929
 21
93.81804258295272
 31
0.0
  0
SOLID
  5
3999
330
3993
100
AcDbEntity
  8
0
 48
4.0
100
AcDbTrace
 10
222.1152643361944
 20
93.40137591628602
 30
0.0
 11
222.1152643361944
 21
94.23470924961938
 31
0.0
 12
224.6152643361944
 22
93.81804258295272
 32
0.0
 13
224.6152643361944
 23
93.81804258295272
 33
0.0
  0
SOLID
  5
399A
330
3993
100
AcDbEntity
  8
0
 48
4.0
100
AcDbTrace
 10
148.4755224149916
 20
94.23470924961938
 30
0.0
 11
148.4755224149916
 21
93.40137591628602
 31
0.0
 12
145.9755224149916
 22
93.81804258295272
 32
0.0
 13
145.9755224149916
 23
93.81804258295272
 33
0.0
  0
MTEXT
  5
399B
330
3993
100
AcDbEntity
  8
0
 48
4.0
100
AcDbMText
 10
186.1898075905425
 20
93.81804258295272
 30
0.0
 40
2.5
 41
0.0
 71
     5
 72
     1
  1
\A1;CL 75.000
  7
HPMT XL
 73
     1
 44
1.0
1001
ACAD
1000
MTEXTBEGIN
1070
    73
1070
     1
1070
    44
1040
1.0
1070
    74
1070
     0
1000
MTEXTEND
  0
POINT
  5
399C
330
3993
100
AcDbEntity
  8
DEFPOINTS
 62
     0
 48
4.0
100
AcDbPoint
 10
224.6152643361944
 20
109.9856095705176
 30
0.0
  0
POINT
  5
399D
330
3993
100
AcDbEntity
  8
DEFPOINTS
 62
     0
 48
4.0
100
AcDbPoint
 10
145.9755224149916
 20
117.8979775539076
 30
0.0
  0
POINT
  5
399E
330
3993
100
AcDbEntity
  8
DEFPOINTS
 62
     0
 48
4.0
100
AcDbPoint
 10
145.9755224149916
 20
93.81804258295272
 30
0.0
  0
ENDBLK
  5
399F
330
3993
100
AcDbEntity
  8
0
 48
4.0
100
AcDbBlockEnd
  0
BLOCK
  5
39A1
330
39A0
100
AcDbEntity
  8
0
 48
4.0
100
AcDbBlockBegin
  2
*D21
 70
     1
 10
0.0
 20
0.0
 30
0.0
  3
*D21
  1

  0
LINE
  5
39A2
330
39A0
100
AcDbEntity
  8
0
 48
4.0
100
AcDbLine
 10
47.61709809138442
 20
125.7345811836976
 30
0.0
 11
41.42988690477625
 21
125.7345811836976
 31
0.0
  0
LINE
  5
39A3
330
39A0
100
AcDbEntity
  8
0
 48
4.0
100
AcDbLine
 10
47.61709809138443
 20
109.9445555036976
 30
0.0
 11
41.42988690477625
 21
109.9445555036976
 31
0.0
  0
LINE
  5
39A4
330
39A0
100
AcDbEntity
  8
0
 48
4.0
100
AcDbLine
 10
41.62988690477624
 20
125.7345811836976
 30
0.0
 11
41.62988690477624
 21
128.2345811836976
 31
0.0
  0
LINE
  5
39A5
330
39A0
100
AcDbEntity
  8
0
 48
4.0
100
AcDbLine
 10
41.62988690477624
 20
123.2345811836976
 30
0.0
 11
41.62988690477624
 21
112.4445555036976
 31
0.0
  0
SOLID
  5
39A6
330
39A0
100
AcDbEntity
  8
0
 48
4.0
100
AcDbTrace
 10
42.04655357144289
 20
123.2345811836976
 30
0.0
 11
41.21322023810956
 21
123.2345811836976
 31
0.0
 12
41.62988690477624
 22
125.7345811836976
 32
0.0
 13
41.62988690477624
 23
125.7345811836976
 33
0.0
  0
SOLID
  5
39A7
330
39A0
100
AcDbEntity
  8
0
 48
4.0
100
AcDbTrace
 10
41.21322023810956
 20
112.4445555036976
 30
0.0
 11
42.04655357144289
 21
112.4445555036976
 31
0.0
 12
41.62988690477624
 22
109.9445555036976
 32
0.0
 13
41.62988690477624
 23
109.9445555036976
 33
0.0
  0
MTEXT
  5
39A8
102
{ACAD_XDICTIONARY
360
717D
102
}
330
39A0
100
AcDbEntity
  8
0
 48
4.0
100
AcDbMText
 10
41.62988690477624
 20
136.8034761359486
 30
0.0
 40
2.5
 41
0.0
 71
     5
 72
     1
  1
\A1;\U+00D8 16.000 h6
  7
HPMT XL
 11
0.0
 21
1.0
 31
0.0
 73
     1
 44
1.0
1001
ACAD
1000
MTEXTBEGIN
1070
    73
1070
     1
1070
    44
1040
1.0
1070
    74
1070
     0
1000
MTEXTEND
  0
POINT
  5
39A9
330
39A0
100
AcDbEntity
  8
DEFPOINTS
 62
     0
 48
4.0
100
AcDbPoint
 10
48.61709809138442
 20
125.7345811836976
 30
0.0
  0
POINT
  5
39AA
330
39A0
100
AcDbEntity
  8
DEFPOINTS
 62
     0
 48
4.0
100
AcDbPoint
 10
48.61709809138442
 20
109.9445555036976
 30
0.0
  0
POINT
  5
39AB
330
39A0
100
AcDbEntity
  8
DEFPOINTS
 62
     0
 48
4.0
100
AcDbPoint
 10
41.62988690477624
 20
109.9445555036976
 30
0.0
  0
ENDBLK
  5
39AC
330
39A0
100
AcDbEntity
  8
0
 48
4.0
100
AcDbBlockEnd
  0
BLOCK
  5
39AE
330
39AD
100
AcDbEntity
  8
0
 48
4.0
100
AcDbBlockBegin
  2
*D22
 70
     1
 10
0.0
 20
0.0
 30
0.0
  3
*D22
  1

  0
LINE
  5
39AF
330
39AD
100
AcDbEntity
  8
0
 48
4.0
100
AcDbLine
 10
225.6152643361944
 20
125.6935271170076
 30
0.0
 11
234.0385916433986
 21
125.6935271170076
 31
0.0
  0
LINE
  5
39B0
330
39AD
100
AcDbEntity
  8
0
 48
4.0
100
AcDbLine
 10
225.6152643361944
 20
109.9856095705176
 30
0.0
 11
234.0385916433986
 21
109.9856095705176
 31
0.0
  0
LINE
  5
39B1
330
39AD
100
AcDbEntity
  8
0
 48
4.0
100
AcDbLine
 10
233.8385916433986
 20
125.6935271170076
 30
0.0
 11
233.8385916433986
 21
128.1935271170076
 31
0.0
  0
LINE
  5
39B2
330
39AD
100
AcDbEntity
  8
0
 48
4.0
100
AcDbLine
 10
233.8385916433986
 20
123.1935271170076
 30
0.0
 11
233.8385916433986
 21
112.4856095705176
 31
0.0
  0
SOLID
  5
39B3
330
39AD
100
AcDbEntity
  8
0
 48
4.0
100
AcDbTrace
 10
234.2552583100653
 20
123.1935271170076
 30
0.0
 11
233.421924976732
 21
123.1935271170076
 31
0.0
 12
233.8385916433986
 22
125.6935271170076
 32
0.0
 13
233.8385916433986
 23
125.6935271170076
 33
0.0
  0
SOLID
  5
39B4
330
39AD
100
AcDbEntity
  8
0
 48
4.0
100
AcDbTrace
 10
233.421924976732
 20
112.4856095705176
 30
0.0
 11
234.2552583100653
 21
112.4856095705176
 31
0.0
 12
233.8385916433986
 22
109.9856095705176
 32
0.0
 13
233.8385916433986
 23
109.9856095705176
 33
0.0
  0
MTEXT
  5
39B5
102
{ACAD_XDICTIONARY
360
717F
102
}
330
39AD
100
AcDbEntity
  8
0
 48
4.0
100
AcDbMText
 10
233.8385916433986
 20
134.8176744567075
 30
0.0
 40
2.5
 41
0.0
 71
     5
 72
     1
  1
\A1;\U+00D8 16.000
  7
HPMT XL
 11
0.0
 21
1.0
 31
0.0
 73
     1
 44
1.0
1001
ACAD
1000
MTEXTBEGIN
1070
    73
1070
     1
1070
    44
1040
1.0
1070
    74
1070
     0
1000
MTEXTEND
  0
POINT
  5
39B6
330
39AD
100
AcDbEntity
  8
DEFPOINTS
 62
     0
 48
4.0
100
AcDbPoint
 10
224.6152643361944
 20
125.6935271170076
 30
0.0
  0
POINT
  5
39B7
330
39AD
100
AcDbEntity
  8
DEFPOINTS
 62
     0
 48
4.0
100
AcDbPoint
 10
224.6152643361944
 20
109.9856095705176
 30
0.0
  0
POINT
  5
39B8
330
39AD
100
AcDbEntity
  8
DEFPOINTS
 62
     0
 48
4.0
100
AcDbPoint
 10
233.8385916433986
 20
109.9856095705176
 30
0.0
  0
ENDBLK
  5
39B9
330
39AD
100
AcDbEntity
  8
0
 48
4.0
100
AcDbBlockEnd
  0
BLOCK
  5
4E7C
330
4E7B
100
AcDbEntity
  8
0
100
AcDbBlockBegin
  2
*D23
 70
     1
 10
0.0
 20
0.0
 30
0.0
  3
*D23
  1

  0
LINE
  5
7094
330
4E7B
100
AcDbEntity
  8
0
 48
4.0
100
AcDbLine
 10
54.06336464707512
 20
133.7314982608865
 30
0.0
 11
54.06336464707512
 21
118.3639312733216
 31
0.0
  0
LINE
  5
7095
330
4E7B
100
AcDbEntity
  8
0
 48
4.0
100
AcDbLine
 10
-24.57637727412771
 20
141.6438662442765
 30
0.0
 11
-24.57637727412771
 21
118.3639312733216
 31
0.0
  0
LINE
  5
7096
330
4E7B
100
AcDbEntity
  8
0
 48
4.0
100
AcDbLine
 10
51.56336464707512
 20
118.5639312733216
 30
0.0
 11
22.94827625067292
 21
118.5639312733216
 31
0.0
  0
LINE
  5
7097
330
4E7B
100
AcDbEntity
  8
0
 48
4.0
100
AcDbLine
 10
-22.07637727412771
 20
118.5639312733216
 30
0.0
 11
8.327539552173602
 21
118.5639312733216
 31
0.0
  0
SOLID
  5
7098
330
4E7B
100
AcDbEntity
  8
0
 48
4.0
100
AcDbTrace
 10
51.56336464707512
 20
118.9805979399883
 30
0.0
 11
51.56336464707512
 21
118.147264606655
 31
0.0
 12
54.06336464707512
 22
118.5639312733216
 32
0.0
 13
54.06336464707512
 23
118.5639312733216
 33
0.0
  0
SOLID
  5
7099
330
4E7B
100
AcDbEntity
  8
0
 48
4.0
100
AcDbTrace
 10
-22.07637727412771
 20
118.9805979399883
 30
0.0
 11
-22.07637727412771
 21
118.147264606655
 31
0.0
 12
-24.57637727412771
 22
118.5639312733216
 32
0.0
 13
-24.57637727412771
 23
118.5639312733216
 33
0.0
  0
MTEXT
  5
709A
330
4E7B
100
AcDbEntity
  8
0
 48
4.0
100
AcDbMText
 10
15.63790790142325
 20
118.5639312733216
 30
0.0
 40
2.5
 41
0.0
 71
     5
 72
     1
  1
\A1;CL 75.000
  7
HPMT XL
 73
     1
 44
1.0
1001
ACAD
1000
MTEXTBEGIN
1070
    73
1070
     1
1070
    44
1040
1.0
1070
    74
1070
     0
1000
MTEXTEND
  0
POINT
  5
709B
330
4E7B
100
AcDbEntity
  8
DEFPOINTS
 62
     0
 48
4.0
100
AcDbPoint
 10
54.06336464707512
 20
134.7314982608865
 30
0.0
  0
POINT
  5
709C
330
4E7B
100
AcDbEntity
  8
DEFPOINTS
 62
     0
 48
4.0
100
AcDbPoint
 10
-24.57637727412771
 20
142.6438662442765
 30
0.0
  0
POINT
  5
709D
330
4E7B
100
AcDbEntity
  8
DEFPOINTS
 62
     0
 48
4.0
100
AcDbPoint
 10
-24.57637727412771
 20
118.5639312733216
 30
0.0
  0
ENDBLK
  5
4E7D
330
4E7B
100
AcDbEntity
  8
0
100
AcDbBlockEnd
  0
BLOCK
  5
4E89
330
4E88
100
AcDbEntity
  8
0
100
AcDbBlockBegin
  2
*D24
 70
     1
 10
0.0
 20
0.0
 30
0.0
  3
*D24
  1

  0
LINE
  5
709E
330
4E88
100
AcDbEntity
  8
0
 48
4.0
100
AcDbLine
 10
-122.9348015977349
 20
150.4804698740666
 30
0.0
 11
-129.1220127843431
 21
150.4804698740666
 31
0.0
  0
LINE
  5
709F
330
4E88
100
AcDbEntity
  8
0
 48
4.0
100
AcDbLine
 10
-122.9348015977349
 20
134.6904441940666
 30
0.0
 11
-129.1220127843431
 21
134.6904441940666
 31
0.0
  0
LINE
  5
70A0
330
4E88
100
AcDbEntity
  8
0
 48
4.0
100
AcDbLine
 10
-128.922012784343
 20
137.1904441940666
 30
0.0
 11
-128.922012784343
 21
147.9804698740666
 31
0.0
  0
LINE
  5
70A1
330
4E88
100
AcDbEntity
  8
0
 48
4.0
100
AcDbLine
 10
-128.922012784343
 20
150.4804698740666
 30
0.0
 11
-128.922012784343
 21
152.9804698740666
 31
0.0
  0
SOLID
  5
70A2
330
4E88
100
AcDbEntity
  8
0
 48
4.0
100
AcDbTrace
 10
-129.3386794510097
 20
137.1904441940666
 30
0.0
 11
-128.5053461176764
 21
137.1904441940666
 31
0.0
 12
-128.922012784343
 22
134.6904441940666
 32
0.0
 13
-128.922012784343
 23
134.6904441940666
 33
0.0
  0
SOLID
  5
70A3
330
4E88
100
AcDbEntity
  8
0
 48
4.0
100
AcDbTrace
 10
-129.3386794510097
 20
147.9804698740666
 30
0.0
 11
-128.5053461176764
 21
147.9804698740666
 31
0.0
 12
-128.922012784343
 22
150.4804698740666
 32
0.0
 13
-128.922012784343
 23
150.4804698740666
 33
0.0
  0
MTEXT
  5
70A4
102
{ACAD_XDICTIONARY
360
7181
102
}
330
4E88
100
AcDbEntity
  8
0
 48
4.0
100
AcDbMText
 10
-128.922012784343
 20
161.5493648263176
 30
0.0
 40
2.5
 41
0.0
 71
     5
 72
     1
  1
\A1;\U+00D8 16.000 h6
  7
HPMT XL
 11
0.0000000000000001
 21
1.0
 31
0.0
 73
     1
 44
1.0
1001
ACAD
1000
MTEXTBEGIN
1070
    73
1070
     1
1070
    44
1040
1.0
1070
    74
1070
     0
1000
MTEXTEND
  0
POINT
  5
70A5
330
4E88
100
AcDbEntity
  8
DEFPOINTS
 62
     0
 48
4.0
100
AcDbPoint
 10
-121.9348015977349
 20
150.4804698740666
 30
0.0
  0
POINT
  5
70A6
330
4E88
100
AcDbEntity
  8
DEFPOINTS
 62
     0
 48
4.0
100
AcDbPoint
 10
-121.9348015977349
 20
134.6904441940666
 30
0.0
  0
POINT
  5
70A7
330
4E88
100
AcDbEntity
  8
DEFPOINTS
 62
     0
 48
4.0
100
AcDbPoint
 10
-128.922012784343
 20
134.6904441940666
 30
0.0
  0
ENDBLK
  5
4E8A
330
4E88
100
AcDbEntity
  8
0
100
AcDbBlockEnd
  0
BLOCK
  5
4E96
330
4E95
100
AcDbEntity
  8
0
100
AcDbBlockBegin
  2
*D25
 70
     1
 10
0.0
 20
0.0
 30
0.0
  3
*D25
  1

  0
LINE
  5
708A
330
4E95
100
AcDbEntity
  8
0
 48
4.0
100
AcDbLine
 10
54.06336464707512
 20
133.7314982608865
 30
0.0
 11
54.06336464707512
 21
104.1153206438105
 31
0.0
  0
LINE
  5
708B
330
4E95
100
AcDbEntity
  8
0
 48
4.0
100
AcDbLine
 10
-122.7243028817349
 20
134.4799454780665
 30
0.0
 11
-122.7243028817349
 21
104.1153206438105
 31
0.0
  0
LINE
  5
708C
330
4E95
100
AcDbEntity
  8
0
 48
4.0
100
AcDbLine
 10
51.56336464707512
 20
104.3153206438105
 30
0.0
 11
-29.84900158260721
 21
104.3153206438105
 31
0.0
  0
LINE
  5
708D
330
4E95
100
AcDbEntity
  8
0
 48
4.0
100
AcDbLine
 10
-120.2243028817349
 20
104.3153206438105
 30
0.0
 11
-45.78624578451718
 21
104.3153206438105
 31
0.0
  0
SOLID
  5
708E
330
4E95
100
AcDbEntity
  8
0
 48
4.0
100
AcDbTrace
 10
51.56336464707512
 20
104.7319873104772
 30
0.0
 11
51.56336464707512
 21
103.8986539771438
 31
0.0
 12
54.06336464707512
 22
104.3153206438105
 32
0.0
 13
54.06336464707512
 23
104.3153206438105
 33
0.0
  0
SOLID
  5
708F
330
4E95
100
AcDbEntity
  8
0
 48
4.0
100
AcDbTrace
 10
-120.2243028817349
 20
104.7319873104772
 30
0.0
 11
-120.2243028817349
 21
103.8986539771438
 31
0.0
 12
-122.7243028817349
 22
104.3153206438105
 32
0.0
 13
-122.7243028817349
 23
104.3153206438105
 33
0.0
  0
MTEXT
  5
7090
330
4E95
100
AcDbEntity
  8
0
 48
4.0
100
AcDbMText
 10
-37.81762368356221
 20
104.3153206438105
 30
0.0
 40
2.5
 41
0.0
 71
     5
 72
     1
  1
\A1;TL 150.000
  7
HPMT XL
 73
     1
 44
1.0
1001
ACAD
1000
MTEXTBEGIN
1070
    73
1070
     1
1070
    44
1040
1.0
1070
    74
1070
     0
1000
MTEXTEND
  0
POINT
  5
7091
330
4E95
100
AcDbEntity
  8
DEFPOINTS
 62
     0
 48
4.0
100
AcDbPoint
 10
54.06336464707512
 20
134.7314982608865
 30
0.0
  0
POINT
  5
7092
330
4E95
100
AcDbEntity
  8
DEFPOINTS
 62
     0
 48
4.0
100
AcDbPoint
 10
-122.7243028817349
 20
135.4799454780665
 30
0.0
  0
POINT
  5
7093
330
4E95
100
AcDbEntity
  8
DEFPOINTS
 62
     0
 48
4.0
100
AcDbPoint
 10
-122.7243028817349
 20
104.3153206438105
 30
0.0
  0
ENDBLK
  5
4E97
330
4E95
100
AcDbEntity
  8
0
100
AcDbBlockEnd
  0
BLOCK
  5
4EB7
330
4EB6
100
AcDbEntity
  8
0
100
AcDbBlockBegin
  2
*D26
 70
     1
 10
0.0
 20
0.0
 30
0.0
  3
*D26
  1

  0
LINE
  5
70A8
330
4EB6
100
AcDbEntity
  8
0
 48
4.0
100
AcDbLine
 10
55.06336464707516
 20
150.4394158073766
 30
0.0
 11
63.48669195427929
 21
150.4394158073766
 31
0.0
  0
LINE
  5
70A9
330
4EB6
100
AcDbEntity
  8
0
 48
4.0
100
AcDbLine
 10
55.06336464707516
 20
134.7314982608866
 30
0.0
 11
63.48669195427929
 21
134.7314982608866
 31
0.0
  0
LINE
  5
70AA
330
4EB6
100
AcDbEntity
  8
0
 48
4.0
100
AcDbLine
 10
63.2866919542793
 20
137.2314982608866
 30
0.0
 11
63.28669195427929
 21
147.9394158073766
 31
0.0
  0
LINE
  5
70AB
330
4EB6
100
AcDbEntity
  8
0
 48
4.0
100
AcDbLine
 10
63.28669195427929
 20
150.4394158073766
 30
0.0
 11
63.28669195427929
 21
152.9394158073766
 31
0.0
  0
SOLID
  5
70AC
330
4EB6
100
AcDbEntity
  8
0
 48
4.0
100
AcDbTrace
 10
62.87002528761263
 20
137.2314982608866
 30
0.0
 11
63.70335862094595
 21
137.2314982608866
 31
0.0
 12
63.2866919542793
 22
134.7314982608866
 32
0.0
 13
63.2866919542793
 23
134.7314982608866
 33
0.0
  0
SOLID
  5
70AD
330
4EB6
100
AcDbEntity
  8
0
 48
4.0
100
AcDbTrace
 10
62.87002528761263
 20
147.9394158073766
 30
0.0
 11
63.70335862094595
 21
147.9394158073766
 31
0.0
 12
63.28669195427929
 22
150.4394158073766
 32
0.0
 13
63.28669195427929
 23
150.4394158073766
 33
0.0
  0
MTEXT
  5
70AE
102
{ACAD_XDICTIONARY
360
7183
102
}
330
4EB6
100
AcDbEntity
  8
0
 48
4.0
100
AcDbMText
 10
63.28669195427932
 20
159.5635631470765
 30
0.0
 40
2.5
 41
0.0
 71
     5
 72
     1
  1
\A1;\U+00D8 16.000
  7
HPMT XL
 11
0.0000000000000001
 21
1.0
 31
0.0
 73
     1
 44
1.0
1001
ACAD
1000
MTEXTBEGIN
1070
    73
1070
     1
1070
    44
1040
1.0
1070
    74
1070
     0
1000
MTEXTEND
  0
POINT
  5
70AF
330
4EB6
100
AcDbEntity
  8
DEFPOINTS
 62
     0
 48
4.0
100
AcDbPoint
 10
54.06336464707515
 20
150.4394158073766
 30
0.0
  0
POINT
  5
70B0
330
4EB6
100
AcDbEntity
  8
DEFPOINTS
 62
     0
 48
4.0
100
AcDbPoint
 10
54.06336464707515
 20
134.7314982608866
 30
0.0
  0
POINT
  5
70B1
330
4EB6
100
AcDbEntity
  8
DEFPOINTS
 62
     0
 48
4.0
100
AcDbPoint
 10
63.2866919542793
 20
134.7314982608866
 30
0.0
  0
ENDBLK
  5
4EB8
330
4EB6
100
AcDbEntity
  8
0
100
AcDbBlockEnd
  0
BLOCK
  5
703D
330
703C
100
AcDbEntity
  8
0
100
AcDbBlockBegin
  2
*D27
 70
     1
 10
0.0
 20
0.0
 30
0.0
  3
*D27
  1

  0
LINE
  5
706F
330
703C
100
AcDbEntity
  8
SK2
 62
     0
370
    -2
100
AcDbLine
 10
-47.5
 20
8.000000000000001
 30
0.0
 11
-62.95720391331489
 21
8.000000000000001
 31
0.0
  0
LINE
  5
7070
330
703C
100
AcDbEntity
  8
SK2
 62
     0
370
    -2
100
AcDbLine
 10
-47.50000000000002
 20
-7.999999999999996
 30
0.0
 11
-62.95720391331489
 21
-7.999999999999999
 31
0.0
  0
LINE
  5
7071
330
703C
100
AcDbEntity
  8
SK2
 62
     0
370
    -2
100
AcDbLine
 10
-61.70720391331489
 20
5.5
 30
0.0
 11
-61.70720391331489
 21
-5.499999999999997
 31
0.0
  0
SOLID
  5
7072
330
703C
100
AcDbEntity
  8
SK2
 62
     0
100
AcDbTrace
 10
-62.12387057998155
 20
5.499999999999999
 30
0.0
 11
-61.29053724664821
 21
5.5
 31
0.0
 12
-61.70720391331489
 22
8.0
 32
0.0
 13
-61.70720391331489
 23
8.0
 33
0.0
  0
SOLID
  5
7073
330
703C
100
AcDbEntity
  8
SK2
 62
     0
100
AcDbTrace
 10
-62.12387057998155
 20
-5.499999999999997
 30
0.0
 11
-61.29053724664821
 21
-5.499999999999997
 31
0.0
 12
-61.70720391331489
 22
-7.999999999999997
 32
0.0
 13
-61.70720391331489
 23
-7.999999999999997
 33
0.0
  0
MTEXT
  5
7074
330
703C
100
AcDbEntity
  8
SK2
 62
     0
100
AcDbMText
 10
-64.08220391331487
 20
0.0000000000000187
 30
0.0
 40
3.5
 41
0.0
 71
     5
 72
     1
  1
%%c16
  7
SIMPLEX
 11
0.0000000000000001
 21
1.0
 31
0.0
 73
     1
 44
1.0
1001
ACAD
1000
MTEXTBEGIN
1070
    73
1070
     1
1070
    44
1040
1.0
1070
    74
1070
     0
1000
MTEXTEND
  0
POINT
  5
7075
330
703C
100
AcDbEntity
  8
DEFPOINTS
 62
     0
100
AcDbPoint
 10
-47.5
 20
8.000000000000001
 30
0.0
  0
POINT
  5
7076
330
703C
100
AcDbEntity
  8
DEFPOINTS
 62
     0
100
AcDbPoint
 10
-47.50000000000002
 20
-7.999999999999996
 30
0.0
  0
POINT
  5
7077
330
703C
100
AcDbEntity
  8
DEFPOINTS
 62
     0
100
AcDbPoint
 10
-61.70720391331489
 20
-7.999999999999997
 30
0.0
  0
ENDBLK
  5
703E
330
703C
100
AcDbEntity
  8
0
100
AcDbBlockEnd
  0
BLOCK
  5
7049
330
7048
100
AcDbEntity
  8
0
100
AcDbBlockBegin
  2
*D28
 70
     1
 10
0.0
 20
0.0
 30
0.0
  3
*D28
  1

  0
LINE
  5
7081
330
7048
100
AcDbEntity
  8
SK2
 62
     0
370
    -2
100
AcDbLine
 10
-48.0
 20
7.5
 30
0.0
 11
-47.99999999999999
 21
91.00084288437825
 31
0.0
  0
LINE
  5
7082
330
7048
100
AcDbEntity
  8
SK2
 62
     0
370
    -2
100
AcDbLine
 10
102.0
 20
8.0
 30
0.0
 11
102.0
 21
91.00084288437825
 31
0.0
  0
LINE
  5
7083
330
7048
100
AcDbEntity
  8
SK2
 62
     0
370
    -2
100
AcDbLine
 10
-45.49999999999999
 20
89.75084288437825
 30
0.0
 11
99.50000000000001
 21
89.75084288437825
 31
0.0
  0
SOLID
  5
7084
330
7048
100
AcDbEntity
  8
SK2
 62
     0
100
AcDbTrace
 10
-45.49999999999999
 20
90.16750955104491
 30
0.0
 11
-45.49999999999999
 21
89.33417621771155
 31
0.0
 12
-47.99999999999999
 22
89.75084288437825
 32
0.0
 13
-47.99999999999999
 23
89.75084288437825
 33
0.0
  0
SOLID
  5
7085
330
7048
100
AcDbEntity
  8
SK2
 62
     0
100
AcDbTrace
 10
99.50000000000001
 20
90.16750955104491
 30
0.0
 11
99.50000000000001
 21
89.33417621771155
 31
0.0
 12
102.0
 22
89.75084288437825
 32
0.0
 13
102.0
 23
89.75084288437825
 33
0.0
  0
MTEXT
  5
7086
330
7048
100
AcDbEntity
  8
SK2
 62
     0
100
AcDbMText
 10
27.00000000000001
 20
92.12584288437824
 30
0.0
 40
3.5
 41
0.0
 71
     5
 72
     1
  1
150
  7
SIMPLEX
 73
     1
 44
1.0
1001
ACAD
1000
MTEXTBEGIN
1070
    73
1070
     1
1070
    44
1040
1.0
1070
    74
1070
     0
1000
MTEXTEND
  0
POINT
  5
7087
330
7048
100
AcDbEntity
  8
DEFPOINTS
 62
     0
100
AcDbPoint
 10
-48.0
 20
7.5
 30
0.0
  0
POINT
  5
7088
330
7048
100
AcDbEntity
  8
DEFPOINTS
 62
     0
100
AcDbPoint
 10
102.0
 20
8.0
 30
0.0
  0
POINT
  5
7089
330
7048
100
AcDbEntity
  8
DEFPOINTS
 62
     0
100
AcDbPoint
 10
102.0
 20
89.75084288437825
 30
0.0
  0
ENDBLK
  5
704A
330
7048
100
AcDbEntity
  8
0
100
AcDbBlockEnd
  0
BLOCK
  5
70B5
330
70B4
100
AcDbEntity
  8
0
100
AcDbBlockBegin
  2
*D29
 70
     1
 10
0.0
 20
0.0
 30
0.0
  3
*D29
  1

  0
LINE
  5
70E7
330
70B4
100
AcDbEntity
  8
2
 62
     0
370
    -2
100
AcDbLine
 10
0.0
 20
0.0000000000000005
 30
0.0
 11
0.0000000000000046
 21
75.4518375340509
 31
0.0
  0
LINE
  5
70E8
330
70B4
100
AcDbEntity
  8
2
 62
     0
370
    -2
100
AcDbLine
 10
102.0
 20
8.0
 30
0.0
 11
102.0
 21
75.4518375340509
 31
0.0
  0
LINE
  5
70E9
330
70B4
100
AcDbEntity
  8
2
 62
     0
370
    -2
100
AcDbLine
 10
2.500000000000003
 20
74.2018375340509
 30
0.0
 11
99.50000000000001
 21
74.2018375340509
 31
0.0
  0
SOLID
  5
70EA
330
70B4
100
AcDbEntity
  8
2
 62
     0
100
AcDbTrace
 10
2.500000000000003
 20
74.61850420071758
 30
0.0
 11
2.500000000000003
 21
73.78517086738423
 31
0.0
 12
0.0000000000000045
 22
74.2018375340509
 32
0.0
 13
0.0000000000000045
 23
74.2018375340509
 33
0.0
  0
SOLID
  5
70EB
330
70B4
100
AcDbEntity
  8
2
 62
     0
100
AcDbTrace
 10
99.50000000000001
 20
74.61850420071758
 30
0.0
 11
99.50000000000001
 21
73.78517086738423
 31
0.0
 12
102.0
 22
74.2018375340509
 32
0.0
 13
102.0
 23
74.2018375340509
 33
0.0
  0
MTEXT
  5
70EC
330
70B4
100
AcDbEntity
  8
2
 62
     0
100
AcDbMText
 10
51.0
 20
76.57683753405091
 30
0.0
 40
3.5
 41
0.0
 71
     5
 72
     1
  1
102
  7
SIMPLEX
 73
     1
 44
1.0
1001
ACAD
1000
MTEXTBEGIN
1070
    73
1070
     1
1070
    44
1040
1.0
1070
    74
1070
     0
1000
MTEXTEND
  0
POINT
  5
70ED
330
70B4
100
AcDbEntity
  8
DEFPOINTS
 62
     0
100
AcDbPoint
 10
0.0
 20
0.0000000000000005
 30
0.0
  0
POINT
  5
70EE
330
70B4
100
AcDbEntity
  8
DEFPOINTS
 62
     0
100
AcDbPoint
 10
102.0
 20
8.0
 30
0.0
  0
POINT
  5
70EF
330
70B4
100
AcDbEntity
  8
DEFPOINTS
 62
     0
100
AcDbPoint
 10
102.0
 20
74.2018375340509
 30
0.0
  0
ENDBLK
  5
70B6
330
70B4
100
AcDbEntity
  8
0
100
AcDbBlockEnd
  0
BLOCK
  5
70C1
330
70C0
100
AcDbEntity
  8
0
100
AcDbBlockBegin
  2
*D30
 70
     1
 10
0.0
 20
0.0
 30
0.0
  3
*D30
  1

  0
LINE
  5
70F9
330
70C0
100
AcDbEntity
  8
2
 62
     0
370
    -2
100
AcDbLine
 10
27.0
 20
8.0
 30
0.0
 11
27.00000000000001
 21
61.00084288437824
 31
0.0
  0
LINE
  5
70FA
330
70C0
100
AcDbEntity
  8
2
 62
     0
370
    -2
100
AcDbLine
 10
102.0
 20
8.0
 30
0.0
 11
102.0
 21
61.00084288437824
 31
0.0
  0
LINE
  5
70FB
330
70C0
100
AcDbEntity
  8
2
 62
     0
370
    -2
100
AcDbLine
 10
29.50000000000001
 20
59.75084288437824
 30
0.0
 11
99.50000000000001
 21
59.75084288437824
 31
0.0
  0
SOLID
  5
70FC
330
70C0
100
AcDbEntity
  8
2
 62
     0
100
AcDbTrace
 10
29.50000000000001
 20
60.1675095510449
 30
0.0
 11
29.50000000000001
 21
59.33417621771158
 31
0.0
 12
27.00000000000001
 22
59.75084288437824
 32
0.0
 13
27.00000000000001
 23
59.75084288437824
 33
0.0
  0
SOLID
  5
70FD
330
70C0
100
AcDbEntity
  8
2
 62
     0
100
AcDbTrace
 10
99.50000000000001
 20
60.1675095510449
 30
0.0
 11
99.50000000000001
 21
59.33417621771158
 31
0.0
 12
102.0
 22
59.75084288437824
 32
0.0
 13
102.0
 23
59.75084288437824
 33
0.0
  0
MTEXT
  5
70FE
330
70C0
100
AcDbEntity
  8
2
 62
     0
100
AcDbMText
 10
64.5
 20
62.12584288437824
 30
0.0
 40
3.5
 41
0.0
 71
     5
 72
     1
  1
75
  7
SIMPLEX
 73
     1
 44
1.0
1001
ACAD
1000
MTEXTBEGIN
1070
    73
1070
     1
1070
    44
1040
1.0
1070
    74
1070
     0
1000
MTEXTEND
  0
POINT
  5
70FF
330
70C0
100
AcDbEntity
  8
DEFPOINTS
 62
     0
100
AcDbPoint
 10
27.0
 20
8.0
 30
0.0
  0
POINT
  5
7100
330
70C0
100
AcDbEntity
  8
DEFPOINTS
 62
     0
100
AcDbPoint
 10
102.0
 20
8.0
 30
0.0
  0
POINT
  5
7101
330
70C0
100
AcDbEntity
  8
DEFPOINTS
 62
     0
100
AcDbPoint
 10
102.0
 20
59.75084288437824
 30
0.0
  0
ENDBLK
  5
70C2
330
70C0
100
AcDbEntity
  8
0
100
AcDbBlockEnd
  0
BLOCK
  5
7104
330
7103
100
AcDbEntity
  8
0
100
AcDbBlockBegin
  2
*D31
 70
     1
 10
0.0
 20
0.0
 30
0.0
  3
*D31
  1

  0
LINE
  5
712C
330
7103
100
AcDbEntity
  8
2
 62
     0
370
    -2
100
AcDbLine
 10
102.0
 20
8.000000000000001
 30
0.0
 11
120.2824654952744
 21
8.000000000000008
 31
0.0
  0
LINE
  5
712D
330
7103
100
AcDbEntity
  8
2
 62
     0
370
    -2
100
AcDbLine
 10
102.0
 20
-8.000000000000001
 30
0.0
 11
120.2824654952744
 21
-8.000000000000001
 31
0.0
  0
LINE
  5
712E
330
7103
100
AcDbEntity
  8
2
 62
     0
370
    -2
100
AcDbLine
 10
119.0324654952744
 20
5.500000000000004
 30
0.0
 11
119.0324654952744
 21
-5.5
 31
0.0
  0
SOLID
  5
712F
330
7103
100
AcDbEntity
  8
2
 62
     0
100
AcDbTrace
 10
118.6157988286077
 20
5.500000000000004
 30
0.0
 11
119.4491321619411
 21
5.500000000000004
 31
0.0
 12
119.0324654952744
 22
8.000000000000005
 32
0.0
 13
119.0324654952744
 23
8.000000000000005
 33
0.0
  0
SOLID
  5
7130
330
7103
100
AcDbEntity
  8
2
 62
     0
100
AcDbTrace
 10
118.6157988286077
 20
-5.5
 30
0.0
 11
119.4491321619411
 21
-5.5
 31
0.0
 12
119.0324654952744
 22
-8.000000000000001
 32
0.0
 13
119.0324654952744
 23
-8.000000000000001
 33
0.0
  0
MTEXT
  5
7131
330
7103
100
AcDbEntity
  8
2
 62
     0
100
AcDbMText
 10
116.6574654952744
 20
-0.0000000000000314
 30
0.0
 40
3.5
 41
0.0
 71
     5
 72
     1
  1
%%c16
  7
SIMPLEX
 11
0.0000000000000001
 21
1.0
 31
0.0
 73
     1
 44
1.0
1001
ACAD
1000
MTEXTBEGIN
1070
    73
1070
     1
1070
    44
1040
1.0
1070
    74
1070
     0
1000
MTEXTEND
  0
POINT
  5
7132
330
7103
100
AcDbEntity
  8
DEFPOINTS
 62
     0
100
AcDbPoint
 10
102.0
 20
8.000000000000001
 30
0.0
  0
POINT
  5
7133
330
7103
100
AcDbEntity
  8
DEFPOINTS
 62
     0
100
AcDbPoint
 10
102.0
 20
-8.000000000000001
 30
0.0
  0
POINT
  5
7134
330
7103
100
AcDbEntity
  8
DEFPOINTS
 62
     0
100
AcDbPoint
 10
119.0324654952744
 20
-8.000000000000001
 30
0.0
  0
ENDBLK
  5
7105
330
7103
100
AcDbEntity
  8
0
100
AcDbBlockEnd
  0
ENDSEC
  0
SECTION
  2
ENTITIES
  0
MTEXT
  5
654
330
18
100
AcDbEntity
  8
SK6
100
AcDbMText
 10
-10.58997826544052
 20
-24.42262341644778
 30
0.0
 40
3.5
 41
0.0
 71
     7
 72
     5
  1
{\W0.8173;S71816.0}
  7
cesky
 73
     2
 44
0.8433729999999998
1001
ACAD
1000
MTEXTBEGIN
1070
    73
1070
     2
1070
    44
1040
0.8433729999999998
1070
    74
1070
     0
1000
MTEXTEND
  0
LINE
  5
4F14
330
18
100
AcDbEntity
  8
SK4
100
AcDbLine
 10
-49.58984234298464
 20
0.0
 30
0.0
 11
0.0
 21
0.0
 31
0.0
  0
LINE
  5
4F15
330
18
100
AcDbEntity
  8
SK4
100
AcDbLine
 10
0.0
 20
0.0
 30
0.0
 11
104.1065159814275
 21
0.0
 31
0.0
  0
LINE
  5
4F16
330
18
100
AcDbEntity
  8
SK1
100
AcDbLine
 10
-48.0
 20
7.5
 30
0.0
 11
-48.0
 21
-7.499999999999997
 31
0.0
  0
LINE
  5
4F18
330
18
100
AcDbEntity
  8
SK1
100
AcDbLine
 10
-47.5
 20
8.0
 30
0.0
 11
-48.0
 21
7.5
 31
0.0
  0
LINE
  5
4F19
330
18
100
AcDbEntity
  8
SK1
100
AcDbLine
 10
-47.5
 20
8.0
 30
0.0
 11
-47.5
 21
-8.0
 31
0.0
  0
LINE
  5
4F1A
330
18
100
AcDbEntity
  8
SK1
100
AcDbLine
 10
-47.5
 20
-8.0
 30
0.0
 11
-48.0
 21
-7.5
 31
0.0
  0
LINE
  5
4F1B
330
18
100
AcDbEntity
  8
SK1
100
AcDbLine
 10
-47.5
 20
-8.0
 30
0.0
 11
0.0
 21
-8.0
 31
0.0
  0
LINE
  5
4F1C
330
18
100
AcDbEntity
  8
SK1
100
AcDbLine
 10
-47.5
 20
8.0
 30
0.0
 11
0.0
 21
8.0
 31
0.0
  0
LINE
  5
4F54
330
18
100
AcDbEntity
  8
CUT
100
AcDbLine
 10
102.0
 20
8.0
 30
0.0
 11
102.0
 21
0.0
 31
0.0
  0
LINE
  5
4F56
330
18
100
AcDbEntity
  8
CUT
100
AcDbLine
 10
27.0
 20
8.0
 30
0.0
 11
27.0
 21
0.0
 31
0.0
  0
LINE
  5
4F57
330
18
100
AcDbEntity
  8
CUT
100
AcDbLine
 10
27.0
 20
0.0
 30
0.0
 11
102.0
 21
0.0
 31
0.0
  0
LINE
  5
63E4
330
18
100
AcDbEntity
  8
CUT
100
AcDbLine
 10
27.0
 20
8.0
 30
0.0
 11
102.0
 21
8.0
 31
0.0
  0
LINE
  5
6F7E
330
18
100
AcDbEntity
  8
1
100
AcDbLine
 10
0.0
 20
-8.0
 30
0.0
 11
23.35224023277712
 21
-8.0
 31
0.0
  0
LINE
  5
6F7F
330
18
100
AcDbEntity
  8
1
100
AcDbLine
 10
0.0
 20
8.0
 30
0.0
 11
22.953421608019
 21
8.0
 31
0.0
  0
LINE
  5
6FE5
330
18
100
AcDbEntity
  8
NOCUT
100
AcDbLine
 10
-48.0
 20
0.0000000000000013
 30
0.0
 11
27.0
 21
0.0
 31
0.0
  0
LINE
  5
6FE6
330
18
100
AcDbEntity
  8
NOCUT
100
AcDbLine
 10
27.0
 20
0.0
 30
0.0
 11
27.0
 21
8.0
 31
0.0
  0
LINE
  5
6FE7
330
18
100
AcDbEntity
  8
NOCUT
100
AcDbLine
 10
27.0
 20
8.0
 30
0.0
 11
-47.5
 21
8.0
 31
0.0
  0
LINE
  5
6FE8
330
18
100
AcDbEntity
  8
NOCUT
100
AcDbLine
 10
-47.5
 20
8.0
 30
0.0
 11
-48.0
 21
7.5
 31
0.0
  0
LINE
  5
6FE9
330
18
100
AcDbEntity
  8
NOCUT
100
AcDbLine
 10
-48.0
 20
7.5
 30
0.0
 11
-48.0
 21
0.0000000000000013
 31
0.0
  0
DIMENSION
  5
703A
330
18
100
AcDbEntity
  8
SK2
100
AcDbDimension
  2
*D27
 10
-61.70720391331489
 20
-7.999999999999997
 30
0.0
 11
-64.08220391331487
 21
0.0000000000000187
 31
0.0
 70
    32
  1
%%c<>
 71
     5
 42
15.99999999999999
  3
STANDARD
100
AcDbAlignedDimension
 13
-47.5
 23
8.0
 33
0.0
 14
-47.5
 24
-7.999999999999992
 34
0.0
 50
90.00000000029309
100
AcDbRotatedDimension
  0
DIMENSION
  5
703B
330
18
100
AcDbEntity
  8
SK2
100
AcDbDimension
  2
*D28
 10
102.0
 20
89.75084288437825
 30
0.0
 11
27.00000000000001
 21
92.12584288437824
 31
0.0
 70
    32
  1
<>
 71
     5
 42
150.0
  3
STANDARD
100
AcDbAlignedDimension
 13
-48.0
 23
7.5
 33
0.0
 14
102.0
 24
8.0
 34
0.0
100
AcDbRotatedDimension
  0
DIMENSION
  5
70B2
330
18
100
AcDbEntity
  8
2
100
AcDbDimension
  2
*D29
 10
102.0
 20
74.2018375340509
 30
0.0
 11
51.0
 21
76.57683753405091
 31
0.0
 70
    32
  1
<>
 71
     5
 42
102.0
  3
STANDARD
100
AcDbAlignedDimension
 13
0.0
 23
0.0000000000000005
 33
0.0
 14
102.0
 24
8.0
 34
0.0
100
AcDbRotatedDimension
  0
DIMENSION
  5
70B3
330
18
100
AcDbEntity
  8
2
100
AcDbDimension
  2
*D30
 10
102.0
 20
59.75084288437824
 30
0.0
 11
64.5
 21
62.12584288437824
 31
0.0
 70
    32
  1
<>
 71
     5
 42
75.0
  3
STANDARD
100
AcDbAlignedDimension
 13
27.0
 23
8.0
 33
0.0
 14
102.0
 24
8.0
 34
0.0
100
AcDbRotatedDimension
  0
DIMENSION
  5
7102
330
18
100
AcDbEntity
  8
2
100
AcDbDimension
  2
*D31
 10
119.0324654952744
 20
-8.000000000000001
 30
0.0
 11
116.6574654952744
 21
-0.0000000000000314
 31
0.0
 70
    32
  1
%%c<>
 71
     5
 42
16.0
  3
STANDARD
100
AcDbAlignedDimension
 13
102.0
 23
8.0
 33
0.0
 14
102.0
 24
-8.0
 34
0.0
 50
90.0
100
AcDbRotatedDimension
  0
LINE
  5
719B
330
18
100
AcDbEntity
  8
1
100
AcDbLine
 10
102.0
 20
8.0
 30
0.0
 11
101.7526229309699
 21
0.7852906105200077
 31
0.0
  0
LINE
  5
719C
330
18
100
AcDbEntity
  8
1
100
AcDbLine
 10
102.0
 20
8.0
 30
0.0
 11
101.7633293950612
 21
8.0
 31
0.0
  0
LINE
  5
719D
330
18
100
AcDbEntity
  8
1
100
AcDbLine
 10
101.7633293950612
 20
8.0
 30
0.0
 11
100.8698083048073
 21
7.988623070406788
 31
0.0
  0
LINE
  5
719E
330
18
100
AcDbEntity
  8
1
100
AcDbLine
 10
100.8698083048073
 20
7.988623070406788
 30
0.0
 11
99.95686406941468
 21
7.917447975772006
 31
0.0
  0
LINE
  5
719F
330
18
100
AcDbEntity
  8
1
100
AcDbLine
 10
99.95686406941468
 20
7.917447975772006
 30
0.0
 11
98.80435297188501
 21
7.66510148484167
 31
0.0
  0
LINE
  5
71A0
330
18
100
AcDbEntity
  8
1
100
AcDbLine
 10
98.80435297188501
 20
7.66510148484167
 30
0.0
 11
97.71658823264989
 21
7.328639275261139
 31
0.0
  0
LINE
  5
71A1
330
18
100
AcDbEntity
  8
1
100
AcDbLine
 10
97.71658823264989
 20
7.328639275261139
 30
0.0
 11
96.63529889159372
 21
6.95335452861434
 31
0.0
  0
LINE
  5
71A2
330
18
100
AcDbEntity
  8
1
100
AcDbLine
 10
96.63529889159372
 20
6.95335452861434
 30
0.0
 11
95.63755087783466
 21
6.518021136811398
 31
0.0
  0
LINE
  5
71A3
330
18
100
AcDbEntity
  8
1
100
AcDbLine
 10
95.63755087783466
 20
6.518021136811398
 30
0.0
 11
94.99132485914513
 21
6.17877607556538
 31
0.0
  0
LINE
  5
71A4
330
18
100
AcDbEntity
  8
1
100
AcDbLine
 10
99.212815344999
 20
4.228241801587707
 30
0.0
 11
100.3028354064599
 21
4.562264753150003
 31
0.0
  0
LINE
  5
71A5
330
18
100
AcDbEntity
  8
1
100
AcDbLine
 10
100.3028354064599
 20
4.562264753150003
 30
0.0
 11
101.2502961916262
 21
5.025812114296392
 31
0.0
  0
LINE
  5
71A6
330
18
100
AcDbEntity
  8
1
100
AcDbLine
 10
101.2502961916262
 20
5.025812114296392
 30
0.0
 11
101.9181295513155
 21
5.518319723084871
 31
0.0
  0
LINE
  5
71B0
330
18
100
AcDbEntity
  8
1
100
AcDbLine
 10
94.6253916759551
 20
-6.006230765638946
 30
0.0
 11
93.94011297513493
 21
-6.281666966120013
 31
0.0
  0
LINE
  5
71B1
330
18
100
AcDbEntity
  8
1
100
AcDbLine
 10
93.94011297513493
 20
-6.281666966120013
 30
0.0
 11
92.62072474601493
 21
-6.762604831580006
 31
0.0
  0
LINE
  5
71B2
330
18
100
AcDbEntity
  8
1
100
AcDbLine
 10
92.62072474601493
 20
-6.762604831580006
 30
0.0
 11
91.16514754546996
 21
-7.15919764326
 31
0.0
  0
LINE
  5
71B3
330
18
100
AcDbEntity
  8
1
100
AcDbLine
 10
91.16514754546996
 20
-7.15919764326
 30
0.0
 11
89.66417402102996
 21
-7.410785385705011
 31
0.0
  0
LINE
  5
71B4
330
18
100
AcDbEntity
  8
1
100
AcDbLine
 10
89.66417402102996
 20
-7.410785385705011
 30
0.0
 11
88.52900275821992
 21
-7.495788357330013
 31
0.0
  0
LINE
  5
71B5
330
18
100
AcDbEntity
  8
1
100
AcDbLine
 10
88.52900275821992
 20
-7.495788357330013
 30
0.0
 11
87.68387343844494
 21
-7.424678529255004
 31
0.0
  0
LINE
  5
71B6
330
18
100
AcDbEntity
  8
1
100
AcDbLine
 10
87.68387343844494
 20
-7.424678529255004
 30
0.0
 11
86.97560977070994
 21
-7.307813735755004
 31
0.0
  0
LINE
  5
71B7
330
18
100
AcDbEntity
  8
1
100
AcDbLine
 10
86.97560977070994
 20
-7.307813735755004
 30
0.0
 11
85.50141665986494
 21
-6.948072834170019
 31
0.0
  0
LINE
  5
71B8
330
18
100
AcDbEntity
  8
1
100
AcDbLine
 10
85.50141665986494
 20
-6.948072834170019
 30
0.0
 11
84.46889715411998
 21
-6.614474724779995
 31
0.0
  0
LINE
  5
71B9
330
18
100
AcDbEntity
  8
1
100
AcDbLine
 10
84.46889715411998
 20
-6.614474724779995
 30
0.0
 11
83.40902138755996
 21
-6.199136417890002
 31
0.0
  0
LINE
  5
71BA
330
18
100
AcDbEntity
  8
1
100
AcDbLine
 10
83.40902138755996
 20
-6.199136417890002
 30
0.0
 11
82.25209317797995
 21
-5.667143546285004
 31
0.0
  0
LINE
  5
71BB
330
18
100
AcDbEntity
  8
1
100
AcDbLine
 10
82.25209317797995
 20
-5.667143546285004
 30
0.0
 11
80.68301857978497
 21
-4.832882491970011
 31
0.0
  0
LINE
  5
71BC
330
18
100
AcDbEntity
  8
1
100
AcDbLine
 10
80.68301857978497
 20
-4.832882491970011
 30
0.0
 11
79.29178653790995
 21
-3.99321620308001
 31
0.0
  0
LINE
  5
71BD
330
18
100
AcDbEntity
  8
1
100
AcDbLine
 10
79.29178653790995
 20
-3.99321620308001
 30
0.0
 11
77.82055653194993
 21
-3.005667192060002
 31
0.0
  0
LINE
  5
71BE
330
18
100
AcDbEntity
  8
1
100
AcDbLine
 10
77.82055653194993
 20
-3.005667192060002
 30
0.0
 11
76.52125314832493
 21
-2.078070084999993
 31
0.0
  0
LINE
  5
71BF
330
18
100
AcDbEntity
  8
1
100
AcDbLine
 10
76.52125314832493
 20
-2.078070084999993
 30
0.0
 11
75.79567269408993
 21
-1.548688150489994
 31
0.0
  0
LINE
  5
71C0
330
18
100
AcDbEntity
  8
1
100
AcDbLine
 10
75.79567269408993
 20
-1.548688150489994
 30
0.0
 11
74.15356198469496
 21
-0.3175851827199949
 31
0.0
  0
LINE
  5
71C1
330
18
100
AcDbEntity
  8
1
100
AcDbLine
 10
74.15356198469496
 20
-0.3175851827199949
 30
0.0
 11
72.51145127529999
 21
0.9135177850500042
 31
0.0
  0
LINE
  5
71C2
330
18
100
AcDbEntity
  8
1
100
AcDbLine
 10
72.51145127529999
 20
0.9135177850500042
 30
0.0
 11
70.67118110388491
 21
2.222897133859987
 31
0.0
  0
LINE
  5
71C3
330
18
100
AcDbEntity
  8
1
100
AcDbLine
 10
70.67118110388491
 20
2.222897133859987
 30
0.0
 11
69.15553543591999
 21
3.225296749999984
 31
0.0
  0
LINE
  5
71C4
330
18
100
AcDbEntity
  8
1
100
AcDbLine
 10
69.15553543591999
 20
3.225296749999984
 30
0.0
 11
67.86227957851995
 21
3.99898843545499
 31
0.0
  0
LINE
  5
71C6
330
18
100
AcDbEntity
  8
1
100
AcDbLine
 10
67.86227957851995
 20
3.99898843545499
 30
0.0
 11
66.73905535366995
 21
4.63028394347998
 31
0.0
  0
LINE
  5
71C7
330
18
100
AcDbEntity
  8
1
100
AcDbLine
 10
66.73905535366995
 20
4.63028394347998
 30
0.0
 11
65.46513966334993
 21
5.308675752184996
 31
0.0
  0
LINE
  5
71C8
330
18
100
AcDbEntity
  8
1
100
AcDbLine
 10
65.46513966334993
 20
5.308675752184996
 30
0.0
 11
64.29132586309991
 21
5.917111603454998
 31
0.0
  0
LINE
  5
71C9
330
18
100
AcDbEntity
  8
1
100
AcDbLine
 10
64.29132586309991
 20
5.917111603454998
 30
0.0
 11
63.63391004689995
 21
6.256823631369996
 31
0.0
  0
LINE
  5
71CA
330
18
100
AcDbEntity
  8
1
100
AcDbLine
 10
63.63391004689995
 20
6.256823631369996
 30
0.0
 11
62.61616184334993
 21
6.595230559449987
 31
0.0
  0
LINE
  5
71CB
330
18
100
AcDbEntity
  8
1
100
AcDbLine
 10
62.61616184334993
 20
6.595230559449987
 30
0.0
 11
60.87794318298998
 21
7.112880234719995
 31
0.0
  0
LINE
  5
71CC
330
18
100
AcDbEntity
  8
1
100
AcDbLine
 10
60.87794318298998
 20
7.112880234719995
 30
0.0
 11
59.55894970458992
 21
7.36604697972001
 31
0.0
  0
LINE
  5
71CD
330
18
100
AcDbEntity
  8
1
100
AcDbLine
 10
59.55894970458992
 20
7.36604697972001
 30
0.0
 11
58.35706558322993
 21
7.486314341999985
 31
0.0
  0
LINE
  5
71CE
330
18
100
AcDbEntity
  8
1
100
AcDbLine
 10
58.35706558322993
 20
7.486314341999985
 30
0.0
 11
57.45534798060589
 21
7.521070790053613
 31
0.0
  0
LINE
  5
71D3
330
18
100
AcDbEntity
  8
1
100
AcDbLine
 10
88.99875602219998
 20
-7.466050475585007
 30
0.0
 11
87.70201520904469
 21
-7.761248220370589
 31
0.0
  0
LINE
  5
71D6
330
18
100
AcDbEntity
  8
1
100
AcDbLine
 10
87.70201520904469
 20
-7.761248220370589
 30
0.0
 11
86.68721495765089
 21
-7.928469492303634
 31
0.0
  0
LINE
  5
71D7
330
18
100
AcDbEntity
  8
1
100
AcDbLine
 10
86.68721495765089
 20
-7.928469492303634
 30
0.0
 11
85.87213660003635
 21
-7.982411923897529
 31
0.0
  0
LINE
  5
71D8
330
18
100
AcDbEntity
  8
1
100
AcDbLine
 10
85.87213660003635
 20
-7.982411923897529
 30
0.0
 11
85.27836987912952
 21
-7.982411923897529
 31
0.0
  0
LINE
  5
71D9
330
18
100
AcDbEntity
  8
1
100
AcDbLine
 10
85.27836987912952
 20
-7.982411923897529
 30
0.0
 11
83.52945280610198
 21
-7.803752308110006
 31
0.0
  0
LINE
  5
71DA
330
18
100
AcDbEntity
  8
1
100
AcDbLine
 10
83.52945280610198
 20
-7.803752308110006
 30
0.0
 11
82.14768486350294
 21
-7.427160132159883
 31
0.0
  0
LINE
  5
71DB
330
18
100
AcDbEntity
  8
1
100
AcDbLine
 10
82.14768486350294
 20
-7.427160132159883
 30
0.0
 11
80.13784141501332
 21
-6.632132722391816
 31
0.0
  0
LINE
  5
71DC
330
18
100
AcDbEntity
  8
1
100
AcDbLine
 10
80.13784141501332
 20
-6.632132722391816
 30
0.0
 11
77.75115327286903
 21
-5.293138245122463
 31
0.0
  0
LINE
  5
71DD
330
18
100
AcDbEntity
  8
1
100
AcDbLine
 10
77.75115327286903
 20
-5.293138245122463
 30
0.0
 11
75.93296545605991
 21
-4.024594483909993
 31
0.0
  0
LINE
  5
71DE
330
18
100
AcDbEntity
  8
1
100
AcDbLine
 10
75.93296545605991
 20
-4.024594483909993
 30
0.0
 11
72.81539572025997
 21
-1.780243560420018
 31
0.0
  0
LINE
  5
71DF
330
18
100
AcDbEntity
  8
1
100
AcDbLine
 10
72.81539572025997
 20
-1.780243560420018
 30
0.0
 11
70.35402478362493
 21
0.1262693879849905
 31
0.0
  0
LINE
  5
71E0
330
18
100
AcDbEntity
  8
1
100
AcDbLine
 10
70.35402478362493
 20
0.1262693879849905
 30
0.0
 11
68.33500380217995
 21
1.699270670369998
 31
0.0
  0
LINE
  5
71E1
330
18
100
AcDbEntity
  8
1
100
AcDbLine
 10
68.33500380217995
 20
1.699270670369998
 30
0.0
 11
66.70458677491497
 21
2.916532326565004
 31
0.0
  0
LINE
  5
71E2
330
18
100
AcDbEntity
  8
1
100
AcDbLine
 10
66.70458677491497
 20
2.916532326565004
 30
0.0
 11
65.26204381311993
 21
3.921452877679996
 31
0.0
  0
LINE
  5
71E3
330
18
100
AcDbEntity
  8
1
100
AcDbLine
 10
65.26204381311993
 20
3.921452877679996
 30
0.0
 11
63.36982513808496
 21
5.101638472969995
 31
0.0
  0
LINE
  5
71E4
330
18
100
AcDbEntity
  8
1
100
AcDbLine
 10
63.36982513808496
 20
5.101638472969995
 30
0.0
 11
61.96258636371496
 21
5.894942920554996
 31
0.0
  0
LINE
  5
71E5
330
18
100
AcDbEntity
  8
1
100
AcDbLine
 10
61.96258636371496
 20
5.894942920554996
 30
0.0
 11
60.48595579550994
 21
6.596414811349987
 31
0.0
  0
LINE
  5
71E6
330
18
100
AcDbEntity
  8
1
100
AcDbLine
 10
60.48595579550994
 20
6.596414811349987
 30
0.0
 11
58.89300537150992
 21
7.184988018649988
 31
0.0
  0
LINE
  5
71E7
330
18
100
AcDbEntity
  8
1
100
AcDbLine
 10
58.89300537150992
 20
7.184988018649988
 30
0.0
 11
57.17505057756493
 21
7.64618835201
 31
0.0
  0
LINE
  5
71E8
330
18
100
AcDbEntity
  8
1
100
AcDbLine
 10
57.17505057756493
 20
7.64618835201
 30
0.0
 11
56.57226634726992
 21
7.750007770829995
 31
0.0
  0
LINE
  5
71E9
330
18
100
AcDbEntity
  8
1
100
AcDbLine
 10
56.57226634726992
 20
7.750007770829995
 30
0.0
 11
55.74171397545274
 21
7.883185480787801
 31
0.0
  0
LINE
  5
71EA
330
18
100
AcDbEntity
  8
1
100
AcDbLine
 10
55.74171397545274
 20
7.883185480787801
 30
0.0
 11
54.83033255690362
 21
7.962713226516257
 31
0.0
  0
LINE
  5
71EB
330
18
100
AcDbEntity
  8
1
100
AcDbLine
 10
54.83033255690362
 20
7.962713226516257
 30
0.0
 11
54.11142003728127
 21
7.994881573547104
 31
0.0
  0
LINE
  5
71EC
330
18
100
AcDbEntity
  8
1
100
AcDbLine
 10
54.11142003728127
 20
7.994881573547104
 30
0.0
 11
53.08001276046548
 21
7.969717882087252
 31
0.0
  0
LINE
  5
71ED
330
18
100
AcDbEntity
  8
1
100
AcDbLine
 10
53.08001276046548
 20
7.969717882087252
 30
0.0
 11
52.08987147181005
 21
7.789156309123768
 31
0.0
  0
LINE
  5
71EE
330
18
100
AcDbEntity
  8
1
100
AcDbLine
 10
52.08987147181005
 20
7.789156309123768
 30
0.0
 11
50.09513779397162
 21
7.276594145703029
 31
0.0
  0
LINE
  5
71EF
330
18
100
AcDbEntity
  8
1
100
AcDbLine
 10
50.09513779397162
 20
7.276594145703029
 30
0.0
 11
48.6750404341783
 21
6.708937736063035
 31
0.0
  0
LINE
  5
71F0
330
18
100
AcDbEntity
  8
1
100
AcDbLine
 10
48.6750404341783
 20
6.708937736063035
 30
0.0
 11
47.88326719109742
 21
6.305853187811855
 31
0.0
  0
LINE
  5
71F9
330
18
100
AcDbEntity
  8
1
100
AcDbLine
 10
101.1046046651635
 20
-6.948072834170019
 30
0.0
 11
100.0720851594185
 21
-6.614474724779995
 31
0.0
  0
LINE
  5
71FA
330
18
100
AcDbEntity
  8
1
100
AcDbLine
 10
100.0720851594185
 20
-6.614474724779995
 30
0.0
 11
99.01220939285853
 21
-6.199136417890002
 31
0.0
  0
LINE
  5
71FB
330
18
100
AcDbEntity
  8
1
100
AcDbLine
 10
99.01220939285853
 20
-6.199136417890002
 30
0.0
 11
97.85528118327853
 21
-5.667143546285004
 31
0.0
  0
LINE
  5
71FC
330
18
100
AcDbEntity
  8
1
100
AcDbLine
 10
97.85528118327853
 20
-5.667143546285004
 30
0.0
 11
96.28620658508353
 21
-4.832882491970011
 31
0.0
  0
LINE
  5
71FD
330
18
100
AcDbEntity
  8
1
100
AcDbLine
 10
96.28620658508353
 20
-4.832882491970011
 30
0.0
 11
94.89497454320853
 21
-3.99321620308001
 31
0.0
  0
LINE
  5
71FE
330
18
100
AcDbEntity
  8
1
100
AcDbLine
 10
94.89497454320853
 20
-3.99321620308001
 30
0.0
 11
93.42374453724849
 21
-3.005667192060002
 31
0.0
  0
LINE
  5
71FF
330
18
100
AcDbEntity
  8
1
100
AcDbLine
 10
93.42374453724849
 20
-3.005667192060002
 30
0.0
 11
92.1244411536235
 21
-2.078070084999993
 31
0.0
  0
LINE
  5
7200
330
18
100
AcDbEntity
  8
1
100
AcDbLine
 10
92.1244411536235
 20
-2.078070084999993
 30
0.0
 11
91.39886069938849
 21
-1.548688150489994
 31
0.0
  0
LINE
  5
7201
330
18
100
AcDbEntity
  8
1
100
AcDbLine
 10
91.39886069938849
 20
-1.548688150489994
 30
0.0
 11
89.75674998999352
 21
-0.3175851827199949
 31
0.0
  0
LINE
  5
7202
330
18
100
AcDbEntity
  8
1
100
AcDbLine
 10
89.75674998999352
 20
-0.3175851827199949
 30
0.0
 11
88.11463928059856
 21
0.9135177850500042
 31
0.0
  0
LINE
  5
7203
330
18
100
AcDbEntity
  8
1
100
AcDbLine
 10
88.11463928059856
 20
0.9135177850500042
 30
0.0
 11
86.27436910918346
 21
2.222897133859987
 31
0.0
  0
LINE
  5
7204
330
18
100
AcDbEntity
  8
1
100
AcDbLine
 10
86.27436910918346
 20
2.222897133859987
 30
0.0
 11
84.75872344121855
 21
3.225296749999984
 31
0.0
  0
LINE
  5
7205
330
18
100
AcDbEntity
  8
1
100
AcDbLine
 10
84.75872344121855
 20
3.225296749999984
 30
0.0
 11
83.46546758381851
 21
3.99898843545499
 31
0.0
  0
LINE
  5
7206
330
18
100
AcDbEntity
  8
1
100
AcDbLine
 10
83.46546758381851
 20
3.99898843545499
 30
0.0
 11
82.34224335896852
 21
4.63028394347998
 31
0.0
  0
LINE
  5
7207
330
18
100
AcDbEntity
  8
1
100
AcDbLine
 10
82.34224335896852
 20
4.63028394347998
 30
0.0
 11
81.06832766864849
 21
5.308675752184996
 31
0.0
  0
LINE
  5
7208
330
18
100
AcDbEntity
  8
1
100
AcDbLine
 10
81.06832766864849
 20
5.308675752184996
 30
0.0
 11
79.89451386839848
 21
5.917111603454998
 31
0.0
  0
LINE
  5
7209
330
18
100
AcDbEntity
  8
1
100
AcDbLine
 10
79.89451386839848
 20
5.917111603454998
 30
0.0
 11
79.23709805219852
 21
6.256823631369996
 31
0.0
  0
LINE
  5
720A
330
18
100
AcDbEntity
  8
1
100
AcDbLine
 10
79.23709805219852
 20
6.256823631369996
 30
0.0
 11
78.2193498486485
 21
6.595230559449987
 31
0.0
  0
LINE
  5
720B
330
18
100
AcDbEntity
  8
1
100
AcDbLine
 10
78.2193498486485
 20
6.595230559449987
 30
0.0
 11
76.48113118828854
 21
7.112880234719995
 31
0.0
  0
LINE
  5
720C
330
18
100
AcDbEntity
  8
1
100
AcDbLine
 10
76.48113118828854
 20
7.112880234719995
 30
0.0
 11
75.1621377098885
 21
7.36604697972001
 31
0.0
  0
LINE
  5
720D
330
18
100
AcDbEntity
  8
1
100
AcDbLine
 10
75.1621377098885
 20
7.36604697972001
 30
0.0
 11
73.9602535885285
 21
7.486314341999985
 31
0.0
  0
LINE
  5
720E
330
18
100
AcDbEntity
  8
1
100
AcDbLine
 10
73.9602535885285
 20
7.486314341999985
 30
0.0
 11
73.05853598590445
 21
7.521070790053613
 31
0.0
  0
LINE
  5
7211
330
18
100
AcDbEntity
  8
1
100
AcDbLine
 10
101.9982104125201
 20
-7.947806990982797
 30
0.0
 11
101.4753246053349
 21
-7.982411923897529
 31
0.0
  0
LINE
  5
7212
330
18
100
AcDbEntity
  8
1
100
AcDbLine
 10
101.4753246053349
 20
-7.982411923897529
 30
0.0
 11
100.881557884428
 21
-7.982411923897529
 31
0.0
  0
LINE
  5
7213
330
18
100
AcDbEntity
  8
1
100
AcDbLine
 10
100.881557884428
 20
-7.982411923897529
 30
0.0
 11
99.13264081140054
 21
-7.803752308110006
 31
0.0
  0
LINE
  5
7214
330
18
100
AcDbEntity
  8
1
100
AcDbLine
 10
99.13264081140054
 20
-7.803752308110006
 30
0.0
 11
97.7508728688015
 21
-7.427160132159883
 31
0.0
  0
LINE
  5
7215
330
18
100
AcDbEntity
  8
1
100
AcDbLine
 10
97.7508728688015
 20
-7.427160132159883
 30
0.0
 11
95.74102942031188
 21
-6.632132722391816
 31
0.0
  0
LINE
  5
7216
330
18
100
AcDbEntity
  8
1
100
AcDbLine
 10
95.74102942031188
 20
-6.632132722391816
 30
0.0
 11
93.35434127816759
 21
-5.293138245122463
 31
0.0
  0
LINE
  5
7217
330
18
100
AcDbEntity
  8
1
100
AcDbLine
 10
93.35434127816759
 20
-5.293138245122463
 30
0.0
 11
91.53615346135847
 21
-4.024594483909993
 31
0.0
  0
LINE
  5
7218
330
18
100
AcDbEntity
  8
1
100
AcDbLine
 10
91.53615346135847
 20
-4.024594483909993
 30
0.0
 11
88.41858372555853
 21
-1.780243560420018
 31
0.0
  0
LINE
  5
7219
330
18
100
AcDbEntity
  8
1
100
AcDbLine
 10
88.41858372555853
 20
-1.780243560420018
 30
0.0
 11
85.9572127889235
 21
0.1262693879849905
 31
0.0
  0
LINE
  5
721A
330
18
100
AcDbEntity
  8
1
100
AcDbLine
 10
85.9572127889235
 20
0.1262693879849905
 30
0.0
 11
83.93819180747852
 21
1.699270670369998
 31
0.0
  0
LINE
  5
721B
330
18
100
AcDbEntity
  8
1
100
AcDbLine
 10
83.93819180747852
 20
1.699270670369998
 30
0.0
 11
82.30777478021353
 21
2.916532326565004
 31
0.0
  0
LINE
  5
721C
330
18
100
AcDbEntity
  8
1
100
AcDbLine
 10
82.30777478021353
 20
2.916532326565004
 30
0.0
 11
80.86523181841849
 21
3.921452877679996
 31
0.0
  0
LINE
  5
721D
330
18
100
AcDbEntity
  8
1
100
AcDbLine
 10
80.86523181841849
 20
3.921452877679996
 30
0.0
 11
78.97301314338353
 21
5.101638472969995
 31
0.0
  0
LINE
  5
721E
330
18
100
AcDbEntity
  8
1
100
AcDbLine
 10
78.97301314338353
 20
5.101638472969995
 30
0.0
 11
77.56577436901352
 21
5.894942920554996
 31
0.0
  0
LINE
  5
721F
330
18
100
AcDbEntity
  8
1
100
AcDbLine
 10
77.56577436901352
 20
5.894942920554996
 30
0.0
 11
76.0891438008085
 21
6.596414811349987
 31
0.0
  0
LINE
  5
7220
330
18
100
AcDbEntity
  8
1
100
AcDbLine
 10
76.0891438008085
 20
6.596414811349987
 30
0.0
 11
74.49619337680849
 21
7.184988018649988
 31
0.0
  0
LINE
  5
7221
330
18
100
AcDbEntity
  8
1
100
AcDbLine
 10
74.49619337680849
 20
7.184988018649988
 30
0.0
 11
72.7782385828635
 21
7.64618835201
 31
0.0
  0
LINE
  5
7222
330
18
100
AcDbEntity
  8
1
100
AcDbLine
 10
72.7782385828635
 20
7.64618835201
 30
0.0
 11
72.17545435256849
 21
7.750007770829995
 31
0.0
  0
LINE
  5
7223
330
18
100
AcDbEntity
  8
1
100
AcDbLine
 10
72.17545435256849
 20
7.750007770829995
 30
0.0
 11
71.3449019807513
 21
7.883185480787801
 31
0.0
  0
LINE
  5
7224
330
18
100
AcDbEntity
  8
1
100
AcDbLine
 10
71.3449019807513
 20
7.883185480787801
 30
0.0
 11
70.43352056220218
 21
7.962713226516257
 31
0.0
  0
LINE
  5
7225
330
18
100
AcDbEntity
  8
1
100
AcDbLine
 10
70.43352056220218
 20
7.962713226516257
 30
0.0
 11
69.71460804257984
 21
7.994881573547104
 31
0.0
  0
LINE
  5
7226
330
18
100
AcDbEntity
  8
1
100
AcDbLine
 10
69.71460804257984
 20
7.994881573547104
 30
0.0
 11
68.68320076576404
 21
7.969717882087252
 31
0.0
  0
LINE
  5
7227
330
18
100
AcDbEntity
  8
1
100
AcDbLine
 10
68.68320076576404
 20
7.969717882087252
 30
0.0
 11
67.69305947710861
 21
7.789156309123768
 31
0.0
  0
LINE
  5
7228
330
18
100
AcDbEntity
  8
1
100
AcDbLine
 10
67.69305947710861
 20
7.789156309123768
 30
0.0
 11
65.69832579927018
 21
7.276594145703029
 31
0.0
  0
LINE
  5
7229
330
18
100
AcDbEntity
  8
1
100
AcDbLine
 10
65.69832579927018
 20
7.276594145703029
 30
0.0
 11
64.27822843947686
 21
6.708937736063035
 31
0.0
  0
LINE
  5
722A
330
18
100
AcDbEntity
  8
1
100
AcDbLine
 10
64.27822843947686
 20
6.708937736063035
 30
0.0
 11
63.48645519639598
 21
6.305853187811848
 31
0.0
  0
LINE
  5
722B
330
18
100
AcDbEntity
  8
1
100
AcDbLine
 10
79.02220367065655
 20
-6.006230765638946
 30
0.0
 11
78.33692496983637
 21
-6.281666966120013
 31
0.0
  0
LINE
  5
722C
330
18
100
AcDbEntity
  8
1
100
AcDbLine
 10
78.33692496983637
 20
-6.281666966120013
 30
0.0
 11
77.01753674071638
 21
-6.762604831580006
 31
0.0
  0
LINE
  5
722D
330
18
100
AcDbEntity
  8
1
100
AcDbLine
 10
77.01753674071638
 20
-6.762604831580006
 30
0.0
 11
75.56195954017138
 21
-7.15919764326
 31
0.0
  0
LINE
  5
722E
330
18
100
AcDbEntity
  8
1
100
AcDbLine
 10
75.56195954017138
 20
-7.15919764326
 30
0.0
 11
74.0609860157314
 21
-7.410785385705011
 31
0.0
  0
LINE
  5
722F
330
18
100
AcDbEntity
  8
1
100
AcDbLine
 10
74.0609860157314
 20
-7.410785385705011
 30
0.0
 11
72.92581475292137
 21
-7.495788357330013
 31
0.0
  0
LINE
  5
7230
330
18
100
AcDbEntity
  8
1
100
AcDbLine
 10
72.92581475292137
 20
-7.495788357330013
 30
0.0
 11
72.08068543314638
 21
-7.424678529255004
 31
0.0
  0
LINE
  5
7231
330
18
100
AcDbEntity
  8
1
100
AcDbLine
 10
72.08068543314638
 20
-7.424678529255004
 30
0.0
 11
71.37242176541137
 21
-7.307813735755004
 31
0.0
  0
LINE
  5
7232
330
18
100
AcDbEntity
  8
1
100
AcDbLine
 10
71.37242176541137
 20
-7.307813735755004
 30
0.0
 11
69.89822865456638
 21
-6.948072834170019
 31
0.0
  0
LINE
  5
7233
330
18
100
AcDbEntity
  8
1
100
AcDbLine
 10
69.89822865456638
 20
-6.948072834170019
 30
0.0
 11
68.86570914882142
 21
-6.614474724779995
 31
0.0
  0
LINE
  5
7234
330
18
100
AcDbEntity
  8
1
100
AcDbLine
 10
68.86570914882142
 20
-6.614474724779995
 30
0.0
 11
67.8058333822614
 21
-6.199136417890002
 31
0.0
  0
LINE
  5
7235
330
18
100
AcDbEntity
  8
1
100
AcDbLine
 10
67.8058333822614
 20
-6.199136417890002
 30
0.0
 11
66.6489051726814
 21
-5.667143546285004
 31
0.0
  0
LINE
  5
7236
330
18
100
AcDbEntity
  8
1
100
AcDbLine
 10
66.6489051726814
 20
-5.667143546285004
 30
0.0
 11
65.0798305744864
 21
-4.832882491970011
 31
0.0
  0
LINE
  5
7237
330
18
100
AcDbEntity
  8
1
100
AcDbLine
 10
65.0798305744864
 20
-4.832882491970011
 30
0.0
 11
63.68859853261139
 21
-3.99321620308001
 31
0.0
  0
LINE
  5
7238
330
18
100
AcDbEntity
  8
1
100
AcDbLine
 10
63.68859853261139
 20
-3.99321620308001
 30
0.0
 11
62.21736852665137
 21
-3.005667192060002
 31
0.0
  0
LINE
  5
7239
330
18
100
AcDbEntity
  8
1
100
AcDbLine
 10
62.21736852665137
 20
-3.005667192060002
 30
0.0
 11
60.91806514302636
 21
-2.078070084999993
 31
0.0
  0
LINE
  5
723A
330
18
100
AcDbEntity
  8
1
100
AcDbLine
 10
60.91806514302636
 20
-2.078070084999993
 30
0.0
 11
60.19248468879137
 21
-1.548688150489994
 31
0.0
  0
LINE
  5
723B
330
18
100
AcDbEntity
  8
1
100
AcDbLine
 10
60.19248468879137
 20
-1.548688150489994
 30
0.0
 11
58.55037397939639
 21
-0.3175851827199949
 31
0.0
  0
LINE
  5
723C
330
18
100
AcDbEntity
  8
1
100
AcDbLine
 10
58.55037397939639
 20
-0.3175851827199949
 30
0.0
 11
56.90826327000142
 21
0.9135177850500042
 31
0.0
  0
LINE
  5
723D
330
18
100
AcDbEntity
  8
1
100
AcDbLine
 10
56.90826327000142
 20
0.9135177850500042
 30
0.0
 11
55.06799309858634
 21
2.222897133859987
 31
0.0
  0
LINE
  5
723E
330
18
100
AcDbEntity
  8
1
100
AcDbLine
 10
55.06799309858634
 20
2.222897133859987
 30
0.0
 11
53.55234743062142
 21
3.225296749999984
 31
0.0
  0
LINE
  5
723F
330
18
100
AcDbEntity
  8
1
100
AcDbLine
 10
53.55234743062142
 20
3.225296749999984
 30
0.0
 11
52.25909157322139
 21
3.99898843545499
 31
0.0
  0
LINE
  5
7240
330
18
100
AcDbEntity
  8
1
100
AcDbLine
 10
52.25909157322139
 20
3.99898843545499
 30
0.0
 11
51.13586734837139
 21
4.63028394347998
 31
0.0
  0
LINE
  5
7241
330
18
100
AcDbEntity
  8
1
100
AcDbLine
 10
51.13586734837139
 20
4.63028394347998
 30
0.0
 11
49.86195165805137
 21
5.308675752184996
 31
0.0
  0
LINE
  5
7242
330
18
100
AcDbEntity
  8
1
100
AcDbLine
 10
49.86195165805137
 20
5.308675752184996
 30
0.0
 11
48.68813785780135
 21
5.917111603454998
 31
0.0
  0
LINE
  5
7243
330
18
100
AcDbEntity
  8
1
100
AcDbLine
 10
48.68813785780135
 20
5.917111603454998
 30
0.0
 11
48.03072204160139
 21
6.256823631369996
 31
0.0
  0
LINE
  5
7244
330
18
100
AcDbEntity
  8
1
100
AcDbLine
 10
48.03072204160139
 20
6.256823631369996
 30
0.0
 11
47.01297383805137
 21
6.595230559449987
 31
0.0
  0
LINE
  5
7245
330
18
100
AcDbEntity
  8
1
100
AcDbLine
 10
47.01297383805137
 20
6.595230559449987
 30
0.0
 11
45.27475517769142
 21
7.112880234719995
 31
0.0
  0
LINE
  5
7246
330
18
100
AcDbEntity
  8
1
100
AcDbLine
 10
45.27475517769142
 20
7.112880234719995
 30
0.0
 11
43.95576169929136
 21
7.36604697972001
 31
0.0
  0
LINE
  5
7247
330
18
100
AcDbEntity
  8
1
100
AcDbLine
 10
43.95576169929136
 20
7.36604697972001
 30
0.0
 11
42.75387757793136
 21
7.486314341999985
 31
0.0
  0
LINE
  5
7248
330
18
100
AcDbEntity
  8
1
100
AcDbLine
 10
42.75387757793136
 20
7.486314341999985
 30
0.0
 11
41.85215997530733
 21
7.521070790053613
 31
0.0
  0
LINE
  5
7249
330
18
100
AcDbEntity
  8
1
100
AcDbLine
 10
73.39556801690142
 20
-7.466050475585007
 30
0.0
 11
72.09882720374614
 21
-7.761248220370589
 31
0.0
  0
LINE
  5
724A
330
18
100
AcDbEntity
  8
1
100
AcDbLine
 10
72.09882720374614
 20
-7.761248220370589
 30
0.0
 11
71.08402695235233
 21
-7.928469492303634
 31
0.0
  0
LINE
  5
724B
330
18
100
AcDbEntity
  8
1
100
AcDbLine
 10
71.08402695235233
 20
-7.928469492303634
 30
0.0
 11
70.26894859473779
 21
-7.982411923897529
 31
0.0
  0
LINE
  5
724C
330
18
100
AcDbEntity
  8
1
100
AcDbLine
 10
70.26894859473779
 20
-7.982411923897529
 30
0.0
 11
69.67518187383095
 21
-7.982411923897529
 31
0.0
  0
LINE
  5
724D
330
18
100
AcDbEntity
  8
1
100
AcDbLine
 10
69.67518187383095
 20
-7.982411923897529
 30
0.0
 11
67.92626480080341
 21
-7.803752308110006
 31
0.0
  0
LINE
  5
724E
330
18
100
AcDbEntity
  8
1
100
AcDbLine
 10
67.92626480080341
 20
-7.803752308110006
 30
0.0
 11
66.54449685820438
 21
-7.427160132159883
 31
0.0
  0
LINE
  5
724F
330
18
100
AcDbEntity
  8
1
100
AcDbLine
 10
66.54449685820438
 20
-7.427160132159883
 30
0.0
 11
64.53465340971476
 21
-6.632132722391816
 31
0.0
  0
LINE
  5
7250
330
18
100
AcDbEntity
  8
1
100
AcDbLine
 10
64.53465340971476
 20
-6.632132722391816
 30
0.0
 11
62.14796526757047
 21
-5.293138245122463
 31
0.0
  0
LINE
  5
7251
330
18
100
AcDbEntity
  8
1
100
AcDbLine
 10
62.14796526757047
 20
-5.293138245122463
 30
0.0
 11
60.32977745076134
 21
-4.024594483909993
 31
0.0
  0
LINE
  5
7252
330
18
100
AcDbEntity
  8
1
100
AcDbLine
 10
60.32977745076134
 20
-4.024594483909993
 30
0.0
 11
57.21220771496141
 21
-1.780243560420018
 31
0.0
  0
LINE
  5
7253
330
18
100
AcDbEntity
  8
1
100
AcDbLine
 10
57.21220771496141
 20
-1.780243560420018
 30
0.0
 11
54.75083677832637
 21
0.1262693879849905
 31
0.0
  0
LINE
  5
7254
330
18
100
AcDbEntity
  8
1
100
AcDbLine
 10
54.75083677832637
 20
0.1262693879849905
 30
0.0
 11
52.73181579688139
 21
1.699270670369998
 31
0.0
  0
LINE
  5
7255
330
18
100
AcDbEntity
  8
1
100
AcDbLine
 10
52.73181579688139
 20
1.699270670369998
 30
0.0
 11
51.10139876961641
 21
2.916532326565004
 31
0.0
  0
LINE
  5
7256
330
18
100
AcDbEntity
  8
1
100
AcDbLine
 10
51.10139876961641
 20
2.916532326565004
 30
0.0
 11
49.65885580782137
 21
3.921452877679996
 31
0.0
  0
LINE
  5
7257
330
18
100
AcDbEntity
  8
1
100
AcDbLine
 10
49.65885580782137
 20
3.921452877679996
 30
0.0
 11
47.76663713278639
 21
5.101638472969995
 31
0.0
  0
LINE
  5
7258
330
18
100
AcDbEntity
  8
1
100
AcDbLine
 10
47.76663713278639
 20
5.101638472969995
 30
0.0
 11
46.35939835841639
 21
5.894942920554996
 31
0.0
  0
LINE
  5
7259
330
18
100
AcDbEntity
  8
1
100
AcDbLine
 10
46.35939835841639
 20
5.894942920554996
 30
0.0
 11
44.88276779021138
 21
6.596414811349987
 31
0.0
  0
LINE
  5
725A
330
18
100
AcDbEntity
  8
1
100
AcDbLine
 10
44.88276779021138
 20
6.596414811349987
 30
0.0
 11
43.28981736621136
 21
7.184988018649988
 31
0.0
  0
LINE
  5
725B
330
18
100
AcDbEntity
  8
1
100
AcDbLine
 10
43.28981736621136
 20
7.184988018649988
 30
0.0
 11
41.57186257226636
 21
7.64618835201
 31
0.0
  0
LINE
  5
725C
330
18
100
AcDbEntity
  8
1
100
AcDbLine
 10
41.57186257226636
 20
7.64618835201
 30
0.0
 11
40.96907834197136
 21
7.750007770829995
 31
0.0
  0
LINE
  5
725D
330
18
100
AcDbEntity
  8
1
100
AcDbLine
 10
40.96907834197136
 20
7.750007770829995
 30
0.0
 11
40.13852597015417
 21
7.883185480787801
 31
0.0
  0
LINE
  5
725E
330
18
100
AcDbEntity
  8
1
100
AcDbLine
 10
40.13852597015417
 20
7.883185480787801
 30
0.0
 11
39.22714455160505
 21
7.962713226516257
 31
0.0
  0
LINE
  5
725F
330
18
100
AcDbEntity
  8
1
100
AcDbLine
 10
39.22714455160505
 20
7.962713226516257
 30
0.0
 11
38.50823203198272
 21
7.994881573547104
 31
0.0
  0
LINE
  5
7260
330
18
100
AcDbEntity
  8
1
100
AcDbLine
 10
38.50823203198272
 20
7.994881573547104
 30
0.0
 11
37.47682475516692
 21
7.969717882087252
 31
0.0
  0
LINE
  5
7261
330
18
100
AcDbEntity
  8
1
100
AcDbLine
 10
37.47682475516692
 20
7.969717882087252
 30
0.0
 11
36.48668346651149
 21
7.789156309123768
 31
0.0
  0
LINE
  5
7262
330
18
100
AcDbEntity
  8
1
100
AcDbLine
 10
36.48668346651149
 20
7.789156309123768
 30
0.0
 11
34.49194978867306
 21
7.276594145703029
 31
0.0
  0
LINE
  5
7263
330
18
100
AcDbEntity
  8
1
100
AcDbLine
 10
34.49194978867306
 20
7.276594145703029
 30
0.0
 11
33.07185242887974
 21
6.708937736063035
 31
0.0
  0
LINE
  5
7264
330
18
100
AcDbEntity
  8
1
100
AcDbLine
 10
33.07185242887974
 20
6.708937736063035
 30
0.0
 11
32.28007918579886
 21
6.305853187811841
 31
0.0
  0
LINE
  5
7265
330
18
100
AcDbEntity
  8
1
100
AcDbLine
 10
63.41901566535798
 20
-6.006230765638953
 30
0.0
 11
62.73373696453781
 21
-6.281666966120013
 31
0.0
  0
LINE
  5
7266
330
18
100
AcDbEntity
  8
1
100
AcDbLine
 10
62.73373696453781
 20
-6.281666966120013
 30
0.0
 11
61.41434873541782
 21
-6.762604831580006
 31
0.0
  0
LINE
  5
7267
330
18
100
AcDbEntity
  8
1
100
AcDbLine
 10
61.41434873541782
 20
-6.762604831580006
 30
0.0
 11
59.95877153487282
 21
-7.15919764326
 31
0.0
  0
LINE
  5
7268
330
18
100
AcDbEntity
  8
1
100
AcDbLine
 10
59.95877153487282
 20
-7.15919764326
 30
0.0
 11
58.45779801043284
 21
-7.410785385705011
 31
0.0
  0
LINE
  5
7269
330
18
100
AcDbEntity
  8
1
100
AcDbLine
 10
58.45779801043284
 20
-7.410785385705011
 30
0.0
 11
57.32262674762281
 21
-7.495788357330013
 31
0.0
  0
LINE
  5
726A
330
18
100
AcDbEntity
  8
1
100
AcDbLine
 10
57.32262674762281
 20
-7.495788357330013
 30
0.0
 11
56.47749742784782
 21
-7.424678529255004
 31
0.0
  0
LINE
  5
726B
330
18
100
AcDbEntity
  8
1
100
AcDbLine
 10
56.47749742784782
 20
-7.424678529255004
 30
0.0
 11
55.76923376011281
 21
-7.307813735755004
 31
0.0
  0
LINE
  5
726C
330
18
100
AcDbEntity
  8
1
100
AcDbLine
 10
55.76923376011281
 20
-7.307813735755004
 30
0.0
 11
54.29504064926781
 21
-6.948072834170019
 31
0.0
  0
LINE
  5
726D
330
18
100
AcDbEntity
  8
1
100
AcDbLine
 10
54.29504064926781
 20
-6.948072834170019
 30
0.0
 11
53.26252114352286
 21
-6.614474724779995
 31
0.0
  0
LINE
  5
726E
330
18
100
AcDbEntity
  8
1
100
AcDbLine
 10
53.26252114352286
 20
-6.614474724779995
 30
0.0
 11
52.20264537696284
 21
-6.199136417890002
 31
0.0
  0
LINE
  5
726F
330
18
100
AcDbEntity
  8
1
100
AcDbLine
 10
52.20264537696284
 20
-6.199136417890002
 30
0.0
 11
51.04571716738283
 21
-5.667143546285004
 31
0.0
  0
LINE
  5
7270
330
18
100
AcDbEntity
  8
1
100
AcDbLine
 10
51.04571716738283
 20
-5.667143546285004
 30
0.0
 11
49.47664256918784
 21
-4.832882491970011
 31
0.0
  0
LINE
  5
7271
330
18
100
AcDbEntity
  8
1
100
AcDbLine
 10
49.47664256918784
 20
-4.832882491970011
 30
0.0
 11
48.08541052731283
 21
-3.99321620308001
 31
0.0
  0
LINE
  5
7272
330
18
100
AcDbEntity
  8
1
100
AcDbLine
 10
48.08541052731283
 20
-3.99321620308001
 30
0.0
 11
46.61418052135281
 21
-3.005667192060002
 31
0.0
  0
LINE
  5
7273
330
18
100
AcDbEntity
  8
1
100
AcDbLine
 10
46.61418052135281
 20
-3.005667192060002
 30
0.0
 11
45.3148771377278
 21
-2.078070084999993
 31
0.0
  0
LINE
  5
7274
330
18
100
AcDbEntity
  8
1
100
AcDbLine
 10
45.3148771377278
 20
-2.078070084999993
 30
0.0
 11
44.5892966834928
 21
-1.548688150489994
 31
0.0
  0
LINE
  5
7275
330
18
100
AcDbEntity
  8
1
100
AcDbLine
 10
44.5892966834928
 20
-1.548688150489994
 30
0.0
 11
42.94718597409783
 21
-0.3175851827199949
 31
0.0
  0
LINE
  5
7276
330
18
100
AcDbEntity
  8
1
100
AcDbLine
 10
42.94718597409783
 20
-0.3175851827199949
 30
0.0
 11
41.30507526470286
 21
0.9135177850500042
 31
0.0
  0
LINE
  5
7277
330
18
100
AcDbEntity
  8
1
100
AcDbLine
 10
41.30507526470286
 20
0.9135177850500042
 30
0.0
 11
39.46480509328778
 21
2.222897133859987
 31
0.0
  0
LINE
  5
7278
330
18
100
AcDbEntity
  8
1
100
AcDbLine
 10
39.46480509328778
 20
2.222897133859987
 30
0.0
 11
37.94915942532286
 21
3.225296749999984
 31
0.0
  0
LINE
  5
7279
330
18
100
AcDbEntity
  8
1
100
AcDbLine
 10
37.94915942532286
 20
3.225296749999984
 30
0.0
 11
36.65590356792282
 21
3.99898843545499
 31
0.0
  0
LINE
  5
727A
330
18
100
AcDbEntity
  8
1
100
AcDbLine
 10
36.65590356792282
 20
3.99898843545499
 30
0.0
 11
35.53267934307283
 21
4.63028394347998
 31
0.0
  0
LINE
  5
727B
330
18
100
AcDbEntity
  8
1
100
AcDbLine
 10
35.53267934307283
 20
4.63028394347998
 30
0.0
 11
34.25876365275281
 21
5.308675752184996
 31
0.0
  0
LINE
  5
727C
330
18
100
AcDbEntity
  8
1
100
AcDbLine
 10
34.25876365275281
 20
5.308675752184996
 30
0.0
 11
33.08494985250279
 21
5.917111603454998
 31
0.0
  0
LINE
  5
727D
330
18
100
AcDbEntity
  8
1
100
AcDbLine
 10
33.08494985250279
 20
5.917111603454998
 30
0.0
 11
32.42753403630283
 21
6.256823631369996
 31
0.0
  0
LINE
  5
727E
330
18
100
AcDbEntity
  8
1
100
AcDbLine
 10
32.42753403630283
 20
6.256823631369996
 30
0.0
 11
31.40978583275281
 21
6.595230559449987
 31
0.0
  0
LINE
  5
727F
330
18
100
AcDbEntity
  8
1
100
AcDbLine
 10
31.40978583275281
 20
6.595230559449987
 30
0.0
 11
29.67156717239286
 21
7.112880234719995
 31
0.0
  0
LINE
  5
7280
330
18
100
AcDbEntity
  8
1
100
AcDbLine
 10
29.67156717239286
 20
7.112880234719995
 30
0.0
 11
28.3525736939928
 21
7.36604697972001
 31
0.0
  0
LINE
  5
7281
330
18
100
AcDbEntity
  8
1
100
AcDbLine
 10
28.3525736939928
 20
7.36604697972001
 30
0.0
 11
27.15068957263281
 21
7.486314341999985
 31
0.0
  0
LINE
  5
7282
330
18
100
AcDbEntity
  8
1
100
AcDbLine
 10
27.15068957263281
 20
7.486314341999985
 30
0.0
 11
26.24897197000877
 21
7.521070790053613
 31
0.0
  0
LINE
  5
7283
330
18
100
AcDbEntity
  8
1
100
AcDbLine
 10
57.79238001160286
 20
-7.466050475585007
 30
0.0
 11
56.49563919844758
 21
-7.761248220370589
 31
0.0
  0
LINE
  5
7284
330
18
100
AcDbEntity
  8
1
100
AcDbLine
 10
56.49563919844758
 20
-7.761248220370589
 30
0.0
 11
55.48083894705377
 21
-7.928469492303634
 31
0.0
  0
LINE
  5
7285
330
18
100
AcDbEntity
  8
1
100
AcDbLine
 10
55.48083894705377
 20
-7.928469492303634
 30
0.0
 11
54.66576058943923
 21
-7.982411923897529
 31
0.0
  0
LINE
  5
7286
330
18
100
AcDbEntity
  8
1
100
AcDbLine
 10
54.66576058943923
 20
-7.982411923897529
 30
0.0
 11
54.07199386853239
 21
-7.982411923897529
 31
0.0
  0
LINE
  5
7287
330
18
100
AcDbEntity
  8
1
100
AcDbLine
 10
54.07199386853239
 20
-7.982411923897529
 30
0.0
 11
52.32307679550484
 21
-7.803752308110006
 31
0.0
  0
LINE
  5
7288
330
18
100
AcDbEntity
  8
1
100
AcDbLine
 10
52.32307679550484
 20
-7.803752308110006
 30
0.0
 11
50.94130885290582
 21
-7.427160132159883
 31
0.0
  0
LINE
  5
7289
330
18
100
AcDbEntity
  8
1
100
AcDbLine
 10
50.94130885290582
 20
-7.427160132159883
 30
0.0
 11
48.9314654044162
 21
-6.632132722391816
 31
0.0
  0
LINE
  5
728A
330
18
100
AcDbEntity
  8
1
100
AcDbLine
 10
48.9314654044162
 20
-6.632132722391816
 30
0.0
 11
46.54477726227191
 21
-5.293138245122463
 31
0.0
  0
LINE
  5
728B
330
18
100
AcDbEntity
  8
1
100
AcDbLine
 10
46.54477726227191
 20
-5.293138245122463
 30
0.0
 11
44.72658944546277
 21
-4.024594483909993
 31
0.0
  0
LINE
  5
728C
330
18
100
AcDbEntity
  8
1
100
AcDbLine
 10
44.72658944546277
 20
-4.024594483909993
 30
0.0
 11
41.60901970966285
 21
-1.780243560420018
 31
0.0
  0
LINE
  5
728D
330
18
100
AcDbEntity
  8
1
100
AcDbLine
 10
41.60901970966285
 20
-1.780243560420018
 30
0.0
 11
39.14764877302781
 21
0.1262693879849905
 31
0.0
  0
LINE
  5
728E
330
18
100
AcDbEntity
  8
1
100
AcDbLine
 10
39.14764877302781
 20
0.1262693879849905
 30
0.0
 11
37.12862779158283
 21
1.699270670369998
 31
0.0
  0
LINE
  5
728F
330
18
100
AcDbEntity
  8
1
100
AcDbLine
 10
37.12862779158283
 20
1.699270670369998
 30
0.0
 11
35.49821076431785
 21
2.916532326565004
 31
0.0
  0
LINE
  5
7290
330
18
100
AcDbEntity
  8
1
100
AcDbLine
 10
35.49821076431785
 20
2.916532326565004
 30
0.0
 11
34.05566780252281
 21
3.921452877679996
 31
0.0
  0
LINE
  5
7291
330
18
100
AcDbEntity
  8
1
100
AcDbLine
 10
34.05566780252281
 20
3.921452877679996
 30
0.0
 11
32.16344912748784
 21
5.101638472969995
 31
0.0
  0
LINE
  5
7292
330
18
100
AcDbEntity
  8
1
100
AcDbLine
 10
32.16344912748784
 20
5.101638472969995
 30
0.0
 11
30.75621035311784
 21
5.894942920554996
 31
0.0
  0
LINE
  5
7293
330
18
100
AcDbEntity
  8
1
100
AcDbLine
 10
30.75621035311784
 20
5.894942920554996
 30
0.0
 11
29.27957978491282
 21
6.596414811349987
 31
0.0
  0
LINE
  5
7294
330
18
100
AcDbEntity
  8
1
100
AcDbLine
 10
29.27957978491282
 20
6.596414811349987
 30
0.0
 11
27.6866293609128
 21
7.184988018649988
 31
0.0
  0
LINE
  5
7295
330
18
100
AcDbEntity
  8
1
100
AcDbLine
 10
27.6866293609128
 20
7.184988018649988
 30
0.0
 11
25.96867456696781
 21
7.64618835201
 31
0.0
  0
LINE
  5
7296
330
18
100
AcDbEntity
  8
1
100
AcDbLine
 10
25.96867456696781
 20
7.64618835201
 30
0.0
 11
25.3658903366728
 21
7.750007770829995
 31
0.0
  0
LINE
  5
7297
330
18
100
AcDbEntity
  8
1
100
AcDbLine
 10
25.3658903366728
 20
7.750007770829995
 30
0.0
 11
24.53533796485562
 21
7.883185480787801
 31
0.0
  0
LINE
  5
729F
330
18
100
AcDbEntity
  8
1
100
AcDbLine
 10
47.81582766005944
 20
-6.006230765638953
 30
0.0
 11
47.13054895923924
 21
-6.281666966120013
 31
0.0
  0
LINE
  5
72A0
330
18
100
AcDbEntity
  8
1
100
AcDbLine
 10
47.13054895923924
 20
-6.281666966120013
 30
0.0
 11
45.81116073011926
 21
-6.762604831580006
 31
0.0
  0
LINE
  5
72A1
330
18
100
AcDbEntity
  8
1
100
AcDbLine
 10
45.81116073011926
 20
-6.762604831580006
 30
0.0
 11
44.35558352957426
 21
-7.15919764326
 31
0.0
  0
LINE
  5
72A2
330
18
100
AcDbEntity
  8
1
100
AcDbLine
 10
44.35558352957426
 20
-7.15919764326
 30
0.0
 11
42.85461000513428
 21
-7.410785385705011
 31
0.0
  0
LINE
  5
72A3
330
18
100
AcDbEntity
  8
1
100
AcDbLine
 10
42.85461000513428
 20
-7.410785385705011
 30
0.0
 11
41.71943874232424
 21
-7.495788357330013
 31
0.0
  0
LINE
  5
72A4
330
18
100
AcDbEntity
  8
1
100
AcDbLine
 10
41.71943874232424
 20
-7.495788357330013
 30
0.0
 11
40.87430942254925
 21
-7.424678529255004
 31
0.0
  0
LINE
  5
72A5
330
18
100
AcDbEntity
  8
1
100
AcDbLine
 10
40.87430942254925
 20
-7.424678529255004
 30
0.0
 11
40.16604575481425
 21
-7.307813735755004
 31
0.0
  0
LINE
  5
72A6
330
18
100
AcDbEntity
  8
1
100
AcDbLine
 10
40.16604575481425
 20
-7.307813735755004
 30
0.0
 11
38.69185264396925
 21
-6.948072834170019
 31
0.0
  0
LINE
  5
72A7
330
18
100
AcDbEntity
  8
1
100
AcDbLine
 10
38.69185264396925
 20
-6.948072834170019
 30
0.0
 11
37.6593331382243
 21
-6.614474724779995
 31
0.0
  0
LINE
  5
72A8
330
18
100
AcDbEntity
  8
1
100
AcDbLine
 10
37.6593331382243
 20
-6.614474724779995
 30
0.0
 11
36.59945737166427
 21
-6.199136417890002
 31
0.0
  0
LINE
  5
72A9
330
18
100
AcDbEntity
  8
1
100
AcDbLine
 10
36.59945737166427
 20
-6.199136417890002
 30
0.0
 11
35.44252916208427
 21
-5.667143546285004
 31
0.0
  0
LINE
  5
72AA
330
18
100
AcDbEntity
  8
1
100
AcDbLine
 10
35.44252916208427
 20
-5.667143546285004
 30
0.0
 11
33.87345456388928
 21
-4.832882491970011
 31
0.0
  0
LINE
  5
72AB
330
18
100
AcDbEntity
  8
1
100
AcDbLine
 10
33.87345456388928
 20
-4.832882491970011
 30
0.0
 11
32.48222252201427
 21
-3.99321620308001
 31
0.0
  0
LINE
  5
72AC
330
18
100
AcDbEntity
  8
1
100
AcDbLine
 10
32.48222252201427
 20
-3.99321620308001
 30
0.0
 11
31.01099251605424
 21
-3.005667192060002
 31
0.0
  0
LINE
  5
72AD
330
18
100
AcDbEntity
  8
1
100
AcDbLine
 10
31.01099251605424
 20
-3.005667192060002
 30
0.0
 11
29.71168913242924
 21
-2.078070084999993
 31
0.0
  0
LINE
  5
72AE
330
18
100
AcDbEntity
  8
1
100
AcDbLine
 10
29.71168913242924
 20
-2.078070084999993
 30
0.0
 11
28.98610867819424
 21
-1.548688150489994
 31
0.0
  0
LINE
  5
72AF
330
18
100
AcDbEntity
  8
1
100
AcDbLine
 10
28.98610867819424
 20
-1.548688150489994
 30
0.0
 11
27.34399796879927
 21
-0.3175851827199949
 31
0.0
  0
LINE
  5
72B0
330
18
100
AcDbEntity
  8
1
100
AcDbLine
 10
27.34399796879927
 20
-0.3175851827199949
 30
0.0
 11
25.7018872594043
 21
0.9135177850500042
 31
0.0
  0
LINE
  5
72B1
330
18
100
AcDbEntity
  8
1
100
AcDbLine
 10
25.7018872594043
 20
0.9135177850500042
 30
0.0
 11
24.94724701761465
 21
1.450455438949241
 31
0.0
  0
LINE
  5
72BD
330
18
100
AcDbEntity
  8
1
100
AcDbLine
 10
42.1891920063043
 20
-7.466050475585007
 30
0.0
 11
40.89245119314901
 21
-7.761248220370589
 31
0.0
  0
LINE
  5
72BE
330
18
100
AcDbEntity
  8
1
100
AcDbLine
 10
40.89245119314901
 20
-7.761248220370589
 30
0.0
 11
39.87765094175521
 21
-7.928469492303634
 31
0.0
  0
LINE
  5
72BF
330
18
100
AcDbEntity
  8
1
100
AcDbLine
 10
39.87765094175521
 20
-7.928469492303634
 30
0.0
 11
39.06257258414067
 21
-7.982411923897529
 31
0.0
  0
LINE
  5
72C0
330
18
100
AcDbEntity
  8
1
100
AcDbLine
 10
39.06257258414067
 20
-7.982411923897529
 30
0.0
 11
38.46880586323383
 21
-7.982411923897529
 31
0.0
  0
LINE
  5
72C1
330
18
100
AcDbEntity
  8
1
100
AcDbLine
 10
38.46880586323383
 20
-7.982411923897529
 30
0.0
 11
36.71988879020628
 21
-7.803752308110006
 31
0.0
  0
LINE
  5
72C2
330
18
100
AcDbEntity
  8
1
100
AcDbLine
 10
36.71988879020628
 20
-7.803752308110006
 30
0.0
 11
35.33812084760726
 21
-7.427160132159883
 31
0.0
  0
LINE
  5
72C3
330
18
100
AcDbEntity
  8
1
100
AcDbLine
 10
35.33812084760726
 20
-7.427160132159883
 30
0.0
 11
33.32827739911764
 21
-6.632132722391816
 31
0.0
  0
LINE
  5
72C4
330
18
100
AcDbEntity
  8
1
100
AcDbLine
 10
33.32827739911764
 20
-6.632132722391816
 30
0.0
 11
30.94158925697334
 21
-5.293138245122463
 31
0.0
  0
LINE
  5
72C5
330
18
100
AcDbEntity
  8
1
100
AcDbLine
 10
30.94158925697334
 20
-5.293138245122463
 30
0.0
 11
29.12340144016422
 21
-4.024594483909993
 31
0.0
  0
LINE
  5
72C6
330
18
100
AcDbEntity
  8
1
100
AcDbLine
 10
29.12340144016422
 20
-4.024594483909993
 30
0.0
 11
26.34049780024327
 21
-2.021171021551538
 31
0.0
  0
LINE
  5
72DE
330
18
100
AcDbEntity
  8
1
100
AcDbLine
 10
101.1793118490885
 20
2.684694241716883
 30
0.0
 11
100.3619114465171
 21
3.225296749999984
 31
0.0
  0
LINE
  5
72DF
330
18
100
AcDbEntity
  8
1
100
AcDbLine
 10
100.3619114465171
 20
3.225296749999984
 30
0.0
 11
99.06865558911707
 21
3.99898843545499
 31
0.0
  0
LINE
  5
72E0
330
18
100
AcDbEntity
  8
1
100
AcDbLine
 10
99.06865558911707
 20
3.99898843545499
 30
0.0
 11
97.94543136426709
 21
4.63028394347998
 31
0.0
  0
LINE
  5
72E1
330
18
100
AcDbEntity
  8
1
100
AcDbLine
 10
97.94543136426709
 20
4.63028394347998
 30
0.0
 11
96.67151567394705
 21
5.308675752184996
 31
0.0
  0
LINE
  5
72E2
330
18
100
AcDbEntity
  8
1
100
AcDbLine
 10
96.67151567394705
 20
5.308675752184996
 30
0.0
 11
95.49770187369704
 21
5.917111603454998
 31
0.0
  0
LINE
  5
72E3
330
18
100
AcDbEntity
  8
1
100
AcDbLine
 10
95.49770187369704
 20
5.917111603454998
 30
0.0
 11
94.84028605749708
 21
6.256823631369996
 31
0.0
  0
LINE
  5
72E4
330
18
100
AcDbEntity
  8
1
100
AcDbLine
 10
94.84028605749708
 20
6.256823631369996
 30
0.0
 11
93.82253785394707
 21
6.595230559449987
 31
0.0
  0
LINE
  5
72E5
330
18
100
AcDbEntity
  8
1
100
AcDbLine
 10
93.82253785394707
 20
6.595230559449987
 30
0.0
 11
92.0843191935871
 21
7.112880234719995
 31
0.0
  0
LINE
  5
72E6
330
18
100
AcDbEntity
  8
1
100
AcDbLine
 10
92.0843191935871
 20
7.112880234719995
 30
0.0
 11
90.76532571518706
 21
7.36604697972001
 31
0.0
  0
LINE
  5
72E7
330
18
100
AcDbEntity
  8
1
100
AcDbLine
 10
90.76532571518706
 20
7.36604697972001
 30
0.0
 11
89.56344159382707
 21
7.486314341999985
 31
0.0
  0
LINE
  5
72E8
330
18
100
AcDbEntity
  8
1
100
AcDbLine
 10
89.56344159382707
 20
7.486314341999985
 30
0.0
 11
88.66172399120301
 21
7.521070790053613
 31
0.0
  0
LINE
  5
72EB
330
18
100
AcDbEntity
  8
1
100
AcDbLine
 10
101.560400794222
 20
0.1262693879849905
 30
0.0
 11
99.54137981277709
 21
1.699270670369998
 31
0.0
  0
LINE
  5
72EC
330
18
100
AcDbEntity
  8
1
100
AcDbLine
 10
99.54137981277709
 20
1.699270670369998
 30
0.0
 11
97.9109627855121
 21
2.916532326565004
 31
0.0
  0
LINE
  5
72ED
330
18
100
AcDbEntity
  8
1
100
AcDbLine
 10
97.9109627855121
 20
2.916532326565004
 30
0.0
 11
96.46841982371705
 21
3.921452877679996
 31
0.0
  0
LINE
  5
72EE
330
18
100
AcDbEntity
  8
1
100
AcDbLine
 10
96.46841982371705
 20
3.921452877679996
 30
0.0
 11
94.57620114868209
 21
5.101638472969995
 31
0.0
  0
LINE
  5
72EF
330
18
100
AcDbEntity
  8
1
100
AcDbLine
 10
94.57620114868209
 20
5.101638472969995
 30
0.0
 11
93.16896237431208
 21
5.894942920554996
 31
0.0
  0
LINE
  5
72F0
330
18
100
AcDbEntity
  8
1
100
AcDbLine
 10
93.16896237431208
 20
5.894942920554996
 30
0.0
 11
91.69233180610707
 21
6.596414811349987
 31
0.0
  0
LINE
  5
72F1
330
18
100
AcDbEntity
  8
1
100
AcDbLine
 10
91.69233180610707
 20
6.596414811349987
 30
0.0
 11
90.09938138210705
 21
7.184988018649988
 31
0.0
  0
LINE
  5
72F2
330
18
100
AcDbEntity
  8
1
100
AcDbLine
 10
90.09938138210705
 20
7.184988018649988
 30
0.0
 11
88.38142658816206
 21
7.64618835201
 31
0.0
  0
LINE
  5
72F3
330
18
100
AcDbEntity
  8
1
100
AcDbLine
 10
88.38142658816206
 20
7.64618835201
 30
0.0
 11
87.77864235786706
 21
7.750007770829995
 31
0.0
  0
LINE
  5
72F4
330
18
100
AcDbEntity
  8
1
100
AcDbLine
 10
87.77864235786706
 20
7.750007770829995
 30
0.0
 11
86.94808998604987
 21
7.883185480787801
 31
0.0
  0
LINE
  5
72F5
330
18
100
AcDbEntity
  8
1
100
AcDbLine
 10
86.94808998604987
 20
7.883185480787801
 30
0.0
 11
86.03670856750074
 21
7.962713226516257
 31
0.0
  0
LINE
  5
72F6
330
18
100
AcDbEntity
  8
1
100
AcDbLine
 10
86.03670856750074
 20
7.962713226516257
 30
0.0
 11
85.31779604787841
 21
7.994881573547104
 31
0.0
  0
LINE
  5
72F7
330
18
100
AcDbEntity
  8
1
100
AcDbLine
 10
85.31779604787841
 20
7.994881573547104
 30
0.0
 11
84.2863887710626
 21
7.969717882087252
 31
0.0
  0
LINE
  5
72F8
330
18
100
AcDbEntity
  8
1
100
AcDbLine
 10
84.2863887710626
 20
7.969717882087252
 30
0.0
 11
83.29624748240718
 21
7.789156309123768
 31
0.0
  0
LINE
  5
72F9
330
18
100
AcDbEntity
  8
1
100
AcDbLine
 10
83.29624748240718
 20
7.789156309123768
 30
0.0
 11
81.30151380456874
 21
7.276594145703029
 31
0.0
  0
LINE
  5
72FA
330
18
100
AcDbEntity
  8
1
100
AcDbLine
 10
81.30151380456874
 20
7.276594145703029
 30
0.0
 11
79.88141644477543
 21
6.708937736063035
 31
0.0
  0
LINE
  5
72FB
330
18
100
AcDbEntity
  8
1
100
AcDbLine
 10
79.88141644477543
 20
6.708937736063035
 30
0.0
 11
79.08964320169454
 21
6.305853187811841
 31
0.0
  0
LINE
  5
7349
330
18
100
AcDbEntity
  8
1
100
AcDbLine
 10
28.00670220068918
 20
7.400656848881432
 30
0.0
 11
27.77748204576392
 21
7.362766106166986
 31
0.0
  0
LINE
  5
734A
330
18
100
AcDbEntity
  8
1
100
AcDbLine
 10
27.77748204576392
 20
7.362766106166986
 30
0.0
 11
27.37487305311128
 21
7.237983565967553
 31
0.0
  0
LINE
  5
734B
330
18
100
AcDbEntity
  8
1
100
AcDbLine
 10
27.37487305311128
 20
7.237983565967553
 30
0.0
 11
26.24873351110432
 21
6.268984356906003
 31
0.0
  0
LINE
  5
734C
330
18
100
AcDbEntity
  8
1
100
AcDbLine
 10
26.24873351110432
 20
6.268984356906003
 30
0.0
 11
25.40824193672325
 21
5.452389535858401
 31
0.0
  0
LINE
  5
734D
330
18
100
AcDbEntity
  8
1
100
AcDbLine
 10
25.40824193672325
 20
5.452389535858401
 30
0.0
 11
24.87126024245163
 21
4.659125727079413
 31
0.0
  0
LINE
  5
734E
330
18
100
AcDbEntity
  8
1
100
AcDbLine
 10
24.87126024245163
 20
4.659125727079413
 30
0.0
 11
24.56775036234195
 21
3.562555869071161
 31
0.0
  0
LINE
  5
734F
330
18
100
AcDbEntity
  8
1
100
AcDbLine
 10
24.56775036234195
 20
3.562555869071161
 30
0.0
 11
24.56775036234195
 21
2.67596728878334
 31
0.0
  0
LINE
  5
7350
330
18
100
AcDbEntity
  8
1
100
AcDbLine
 10
24.56775036234195
 20
2.67596728878334
 30
0.0
 11
24.94724701761465
 21
1.450455438949241
 31
0.0
  0
LINE
  5
7351
330
18
100
AcDbEntity
  8
1
100
AcDbLine
 10
26.34049780024327
 20
-2.021171021551538
 30
0.0
 11
25.85672784735527
 21
-1.365682576722548
 31
0.0
  0
LINE
  5
7352
330
18
100
AcDbEntity
  8
1
100
AcDbLine
 10
25.85672784735527
 20
-1.365682576722548
 30
0.0
 11
25.56487553933531
 21
-0.6535524185025566
 31
0.0
  0
LINE
  5
7353
330
18
100
AcDbEntity
  8
1
100
AcDbLine
 10
25.56487553933531
 20
-0.6535524185025566
 30
0.0
 11
25.48408324125529
 21
-0.2037998538125407
 31
0.0
  0
LINE
  5
7354
330
18
100
AcDbEntity
  8
1
100
AcDbLine
 10
25.48408324125529
 20
-0.2037998538125407
 30
0.0
 11
25.59856092743527
 21
0.5364891835974675
 31
0.0
  0
LINE
  5
7355
330
18
100
AcDbEntity
  8
1
100
AcDbLine
 10
25.59856092743527
 20
0.5364891835974675
 30
0.0
 11
24.94724701761465
 21
1.450455438949241
 31
0.0
  0
LINE
  5
7356
330
18
100
AcDbEntity
  8
1
100
AcDbLine
 10
25.59856092743527
 20
0.5364891835974675
 30
0.0
 11
26.71995338781258
 21
0.1502658161670212
 31
0.0
  0
LINE
  5
7358
330
18
100
AcDbEntity
  8
1
100
AcDbLine
 10
32.21263965476089
 20
-6.006230765638953
 30
0.0
 11
31.52736095394069
 21
-6.281666966120013
 31
0.0
  0
LINE
  5
7359
330
18
100
AcDbEntity
  8
1
100
AcDbLine
 10
31.52736095394069
 20
-6.281666966120013
 30
0.0
 11
30.20797272482069
 21
-6.762604831580006
 31
0.0
  0
LINE
  5
735A
330
18
100
AcDbEntity
  8
1
100
AcDbLine
 10
30.20797272482069
 20
-6.762604831580006
 30
0.0
 11
28.7523955242757
 21
-7.15919764326
 31
0.0
  0
LINE
  5
735B
330
18
100
AcDbEntity
  8
1
100
AcDbLine
 10
28.7523955242757
 20
-7.15919764326
 30
0.0
 11
27.25142199983571
 21
-7.410785385705011
 31
0.0
  0
LINE
  5
735C
330
18
100
AcDbEntity
  8
1
100
AcDbLine
 10
27.25142199983571
 20
-7.410785385705011
 30
0.0
 11
26.11625073702568
 21
-7.495788357330013
 31
0.0
  0
LINE
  5
735D
330
18
100
AcDbEntity
  8
1
100
AcDbLine
 10
26.11625073702568
 20
-7.495788357330013
 30
0.0
 11
24.56775036234195
 21
-7.458206423670034
 31
0.0
  0
LINE
  5
735E
330
18
100
AcDbEntity
  8
1
100
AcDbLine
 10
24.56775036234195
 20
-7.458206423670034
 30
0.0
 11
24.81215982385425
 21
-5.982588411073379
 31
0.0
  0
LINE
  5
735F
330
18
100
AcDbEntity
  8
1
100
AcDbLine
 10
24.81215982385425
 20
-5.982588411073379
 30
0.0
 11
25.50083145638314
 21
-4.732342846735264
 31
0.0
  0
LINE
  5
7360
330
18
100
AcDbEntity
  8
1
100
AcDbLine
 10
25.50083145638314
 20
-4.732342846735264
 30
0.0
 11
26.18626311595027
 21
-3.89651266409254
 31
0.0
  0
LINE
  5
7361
330
18
100
AcDbEntity
  8
1
100
AcDbLine
 10
26.18626311595027
 20
-3.89651266409254
 30
0.0
 11
27.2546028526971
 21
-2.679238905353095
 31
0.0
  0
LINE
  5
73AE
330
18
100
AcDbEntity
  8
1
100
AcDbLine
 10
101.9982104125201
 20
-7.947806990982797
 30
0.0
 11
101.747378530892
 21
-0.6323385902207051
 31
0.0
  0
LINE
  5
73AF
330
18
100
AcDbEntity
  8
1
100
AcDbLine
 10
96.62139091915499
 20
5.233998762265002
 30
0.0
 11
99.56728337690993
 21
4.09066931948999
 31
0.0
  0
LINE
  5
73B0
330
18
100
AcDbEntity
  8
1
100
AcDbLine
 10
99.56728337690993
 20
4.09066931948999
 30
0.0
 11
100.90785655709
 21
3.545387099409992
 31
0.0
  0
LINE
  5
73B1
330
18
100
AcDbEntity
  8
1
100
AcDbLine
 10
100.90785655709
 20
3.545387099409992
 30
0.0
 11
101.4568231165949
 21
1.804799935315003
 31
0.0
  0
LINE
  5
73B2
330
18
100
AcDbEntity
  8
1
100
AcDbLine
 10
101.4568231165949
 20
1.804799935315003
 30
0.0
 11
101.8244675478399
 21
0.5471243898900014
 31
0.0
  0
LINE
  5
73B3
330
18
100
AcDbEntity
  8
1
100
AcDbLine
 10
101.8244675478399
 20
0.5471243898900014
 30
0.0
 11
102.0
 21
-0.6310746929499942
 31
0.0
  0
LINE
  5
73B4
330
18
100
AcDbEntity
  8
1
100
AcDbLine
 10
102.0
 20
-0.6310746929499942
 30
0.0
 11
101.5791958155499
 21
-0.6331800296900099
 31
0.0
  0
LINE
  5
73B5
330
18
100
AcDbEntity
  8
1
100
AcDbLine
 10
101.5781431471799
 20
-0.6331800296900099
 30
0.0
 11
99.49583351069495
 21
0.9900346102399879
 31
0.0
  0
LINE
  5
73B6
330
18
100
AcDbEntity
  8
1
100
AcDbLine
 10
99.49583351069495
 20
0.9900346102399879
 30
0.0
 11
96.98403517560992
 21
2.886679861389978
 31
0.0
  0
LINE
  5
73B7
330
18
100
AcDbEntity
  8
1
100
AcDbLine
 10
96.98403517560992
 20
2.886679861389978
 30
0.0
 11
94.54026553456998
 21
4.5627910874
 31
0.0
  0
LINE
  5
73B8
330
18
100
AcDbEntity
  8
1
100
AcDbLine
 10
94.54026553456998
 20
4.5627910874
 30
0.0
 11
91.94806965205991
 21
6.048106169689987
 31
0.0
  0
LINE
  5
73B9
330
18
100
AcDbEntity
  8
1
100
AcDbLine
 10
91.94806965205991
 20
6.048106169689987
 30
0.0
 11
89.0069142021
 21
7.249990291050011
 31
0.0
  0
LINE
  5
73BA
330
18
100
AcDbEntity
  8
1
100
AcDbLine
 10
89.0069142021
 20
7.249990291050011
 30
0.0
 11
86.98592249865496
 21
7.752771025414986
 31
0.0
  0
LINE
  5
73BB
330
18
100
AcDbEntity
  8
1
100
AcDbLine
 10
86.98592249865496
 20
7.752771025414986
 30
0.0
 11
84.80209240947051
 21
7.982299727817178
 31
0.0
  0
LINE
  5
73BC
330
18
100
AcDbEntity
  8
1
100
AcDbLine
 10
101.9982104125201
 20
-7.947806990982797
 30
0.0
 11
101.82499388196
 21
-7.462892470540026
 31
0.0
  0
LINE
  5
73BD
330
18
100
AcDbEntity
  8
1
100
AcDbLine
 10
101.82499388196
 20
-7.462892470540026
 30
0.0
 11
101.5170883812
 21
-7.088405694760012
 31
0.0
  0
LINE
  5
73BE
330
18
100
AcDbEntity
  8
1
100
AcDbLine
 10
101.5170883812
 20
-7.088405694760012
 30
0.0
 11
101.1046046651635
 21
-6.948072834170019
 31
0.0
  0
LINE
  5
73BF
330
18
100
AcDbEntity
  8
1
100
AcDbLine
 10
101.5173515483899
 20
-7.089458363130006
 30
0.0
 11
101.2249729061849
 21
-5.261631307139992
 31
0.0
  0
LINE
  5
73C0
330
18
100
AcDbEntity
  8
1
100
AcDbLine
 10
101.2249729061849
 20
-5.261631307139992
 30
0.0
 11
101.1349697597699
 21
-3.565387798440013
 31
0.0
  0
LINE
  5
73C1
330
18
100
AcDbEntity
  8
1
100
AcDbLine
 10
101.1349697597699
 20
-3.565387798440013
 30
0.0
 11
101.8063123596872
 21
-2.351133503724987
 31
0.0
  0
LINE
  5
73C2
330
18
100
AcDbEntity
  8
1
100
AcDbLine
 10
101.1349697597699
 20
-3.565387798440013
 30
0.0
 11
100.1209869440799
 21
-2.840625619780013
 31
0.0
  0
LINE
  5
73C3
330
18
100
AcDbEntity
  8
1
100
AcDbLine
 10
100.1209869440799
 20
-2.840625619780013
 30
0.0
 11
99.96098135053996
 21
-2.360608839159993
 31
0.0
  0
LINE
  5
73C4
330
18
100
AcDbEntity
  8
1
100
AcDbLine
 10
99.96098135053996
 20
-2.360608839159993
 30
0.0
 11
99.81492361299995
 21
-1.741376665339998
 31
0.0
  0
LINE
  5
73C5
330
18
100
AcDbEntity
  8
1
100
AcDbLine
 10
99.81492361299995
 20
-1.741376665339998
 30
0.0
 11
99.40175127432995
 21
-0.664760081049991
 31
0.0
  0
LINE
  5
73C6
330
18
100
AcDbEntity
  8
1
100
AcDbLine
 10
99.40175127432995
 20
-0.664760081049991
 30
0.0
 11
99.38569808158995
 21
-0.5315975311400223
 31
0.0
  0
LINE
  5
73C7
330
18
100
AcDbEntity
  8
1
100
AcDbLine
 10
99.38569808158995
 20
-0.5315975311400223
 30
0.0
 11
99.45044432540568
 21
-0.4406722424009786
 31
0.0
  0
LINE
  5
73C8
330
18
100
AcDbEntity
  8
1
100
AcDbLine
 10
99.45044432540568
 20
-0.4406722424009786
 30
0.0
 11
99.57623105811995
 21
-0.3973823128600031
 31
0.0
  0
LINE
  5
73C9
330
18
100
AcDbEntity
  8
1
100
AcDbLine
 10
99.57623105811995
 20
-0.3973823128600031
 30
0.0
 11
100.7057442283599
 21
-0.4308045338999876
 31
0.0
  0
LINE
  5
73CA
330
18
100
AcDbEntity
  8
1
100
AcDbLine
 10
100.7057442283599
 20
-0.4308045338999876
 30
0.0
 11
101.3795910415558
 21
-0.4784034878199038
 31
0.0
  0
LINE
  5
73CB
330
18
100
AcDbEntity
  8
1
100
AcDbLine
 10
100.7440170458813
 20
-0.433508035707682
 30
0.0
 11
100.7491667989799
 21
-0.4958068063000099
 31
0.0
  0
LINE
  5
73CC
330
18
100
AcDbEntity
  8
1
100
AcDbLine
 10
100.7491667989799
 20
-0.4958068063000099
 30
0.0
 11
100.7739045059349
 21
-0.5780465234049928
 31
0.0
  0
LINE
  5
73CD
330
18
100
AcDbEntity
  8
1
100
AcDbLine
 10
100.7739045059349
 20
-0.5780465234049928
 30
0.0
 11
100.8357487731599
 21
-0.7243674280050101
 31
0.0
  0
LINE
  5
73CE
330
18
100
AcDbEntity
  8
1
100
AcDbLine
 10
100.8357487731599
 20
-0.7243674280050101
 30
0.0
 11
100.9028563823
 21
-0.8116073198999913
 31
0.0
  0
LINE
  5
73CF
330
18
100
AcDbEntity
  8
1
100
AcDbLine
 10
100.9028563823
 20
-0.8116073198999913
 30
0.0
 11
100.9568056367499
 21
-0.8563457259500069
 31
0.0
  0
LINE
  5
73D0
330
18
100
AcDbEntity
  8
1
100
AcDbLine
 10
100.9568056367499
 20
-0.8563457259500069
 30
0.0
 11
101.7582652847282
 21
-0.9498488810110643
 31
0.0
  0
LINE
  5
7423
330
18
100
AcDbEntity
  8
1
100
AcDbLine
 10
24.53533796485562
 20
7.883185480787801
 30
0.0
 11
22.95342160801903
 21
8.0
 31
0.0
  0
LINE
  5
7424
330
18
100
AcDbEntity
  8
1
100
AcDbLine
 10
26.58600400100573
 20
-7.466050475585007
 30
0.0
 11
25.28926318785045
 21
-7.761248220370589
 31
0.0
  0
LINE
  5
7425
330
18
100
AcDbEntity
  8
1
100
AcDbLine
 10
25.28926318785045
 20
-7.761248220370589
 30
0.0
 11
24.27446293645664
 21
-7.928469492303634
 31
0.0
  0
LINE
  5
742A
330
18
100
AcDbEntity
  8
1
100
AcDbLine
 10
24.27446293645664
 20
-7.928469492303634
 30
0.0
 11
23.35224023277712
 21
-8.0
 31
0.0
  0
VIEWPORT
  5
614
102
{ACAD_XDICTIONARY
360
615
102
}
330
338
100
AcDbEntity
 67
     1
  8
0
100
AcDbViewport
 10
128.5
 20
97.5
 30
0.0
 40
509.3947670250896
 41
222.18
 68
     1
 69
     1
 12
128.5
 22
97.5
 13
0.0
 23
0.0
 14
10.0
 24
10.0
 15
10.0
 25
10.0
 16
0.0
 26
0.0
 36
1.0
 17
0.0
 27
0.0
 37
0.0
 42
50.0
 43
0.0
 44
0.0
 45
222.18
 50
0.0
 51
0.0
 72
  2000
 90
   819232
  1

281
     0
 71
     1
 74
     0
110
0.0
120
0.0
130
0.0
111
1.0
121
0.0
131
0.0
112
0.0
122
1.0
132
0.0
 79
     0
146
0.0
  0
VIEWPORT
  5
619
102
{ACAD_XDICTIONARY
360
61A
102
}
330
338
100
AcDbEntity
 67
     1
  8
1
100
AcDbViewport
 10
128.5
 20
97.5
 30
0.0
 40
205.6
 41
156.0
 68
     2
 69
     2
 12
-1.22990277517806
 22
44.55711464811713
 13
0.0
 23
0.0
 14
5.0
 24
5.0
 15
5.0
 25
5.0
 16
0.0
 26
0.0
 36
1.0
 17
0.0
 27
0.0
 37
0.0
 42
50.0
 43
0.0
 44
0.0
 45
100.1891669330764
 50
0.0
 51
0.0
 72
  2000
 90
   819232
  1

281
     0
 71
     1
 74
     0
110
0.0
120
0.0
130
0.0
111
1.0
121
0.0
131
0.0
112
0.0
122
1.0
132
0.0
 79
     0
146
0.0
  0
ENDSEC
  0
SECTION
  2
OBJECTS
  0
DICTIONARY
  5
C
330
0
100
AcDbDictionary
281
     1
  3
ACAD_2007HEADERVARS_RT
350
747A
  3
ACAD_CIP_PREVIOUS_PRODUCT_INFO
350
59A
  3
ACAD_COLOR
350
387
  3
ACAD_DETAILVIEWSTYLE
350
595
  3
ACAD_GROUP
350
D
  3
ACAD_LAYOUT
350
301
  3
ACAD_MATERIAL
350
386
  3
ACAD_MLEADERSTYLE
350
3DE
  3
ACAD_MLINESTYLE
350
E
  3
ACAD_PLOTSETTINGS
350
302
  3
ACAD_PLOTSTYLENAME
350
2FF
  3
ACAD_SCALELIST
350
3A0
  3
ACAD_SECTIONVIEWSTYLE
350
593
  3
ACAD_TABLESTYLE
350
388
  3
ACAD_VISUALSTYLE
350
3C2
  3
ACDB_RECOMPOSE_DATA
350
7478
  3
AcDbVariableDictionary
350
357
  3
ASE_INDEX_DICTIONARY
350
16FA
  3
DWGPROPS
350
7479
  0
DICTIONARY
  5
5BC
330
2
100
AcDbDictionary
280
     1
281
     1
  3
ACAD_LAYERSTATES
360
5BD
  0
DICTIONARY
  5
59B
330
F
100
AcDbDictionary
280
     1
281
     1
  3
ADSK_XREC_LAYER_RECONCILED
360
59C
  0
DICTIONARY
  5
59D
330
23
100
AcDbDictionary
280
     1
281
     1
  3
ADSK_XREC_LAYER_RECONCILED
360
59E
  0
DICTIONARY
  5
59F
330
24
100
AcDbDictionary
280
     1
281
     1
  3
ADSK_XREC_LAYER_RECONCILED
360
5A0
  0
DICTIONARY
  5
5A1
330
25
100
AcDbDictionary
280
     1
281
     1
  3
ADSK_XREC_LAYER_RECONCILED
360
5A2
  0
DICTIONARY
  5
5A3
330
26
100
AcDbDictionary
280
     1
281
     1
  3
ADSK_XREC_LAYER_RECONCILED
360
5A4
  0
DICTIONARY
  5
5A5
330
27
100
AcDbDictionary
280
     1
281
     1
  3
ADSK_XREC_LAYER_RECONCILED
360
5A6
  0
DICTIONARY
  5
5A7
330
28
100
AcDbDictionary
280
     1
281
     1
  3
ADSK_XREC_LAYER_RECONCILED
360
5A8
  0
DICTIONARY
  5
5A9
330
29
100
AcDbDictionary
280
     1
281
     1
  3
ADSK_XREC_LAYER_RECONCILED
360
5AA
  0
DICTIONARY
  5
5AB
330
2A
100
AcDbDictionary
280
     1
281
     1
  3
ADSK_XREC_LAYER_RECONCILED
360
5AC
  0
DICTIONARY
  5
5AD
330
2B
100
AcDbDictionary
280
     1
281
     1
  3
ADSK_XREC_LAYER_RECONCILED
360
5AE
  0
DICTIONARY
  5
5AF
330
2C
100
AcDbDictionary
280
     1
281
     1
  3
ADSK_XREC_LAYER_RECONCILED
360
5B0
  0
DICTIONARY
  5
5B1
330
2D
100
AcDbDictionary
280
     1
281
     1
  3
ADSK_XREC_LAYER_RECONCILED
360
5B2
  0
DICTIONARY
  5
5B3
330
2E
100
AcDbDictionary
280
     1
281
     1
  3
ADSK_XREC_LAYER_RECONCILED
360
5B4
  0
DICTIONARY
  5
5B5
330
375
100
AcDbDictionary
280
     1
281
     1
  3
ADSK_XREC_LAYER_RECONCILED
360
5B6
  0
DICTIONARY
  5
5B7
330
376
100
AcDbDictionary
280
     1
281
     1
  3
ADSK_XREC_LAYER_RECONCILED
360
5B8
  0
DICTIONARY
  5
16F5
330
18
100
AcDbDictionary
280
     1
281
     1
  3
ACAD_SORTENTS
360
16F6
  0
DICTIONARY
  5
717D
330
39A8
100
AcDbDictionary
280
     1
281
     1
  3
ACAD_MTEXT_RT
360
74BF
  0
DICTIONARY
  5
717F
330
39B5
100
AcDbDictionary
280
     1
281
     1
  3
ACAD_MTEXT_RT
360
74C0
  0
DICTIONARY
  5
7181
330
70A4
100
AcDbDictionary
280
     1
281
     1
  3
ACAD_MTEXT_RT
360
74C1
  0
DICTIONARY
  5
7183
330
70AE
100
AcDbDictionary
280
     1
281
     1
  3
ACAD_MTEXT_RT
360
74C2
  0
DICTIONARY
  5
615
330
614
100
AcDbDictionary
280
     1
281
     1
  3
ACAD_XREC_ROUNDTRIP
360
74B9
  3
ASDK_XREC_ANNOTATION_SCALE_INFO
360
616
  0
DICTIONARY
  5
61A
330
619
100
AcDbDictionary
280
     1
281
     1
  3
ACAD_XREC_ROUNDTRIP
360
74BA
  3
ASDK_XREC_ANNOTATION_SCALE_INFO
360
61B
  0
DICTIONARY
  5
747A
102
{ACAD_REACTORS
330
C
102
}
330
C
100
AcDbDictionary
281
     1
  3
DIMARCSYM
350
747B
  3
DIMJOGANG
350
747C
  3
DIMLTEX1
350
747E
  3
DIMLTEX2
350
747F
  3
DIMLTYPE
350
747D
  0
XRECORD
  5
59A
102
{ACAD_REACTORS
330
C
102
}
330
C
100
AcDbXrecord
280
     1
300
ACD
300
2019
300
87084ACD_2019_0F
  0
DICTIONARY
  5
387
102
{ACAD_REACTORS
330
C
102
}
330
C
100
AcDbDictionary
281
     1
  0
DICTIONARY
  5
595
102
{ACAD_REACTORS
330
C
102
}
330
C
100
AcDbDictionary
281
     1
  3
Imperial24
350
78C
  3
Metric50
350
596
  0
DICTIONARY
  5
D
102
{ACAD_REACTORS
330
C
102
}
330
C
100
AcDbDictionary
281
     1
  0
DICTIONARY
  5
301
102
{ACAD_REACTORS
330
C
102
}
330
C
100
AcDbDictionary
281
     1
  3
Layout1
350
33B
  3
Model
350
303
  0
DICTIONARY
  5
386
102
{ACAD_REACTORS
330
C
102
}
330
C
100
AcDbDictionary
281
     1
  3
ByBlock
350
3DC
  3
ByLayer
350
3DB
  3
Global
350
3DD
  0
DICTIONARY
  5
3DE
102
{ACAD_REACTORS
330
C
102
}
330
C
100
AcDbDictionary
281
     1
  3
Standard
350
3DF
  0
DICTIONARY
  5
E
102
{ACAD_REACTORS
330
C
102
}
330
C
100
AcDbDictionary
281
     1
  3
STANDARD
350
1B
  0
DICTIONARY
  5
302
102
{ACAD_REACTORS
330
C
102
}
330
C
100
AcDbDictionary
281
     1
  0
ACDBDICTIONARYWDFLT
  5
2FF
102
{ACAD_REACTORS
330
C
102
}
330
C
100
AcDbDictionary
281
     1
  3
Normal
350
300
100
AcDbDictionaryWithDefault
340
300
  0
DICTIONARY
  5
3A0
102
{ACAD_REACTORS
330
C
102
}
330
C
100
AcDbDictionary
281
     1
  3
A0
350
3A1
  3
A1
350
3A2
  3
A2
350
3A3
  3
A3
350
3A4
  3
A4
350
3A5
  3
A5
350
3A6
  3
A6
350
3A7
  3
A7
350
3A8
  3
A8
350
3A9
  3
A9
350
3AA
  3
B0
350
3AB
  3
B1
350
3AC
  3
B2
350
3AD
  3
B3
350
3AE
  3
B4
350
3AF
  3
B5
350
3B0
  3
B6
350
3B1
  3
B7
350
3B2
  3
B8
350
3B3
  3
B9
350
3B4
  3
C0
350
3B5
  3
C1
350
3B6
  3
C2
350
3B7
  3
C3
350
3B8
  3
C4
350
3B9
  3
C5
350
3BA
  3
C6
350
3BB
  3
C7
350
3BC
  3
C8
350
3BD
  3
C9
350
3BE
  3
D0
350
3BF
  3
D1
350
3C0
  3
D2
350
3C1
  0
DICTIONARY
  5
593
102
{ACAD_REACTORS
330
C
102
}
330
C
100
AcDbDictionary
281
     1
  3
Imperial24
350
78B
  3
Metric50
350
594
  0
DICTIONARY
  5
388
102
{ACAD_REACTORS
330
C
102
}
330
C
100
AcDbDictionary
281
     1
  3
Standard
350
389
  0
DICTIONARY
  5
3C2
102
{ACAD_REACTORS
330
C
102
}
330
C
100
AcDbDictionary
281
     1
  3
2dWireframe
350
3C7
  3
Basic
350
3CA
  3
Brighten
350
3CE
  3
ColorChange
350
3D2
  3
Conceptual
350
3CC
  3
Dim
350
3CD
  3
EdgeColorOff
350
3D5
  3
Facepattern
350
3D1
  3
Flat
350
3C3
  3
FlatWithEdges
350
3C4
  3
Gouraud
350
3C5
  3
GouraudWithEdges
350
3C6
  3
Hidden
350
3C9
  3
JitterOff
350
3D3
  3
Linepattern
350
3D0
  3
OverhangOff
350
3D4
  3
Realistic
350
3CB
  3
Shaded
350
3DA
  3
Shaded with edges
350
3D9
  3
Shades of Gray
350
3D6
  3
Sketchy
350
3D7
  3
Thicken
350
3CF
  3
Wireframe
350
3C8
  3
X-Ray
350
3D8
  0
XRECORD
  5
7478
102
{ACAD_REACTORS
330
C
102
}
330
C
100
AcDbXrecord
280
     1
 90
        1
330
389
  0
DICTIONARY
  5
357
102
{ACAD_REACTORS
330
C
102
}
330
C
100
AcDbDictionary
281
     1
  3
ANNOALLVISIBLE
350
656
  3
CANNOSCALE
350
557
  3
CMLEADERSTYLE
350
54E
  3
CTABLESTYLE
350
38D
  3
CVIEWDETAILSTYLE
350
5C2
  3
CVIEWSECTIONSTYLE
350
5C3
  3
DIMASSOC
350
359
  3
HIDETEXT
350
358
  3
INDEXCTL
350
658
  3
MSLTSCALE
350
54F
  3
PROJECTNAME
350
38E
  3
SORTENTS
350
657
  3
XCLIPFRAME
350
72FC
  0
DICTIONARY
  5
16FA
102
{ACAD_REACTORS
330
C
102
}
330
C
100
AcDbDictionary
281
     1
  3
ASEBlockHierarchyIndexRecord
350
16FB
1001
DCO15
1040
2050047918.0
  0
XRECORD
  5
7479
102
{ACAD_REACTORS
330
C
102
}
330
C
100
AcDbXrecord
280
     1
  1
DWGPROPS COOKIE
  2

  3

  4

  6

  7

  8
fo3459
  9

300
=
301
=
302
=
303
=
304
=
305
=
306
=
307
=
308
=
309
=
 40
0.2308023148148148
 41
2454957.593634259
 42
2459548.596157408
  1

 90
        0
  0
DICTIONARY
  5
5BD
102
{ACAD_REACTORS
330
5BC
102
}
330
5BC
100
AcDbDictionary
281
     1
  0
XRECORD
  5
59C
102
{ACAD_REACTORS
330
59B
102
}
330
59B
100
AcDbXrecord
280
     1
290
     1
  0
XRECORD
  5
59E
102
{ACAD_REACTORS
330
59D
102
}
330
59D
100
AcDbXrecord
280
     1
290
     1
  0
XRECORD
  5
5A0
102
{ACAD_REACTORS
330
59F
102
}
330
59F
100
AcDbXrecord
280
     1
290
     1
  0
XRECORD
  5
5A2
102
{ACAD_REACTORS
330
5A1
102
}
330
5A1
100
AcDbXrecord
280
     1
290
     1
  0
XRECORD
  5
5A4
102
{ACAD_REACTORS
330
5A3
102
}
330
5A3
100
AcDbXrecord
280
     1
290
     1
  0
XRECORD
  5
5A6
102
{ACAD_REACTORS
330
5A5
102
}
330
5A5
100
AcDbXrecord
280
     1
290
     1
  0
XRECORD
  5
5A8
102
{ACAD_REACTORS
330
5A7
102
}
330
5A7
100
AcDbXrecord
280
     1
290
     1
  0
XRECORD
  5
5AA
102
{ACAD_REACTORS
330
5A9
102
}
330
5A9
100
AcDbXrecord
280
     1
290
     1
  0
XRECORD
  5
5AC
102
{ACAD_REACTORS
330
5AB
102
}
330
5AB
100
AcDbXrecord
280
     1
290
     1
  0
XRECORD
  5
5AE
102
{ACAD_REACTORS
330
5AD
102
}
330
5AD
100
AcDbXrecord
280
     1
290
     1
  0
XRECORD
  5
5B0
102
{ACAD_REACTORS
330
5AF
102
}
330
5AF
100
AcDbXrecord
280
     1
290
     1
  0
XRECORD
  5
5B2
102
{ACAD_REACTORS
330
5B1
102
}
330
5B1
100
AcDbXrecord
280
     1
290
     1
  0
XRECORD
  5
5B4
102
{ACAD_REACTORS
330
5B3
102
}
330
5B3
100
AcDbXrecord
280
     1
290
     1
  0
XRECORD
  5
5B6
102
{ACAD_REACTORS
330
5B5
102
}
330
5B5
100
AcDbXrecord
280
     1
290
     1
  0
XRECORD
  5
5B8
102
{ACAD_REACTORS
330
5B7
102
}
330
5B7
100
AcDbXrecord
280
     1
290
     1
  0
SORTENTSTABLE
  5
16F6
102
{ACAD_REACTORS
330
16F5
102
}
330
16F5
100
AcDbSortentsTable
330
18
331
4F18
  5
4F17
331
6F7E
  5
6F7F
331
6F7F
  5
6F80
  0
XRECORD
  5
74BF
102
{ACAD_REACTORS
330
717D
102
}
330
717D
100
AcDbXrecord
280
     1
 40
12725.0
  1
\A1;\U+00D8 16.000 h6
  0
XRECORD
  5
74C0
102
{ACAD_REACTORS
330
717F
102
}
330
717F
100
AcDbXrecord
280
     1
 40
8903.0
  1
\A1;\U+00D8 16.000
  0
XRECORD
  5
74C1
102
{ACAD_REACTORS
330
7181
102
}
330
7181
100
AcDbXrecord
280
     1
 40
12725.0
  1
\A1;\U+00D8 16.000 h6
  0
XRECORD
  5
74C2
102
{ACAD_REACTORS
330
7183
102
}
330
7183
100
AcDbXrecord
280
     1
 40
8903.0
  1
\A1;\U+00D8 16.000
  0
XRECORD
  5
74B9
102
{ACAD_REACTORS
330
615
102
}
330
615
100
AcDbXrecord
280
     1
102
SHADEPLOT
 70
     0
  0
XRECORD
  5
616
102
{ACAD_REACTORS
330
615
102
}
330
615
100
AcDbXrecord
280
     1
 90
        1
340
3A1
  0
XRECORD
  5
74BA
102
{ACAD_REACTORS
330
61A
102
}
330
61A
100
AcDbXrecord
280
     1
102
SHADEPLOT
 70
     0
  0
XRECORD
  5
61B
102
{ACAD_REACTORS
330
61A
102
}
330
61A
100
AcDbXrecord
280
     1
 90
        1
340
3A1
  0
XRECORD
  5
747B
102
{ACAD_REACTORS
330
747A
102
}
330
747A
100
AcDbXrecord
280
     1
 70
     2
  0
XRECORD
  5
747C
102
{ACAD_REACTORS
330
747A
102
}
330
747A
100
AcDbXrecord
280
     1
 40
0.7853981634000001
  0
XRECORD
  5
747E
102
{ACAD_REACTORS
330
747A
102
}
330
747A
100
AcDbXrecord
280
     1
340
13
  0
XRECORD
  5
747F
102
{ACAD_REACTORS
330
747A
102
}
330
747A
100
AcDbXrecord
280
     1
340
13
  0
XRECORD
  5
747D
102
{ACAD_REACTORS
330
747A
102
}
330
747A
100
AcDbXrecord
280
     1
340
13
  0
ACDBDETAILVIEWSTYLE
  5
78C
102
{ACAD_XDICTIONARY
360
74BD
102
}
102
{ACAD_REACTORS
330
595
102
}
330
595
100
AcDbModelDocViewStyle
 70
     0
  3
Imperial24
290
     0
100
AcDbDetailViewStyle
 70
     0
 71
     0
 90
        3
 71
     1
340
10
 40
0.24
340
0
 40
0.24
300

 40
0.36
280
     3
 71
     2
340
14
 90
       25
 71
     3
340
10
 40
0.24
 90
        1
 40
0.75
 90
        1
300
%<\AcVar ViewType \f "%tc1">% %<\AcVar ViewDetailId>%\PSCALE %<\AcVar ViewScale \f "%sn">%
 71
     4
340
14
 90
       25
340
14
 90
       25
280
     0
  0
ACDBDETAILVIEWSTYLE
  5
596
102
{ACAD_XDICTIONARY
360
74B7
102
}
102
{ACAD_REACTORS
330
595
102
}
330
595
100
AcDbModelDocViewStyle
 70
     0
  3
Metric50
290
     0
100
AcDbDetailViewStyle
 70
     0
 71
     0
 90
        3
 71
     1
340
10
 40
5.0
340
0
 40
5.0
300

 40
0.0
280
     1
 71
     2
340
14
 90
       25
 71
     3
340
10
 40
5.0
 90
        0
 40
15.0
 90
        1
300
%<\AcVar ViewDetailId>% (%<\AcVar ViewScale \f "%sn">%)
 71
     4
340
14
 90
       25
340
14
 90
       25
280
     0
  0
LAYOUT
  5
33B
102
{ACAD_XDICTIONARY
360
7482
102
}
102
{ACAD_REACTORS
330
301
102
}
330
301
100
AcDbPlotSettings
  1

  2
None
  4
ISO_A4_(210.00_x_297.00_MM)
  6

 40
7.5
 41
20.0
 42
7.5
 43
20.0
 44
210.0
 45
297.0
 46
0.0
 47
0.0
 48
0.0
 49
0.0
140
0.0
141
0.0
142
1.0
143
1.0
 70
   688
 72
     1
 73
     1
 74
     5
  7
monochrome.ctb
 75
    16
147
1.0
148
0.0
149
0.0
100
AcDbLayout
  1
Layout1
 70
     1
 71
     1
 10
-20.0
 20
-7.5
 11
277.0
 21
202.5
 12
0.0
 22
0.0
 32
0.0
 14
25.69999999999999
 24
19.5
 34
0.0
 15
231.3
 25
175.5
 35
0.0
146
0.0
 13
0.0
 23
0.0
 33
0.0
 16
1.0
 26
0.0
 36
0.0
 17
0.0
 27
1.0
 37
0.0
 76
     0
330
338
331
614
1001
ACAD_PSEXT
1000
None
1000
None
1000
Not applicable
1000
The layout will not be plotted unless a new plotter configuration name is selected.
1070
     0
  0
LAYOUT
  5
303
102
{ACAD_XDICTIONARY
360
7480
102
}
102
{ACAD_REACTORS
330
301
102
}
330
301
100
AcDbPlotSettings
  1

  2
Lexmark Optra Rx
  4
A4
  6

 40
6.805083274841307
 41
5.535083293914794
 42
6.974411010742187
 43
7.14373779296875
 44
209.9733276367186
 45
296.9259948730469
 46
0.0
 47
0.0
 48
0.0
 49
0.0
140
0.0
141
0.0
142
1.0
143
2.976565420630883
 70
 11952
 72
     1
 73
     1
 74
     0
  7
monochrome.ctb
 75
     0
147
0.335957675604539
148
204.1199660668592
149
172.3933209647495
100
AcDbLayout
  1
Model
 70
     1
 71
     0
 10
0.0
 20
0.0
 11
12.0
 21
9.0
 12
0.0
 22
0.0
 32
0.0
 14
0.0
 24
0.0
 34
0.0
 15
0.0
 25
0.0
 35
0.0
146
0.0
 13
0.0
 23
0.0
 33
0.0
 16
1.0
 26
0.0
 36
0.0
 17
0.0
 27
1.0
 37
0.0
 76
     0
330
18
331
39A
  0
MATERIAL
  5
3DC
102
{ACAD_XDICTIONARY
360
55A
102
}
102
{ACAD_REACTORS
330
386
102
}
330
386
100
AcDbMaterial
  1
ByBlock
  0
MATERIAL
  5
3DB
102
{ACAD_XDICTIONARY
360
558
102
}
102
{ACAD_REACTORS
330
386
102
}
330
386
100
AcDbMaterial
  1
ByLayer
  0
MATERIAL
  5
3DD
102
{ACAD_XDICTIONARY
360
55C
102
}
102
{ACAD_REACTORS
330
386
102
}
330
386
100
AcDbMaterial
  1
Global
  0
MLEADERSTYLE
  5
3DF
102
{ACAD_REACTORS
330
3DE
102
}
330
3DE
100
AcDbMLeaderStyle
170
     2
171
     1
172
     0
 90
        2
 40
0.0
 41
0.0
173
     1
 91
-1056964608
340
12
 92
       -2
290
     1
 42
2.0
291
     1
 43
8.0
  3
Standard
 44
4.0
300

342
10
174
     1
178
     6
175
     1
176
     0
 93
-1056964608
 45
4.0
292
     0
297
     0
 46
4.0
 94
-1056964608
 47
1.0
 49
1.0
140
1.0
293
     1
141
0.0
294
     1
177
     0
142
1.0
295
     0
296
     0
143
3.75
1001
ACAD_MLEADERVER
1070
     2
  0
MLINESTYLE
  5
1B
102
{ACAD_REACTORS
330
E
102
}
330
E
100
AcDbMlineStyle
  2
STANDARD
 70
     0
  3

 62
     0
 51
90.0
 52
90.0
 71
     2
 49
0.5
 62
   256
  6
BYLAYER
 49
-0.5
 62
   256
  6
BYLAYER
  0
ACDBPLACEHOLDER
  5
300
102
{ACAD_REACTORS
330
2FF
102
}
330
2FF
  0
SCALE
  5
3A1
102
{ACAD_REACTORS
330
3A0
102
}
330
3A0
100
AcDbScale
 70
     0
300
1:1
140
1.0
141
1.0
290
     1
  0
SCALE
  5
3A2
102
{ACAD_REACTORS
330
3A0
102
}
330
3A0
100
AcDbScale
 70
     0
300
1:2
140
1.0
141
2.0
290
     0
  0
SCALE
  5
3A3
102
{ACAD_REACTORS
330
3A0
102
}
330
3A0
100
AcDbScale
 70
     0
300
1:4
140
1.0
141
4.0
290
     0
  0
SCALE
  5
3A4
102
{ACAD_REACTORS
330
3A0
102
}
330
3A0
100
AcDbScale
 70
     0
300
1:5
140
1.0
141
5.0
290
     0
  0
SCALE
  5
3A5
102
{ACAD_REACTORS
330
3A0
102
}
330
3A0
100
AcDbScale
 70
     0
300
1:8
140
1.0
141
8.0
290
     0
  0
SCALE
  5
3A6
102
{ACAD_REACTORS
330
3A0
102
}
330
3A0
100
AcDbScale
 70
     0
300
1:10
140
1.0
141
10.0
290
     0
  0
SCALE
  5
3A7
102
{ACAD_REACTORS
330
3A0
102
}
330
3A0
100
AcDbScale
 70
     0
300
1:16
140
1.0
141
16.0
290
     0
  0
SCALE
  5
3A8
102
{ACAD_REACTORS
330
3A0
102
}
330
3A0
100
AcDbScale
 70
     0
300
1:20
140
1.0
141
20.0
290
     0
  0
SCALE
  5
3A9
102
{ACAD_REACTORS
330
3A0
102
}
330
3A0
100
AcDbScale
 70
     0
300
1:30
140
1.0
141
30.0
290
     0
  0
SCALE
  5
3AA
102
{ACAD_REACTORS
330
3A0
102
}
330
3A0
100
AcDbScale
 70
     0
300
1:40
140
1.0
141
40.0
290
     0
  0
SCALE
  5
3AB
102
{ACAD_REACTORS
330
3A0
102
}
330
3A0
100
AcDbScale
 70
     0
300
1:50
140
1.0
141
50.0
290
     0
  0
SCALE
  5
3AC
102
{ACAD_REACTORS
330
3A0
102
}
330
3A0
100
AcDbScale
 70
     0
300
1:100
140
1.0
141
100.0
290
     0
  0
SCALE
  5
3AD
102
{ACAD_REACTORS
330
3A0
102
}
330
3A0
100
AcDbScale
 70
     0
300
2:1
140
2.0
141
1.0
290
     0
  0
SCALE
  5
3AE
102
{ACAD_REACTORS
330
3A0
102
}
330
3A0
100
AcDbScale
 70
     0
300
4:1
140
4.0
141
1.0
290
     0
  0
SCALE
  5
3AF
102
{ACAD_REACTORS
330
3A0
102
}
330
3A0
100
AcDbScale
 70
     0
300
8:1
140
8.0
141
1.0
290
     0
  0
SCALE
  5
3B0
102
{ACAD_REACTORS
330
3A0
102
}
330
3A0
100
AcDbScale
 70
     0
300
10:1
140
10.0
141
1.0
290
     0
  0
SCALE
  5
3B1
102
{ACAD_REACTORS
330
3A0
102
}
330
3A0
100
AcDbScale
 70
     0
300
100:1
140
100.0
141
1.0
290
     0
  0
SCALE
  5
3B2
102
{ACAD_REACTORS
330
3A0
102
}
330
3A0
100
AcDbScale
 70
     0
300
1/128" = 1'-0"
140
0.0078125
141
12.0
290
     0
  0
SCALE
  5
3B3
102
{ACAD_REACTORS
330
3A0
102
}
330
3A0
100
AcDbScale
 70
     0
300
1/64" = 1'-0"
140
0.015625
141
12.0
290
     0
  0
SCALE
  5
3B4
102
{ACAD_REACTORS
330
3A0
102
}
330
3A0
100
AcDbScale
 70
     0
300
1/32" = 1'-0"
140
0.03125
141
12.0
290
     0
  0
SCALE
  5
3B5
102
{ACAD_REACTORS
330
3A0
102
}
330
3A0
100
AcDbScale
 70
     0
300
1/16" = 1'-0"
140
0.0625
141
12.0
290
     0
  0
SCALE
  5
3B6
102
{ACAD_REACTORS
330
3A0
102
}
330
3A0
100
AcDbScale
 70
     0
300
3/32" = 1'-0"
140
0.09375
141
12.0
290
     0
  0
SCALE
  5
3B7
102
{ACAD_REACTORS
330
3A0
102
}
330
3A0
100
AcDbScale
 70
     0
300
1/8" = 1'-0"
140
0.125
141
12.0
290
     0
  0
SCALE
  5
3B8
102
{ACAD_REACTORS
330
3A0
102
}
330
3A0
100
AcDbScale
 70
     0
300
3/16" = 1'-0"
140
0.1875
141
12.0
290
     0
  0
SCALE
  5
3B9
102
{ACAD_REACTORS
330
3A0
102
}
330
3A0
100
AcDbScale
 70
     0
300
1/4" = 1'-0"
140
0.25
141
12.0
290
     0
  0
SCALE
  5
3BA
102
{ACAD_REACTORS
330
3A0
102
}
330
3A0
100
AcDbScale
 70
     0
300
3/8" = 1'-0"
140
0.375
141
12.0
290
     0
  0
SCALE
  5
3BB
102
{ACAD_REACTORS
330
3A0
102
}
330
3A0
100
AcDbScale
 70
     0
300
1/2" = 1'-0"
140
0.5
141
12.0
290
     0
  0
SCALE
  5
3BC
102
{ACAD_REACTORS
330
3A0
102
}
330
3A0
100
AcDbScale
 70
     0
300
3/4" = 1'-0"
140
0.75
141
12.0
290
     0
  0
SCALE
  5
3BD
102
{ACAD_REACTORS
330
3A0
102
}
330
3A0
100
AcDbScale
 70
     0
300
1" = 1'-0"
140
1.0
141
12.0
290
     0
  0
SCALE
  5
3BE
102
{ACAD_REACTORS
330
3A0
102
}
330
3A0
100
AcDbScale
 70
     0
300
1-1/2" = 1'-0"
140
1.5
141
12.0
290
     0
  0
SCALE
  5
3BF
102
{ACAD_REACTORS
330
3A0
102
}
330
3A0
100
AcDbScale
 70
     0
300
3" = 1'-0"
140
3.0
141
12.0
290
     0
  0
SCALE
  5
3C0
102
{ACAD_REACTORS
330
3A0
102
}
330
3A0
100
AcDbScale
 70
     0
300
6" = 1'-0"
140
6.0
141
12.0
290
     0
  0
SCALE
  5
3C1
102
{ACAD_REACTORS
330
3A0
102
}
330
3A0
100
AcDbScale
 70
     0
300
1'-0" = 1'-0"
140
12.0
141
12.0
290
     0
  0
ACDBSECTIONVIEWSTYLE
  5
78B
102
{ACAD_XDICTIONARY
360
74BB
102
}
102
{ACAD_REACTORS
330
593
102
}
330
593
100
AcDbModelDocViewStyle
 70
     0
  3
Imperial24
290
     0
100
AcDbSectionViewStyle
 70
     0
 71
     0
 90
       78
 71
     1
340
10
 40
0.24
340
0
340
0
 40
0.24
300
I, O, Q, S, X, Z
 40
0.48
 90
        3
 40
0.18
 90
        1
 71
     2
340
14
 90
       25
340
14
 90
       50
 40
0.24
 40
0.0
 40
0.24
 71
     3
340
10
 40
0.24
 90
        1
 40
0.75
 90
        1
300
%<\AcVar ViewType \f "%tc1">% %<\AcVar ViewSectionStartId>%-%<\AcVar ViewSectionEndId>%\PSCALE %<\AcVar ViewScale \f "%sn">%
 71
     4
300
ANSI31
 40
1.0
 90
        0
290
     0
290
     0
 90
        6
 40
0.0
 40
1.570796326794896
 40
0.2617993877991494
 40
1.308996938995747
 40
-0.2617993877991494
 40
1.832595714594044
  0
ACDBSECTIONVIEWSTYLE
  5
594
102
{ACAD_XDICTIONARY
360
74B5
102
}
102
{ACAD_REACTORS
330
593
102
}
330
593
100
AcDbModelDocViewStyle
 70
     0
  3
Metric50
290
     0
100
AcDbSectionViewStyle
 70
     0
 71
     0
 90
      102
 71
     1
340
10
 40
5.0
340
0
340
0
 40
5.0
300
I, O, Q, S, X, Z
 40
10.0
 90
        0
 40
2.5
 90
        0
 71
     2
340
14
 90
       25
340
14
 90
       50
 40
5.0
 40
2.5
 40
5.0
 71
     3
340
10
 40
5.0
 90
        0
 40
15.0
 90
        1
300
%<\AcVar ViewSectionStartId>%-%<\AcVar ViewSectionEndId>% (%<\AcVar ViewScale \f "%sn">%)
 71
     4
300
ANSI31
 40
1.0
 90
        0
290
     0
290
     0
 90
        6
 40
0.0
 40
1.570796326794896
 40
0.2617993877991494
 40
1.308996938995747
 40
-0.2617993877991494
 40
1.832595714594044
  0
TABLESTYLE
  5
389
102
{ACAD_XDICTIONARY
360
5C6
102
}
102
{ACAD_REACTORS
330
388
102
}
330
388
100
AcDbTableStyle
  3
Standard
 70
     0
 71
     0
 40
1.5
 41
1.5
280
     0
281
     0
  7
STANDARD
140
4.5
170
     2
 62
     0
 63
     7
283
     0
274
    -2
284
     1
 64
     0
275
    -2
285
     1
 65
     0
276
    -2
286
     1
 66
     0
277
    -2
287
     1
 67
     0
278
    -2
288
     1
 68
     0
279
    -2
289
     1
 69
     0
  7
STANDARD
140
6.0
170
     5
 62
     0
 63
     7
283
     0
274
    -2
284
     1
 64
     0
275
    -2
285
     1
 65
     0
276
    -2
286
     1
 66
     0
277
    -2
287
     1
 67
     0
278
    -2
288
     1
 68
     0
279
    -2
289
     1
 69
     0
  7
STANDARD
140
4.5
170
     5
 62
     0
 63
     7
283
     0
274
    -2
284
     1
 64
     0
275
    -2
285
     1
 65
     0
276
    -2
286
     1
 66
     0
277
    -2
287
     1
 67
     0
278
    -2
288
     1
 68
     0
279
    -2
289
     1
 69
     0
  0
VISUALSTYLE
  5
3C7
102
{ACAD_XDICTIONARY
360
748D
102
}
102
{ACAD_REACTORS
330
3C2
102
}
330
3C2
100
AcDbVisualStyle
  2

 70
     4
 71
     0
 72
     2
 73
     0
 90
        0
 40
-0.6
 41
-30.0
 62
     5
 63
     7
 74
     1
 91
        4
 64
     7
 65
   257
 75
     1
175
     1
 42
1.0
 92
        0
 66
   257
 43
1.0
 76
     1
 77
     6
 78
     2
 67
     7
 79
     5
170
     0
171
     0
290
     0
174
     0
 93
        1
 44
0.0
173
     0
291
     0
 45
0.0
1001
ACAD
1000
AcDbSavedByObjectVersion
1070
     0
  0
VISUALSTYLE
  5
3CA
102
{ACAD_XDICTIONARY
360
7493
102
}
102
{ACAD_REACTORS
330
3C2
102
}
330
3C2
100
AcDbVisualStyle
  2

 70
     7
 71
     1
 72
     0
 73
     1
 90
        0
 40
-0.6
 41
-30.0
 62
     5
 63
     7
 74
     0
 91
        4
 64
     7
 65
   257
 75
     1
175
     1
 42
1.0
 92
        8
 66
     7
 43
1.0
 76
     1
 77
     6
 78
     2
 67
     7
 79
     5
170
     0
171
     0
290
     0
174
     0
 93
        1
 44
0.0
173
     0
291
     1
 45
0.0
1001
ACAD
1000
AcDbSavedByObjectVersion
1070
     0
  0
VISUALSTYLE
  5
3CE
102
{ACAD_XDICTIONARY
360
749B
102
}
102
{ACAD_REACTORS
330
3C2
102
}
330
3C2
100
AcDbVisualStyle
  2

 70
    12
 71
     2
 72
     2
 73
     0
 90
        0
 40
-0.6
 41
-30.0
 62
     5
 63
     7
 74
     1
 91
        4
 64
     7
 65
   257
 75
     1
175
     1
 42
1.0
 92
        8
 66
     7
 43
1.0
 76
     1
 77
     6
 78
     2
 67
     7
 79
     5
170
     0
171
     0
290
     0
174
     0
 93
        1
 44
50.0
173
     0
291
     1
 45
0.0
1001
ACAD
1000
AcDbSavedByObjectVersion
1070
     0
  0
VISUALSTYLE
  5
3D2
102
{ACAD_XDICTIONARY
360
74A3
102
}
102
{ACAD_REACTORS
330
3C2
102
}
330
3C2
100
AcDbVisualStyle
  2

 70
    16
 71
     2
 72
     2
 73
     3
 90
        0
 40
-0.6
 41
-30.0
 62
     5
 63
     8
 74
     1
 91
        4
 64
     7
 65
   257
 75
     1
175
     1
 42
1.0
 92
        8
 66
     8
 43
1.0
 76
     1
 77
     6
 78
     2
 67
     7
 79
     5
170
     0
171
     0
290
     0
174
     0
 93
        1
 44
0.0
173
     0
291
     1
 45
0.0
1001
ACAD
1000
AcDbSavedByObjectVersion
1070
     0
  0
VISUALSTYLE
  5
3CC
102
{ACAD_XDICTIONARY
360
7497
102
}
102
{ACAD_REACTORS
330
3C2
102
}
330
3C2
100
AcDbVisualStyle
  2

 70
     9
 71
     3
 72
     2
 73
     0
 90
        0
 40
-0.6
 41
-30.0
 62
     5
 63
     7
 74
     2
 91
        2
 64
     7
 65
   257
 75
     1
175
     1
 42
179.0
 92
        8
 66
     7
 43
1.0
 76
     1
 77
     6
 78
     2
 67
     7
 79
     3
170
     0
171
     0
290
     0
174
     0
 93
        1
 44
0.0
173
     0
291
     0
 45
0.0
1001
ACAD
1000
AcDbSavedByObjectVersion
1070
     0
  0
VISUALSTYLE
  5
3CD
102
{ACAD_XDICTIONARY
360
7499
102
}
102
{ACAD_REACTORS
330
3C2
102
}
330
3C2
100
AcDbVisualStyle
  2

 70
    11
 71
     2
 72
     2
 73
     0
 90
        0
 40
-0.6
 41
-30.0
 62
     5
 63
     7
 74
     1
 91
        4
 64
     7
 65
   257
 75
     1
175
     1
 42
1.0
 92
        8
 66
     7
 43
1.0
 76
     1
 77
     6
 78
     2
 67
     7
 79
     5
170
     0
171
     0
290
     0
174
     0
 93
        1
 44
-50.0
173
     0
291
     1
 45
0.0
1001
ACAD
1000
AcDbSavedByObjectVersion
1070
     0
  0
VISUALSTYLE
  5
3D5
102
{ACAD_XDICTIONARY
360
74A9
102
}
102
{ACAD_REACTORS
330
3C2
102
}
330
3C2
100
AcDbVisualStyle
  2

 70
    22
 71
     2
 72
     2
 73
     0
 90
        0
 40
-0.6
 41
-30.0
 62
     5
 63
     7
 74
     1
 91
        4
 64
     7
 65
   257
 75
     1
175
     1
 42
1.0
 92
        8
 66
     7
 43
1.0
 76
     1
 77
     6
 78
     2
 67
     7
 79
     5
170
     0
171
     0
290
     0
174
     0
 93
        1
 44
0.0
173
     0
291
     1
 45
0.0
1001
ACAD
1000
AcDbSavedByObjectVersion
1070
     0
  0
VISUALSTYLE
  5
3D1
102
{ACAD_XDICTIONARY
360
74A1
102
}
102
{ACAD_REACTORS
330
3C2
102
}
330
3C2
100
AcDbVisualStyle
  2

 70
    15
 71
     2
 72
     2
 73
     0
 90
        0
 40
-0.6
 41
-30.0
 62
     5
 63
     7
 74
     1
 91
        4
 64
     7
 65
   257
 75
     1
175
     1
 42
1.0
 92
        8
 66
     7
 43
1.0
 76
     1
 77
     6
 78
     2
 67
     7
 79
     5
170
     0
171
     0
290
     0
174
     0
 93
        1
 44
0.0
173
     0
291
     1
 45
0.0
1001
ACAD
1000
AcDbSavedByObjectVersion
1070
     0
  0
VISUALSTYLE
  5
3C3
102
{ACAD_XDICTIONARY
360
7485
102
}
102
{ACAD_REACTORS
330
3C2
102
}
330
3C2
100
AcDbVisualStyle
  2

 70
     0
 71
     2
 72
     1
 73
     1
 90
        2
 40
-0.6
 41
30.0
 62
     5
 63
     7
 74
     0
 91
        0
 64
     7
 65
   257
 75
     1
175
     1
 42
1.0
 92
        8
 66
     7
 43
1.0
 76
     1
 77
     6
 78
     2
 67
     7
 79
     5
170
     0
171
     0
290
     0
174
     0
 93
       13
 44
0.0
173
     0
291
     1
 45
0.0
1001
ACAD
1000
AcDbSavedByObjectVersion
1070
     0
  0
VISUALSTYLE
  5
3C4
102
{ACAD_XDICTIONARY
360
7487
102
}
102
{ACAD_REACTORS
330
3C2
102
}
330
3C2
100
AcDbVisualStyle
  2

 70
     1
 71
     2
 72
     1
 73
     1
 90
        2
 40
-0.6
 41
30.0
 62
     5
 63
     7
 74
     1
 91
        0
 64
     7
 65
   257
 75
     1
175
     1
 42
1.0
 92
        0
 66
   257
 43
1.0
 76
     1
 77
     6
 78
     2
 67
     7
 79
     5
170
     0
171
     0
290
     0
174
     0
 93
       13
 44
0.0
173
     0
291
     1
 45
0.0
1001
ACAD
1000
AcDbSavedByObjectVersion
1070
     0
  0
VISUALSTYLE
  5
3C5
102
{ACAD_XDICTIONARY
360
7489
102
}
102
{ACAD_REACTORS
330
3C2
102
}
330
3C2
100
AcDbVisualStyle
  2

 70
     2
 71
     2
 72
     2
 73
     1
 90
        2
 40
-0.6
 41
30.0
 62
     5
 63
     7
 74
     0
 91
        0
 64
     7
 65
   257
 75
     1
175
     1
 42
1.0
 92
        0
 66
     7
 43
1.0
 76
     1
 77
     6
 78
     2
 67
     7
 79
     5
170
     0
171
     0
290
     0
174
     0
 93
       13
 44
0.0
173
     0
291
     1
 45
0.0
1001
ACAD
1000
AcDbSavedByObjectVersion
1070
     0
  0
VISUALSTYLE
  5
3C6
102
{ACAD_XDICTIONARY
360
748B
102
}
102
{ACAD_REACTORS
330
3C2
102
}
330
3C2
100
AcDbVisualStyle
  2

 70
     3
 71
     2
 72
     2
 73
     1
 90
        2
 40
-0.6
 41
30.0
 62
     5
 63
     7
 74
     1
 91
        0
 64
     7
 65
   257
 75
     1
175
     1
 42
1.0
 92
        0
 66
   257
 43
1.0
 76
     1
 77
     6
 78
     2
 67
     7
 79
     5
170
     0
171
     0
290
     0
174
     0
 93
       13
 44
0.0
173
     0
291
     1
 45
0.0
1001
ACAD
1000
AcDbSavedByObjectVersion
1070
     0
  0
VISUALSTYLE
  5
3C9
102
{ACAD_XDICTIONARY
360
7491
102
}
102
{ACAD_REACTORS
330
3C2
102
}
330
3C2
100
AcDbVisualStyle
  2

 70
     6
 71
     1
 72
     2
 73
     2
 90
        0
 40
-0.6
 41
-30.0
 62
     5
 63
     7
 74
     2
 91
        2
 64
     7
 65
   257
 75
     2
175
     1
 42
40.0
 92
        0
 66
   257
 43
1.0
 76
     1
 77
     6
 78
     2
 67
     7
 79
     3
170
     0
171
     0
290
     0
174
     0
 93
        1
 44
0.0
173
     0
291
     0
 45
0.0
1001
ACAD
1000
AcDbSavedByObjectVersion
1070
     0
  0
VISUALSTYLE
  5
3D3
102
{ACAD_XDICTIONARY
360
74A5
102
}
102
{ACAD_REACTORS
330
3C2
102
}
330
3C2
100
AcDbVisualStyle
  2

 70
    20
 71
     2
 72
     2
 73
     0
 90
        0
 40
-0.6
 41
-30.0
 62
     5
 63
     7
 74
     1
 91
        4
 64
     7
 65
   257
 75
     1
175
     1
 42
1.0
 92
       10
 66
     7
 43
1.0
 76
     1
 77
     6
 78
     2
 67
     7
 79
     5
170
     0
171
     0
290
     0
174
     0
 93
        1
 44
0.0
173
     0
291
     1
 45
0.0
1001
ACAD
1000
AcDbSavedByObjectVersion
1070
     0
  0
VISUALSTYLE
  5
3D0
102
{ACAD_XDICTIONARY
360
749F
102
}
102
{ACAD_REACTORS
330
3C2
102
}
330
3C2
100
AcDbVisualStyle
  2

 70
    14
 71
     2
 72
     2
 73
     0
 90
        0
 40
-0.6
 41
-30.0
 62
     5
 63
     7
 74
     1
 91
        4
 64
     7
 65
   257
 75
     7
175
     7
 42
1.0
 92
        8
 66
     7
 43
1.0
 76
     1
 77
     6
 78
     2
 67
     7
 79
     5
170
     0
171
     0
290
     0
174
     0
 93
        1
 44
0.0
173
     0
291
     1
 45
0.0
1001
ACAD
1000
AcDbSavedByObjectVersion
1070
     0
  0
VISUALSTYLE
  5
3D4
102
{ACAD_XDICTIONARY
360
74A7
102
}
102
{ACAD_REACTORS
330
3C2
102
}
330
3C2
100
AcDbVisualStyle
  2

 70
    21
 71
     2
 72
     2
 73
     0
 90
        0
 40
-0.6
 41
-30.0
 62
     5
 63
     7
 74
     1
 91
        4
 64
     7
 65
   257
 75
     1
175
     1
 42
1.0
 92
        9
 66
     7
 43
1.0
 76
     1
 77
     6
 78
     2
 67
     7
 79
     5
170
     0
171
     0
290
     0
174
     0
 93
        1
 44
0.0
173
     0
291
     1
 45
0.0
1001
ACAD
1000
AcDbSavedByObjectVersion
1070
     0
  0
VISUALSTYLE
  5
3CB
102
{ACAD_XDICTIONARY
360
7495
102
}
102
{ACAD_REACTORS
330
3C2
102
}
330
3C2
100
AcDbVisualStyle
  2

 70
     8
 71
     2
 72
     3
 73
     0
 90
        2
 40
-0.6
 41
30.0
 62
     5
 63
     7
 74
     0
 91
        0
 64
     7
 65
   257
 75
     1
175
     1
 42
1.0
 92
        8
 66
   257
 43
1.0
 76
     1
 77
     6
 78
     2
 67
     7
 79
     3
170
     0
171
     0
290
     0
174
     0
 93
       13
 44
0.0
173
     0
291
     0
 45
0.0
1001
ACAD
1000
AcDbSavedByObjectVersion
1070
     0
  0
VISUALSTYLE
  5
3DA
102
{ACAD_XDICTIONARY
360
74B3
102
}
102
{ACAD_REACTORS
330
3C2
102
}
330
3C2
100
AcDbVisualStyle
  2

 70
    27
 71
     2
 72
     2
 73
     1
 90
        2
 40
-0.6
 41
30.0
 62
     5
 63
     7
 74
     0
 91
        4
 64
     7
 65
   257
 75
     1
175
     1
 42
1.0
 92
        8
 66
   257
 43
1.0
 76
     1
 77
     6
 78
     2
 67
     8
 79
     3
170
     0
171
     0
290
     0
174
     0
 93
        5
 44
0.0
173
     0
291
     0
 45
0.0
1001
ACAD
1000
AcDbSavedByObjectVersion
1070
     0
  0
VISUALSTYLE
  5
3D9
102
{ACAD_XDICTIONARY
360
74B1
102
}
102
{ACAD_REACTORS
330
3C2
102
}
330
3C2
100
AcDbVisualStyle
  2

 70
    26
 71
     2
 72
     2
 73
     1
 90
        2
 40
-0.6
 41
30.0
 62
     5
 63
     7
 74
     1
 91
        2
 64
     7
 65
   257
 75
     2
175
     1
 42
1.0
 92
        8
 66
   257
 43
1.0
 76
     1
 77
     6
 78
     2
 67
     7
 79
     3
170
     0
171
     0
290
     0
174
     0
 93
        5
 44
0.0
173
     0
291
     0
 45
0.0
1001
ACAD
1000
AcDbSavedByObjectVersion
1070
     0
  0
VISUALSTYLE
  5
3D6
102
{ACAD_XDICTIONARY
360
74AB
102
}
102
{ACAD_REACTORS
330
3C2
102
}
330
3C2
100
AcDbVisualStyle
  2

 70
    23
 71
     2
 72
     2
 73
     3
 90
        0
 40
-0.6
 41
-30.0
 62
     5
 63
     7
 74
     2
 91
        2
 64
     7
 65
     7
 75
     1
175
     1
 42
40.0
 92
        8
 66
     7
 43
1.0
 76
     1
 77
     6
 78
     2
 67
     7
 79
     3
170
     0
171
     0
290
     0
174
     0
 93
        1
 44
0.0
173
     0
291
     0
 45
0.0
1001
ACAD
1000
AcDbSavedByObjectVersion
1070
     0
  0
VISUALSTYLE
  5
3D7
102
{ACAD_XDICTIONARY
360
74AD
102
}
102
{ACAD_REACTORS
330
3C2
102
}
330
3C2
100
AcDbVisualStyle
  2

 70
    24
 71
     1
 72
     2
 73
     2
 90
        0
 40
-0.6
 41
-30.0
 62
     5
 63
     7
 74
     2
 91
        2
 64
     7
 65
     7
 75
     1
175
     1
 42
40.0
 92
       11
 66
     7
 43
1.0
 76
     1
 77
     6
 78
     2
 67
     7
 79
     6
170
     0
171
     0
290
     0
174
     0
 93
        1
 44
0.0
173
     0
291
     0
 45
0.0
1001
ACAD
1000
AcDbSavedByObjectVersion
1070
     0
  0
VISUALSTYLE
  5
3CF
102
{ACAD_XDICTIONARY
360
749D
102
}
102
{ACAD_REACTORS
330
3C2
102
}
330
3C2
100
AcDbVisualStyle
  2

 70
    13
 71
     2
 72
     2
 73
     0
 90
        0
 40
-0.6
 41
-30.0
 62
     5
 63
     7
 74
     1
 91
        4
 64
     7
 65
   257
 75
     1
175
     1
 42
1.0
 92
       12
 66
     7
 43
1.0
 76
     1
 77
     6
 78
     2
 67
     7
 79
     5
170
     0
171
     0
290
     0
174
     0
 93
        1
 44
0.0
173
     0
291
     1
 45
0.0
1001
ACAD
1000
AcDbSavedByObjectVersion
1070
     0
  0
VISUALSTYLE
  5
3C8
102
{ACAD_XDICTIONARY
360
748F
102
}
102
{ACAD_REACTORS
330
3C2
102
}
330
3C2
100
AcDbVisualStyle
  2

 70
     5
 71
     0
 72
     2
 73
     0
 90
        0
 40
-0.6
 41
-30.0
 62
     5
 63
     7
 74
     1
 91
        4
 64
     7
 65
   257
 75
     1
175
     1
 42
1.0
 92
        0
 66
   257
 43
1.0
 76
     1
 77
     6
 78
     2
 67
     7
 79
     3
170
     0
171
     0
290
     0
174
     0
 93
        1
 44
0.0
173
     0
291
     0
 45
0.0
1001
ACAD
1000
AcDbSavedByObjectVersion
1070
     0
  0
VISUALSTYLE
  5
3D8
102
{ACAD_XDICTIONARY
360
74AF
102
}
102
{ACAD_REACTORS
330
3C2
102
}
330
3C2
100
AcDbVisualStyle
  2

 70
    25
 71
     2
 72
     2
 73
     1
 90
        1
 40
0.5
 41
-30.0
 62
     5
 63
     7
 74
     1
 91
        0
 64
     7
 65
   257
 75
     1
175
     1
 42
1.0
 92
        8
 66
     7
 43
1.0
 76
     1
 77
     6
 78
     2
 67
     7
 79
     3
170
     0
171
     0
290
     0
174
     0
 93
       13
 44
0.0
173
     0
291
     0
 45
0.0
1001
ACAD
1000
AcDbSavedByObjectVersion
1070
     0
  0
DICTIONARYVAR
  5
656
102
{ACAD_REACTORS
330
357
102
}
330
357
100
DictionaryVariables
280
     0
  1
0
  0
DICTIONARYVAR
  5
557
102
{ACAD_REACTORS
330
357
102
}
330
357
100
DictionaryVariables
280
     0
  1
1:1
  0
DICTIONARYVAR
  5
54E
102
{ACAD_REACTORS
330
357
102
}
330
357
100
DictionaryVariables
280
     0
  1
STANDARD
  0
DICTIONARYVAR
  5
38D
102
{ACAD_REACTORS
330
357
102
}
330
357
100
DictionaryVariables
280
     0
  1
STANDARD
  0
DICTIONARYVAR
  5
5C2
102
{ACAD_REACTORS
330
357
102
}
330
357
100
DictionaryVariables
280
     0
  1
Metric50
  0
DICTIONARYVAR
  5
5C3
102
{ACAD_REACTORS
330
357
102
}
330
357
100
DictionaryVariables
280
     0
  1
Metric50
  0
DICTIONARYVAR
  5
359
102
{ACAD_REACTORS
330
357
102
}
330
357
100
DictionaryVariables
280
     0
  1
2
  0
DICTIONARYVAR
  5
358
102
{ACAD_REACTORS
330
357
102
}
330
357
100
DictionaryVariables
280
     0
  1
1
  0
DICTIONARYVAR
  5
658
102
{ACAD_REACTORS
330
357
102
}
330
357
100
DictionaryVariables
280
     0
  1
0
  0
DICTIONARYVAR
  5
54F
102
{ACAD_REACTORS
330
357
102
}
330
357
100
DictionaryVariables
280
     0
  1
0
  0
DICTIONARYVAR
  5
38E
102
{ACAD_REACTORS
330
357
102
}
330
357
100
DictionaryVariables
280
     0
  1

  0
DICTIONARYVAR
  5
657
102
{ACAD_REACTORS
330
357
102
}
330
357
100
DictionaryVariables
280
     0
  1
127
  0
DICTIONARYVAR
  5
72FC
102
{ACAD_REACTORS
330
357
102
}
330
357
100
DictionaryVariables
280
     0
  1
2
  0
XRECORD
  5
16FB
102
{ACAD_REACTORS
330
16FA
102
}
330
16FA
100
AcDbXrecord
280
     1
  0
DICTIONARY
  5
74BD
330
78C
100
AcDbDictionary
280
     1
281
     1
  3
ACAD_XREC_ROUNDTRIP
360
74BE
  0
DICTIONARY
  5
74B7
330
596
100
AcDbDictionary
280
     1
281
     1
  3
ACAD_XREC_ROUNDTRIP
360
74B8
  0
DICTIONARY
  5
7482
330
33B
100
AcDbDictionary
280
     1
281
     1
  3
ACAD_XREC_ROUNDTRIP
360
7483
  0
DICTIONARY
  5
7480
330
303
100
AcDbDictionary
280
     1
281
     1
  3
ACAD_XREC_ROUNDTRIP
360
7481
  0
DICTIONARY
  5
55A
330
3DC
100
AcDbDictionary
280
     1
281
     1
  3
ACAD_XREC_ROUNDTRIP
360
55B
  0
DICTIONARY
  5
558
330
3DB
100
AcDbDictionary
280
     1
281
     1
  3
ACAD_XREC_ROUNDTRIP
360
559
  0
DICTIONARY
  5
55C
330
3DD
100
AcDbDictionary
280
     1
281
     1
  3
ACAD_XREC_ROUNDTRIP
360
55D
  0
DICTIONARY
  5
74BB
330
78B
100
AcDbDictionary
280
     1
281
     1
  3
ACAD_XREC_ROUNDTRIP
360
74BC
  0
DICTIONARY
  5
74B5
330
594
100
AcDbDictionary
280
     1
281
     1
  3
ACAD_XREC_ROUNDTRIP
360
74B6
  0
DICTIONARY
  5
5C6
330
389
100
AcDbDictionary
280
     1
281
     1
  3
ACAD_ROUNDTRIP_2008_TABLESTYLE_CELLSTYLEMAP
360
7477
  3
ACAD_XREC_ROUNDTRIP
360
7484
  0
DICTIONARY
  5
748D
330
3C7
100
AcDbDictionary
280
     1
281
     1
  3
ACAD_XREC_ROUNDTRIP
360
748E
  0
DICTIONARY
  5
7493
330
3CA
100
AcDbDictionary
280
     1
281
     1
  3
ACAD_XREC_ROUNDTRIP
360
7494
  0
DICTIONARY
  5
749B
330
3CE
100
AcDbDictionary
280
     1
281
     1
  3
ACAD_XREC_ROUNDTRIP
360
749C
  0
DICTIONARY
  5
74A3
330
3D2
100
AcDbDictionary
280
     1
281
     1
  3
ACAD_XREC_ROUNDTRIP
360
74A4
  0
DICTIONARY
  5
7497
330
3CC
100
AcDbDictionary
280
     1
281
     1
  3
ACAD_XREC_ROUNDTRIP
360
7498
  0
DICTIONARY
  5
7499
330
3CD
100
AcDbDictionary
280
     1
281
     1
  3
ACAD_XREC_ROUNDTRIP
360
749A
  0
DICTIONARY
  5
74A9
330
3D5
100
AcDbDictionary
280
     1
281
     1
  3
ACAD_XREC_ROUNDTRIP
360
74AA
  0
DICTIONARY
  5
74A1
330
3D1
100
AcDbDictionary
280
     1
281
     1
  3
ACAD_XREC_ROUNDTRIP
360
74A2
  0
DICTIONARY
  5
7485
330
3C3
100
AcDbDictionary
280
     1
281
     1
  3
ACAD_XREC_ROUNDTRIP
360
7486
  0
DICTIONARY
  5
7487
330
3C4
100
AcDbDictionary
280
     1
281
     1
  3
ACAD_XREC_ROUNDTRIP
360
7488
  0
DICTIONARY
  5
7489
330
3C5
100
AcDbDictionary
280
     1
281
     1
  3
ACAD_XREC_ROUNDTRIP
360
748A
  0
DICTIONARY
  5
748B
330
3C6
100
AcDbDictionary
280
     1
281
     1
  3
ACAD_XREC_ROUNDTRIP
360
748C
  0
DICTIONARY
  5
7491
330
3C9
100
AcDbDictionary
280
     1
281
     1
  3
ACAD_XREC_ROUNDTRIP
360
7492
  0
DICTIONARY
  5
74A5
330
3D3
100
AcDbDictionary
280
     1
281
     1
  3
ACAD_XREC_ROUNDTRIP
360
74A6
  0
DICTIONARY
  5
749F
330
3D0
100
AcDbDictionary
280
     1
281
     1
  3
ACAD_XREC_ROUNDTRIP
360
74A0
  0
DICTIONARY
  5
74A7
330
3D4
100
AcDbDictionary
280
     1
281
     1
  3
ACAD_XREC_ROUNDTRIP
360
74A8
  0
DICTIONARY
  5
7495
330
3CB
100
AcDbDictionary
280
     1
281
     1
  3
ACAD_XREC_ROUNDTRIP
360
7496
  0
DICTIONARY
  5
74B3
330
3DA
100
AcDbDictionary
280
     1
281
     1
  3
ACAD_XREC_ROUNDTRIP
360
74B4
  0
DICTIONARY
  5
74B1
330
3D9
100
AcDbDictionary
280
     1
281
     1
  3
ACAD_XREC_ROUNDTRIP
360
74B2
  0
DICTIONARY
  5
74AB
330
3D6
100
AcDbDictionary
280
     1
281
     1
  3
ACAD_XREC_ROUNDTRIP
360
74AC
  0
DICTIONARY
  5
74AD
330
3D7
100
AcDbDictionary
280
     1
281
     1
  3
ACAD_XREC_ROUNDTRIP
360
74AE
  0
DICTIONARY
  5
749D
330
3CF
100
AcDbDictionary
280
     1
281
     1
  3
ACAD_XREC_ROUNDTRIP
360
749E
  0
DICTIONARY
  5
748F
330
3C8
100
AcDbDictionary
280
     1
281
     1
  3
ACAD_XREC_ROUNDTRIP
360
7490
  0
DICTIONARY
  5
74AF
330
3D8
100
AcDbDictionary
280
     1
281
     1
  3
ACAD_XREC_ROUNDTRIP
360
74B0
  0
XRECORD
  5
74BE
102
{ACAD_REACTORS
330
74BD
102
}
330
74BD
100
AcDbXrecord
280
     1
102
DISPLAYNAME
  1
Imperial24
102
FLAGS
 90
        0
  0
XRECORD
  5
74B8
102
{ACAD_REACTORS
330
74B7
102
}
330
74B7
100
AcDbXrecord
280
     1
102
DISPLAYNAME
  1
Metric50
102
FLAGS
 90
        0
  0
XRECORD
  5
7483
102
{ACAD_REACTORS
330
7482
102
}
330
7482
100
AcDbXrecord
280
     1
102
SHADEPLOT
 70
     0
102
SHADEPLOTRESLEVEL
 70
     2
102
SHADEPLOTCUSTOMDPI
 70
   300
  0
XRECORD
  5
7481
102
{ACAD_REACTORS
330
7480
102
}
330
7480
100
AcDbXrecord
280
     1
102
SHADEPLOT
 70
     0
102
SHADEPLOTRESLEVEL
 70
     2
102
SHADEPLOTCUSTOMDPI
 70
   300
  0
XRECORD
  5
55B
102
{ACAD_REACTORS
330
55A
102
}
330
55A
100
AcDbXrecord
280
     1
102
MATERIAL
148
0.0
149
0.0
149
0.0
 93
        0
 94
      127
282
     0
 72
     1
 77
     1
171
     1
175
     1
179
     1
273
     0
  0
XRECORD
  5
559
102
{ACAD_REACTORS
330
558
102
}
330
558
100
AcDbXrecord
280
     1
102
MATERIAL
148
0.0
149
0.0
149
0.0
 93
        0
 94
      127
282
     0
 72
     1
 77
     1
171
     1
175
     1
179
     1
273
     0
  0
XRECORD
  5
55D
102
{ACAD_REACTORS
330
55C
102
}
330
55C
100
AcDbXrecord
280
     1
102
MATERIAL
148
0.0
149
0.0
149
0.0
 93
        0
 94
      127
282
     0
 72
     1
 77
     1
171
     1
175
     1
179
     1
273
     0
  0
XRECORD
  5
74BC
102
{ACAD_REACTORS
330
74BB
102
}
330
74BB
100
AcDbXrecord
280
     1
102
DISPLAYNAME
  1
Imperial24
102
FLAGS
 90
        0
  0
XRECORD
  5
74B6
102
{ACAD_REACTORS
330
74B5
102
}
330
74B5
100
AcDbXrecord
280
     1
102
DISPLAYNAME
  1
Metric50
102
FLAGS
 90
        0
  0
CELLSTYLEMAP
  5
7477
102
{ACAD_REACTORS
330
5C6
102
}
330
5C6
100
AcDbCellStyleMap
 90
        3
300
CELLSTYLE
  1
TABLEFORMAT_BEGIN
 90
        5
170
     1
 91
        0
 92
    32768
 62
   257
 93
        1
300
CONTENTFORMAT
  1
CONTENTFORMAT_BEGIN
 90
        0
 91
        0
 92
        4
 93
        0
300

 40
0.0
140
1.0
 94
        5
 62
     0
340
10
144
6.0
309
CONTENTFORMAT_END
171
     1
301
MARGIN
  1
CELLMARGIN_BEGIN
 40
1.5
 40
1.5
 40
1.5
 40
1.5
 40
0.18
 40
0.18
309
CELLMARGIN_END
 94
        6
 95
        1
302
GRIDFORMAT
  1
GRIDFORMAT_BEGIN
 90
        0
 91
        1
 62
     0
 92
       -2
340
0
 93
        0
 40
0.045
309
GRIDFORMAT_END
 95
        2
302
GRIDFORMAT
  1
GRIDFORMAT_BEGIN
 90
        0
 91
        1
 62
     0
 92
       -2
340
0
 93
        0
 40
0.045
309
GRIDFORMAT_END
 95
        4
302
GRIDFORMAT
  1
GRIDFORMAT_BEGIN
 90
        0
 91
        1
 62
     0
 92
       -2
340
0
 93
        0
 40
0.045
309
GRIDFORMAT_END
 95
        8
302
GRIDFORMAT
  1
GRIDFORMAT_BEGIN
 90
        0
 91
        1
 62
     0
 92
       -2
340
0
 93
        0
 40
0.045
309
GRIDFORMAT_END
 95
       16
302
GRIDFORMAT
  1
GRIDFORMAT_BEGIN
 90
        0
 91
        1
 62
     0
 92
       -2
340
0
 93
        0
 40
0.045
309
GRIDFORMAT_END
 95
       32
302
GRIDFORMAT
  1
GRIDFORMAT_BEGIN
 90
        0
 91
        1
 62
     0
 92
       -2
340
0
 93
        0
 40
0.045
309
GRIDFORMAT_END
309
TABLEFORMAT_END
  1
CELLSTYLE_BEGIN
 90
        1
 91
        1
300
_TITLE
309
CELLSTYLE_END
300
CELLSTYLE
  1
TABLEFORMAT_BEGIN
 90
        5
170
     1
 91
        0
 92
        0
 62
   257
 93
        1
300
CONTENTFORMAT
  1
CONTENTFORMAT_BEGIN
 90
        0
 91
        0
 92
        4
 93
        0
300

 40
0.0
140
1.0
 94
        5
 62
     0
340
10
144
4.5
309
CONTENTFORMAT_END
171
     1
301
MARGIN
  1
CELLMARGIN_BEGIN
 40
1.5
 40
1.5
 40
1.5
 40
1.5
 40
0.18
 40
0.18
309
CELLMARGIN_END
 94
        6
 95
        1
302
GRIDFORMAT
  1
GRIDFORMAT_BEGIN
 90
        0
 91
        1
 62
     0
 92
       -2
340
0
 93
        0
 40
0.045
309
GRIDFORMAT_END
 95
        2
302
GRIDFORMAT
  1
GRIDFORMAT_BEGIN
 90
        0
 91
        1
 62
     0
 92
       -2
340
0
 93
        0
 40
0.045
309
GRIDFORMAT_END
 95
        4
302
GRIDFORMAT
  1
GRIDFORMAT_BEGIN
 90
        0
 91
        1
 62
     0
 92
       -2
340
0
 93
        0
 40
0.045
309
GRIDFORMAT_END
 95
        8
302
GRIDFORMAT
  1
GRIDFORMAT_BEGIN
 90
        0
 91
        1
 62
     0
 92
       -2
340
0
 93
        0
 40
0.045
309
GRIDFORMAT_END
 95
       16
302
GRIDFORMAT
  1
GRIDFORMAT_BEGIN
 90
        0
 91
        1
 62
     0
 92
       -2
340
0
 93
        0
 40
0.045
309
GRIDFORMAT_END
 95
       32
302
GRIDFORMAT
  1
GRIDFORMAT_BEGIN
 90
        0
 91
        1
 62
     0
 92
       -2
340
0
 93
        0
 40
0.045
309
GRIDFORMAT_END
309
TABLEFORMAT_END
  1
CELLSTYLE_BEGIN
 90
        2
 91
        1
300
_HEADER
309
CELLSTYLE_END
300
CELLSTYLE
  1
TABLEFORMAT_BEGIN
 90
        5
170
     1
 91
        0
 92
        0
 62
   257
 93
        1
300
CONTENTFORMAT
  1
CONTENTFORMAT_BEGIN
 90
        0
 91
        0
 92
        4
 93
        0
300

 40
0.0
140
1.0
 94
        2
 62
     0
340
10
144
4.5
309
CONTENTFORMAT_END
171
     1
301
MARGIN
  1
CELLMARGIN_BEGIN
 40
1.5
 40
1.5
 40
1.5
 40
1.5
 40
0.18
 40
0.18
309
CELLMARGIN_END
 94
        6
 95
        1
302
GRIDFORMAT
  1
GRIDFORMAT_BEGIN
 90
        0
 91
        1
 62
     0
 92
       -2
340
0
 93
        0
 40
0.045
309
GRIDFORMAT_END
 95
        2
302
GRIDFORMAT
  1
GRIDFORMAT_BEGIN
 90
        0
 91
        1
 62
     0
 92
       -2
340
0
 93
        0
 40
0.045
309
GRIDFORMAT_END
 95
        4
302
GRIDFORMAT
  1
GRIDFORMAT_BEGIN
 90
        0
 91
        1
 62
     0
 92
       -2
340
0
 93
        0
 40
0.045
309
GRIDFORMAT_END
 95
        8
302
GRIDFORMAT
  1
GRIDFORMAT_BEGIN
 90
        0
 91
        1
 62
     0
 92
       -2
340
0
 93
        0
 40
0.045
309
GRIDFORMAT_END
 95
       16
302
GRIDFORMAT
  1
GRIDFORMAT_BEGIN
 90
        0
 91
        1
 62
     0
 92
       -2
340
0
 93
        0
 40
0.045
309
GRIDFORMAT_END
 95
       32
302
GRIDFORMAT
  1
GRIDFORMAT_BEGIN
 90
        0
 91
        1
 62
     0
 92
       -2
340
0
 93
        0
 40
0.045
309
GRIDFORMAT_END
309
TABLEFORMAT_END
  1
CELLSTYLE_BEGIN
 90
        3
 91
        2
300
_DATA
309
CELLSTYLE_END
  0
XRECORD
  5
7484
102
{ACAD_REACTORS
330
5C6
102
}
330
5C6
100
AcDbXrecord
280
     1
102
ACAD_ROUNDTRIP_PRE2007_TABLESTYLE
 90
        4
 91
        0
  1

 92
        4
 93
        0
  2

 94
        4
 95
        0
  3

  0
XRECORD
  5
748E
102
{ACAD_REACTORS
330
748D
102
}
330
748D
100
AcDbXrecord
280
     1
102
RTVSPost2010Prop28
280
     1
102
RTVSPost2010PropOp28
 70
     1
102
RTVSPost2010Prop29
280
     1
102
RTVSPost2010PropOp29
 70
     1
102
RTVSPost2010Prop30
280
     0
102
RTVSPost2010PropOp30
 70
     1
102
RTVSPost2010Prop31
280
     0
102
RTVSPost2010PropOp31
 70
     1
102
RTVSPost2010Prop32
280
     0
102
RTVSPost2010PropOp32
 70
     1
102
RTVSPost2010Prop33
280
     0
102
RTVSPost2010PropOp33
 70
     1
102
RTVSPost2010Prop34
280
     0
102
RTVSPost2010PropOp34
 70
     1
102
RTVSPost2010Prop35
280
     0
102
RTVSPost2010PropOp35
 70
     1
102
RTVSPost2010Prop36
280
     0
102
RTVSPost2010PropOp36
 70
     1
102
RTVSPost2010Prop37
 90
       50
102
RTVSPost2010PropOp37
 70
     1
102
RTVSPost2010Prop38
140
0.0
102
RTVSPost2010PropOp38
 70
     1
102
RTVSPost2010Prop39
140
1.0
102
RTVSPost2010PropOp39
 70
     1
102
RTVSPost2010Prop40
 90
        0
102
RTVSPost2010PropOp40
 70
     1
102
RTVSPost2010Prop41ColorIndex
 90
       18
102
RTVSPost2010Prop41ColorRGB
 90
        0
102
RTVSPost2010PropOp41
 70
     1
102
RTVSPost2010Prop42
 90
       50
102
RTVSPost2010PropOp42
 70
     1
102
RTVSPost2010Prop43
 90
        3
102
RTVSPost2010PropOp43
 70
     1
102
RTVSPost2010Prop44ColorIndex
 90
        5
102
RTVSPost2010Prop44ColorRGB
 90
      255
102
RTVSPost2010PropOp44
 70
     1
102
RTVSPost2010Prop45
280
     0
102
RTVSPost2010PropOp45
 70
     1
102
RTVSPost2010Prop46
 90
       50
102
RTVSPost2010PropOp46
 70
     1
102
RTVSPost2010Prop47
 90
       50
102
RTVSPost2010PropOp47
 70
     1
102
RTVSPost2010Prop48
 90
       50
102
RTVSPost2010PropOp48
 70
     1
102
RTVSPost2010Prop49
280
     0
102
RTVSPost2010PropOp49
 70
     1
102
RTVSPost2010Prop50
 90
       50
102
RTVSPost2010PropOp50
 70
     1
102
RTVSPost2010Prop51ColorIndex
 90
      256
102
RTVSPost2010Prop51ColorRGB
 90
-16777216
102
RTVSPost2010PropOp51
 70
     0
102
RTVSPost2010Prop52
140
1.0
102
RTVSPost2010PropOp52
 70
     0
102
RTVSPost2010Prop53
 90
        2
102
RTVSPost2010PropOp53
 70
     1
102
RTVSPost2010Prop54
  1
strokes_ogs.tif
102
RTVSPost2010PropOp54
 70
     1
102
RTVSPost2010Prop55
280
     0
102
RTVSPost2010PropOp55
 70
     1
102
RTVSPost2010Prop56
140
1.0
102
RTVSPost2010PropOp56
 70
     1
102
RTVSPost2010Prop57
140
1.0
102
RTVSPost2010PropOp57
 70
     1
102
RTVSPropertyOp0
 70
     1
102
RTVSPropertyOp1
 70
     1
102
RTVSPropertyOp2
 70
     1
102
RTVSPropertyOp3
 70
     1
102
RTVSPropertyOp4
 70
     1
102
RTVSPropertyOp5
 70
     1
102
RTVSPropertyOp6
 70
     1
102
RTVSPropertyOp7
 70
     1
102
RTVSPropertyOp8
 70
     1
102
RTVSPropertyOp9
 70
     1
102
RTVSPropertyOp10
 70
     1
102
RTVSPropertyOp11
 70
     1
102
RTVSPropertyOp12
 70
     1
102
RTVSPropertyOp13
 70
     1
102
RTVSPropertyOp14
 70
     1
102
RTVSPropertyOp15
 70
     1
102
RTVSPropertyOp16
 70
     1
102
RTVSPropertyOp17
 70
     1
102
RTVSPropertyOp18
 70
     1
102
RTVSPropertyOp19
 70
     1
102
RTVSPropertyOp20
 70
     1
102
RTVSPropertyOp21
 70
     1
102
RTVSPropertyOp22
 70
     1
102
RTVSPropertyOp23
 70
     1
102
RTVSPropertyOp24
 70
     1
102
RTVSPropertyOp25
 70
     1
102
RTVSPropertyOp26
 70
     1
102
RTVSPropertyOp27
 70
     1
102
RTVSPropertyOp28
 70
     1
102
RTVSPropertyOp29
 70
     1
102
RTVSPropertyOp30
 70
     1
102
RTVSPropertyOp31
 70
     1
102
RTVSPropertyOp32
 70
     1
102
RTVSPropertyOp33
 70
     1
102
RTVSPropertyOp34
 70
     1
102
RTVSPropertyOp35
 70
     1
102
RTVSPropertyOp36
 70
     1
102
RTVSPropertyOp37
 70
     1
102
RTVSPropertyOp38
 70
     1
102
RTVSPropertyOp39
 70
     1
102
RTVSPropertyOp40
 70
     1
102
RTVSPropertyOp41
 70
     1
102
RTVSPropertyOp42
 70
     1
102
RTVSPropertyOp43
 70
     1
102
RTVSPropertyOp44
 70
     1
102
RTVSPropertyOp45
 70
     1
102
RTVSPropertyOp46
 70
     1
102
RTVSPropertyOp47
 70
     1
102
RTVSPropertyOp48
 70
     1
102
RTVSPropertyOp49
 70
     1
102
RTVSPropertyOp50
 70
     1
102
RTVSPropertyOp51
 70
     0
102
RTVSPropertyOp52
 70
     0
102
RTVSPropertyOp53
 70
     1
102
RTVSPropertyOp54
 70
     1
102
RTVSPropertyOp55
 70
     1
102
RTVSPropertyOp56
 70
     1
102
RTVSPropertyOp57
 70
     1
102
RTVSPropertyOp58
 70
     1
102
RTVSPropertyOp59
 70
     1
102
RTVSPropertyOp60
 70
     1
102
RTVSPropertyOp61
 70
     1
102
RTVSPropertyOp62
 70
     1
  0
XRECORD
  5
7494
102
{ACAD_REACTORS
330
7493
102
}
330
7493
100
AcDbXrecord
280
     1
102
RTVSPost2010Prop28
280
     0
102
RTVSPost2010PropOp28
 70
     1
102
RTVSPost2010Prop29
280
     1
102
RTVSPost2010PropOp29
 70
     1
102
RTVSPost2010Prop30
280
     1
102
RTVSPost2010PropOp30
 70
     1
102
RTVSPost2010Prop31
280
     0
102
RTVSPost2010PropOp31
 70
     1
102
RTVSPost2010Prop32
280
     0
102
RTVSPost2010PropOp32
 70
     1
102
RTVSPost2010Prop33
280
     0
102
RTVSPost2010PropOp33
 70
     1
102
RTVSPost2010Prop34
280
     0
102
RTVSPost2010PropOp34
 70
     1
102
RTVSPost2010Prop35
280
     0
102
RTVSPost2010PropOp35
 70
     1
102
RTVSPost2010Prop36
280
     0
102
RTVSPost2010PropOp36
 70
     1
102
RTVSPost2010Prop37
 90
       50
102
RTVSPost2010PropOp37
 70
     1
102
RTVSPost2010Prop38
140
0.0
102
RTVSPost2010PropOp38
 70
     1
102
RTVSPost2010Prop39
140
1.0
102
RTVSPost2010PropOp39
 70
     1
102
RTVSPost2010Prop40
 90
        0
102
RTVSPost2010PropOp40
 70
     1
102
RTVSPost2010Prop41ColorIndex
 90
       18
102
RTVSPost2010Prop41ColorRGB
 90
        0
102
RTVSPost2010PropOp41
 70
     1
102
RTVSPost2010Prop42
 90
       50
102
RTVSPost2010PropOp42
 70
     1
102
RTVSPost2010Prop43
 90
        3
102
RTVSPost2010PropOp43
 70
     1
102
RTVSPost2010Prop44ColorIndex
 90
        5
102
RTVSPost2010Prop44ColorRGB
 90
      255
102
RTVSPost2010PropOp44
 70
     1
102
RTVSPost2010Prop45
280
     0
102
RTVSPost2010PropOp45
 70
     1
102
RTVSPost2010Prop46
 90
       50
102
RTVSPost2010PropOp46
 70
     1
102
RTVSPost2010Prop47
 90
       50
102
RTVSPost2010PropOp47
 70
     1
102
RTVSPost2010Prop48
 90
       50
102
RTVSPost2010PropOp48
 70
     1
102
RTVSPost2010Prop49
280
     0
102
RTVSPost2010PropOp49
 70
     1
102
RTVSPost2010Prop50
 90
       50
102
RTVSPost2010PropOp50
 70
     1
102
RTVSPost2010Prop51ColorIndex
 90
      256
102
RTVSPost2010Prop51ColorRGB
 90
-16777216
102
RTVSPost2010PropOp51
 70
     0
102
RTVSPost2010Prop52
140
1.0
102
RTVSPost2010PropOp52
 70
     0
102
RTVSPost2010Prop53
 90
        2
102
RTVSPost2010PropOp53
 70
     1
102
RTVSPost2010Prop54
  1
strokes_ogs.tif
102
RTVSPost2010PropOp54
 70
     1
102
RTVSPost2010Prop55
280
     0
102
RTVSPost2010PropOp55
 70
     1
102
RTVSPost2010Prop56
140
1.0
102
RTVSPost2010PropOp56
 70
     1
102
RTVSPost2010Prop57
140
1.0
102
RTVSPost2010PropOp57
 70
     1
102
RTVSPropertyOp0
 70
     1
102
RTVSPropertyOp1
 70
     1
102
RTVSPropertyOp2
 70
     1
102
RTVSPropertyOp3
 70
     1
102
RTVSPropertyOp4
 70
     1
102
RTVSPropertyOp5
 70
     1
102
RTVSPropertyOp6
 70
     1
102
RTVSPropertyOp7
 70
     1
102
RTVSPropertyOp8
 70
     1
102
RTVSPropertyOp9
 70
     1
102
RTVSPropertyOp10
 70
     1
102
RTVSPropertyOp11
 70
     1
102
RTVSPropertyOp12
 70
     1
102
RTVSPropertyOp13
 70
     1
102
RTVSPropertyOp14
 70
     1
102
RTVSPropertyOp15
 70
     1
102
RTVSPropertyOp16
 70
     1
102
RTVSPropertyOp17
 70
     1
102
RTVSPropertyOp18
 70
     1
102
RTVSPropertyOp19
 70
     1
102
RTVSPropertyOp20
 70
     1
102
RTVSPropertyOp21
 70
     1
102
RTVSPropertyOp22
 70
     1
102
RTVSPropertyOp23
 70
     1
102
RTVSPropertyOp24
 70
     1
102
RTVSPropertyOp25
 70
     1
102
RTVSPropertyOp26
 70
     1
102
RTVSPropertyOp27
 70
     1
102
RTVSPropertyOp28
 70
     1
102
RTVSPropertyOp29
 70
     1
102
RTVSPropertyOp30
 70
     1
102
RTVSPropertyOp31
 70
     1
102
RTVSPropertyOp32
 70
     1
102
RTVSPropertyOp33
 70
     1
102
RTVSPropertyOp34
 70
     1
102
RTVSPropertyOp35
 70
     1
102
RTVSPropertyOp36
 70
     1
102
RTVSPropertyOp37
 70
     1
102
RTVSPropertyOp38
 70
     1
102
RTVSPropertyOp39
 70
     1
102
RTVSPropertyOp40
 70
     1
102
RTVSPropertyOp41
 70
     1
102
RTVSPropertyOp42
 70
     1
102
RTVSPropertyOp43
 70
     1
102
RTVSPropertyOp44
 70
     1
102
RTVSPropertyOp45
 70
     1
102
RTVSPropertyOp46
 70
     1
102
RTVSPropertyOp47
 70
     1
102
RTVSPropertyOp48
 70
     1
102
RTVSPropertyOp49
 70
     1
102
RTVSPropertyOp50
 70
     1
102
RTVSPropertyOp51
 70
     0
102
RTVSPropertyOp52
 70
     0
102
RTVSPropertyOp53
 70
     1
102
RTVSPropertyOp54
 70
     1
102
RTVSPropertyOp55
 70
     1
102
RTVSPropertyOp56
 70
     1
102
RTVSPropertyOp57
 70
     1
102
RTVSPropertyOp58
 70
     1
102
RTVSPropertyOp59
 70
     1
102
RTVSPropertyOp60
 70
     1
102
RTVSPropertyOp61
 70
     1
102
RTVSPropertyOp62
 70
     1
  0
XRECORD
  5
749C
102
{ACAD_REACTORS
330
749B
102
}
330
749B
100
AcDbXrecord
280
     1
102
RTVSPost2010Prop28
280
     0
102
RTVSPost2010PropOp28
 70
     1
102
RTVSPost2010Prop29
280
     1
102
RTVSPost2010PropOp29
 70
     1
102
RTVSPost2010Prop30
280
     1
102
RTVSPost2010PropOp30
 70
     1
102
RTVSPost2010Prop31
280
     0
102
RTVSPost2010PropOp31
 70
     1
102
RTVSPost2010Prop32
280
     0
102
RTVSPost2010PropOp32
 70
     1
102
RTVSPost2010Prop33
280
     0
102
RTVSPost2010PropOp33
 70
     1
102
RTVSPost2010Prop34
280
     0
102
RTVSPost2010PropOp34
 70
     1
102
RTVSPost2010Prop35
280
     0
102
RTVSPost2010PropOp35
 70
     1
102
RTVSPost2010Prop36
280
     0
102
RTVSPost2010PropOp36
 70
     1
102
RTVSPost2010Prop37
 90
       50
102
RTVSPost2010PropOp37
 70
     1
102
RTVSPost2010Prop38
140
0.0
102
RTVSPost2010PropOp38
 70
     1
102
RTVSPost2010Prop39
140
1.0
102
RTVSPost2010PropOp39
 70
     1
102
RTVSPost2010Prop40
 90
        0
102
RTVSPost2010PropOp40
 70
     1
102
RTVSPost2010Prop41ColorIndex
 90
       18
102
RTVSPost2010Prop41ColorRGB
 90
        0
102
RTVSPost2010PropOp41
 70
     1
102
RTVSPost2010Prop42
 90
       50
102
RTVSPost2010PropOp42
 70
     1
102
RTVSPost2010Prop43
 90
        3
102
RTVSPost2010PropOp43
 70
     1
102
RTVSPost2010Prop44ColorIndex
 90
        5
102
RTVSPost2010Prop44ColorRGB
 90
      255
102
RTVSPost2010PropOp44
 70
     1
102
RTVSPost2010Prop45
280
     0
102
RTVSPost2010PropOp45
 70
     1
102
RTVSPost2010Prop46
 90
       50
102
RTVSPost2010PropOp46
 70
     1
102
RTVSPost2010Prop47
 90
       50
102
RTVSPost2010PropOp47
 70
     1
102
RTVSPost2010Prop48
 90
       50
102
RTVSPost2010PropOp48
 70
     1
102
RTVSPost2010Prop49
280
     0
102
RTVSPost2010PropOp49
 70
     1
102
RTVSPost2010Prop50
 90
       50
102
RTVSPost2010PropOp50
 70
     1
102
RTVSPost2010Prop51ColorIndex
 90
      256
102
RTVSPost2010Prop51ColorRGB
 90
-16777216
102
RTVSPost2010PropOp51
 70
     0
102
RTVSPost2010Prop52
140
1.0
102
RTVSPost2010PropOp52
 70
     0
102
RTVSPost2010Prop53
 90
        2
102
RTVSPost2010PropOp53
 70
     1
102
RTVSPost2010Prop54
  1
strokes_ogs.tif
102
RTVSPost2010PropOp54
 70
     1
102
RTVSPost2010Prop55
280
     0
102
RTVSPost2010PropOp55
 70
     1
102
RTVSPost2010Prop56
140
1.0
102
RTVSPost2010PropOp56
 70
     1
102
RTVSPost2010Prop57
140
1.0
102
RTVSPost2010PropOp57
 70
     1
102
RTVSPropertyOp0
 70
     1
102
RTVSPropertyOp1
 70
     1
102
RTVSPropertyOp2
 70
     1
102
RTVSPropertyOp3
 70
     1
102
RTVSPropertyOp4
 70
     1
102
RTVSPropertyOp5
 70
     1
102
RTVSPropertyOp6
 70
     1
102
RTVSPropertyOp7
 70
     1
102
RTVSPropertyOp8
 70
     1
102
RTVSPropertyOp9
 70
     1
102
RTVSPropertyOp10
 70
     1
102
RTVSPropertyOp11
 70
     1
102
RTVSPropertyOp12
 70
     1
102
RTVSPropertyOp13
 70
     1
102
RTVSPropertyOp14
 70
     1
102
RTVSPropertyOp15
 70
     1
102
RTVSPropertyOp16
 70
     1
102
RTVSPropertyOp17
 70
     1
102
RTVSPropertyOp18
 70
     1
102
RTVSPropertyOp19
 70
     1
102
RTVSPropertyOp20
 70
     1
102
RTVSPropertyOp21
 70
     1
102
RTVSPropertyOp22
 70
     1
102
RTVSPropertyOp23
 70
     1
102
RTVSPropertyOp24
 70
     1
102
RTVSPropertyOp25
 70
     1
102
RTVSPropertyOp26
 70
     1
102
RTVSPropertyOp27
 70
     1
102
RTVSPropertyOp28
 70
     1
102
RTVSPropertyOp29
 70
     1
102
RTVSPropertyOp30
 70
     1
102
RTVSPropertyOp31
 70
     1
102
RTVSPropertyOp32
 70
     1
102
RTVSPropertyOp33
 70
     1
102
RTVSPropertyOp34
 70
     1
102
RTVSPropertyOp35
 70
     1
102
RTVSPropertyOp36
 70
     1
102
RTVSPropertyOp37
 70
     1
102
RTVSPropertyOp38
 70
     1
102
RTVSPropertyOp39
 70
     1
102
RTVSPropertyOp40
 70
     1
102
RTVSPropertyOp41
 70
     1
102
RTVSPropertyOp42
 70
     1
102
RTVSPropertyOp43
 70
     1
102
RTVSPropertyOp44
 70
     1
102
RTVSPropertyOp45
 70
     1
102
RTVSPropertyOp46
 70
     1
102
RTVSPropertyOp47
 70
     1
102
RTVSPropertyOp48
 70
     1
102
RTVSPropertyOp49
 70
     1
102
RTVSPropertyOp50
 70
     1
102
RTVSPropertyOp51
 70
     0
102
RTVSPropertyOp52
 70
     0
102
RTVSPropertyOp53
 70
     1
102
RTVSPropertyOp54
 70
     1
102
RTVSPropertyOp55
 70
     1
102
RTVSPropertyOp56
 70
     1
102
RTVSPropertyOp57
 70
     1
102
RTVSPropertyOp58
 70
     1
102
RTVSPropertyOp59
 70
     1
102
RTVSPropertyOp60
 70
     1
102
RTVSPropertyOp61
 70
     1
102
RTVSPropertyOp62
 70
     1
  0
XRECORD
  5
74A4
102
{ACAD_REACTORS
330
74A3
102
}
330
74A3
100
AcDbXrecord
280
     1
102
RTVSPost2010Prop28
280
     0
102
RTVSPost2010PropOp28
 70
     1
102
RTVSPost2010Prop29
280
     1
102
RTVSPost2010PropOp29
 70
     1
102
RTVSPost2010Prop30
280
     1
102
RTVSPost2010PropOp30
 70
     1
102
RTVSPost2010Prop31
280
     0
102
RTVSPost2010PropOp31
 70
     1
102
RTVSPost2010Prop32
280
     0
102
RTVSPost2010PropOp32
 70
     1
102
RTVSPost2010Prop33
280
     0
102
RTVSPost2010PropOp33
 70
     1
102
RTVSPost2010Prop34
280
     0
102
RTVSPost2010PropOp34
 70
     1
102
RTVSPost2010Prop35
280
     0
102
RTVSPost2010PropOp35
 70
     1
102
RTVSPost2010Prop36
280
     0
102
RTVSPost2010PropOp36
 70
     1
102
RTVSPost2010Prop37
 90
       50
102
RTVSPost2010PropOp37
 70
     1
102
RTVSPost2010Prop38
140
0.0
102
RTVSPost2010PropOp38
 70
     1
102
RTVSPost2010Prop39
140
1.0
102
RTVSPost2010PropOp39
 70
     1
102
RTVSPost2010Prop40
 90
        0
102
RTVSPost2010PropOp40
 70
     1
102
RTVSPost2010Prop41ColorIndex
 90
       18
102
RTVSPost2010Prop41ColorRGB
 90
        0
102
RTVSPost2010PropOp41
 70
     1
102
RTVSPost2010Prop42
 90
       50
102
RTVSPost2010PropOp42
 70
     1
102
RTVSPost2010Prop43
 90
        3
102
RTVSPost2010PropOp43
 70
     1
102
RTVSPost2010Prop44ColorIndex
 90
        5
102
RTVSPost2010Prop44ColorRGB
 90
      255
102
RTVSPost2010PropOp44
 70
     1
102
RTVSPost2010Prop45
280
     0
102
RTVSPost2010PropOp45
 70
     1
102
RTVSPost2010Prop46
 90
       50
102
RTVSPost2010PropOp46
 70
     1
102
RTVSPost2010Prop47
 90
       50
102
RTVSPost2010PropOp47
 70
     1
102
RTVSPost2010Prop48
 90
       50
102
RTVSPost2010PropOp48
 70
     1
102
RTVSPost2010Prop49
280
     0
102
RTVSPost2010PropOp49
 70
     1
102
RTVSPost2010Prop50
 90
       50
102
RTVSPost2010PropOp50
 70
     1
102
RTVSPost2010Prop51ColorIndex
 90
      256
102
RTVSPost2010Prop51ColorRGB
 90
-16777216
102
RTVSPost2010PropOp51
 70
     0
102
RTVSPost2010Prop52
140
1.0
102
RTVSPost2010PropOp52
 70
     0
102
RTVSPost2010Prop53
 90
        2
102
RTVSPost2010PropOp53
 70
     1
102
RTVSPost2010Prop54
  1
strokes_ogs.tif
102
RTVSPost2010PropOp54
 70
     1
102
RTVSPost2010Prop55
280
     0
102
RTVSPost2010PropOp55
 70
     1
102
RTVSPost2010Prop56
140
1.0
102
RTVSPost2010PropOp56
 70
     1
102
RTVSPost2010Prop57
140
1.0
102
RTVSPost2010PropOp57
 70
     1
102
RTVSPropertyOp0
 70
     1
102
RTVSPropertyOp1
 70
     1
102
RTVSPropertyOp2
 70
     1
102
RTVSPropertyOp3
 70
     1
102
RTVSPropertyOp4
 70
     1
102
RTVSPropertyOp5
 70
     1
102
RTVSPropertyOp6
 70
     1
102
RTVSPropertyOp7
 70
     1
102
RTVSPropertyOp8
 70
     1
102
RTVSPropertyOp9
 70
     1
102
RTVSPropertyOp10
 70
     1
102
RTVSPropertyOp11
 70
     1
102
RTVSPropertyOp12
 70
     1
102
RTVSPropertyOp13
 70
     1
102
RTVSPropertyOp14
 70
     1
102
RTVSPropertyOp15
 70
     1
102
RTVSPropertyOp16
 70
     1
102
RTVSPropertyOp17
 70
     1
102
RTVSPropertyOp18
 70
     1
102
RTVSPropertyOp19
 70
     1
102
RTVSPropertyOp20
 70
     1
102
RTVSPropertyOp21
 70
     1
102
RTVSPropertyOp22
 70
     1
102
RTVSPropertyOp23
 70
     1
102
RTVSPropertyOp24
 70
     1
102
RTVSPropertyOp25
 70
     1
102
RTVSPropertyOp26
 70
     1
102
RTVSPropertyOp27
 70
     1
102
RTVSPropertyOp28
 70
     1
102
RTVSPropertyOp29
 70
     1
102
RTVSPropertyOp30
 70
     1
102
RTVSPropertyOp31
 70
     1
102
RTVSPropertyOp32
 70
     1
102
RTVSPropertyOp33
 70
     1
102
RTVSPropertyOp34
 70
     1
102
RTVSPropertyOp35
 70
     1
102
RTVSPropertyOp36
 70
     1
102
RTVSPropertyOp37
 70
     1
102
RTVSPropertyOp38
 70
     1
102
RTVSPropertyOp39
 70
     1
102
RTVSPropertyOp40
 70
     1
102
RTVSPropertyOp41
 70
     1
102
RTVSPropertyOp42
 70
     1
102
RTVSPropertyOp43
 70
     1
102
RTVSPropertyOp44
 70
     1
102
RTVSPropertyOp45
 70
     1
102
RTVSPropertyOp46
 70
     1
102
RTVSPropertyOp47
 70
     1
102
RTVSPropertyOp48
 70
     1
102
RTVSPropertyOp49
 70
     1
102
RTVSPropertyOp50
 70
     1
102
RTVSPropertyOp51
 70
     0
102
RTVSPropertyOp52
 70
     0
102
RTVSPropertyOp53
 70
     1
102
RTVSPropertyOp54
 70
     1
102
RTVSPropertyOp55
 70
     1
102
RTVSPropertyOp56
 70
     1
102
RTVSPropertyOp57
 70
     1
102
RTVSPropertyOp58
 70
     1
102
RTVSPropertyOp59
 70
     1
102
RTVSPropertyOp60
 70
     1
102
RTVSPropertyOp61
 70
     1
102
RTVSPropertyOp62
 70
     1
  0
XRECORD
  5
7498
102
{ACAD_REACTORS
330
7497
102
}
330
7497
100
AcDbXrecord
280
     1
102
RTVSPost2010Prop28
280
     0
102
RTVSPost2010PropOp28
 70
     1
102
RTVSPost2010Prop29
280
     1
102
RTVSPost2010PropOp29
 70
     1
102
RTVSPost2010Prop30
280
     1
102
RTVSPost2010PropOp30
 70
     1
102
RTVSPost2010Prop31
280
     0
102
RTVSPost2010PropOp31
 70
     1
102
RTVSPost2010Prop32
280
     0
102
RTVSPost2010PropOp32
 70
     1
102
RTVSPost2010Prop33
280
     0
102
RTVSPost2010PropOp33
 70
     1
102
RTVSPost2010Prop34
280
     0
102
RTVSPost2010PropOp34
 70
     1
102
RTVSPost2010Prop35
280
     0
102
RTVSPost2010PropOp35
 70
     1
102
RTVSPost2010Prop36
280
     0
102
RTVSPost2010PropOp36
 70
     1
102
RTVSPost2010Prop37
 90
       50
102
RTVSPost2010PropOp37
 70
     1
102
RTVSPost2010Prop38
140
0.0
102
RTVSPost2010PropOp38
 70
     1
102
RTVSPost2010Prop39
140
1.0
102
RTVSPost2010PropOp39
 70
     1
102
RTVSPost2010Prop40
 90
        0
102
RTVSPost2010PropOp40
 70
     1
102
RTVSPost2010Prop41ColorIndex
 90
       18
102
RTVSPost2010Prop41ColorRGB
 90
        0
102
RTVSPost2010PropOp41
 70
     1
102
RTVSPost2010Prop42
 90
       50
102
RTVSPost2010PropOp42
 70
     1
102
RTVSPost2010Prop43
 90
        3
102
RTVSPost2010PropOp43
 70
     1
102
RTVSPost2010Prop44ColorIndex
 90
        5
102
RTVSPost2010Prop44ColorRGB
 90
      255
102
RTVSPost2010PropOp44
 70
     1
102
RTVSPost2010Prop45
280
     0
102
RTVSPost2010PropOp45
 70
     1
102
RTVSPost2010Prop46
 90
       50
102
RTVSPost2010PropOp46
 70
     1
102
RTVSPost2010Prop47
 90
       50
102
RTVSPost2010PropOp47
 70
     1
102
RTVSPost2010Prop48
 90
       50
102
RTVSPost2010PropOp48
 70
     1
102
RTVSPost2010Prop49
280
     0
102
RTVSPost2010PropOp49
 70
     1
102
RTVSPost2010Prop50
 90
       50
102
RTVSPost2010PropOp50
 70
     1
102
RTVSPost2010Prop51ColorIndex
 90
      256
102
RTVSPost2010Prop51ColorRGB
 90
-16777216
102
RTVSPost2010PropOp51
 70
     0
102
RTVSPost2010Prop52
140
1.0
102
RTVSPost2010PropOp52
 70
     0
102
RTVSPost2010Prop53
 90
        2
102
RTVSPost2010PropOp53
 70
     1
102
RTVSPost2010Prop54
  1
strokes_ogs.tif
102
RTVSPost2010PropOp54
 70
     1
102
RTVSPost2010Prop55
280
     0
102
RTVSPost2010PropOp55
 70
     1
102
RTVSPost2010Prop56
140
1.0
102
RTVSPost2010PropOp56
 70
     1
102
RTVSPost2010Prop57
140
1.0
102
RTVSPost2010PropOp57
 70
     1
102
RTVSPropertyOp0
 70
     1
102
RTVSPropertyOp1
 70
     1
102
RTVSPropertyOp2
 70
     1
102
RTVSPropertyOp3
 70
     1
102
RTVSPropertyOp4
 70
     1
102
RTVSPropertyOp5
 70
     1
102
RTVSPropertyOp6
 70
     1
102
RTVSPropertyOp7
 70
     1
102
RTVSPropertyOp8
 70
     1
102
RTVSPropertyOp9
 70
     1
102
RTVSPropertyOp10
 70
     1
102
RTVSPropertyOp11
 70
     1
102
RTVSPropertyOp12
 70
     1
102
RTVSPropertyOp13
 70
     1
102
RTVSPropertyOp14
 70
     1
102
RTVSPropertyOp15
 70
     1
102
RTVSPropertyOp16
 70
     1
102
RTVSPropertyOp17
 70
     1
102
RTVSPropertyOp18
 70
     1
102
RTVSPropertyOp19
 70
     1
102
RTVSPropertyOp20
 70
     1
102
RTVSPropertyOp21
 70
     1
102
RTVSPropertyOp22
 70
     1
102
RTVSPropertyOp23
 70
     1
102
RTVSPropertyOp24
 70
     1
102
RTVSPropertyOp25
 70
     1
102
RTVSPropertyOp26
 70
     1
102
RTVSPropertyOp27
 70
     1
102
RTVSPropertyOp28
 70
     1
102
RTVSPropertyOp29
 70
     1
102
RTVSPropertyOp30
 70
     1
102
RTVSPropertyOp31
 70
     1
102
RTVSPropertyOp32
 70
     1
102
RTVSPropertyOp33
 70
     1
102
RTVSPropertyOp34
 70
     1
102
RTVSPropertyOp35
 70
     1
102
RTVSPropertyOp36
 70
     1
102
RTVSPropertyOp37
 70
     1
102
RTVSPropertyOp38
 70
     1
102
RTVSPropertyOp39
 70
     1
102
RTVSPropertyOp40
 70
     1
102
RTVSPropertyOp41
 70
     1
102
RTVSPropertyOp42
 70
     1
102
RTVSPropertyOp43
 70
     1
102
RTVSPropertyOp44
 70
     1
102
RTVSPropertyOp45
 70
     1
102
RTVSPropertyOp46
 70
     1
102
RTVSPropertyOp47
 70
     1
102
RTVSPropertyOp48
 70
     1
102
RTVSPropertyOp49
 70
     1
102
RTVSPropertyOp50
 70
     1
102
RTVSPropertyOp51
 70
     0
102
RTVSPropertyOp52
 70
     0
102
RTVSPropertyOp53
 70
     1
102
RTVSPropertyOp54
 70
     1
102
RTVSPropertyOp55
 70
     1
102
RTVSPropertyOp56
 70
     1
102
RTVSPropertyOp57
 70
     1
102
RTVSPropertyOp58
 70
     1
102
RTVSPropertyOp59
 70
     1
102
RTVSPropertyOp60
 70
     1
102
RTVSPropertyOp61
 70
     1
102
RTVSPropertyOp62
 70
     1
  0
XRECORD
  5
749A
102
{ACAD_REACTORS
330
7499
102
}
330
7499
100
AcDbXrecord
280
     1
102
RTVSPost2010Prop28
280
     0
102
RTVSPost2010PropOp28
 70
     1
102
RTVSPost2010Prop29
280
     1
102
RTVSPost2010PropOp29
 70
     1
102
RTVSPost2010Prop30
280
     1
102
RTVSPost2010PropOp30
 70
     1
102
RTVSPost2010Prop31
280
     0
102
RTVSPost2010PropOp31
 70
     1
102
RTVSPost2010Prop32
280
     0
102
RTVSPost2010PropOp32
 70
     1
102
RTVSPost2010Prop33
280
     0
102
RTVSPost2010PropOp33
 70
     1
102
RTVSPost2010Prop34
280
     0
102
RTVSPost2010PropOp34
 70
     1
102
RTVSPost2010Prop35
280
     0
102
RTVSPost2010PropOp35
 70
     1
102
RTVSPost2010Prop36
280
     0
102
RTVSPost2010PropOp36
 70
     1
102
RTVSPost2010Prop37
 90
       50
102
RTVSPost2010PropOp37
 70
     1
102
RTVSPost2010Prop38
140
0.0
102
RTVSPost2010PropOp38
 70
     1
102
RTVSPost2010Prop39
140
1.0
102
RTVSPost2010PropOp39
 70
     1
102
RTVSPost2010Prop40
 90
        0
102
RTVSPost2010PropOp40
 70
     1
102
RTVSPost2010Prop41ColorIndex
 90
       18
102
RTVSPost2010Prop41ColorRGB
 90
        0
102
RTVSPost2010PropOp41
 70
     1
102
RTVSPost2010Prop42
 90
       50
102
RTVSPost2010PropOp42
 70
     1
102
RTVSPost2010Prop43
 90
        3
102
RTVSPost2010PropOp43
 70
     1
102
RTVSPost2010Prop44ColorIndex
 90
        5
102
RTVSPost2010Prop44ColorRGB
 90
      255
102
RTVSPost2010PropOp44
 70
     1
102
RTVSPost2010Prop45
280
     0
102
RTVSPost2010PropOp45
 70
     1
102
RTVSPost2010Prop46
 90
       50
102
RTVSPost2010PropOp46
 70
     1
102
RTVSPost2010Prop47
 90
       50
102
RTVSPost2010PropOp47
 70
     1
102
RTVSPost2010Prop48
 90
       50
102
RTVSPost2010PropOp48
 70
     1
102
RTVSPost2010Prop49
280
     0
102
RTVSPost2010PropOp49
 70
     1
102
RTVSPost2010Prop50
 90
       50
102
RTVSPost2010PropOp50
 70
     1
102
RTVSPost2010Prop51ColorIndex
 90
      256
102
RTVSPost2010Prop51ColorRGB
 90
-16777216
102
RTVSPost2010PropOp51
 70
     0
102
RTVSPost2010Prop52
140
1.0
102
RTVSPost2010PropOp52
 70
     0
102
RTVSPost2010Prop53
 90
        2
102
RTVSPost2010PropOp53
 70
     1
102
RTVSPost2010Prop54
  1
strokes_ogs.tif
102
RTVSPost2010PropOp54
 70
     1
102
RTVSPost2010Prop55
280
     0
102
RTVSPost2010PropOp55
 70
     1
102
RTVSPost2010Prop56
140
1.0
102
RTVSPost2010PropOp56
 70
     1
102
RTVSPost2010Prop57
140
1.0
102
RTVSPost2010PropOp57
 70
     1
102
RTVSPropertyOp0
 70
     1
102
RTVSPropertyOp1
 70
     1
102
RTVSPropertyOp2
 70
     1
102
RTVSPropertyOp3
 70
     1
102
RTVSPropertyOp4
 70
     1
102
RTVSPropertyOp5
 70
     1
102
RTVSPropertyOp6
 70
     1
102
RTVSPropertyOp7
 70
     1
102
RTVSPropertyOp8
 70
     1
102
RTVSPropertyOp9
 70
     1
102
RTVSPropertyOp10
 70
     1
102
RTVSPropertyOp11
 70
     1
102
RTVSPropertyOp12
 70
     1
102
RTVSPropertyOp13
 70
     1
102
RTVSPropertyOp14
 70
     1
102
RTVSPropertyOp15
 70
     1
102
RTVSPropertyOp16
 70
     1
102
RTVSPropertyOp17
 70
     1
102
RTVSPropertyOp18
 70
     1
102
RTVSPropertyOp19
 70
     1
102
RTVSPropertyOp20
 70
     1
102
RTVSPropertyOp21
 70
     1
102
RTVSPropertyOp22
 70
     1
102
RTVSPropertyOp23
 70
     1
102
RTVSPropertyOp24
 70
     1
102
RTVSPropertyOp25
 70
     1
102
RTVSPropertyOp26
 70
     1
102
RTVSPropertyOp27
 70
     1
102
RTVSPropertyOp28
 70
     1
102
RTVSPropertyOp29
 70
     1
102
RTVSPropertyOp30
 70
     1
102
RTVSPropertyOp31
 70
     1
102
RTVSPropertyOp32
 70
     1
102
RTVSPropertyOp33
 70
     1
102
RTVSPropertyOp34
 70
     1
102
RTVSPropertyOp35
 70
     1
102
RTVSPropertyOp36
 70
     1
102
RTVSPropertyOp37
 70
     1
102
RTVSPropertyOp38
 70
     1
102
RTVSPropertyOp39
 70
     1
102
RTVSPropertyOp40
 70
     1
102
RTVSPropertyOp41
 70
     1
102
RTVSPropertyOp42
 70
     1
102
RTVSPropertyOp43
 70
     1
102
RTVSPropertyOp44
 70
     1
102
RTVSPropertyOp45
 70
     1
102
RTVSPropertyOp46
 70
     1
102
RTVSPropertyOp47
 70
     1
102
RTVSPropertyOp48
 70
     1
102
RTVSPropertyOp49
 70
     1
102
RTVSPropertyOp50
 70
     1
102
RTVSPropertyOp51
 70
     0
102
RTVSPropertyOp52
 70
     0
102
RTVSPropertyOp53
 70
     1
102
RTVSPropertyOp54
 70
     1
102
RTVSPropertyOp55
 70
     1
102
RTVSPropertyOp56
 70
     1
102
RTVSPropertyOp57
 70
     1
102
RTVSPropertyOp58
 70
     1
102
RTVSPropertyOp59
 70
     1
102
RTVSPropertyOp60
 70
     1
102
RTVSPropertyOp61
 70
     1
102
RTVSPropertyOp62
 70
     1
  0
XRECORD
  5
74AA
102
{ACAD_REACTORS
330
74A9
102
}
330
74A9
100
AcDbXrecord
280
     1
102
RTVSPost2010Prop28
280
     0
102
RTVSPost2010PropOp28
 70
     0
102
RTVSPost2010Prop29
280
     1
102
RTVSPost2010PropOp29
 70
     0
102
RTVSPost2010Prop30
280
     1
102
RTVSPost2010PropOp30
 70
     0
102
RTVSPost2010Prop31
280
     0
102
RTVSPost2010PropOp31
 70
     0
102
RTVSPost2010Prop32
280
     0
102
RTVSPost2010PropOp32
 70
     0
102
RTVSPost2010Prop33
280
     0
102
RTVSPost2010PropOp33
 70
     0
102
RTVSPost2010Prop34
280
     0
102
RTVSPost2010PropOp34
 70
     0
102
RTVSPost2010Prop35
280
     0
102
RTVSPost2010PropOp35
 70
     0
102
RTVSPost2010Prop36
280
     0
102
RTVSPost2010PropOp36
 70
     0
102
RTVSPost2010Prop37
 90
       50
102
RTVSPost2010PropOp37
 70
     0
102
RTVSPost2010Prop38
140
0.0
102
RTVSPost2010PropOp38
 70
     0
102
RTVSPost2010Prop39
140
1.0
102
RTVSPost2010PropOp39
 70
     0
102
RTVSPost2010Prop40
 90
        0
102
RTVSPost2010PropOp40
 70
     0
102
RTVSPost2010Prop41ColorIndex
 90
       18
102
RTVSPost2010Prop41ColorRGB
 90
        0
102
RTVSPost2010PropOp41
 70
     0
102
RTVSPost2010Prop42
 90
       50
102
RTVSPost2010PropOp42
 70
     0
102
RTVSPost2010Prop43
 90
        3
102
RTVSPost2010PropOp43
 70
     0
102
RTVSPost2010Prop44ColorIndex
 90
        5
102
RTVSPost2010Prop44ColorRGB
 90
      255
102
RTVSPost2010PropOp44
 70
     0
102
RTVSPost2010Prop45
280
     0
102
RTVSPost2010PropOp45
 70
     0
102
RTVSPost2010Prop46
 90
       50
102
RTVSPost2010PropOp46
 70
     0
102
RTVSPost2010Prop47
 90
       50
102
RTVSPost2010PropOp47
 70
     0
102
RTVSPost2010Prop48
 90
       50
102
RTVSPost2010PropOp48
 70
     0
102
RTVSPost2010Prop49
280
     0
102
RTVSPost2010PropOp49
 70
     0
102
RTVSPost2010Prop50
 90
       50
102
RTVSPost2010PropOp50
 70
     0
102
RTVSPost2010Prop51ColorIndex
 90
      256
102
RTVSPost2010Prop51ColorRGB
 90
-16777216
102
RTVSPost2010PropOp51
 70
     0
102
RTVSPost2010Prop52
140
1.0
102
RTVSPost2010PropOp52
 70
     0
102
RTVSPost2010Prop53
 90
        2
102
RTVSPost2010PropOp53
 70
     0
102
RTVSPost2010Prop54
  1
strokes_ogs.tif
102
RTVSPost2010PropOp54
 70
     0
102
RTVSPost2010Prop55
280
     0
102
RTVSPost2010PropOp55
 70
     0
102
RTVSPost2010Prop56
140
1.0
102
RTVSPost2010PropOp56
 70
     0
102
RTVSPost2010Prop57
140
1.0
102
RTVSPost2010PropOp57
 70
     0
102
RTVSPropertyOp0
 70
     0
102
RTVSPropertyOp1
 70
     0
102
RTVSPropertyOp2
 70
     0
102
RTVSPropertyOp3
 70
     0
102
RTVSPropertyOp4
 70
     0
102
RTVSPropertyOp5
 70
     0
102
RTVSPropertyOp6
 70
     0
102
RTVSPropertyOp7
 70
     0
102
RTVSPropertyOp8
 70
     0
102
RTVSPropertyOp9
 70
     0
102
RTVSPropertyOp10
 70
     0
102
RTVSPropertyOp11
 70
     0
102
RTVSPropertyOp12
 70
     0
102
RTVSPropertyOp13
 70
     0
102
RTVSPropertyOp14
 70
     2
102
RTVSPropertyOp15
 70
     0
102
RTVSPropertyOp16
 70
     0
102
RTVSPropertyOp17
 70
     0
102
RTVSPropertyOp18
 70
     0
102
RTVSPropertyOp19
 70
     0
102
RTVSPropertyOp20
 70
     0
102
RTVSPropertyOp21
 70
     0
102
RTVSPropertyOp22
 70
     0
102
RTVSPropertyOp23
 70
     0
102
RTVSPropertyOp24
 70
     0
102
RTVSPropertyOp25
 70
     0
102
RTVSPropertyOp26
 70
     0
102
RTVSPropertyOp27
 70
     0
102
RTVSPropertyOp28
 70
     0
102
RTVSPropertyOp29
 70
     0
102
RTVSPropertyOp30
 70
     0
102
RTVSPropertyOp31
 70
     0
102
RTVSPropertyOp32
 70
     0
102
RTVSPropertyOp33
 70
     0
102
RTVSPropertyOp34
 70
     0
102
RTVSPropertyOp35
 70
     0
102
RTVSPropertyOp36
 70
     0
102
RTVSPropertyOp37
 70
     0
102
RTVSPropertyOp38
 70
     0
102
RTVSPropertyOp39
 70
     0
102
RTVSPropertyOp40
 70
     0
102
RTVSPropertyOp41
 70
     0
102
RTVSPropertyOp42
 70
     0
102
RTVSPropertyOp43
 70
     0
102
RTVSPropertyOp44
 70
     0
102
RTVSPropertyOp45
 70
     0
102
RTVSPropertyOp46
 70
     0
102
RTVSPropertyOp47
 70
     0
102
RTVSPropertyOp48
 70
     0
102
RTVSPropertyOp49
 70
     0
102
RTVSPropertyOp50
 70
     0
102
RTVSPropertyOp51
 70
     0
102
RTVSPropertyOp52
 70
     0
102
RTVSPropertyOp53
 70
     0
102
RTVSPropertyOp54
 70
     0
102
RTVSPropertyOp55
 70
     0
102
RTVSPropertyOp56
 70
     0
102
RTVSPropertyOp57
 70
     0
102
RTVSPropertyOp58
 70
     1
102
RTVSPropertyOp59
 70
     1
102
RTVSPropertyOp60
 70
     1
102
RTVSPropertyOp61
 70
     1
102
RTVSPropertyOp62
 70
     1
  0
XRECORD
  5
74A2
102
{ACAD_REACTORS
330
74A1
102
}
330
74A1
100
AcDbXrecord
280
     1
102
RTVSPost2010Prop28
280
     0
102
RTVSPost2010PropOp28
 70
     1
102
RTVSPost2010Prop29
280
     1
102
RTVSPost2010PropOp29
 70
     1
102
RTVSPost2010Prop30
280
     1
102
RTVSPost2010PropOp30
 70
     1
102
RTVSPost2010Prop31
280
     0
102
RTVSPost2010PropOp31
 70
     1
102
RTVSPost2010Prop32
280
     0
102
RTVSPost2010PropOp32
 70
     1
102
RTVSPost2010Prop33
280
     0
102
RTVSPost2010PropOp33
 70
     1
102
RTVSPost2010Prop34
280
     0
102
RTVSPost2010PropOp34
 70
     1
102
RTVSPost2010Prop35
280
     0
102
RTVSPost2010PropOp35
 70
     1
102
RTVSPost2010Prop36
280
     0
102
RTVSPost2010PropOp36
 70
     1
102
RTVSPost2010Prop37
 90
       50
102
RTVSPost2010PropOp37
 70
     1
102
RTVSPost2010Prop38
140
0.0
102
RTVSPost2010PropOp38
 70
     1
102
RTVSPost2010Prop39
140
1.0
102
RTVSPost2010PropOp39
 70
     1
102
RTVSPost2010Prop40
 90
        0
102
RTVSPost2010PropOp40
 70
     1
102
RTVSPost2010Prop41ColorIndex
 90
       18
102
RTVSPost2010Prop41ColorRGB
 90
        0
102
RTVSPost2010PropOp41
 70
     1
102
RTVSPost2010Prop42
 90
       50
102
RTVSPost2010PropOp42
 70
     1
102
RTVSPost2010Prop43
 90
        3
102
RTVSPost2010PropOp43
 70
     1
102
RTVSPost2010Prop44ColorIndex
 90
        5
102
RTVSPost2010Prop44ColorRGB
 90
      255
102
RTVSPost2010PropOp44
 70
     1
102
RTVSPost2010Prop45
280
     0
102
RTVSPost2010PropOp45
 70
     1
102
RTVSPost2010Prop46
 90
       50
102
RTVSPost2010PropOp46
 70
     1
102
RTVSPost2010Prop47
 90
       50
102
RTVSPost2010PropOp47
 70
     1
102
RTVSPost2010Prop48
 90
       50
102
RTVSPost2010PropOp48
 70
     1
102
RTVSPost2010Prop49
280
     0
102
RTVSPost2010PropOp49
 70
     1
102
RTVSPost2010Prop50
 90
       50
102
RTVSPost2010PropOp50
 70
     1
102
RTVSPost2010Prop51ColorIndex
 90
      256
102
RTVSPost2010Prop51ColorRGB
 90
-16777216
102
RTVSPost2010PropOp51
 70
     0
102
RTVSPost2010Prop52
140
1.0
102
RTVSPost2010PropOp52
 70
     0
102
RTVSPost2010Prop53
 90
        2
102
RTVSPost2010PropOp53
 70
     1
102
RTVSPost2010Prop54
  1
strokes_ogs.tif
102
RTVSPost2010PropOp54
 70
     1
102
RTVSPost2010Prop55
280
     0
102
RTVSPost2010PropOp55
 70
     1
102
RTVSPost2010Prop56
140
1.0
102
RTVSPost2010PropOp56
 70
     1
102
RTVSPost2010Prop57
140
1.0
102
RTVSPost2010PropOp57
 70
     1
102
RTVSPropertyOp0
 70
     1
102
RTVSPropertyOp1
 70
     1
102
RTVSPropertyOp2
 70
     1
102
RTVSPropertyOp3
 70
     1
102
RTVSPropertyOp4
 70
     1
102
RTVSPropertyOp5
 70
     1
102
RTVSPropertyOp6
 70
     1
102
RTVSPropertyOp7
 70
     1
102
RTVSPropertyOp8
 70
     1
102
RTVSPropertyOp9
 70
     1
102
RTVSPropertyOp10
 70
     1
102
RTVSPropertyOp11
 70
     1
102
RTVSPropertyOp12
 70
     1
102
RTVSPropertyOp13
 70
     1
102
RTVSPropertyOp14
 70
     1
102
RTVSPropertyOp15
 70
     1
102
RTVSPropertyOp16
 70
     1
102
RTVSPropertyOp17
 70
     1
102
RTVSPropertyOp18
 70
     1
102
RTVSPropertyOp19
 70
     1
102
RTVSPropertyOp20
 70
     1
102
RTVSPropertyOp21
 70
     1
102
RTVSPropertyOp22
 70
     1
102
RTVSPropertyOp23
 70
     1
102
RTVSPropertyOp24
 70
     1
102
RTVSPropertyOp25
 70
     1
102
RTVSPropertyOp26
 70
     1
102
RTVSPropertyOp27
 70
     1
102
RTVSPropertyOp28
 70
     1
102
RTVSPropertyOp29
 70
     1
102
RTVSPropertyOp30
 70
     1
102
RTVSPropertyOp31
 70
     1
102
RTVSPropertyOp32
 70
     1
102
RTVSPropertyOp33
 70
     1
102
RTVSPropertyOp34
 70
     1
102
RTVSPropertyOp35
 70
     1
102
RTVSPropertyOp36
 70
     1
102
RTVSPropertyOp37
 70
     1
102
RTVSPropertyOp38
 70
     1
102
RTVSPropertyOp39
 70
     1
102
RTVSPropertyOp40
 70
     1
102
RTVSPropertyOp41
 70
     1
102
RTVSPropertyOp42
 70
     1
102
RTVSPropertyOp43
 70
     1
102
RTVSPropertyOp44
 70
     1
102
RTVSPropertyOp45
 70
     1
102
RTVSPropertyOp46
 70
     1
102
RTVSPropertyOp47
 70
     1
102
RTVSPropertyOp48
 70
     1
102
RTVSPropertyOp49
 70
     1
102
RTVSPropertyOp50
 70
     1
102
RTVSPropertyOp51
 70
     0
102
RTVSPropertyOp52
 70
     0
102
RTVSPropertyOp53
 70
     1
102
RTVSPropertyOp54
 70
     1
102
RTVSPropertyOp55
 70
     1
102
RTVSPropertyOp56
 70
     1
102
RTVSPropertyOp57
 70
     1
102
RTVSPropertyOp58
 70
     1
102
RTVSPropertyOp59
 70
     1
102
RTVSPropertyOp60
 70
     1
102
RTVSPropertyOp61
 70
     1
102
RTVSPropertyOp62
 70
     1
  0
XRECORD
  5
7486
102
{ACAD_REACTORS
330
7485
102
}
330
7485
100
AcDbXrecord
280
     1
102
RTVSPost2010Prop28
280
     0
102
RTVSPost2010PropOp28
 70
     1
102
RTVSPost2010Prop29
280
     1
102
RTVSPost2010PropOp29
 70
     1
102
RTVSPost2010Prop30
280
     1
102
RTVSPost2010PropOp30
 70
     1
102
RTVSPost2010Prop31
280
     0
102
RTVSPost2010PropOp31
 70
     1
102
RTVSPost2010Prop32
280
     0
102
RTVSPost2010PropOp32
 70
     1
102
RTVSPost2010Prop33
280
     0
102
RTVSPost2010PropOp33
 70
     1
102
RTVSPost2010Prop34
280
     0
102
RTVSPost2010PropOp34
 70
     1
102
RTVSPost2010Prop35
280
     0
102
RTVSPost2010PropOp35
 70
     1
102
RTVSPost2010Prop36
280
     0
102
RTVSPost2010PropOp36
 70
     1
102
RTVSPost2010Prop37
 90
       50
102
RTVSPost2010PropOp37
 70
     1
102
RTVSPost2010Prop38
140
0.0
102
RTVSPost2010PropOp38
 70
     1
102
RTVSPost2010Prop39
140
1.0
102
RTVSPost2010PropOp39
 70
     1
102
RTVSPost2010Prop40
 90
        0
102
RTVSPost2010PropOp40
 70
     1
102
RTVSPost2010Prop41ColorIndex
 90
       18
102
RTVSPost2010Prop41ColorRGB
 90
        0
102
RTVSPost2010PropOp41
 70
     1
102
RTVSPost2010Prop42
 90
       50
102
RTVSPost2010PropOp42
 70
     1
102
RTVSPost2010Prop43
 90
        3
102
RTVSPost2010PropOp43
 70
     1
102
RTVSPost2010Prop44ColorIndex
 90
        5
102
RTVSPost2010Prop44ColorRGB
 90
      255
102
RTVSPost2010PropOp44
 70
     1
102
RTVSPost2010Prop45
280
     0
102
RTVSPost2010PropOp45
 70
     1
102
RTVSPost2010Prop46
 90
       50
102
RTVSPost2010PropOp46
 70
     1
102
RTVSPost2010Prop47
 90
       50
102
RTVSPost2010PropOp47
 70
     1
102
RTVSPost2010Prop48
 90
       50
102
RTVSPost2010PropOp48
 70
     1
102
RTVSPost2010Prop49
280
     0
102
RTVSPost2010PropOp49
 70
     1
102
RTVSPost2010Prop50
 90
       50
102
RTVSPost2010PropOp50
 70
     1
102
RTVSPost2010Prop51ColorIndex
 90
      256
102
RTVSPost2010Prop51ColorRGB
 90
-16777216
102
RTVSPost2010PropOp51
 70
     0
102
RTVSPost2010Prop52
140
1.0
102
RTVSPost2010PropOp52
 70
     0
102
RTVSPost2010Prop53
 90
        2
102
RTVSPost2010PropOp53
 70
     1
102
RTVSPost2010Prop54
  1
strokes_ogs.tif
102
RTVSPost2010PropOp54
 70
     1
102
RTVSPost2010Prop55
280
     0
102
RTVSPost2010PropOp55
 70
     1
102
RTVSPost2010Prop56
140
1.0
102
RTVSPost2010PropOp56
 70
     1
102
RTVSPost2010Prop57
140
1.0
102
RTVSPost2010PropOp57
 70
     1
102
RTVSPropertyOp0
 70
     1
102
RTVSPropertyOp1
 70
     1
102
RTVSPropertyOp2
 70
     1
102
RTVSPropertyOp3
 70
     1
102
RTVSPropertyOp4
 70
     1
102
RTVSPropertyOp5
 70
     1
102
RTVSPropertyOp6
 70
     1
102
RTVSPropertyOp7
 70
     1
102
RTVSPropertyOp8
 70
     1
102
RTVSPropertyOp9
 70
     1
102
RTVSPropertyOp10
 70
     1
102
RTVSPropertyOp11
 70
     1
102
RTVSPropertyOp12
 70
     1
102
RTVSPropertyOp13
 70
     1
102
RTVSPropertyOp14
 70
     1
102
RTVSPropertyOp15
 70
     1
102
RTVSPropertyOp16
 70
     1
102
RTVSPropertyOp17
 70
     1
102
RTVSPropertyOp18
 70
     1
102
RTVSPropertyOp19
 70
     1
102
RTVSPropertyOp20
 70
     1
102
RTVSPropertyOp21
 70
     1
102
RTVSPropertyOp22
 70
     1
102
RTVSPropertyOp23
 70
     1
102
RTVSPropertyOp24
 70
     1
102
RTVSPropertyOp25
 70
     1
102
RTVSPropertyOp26
 70
     1
102
RTVSPropertyOp27
 70
     1
102
RTVSPropertyOp28
 70
     1
102
RTVSPropertyOp29
 70
     1
102
RTVSPropertyOp30
 70
     1
102
RTVSPropertyOp31
 70
     1
102
RTVSPropertyOp32
 70
     1
102
RTVSPropertyOp33
 70
     1
102
RTVSPropertyOp34
 70
     1
102
RTVSPropertyOp35
 70
     1
102
RTVSPropertyOp36
 70
     1
102
RTVSPropertyOp37
 70
     1
102
RTVSPropertyOp38
 70
     1
102
RTVSPropertyOp39
 70
     1
102
RTVSPropertyOp40
 70
     1
102
RTVSPropertyOp41
 70
     1
102
RTVSPropertyOp42
 70
     1
102
RTVSPropertyOp43
 70
     1
102
RTVSPropertyOp44
 70
     1
102
RTVSPropertyOp45
 70
     1
102
RTVSPropertyOp46
 70
     1
102
RTVSPropertyOp47
 70
     1
102
RTVSPropertyOp48
 70
     1
102
RTVSPropertyOp49
 70
     1
102
RTVSPropertyOp50
 70
     1
102
RTVSPropertyOp51
 70
     0
102
RTVSPropertyOp52
 70
     0
102
RTVSPropertyOp53
 70
     1
102
RTVSPropertyOp54
 70
     1
102
RTVSPropertyOp55
 70
     1
102
RTVSPropertyOp56
 70
     1
102
RTVSPropertyOp57
 70
     1
102
RTVSPropertyOp58
 70
     1
102
RTVSPropertyOp59
 70
     1
102
RTVSPropertyOp60
 70
     1
102
RTVSPropertyOp61
 70
     1
102
RTVSPropertyOp62
 70
     1
  0
XRECORD
  5
7488
102
{ACAD_REACTORS
330
7487
102
}
330
7487
100
AcDbXrecord
280
     1
102
RTVSPost2010Prop28
280
     0
102
RTVSPost2010PropOp28
 70
     1
102
RTVSPost2010Prop29
280
     1
102
RTVSPost2010PropOp29
 70
     1
102
RTVSPost2010Prop30
280
     1
102
RTVSPost2010PropOp30
 70
     1
102
RTVSPost2010Prop31
280
     0
102
RTVSPost2010PropOp31
 70
     1
102
RTVSPost2010Prop32
280
     0
102
RTVSPost2010PropOp32
 70
     1
102
RTVSPost2010Prop33
280
     0
102
RTVSPost2010PropOp33
 70
     1
102
RTVSPost2010Prop34
280
     0
102
RTVSPost2010PropOp34
 70
     1
102
RTVSPost2010Prop35
280
     0
102
RTVSPost2010PropOp35
 70
     1
102
RTVSPost2010Prop36
280
     0
102
RTVSPost2010PropOp36
 70
     1
102
RTVSPost2010Prop37
 90
       50
102
RTVSPost2010PropOp37
 70
     1
102
RTVSPost2010Prop38
140
0.0
102
RTVSPost2010PropOp38
 70
     1
102
RTVSPost2010Prop39
140
1.0
102
RTVSPost2010PropOp39
 70
     1
102
RTVSPost2010Prop40
 90
        0
102
RTVSPost2010PropOp40
 70
     1
102
RTVSPost2010Prop41ColorIndex
 90
       18
102
RTVSPost2010Prop41ColorRGB
 90
        0
102
RTVSPost2010PropOp41
 70
     1
102
RTVSPost2010Prop42
 90
       50
102
RTVSPost2010PropOp42
 70
     1
102
RTVSPost2010Prop43
 90
        3
102
RTVSPost2010PropOp43
 70
     1
102
RTVSPost2010Prop44ColorIndex
 90
        5
102
RTVSPost2010Prop44ColorRGB
 90
      255
102
RTVSPost2010PropOp44
 70
     1
102
RTVSPost2010Prop45
280
     0
102
RTVSPost2010PropOp45
 70
     1
102
RTVSPost2010Prop46
 90
       50
102
RTVSPost2010PropOp46
 70
     1
102
RTVSPost2010Prop47
 90
       50
102
RTVSPost2010PropOp47
 70
     1
102
RTVSPost2010Prop48
 90
       50
102
RTVSPost2010PropOp48
 70
     1
102
RTVSPost2010Prop49
280
     0
102
RTVSPost2010PropOp49
 70
     1
102
RTVSPost2010Prop50
 90
       50
102
RTVSPost2010PropOp50
 70
     1
102
RTVSPost2010Prop51ColorIndex
 90
      256
102
RTVSPost2010Prop51ColorRGB
 90
-16777216
102
RTVSPost2010PropOp51
 70
     0
102
RTVSPost2010Prop52
140
1.0
102
RTVSPost2010PropOp52
 70
     0
102
RTVSPost2010Prop53
 90
        2
102
RTVSPost2010PropOp53
 70
     1
102
RTVSPost2010Prop54
  1
strokes_ogs.tif
102
RTVSPost2010PropOp54
 70
     1
102
RTVSPost2010Prop55
280
     0
102
RTVSPost2010PropOp55
 70
     1
102
RTVSPost2010Prop56
140
1.0
102
RTVSPost2010PropOp56
 70
     1
102
RTVSPost2010Prop57
140
1.0
102
RTVSPost2010PropOp57
 70
     1
102
RTVSPropertyOp0
 70
     1
102
RTVSPropertyOp1
 70
     1
102
RTVSPropertyOp2
 70
     1
102
RTVSPropertyOp3
 70
     1
102
RTVSPropertyOp4
 70
     1
102
RTVSPropertyOp5
 70
     1
102
RTVSPropertyOp6
 70
     1
102
RTVSPropertyOp7
 70
     1
102
RTVSPropertyOp8
 70
     1
102
RTVSPropertyOp9
 70
     1
102
RTVSPropertyOp10
 70
     1
102
RTVSPropertyOp11
 70
     1
102
RTVSPropertyOp12
 70
     1
102
RTVSPropertyOp13
 70
     1
102
RTVSPropertyOp14
 70
     1
102
RTVSPropertyOp15
 70
     1
102
RTVSPropertyOp16
 70
     1
102
RTVSPropertyOp17
 70
     1
102
RTVSPropertyOp18
 70
     1
102
RTVSPropertyOp19
 70
     1
102
RTVSPropertyOp20
 70
     1
102
RTVSPropertyOp21
 70
     1
102
RTVSPropertyOp22
 70
     1
102
RTVSPropertyOp23
 70
     1
102
RTVSPropertyOp24
 70
     1
102
RTVSPropertyOp25
 70
     1
102
RTVSPropertyOp26
 70
     1
102
RTVSPropertyOp27
 70
     1
102
RTVSPropertyOp28
 70
     1
102
RTVSPropertyOp29
 70
     1
102
RTVSPropertyOp30
 70
     1
102
RTVSPropertyOp31
 70
     1
102
RTVSPropertyOp32
 70
     1
102
RTVSPropertyOp33
 70
     1
102
RTVSPropertyOp34
 70
     1
102
RTVSPropertyOp35
 70
     1
102
RTVSPropertyOp36
 70
     1
102
RTVSPropertyOp37
 70
     1
102
RTVSPropertyOp38
 70
     1
102
RTVSPropertyOp39
 70
     1
102
RTVSPropertyOp40
 70
     1
102
RTVSPropertyOp41
 70
     1
102
RTVSPropertyOp42
 70
     1
102
RTVSPropertyOp43
 70
     1
102
RTVSPropertyOp44
 70
     1
102
RTVSPropertyOp45
 70
     1
102
RTVSPropertyOp46
 70
     1
102
RTVSPropertyOp47
 70
     1
102
RTVSPropertyOp48
 70
     1
102
RTVSPropertyOp49
 70
     1
102
RTVSPropertyOp50
 70
     1
102
RTVSPropertyOp51
 70
     0
102
RTVSPropertyOp52
 70
     0
102
RTVSPropertyOp53
 70
     1
102
RTVSPropertyOp54
 70
     1
102
RTVSPropertyOp55
 70
     1
102
RTVSPropertyOp56
 70
     1
102
RTVSPropertyOp57
 70
     1
102
RTVSPropertyOp58
 70
     1
102
RTVSPropertyOp59
 70
     1
102
RTVSPropertyOp60
 70
     1
102
RTVSPropertyOp61
 70
     1
102
RTVSPropertyOp62
 70
     1
  0
XRECORD
  5
748A
102
{ACAD_REACTORS
330
7489
102
}
330
7489
100
AcDbXrecord
280
     1
102
RTVSPost2010Prop28
280
     0
102
RTVSPost2010PropOp28
 70
     1
102
RTVSPost2010Prop29
280
     1
102
RTVSPost2010PropOp29
 70
     1
102
RTVSPost2010Prop30
280
     1
102
RTVSPost2010PropOp30
 70
     1
102
RTVSPost2010Prop31
280
     0
102
RTVSPost2010PropOp31
 70
     1
102
RTVSPost2010Prop32
280
     0
102
RTVSPost2010PropOp32
 70
     1
102
RTVSPost2010Prop33
280
     0
102
RTVSPost2010PropOp33
 70
     1
102
RTVSPost2010Prop34
280
     0
102
RTVSPost2010PropOp34
 70
     1
102
RTVSPost2010Prop35
280
     0
102
RTVSPost2010PropOp35
 70
     1
102
RTVSPost2010Prop36
280
     0
102
RTVSPost2010PropOp36
 70
     1
102
RTVSPost2010Prop37
 90
       50
102
RTVSPost2010PropOp37
 70
     1
102
RTVSPost2010Prop38
140
0.0
102
RTVSPost2010PropOp38
 70
     1
102
RTVSPost2010Prop39
140
1.0
102
RTVSPost2010PropOp39
 70
     1
102
RTVSPost2010Prop40
 90
        0
102
RTVSPost2010PropOp40
 70
     1
102
RTVSPost2010Prop41ColorIndex
 90
       18
102
RTVSPost2010Prop41ColorRGB
 90
        0
102
RTVSPost2010PropOp41
 70
     1
102
RTVSPost2010Prop42
 90
       50
102
RTVSPost2010PropOp42
 70
     1
102
RTVSPost2010Prop43
 90
        3
102
RTVSPost2010PropOp43
 70
     1
102
RTVSPost2010Prop44ColorIndex
 90
        5
102
RTVSPost2010Prop44ColorRGB
 90
      255
102
RTVSPost2010PropOp44
 70
     1
102
RTVSPost2010Prop45
280
     0
102
RTVSPost2010PropOp45
 70
     1
102
RTVSPost2010Prop46
 90
       50
102
RTVSPost2010PropOp46
 70
     1
102
RTVSPost2010Prop47
 90
       50
102
RTVSPost2010PropOp47
 70
     1
102
RTVSPost2010Prop48
 90
       50
102
RTVSPost2010PropOp48
 70
     1
102
RTVSPost2010Prop49
280
     0
102
RTVSPost2010PropOp49
 70
     1
102
RTVSPost2010Prop50
 90
       50
102
RTVSPost2010PropOp50
 70
     1
102
RTVSPost2010Prop51ColorIndex
 90
      256
102
RTVSPost2010Prop51ColorRGB
 90
-16777216
102
RTVSPost2010PropOp51
 70
     0
102
RTVSPost2010Prop52
140
1.0
102
RTVSPost2010PropOp52
 70
     0
102
RTVSPost2010Prop53
 90
        2
102
RTVSPost2010PropOp53
 70
     1
102
RTVSPost2010Prop54
  1
strokes_ogs.tif
102
RTVSPost2010PropOp54
 70
     1
102
RTVSPost2010Prop55
280
     0
102
RTVSPost2010PropOp55
 70
     1
102
RTVSPost2010Prop56
140
1.0
102
RTVSPost2010PropOp56
 70
     1
102
RTVSPost2010Prop57
140
1.0
102
RTVSPost2010PropOp57
 70
     1
102
RTVSPropertyOp0
 70
     1
102
RTVSPropertyOp1
 70
     1
102
RTVSPropertyOp2
 70
     1
102
RTVSPropertyOp3
 70
     1
102
RTVSPropertyOp4
 70
     1
102
RTVSPropertyOp5
 70
     1
102
RTVSPropertyOp6
 70
     1
102
RTVSPropertyOp7
 70
     1
102
RTVSPropertyOp8
 70
     1
102
RTVSPropertyOp9
 70
     1
102
RTVSPropertyOp10
 70
     1
102
RTVSPropertyOp11
 70
     1
102
RTVSPropertyOp12
 70
     1
102
RTVSPropertyOp13
 70
     1
102
RTVSPropertyOp14
 70
     1
102
RTVSPropertyOp15
 70
     1
102
RTVSPropertyOp16
 70
     1
102
RTVSPropertyOp17
 70
     1
102
RTVSPropertyOp18
 70
     1
102
RTVSPropertyOp19
 70
     1
102
RTVSPropertyOp20
 70
     1
102
RTVSPropertyOp21
 70
     1
102
RTVSPropertyOp22
 70
     1
102
RTVSPropertyOp23
 70
     1
102
RTVSPropertyOp24
 70
     1
102
RTVSPropertyOp25
 70
     1
102
RTVSPropertyOp26
 70
     1
102
RTVSPropertyOp27
 70
     1
102
RTVSPropertyOp28
 70
     1
102
RTVSPropertyOp29
 70
     1
102
RTVSPropertyOp30
 70
     1
102
RTVSPropertyOp31
 70
     1
102
RTVSPropertyOp32
 70
     1
102
RTVSPropertyOp33
 70
     1
102
RTVSPropertyOp34
 70
     1
102
RTVSPropertyOp35
 70
     1
102
RTVSPropertyOp36
 70
     1
102
RTVSPropertyOp37
 70
     1
102
RTVSPropertyOp38
 70
     1
102
RTVSPropertyOp39
 70
     1
102
RTVSPropertyOp40
 70
     1
102
RTVSPropertyOp41
 70
     1
102
RTVSPropertyOp42
 70
     1
102
RTVSPropertyOp43
 70
     1
102
RTVSPropertyOp44
 70
     1
102
RTVSPropertyOp45
 70
     1
102
RTVSPropertyOp46
 70
     1
102
RTVSPropertyOp47
 70
     1
102
RTVSPropertyOp48
 70
     1
102
RTVSPropertyOp49
 70
     1
102
RTVSPropertyOp50
 70
     1
102
RTVSPropertyOp51
 70
     0
102
RTVSPropertyOp52
 70
     0
102
RTVSPropertyOp53
 70
     1
102
RTVSPropertyOp54
 70
     1
102
RTVSPropertyOp55
 70
     1
102
RTVSPropertyOp56
 70
     1
102
RTVSPropertyOp57
 70
     1
102
RTVSPropertyOp58
 70
     1
102
RTVSPropertyOp59
 70
     1
102
RTVSPropertyOp60
 70
     1
102
RTVSPropertyOp61
 70
     1
102
RTVSPropertyOp62
 70
     1
  0
XRECORD
  5
748C
102
{ACAD_REACTORS
330
748B
102
}
330
748B
100
AcDbXrecord
280
     1
102
RTVSPost2010Prop28
280
     0
102
RTVSPost2010PropOp28
 70
     1
102
RTVSPost2010Prop29
280
     1
102
RTVSPost2010PropOp29
 70
     1
102
RTVSPost2010Prop30
280
     1
102
RTVSPost2010PropOp30
 70
     1
102
RTVSPost2010Prop31
280
     0
102
RTVSPost2010PropOp31
 70
     1
102
RTVSPost2010Prop32
280
     0
102
RTVSPost2010PropOp32
 70
     1
102
RTVSPost2010Prop33
280
     0
102
RTVSPost2010PropOp33
 70
     1
102
RTVSPost2010Prop34
280
     0
102
RTVSPost2010PropOp34
 70
     1
102
RTVSPost2010Prop35
280
     0
102
RTVSPost2010PropOp35
 70
     1
102
RTVSPost2010Prop36
280
     0
102
RTVSPost2010PropOp36
 70
     1
102
RTVSPost2010Prop37
 90
       50
102
RTVSPost2010PropOp37
 70
     1
102
RTVSPost2010Prop38
140
0.0
102
RTVSPost2010PropOp38
 70
     1
102
RTVSPost2010Prop39
140
1.0
102
RTVSPost2010PropOp39
 70
     1
102
RTVSPost2010Prop40
 90
        0
102
RTVSPost2010PropOp40
 70
     1
102
RTVSPost2010Prop41ColorIndex
 90
       18
102
RTVSPost2010Prop41ColorRGB
 90
        0
102
RTVSPost2010PropOp41
 70
     1
102
RTVSPost2010Prop42
 90
       50
102
RTVSPost2010PropOp42
 70
     1
102
RTVSPost2010Prop43
 90
        3
102
RTVSPost2010PropOp43
 70
     1
102
RTVSPost2010Prop44ColorIndex
 90
        5
102
RTVSPost2010Prop44ColorRGB
 90
      255
102
RTVSPost2010PropOp44
 70
     1
102
RTVSPost2010Prop45
280
     0
102
RTVSPost2010PropOp45
 70
     1
102
RTVSPost2010Prop46
 90
       50
102
RTVSPost2010PropOp46
 70
     1
102
RTVSPost2010Prop47
 90
       50
102
RTVSPost2010PropOp47
 70
     1
102
RTVSPost2010Prop48
 90
       50
102
RTVSPost2010PropOp48
 70
     1
102
RTVSPost2010Prop49
280
     0
102
RTVSPost2010PropOp49
 70
     1
102
RTVSPost2010Prop50
 90
       50
102
RTVSPost2010PropOp50
 70
     1
102
RTVSPost2010Prop51ColorIndex
 90
      256
102
RTVSPost2010Prop51ColorRGB
 90
-16777216
102
RTVSPost2010PropOp51
 70
     0
102
RTVSPost2010Prop52
140
1.0
102
RTVSPost2010PropOp52
 70
     0
102
RTVSPost2010Prop53
 90
        2
102
RTVSPost2010PropOp53
 70
     1
102
RTVSPost2010Prop54
  1
strokes_ogs.tif
102
RTVSPost2010PropOp54
 70
     1
102
RTVSPost2010Prop55
280
     0
102
RTVSPost2010PropOp55
 70
     1
102
RTVSPost2010Prop56
140
1.0
102
RTVSPost2010PropOp56
 70
     1
102
RTVSPost2010Prop57
140
1.0
102
RTVSPost2010PropOp57
 70
     1
102
RTVSPropertyOp0
 70
     1
102
RTVSPropertyOp1
 70
     1
102
RTVSPropertyOp2
 70
     1
102
RTVSPropertyOp3
 70
     1
102
RTVSPropertyOp4
 70
     1
102
RTVSPropertyOp5
 70
     1
102
RTVSPropertyOp6
 70
     1
102
RTVSPropertyOp7
 70
     1
102
RTVSPropertyOp8
 70
     1
102
RTVSPropertyOp9
 70
     1
102
RTVSPropertyOp10
 70
     1
102
RTVSPropertyOp11
 70
     1
102
RTVSPropertyOp12
 70
     1
102
RTVSPropertyOp13
 70
     1
102
RTVSPropertyOp14
 70
     1
102
RTVSPropertyOp15
 70
     1
102
RTVSPropertyOp16
 70
     1
102
RTVSPropertyOp17
 70
     1
102
RTVSPropertyOp18
 70
     1
102
RTVSPropertyOp19
 70
     1
102
RTVSPropertyOp20
 70
     1
102
RTVSPropertyOp21
 70
     1
102
RTVSPropertyOp22
 70
     1
102
RTVSPropertyOp23
 70
     1
102
RTVSPropertyOp24
 70
     1
102
RTVSPropertyOp25
 70
     1
102
RTVSPropertyOp26
 70
     1
102
RTVSPropertyOp27
 70
     1
102
RTVSPropertyOp28
 70
     1
102
RTVSPropertyOp29
 70
     1
102
RTVSPropertyOp30
 70
     1
102
RTVSPropertyOp31
 70
     1
102
RTVSPropertyOp32
 70
     1
102
RTVSPropertyOp33
 70
     1
102
RTVSPropertyOp34
 70
     1
102
RTVSPropertyOp35
 70
     1
102
RTVSPropertyOp36
 70
     1
102
RTVSPropertyOp37
 70
     1
102
RTVSPropertyOp38
 70
     1
102
RTVSPropertyOp39
 70
     1
102
RTVSPropertyOp40
 70
     1
102
RTVSPropertyOp41
 70
     1
102
RTVSPropertyOp42
 70
     1
102
RTVSPropertyOp43
 70
     1
102
RTVSPropertyOp44
 70
     1
102
RTVSPropertyOp45
 70
     1
102
RTVSPropertyOp46
 70
     1
102
RTVSPropertyOp47
 70
     1
102
RTVSPropertyOp48
 70
     1
102
RTVSPropertyOp49
 70
     1
102
RTVSPropertyOp50
 70
     1
102
RTVSPropertyOp51
 70
     0
102
RTVSPropertyOp52
 70
     0
102
RTVSPropertyOp53
 70
     1
102
RTVSPropertyOp54
 70
     1
102
RTVSPropertyOp55
 70
     1
102
RTVSPropertyOp56
 70
     1
102
RTVSPropertyOp57
 70
     1
102
RTVSPropertyOp58
 70
     1
102
RTVSPropertyOp59
 70
     1
102
RTVSPropertyOp60
 70
     1
102
RTVSPropertyOp61
 70
     1
102
RTVSPropertyOp62
 70
     1
  0
XRECORD
  5
7492
102
{ACAD_REACTORS
330
7491
102
}
330
7491
100
AcDbXrecord
280
     1
102
RTVSPost2010Prop28
280
     0
102
RTVSPost2010PropOp28
 70
     1
102
RTVSPost2010Prop29
280
     1
102
RTVSPost2010PropOp29
 70
     1
102
RTVSPost2010Prop30
280
     1
102
RTVSPost2010PropOp30
 70
     1
102
RTVSPost2010Prop31
280
     0
102
RTVSPost2010PropOp31
 70
     1
102
RTVSPost2010Prop32
280
     0
102
RTVSPost2010PropOp32
 70
     1
102
RTVSPost2010Prop33
280
     0
102
RTVSPost2010PropOp33
 70
     1
102
RTVSPost2010Prop34
280
     0
102
RTVSPost2010PropOp34
 70
     1
102
RTVSPost2010Prop35
280
     0
102
RTVSPost2010PropOp35
 70
     1
102
RTVSPost2010Prop36
280
     0
102
RTVSPost2010PropOp36
 70
     1
102
RTVSPost2010Prop37
 90
       50
102
RTVSPost2010PropOp37
 70
     1
102
RTVSPost2010Prop38
140
0.0
102
RTVSPost2010PropOp38
 70
     1
102
RTVSPost2010Prop39
140
1.0
102
RTVSPost2010PropOp39
 70
     1
102
RTVSPost2010Prop40
 90
        0
102
RTVSPost2010PropOp40
 70
     1
102
RTVSPost2010Prop41ColorIndex
 90
       18
102
RTVSPost2010Prop41ColorRGB
 90
        0
102
RTVSPost2010PropOp41
 70
     1
102
RTVSPost2010Prop42
 90
       50
102
RTVSPost2010PropOp42
 70
     1
102
RTVSPost2010Prop43
 90
        3
102
RTVSPost2010PropOp43
 70
     1
102
RTVSPost2010Prop44ColorIndex
 90
        5
102
RTVSPost2010Prop44ColorRGB
 90
      255
102
RTVSPost2010PropOp44
 70
     1
102
RTVSPost2010Prop45
280
     0
102
RTVSPost2010PropOp45
 70
     1
102
RTVSPost2010Prop46
 90
       50
102
RTVSPost2010PropOp46
 70
     1
102
RTVSPost2010Prop47
 90
       50
102
RTVSPost2010PropOp47
 70
     1
102
RTVSPost2010Prop48
 90
       50
102
RTVSPost2010PropOp48
 70
     1
102
RTVSPost2010Prop49
280
     0
102
RTVSPost2010PropOp49
 70
     1
102
RTVSPost2010Prop50
 90
       50
102
RTVSPost2010PropOp50
 70
     1
102
RTVSPost2010Prop51ColorIndex
 90
      256
102
RTVSPost2010Prop51ColorRGB
 90
-16777216
102
RTVSPost2010PropOp51
 70
     0
102
RTVSPost2010Prop52
140
1.0
102
RTVSPost2010PropOp52
 70
     0
102
RTVSPost2010Prop53
 90
        2
102
RTVSPost2010PropOp53
 70
     1
102
RTVSPost2010Prop54
  1
strokes_ogs.tif
102
RTVSPost2010PropOp54
 70
     1
102
RTVSPost2010Prop55
280
     0
102
RTVSPost2010PropOp55
 70
     1
102
RTVSPost2010Prop56
140
1.0
102
RTVSPost2010PropOp56
 70
     1
102
RTVSPost2010Prop57
140
1.0
102
RTVSPost2010PropOp57
 70
     1
102
RTVSPropertyOp0
 70
     1
102
RTVSPropertyOp1
 70
     1
102
RTVSPropertyOp2
 70
     1
102
RTVSPropertyOp3
 70
     1
102
RTVSPropertyOp4
 70
     1
102
RTVSPropertyOp5
 70
     1
102
RTVSPropertyOp6
 70
     1
102
RTVSPropertyOp7
 70
     1
102
RTVSPropertyOp8
 70
     1
102
RTVSPropertyOp9
 70
     1
102
RTVSPropertyOp10
 70
     1
102
RTVSPropertyOp11
 70
     1
102
RTVSPropertyOp12
 70
     1
102
RTVSPropertyOp13
 70
     1
102
RTVSPropertyOp14
 70
     1
102
RTVSPropertyOp15
 70
     1
102
RTVSPropertyOp16
 70
     1
102
RTVSPropertyOp17
 70
     1
102
RTVSPropertyOp18
 70
     1
102
RTVSPropertyOp19
 70
     1
102
RTVSPropertyOp20
 70
     1
102
RTVSPropertyOp21
 70
     1
102
RTVSPropertyOp22
 70
     1
102
RTVSPropertyOp23
 70
     1
102
RTVSPropertyOp24
 70
     1
102
RTVSPropertyOp25
 70
     1
102
RTVSPropertyOp26
 70
     1
102
RTVSPropertyOp27
 70
     1
102
RTVSPropertyOp28
 70
     1
102
RTVSPropertyOp29
 70
     1
102
RTVSPropertyOp30
 70
     1
102
RTVSPropertyOp31
 70
     1
102
RTVSPropertyOp32
 70
     1
102
RTVSPropertyOp33
 70
     1
102
RTVSPropertyOp34
 70
     1
102
RTVSPropertyOp35
 70
     1
102
RTVSPropertyOp36
 70
     1
102
RTVSPropertyOp37
 70
     1
102
RTVSPropertyOp38
 70
     1
102
RTVSPropertyOp39
 70
     1
102
RTVSPropertyOp40
 70
     1
102
RTVSPropertyOp41
 70
     1
102
RTVSPropertyOp42
 70
     1
102
RTVSPropertyOp43
 70
     1
102
RTVSPropertyOp44
 70
     1
102
RTVSPropertyOp45
 70
     1
102
RTVSPropertyOp46
 70
     1
102
RTVSPropertyOp47
 70
     1
102
RTVSPropertyOp48
 70
     1
102
RTVSPropertyOp49
 70
     1
102
RTVSPropertyOp50
 70
     1
102
RTVSPropertyOp51
 70
     0
102
RTVSPropertyOp52
 70
     0
102
RTVSPropertyOp53
 70
     1
102
RTVSPropertyOp54
 70
     1
102
RTVSPropertyOp55
 70
     1
102
RTVSPropertyOp56
 70
     1
102
RTVSPropertyOp57
 70
     1
102
RTVSPropertyOp58
 70
     1
102
RTVSPropertyOp59
 70
     1
102
RTVSPropertyOp60
 70
     1
102
RTVSPropertyOp61
 70
     1
102
RTVSPropertyOp62
 70
     1
  0
XRECORD
  5
74A6
102
{ACAD_REACTORS
330
74A5
102
}
330
74A5
100
AcDbXrecord
280
     1
102
RTVSPost2010Prop28
280
     0
102
RTVSPost2010PropOp28
 70
     0
102
RTVSPost2010Prop29
280
     1
102
RTVSPost2010PropOp29
 70
     0
102
RTVSPost2010Prop30
280
     1
102
RTVSPost2010PropOp30
 70
     0
102
RTVSPost2010Prop31
280
     0
102
RTVSPost2010PropOp31
 70
     0
102
RTVSPost2010Prop32
280
     0
102
RTVSPost2010PropOp32
 70
     0
102
RTVSPost2010Prop33
280
     0
102
RTVSPost2010PropOp33
 70
     0
102
RTVSPost2010Prop34
280
     0
102
RTVSPost2010PropOp34
 70
     0
102
RTVSPost2010Prop35
280
     0
102
RTVSPost2010PropOp35
 70
     0
102
RTVSPost2010Prop36
280
     0
102
RTVSPost2010PropOp36
 70
     0
102
RTVSPost2010Prop37
 90
       50
102
RTVSPost2010PropOp37
 70
     0
102
RTVSPost2010Prop38
140
0.0
102
RTVSPost2010PropOp38
 70
     0
102
RTVSPost2010Prop39
140
1.0
102
RTVSPost2010PropOp39
 70
     0
102
RTVSPost2010Prop40
 90
        0
102
RTVSPost2010PropOp40
 70
     0
102
RTVSPost2010Prop41ColorIndex
 90
       18
102
RTVSPost2010Prop41ColorRGB
 90
        0
102
RTVSPost2010PropOp41
 70
     0
102
RTVSPost2010Prop42
 90
       50
102
RTVSPost2010PropOp42
 70
     0
102
RTVSPost2010Prop43
 90
        3
102
RTVSPost2010PropOp43
 70
     0
102
RTVSPost2010Prop44ColorIndex
 90
        5
102
RTVSPost2010Prop44ColorRGB
 90
      255
102
RTVSPost2010PropOp44
 70
     0
102
RTVSPost2010Prop45
280
     0
102
RTVSPost2010PropOp45
 70
     0
102
RTVSPost2010Prop46
 90
       50
102
RTVSPost2010PropOp46
 70
     0
102
RTVSPost2010Prop47
 90
       50
102
RTVSPost2010PropOp47
 70
     0
102
RTVSPost2010Prop48
 90
       50
102
RTVSPost2010PropOp48
 70
     0
102
RTVSPost2010Prop49
280
     0
102
RTVSPost2010PropOp49
 70
     0
102
RTVSPost2010Prop50
 90
       50
102
RTVSPost2010PropOp50
 70
     0
102
RTVSPost2010Prop51ColorIndex
 90
      256
102
RTVSPost2010Prop51ColorRGB
 90
-16777216
102
RTVSPost2010PropOp51
 70
     0
102
RTVSPost2010Prop52
140
1.0
102
RTVSPost2010PropOp52
 70
     0
102
RTVSPost2010Prop53
 90
        2
102
RTVSPost2010PropOp53
 70
     0
102
RTVSPost2010Prop54
  1
strokes_ogs.tif
102
RTVSPost2010PropOp54
 70
     0
102
RTVSPost2010Prop55
280
     0
102
RTVSPost2010PropOp55
 70
     0
102
RTVSPost2010Prop56
140
1.0
102
RTVSPost2010PropOp56
 70
     0
102
RTVSPost2010Prop57
140
1.0
102
RTVSPost2010PropOp57
 70
     0
102
RTVSPropertyOp0
 70
     0
102
RTVSPropertyOp1
 70
     0
102
RTVSPropertyOp2
 70
     0
102
RTVSPropertyOp3
 70
     0
102
RTVSPropertyOp4
 70
     0
102
RTVSPropertyOp5
 70
     0
102
RTVSPropertyOp6
 70
     0
102
RTVSPropertyOp7
 70
     0
102
RTVSPropertyOp8
 70
     0
102
RTVSPropertyOp9
 70
     0
102
RTVSPropertyOp10
 70
     0
102
RTVSPropertyOp11
 70
     0
102
RTVSPropertyOp12
 70
     0
102
RTVSPropertyOp13
 70
     0
102
RTVSPropertyOp14
 70
     2
102
RTVSPropertyOp15
 70
     0
102
RTVSPropertyOp16
 70
     0
102
RTVSPropertyOp17
 70
     0
102
RTVSPropertyOp18
 70
     0
102
RTVSPropertyOp19
 70
     0
102
RTVSPropertyOp20
 70
     0
102
RTVSPropertyOp21
 70
     0
102
RTVSPropertyOp22
 70
     0
102
RTVSPropertyOp23
 70
     0
102
RTVSPropertyOp24
 70
     0
102
RTVSPropertyOp25
 70
     0
102
RTVSPropertyOp26
 70
     0
102
RTVSPropertyOp27
 70
     0
102
RTVSPropertyOp28
 70
     0
102
RTVSPropertyOp29
 70
     0
102
RTVSPropertyOp30
 70
     0
102
RTVSPropertyOp31
 70
     0
102
RTVSPropertyOp32
 70
     0
102
RTVSPropertyOp33
 70
     0
102
RTVSPropertyOp34
 70
     0
102
RTVSPropertyOp35
 70
     0
102
RTVSPropertyOp36
 70
     0
102
RTVSPropertyOp37
 70
     0
102
RTVSPropertyOp38
 70
     0
102
RTVSPropertyOp39
 70
     0
102
RTVSPropertyOp40
 70
     0
102
RTVSPropertyOp41
 70
     0
102
RTVSPropertyOp42
 70
     0
102
RTVSPropertyOp43
 70
     0
102
RTVSPropertyOp44
 70
     0
102
RTVSPropertyOp45
 70
     0
102
RTVSPropertyOp46
 70
     0
102
RTVSPropertyOp47
 70
     0
102
RTVSPropertyOp48
 70
     0
102
RTVSPropertyOp49
 70
     0
102
RTVSPropertyOp50
 70
     0
102
RTVSPropertyOp51
 70
     0
102
RTVSPropertyOp52
 70
     0
102
RTVSPropertyOp53
 70
     0
102
RTVSPropertyOp54
 70
     0
102
RTVSPropertyOp55
 70
     0
102
RTVSPropertyOp56
 70
     0
102
RTVSPropertyOp57
 70
     0
102
RTVSPropertyOp58
 70
     1
102
RTVSPropertyOp59
 70
     1
102
RTVSPropertyOp60
 70
     1
102
RTVSPropertyOp61
 70
     1
102
RTVSPropertyOp62
 70
     1
  0
XRECORD
  5
74A0
102
{ACAD_REACTORS
330
749F
102
}
330
749F
100
AcDbXrecord
280
     1
102
RTVSPost2010Prop28
280
     0
102
RTVSPost2010PropOp28
 70
     1
102
RTVSPost2010Prop29
280
     1
102
RTVSPost2010PropOp29
 70
     1
102
RTVSPost2010Prop30
280
     1
102
RTVSPost2010PropOp30
 70
     1
102
RTVSPost2010Prop31
280
     0
102
RTVSPost2010PropOp31
 70
     1
102
RTVSPost2010Prop32
280
     0
102
RTVSPost2010PropOp32
 70
     1
102
RTVSPost2010Prop33
280
     0
102
RTVSPost2010PropOp33
 70
     1
102
RTVSPost2010Prop34
280
     0
102
RTVSPost2010PropOp34
 70
     1
102
RTVSPost2010Prop35
280
     0
102
RTVSPost2010PropOp35
 70
     1
102
RTVSPost2010Prop36
280
     0
102
RTVSPost2010PropOp36
 70
     1
102
RTVSPost2010Prop37
 90
       50
102
RTVSPost2010PropOp37
 70
     1
102
RTVSPost2010Prop38
140
0.0
102
RTVSPost2010PropOp38
 70
     1
102
RTVSPost2010Prop39
140
1.0
102
RTVSPost2010PropOp39
 70
     1
102
RTVSPost2010Prop40
 90
        0
102
RTVSPost2010PropOp40
 70
     1
102
RTVSPost2010Prop41ColorIndex
 90
       18
102
RTVSPost2010Prop41ColorRGB
 90
        0
102
RTVSPost2010PropOp41
 70
     1
102
RTVSPost2010Prop42
 90
       50
102
RTVSPost2010PropOp42
 70
     1
102
RTVSPost2010Prop43
 90
        3
102
RTVSPost2010PropOp43
 70
     1
102
RTVSPost2010Prop44ColorIndex
 90
        5
102
RTVSPost2010Prop44ColorRGB
 90
      255
102
RTVSPost2010PropOp44
 70
     1
102
RTVSPost2010Prop45
280
     0
102
RTVSPost2010PropOp45
 70
     1
102
RTVSPost2010Prop46
 90
       50
102
RTVSPost2010PropOp46
 70
     1
102
RTVSPost2010Prop47
 90
       50
102
RTVSPost2010PropOp47
 70
     1
102
RTVSPost2010Prop48
 90
       50
102
RTVSPost2010PropOp48
 70
     1
102
RTVSPost2010Prop49
280
     0
102
RTVSPost2010PropOp49
 70
     1
102
RTVSPost2010Prop50
 90
       50
102
RTVSPost2010PropOp50
 70
     1
102
RTVSPost2010Prop51ColorIndex
 90
      256
102
RTVSPost2010Prop51ColorRGB
 90
-16777216
102
RTVSPost2010PropOp51
 70
     0
102
RTVSPost2010Prop52
140
1.0
102
RTVSPost2010PropOp52
 70
     0
102
RTVSPost2010Prop53
 90
        2
102
RTVSPost2010PropOp53
 70
     1
102
RTVSPost2010Prop54
  1
strokes_ogs.tif
102
RTVSPost2010PropOp54
 70
     1
102
RTVSPost2010Prop55
280
     0
102
RTVSPost2010PropOp55
 70
     1
102
RTVSPost2010Prop56
140
1.0
102
RTVSPost2010PropOp56
 70
     1
102
RTVSPost2010Prop57
140
1.0
102
RTVSPost2010PropOp57
 70
     1
102
RTVSPropertyOp0
 70
     1
102
RTVSPropertyOp1
 70
     1
102
RTVSPropertyOp2
 70
     1
102
RTVSPropertyOp3
 70
     1
102
RTVSPropertyOp4
 70
     1
102
RTVSPropertyOp5
 70
     1
102
RTVSPropertyOp6
 70
     1
102
RTVSPropertyOp7
 70
     1
102
RTVSPropertyOp8
 70
     1
102
RTVSPropertyOp9
 70
     1
102
RTVSPropertyOp10
 70
     1
102
RTVSPropertyOp11
 70
     1
102
RTVSPropertyOp12
 70
     1
102
RTVSPropertyOp13
 70
     1
102
RTVSPropertyOp14
 70
     1
102
RTVSPropertyOp15
 70
     1
102
RTVSPropertyOp16
 70
     1
102
RTVSPropertyOp17
 70
     1
102
RTVSPropertyOp18
 70
     1
102
RTVSPropertyOp19
 70
     1
102
RTVSPropertyOp20
 70
     1
102
RTVSPropertyOp21
 70
     1
102
RTVSPropertyOp22
 70
     1
102
RTVSPropertyOp23
 70
     1
102
RTVSPropertyOp24
 70
     1
102
RTVSPropertyOp25
 70
     1
102
RTVSPropertyOp26
 70
     1
102
RTVSPropertyOp27
 70
     1
102
RTVSPropertyOp28
 70
     1
102
RTVSPropertyOp29
 70
     1
102
RTVSPropertyOp30
 70
     1
102
RTVSPropertyOp31
 70
     1
102
RTVSPropertyOp32
 70
     1
102
RTVSPropertyOp33
 70
     1
102
RTVSPropertyOp34
 70
     1
102
RTVSPropertyOp35
 70
     1
102
RTVSPropertyOp36
 70
     1
102
RTVSPropertyOp37
 70
     1
102
RTVSPropertyOp38
 70
     1
102
RTVSPropertyOp39
 70
     1
102
RTVSPropertyOp40
 70
     1
102
RTVSPropertyOp41
 70
     1
102
RTVSPropertyOp42
 70
     1
102
RTVSPropertyOp43
 70
     1
102
RTVSPropertyOp44
 70
     1
102
RTVSPropertyOp45
 70
     1
102
RTVSPropertyOp46
 70
     1
102
RTVSPropertyOp47
 70
     1
102
RTVSPropertyOp48
 70
     1
102
RTVSPropertyOp49
 70
     1
102
RTVSPropertyOp50
 70
     1
102
RTVSPropertyOp51
 70
     0
102
RTVSPropertyOp52
 70
     0
102
RTVSPropertyOp53
 70
     1
102
RTVSPropertyOp54
 70
     1
102
RTVSPropertyOp55
 70
     1
102
RTVSPropertyOp56
 70
     1
102
RTVSPropertyOp57
 70
     1
102
RTVSPropertyOp58
 70
     1
102
RTVSPropertyOp59
 70
     1
102
RTVSPropertyOp60
 70
     1
102
RTVSPropertyOp61
 70
     1
102
RTVSPropertyOp62
 70
     1
  0
XRECORD
  5
74A8
102
{ACAD_REACTORS
330
74A7
102
}
330
74A7
100
AcDbXrecord
280
     1
102
RTVSPost2010Prop28
280
     0
102
RTVSPost2010PropOp28
 70
     0
102
RTVSPost2010Prop29
280
     1
102
RTVSPost2010PropOp29
 70
     0
102
RTVSPost2010Prop30
280
     1
102
RTVSPost2010PropOp30
 70
     0
102
RTVSPost2010Prop31
280
     0
102
RTVSPost2010PropOp31
 70
     0
102
RTVSPost2010Prop32
280
     0
102
RTVSPost2010PropOp32
 70
     0
102
RTVSPost2010Prop33
280
     0
102
RTVSPost2010PropOp33
 70
     0
102
RTVSPost2010Prop34
280
     0
102
RTVSPost2010PropOp34
 70
     0
102
RTVSPost2010Prop35
280
     0
102
RTVSPost2010PropOp35
 70
     0
102
RTVSPost2010Prop36
280
     0
102
RTVSPost2010PropOp36
 70
     0
102
RTVSPost2010Prop37
 90
       50
102
RTVSPost2010PropOp37
 70
     0
102
RTVSPost2010Prop38
140
0.0
102
RTVSPost2010PropOp38
 70
     0
102
RTVSPost2010Prop39
140
1.0
102
RTVSPost2010PropOp39
 70
     0
102
RTVSPost2010Prop40
 90
        0
102
RTVSPost2010PropOp40
 70
     0
102
RTVSPost2010Prop41ColorIndex
 90
       18
102
RTVSPost2010Prop41ColorRGB
 90
        0
102
RTVSPost2010PropOp41
 70
     0
102
RTVSPost2010Prop42
 90
       50
102
RTVSPost2010PropOp42
 70
     0
102
RTVSPost2010Prop43
 90
        3
102
RTVSPost2010PropOp43
 70
     0
102
RTVSPost2010Prop44ColorIndex
 90
        5
102
RTVSPost2010Prop44ColorRGB
 90
      255
102
RTVSPost2010PropOp44
 70
     0
102
RTVSPost2010Prop45
280
     0
102
RTVSPost2010PropOp45
 70
     0
102
RTVSPost2010Prop46
 90
       50
102
RTVSPost2010PropOp46
 70
     0
102
RTVSPost2010Prop47
 90
       50
102
RTVSPost2010PropOp47
 70
     0
102
RTVSPost2010Prop48
 90
       50
102
RTVSPost2010PropOp48
 70
     0
102
RTVSPost2010Prop49
280
     0
102
RTVSPost2010PropOp49
 70
     0
102
RTVSPost2010Prop50
 90
       50
102
RTVSPost2010PropOp50
 70
     0
102
RTVSPost2010Prop51ColorIndex
 90
      256
102
RTVSPost2010Prop51ColorRGB
 90
-16777216
102
RTVSPost2010PropOp51
 70
     0
102
RTVSPost2010Prop52
140
1.0
102
RTVSPost2010PropOp52
 70
     0
102
RTVSPost2010Prop53
 90
        2
102
RTVSPost2010PropOp53
 70
     0
102
RTVSPost2010Prop54
  1
strokes_ogs.tif
102
RTVSPost2010PropOp54
 70
     0
102
RTVSPost2010Prop55
280
     0
102
RTVSPost2010PropOp55
 70
     0
102
RTVSPost2010Prop56
140
1.0
102
RTVSPost2010PropOp56
 70
     0
102
RTVSPost2010Prop57
140
1.0
102
RTVSPost2010PropOp57
 70
     0
102
RTVSPropertyOp0
 70
     0
102
RTVSPropertyOp1
 70
     0
102
RTVSPropertyOp2
 70
     0
102
RTVSPropertyOp3
 70
     0
102
RTVSPropertyOp4
 70
     0
102
RTVSPropertyOp5
 70
     0
102
RTVSPropertyOp6
 70
     0
102
RTVSPropertyOp7
 70
     0
102
RTVSPropertyOp8
 70
     0
102
RTVSPropertyOp9
 70
     0
102
RTVSPropertyOp10
 70
     0
102
RTVSPropertyOp11
 70
     0
102
RTVSPropertyOp12
 70
     0
102
RTVSPropertyOp13
 70
     0
102
RTVSPropertyOp14
 70
     2
102
RTVSPropertyOp15
 70
     0
102
RTVSPropertyOp16
 70
     0
102
RTVSPropertyOp17
 70
     0
102
RTVSPropertyOp18
 70
     0
102
RTVSPropertyOp19
 70
     0
102
RTVSPropertyOp20
 70
     0
102
RTVSPropertyOp21
 70
     0
102
RTVSPropertyOp22
 70
     0
102
RTVSPropertyOp23
 70
     0
102
RTVSPropertyOp24
 70
     0
102
RTVSPropertyOp25
 70
     0
102
RTVSPropertyOp26
 70
     0
102
RTVSPropertyOp27
 70
     0
102
RTVSPropertyOp28
 70
     0
102
RTVSPropertyOp29
 70
     0
102
RTVSPropertyOp30
 70
     0
102
RTVSPropertyOp31
 70
     0
102
RTVSPropertyOp32
 70
     0
102
RTVSPropertyOp33
 70
     0
102
RTVSPropertyOp34
 70
     0
102
RTVSPropertyOp35
 70
     0
102
RTVSPropertyOp36
 70
     0
102
RTVSPropertyOp37
 70
     0
102
RTVSPropertyOp38
 70
     0
102
RTVSPropertyOp39
 70
     0
102
RTVSPropertyOp40
 70
     0
102
RTVSPropertyOp41
 70
     0
102
RTVSPropertyOp42
 70
     0
102
RTVSPropertyOp43
 70
     0
102
RTVSPropertyOp44
 70
     0
102
RTVSPropertyOp45
 70
     0
102
RTVSPropertyOp46
 70
     0
102
RTVSPropertyOp47
 70
     0
102
RTVSPropertyOp48
 70
     0
102
RTVSPropertyOp49
 70
     0
102
RTVSPropertyOp50
 70
     0
102
RTVSPropertyOp51
 70
     0
102
RTVSPropertyOp52
 70
     0
102
RTVSPropertyOp53
 70
     0
102
RTVSPropertyOp54
 70
     0
102
RTVSPropertyOp55
 70
     0
102
RTVSPropertyOp56
 70
     0
102
RTVSPropertyOp57
 70
     0
102
RTVSPropertyOp58
 70
     1
102
RTVSPropertyOp59
 70
     1
102
RTVSPropertyOp60
 70
     1
102
RTVSPropertyOp61
 70
     1
102
RTVSPropertyOp62
 70
     1
  0
XRECORD
  5
7496
102
{ACAD_REACTORS
330
7495
102
}
330
7495
100
AcDbXrecord
280
     1
102
RTVSPost2010Prop28
280
     0
102
RTVSPost2010PropOp28
 70
     1
102
RTVSPost2010Prop29
280
     1
102
RTVSPost2010PropOp29
 70
     1
102
RTVSPost2010Prop30
280
     1
102
RTVSPost2010PropOp30
 70
     1
102
RTVSPost2010Prop31
280
     0
102
RTVSPost2010PropOp31
 70
     1
102
RTVSPost2010Prop32
280
     0
102
RTVSPost2010PropOp32
 70
     1
102
RTVSPost2010Prop33
280
     0
102
RTVSPost2010PropOp33
 70
     1
102
RTVSPost2010Prop34
280
     0
102
RTVSPost2010PropOp34
 70
     1
102
RTVSPost2010Prop35
280
     0
102
RTVSPost2010PropOp35
 70
     1
102
RTVSPost2010Prop36
280
     0
102
RTVSPost2010PropOp36
 70
     1
102
RTVSPost2010Prop37
 90
       50
102
RTVSPost2010PropOp37
 70
     1
102
RTVSPost2010Prop38
140
0.0
102
RTVSPost2010PropOp38
 70
     1
102
RTVSPost2010Prop39
140
1.0
102
RTVSPost2010PropOp39
 70
     1
102
RTVSPost2010Prop40
 90
        0
102
RTVSPost2010PropOp40
 70
     1
102
RTVSPost2010Prop41ColorIndex
 90
       18
102
RTVSPost2010Prop41ColorRGB
 90
        0
102
RTVSPost2010PropOp41
 70
     1
102
RTVSPost2010Prop42
 90
       50
102
RTVSPost2010PropOp42
 70
     1
102
RTVSPost2010Prop43
 90
        3
102
RTVSPost2010PropOp43
 70
     1
102
RTVSPost2010Prop44ColorIndex
 90
        5
102
RTVSPost2010Prop44ColorRGB
 90
      255
102
RTVSPost2010PropOp44
 70
     1
102
RTVSPost2010Prop45
280
     0
102
RTVSPost2010PropOp45
 70
     1
102
RTVSPost2010Prop46
 90
       50
102
RTVSPost2010PropOp46
 70
     1
102
RTVSPost2010Prop47
 90
       50
102
RTVSPost2010PropOp47
 70
     1
102
RTVSPost2010Prop48
 90
       50
102
RTVSPost2010PropOp48
 70
     1
102
RTVSPost2010Prop49
280
     0
102
RTVSPost2010PropOp49
 70
     1
102
RTVSPost2010Prop50
 90
       50
102
RTVSPost2010PropOp50
 70
     1
102
RTVSPost2010Prop51ColorIndex
 90
      256
102
RTVSPost2010Prop51ColorRGB
 90
-16777216
102
RTVSPost2010PropOp51
 70
     0
102
RTVSPost2010Prop52
140
1.0
102
RTVSPost2010PropOp52
 70
     0
102
RTVSPost2010Prop53
 90
        2
102
RTVSPost2010PropOp53
 70
     1
102
RTVSPost2010Prop54
  1
strokes_ogs.tif
102
RTVSPost2010PropOp54
 70
     1
102
RTVSPost2010Prop55
280
     0
102
RTVSPost2010PropOp55
 70
     1
102
RTVSPost2010Prop56
140
1.0
102
RTVSPost2010PropOp56
 70
     1
102
RTVSPost2010Prop57
140
1.0
102
RTVSPost2010PropOp57
 70
     1
102
RTVSPropertyOp0
 70
     1
102
RTVSPropertyOp1
 70
     1
102
RTVSPropertyOp2
 70
     1
102
RTVSPropertyOp3
 70
     1
102
RTVSPropertyOp4
 70
     1
102
RTVSPropertyOp5
 70
     1
102
RTVSPropertyOp6
 70
     1
102
RTVSPropertyOp7
 70
     1
102
RTVSPropertyOp8
 70
     1
102
RTVSPropertyOp9
 70
     1
102
RTVSPropertyOp10
 70
     1
102
RTVSPropertyOp11
 70
     1
102
RTVSPropertyOp12
 70
     1
102
RTVSPropertyOp13
 70
     1
102
RTVSPropertyOp14
 70
     1
102
RTVSPropertyOp15
 70
     1
102
RTVSPropertyOp16
 70
     1
102
RTVSPropertyOp17
 70
     1
102
RTVSPropertyOp18
 70
     1
102
RTVSPropertyOp19
 70
     1
102
RTVSPropertyOp20
 70
     1
102
RTVSPropertyOp21
 70
     1
102
RTVSPropertyOp22
 70
     1
102
RTVSPropertyOp23
 70
     1
102
RTVSPropertyOp24
 70
     1
102
RTVSPropertyOp25
 70
     1
102
RTVSPropertyOp26
 70
     1
102
RTVSPropertyOp27
 70
     1
102
RTVSPropertyOp28
 70
     1
102
RTVSPropertyOp29
 70
     1
102
RTVSPropertyOp30
 70
     1
102
RTVSPropertyOp31
 70
     1
102
RTVSPropertyOp32
 70
     1
102
RTVSPropertyOp33
 70
     1
102
RTVSPropertyOp34
 70
     1
102
RTVSPropertyOp35
 70
     1
102
RTVSPropertyOp36
 70
     1
102
RTVSPropertyOp37
 70
     1
102
RTVSPropertyOp38
 70
     1
102
RTVSPropertyOp39
 70
     1
102
RTVSPropertyOp40
 70
     1
102
RTVSPropertyOp41
 70
     1
102
RTVSPropertyOp42
 70
     1
102
RTVSPropertyOp43
 70
     1
102
RTVSPropertyOp44
 70
     1
102
RTVSPropertyOp45
 70
     1
102
RTVSPropertyOp46
 70
     1
102
RTVSPropertyOp47
 70
     1
102
RTVSPropertyOp48
 70
     1
102
RTVSPropertyOp49
 70
     1
102
RTVSPropertyOp50
 70
     1
102
RTVSPropertyOp51
 70
     0
102
RTVSPropertyOp52
 70
     0
102
RTVSPropertyOp53
 70
     1
102
RTVSPropertyOp54
 70
     1
102
RTVSPropertyOp55
 70
     1
102
RTVSPropertyOp56
 70
     1
102
RTVSPropertyOp57
 70
     1
102
RTVSPropertyOp58
 70
     1
102
RTVSPropertyOp59
 70
     1
102
RTVSPropertyOp60
 70
     1
102
RTVSPropertyOp61
 70
     1
102
RTVSPropertyOp62
 70
     1
  0
XRECORD
  5
74B4
102
{ACAD_REACTORS
330
74B3
102
}
330
74B3
100
AcDbXrecord
280
     1
102
RTVSPost2010Prop28
280
     0
102
RTVSPost2010PropOp28
 70
     1
102
RTVSPost2010Prop29
280
     1
102
RTVSPost2010PropOp29
 70
     1
102
RTVSPost2010Prop30
280
     1
102
RTVSPost2010PropOp30
 70
     1
102
RTVSPost2010Prop31
280
     0
102
RTVSPost2010PropOp31
 70
     1
102
RTVSPost2010Prop32
280
     0
102
RTVSPost2010PropOp32
 70
     1
102
RTVSPost2010Prop33
280
     0
102
RTVSPost2010PropOp33
 70
     1
102
RTVSPost2010Prop34
280
     0
102
RTVSPost2010PropOp34
 70
     1
102
RTVSPost2010Prop35
280
     0
102
RTVSPost2010PropOp35
 70
     1
102
RTVSPost2010Prop36
280
     0
102
RTVSPost2010PropOp36
 70
     1
102
RTVSPost2010Prop37
 90
       50
102
RTVSPost2010PropOp37
 70
     1
102
RTVSPost2010Prop38
140
0.0
102
RTVSPost2010PropOp38
 70
     1
102
RTVSPost2010Prop39
140
1.0
102
RTVSPost2010PropOp39
 70
     1
102
RTVSPost2010Prop40
 90
        0
102
RTVSPost2010PropOp40
 70
     1
102
RTVSPost2010Prop41ColorIndex
 90
       18
102
RTVSPost2010Prop41ColorRGB
 90
        0
102
RTVSPost2010PropOp41
 70
     1
102
RTVSPost2010Prop42
 90
       50
102
RTVSPost2010PropOp42
 70
     1
102
RTVSPost2010Prop43
 90
        3
102
RTVSPost2010PropOp43
 70
     1
102
RTVSPost2010Prop44ColorIndex
 90
        5
102
RTVSPost2010Prop44ColorRGB
 90
      255
102
RTVSPost2010PropOp44
 70
     1
102
RTVSPost2010Prop45
280
     0
102
RTVSPost2010PropOp45
 70
     1
102
RTVSPost2010Prop46
 90
       50
102
RTVSPost2010PropOp46
 70
     1
102
RTVSPost2010Prop47
 90
       50
102
RTVSPost2010PropOp47
 70
     1
102
RTVSPost2010Prop48
 90
       50
102
RTVSPost2010PropOp48
 70
     1
102
RTVSPost2010Prop49
280
     0
102
RTVSPost2010PropOp49
 70
     1
102
RTVSPost2010Prop50
 90
       50
102
RTVSPost2010PropOp50
 70
     1
102
RTVSPost2010Prop51ColorIndex
 90
      256
102
RTVSPost2010Prop51ColorRGB
 90
-16777216
102
RTVSPost2010PropOp51
 70
     0
102
RTVSPost2010Prop52
140
1.0
102
RTVSPost2010PropOp52
 70
     0
102
RTVSPost2010Prop53
 90
        2
102
RTVSPost2010PropOp53
 70
     1
102
RTVSPost2010Prop54
  1
strokes_ogs.tif
102
RTVSPost2010PropOp54
 70
     1
102
RTVSPost2010Prop55
280
     0
102
RTVSPost2010PropOp55
 70
     1
102
RTVSPost2010Prop56
140
1.0
102
RTVSPost2010PropOp56
 70
     1
102
RTVSPost2010Prop57
140
1.0
102
RTVSPost2010PropOp57
 70
     1
102
RTVSPropertyOp0
 70
     1
102
RTVSPropertyOp1
 70
     1
102
RTVSPropertyOp2
 70
     1
102
RTVSPropertyOp3
 70
     1
102
RTVSPropertyOp4
 70
     1
102
RTVSPropertyOp5
 70
     1
102
RTVSPropertyOp6
 70
     1
102
RTVSPropertyOp7
 70
     1
102
RTVSPropertyOp8
 70
     1
102
RTVSPropertyOp9
 70
     1
102
RTVSPropertyOp10
 70
     1
102
RTVSPropertyOp11
 70
     1
102
RTVSPropertyOp12
 70
     1
102
RTVSPropertyOp13
 70
     1
102
RTVSPropertyOp14
 70
     1
102
RTVSPropertyOp15
 70
     1
102
RTVSPropertyOp16
 70
     1
102
RTVSPropertyOp17
 70
     1
102
RTVSPropertyOp18
 70
     1
102
RTVSPropertyOp19
 70
     1
102
RTVSPropertyOp20
 70
     1
102
RTVSPropertyOp21
 70
     1
102
RTVSPropertyOp22
 70
     1
102
RTVSPropertyOp23
 70
     1
102
RTVSPropertyOp24
 70
     1
102
RTVSPropertyOp25
 70
     1
102
RTVSPropertyOp26
 70
     1
102
RTVSPropertyOp27
 70
     1
102
RTVSPropertyOp28
 70
     1
102
RTVSPropertyOp29
 70
     1
102
RTVSPropertyOp30
 70
     1
102
RTVSPropertyOp31
 70
     1
102
RTVSPropertyOp32
 70
     1
102
RTVSPropertyOp33
 70
     1
102
RTVSPropertyOp34
 70
     1
102
RTVSPropertyOp35
 70
     1
102
RTVSPropertyOp36
 70
     1
102
RTVSPropertyOp37
 70
     1
102
RTVSPropertyOp38
 70
     1
102
RTVSPropertyOp39
 70
     1
102
RTVSPropertyOp40
 70
     1
102
RTVSPropertyOp41
 70
     1
102
RTVSPropertyOp42
 70
     1
102
RTVSPropertyOp43
 70
     1
102
RTVSPropertyOp44
 70
     1
102
RTVSPropertyOp45
 70
     1
102
RTVSPropertyOp46
 70
     1
102
RTVSPropertyOp47
 70
     1
102
RTVSPropertyOp48
 70
     1
102
RTVSPropertyOp49
 70
     1
102
RTVSPropertyOp50
 70
     1
102
RTVSPropertyOp51
 70
     0
102
RTVSPropertyOp52
 70
     0
102
RTVSPropertyOp53
 70
     1
102
RTVSPropertyOp54
 70
     1
102
RTVSPropertyOp55
 70
     1
102
RTVSPropertyOp56
 70
     1
102
RTVSPropertyOp57
 70
     1
102
RTVSPropertyOp58
 70
     1
102
RTVSPropertyOp59
 70
     1
102
RTVSPropertyOp60
 70
     1
102
RTVSPropertyOp61
 70
     1
102
RTVSPropertyOp62
 70
     1
  0
XRECORD
  5
74B2
102
{ACAD_REACTORS
330
74B1
102
}
330
74B1
100
AcDbXrecord
280
     1
102
RTVSPost2010Prop28
280
     0
102
RTVSPost2010PropOp28
 70
     1
102
RTVSPost2010Prop29
280
     1
102
RTVSPost2010PropOp29
 70
     1
102
RTVSPost2010Prop30
280
     1
102
RTVSPost2010PropOp30
 70
     1
102
RTVSPost2010Prop31
280
     0
102
RTVSPost2010PropOp31
 70
     1
102
RTVSPost2010Prop32
280
     0
102
RTVSPost2010PropOp32
 70
     1
102
RTVSPost2010Prop33
280
     0
102
RTVSPost2010PropOp33
 70
     1
102
RTVSPost2010Prop34
280
     0
102
RTVSPost2010PropOp34
 70
     1
102
RTVSPost2010Prop35
280
     0
102
RTVSPost2010PropOp35
 70
     1
102
RTVSPost2010Prop36
280
     0
102
RTVSPost2010PropOp36
 70
     1
102
RTVSPost2010Prop37
 90
       50
102
RTVSPost2010PropOp37
 70
     1
102
RTVSPost2010Prop38
140
0.0
102
RTVSPost2010PropOp38
 70
     1
102
RTVSPost2010Prop39
140
1.0
102
RTVSPost2010PropOp39
 70
     1
102
RTVSPost2010Prop40
 90
        0
102
RTVSPost2010PropOp40
 70
     1
102
RTVSPost2010Prop41ColorIndex
 90
       18
102
RTVSPost2010Prop41ColorRGB
 90
        0
102
RTVSPost2010PropOp41
 70
     1
102
RTVSPost2010Prop42
 90
       50
102
RTVSPost2010PropOp42
 70
     1
102
RTVSPost2010Prop43
 90
        3
102
RTVSPost2010PropOp43
 70
     1
102
RTVSPost2010Prop44ColorIndex
 90
        5
102
RTVSPost2010Prop44ColorRGB
 90
      255
102
RTVSPost2010PropOp44
 70
     1
102
RTVSPost2010Prop45
280
     0
102
RTVSPost2010PropOp45
 70
     1
102
RTVSPost2010Prop46
 90
       50
102
RTVSPost2010PropOp46
 70
     1
102
RTVSPost2010Prop47
 90
       50
102
RTVSPost2010PropOp47
 70
     1
102
RTVSPost2010Prop48
 90
       50
102
RTVSPost2010PropOp48
 70
     1
102
RTVSPost2010Prop49
280
     0
102
RTVSPost2010PropOp49
 70
     1
102
RTVSPost2010Prop50
 90
       50
102
RTVSPost2010PropOp50
 70
     1
102
RTVSPost2010Prop51ColorIndex
 90
      256
102
RTVSPost2010Prop51ColorRGB
 90
-16777216
102
RTVSPost2010PropOp51
 70
     0
102
RTVSPost2010Prop52
140
1.0
102
RTVSPost2010PropOp52
 70
     0
102
RTVSPost2010Prop53
 90
        2
102
RTVSPost2010PropOp53
 70
     1
102
RTVSPost2010Prop54
  1
strokes_ogs.tif
102
RTVSPost2010PropOp54
 70
     1
102
RTVSPost2010Prop55
280
     0
102
RTVSPost2010PropOp55
 70
     1
102
RTVSPost2010Prop56
140
1.0
102
RTVSPost2010PropOp56
 70
     1
102
RTVSPost2010Prop57
140
1.0
102
RTVSPost2010PropOp57
 70
     1
102
RTVSPropertyOp0
 70
     1
102
RTVSPropertyOp1
 70
     1
102
RTVSPropertyOp2
 70
     1
102
RTVSPropertyOp3
 70
     1
102
RTVSPropertyOp4
 70
     1
102
RTVSPropertyOp5
 70
     1
102
RTVSPropertyOp6
 70
     1
102
RTVSPropertyOp7
 70
     1
102
RTVSPropertyOp8
 70
     1
102
RTVSPropertyOp9
 70
     1
102
RTVSPropertyOp10
 70
     1
102
RTVSPropertyOp11
 70
     1
102
RTVSPropertyOp12
 70
     1
102
RTVSPropertyOp13
 70
     1
102
RTVSPropertyOp14
 70
     1
102
RTVSPropertyOp15
 70
     1
102
RTVSPropertyOp16
 70
     1
102
RTVSPropertyOp17
 70
     1
102
RTVSPropertyOp18
 70
     1
102
RTVSPropertyOp19
 70
     1
102
RTVSPropertyOp20
 70
     1
102
RTVSPropertyOp21
 70
     1
102
RTVSPropertyOp22
 70
     1
102
RTVSPropertyOp23
 70
     1
102
RTVSPropertyOp24
 70
     1
102
RTVSPropertyOp25
 70
     1
102
RTVSPropertyOp26
 70
     1
102
RTVSPropertyOp27
 70
     1
102
RTVSPropertyOp28
 70
     1
102
RTVSPropertyOp29
 70
     1
102
RTVSPropertyOp30
 70
     1
102
RTVSPropertyOp31
 70
     1
102
RTVSPropertyOp32
 70
     1
102
RTVSPropertyOp33
 70
     1
102
RTVSPropertyOp34
 70
     1
102
RTVSPropertyOp35
 70
     1
102
RTVSPropertyOp36
 70
     1
102
RTVSPropertyOp37
 70
     1
102
RTVSPropertyOp38
 70
     1
102
RTVSPropertyOp39
 70
     1
102
RTVSPropertyOp40
 70
     1
102
RTVSPropertyOp41
 70
     1
102
RTVSPropertyOp42
 70
     1
102
RTVSPropertyOp43
 70
     1
102
RTVSPropertyOp44
 70
     1
102
RTVSPropertyOp45
 70
     1
102
RTVSPropertyOp46
 70
     1
102
RTVSPropertyOp47
 70
     1
102
RTVSPropertyOp48
 70
     1
102
RTVSPropertyOp49
 70
     1
102
RTVSPropertyOp50
 70
     1
102
RTVSPropertyOp51
 70
     0
102
RTVSPropertyOp52
 70
     0
102
RTVSPropertyOp53
 70
     1
102
RTVSPropertyOp54
 70
     1
102
RTVSPropertyOp55
 70
     1
102
RTVSPropertyOp56
 70
     1
102
RTVSPropertyOp57
 70
     1
102
RTVSPropertyOp58
 70
     1
102
RTVSPropertyOp59
 70
     1
102
RTVSPropertyOp60
 70
     1
102
RTVSPropertyOp61
 70
     1
102
RTVSPropertyOp62
 70
     1
  0
XRECORD
  5
74AC
102
{ACAD_REACTORS
330
74AB
102
}
330
74AB
100
AcDbXrecord
280
     1
102
RTVSPost2010Prop28
280
     0
102
RTVSPost2010PropOp28
 70
     1
102
RTVSPost2010Prop29
280
     1
102
RTVSPost2010PropOp29
 70
     1
102
RTVSPost2010Prop30
280
     1
102
RTVSPost2010PropOp30
 70
     1
102
RTVSPost2010Prop31
280
     0
102
RTVSPost2010PropOp31
 70
     1
102
RTVSPost2010Prop32
280
     0
102
RTVSPost2010PropOp32
 70
     1
102
RTVSPost2010Prop33
280
     0
102
RTVSPost2010PropOp33
 70
     1
102
RTVSPost2010Prop34
280
     0
102
RTVSPost2010PropOp34
 70
     1
102
RTVSPost2010Prop35
280
     0
102
RTVSPost2010PropOp35
 70
     1
102
RTVSPost2010Prop36
280
     0
102
RTVSPost2010PropOp36
 70
     1
102
RTVSPost2010Prop37
 90
       50
102
RTVSPost2010PropOp37
 70
     1
102
RTVSPost2010Prop38
140
0.0
102
RTVSPost2010PropOp38
 70
     1
102
RTVSPost2010Prop39
140
1.0
102
RTVSPost2010PropOp39
 70
     1
102
RTVSPost2010Prop40
 90
        0
102
RTVSPost2010PropOp40
 70
     1
102
RTVSPost2010Prop41ColorIndex
 90
       18
102
RTVSPost2010Prop41ColorRGB
 90
        0
102
RTVSPost2010PropOp41
 70
     1
102
RTVSPost2010Prop42
 90
       50
102
RTVSPost2010PropOp42
 70
     1
102
RTVSPost2010Prop43
 90
        3
102
RTVSPost2010PropOp43
 70
     1
102
RTVSPost2010Prop44ColorIndex
 90
        5
102
RTVSPost2010Prop44ColorRGB
 90
      255
102
RTVSPost2010PropOp44
 70
     1
102
RTVSPost2010Prop45
280
     0
102
RTVSPost2010PropOp45
 70
     1
102
RTVSPost2010Prop46
 90
       50
102
RTVSPost2010PropOp46
 70
     1
102
RTVSPost2010Prop47
 90
       50
102
RTVSPost2010PropOp47
 70
     1
102
RTVSPost2010Prop48
 90
       50
102
RTVSPost2010PropOp48
 70
     1
102
RTVSPost2010Prop49
280
     0
102
RTVSPost2010PropOp49
 70
     1
102
RTVSPost2010Prop50
 90
       50
102
RTVSPost2010PropOp50
 70
     1
102
RTVSPost2010Prop51ColorIndex
 90
      256
102
RTVSPost2010Prop51ColorRGB
 90
-16777216
102
RTVSPost2010PropOp51
 70
     0
102
RTVSPost2010Prop52
140
1.0
102
RTVSPost2010PropOp52
 70
     0
102
RTVSPost2010Prop53
 90
        2
102
RTVSPost2010PropOp53
 70
     1
102
RTVSPost2010Prop54
  1
strokes_ogs.tif
102
RTVSPost2010PropOp54
 70
     1
102
RTVSPost2010Prop55
280
     0
102
RTVSPost2010PropOp55
 70
     1
102
RTVSPost2010Prop56
140
1.0
102
RTVSPost2010PropOp56
 70
     1
102
RTVSPost2010Prop57
140
1.0
102
RTVSPost2010PropOp57
 70
     1
102
RTVSPropertyOp0
 70
     1
102
RTVSPropertyOp1
 70
     1
102
RTVSPropertyOp2
 70
     1
102
RTVSPropertyOp3
 70
     1
102
RTVSPropertyOp4
 70
     1
102
RTVSPropertyOp5
 70
     1
102
RTVSPropertyOp6
 70
     1
102
RTVSPropertyOp7
 70
     1
102
RTVSPropertyOp8
 70
     1
102
RTVSPropertyOp9
 70
     1
102
RTVSPropertyOp10
 70
     1
102
RTVSPropertyOp11
 70
     1
102
RTVSPropertyOp12
 70
     1
102
RTVSPropertyOp13
 70
     1
102
RTVSPropertyOp14
 70
     1
102
RTVSPropertyOp15
 70
     1
102
RTVSPropertyOp16
 70
     1
102
RTVSPropertyOp17
 70
     1
102
RTVSPropertyOp18
 70
     1
102
RTVSPropertyOp19
 70
     1
102
RTVSPropertyOp20
 70
     1
102
RTVSPropertyOp21
 70
     1
102
RTVSPropertyOp22
 70
     1
102
RTVSPropertyOp23
 70
     1
102
RTVSPropertyOp24
 70
     1
102
RTVSPropertyOp25
 70
     1
102
RTVSPropertyOp26
 70
     1
102
RTVSPropertyOp27
 70
     1
102
RTVSPropertyOp28
 70
     1
102
RTVSPropertyOp29
 70
     1
102
RTVSPropertyOp30
 70
     1
102
RTVSPropertyOp31
 70
     1
102
RTVSPropertyOp32
 70
     1
102
RTVSPropertyOp33
 70
     1
102
RTVSPropertyOp34
 70
     1
102
RTVSPropertyOp35
 70
     1
102
RTVSPropertyOp36
 70
     1
102
RTVSPropertyOp37
 70
     1
102
RTVSPropertyOp38
 70
     1
102
RTVSPropertyOp39
 70
     1
102
RTVSPropertyOp40
 70
     1
102
RTVSPropertyOp41
 70
     1
102
RTVSPropertyOp42
 70
     1
102
RTVSPropertyOp43
 70
     1
102
RTVSPropertyOp44
 70
     1
102
RTVSPropertyOp45
 70
     1
102
RTVSPropertyOp46
 70
     1
102
RTVSPropertyOp47
 70
     1
102
RTVSPropertyOp48
 70
     1
102
RTVSPropertyOp49
 70
     1
102
RTVSPropertyOp50
 70
     1
102
RTVSPropertyOp51
 70
     0
102
RTVSPropertyOp52
 70
     0
102
RTVSPropertyOp53
 70
     1
102
RTVSPropertyOp54
 70
     1
102
RTVSPropertyOp55
 70
     1
102
RTVSPropertyOp56
 70
     1
102
RTVSPropertyOp57
 70
     1
102
RTVSPropertyOp58
 70
     1
102
RTVSPropertyOp59
 70
     1
102
RTVSPropertyOp60
 70
     1
102
RTVSPropertyOp61
 70
     1
102
RTVSPropertyOp62
 70
     1
  0
XRECORD
  5
74AE
102
{ACAD_REACTORS
330
74AD
102
}
330
74AD
100
AcDbXrecord
280
     1
102
RTVSPost2010Prop28
280
     0
102
RTVSPost2010PropOp28
 70
     1
102
RTVSPost2010Prop29
280
     1
102
RTVSPost2010PropOp29
 70
     1
102
RTVSPost2010Prop30
280
     1
102
RTVSPost2010PropOp30
 70
     1
102
RTVSPost2010Prop31
280
     0
102
RTVSPost2010PropOp31
 70
     1
102
RTVSPost2010Prop32
280
     0
102
RTVSPost2010PropOp32
 70
     1
102
RTVSPost2010Prop33
280
     0
102
RTVSPost2010PropOp33
 70
     1
102
RTVSPost2010Prop34
280
     0
102
RTVSPost2010PropOp34
 70
     1
102
RTVSPost2010Prop35
280
     0
102
RTVSPost2010PropOp35
 70
     1
102
RTVSPost2010Prop36
280
     0
102
RTVSPost2010PropOp36
 70
     1
102
RTVSPost2010Prop37
 90
       50
102
RTVSPost2010PropOp37
 70
     1
102
RTVSPost2010Prop38
140
0.0
102
RTVSPost2010PropOp38
 70
     1
102
RTVSPost2010Prop39
140
1.0
102
RTVSPost2010PropOp39
 70
     1
102
RTVSPost2010Prop40
 90
        0
102
RTVSPost2010PropOp40
 70
     1
102
RTVSPost2010Prop41ColorIndex
 90
       18
102
RTVSPost2010Prop41ColorRGB
 90
        0
102
RTVSPost2010PropOp41
 70
     1
102
RTVSPost2010Prop42
 90
       50
102
RTVSPost2010PropOp42
 70
     1
102
RTVSPost2010Prop43
 90
        3
102
RTVSPost2010PropOp43
 70
     1
102
RTVSPost2010Prop44ColorIndex
 90
        5
102
RTVSPost2010Prop44ColorRGB
 90
      255
102
RTVSPost2010PropOp44
 70
     1
102
RTVSPost2010Prop45
280
     0
102
RTVSPost2010PropOp45
 70
     1
102
RTVSPost2010Prop46
 90
       50
102
RTVSPost2010PropOp46
 70
     1
102
RTVSPost2010Prop47
 90
       50
102
RTVSPost2010PropOp47
 70
     1
102
RTVSPost2010Prop48
 90
       50
102
RTVSPost2010PropOp48
 70
     1
102
RTVSPost2010Prop49
280
     0
102
RTVSPost2010PropOp49
 70
     1
102
RTVSPost2010Prop50
 90
       50
102
RTVSPost2010PropOp50
 70
     1
102
RTVSPost2010Prop51ColorIndex
 90
      256
102
RTVSPost2010Prop51ColorRGB
 90
-16777216
102
RTVSPost2010PropOp51
 70
     0
102
RTVSPost2010Prop52
140
1.0
102
RTVSPost2010PropOp52
 70
     0
102
RTVSPost2010Prop53
 90
        2
102
RTVSPost2010PropOp53
 70
     1
102
RTVSPost2010Prop54
  1
strokes_ogs.tif
102
RTVSPost2010PropOp54
 70
     1
102
RTVSPost2010Prop55
280
     0
102
RTVSPost2010PropOp55
 70
     1
102
RTVSPost2010Prop56
140
1.0
102
RTVSPost2010PropOp56
 70
     1
102
RTVSPost2010Prop57
140
1.0
102
RTVSPost2010PropOp57
 70
     1
102
RTVSPropertyOp0
 70
     1
102
RTVSPropertyOp1
 70
     1
102
RTVSPropertyOp2
 70
     1
102
RTVSPropertyOp3
 70
     1
102
RTVSPropertyOp4
 70
     1
102
RTVSPropertyOp5
 70
     1
102
RTVSPropertyOp6
 70
     1
102
RTVSPropertyOp7
 70
     1
102
RTVSPropertyOp8
 70
     1
102
RTVSPropertyOp9
 70
     1
102
RTVSPropertyOp10
 70
     1
102
RTVSPropertyOp11
 70
     1
102
RTVSPropertyOp12
 70
     1
102
RTVSPropertyOp13
 70
     1
102
RTVSPropertyOp14
 70
     1
102
RTVSPropertyOp15
 70
     1
102
RTVSPropertyOp16
 70
     1
102
RTVSPropertyOp17
 70
     1
102
RTVSPropertyOp18
 70
     1
102
RTVSPropertyOp19
 70
     1
102
RTVSPropertyOp20
 70
     1
102
RTVSPropertyOp21
 70
     1
102
RTVSPropertyOp22
 70
     1
102
RTVSPropertyOp23
 70
     1
102
RTVSPropertyOp24
 70
     1
102
RTVSPropertyOp25
 70
     1
102
RTVSPropertyOp26
 70
     1
102
RTVSPropertyOp27
 70
     1
102
RTVSPropertyOp28
 70
     1
102
RTVSPropertyOp29
 70
     1
102
RTVSPropertyOp30
 70
     1
102
RTVSPropertyOp31
 70
     1
102
RTVSPropertyOp32
 70
     1
102
RTVSPropertyOp33
 70
     1
102
RTVSPropertyOp34
 70
     1
102
RTVSPropertyOp35
 70
     1
102
RTVSPropertyOp36
 70
     1
102
RTVSPropertyOp37
 70
     1
102
RTVSPropertyOp38
 70
     1
102
RTVSPropertyOp39
 70
     1
102
RTVSPropertyOp40
 70
     1
102
RTVSPropertyOp41
 70
     1
102
RTVSPropertyOp42
 70
     1
102
RTVSPropertyOp43
 70
     1
102
RTVSPropertyOp44
 70
     1
102
RTVSPropertyOp45
 70
     1
102
RTVSPropertyOp46
 70
     1
102
RTVSPropertyOp47
 70
     1
102
RTVSPropertyOp48
 70
     1
102
RTVSPropertyOp49
 70
     1
102
RTVSPropertyOp50
 70
     1
102
RTVSPropertyOp51
 70
     0
102
RTVSPropertyOp52
 70
     0
102
RTVSPropertyOp53
 70
     1
102
RTVSPropertyOp54
 70
     1
102
RTVSPropertyOp55
 70
     1
102
RTVSPropertyOp56
 70
     1
102
RTVSPropertyOp57
 70
     1
102
RTVSPropertyOp58
 70
     1
102
RTVSPropertyOp59
 70
     1
102
RTVSPropertyOp60
 70
     1
102
RTVSPropertyOp61
 70
     1
102
RTVSPropertyOp62
 70
     1
  0
XRECORD
  5
749E
102
{ACAD_REACTORS
330
749D
102
}
330
749D
100
AcDbXrecord
280
     1
102
RTVSPost2010Prop28
280
     0
102
RTVSPost2010PropOp28
 70
     1
102
RTVSPost2010Prop29
280
     1
102
RTVSPost2010PropOp29
 70
     1
102
RTVSPost2010Prop30
280
     1
102
RTVSPost2010PropOp30
 70
     1
102
RTVSPost2010Prop31
280
     0
102
RTVSPost2010PropOp31
 70
     1
102
RTVSPost2010Prop32
280
     0
102
RTVSPost2010PropOp32
 70
     1
102
RTVSPost2010Prop33
280
     0
102
RTVSPost2010PropOp33
 70
     1
102
RTVSPost2010Prop34
280
     0
102
RTVSPost2010PropOp34
 70
     1
102
RTVSPost2010Prop35
280
     0
102
RTVSPost2010PropOp35
 70
     1
102
RTVSPost2010Prop36
280
     0
102
RTVSPost2010PropOp36
 70
     1
102
RTVSPost2010Prop37
 90
       50
102
RTVSPost2010PropOp37
 70
     1
102
RTVSPost2010Prop38
140
0.0
102
RTVSPost2010PropOp38
 70
     1
102
RTVSPost2010Prop39
140
1.0
102
RTVSPost2010PropOp39
 70
     1
102
RTVSPost2010Prop40
 90
        0
102
RTVSPost2010PropOp40
 70
     1
102
RTVSPost2010Prop41ColorIndex
 90
       18
102
RTVSPost2010Prop41ColorRGB
 90
        0
102
RTVSPost2010PropOp41
 70
     1
102
RTVSPost2010Prop42
 90
       50
102
RTVSPost2010PropOp42
 70
     1
102
RTVSPost2010Prop43
 90
        3
102
RTVSPost2010PropOp43
 70
     1
102
RTVSPost2010Prop44ColorIndex
 90
        5
102
RTVSPost2010Prop44ColorRGB
 90
      255
102
RTVSPost2010PropOp44
 70
     1
102
RTVSPost2010Prop45
280
     0
102
RTVSPost2010PropOp45
 70
     1
102
RTVSPost2010Prop46
 90
       50
102
RTVSPost2010PropOp46
 70
     1
102
RTVSPost2010Prop47
 90
       50
102
RTVSPost2010PropOp47
 70
     1
102
RTVSPost2010Prop48
 90
       50
102
RTVSPost2010PropOp48
 70
     1
102
RTVSPost2010Prop49
280
     0
102
RTVSPost2010PropOp49
 70
     1
102
RTVSPost2010Prop50
 90
       50
102
RTVSPost2010PropOp50
 70
     1
102
RTVSPost2010Prop51ColorIndex
 90
      256
102
RTVSPost2010Prop51ColorRGB
 90
-16777216
102
RTVSPost2010PropOp51
 70
     0
102
RTVSPost2010Prop52
140
1.0
102
RTVSPost2010PropOp52
 70
     0
102
RTVSPost2010Prop53
 90
        2
102
RTVSPost2010PropOp53
 70
     1
102
RTVSPost2010Prop54
  1
strokes_ogs.tif
102
RTVSPost2010PropOp54
 70
     1
102
RTVSPost2010Prop55
280
     0
102
RTVSPost2010PropOp55
 70
     1
102
RTVSPost2010Prop56
140
1.0
102
RTVSPost2010PropOp56
 70
     1
102
RTVSPost2010Prop57
140
1.0
102
RTVSPost2010PropOp57
 70
     1
102
RTVSPropertyOp0
 70
     1
102
RTVSPropertyOp1
 70
     1
102
RTVSPropertyOp2
 70
     1
102
RTVSPropertyOp3
 70
     1
102
RTVSPropertyOp4
 70
     1
102
RTVSPropertyOp5
 70
     1
102
RTVSPropertyOp6
 70
     1
102
RTVSPropertyOp7
 70
     1
102
RTVSPropertyOp8
 70
     1
102
RTVSPropertyOp9
 70
     1
102
RTVSPropertyOp10
 70
     1
102
RTVSPropertyOp11
 70
     1
102
RTVSPropertyOp12
 70
     1
102
RTVSPropertyOp13
 70
     1
102
RTVSPropertyOp14
 70
     1
102
RTVSPropertyOp15
 70
     1
102
RTVSPropertyOp16
 70
     1
102
RTVSPropertyOp17
 70
     1
102
RTVSPropertyOp18
 70
     1
102
RTVSPropertyOp19
 70
     1
102
RTVSPropertyOp20
 70
     1
102
RTVSPropertyOp21
 70
     1
102
RTVSPropertyOp22
 70
     1
102
RTVSPropertyOp23
 70
     1
102
RTVSPropertyOp24
 70
     1
102
RTVSPropertyOp25
 70
     1
102
RTVSPropertyOp26
 70
     1
102
RTVSPropertyOp27
 70
     1
102
RTVSPropertyOp28
 70
     1
102
RTVSPropertyOp29
 70
     1
102
RTVSPropertyOp30
 70
     1
102
RTVSPropertyOp31
 70
     1
102
RTVSPropertyOp32
 70
     1
102
RTVSPropertyOp33
 70
     1
102
RTVSPropertyOp34
 70
     1
102
RTVSPropertyOp35
 70
     1
102
RTVSPropertyOp36
 70
     1
102
RTVSPropertyOp37
 70
     1
102
RTVSPropertyOp38
 70
     1
102
RTVSPropertyOp39
 70
     1
102
RTVSPropertyOp40
 70
     1
102
RTVSPropertyOp41
 70
     1
102
RTVSPropertyOp42
 70
     1
102
RTVSPropertyOp43
 70
     1
102
RTVSPropertyOp44
 70
     1
102
RTVSPropertyOp45
 70
     1
102
RTVSPropertyOp46
 70
     1
102
RTVSPropertyOp47
 70
     1
102
RTVSPropertyOp48
 70
     1
102
RTVSPropertyOp49
 70
     1
102
RTVSPropertyOp50
 70
     1
102
RTVSPropertyOp51
 70
     0
102
RTVSPropertyOp52
 70
     0
102
RTVSPropertyOp53
 70
     1
102
RTVSPropertyOp54
 70
     1
102
RTVSPropertyOp55
 70
     1
102
RTVSPropertyOp56
 70
     1
102
RTVSPropertyOp57
 70
     1
102
RTVSPropertyOp58
 70
     1
102
RTVSPropertyOp59
 70
     1
102
RTVSPropertyOp60
 70
     1
102
RTVSPropertyOp61
 70
     1
102
RTVSPropertyOp62
 70
     1
  0
XRECORD
  5
7490
102
{ACAD_REACTORS
330
748F
102
}
330
748F
100
AcDbXrecord
280
     1
102
RTVSPost2010Prop28
280
     0
102
RTVSPost2010PropOp28
 70
     1
102
RTVSPost2010Prop29
280
     1
102
RTVSPost2010PropOp29
 70
     1
102
RTVSPost2010Prop30
280
     1
102
RTVSPost2010PropOp30
 70
     1
102
RTVSPost2010Prop31
280
     0
102
RTVSPost2010PropOp31
 70
     1
102
RTVSPost2010Prop32
280
     0
102
RTVSPost2010PropOp32
 70
     1
102
RTVSPost2010Prop33
280
     0
102
RTVSPost2010PropOp33
 70
     1
102
RTVSPost2010Prop34
280
     0
102
RTVSPost2010PropOp34
 70
     1
102
RTVSPost2010Prop35
280
     0
102
RTVSPost2010PropOp35
 70
     1
102
RTVSPost2010Prop36
280
     0
102
RTVSPost2010PropOp36
 70
     1
102
RTVSPost2010Prop37
 90
       50
102
RTVSPost2010PropOp37
 70
     1
102
RTVSPost2010Prop38
140
0.0
102
RTVSPost2010PropOp38
 70
     1
102
RTVSPost2010Prop39
140
1.0
102
RTVSPost2010PropOp39
 70
     1
102
RTVSPost2010Prop40
 90
        0
102
RTVSPost2010PropOp40
 70
     1
102
RTVSPost2010Prop41ColorIndex
 90
       18
102
RTVSPost2010Prop41ColorRGB
 90
        0
102
RTVSPost2010PropOp41
 70
     1
102
RTVSPost2010Prop42
 90
       50
102
RTVSPost2010PropOp42
 70
     1
102
RTVSPost2010Prop43
 90
        3
102
RTVSPost2010PropOp43
 70
     1
102
RTVSPost2010Prop44ColorIndex
 90
        5
102
RTVSPost2010Prop44ColorRGB
 90
      255
102
RTVSPost2010PropOp44
 70
     1
102
RTVSPost2010Prop45
280
     0
102
RTVSPost2010PropOp45
 70
     1
102
RTVSPost2010Prop46
 90
       50
102
RTVSPost2010PropOp46
 70
     1
102
RTVSPost2010Prop47
 90
       50
102
RTVSPost2010PropOp47
 70
     1
102
RTVSPost2010Prop48
 90
       50
102
RTVSPost2010PropOp48
 70
     1
102
RTVSPost2010Prop49
280
     0
102
RTVSPost2010PropOp49
 70
     1
102
RTVSPost2010Prop50
 90
       50
102
RTVSPost2010PropOp50
 70
     1
102
RTVSPost2010Prop51ColorIndex
 90
      256
102
RTVSPost2010Prop51ColorRGB
 90
-16777216
102
RTVSPost2010PropOp51
 70
     0
102
RTVSPost2010Prop52
140
1.0
102
RTVSPost2010PropOp52
 70
     0
102
RTVSPost2010Prop53
 90
        2
102
RTVSPost2010PropOp53
 70
     1
102
RTVSPost2010Prop54
  1
strokes_ogs.tif
102
RTVSPost2010PropOp54
 70
     1
102
RTVSPost2010Prop55
280
     0
102
RTVSPost2010PropOp55
 70
     1
102
RTVSPost2010Prop56
140
1.0
102
RTVSPost2010PropOp56
 70
     1
102
RTVSPost2010Prop57
140
1.0
102
RTVSPost2010PropOp57
 70
     1
102
RTVSPropertyOp0
 70
     1
102
RTVSPropertyOp1
 70
     1
102
RTVSPropertyOp2
 70
     1
102
RTVSPropertyOp3
 70
     1
102
RTVSPropertyOp4
 70
     1
102
RTVSPropertyOp5
 70
     1
102
RTVSPropertyOp6
 70
     1
102
RTVSPropertyOp7
 70
     1
102
RTVSPropertyOp8
 70
     1
102
RTVSPropertyOp9
 70
     1
102
RTVSPropertyOp10
 70
     1
102
RTVSPropertyOp11
 70
     1
102
RTVSPropertyOp12
 70
     1
102
RTVSPropertyOp13
 70
     1
102
RTVSPropertyOp14
 70
     1
102
RTVSPropertyOp15
 70
     1
102
RTVSPropertyOp16
 70
     1
102
RTVSPropertyOp17
 70
     1
102
RTVSPropertyOp18
 70
     1
102
RTVSPropertyOp19
 70
     1
102
RTVSPropertyOp20
 70
     1
102
RTVSPropertyOp21
 70
     1
102
RTVSPropertyOp22
 70
     1
102
RTVSPropertyOp23
 70
     1
102
RTVSPropertyOp24
 70
     1
102
RTVSPropertyOp25
 70
     1
102
RTVSPropertyOp26
 70
     1
102
RTVSPropertyOp27
 70
     1
102
RTVSPropertyOp28
 70
     1
102
RTVSPropertyOp29
 70
     1
102
RTVSPropertyOp30
 70
     1
102
RTVSPropertyOp31
 70
     1
102
RTVSPropertyOp32
 70
     1
102
RTVSPropertyOp33
 70
     1
102
RTVSPropertyOp34
 70
     1
102
RTVSPropertyOp35
 70
     1
102
RTVSPropertyOp36
 70
     1
102
RTVSPropertyOp37
 70
     1
102
RTVSPropertyOp38
 70
     1
102
RTVSPropertyOp39
 70
     1
102
RTVSPropertyOp40
 70
     1
102
RTVSPropertyOp41
 70
     1
102
RTVSPropertyOp42
 70
     1
102
RTVSPropertyOp43
 70
     1
102
RTVSPropertyOp44
 70
     1
102
RTVSPropertyOp45
 70
     1
102
RTVSPropertyOp46
 70
     1
102
RTVSPropertyOp47
 70
     1
102
RTVSPropertyOp48
 70
     1
102
RTVSPropertyOp49
 70
     1
102
RTVSPropertyOp50
 70
     1
102
RTVSPropertyOp51
 70
     0
102
RTVSPropertyOp52
 70
     0
102
RTVSPropertyOp53
 70
     1
102
RTVSPropertyOp54
 70
     1
102
RTVSPropertyOp55
 70
     1
102
RTVSPropertyOp56
 70
     1
102
RTVSPropertyOp57
 70
     1
102
RTVSPropertyOp58
 70
     1
102
RTVSPropertyOp59
 70
     1
102
RTVSPropertyOp60
 70
     1
102
RTVSPropertyOp61
 70
     1
102
RTVSPropertyOp62
 70
     1
  0
XRECORD
  5
74B0
102
{ACAD_REACTORS
330
74AF
102
}
330
74AF
100
AcDbXrecord
280
     1
102
RTVSPost2010Prop28
280
     0
102
RTVSPost2010PropOp28
 70
     1
102
RTVSPost2010Prop29
280
     1
102
RTVSPost2010PropOp29
 70
     1
102
RTVSPost2010Prop30
280
     1
102
RTVSPost2010PropOp30
 70
     1
102
RTVSPost2010Prop31
280
     0
102
RTVSPost2010PropOp31
 70
     1
102
RTVSPost2010Prop32
280
     0
102
RTVSPost2010PropOp32
 70
     1
102
RTVSPost2010Prop33
280
     0
102
RTVSPost2010PropOp33
 70
     1
102
RTVSPost2010Prop34
280
     0
102
RTVSPost2010PropOp34
 70
     1
102
RTVSPost2010Prop35
280
     0
102
RTVSPost2010PropOp35
 70
     1
102
RTVSPost2010Prop36
280
     0
102
RTVSPost2010PropOp36
 70
     1
102
RTVSPost2010Prop37
 90
       50
102
RTVSPost2010PropOp37
 70
     1
102
RTVSPost2010Prop38
140
0.0
102
RTVSPost2010PropOp38
 70
     1
102
RTVSPost2010Prop39
140
1.0
102
RTVSPost2010PropOp39
 70
     1
102
RTVSPost2010Prop40
 90
        0
102
RTVSPost2010PropOp40
 70
     1
102
RTVSPost2010Prop41ColorIndex
 90
       18
102
RTVSPost2010Prop41ColorRGB
 90
        0
102
RTVSPost2010PropOp41
 70
     1
102
RTVSPost2010Prop42
 90
       50
102
RTVSPost2010PropOp42
 70
     1
102
RTVSPost2010Prop43
 90
        3
102
RTVSPost2010PropOp43
 70
     1
102
RTVSPost2010Prop44ColorIndex
 90
        5
102
RTVSPost2010Prop44ColorRGB
 90
      255
102
RTVSPost2010PropOp44
 70
     1
102
RTVSPost2010Prop45
280
     0
102
RTVSPost2010PropOp45
 70
     1
102
RTVSPost2010Prop46
 90
       50
102
RTVSPost2010PropOp46
 70
     1
102
RTVSPost2010Prop47
 90
       50
102
RTVSPost2010PropOp47
 70
     1
102
RTVSPost2010Prop48
 90
       50
102
RTVSPost2010PropOp48
 70
     1
102
RTVSPost2010Prop49
280
     0
102
RTVSPost2010PropOp49
 70
     1
102
RTVSPost2010Prop50
 90
       50
102
RTVSPost2010PropOp50
 70
     1
102
RTVSPost2010Prop51ColorIndex
 90
      256
102
RTVSPost2010Prop51ColorRGB
 90
-16777216
102
RTVSPost2010PropOp51
 70
     0
102
RTVSPost2010Prop52
140
1.0
102
RTVSPost2010PropOp52
 70
     0
102
RTVSPost2010Prop53
 90
        2
102
RTVSPost2010PropOp53
 70
     1
102
RTVSPost2010Prop54
  1
strokes_ogs.tif
102
RTVSPost2010PropOp54
 70
     1
102
RTVSPost2010Prop55
280
     0
102
RTVSPost2010PropOp55
 70
     1
102
RTVSPost2010Prop56
140
1.0
102
RTVSPost2010PropOp56
 70
     1
102
RTVSPost2010Prop57
140
1.0
102
RTVSPost2010PropOp57
 70
     1
102
RTVSPropertyOp0
 70
     1
102
RTVSPropertyOp1
 70
     1
102
RTVSPropertyOp2
 70
     1
102
RTVSPropertyOp3
 70
     1
102
RTVSPropertyOp4
 70
     1
102
RTVSPropertyOp5
 70
     1
102
RTVSPropertyOp6
 70
     1
102
RTVSPropertyOp7
 70
     1
102
RTVSPropertyOp8
 70
     1
102
RTVSPropertyOp9
 70
     1
102
RTVSPropertyOp10
 70
     1
102
RTVSPropertyOp11
 70
     1
102
RTVSPropertyOp12
 70
     1
102
RTVSPropertyOp13
 70
     1
102
RTVSPropertyOp14
 70
     1
102
RTVSPropertyOp15
 70
     1
102
RTVSPropertyOp16
 70
     1
102
RTVSPropertyOp17
 70
     1
102
RTVSPropertyOp18
 70
     1
102
RTVSPropertyOp19
 70
     1
102
RTVSPropertyOp20
 70
     1
102
RTVSPropertyOp21
 70
     1
102
RTVSPropertyOp22
 70
     1
102
RTVSPropertyOp23
 70
     1
102
RTVSPropertyOp24
 70
     1
102
RTVSPropertyOp25
 70
     1
102
RTVSPropertyOp26
 70
     1
102
RTVSPropertyOp27
 70
     1
102
RTVSPropertyOp28
 70
     1
102
RTVSPropertyOp29
 70
     1
102
RTVSPropertyOp30
 70
     1
102
RTVSPropertyOp31
 70
     1
102
RTVSPropertyOp32
 70
     1
102
RTVSPropertyOp33
 70
     1
102
RTVSPropertyOp34
 70
     1
102
RTVSPropertyOp35
 70
     1
102
RTVSPropertyOp36
 70
     1
102
RTVSPropertyOp37
 70
     1
102
RTVSPropertyOp38
 70
     1
102
RTVSPropertyOp39
 70
     1
102
RTVSPropertyOp40
 70
     1
102
RTVSPropertyOp41
 70
     1
102
RTVSPropertyOp42
 70
     1
102
RTVSPropertyOp43
 70
     1
102
RTVSPropertyOp44
 70
     1
102
RTVSPropertyOp45
 70
     1
102
RTVSPropertyOp46
 70
     1
102
RTVSPropertyOp47
 70
     1
102
RTVSPropertyOp48
 70
     1
102
RTVSPropertyOp49
 70
     1
102
RTVSPropertyOp50
 70
     1
102
RTVSPropertyOp51
 70
     0
102
RTVSPropertyOp52
 70
     0
102
RTVSPropertyOp53
 70
     1
102
RTVSPropertyOp54
 70
     1
102
RTVSPropertyOp55
 70
     1
102
RTVSPropertyOp56
 70
     1
102
RTVSPropertyOp57
 70
     1
102
RTVSPropertyOp58
 70
     1
102
RTVSPropertyOp59
 70
     1
102
RTVSPropertyOp60
 70
     1
102
RTVSPropertyOp61
 70
     1
102
RTVSPropertyOp62
 70
     1
  0
ENDSEC
  0
EOF
