0
SECTION
2
HEADER
9
$ACADVER
1
AC1015
9
$DWGCODEPAGE
3
ANSI_1252
9
$HANDSEED
5
1ca
9
$ANGBASE
50
0
9
$ANGDIR
70
0
9
$ATTMODE
70
1
9
$AUNITS
70
0
9
$AUPREC
70
0
9
$CECOLOR
62
256
9
$CELTSCALE
40
1
9
$CELTYPE
6
ByLayer
9
$CELWEIGHT
370
18
9
$CLAYER
8
0
9
$CMLJUST
70
0
9
$CMLSCALE
40
1
9
$CMLSTYLE
2
Standard
9
$DIMSTYLE
2
Standard
9
$TEXTSIZE
40
0.2
9
$TEXTSTYLE
7
Standard
9
$LUNITS
70
2
9
$LUPREC
70
4
9
$EXTNAMES
290
1
9
$INSUNITS
70
4
9
$LTSCALE
40
1
9
$LWDISPLAY
290
1
9
$PDMODE
70
0
9
$PDSIZE
40
0
9
$PLINEGEN
70
0
0
ENDSEC
0
SECTION
2
CLASSES
0
CLASS
1
RASTERVARIABLES
2
AcDbRasterVariables
3
ISM
90
0
280
0
281
0
0
ENDSEC
0
SECTION
2
TABLES
0
TABLE
2
VPORT
5
1c0
100
AcDbSymbolTable
0
VPORT
5
1
100
AcDbSymbolTableRecord
100
AcDbViewportTableRecord
2
*Active
70
0
10
0
20
0
11
1
21
1
12
-1
22
1
13
0
23
0
14
0.5
24
0.5
15
10
25
10
16
0
26
0
36
1
17
0
27
0
37
0
0
ENDTAB
0
TABLE
2
LTYPE
5
1c1
100
AcDbSymbolTable
0
LTYPE
5
14
100
AcDbSymbolTableRecord
100
AcDbLinetypeTableRecord
70
0
2
ByBlock
3

72
65
73
0
40
0
0
LTYPE
5
15
100
AcDbSymbolTableRecord
100
AcDbLinetypeTableRecord
70
0
2
ByLayer
3

72
65
73
0
40
0
0
LTYPE
5
16
100
AcDbSymbolTableRecord
100
AcDbLinetypeTableRecord
70
0
2
Continuous
3
Solid line
72
65
73
0
40
0
0
LTYPE
5
6E
100
AcDbSymbolTableRecord
100
AcDbLinetypeTableRecord
70
0
2
CENTER
3
____ _ ____ _ ____ _ ____
72
65
73
4
40
47.5
49
22
74
0
49
-8.5
74
0
49
8.5
74
0
49
-8.5
74
0
0
LTYPE
5
6F
100
AcDbSymbolTableRecord
100
AcDbLinetypeTableRecord
70
0
2
DASHED
3
__ __ __ __ __ __ __ __ __
72
65
73
2
40
25.72
49
12.86
74
0
49
-12.86
74
0
0
ENDTAB
0
TABLE
2
LAYER
5
1c2
100
AcDbSymbolTable
0
LAYER
5
10
100
AcDbSymbolTableRecord
100
AcDbLayerTableRecord
2
0
70
0
62
7
6
Continuous
290
1
370
-3
390
0
0
LAYER
5
71
100
AcDbSymbolTableRecord
100
AcDbLayerTableRecord
2
81
70
0
62
-3
6
Continuous
290
1
370
-3
390
0
0
LAYER
5
73
100
AcDbSymbolTableRecord
100
AcDbLayerTableRecord
2
80
70
0
62
-6
6
Continuous
290
1
370
-3
390
0
0
LAYER
5
75
100
AcDbSymbolTableRecord
100
AcDbLayerTableRecord
2
1
70
0
62
4
6
Continuous
290
1
370
-3
390
0
0
LAYER
5
7F
100
AcDbSymbolTableRecord
100
AcDbLayerTableRecord
2
4
70
0
62
-2
6
CENTER
290
1
370
-3
390
0
0
LAYER
5
A4
100
AcDbSymbolTableRecord
100
AcDbLayerTableRecord
2
2
70
0
62
7
6
Continuous
290
1
370
-3
390
0
0
LAYER
5
ED
100
AcDbSymbolTableRecord
100
AcDbLayerTableRecord
2
Defpoints
70
0
62
7
6
Continuous
290
0
370
-3
390
0
0
LAYER
5
1aa
100
AcDbSymbolTableRecord
100
AcDbLayerTableRecord
2
SK4
70
0
62
2
6
CENTER
290
1
370
-3
390
0
0
LAYER
5
1ab
100
AcDbSymbolTableRecord
100
AcDbLayerTableRecord
2
SK1
70
0
62
4
6
Continuous
290
1
370
-3
390
0
0
LAYER
5
1ac
100
AcDbSymbolTableRecord
100
AcDbLayerTableRecord
2
SK2
70
0
62
7
6
Continuous
290
1
370
-3
390
0
0
LAYER
5
1ad
100
AcDbSymbolTableRecord
100
AcDbLayerTableRecord
2
CUT
70
0
62
-1
6
Continuous
290
1
370
-3
390
0
0
LAYER
5
1ae
100
AcDbSymbolTableRecord
100
AcDbLayerTableRecord
2
NOCUT
70
0
62
-7
6
Continuous
290
1
370
-3
390
0
0
LAYER
5
1af
100
AcDbSymbolTableRecord
100
AcDbLayerTableRecord
2
SK6
70
0
62
5
6
Continuous
290
1
370
-3
390
0
0
ENDTAB
0
TABLE
2
STYLE
5
1c3
100
AcDbSymbolTable
0
STYLE
5
11
100
AcDbSymbolTableRecord
100
AcDbTextStyleTableRecord
2
Standard
3
txt
70
0
71
0
40
0
41
1
42
0
50
0
0
STYLE
5
C9
100
AcDbSymbolTableRecord
100
AcDbTextStyleTableRecord
2
iso_b_vert
3
simplex.shx
70
0
71
0
40
0
41
1
42
0
50
0
0
STYLE
5
CA
100
AcDbSymbolTableRecord
100
AcDbTextStyleTableRecord
2
DWGDirectTextStyle
3
simplex
70
0
71
0
40
0
41
1
42
0
50
0
0
ENDTAB
0
TABLE
2
DIMSTYLE
5
1c4
100
AcDbSymbolTable
100
AcDbDimStyleTable
0
DIMSTYLE
105
27
100
AcDbSymbolTableRecord
100
AcDbDimStyleTableRecord
2
Standard
70
0
3
<>
41
0.18
42
0.0625
44
0.18
140
0.18
147
0.09
73
0
74
0
77
1
271
2
275
0
278
52
280
0
340
11
0
ENDTAB
0
TABLE
2
VIEW
5
1c5
100
AcDbSymbolTable
0
ENDTAB
0
TABLE
2
UCS
5
1c6
100
AcDbSymbolTable
0
ENDTAB
0
TABLE
2
APPID
5
1c7
100
AcDbSymbolTable
0
APPID
5
12
100
AcDbSymbolTableRecord
100
AcDbRegAppTableRecord
2
ACAD
70
0
0
APPID
5
E9
100
AcDbSymbolTableRecord
100
AcDbRegAppTableRecord
2
ACAD_DSTYLE_DIMBREAK
70
0
0
APPID
5
169
100
AcDbSymbolTableRecord
100
AcDbRegAppTableRecord
2
ACAD_DSTYLE_DIM_LINETYPE
70
0
0
APPID
5
16A
100
AcDbSymbolTableRecord
100
AcDbRegAppTableRecord
2
ACAD_DSTYLE_DIM_EXT1_LINETYPE
70
0
0
APPID
5
16B
100
AcDbSymbolTableRecord
100
AcDbRegAppTableRecord
2
ACAD_DSTYLE_DIM_EXT2_LINETYPE
70
0
0
APPID
5
1A6
100
AcDbSymbolTableRecord
100
AcDbRegAppTableRecord
2
ACAD_MLEADERVER
70
0
0
ENDTAB
0
TABLE
2
BLOCK_RECORD
5
1c8
100
AcDbSymbolTable
0
BLOCK_RECORD
5
1F
100
AcDbSymbolTableRecord
100
AcDbBlockTableRecord
2
*Model_Space
340
0
70
0
0
BLOCK_RECORD
5
1B
100
AcDbSymbolTableRecord
100
AcDbBlockTableRecord
2
*Paper_Space
340
0
70
0
0
BLOCK_RECORD
5
23
100
AcDbSymbolTableRecord
100
AcDbBlockTableRecord
2
*Paper_Space0
340
0
70
0
0
BLOCK_RECORD
5
EE
100
AcDbSymbolTableRecord
100
AcDbBlockTableRecord
2
*D1
340
0
70
0
0
BLOCK_RECORD
5
FA
100
AcDbSymbolTableRecord
100
AcDbBlockTableRecord
2
_U0
340
0
70
0
0
BLOCK_RECORD
5
106
100
AcDbSymbolTableRecord
100
AcDbBlockTableRecord
2
*D3
340
0
70
0
0
BLOCK_RECORD
5
112
100
AcDbSymbolTableRecord
100
AcDbBlockTableRecord
2
_U1
340
0
70
0
0
BLOCK_RECORD
5
11E
100
AcDbSymbolTableRecord
100
AcDbBlockTableRecord
2
*D5
340
0
70
0
0
BLOCK_RECORD
5
12A
100
AcDbSymbolTableRecord
100
AcDbBlockTableRecord
2
_U2
340
0
70
0
0
BLOCK_RECORD
5
136
100
AcDbSymbolTableRecord
100
AcDbBlockTableRecord
2
*D7
340
0
70
0
0
BLOCK_RECORD
5
142
100
AcDbSymbolTableRecord
100
AcDbBlockTableRecord
2
_U3
340
0
70
0
0
ENDTAB
0
ENDSEC
0
SECTION
2
BLOCKS
0
BLOCK
5
20
100
AcDbEntity
8
0
100
AcDbBlockBegin
2
*Model_Space
70
0
10
0
20
0
30
0
3
*Model_Space
0
ENDBLK
5
21
100
AcDbEntity
8
0
100
AcDbBlockEnd
0
BLOCK
5
1C
100
AcDbEntity
8
0
100
AcDbBlockBegin
2
*Paper_Space
70
0
10
0
20
0
30
0
3
*Paper_Space
0
ENDBLK
5
1D
100
AcDbEntity
8
0
100
AcDbBlockEnd
0
BLOCK
5
24
100
AcDbEntity
8
0
100
AcDbBlockBegin
2
*Paper_Space0
70
0
10
0
20
0
30
0
3
*Paper_Space0
0
ENDBLK
5
25
100
AcDbEntity
8
0
100
AcDbBlockEnd
0
BLOCK
5
EF
100
AcDbEntity
8
0
100
AcDbBlockBegin
2
*D1
70
1
10
0
20
0
30
0
3
*D1
0
LINE
5
F1
100
AcDbEntity
8
0
62
256
6
ByLayer
370
-2
48
1
60
0
100
AcDbLine
10
-44
20
-6.4375
30
0
11
-44
21
-53.45664
31
0
39
0
210
0
220
0
230
1
0
LINE
5
F2
100
AcDbEntity
8
0
62
256
6
ByLayer
370
-2
48
1
60
0
100
AcDbLine
10
45
20
-1.5875
30
0
11
45
21
-53.45664
31
0
39
0
210
0
220
0
230
1
0
LINE
5
F3
100
AcDbEntity
8
0
62
256
6
ByLayer
370
-2
48
1
60
0
100
AcDbLine
10
-40.5
20
-51.45664
30
0
11
41.5
21
-51.45664
31
0
39
0
210
0
220
0
230
1
0
SOLID
5
F4
100
AcDbEntity
8
0
62
256
6
ByLayer
370
-1
48
1
60
0
100
AcDbTrace
10
-40.5
20
-50.873307
30
0
11
-40.5
21
-52.039973
31
0
12
-44
22
-51.45664
32
0
13
-44
23
-51.45664
33
0
39
0
210
0
220
0
230
1
0
SOLID
5
F5
100
AcDbEntity
8
0
62
256
6
ByLayer
370
-1
48
1
60
0
100
AcDbTrace
10
41.5
20
-52.039973
30
0
11
41.5
21
-50.873307
31
0
12
45
22
-51.45664
32
0
13
45
23
-51.45664
33
0
39
0
210
0
220
0
230
1
0
MTEXT
5
F6
100
AcDbEntity
8
0
62
256
6
ByLayer
370
18
48
1
60
0
100
AcDbMText
10
0.5
20
-45.45664
30
0
210
0
220
0
230
1
1
\A1;89
40
3
41
0
44
1
50
0
71
5
72
5
7
iso_b_vert
0
POINT
5
F7
100
AcDbEntity
8
Defpoints
62
0
6
ByLayer
370
-1
48
1
60
0
100
AcDbPoint
10
-44
20
-4.85
30
0
39
0
210
0
220
0
230
1
50
360
0
POINT
5
F8
100
AcDbEntity
8
Defpoints
62
0
6
ByLayer
370
-1
48
1
60
0
100
AcDbPoint
10
45
20
0
30
0
39
0
210
0
220
0
230
1
50
360
0
POINT
5
F9
100
AcDbEntity
8
Defpoints
62
0
6
ByLayer
370
-1
48
1
60
0
100
AcDbPoint
10
45
20
-51.45664
30
0
39
0
210
0
220
0
230
1
50
360
0
ENDBLK
5
F0
100
AcDbEntity
8
0
100
AcDbBlockEnd
0
BLOCK
5
101
100
AcDbEntity
8
0
100
AcDbBlockBegin
2
_U0
70
0
10
0
20
0
30
0
3
_U0
0
MTEXT
5
FB
100
AcDbEntity
8
SK2
62
256
6
ByLayer
370
18
48
1
60
0
100
AcDbMText
10
-3.98237
20
-50.571526
30
0
210
0
220
0
230
1
1
\W0.7468;89.00
40
3
41
0
44
1.084337
50
0
71
7
72
5
7
iso_b_vert
0
LINE
5
FC
100
AcDbEntity
8
SK2
62
256
6
ByLayer
370
13
48
1
60
0
100
AcDbLine
10
-44
20
-6.4375
30
0
11
-44
21
-53.45664
31
0
39
0
210
0
220
0
230
1
0
LINE
5
FD
100
AcDbEntity
8
SK2
62
256
6
ByLayer
370
13
48
1
60
0
100
AcDbLine
10
45
20
-1.5875
30
0
11
45
21
-53.45664
31
0
39
0
210
0
220
0
230
1
0
LINE
5
FE
100
AcDbEntity
8
SK2
62
256
6
ByLayer
370
13
48
1
60
0
100
AcDbLine
10
-44
20
-51.45664
30
0
11
45
21
-51.45664
31
0
39
0
210
0
220
0
230
1
0
SOLID
5
FF
100
AcDbEntity
8
SK2
62
256
6
ByLayer
370
18
48
1
60
0
100
AcDbTrace
10
-44
20
-51.45664
30
0
11
-40.500002
21
-50.995856
31
0
12
-40.499998
22
-51.917424
32
0
13
-40.499998
23
-51.917424
33
0
39
0
210
0
220
0
230
1
0
SOLID
5
100
100
AcDbEntity
8
SK2
62
256
6
ByLayer
370
18
48
1
60
0
100
AcDbTrace
10
45
20
-51.45664
30
0
11
41.500002
21
-51.917424
31
0
12
41.499998
22
-50.995856
32
0
13
41.499998
23
-50.995856
33
0
39
0
210
0
220
0
230
1
0
ENDBLK
5
102
100
AcDbEntity
8
0
100
AcDbBlockEnd
0
BLOCK
5
107
100
AcDbEntity
8
0
100
AcDbBlockBegin
2
*D3
70
1
10
0
20
0
30
0
3
*D3
0
LINE
5
109
100
AcDbEntity
8
0
62
256
6
ByLayer
370
-2
48
1
60
0
100
AcDbLine
10
45
20
-1.5875
30
0
11
45
21
-43.45664
31
0
39
0
210
0
220
0
230
1
0
LINE
5
10A
100
AcDbEntity
8
0
62
256
6
ByLayer
370
-2
48
1
60
0
100
AcDbLine
10
2
20
-6.4375
30
0
11
2
21
-43.45664
31
0
39
0
210
0
220
0
230
1
0
LINE
5
10B
100
AcDbEntity
8
0
62
256
6
ByLayer
370
-2
48
1
60
0
100
AcDbLine
10
41.5
20
-41.45664
30
0
11
5.5
21
-41.45664
31
0
39
0
210
0
220
0
230
1
0
SOLID
5
10C
100
AcDbEntity
8
0
62
256
6
ByLayer
370
-1
48
1
60
0
100
AcDbTrace
10
41.5
20
-42.039973
30
0
11
41.5
21
-40.873307
31
0
12
45
22
-41.45664
32
0
13
45
23
-41.45664
33
0
39
0
210
0
220
0
230
1
0
SOLID
5
10D
100
AcDbEntity
8
0
62
256
6
ByLayer
370
-1
48
1
60
0
100
AcDbTrace
10
5.5
20
-40.873307
30
0
11
5.5
21
-42.039973
31
0
12
2
22
-41.45664
32
0
13
2
23
-41.45664
33
0
39
0
210
0
220
0
230
1
0
MTEXT
5
10E
100
AcDbEntity
8
0
62
256
6
ByLayer
370
18
48
1
60
0
100
AcDbMText
10
23.5
20
-35.45664
30
0
210
0
220
0
230
1
1
\A1;43
40
3
41
0
44
1
50
0
71
5
72
5
7
iso_b_vert
0
POINT
5
10F
100
AcDbEntity
8
Defpoints
62
0
6
ByLayer
370
-1
48
1
60
0
100
AcDbPoint
10
45
20
0
30
0
39
0
210
0
220
0
230
1
50
360
0
POINT
5
110
100
AcDbEntity
8
Defpoints
62
0
6
ByLayer
370
-1
48
1
60
0
100
AcDbPoint
10
2
20
-4.85
30
0
39
0
210
0
220
0
230
1
50
360
0
POINT
5
111
100
AcDbEntity
8
Defpoints
62
0
6
ByLayer
370
-1
48
1
60
0
100
AcDbPoint
10
2
20
-41.45664
30
0
39
0
210
0
220
0
230
1
50
360
0
ENDBLK
5
108
100
AcDbEntity
8
0
100
AcDbBlockEnd
0
BLOCK
5
119
100
AcDbEntity
8
0
100
AcDbBlockBegin
2
_U1
70
0
10
0
20
0
30
0
3
_U1
0
MTEXT
5
113
100
AcDbEntity
8
2
62
256
6
ByLayer
370
18
48
1
60
0
100
AcDbMText
10
18.859687
20
-40.571526
30
0
210
0
220
0
230
1
1
\W0.7694;43.00
40
3
41
0
44
1.084337
50
0
71
7
72
5
7
iso_b_vert
0
LINE
5
114
100
AcDbEntity
8
2
62
256
6
ByLayer
370
13
48
1
60
0
100
AcDbLine
10
45
20
-1.5875
30
0
11
45
21
-43.45664
31
0
39
0
210
0
220
0
230
1
0
LINE
5
115
100
AcDbEntity
8
2
62
256
6
ByLayer
370
13
48
1
60
0
100
AcDbLine
10
2
20
-6.4375
30
0
11
2
21
-43.45664
31
0
39
0
210
0
220
0
230
1
0
LINE
5
116
100
AcDbEntity
8
2
62
256
6
ByLayer
370
13
48
1
60
0
100
AcDbLine
10
45
20
-41.45664
30
0
11
2
21
-41.45664
31
0
39
0
210
0
220
0
230
1
0
SOLID
5
117
100
AcDbEntity
8
2
62
256
6
ByLayer
370
18
48
1
60
0
100
AcDbTrace
10
45
20
-41.45664
30
0
11
41.500002
21
-41.917424
31
0
12
41.499998
22
-40.995856
32
0
13
41.499998
23
-40.995856
33
0
39
0
210
0
220
0
230
1
0
SOLID
5
118
100
AcDbEntity
8
2
62
256
6
ByLayer
370
18
48
1
60
0
100
AcDbTrace
10
2
20
-41.45664
30
0
11
5.499998
21
-40.995856
31
0
12
5.500002
22
-41.917424
32
0
13
5.500002
23
-41.917424
33
0
39
0
210
0
220
0
230
1
0
ENDBLK
5
11A
100
AcDbEntity
8
0
100
AcDbBlockEnd
0
BLOCK
5
11F
100
AcDbEntity
8
0
100
AcDbBlockBegin
2
*D5
70
1
10
0
20
0
30
0
3
*D5
0
LINE
5
121
100
AcDbEntity
8
0
62
256
6
ByLayer
370
-2
48
1
60
0
100
AcDbLine
10
-44
20
-6.4375
30
0
11
-44
21
-38.45664
31
0
39
0
210
0
220
0
230
1
0
LINE
5
122
100
AcDbEntity
8
0
62
256
6
ByLayer
370
-2
48
1
60
0
100
AcDbLine
10
0
20
-6.4375
30
0
11
0
21
-38.45664
31
0
39
0
210
0
220
0
230
1
0
LINE
5
123
100
AcDbEntity
8
0
62
256
6
ByLayer
370
-2
48
1
60
0
100
AcDbLine
10
-40.5
20
-36.45664
30
0
11
-3.5
21
-36.45664
31
0
39
0
210
0
220
0
230
1
0
SOLID
5
124
100
AcDbEntity
8
0
62
256
6
ByLayer
370
-1
48
1
60
0
100
AcDbTrace
10
-40.5
20
-35.873307
30
0
11
-40.5
21
-37.039973
31
0
12
-44
22
-36.45664
32
0
13
-44
23
-36.45664
33
0
39
0
210
0
220
0
230
1
0
SOLID
5
125
100
AcDbEntity
8
0
62
256
6
ByLayer
370
-1
48
1
60
0
100
AcDbTrace
10
-3.5
20
-37.039973
30
0
11
-3.5
21
-35.873307
31
0
12
0
22
-36.45664
32
0
13
0
23
-36.45664
33
0
39
0
210
0
220
0
230
1
0
MTEXT
5
126
100
AcDbEntity
8
0
62
256
6
ByLayer
370
18
48
1
60
0
100
AcDbMText
10
-22
20
-30.45664
30
0
210
0
220
0
230
1
1
\A1;44
40
3
41
0
44
1
50
0
71
5
72
5
7
iso_b_vert
0
POINT
5
127
100
AcDbEntity
8
Defpoints
62
0
6
ByLayer
370
-1
48
1
60
0
100
AcDbPoint
10
-44
20
-4.85
30
0
39
0
210
0
220
0
230
1
50
360
0
POINT
5
128
100
AcDbEntity
8
Defpoints
62
0
6
ByLayer
370
-1
48
1
60
0
100
AcDbPoint
10
0
20
-4.85
30
0
39
0
210
0
220
0
230
1
50
360
0
POINT
5
129
100
AcDbEntity
8
Defpoints
62
0
6
ByLayer
370
-1
48
1
60
0
100
AcDbPoint
10
0
20
-36.45664
30
0
39
0
210
0
220
0
230
1
50
360
0
ENDBLK
5
120
100
AcDbEntity
8
0
100
AcDbBlockEnd
0
BLOCK
5
131
100
AcDbEntity
8
0
100
AcDbBlockBegin
2
_U2
70
0
10
0
20
0
30
0
3
_U2
0
MTEXT
5
12B
100
AcDbEntity
8
SK2
62
256
6
ByLayer
370
18
48
1
60
0
100
AcDbMText
10
-26.798256
20
-35.571526
30
0
210
0
220
0
230
1
1
\W0.7958;44.00
40
3
41
0
44
1.084337
50
0
71
7
72
5
7
iso_b_vert
0
LINE
5
12C
100
AcDbEntity
8
SK2
62
256
6
ByLayer
370
13
48
1
60
0
100
AcDbLine
10
-44
20
-6.4375
30
0
11
-44
21
-38.45664
31
0
39
0
210
0
220
0
230
1
0
LINE
5
12D
100
AcDbEntity
8
SK2
62
256
6
ByLayer
370
13
48
1
60
0
100
AcDbLine
10
0
20
-6.4375
30
0
11
0
21
-38.45664
31
0
39
0
210
0
220
0
230
1
0
LINE
5
12E
100
AcDbEntity
8
SK2
62
256
6
ByLayer
370
13
48
1
60
0
100
AcDbLine
10
-44
20
-36.45664
30
0
11
0
21
-36.45664
31
0
39
0
210
0
220
0
230
1
0
SOLID
5
12F
100
AcDbEntity
8
SK2
62
256
6
ByLayer
370
18
48
1
60
0
100
AcDbTrace
10
-44
20
-36.45664
30
0
11
-40.500002
21
-35.995856
31
0
12
-40.499998
22
-36.917424
32
0
13
-40.499998
23
-36.917424
33
0
39
0
210
0
220
0
230
1
0
SOLID
5
130
100
AcDbEntity
8
SK2
62
256
6
ByLayer
370
18
48
1
60
0
100
AcDbTrace
10
0
20
-36.45664
30
0
11
-3.499998
21
-36.917424
31
0
12
-3.500002
22
-35.995856
32
0
13
-3.500002
23
-35.995856
33
0
39
0
210
0
220
0
230
1
0
ENDBLK
5
132
100
AcDbEntity
8
0
100
AcDbBlockEnd
0
BLOCK
5
137
100
AcDbEntity
8
0
100
AcDbBlockBegin
2
*D7
70
1
10
0
20
0
30
0
3
*D7
0
LINE
5
139
100
AcDbEntity
8
0
62
256
6
ByLayer
370
-2
48
1
60
0
100
AcDbLine
10
45
20
-1.5875
30
0
11
45
21
-36.45664
31
0
39
0
210
0
220
0
230
1
0
LINE
5
13A
100
AcDbEntity
8
0
62
256
6
ByLayer
370
-2
48
1
60
0
100
AcDbLine
10
12.75
20
-6.4375
30
0
11
12.75
21
-36.45664
31
0
39
0
210
0
220
0
230
1
0
LINE
5
13B
100
AcDbEntity
8
0
62
256
6
ByLayer
370
-2
48
1
60
0
100
AcDbLine
10
41.5
20
-34.45664
30
0
11
16.25
21
-34.45664
31
0
39
0
210
0
220
0
230
1
0
SOLID
5
13C
100
AcDbEntity
8
0
62
256
6
ByLayer
370
-1
48
1
60
0
100
AcDbTrace
10
41.5
20
-35.039973
30
0
11
41.5
21
-33.873307
31
0
12
45
22
-34.45664
32
0
13
45
23
-34.45664
33
0
39
0
210
0
220
0
230
1
0
SOLID
5
13D
100
AcDbEntity
8
0
62
256
6
ByLayer
370
-1
48
1
60
0
100
AcDbTrace
10
16.25
20
-33.873307
30
0
11
16.25
21
-35.039973
31
0
12
12.75
22
-34.45664
32
0
13
12.75
23
-34.45664
33
0
39
0
210
0
220
0
230
1
0
MTEXT
5
13E
100
AcDbEntity
8
0
62
256
6
ByLayer
370
18
48
1
60
0
100
AcDbMText
10
28.875
20
-28.45664
30
0
210
0
220
0
230
1
1
\A1;32.25
40
3
41
0
44
1
50
0
71
5
72
5
7
iso_b_vert
0
POINT
5
13F
100
AcDbEntity
8
Defpoints
62
0
6
ByLayer
370
-1
48
1
60
0
100
AcDbPoint
10
45
20
0
30
0
39
0
210
0
220
0
230
1
50
360
0
POINT
5
140
100
AcDbEntity
8
Defpoints
62
0
6
ByLayer
370
-1
48
1
60
0
100
AcDbPoint
10
12.75
20
-4.85
30
0
39
0
210
0
220
0
230
1
50
360
0
POINT
5
141
100
AcDbEntity
8
Defpoints
62
0
6
ByLayer
370
-1
48
1
60
0
100
AcDbPoint
10
12.75
20
-34.45664
30
0
39
0
210
0
220
0
230
1
50
360
0
ENDBLK
5
138
100
AcDbEntity
8
0
100
AcDbBlockEnd
0
BLOCK
5
149
100
AcDbEntity
8
0
100
AcDbBlockBegin
2
_U3
70
0
10
0
20
0
30
0
3
_U3
0
MTEXT
5
143
100
AcDbEntity
8
2
62
256
6
ByLayer
370
18
48
1
60
0
100
AcDbMText
10
24.39263
20
-33.571526
30
0
210
0
220
0
230
1
1
\W0.7468;32.25
40
3
41
0
44
1.084337
50
0
71
7
72
5
7
iso_b_vert
0
LINE
5
144
100
AcDbEntity
8
2
62
256
6
ByLayer
370
13
48
1
60
0
100
AcDbLine
10
45
20
-1.5875
30
0
11
45
21
-36.45664
31
0
39
0
210
0
220
0
230
1
0
LINE
5
145
100
AcDbEntity
8
2
62
256
6
ByLayer
370
13
48
1
60
0
100
AcDbLine
10
12.75
20
-6.4375
30
0
11
12.75
21
-36.45664
31
0
39
0
210
0
220
0
230
1
0
LINE
5
146
100
AcDbEntity
8
2
62
256
6
ByLayer
370
13
48
1
60
0
100
AcDbLine
10
45
20
-34.45664
30
0
11
12.75
21
-34.45664
31
0
39
0
210
0
220
0
230
1
0
SOLID
5
147
100
AcDbEntity
8
2
62
256
6
ByLayer
370
18
48
1
60
0
100
AcDbTrace
10
45
20
-34.45664
30
0
11
41.500002
21
-34.917424
31
0
12
41.499998
22
-33.995856
32
0
13
41.499998
23
-33.995856
33
0
39
0
210
0
220
0
230
1
0
SOLID
5
148
100
AcDbEntity
8
2
62
256
6
ByLayer
370
18
48
1
60
0
100
AcDbTrace
10
12.75
20
-34.45664
30
0
11
16.249998
21
-33.995856
31
0
12
16.250002
22
-34.917424
32
0
13
16.250002
23
-34.917424
33
0
39
0
210
0
220
0
230
1
0
ENDBLK
5
14A
100
AcDbEntity
8
0
100
AcDbBlockEnd
0
ENDSEC
0
SECTION
2
ENTITIES
0
ARC
5
B5
100
AcDbEntity
8
2
62
256
6
ByLayer
370
13
48
1
60
0
100
AcDbCircle
39
0
10
45
20
0
30
0
40
21.9999999999999
210
0
220
0
230
1
100
AcDbArc
50
7.83748
51
61.596605
0
ARC
5
B6
100
AcDbEntity
8
2
62
256
6
ByLayer
370
13
48
1
60
0
100
AcDbCircle
39
0
10
45
20
0
30
0
40
21.9999999999999
210
0
220
0
230
1
100
AcDbArc
50
298.403395
51
352.16252
0
POINT
5
70
100
AcDbEntity
8
81
62
256
6
ByLayer
370
18
48
1
60
0
100
AcDbPoint
10
45
20
0
30
0
39
0
210
0
220
0
230
1
50
360
0
POINT
5
72
100
AcDbEntity
8
80
62
256
6
ByLayer
370
18
48
1
60
0
100
AcDbPoint
10
0
20
0
30
0
39
0
210
0
220
0
230
1
50
360
0
POINT
5
74
100
AcDbEntity
8
1
62
256
6
ByLayer
370
18
48
1
60
1
100
AcDbPoint
10
-44
20
-4.85
30
0
39
0
210
0
220
0
230
1
50
360
0
POINT
5
76
100
AcDbEntity
8
1
62
256
6
ByLayer
370
18
48
1
60
1
100
AcDbPoint
10
45
20
0
30
0
39
0
210
0
220
0
230
1
50
360
0
POINT
5
77
100
AcDbEntity
8
1
62
256
6
ByLayer
370
18
48
1
60
1
100
AcDbPoint
10
45
20
0
30
0
39
0
210
0
220
0
230
1
50
360
0
POINT
5
78
100
AcDbEntity
8
1
62
256
6
ByLayer
370
18
48
1
60
1
100
AcDbPoint
10
2
20
-4.85
30
0
39
0
210
0
220
0
230
1
50
360
0
POINT
5
79
100
AcDbEntity
8
1
62
256
6
ByLayer
370
18
48
1
60
1
100
AcDbPoint
10
-44
20
-4.85
30
0
39
0
210
0
220
0
230
1
50
360
0
POINT
5
7A
100
AcDbEntity
8
1
62
256
6
ByLayer
370
18
48
1
60
1
100
AcDbPoint
10
0
20
-4.85
30
0
39
0
210
0
220
0
230
1
50
360
0
POINT
5
7B
100
AcDbEntity
8
1
62
256
6
ByLayer
370
18
48
1
60
1
100
AcDbPoint
10
45
20
0
30
0
39
0
210
0
220
0
230
1
50
360
0
POINT
5
7C
100
AcDbEntity
8
1
62
256
6
ByLayer
370
18
48
1
60
1
100
AcDbPoint
10
12.75
20
-4.85
30
0
39
0
210
0
220
0
230
1
50
360
0
SPLINE
5
B7
100
AcDbEntity
8
CUT
62
256
6
ByLayer
370
18
48
1
60
0
100
AcDbSpline
70
2053
71
3
72
17
73
13
40
0
40
0
40
0
40
0
40
0.446491135891915
40
0.446491135891915
40
0.446491135891915
40
0.513484047395378
40
0.513484047395378
40
0.513484047395378
40
0.923663969510147
40
0.923663969510147
40
0.923663969510147
40
1
40
1
40
1
40
1
41
1
10
45
20
-2.84E-14
30
0
41
1
10
34.25
20
0
30
0
41
1
10
23.5
20
0
30
0
41
1
10
12.75
20
0
30
0
41
1
10
12.75
20
1.61296326125469
30
0
41
1
10
12.75
20
3.22592652250935
30
0
41
1
10
12.7499999999996
20
4.83888978376405
30
0
41
1
10
22.6257477993076
20
4.84259318918856
30
0
41
1
10
32.501495598616
20
4.84629659461308
30
0
41
1
10
42.3772433979244
20
4.8500000000376
30
0
41
1
10
43.2514955986163
20
3.23333333335839
30
0
41
1
10
44.1257477993082
20
1.61666666667918
30
0
41
1
10
45
20
-2.84E-14
30
0
0
SPLINE
5
B9
100
AcDbEntity
8
NOCUT
62
256
6
ByLayer
370
18
48
1
60
0
100
AcDbSpline
70
2053
71
3
72
26
73
22
40
0
40
0
40
0
40
0
40
0.462322317876852
40
0.462322317876852
40
0.462322317876852
40
0.501743053396759
40
0.501743053396759
40
0.501743053396759
40
0.602354172819202
40
0.602354172819202
40
0.602354172819202
40
0.605615354705271
40
0.605615354705271
40
0.605615354705271
40
0.957957914144263
40
0.957957914144263
40
0.957957914144263
40
0.966598740030798
40
0.966598740030798
40
0.966598740030798
40
1
40
1
40
1
40
1
41
1
10
-44
20
0
30
0
41
1
10
-25.0833333333335
20
0
30
0
41
1
10
-6.16666666666694
20
0
30
0
41
1
10
12.7499999999998
20
0
30
0
41
1
10
12.75
20
1.61296326125469
30
0
41
1
10
12.75
20
3.22592652250935
30
0
41
1
10
12.75
20
4.83888978376405
30
0
41
1
10
8.63333333333276
20
4.83734603376413
30
0
41
1
10
4.51666666666551
20
4.83580228376422
30
0
41
1
10
0.399999999549692
20
4.83425853374649
30
0
41
1
10
0.26666666606738
20
4.83950568915242
30
0
41
1
10
0.133333333033676
20
4.84475284457622
30
0
41
1
10
0
20
4.84999999999999
30
0
41
1
10
-14.4166666666667
20
4.84999999999999
30
0
41
1
10
-28.8333333333333
20
4.84999999999999
30
0
41
1
10
-43.25
20
4.84999999999999
30
0
41
1
10
-43.5
20
4.59999999999999
30
0
41
1
10
-43.75
20
4.34999999999999
30
0
41
1
10
-44
20
4.09999999999999
30
0
41
1
10
-44
20
2.73333333333332
30
0
41
1
10
-44
20
1.36666666666667
30
0
41
1
10
-44
20
0
30
0
0
SPLINE
5
BB
100
AcDbEntity
8
1
62
256
6
ByLayer
370
18
48
1
60
0
100
AcDbSpline
70
4
71
3
72
128
73
124
40
0
40
0
40
0
40
0
40
0.0156249999999997
40
0.0156249999999997
40
0.0312499999999995
40
0.0312499999999995
40
0.0624999999999989
40
0.0624999999999989
40
0.0937499999999984
40
0.0937499999999984
40
0.124999999999998
40
0.124999999999998
40
0.156249999999997
40
0.156249999999997
40
0.187499999999997
40
0.187499999999997
40
0.203124999999997
40
0.203124999999997
40
0.218749999999998
40
0.218749999999998
40
0.249999999999999
40
0.249999999999999
40
0.265625
40
0.265625
40
0.281250000000002
40
0.281250000000002
40
0.289062500000003
40
0.289062500000003
40
0.296875000000003
40
0.296875000000003
40
0.304687500000004
40
0.304687500000004
40
0.312500000000005
40
0.312500000000005
40
0.328125000000008
40
0.328125000000008
40
0.33593750000001
40
0.33593750000001
40
0.343750000000011
40
0.343750000000011
40
0.359375000000014
40
0.359375000000014
40
0.367187500000015
40
0.367187500000015
40
0.375000000000016
40
0.375000000000016
40
0.390625000000017
40
0.390625000000017
40
0.406250000000018
40
0.406250000000018
40
0.42187500000002
40
0.42187500000002
40
0.437500000000021
40
0.437500000000021
40
0.453125000000022
40
0.453125000000022
40
0.460937500000023
40
0.460937500000023
40
0.468750000000024
40
0.468750000000024
40
0.484375000000024
40
0.484375000000024
40
0.492187500000024
40
0.492187500000024
40
0.500000000000024
40
0.500000000000024
40
0.515625000000024
40
0.515625000000024
40
0.523437500000024
40
0.523437500000024
40
0.527343750000025
40
0.527343750000025
40
0.531250000000025
40
0.531250000000025
40
0.546875000000027
40
0.546875000000027
40
0.562500000000029
40
0.562500000000029
40
0.57031250000003
40
0.57031250000003
40
0.578125000000031
40
0.578125000000031
40
0.593750000000031
40
0.593750000000031
40
0.609375000000032
40
0.609375000000032
40
0.625000000000032
40
0.625000000000032
40
0.632812500000031
40
0.632812500000031
40
0.64062500000003
40
0.64062500000003
40
0.656250000000026
40
0.656250000000026
40
0.671875000000022
40
0.671875000000022
40
0.67968750000002
40
0.67968750000002
40
0.687500000000018
40
0.687500000000018
40
0.703125000000017
40
0.703125000000017
40
0.718750000000015
40
0.718750000000015
40
0.750000000000013
40
0.750000000000013
40
0.781250000000011
40
0.781250000000011
40
0.812500000000009
40
0.812500000000009
40
0.843750000000007
40
0.843750000000007
40
0.875000000000005
40
0.875000000000005
40
0.906250000000003
40
0.906250000000003
40
0.937500000000002
40
0.937500000000002
40
0.953125000000001
40
0.953125000000001
40
0.96875
40
0.96875
40
1
40
1
40
1
40
1
41
1
10
42.3772433979244
20
4.69509404878465
30
0
41
1
10
42.4019464636241
20
4.64759830244546
30
0
41
1
10
42.4266778666768
20
4.60013169902473
30
0
41
1
10
42.4761623076351
20
4.50522746803978
30
0
41
1
10
42.5009176759904
20
4.45779172252148
30
0
41
1
10
42.5751984292297
20
4.31551311796446
30
0
41
1
10
42.6247366290154
20
4.22069712786896
30
0
41
1
10
42.7237028177948
20
4.03102660508347
30
0
41
1
10
42.7731385311539
20
3.93617821201789
30
0
41
1
10
42.871840915297
20
3.74640526271654
30
0
41
1
10
42.9211054137321
20
3.65147913530115
30
0
41
1
10
43.0194061094741
20
3.46151665459379
30
0
41
1
10
43.0684430267993
20
3.36648080530267
30
0
41
1
10
43.1662257038992
20
3.17626586498497
30
0
41
1
10
43.2149738913
20
3.08108831768214
30
0
41
1
10
43.2877768978868
20
2.93815566387497
30
0
41
1
10
43.3120037343892
20
2.89049254016723
30
0
41
1
10
43.3604067688575
20
2.79515174573626
30
0
41
1
10
43.3845780462695
20
2.7474706030016
30
0
41
1
10
43.4569799643048
20
2.60438284815731
30
0
41
1
10
43.5050977576343
20
2.50893067080057
30
0
41
1
10
43.5768546869718
20
2.36554584132156
30
0
41
1
10
43.6007035810426
20
2.317704975748
30
0
41
1
10
43.6482479614505
20
2.22201486839578
30
0
41
1
10
43.671925034788
20
2.17411916410782
30
0
41
1
10
43.7074399171994
20
2.1026826377516
30
0
41
1
10
43.7192789761034
20
2.07893975259623
30
0
41
1
10
43.7430042833335
20
2.03171941705463
30
0
41
1
10
43.7548940907277
20
2.00825343458638
30
0
41
1
10
43.7788105158113
20
1.96182322009704
30
0
41
1
10
43.7908377075393
20
1.93886005384979
30
0
41
1
10
43.8151009132285
20
1.89359677664106
30
0
41
1
10
43.8273343099969
20
1.87128807944515
30
0
41
1
10
43.8643458305959
20
1.80528624393585
30
0
41
1
10
43.8894444522425
20
1.76253111999247
30
0
41
1
10
43.927160633455
20
1.69860000068303
30
0
41
1
10
43.9397404388745
20
1.67731574523219
30
0
41
1
10
43.9648481462714
20
1.63461760133737
30
0
41
1
10
43.9773785393137
20
1.6132105943654
30
0
41
1
10
44.0148463304582
20
1.54868510028845
30
0
41
1
10
44.0396732452208
20
1.50529554496544
30
0
41
1
10
44.0766428311774
20
1.43962081202704
30
0
41
1
10
44.088919441937
20
1.41762740985953
30
0
41
1
10
44.1133608930625
20
1.37341013873729
30
0
41
1
10
44.1255285051605
20
1.35119335097249
30
0
41
1
10
44.1618766953741
20
1.28439261691833
30
0
41
1
10
44.1859100760894
20
1.2396194936357
30
0
41
1
10
44.2333785879511
20
1.14940733684415
30
0
41
1
10
44.2568141290063
20
1.10396901863598
30
0
41
1
10
44.30291258703
20
1.01235685097481
30
0
41
1
10
44.3255803745334
20
0.966188209890447
30
0
41
1
10
44.3698568693363
20
0.872976680983243
30
0
41
1
10
44.3914593841747
20
0.825921471918946
30
0
41
1
10
44.4330213261638
20
0.730565897429898
30
0
41
1
10
44.4529944721224
20
0.682278858906272
30
0
41
1
10
44.481085418507
20
0.608577985602665
30
0
41
1
10
44.4901474304755
20
0.583757717318434
30
0
41
1
10
44.5074189436253
20
0.533786045421948
30
0
41
1
10
44.5156044940751
20
0.508705366193027
30
0
41
1
10
44.538545647794
20
0.433118620784654
30
0
41
1
10
44.5517048675872
20
0.382271641163953
30
0
41
1
10
44.5669330265154
20
0.30502201179533
30
0
41
1
10
44.5712004795468
20
0.279098786684244
30
0
41
1
10
44.5778560087102
20
0.22684724234972
30
0
41
1
10
44.5803011291937
20
0.200402255082082
30
0
41
1
10
44.5845396754332
20
0.121697449030762
30
0
41
1
10
44.5832201240011
20
0.0699396345483763
30
0
41
1
10
44.5752857435472
20
-0.0066212670903383
30
0
41
1
10
44.5716630485498
20
-0.0319647536441323
30
0
41
1
10
44.5648660262689
20
-0.0697169878180262
30
0
41
1
10
44.5623723572085
20
-0.0822567101683092
30
0
41
1
10
44.5569449875472
20
-0.107245651751413
30
0
41
1
10
44.5540128753542
20
-0.119682491294071
30
0
41
1
10
44.5384531268793
20
-0.181096951326566
30
0
41
1
10
44.523059033123
20
-0.228216751623563
30
0
41
1
10
44.4883017679203
20
-0.319195599900155
30
0
41
1
10
44.4689367468713
20
-0.363055649667018
30
0
41
1
10
44.437835041076
20
-0.426738330005378
30
0
41
1
10
44.4270939034008
20
-0.44765874558064
30
0
41
1
10
44.4051484680675
20
-0.48859170474114
30
0
41
1
10
44.3939706561404
20
-0.508560528947925
30
0
41
1
10
44.359959990983
20
-0.56711073574985
30
0
41
1
10
44.3366596748313
20
-0.604350826793791
30
0
41
1
10
44.2892587595572
20
-0.675714901100577
30
0
41
1
10
44.2651544914848
20
-0.709841342657398
30
0
41
1
10
44.2163481267422
20
-0.775095239937031
30
0
41
1
10
44.191646751136
20
-0.806235321057272
30
0
41
1
10
44.1542432358201
20
-0.850879302681051
30
0
41
1
10
44.1416991877129
20
-0.865432914311356
30
0
41
1
10
44.1166855840094
20
-0.893661795287045
30
0
41
1
10
44.1041959303637
20
-0.907365014088839
30
0
41
1
10
44.0667816232907
20
-0.947266576285074
30
0
41
1
10
44.0419139322195
20
-0.972225613639608
30
0
41
1
10
43.9923275368534
20
-1.01883800386594
30
0
41
1
10
43.9676052602281
20
-1.04055323216335
30
0
41
1
10
43.9305921834229
20
-1.07117127351427
30
0
41
1
10
43.9182664116454
20
-1.08104723728584
30
0
41
1
10
43.8936414221275
20
-1.09997191192477
30
0
41
1
10
43.8813427154086
20
-1.10900582021804
30
0
41
1
10
43.8444757095231
20
-1.13491962839683
30
0
41
1
10
43.8199401363663
20
-1.15043462733888
30
0
41
1
10
43.7708202004303
20
-1.1810230584961
30
0
41
1
10
43.7462428178953
20
-1.19610219782189
30
0
41
1
10
43.6724158531772
20
-1.24170327437997
30
0
41
1
10
43.6230839424016
20
-1.27231560363347
30
0
41
1
10
43.5242096059533
20
-1.33473660286069
30
0
41
1
10
43.4746645570624
20
-1.36659479724452
30
0
41
1
10
43.3754175717251
20
-1.43159156392318
30
0
41
1
10
43.3257176494262
20
-1.46469075910045
30
0
41
1
10
43.2261907278064
20
-1.53227978913347
30
0
41
1
10
43.1763620085151
20
-1.56679485998922
30
0
41
1
10
43.0765769507003
20
-1.63770698071809
30
0
41
1
10
43.0266257913474
20
-1.67409798288389
30
0
41
1
10
42.9267414278423
20
-1.74910803771868
30
0
41
1
10
42.8767925394976
20
-1.78774918319269
30
0
41
1
10
42.7768921295317
20
-1.86734306105654
30
0
41
1
10
42.7269405475727
20
-1.90825475058929
30
0
41
1
10
42.6520129885916
20
-1.97187722193664
30
0
41
1
10
42.6270370520888
20
-1.99346915445122
30
0
41
1
10
42.5770843908895
20
-2.03756583460128
30
0
41
1
10
42.5521076467591
20
-2.0600900402375
30
0
41
1
10
42.4771741683329
20
-2.12900089666803
30
0
41
1
10
42.4272140832318
20
-2.17670609612918
30
0
41
1
10
42.3772433979244
20
-2.22564771078962
30
0
0
SPLINE
5
BC
100
AcDbEntity
8
1
62
256
6
ByLayer
370
18
48
1
60
0
100
AcDbSpline
70
4
71
3
72
35
73
31
40
0
40
0
40
0
40
0
40
0.0093814147633382
40
0.0594016772019566
40
0.109421939640575
40
0.159442202079193
40
0.209462464517812
40
0.25948272695643
40
0.309502989395049
40
0.334513120614358
40
0.359523251833667
40
0.384533383052977
40
0.397038448662631
40
0.409543514272286
40
0.42204857988194
40
0.434553645491595
40
0.459563776710904
40
0.484573907930213
40
0.509584039149523
40
0.559604301588141
40
0.609624564026759
40
0.659644826465378
40
0.709665088903996
40
0.759685351342615
40
0.809705613781233
40
0.859725876219852
40
0.90974613865847
40
0.959766401097089
40
0.984776532316398
40
1
40
1
40
1
40
1
41
1
10
17.7662576736026
20
4.04432592371776
30
0
41
1
10
17.7565376095781
20
4.02685997232595
30
0
41
1
10
17.6947341896542
20
3.91628004768555
30
0
41
1
10
17.5749710821289
20
3.71289104811436
30
0
41
1
10
17.383971196846
20
3.43534697492365
30
0
41
1
10
17.162562307407
20
3.15992128915502
30
0
41
1
10
16.9081671183822
20
2.88526686672705
30
0
41
1
10
16.6229130794686
20
2.61550210917892
30
0
41
1
10
16.3667185410809
20
2.39977025738875
30
0
41
1
10
16.1487345478166
20
2.23144639908901
30
0
41
1
10
15.9807650692426
20
2.10767582936074
30
0
41
1
10
15.8418503569305
20
2.00317787385001
30
0
41
1
10
15.7405212620634
20
1.91537571059365
30
0
41
1
10
15.6698705705072
20
1.84747400188934
30
0
41
1
10
15.6004969677925
20
1.77893113282164
30
0
41
1
10
15.5043442139352
20
1.68874275439163
30
0
41
1
10
15.3750203225526
20
1.58033842030471
30
0
41
1
10
15.2086184593492
20
1.45719912394139
30
0
41
1
10
14.9740450604489
20
1.29993648774496
30
0
41
1
10
14.6599966973382
20
1.11779472877998
30
0
41
1
10
14.2731093129346
20
0.924916728825337
30
0
41
1
10
13.872399200061
20
0.751515575104179
30
0
41
1
10
13.4634493160646
20
0.597698332243823
30
0
41
1
10
13.0570732075681
20
0.464448143029642
30
0
41
1
10
12.6502208459412
20
0.351168443832591
30
0
41
1
10
12.2448924717766
20
0.257547119938408
30
0
41
1
10
11.8389374275759
20
0.185337988621512
30
0
41
1
10
11.5112398723213
20
0.147508337196029
30
0
41
1
10
11.281256665394
20
0.13415373559053
30
0
41
1
10
11.180276152906
20
0.131859643922638
30
0
41
1
10
11.1423715794299
20
0.131566642415294
30
0
0
SPLINE
5
BD
100
AcDbEntity
8
1
62
256
6
ByLayer
370
18
48
1
60
0
100
AcDbSpline
70
4
71
3
72
10
73
6
40
0
40
0
40
0
40
0
40
0.421537665189997
40
0.96787263654484
40
1
40
1
40
1
40
1
41
1
10
8.87382571221363
20
1.06599811151224
30
0
41
1
10
8.80719337145979
20
1.09777374354579
30
0
41
1
10
8.65253266096707
20
1.1693745782583
30
0
41
1
10
8.48720579885324
20
1.23868085351185
30
0
41
1
10
8.39069932142655
20
1.2780905622601
30
0
41
1
10
8.38533684997788
20
1.28027735477207
30
0
0
SPLINE
5
BE
100
AcDbEntity
8
1
62
256
6
ByLayer
370
18
48
1
60
0
100
AcDbSpline
70
4
71
3
72
88
73
84
40
0
40
0
40
0
40
0
40
0.0148134979014676
40
0.0148134979014676
40
0.0296269958029352
40
0.0296269958029352
40
0.0592539916058705
40
0.0592539916058705
40
0.0888809874088057
40
0.0888809874088057
40
0.118507983211741
40
0.118507983211741
40
0.148134979014676
40
0.148134979014676
40
0.162948476916145
40
0.162948476916145
40
0.177761974817613
40
0.177761974817613
40
0.237015966423489
40
0.237015966423489
40
0.266642962226426
40
0.266642962226426
40
0.281456460127895
40
0.281456460127895
40
0.296269958029363
40
0.296269958029363
40
0.325896953832302
40
0.325896953832302
40
0.340710451733771
40
0.340710451733771
40
0.355523949635241
40
0.355523949635241
40
0.385150945438178
40
0.385150945438178
40
0.414777941241115
40
0.414777941241115
40
0.429591439142583
40
0.429591439142583
40
0.444404937044052
40
0.444404937044052
40
0.474031932846989
40
0.474031932846989
40
0.503658928649926
40
0.503658928649926
40
0.533285924452863
40
0.533285924452863
40
0.548099422354333
40
0.548099422354333
40
0.562912920255802
40
0.562912920255802
40
0.592539916058739
40
0.592539916058739
40
0.622166911861676
40
0.622166911861676
40
0.651793907664613
40
0.651793907664613
40
0.68142090346755
40
0.68142090346755
40
0.696234401369019
40
0.696234401369019
40
0.711047899270487
40
0.711047899270487
40
0.770301890876363
40
0.770301890876363
40
0.7999288866793
40
0.7999288866793
40
0.814742384580769
40
0.814742384580769
40
0.829555882482237
40
0.829555882482237
40
0.859182878285176
40
0.859182878285176
40
0.888809874088115
40
0.888809874088115
40
0.918436869891054
40
0.918436869891054
40
0.948063865693992
40
0.948063865693992
40
0.962877363595463
40
0.962877363595463
40
0.977690861496933
40
0.977690861496933
40
1
40
1
40
1
40
1
41
1
10
42.3772433979246
20
-2.22564771078976
30
0
41
1
10
42.2879624955561
20
-2.18165111989049
30
0
41
1
10
42.1988365380468
20
-2.13728343043982
30
0
41
1
10
42.0209258888787
20
-2.04774980629136
30
0
41
1
10
41.932157933113
20
-2.00255417859171
30
0
41
1
10
41.6659735601989
20
-1.86645737871444
30
0
41
1
10
41.4886816016426
20
-1.77503940866447
30
0
41
1
10
41.134412878353
20
-1.59087678940713
30
0
41
1
10
40.9574366730122
20
-1.49813115747219
30
0
41
1
10
40.6038091582624
20
-1.31130955566991
30
0
41
1
10
40.4271537395822
20
-1.2172411638663
30
0
41
1
10
40.0742804022549
20
-1.0275750379204
30
0
41
1
10
39.8980616187509
20
-0.93197910786941
30
0
41
1
10
39.6342331900508
20
-0.787118683776669
30
0
41
1
10
39.5463943617157
20
-0.738549379538739
30
0
41
1
10
39.3706408977253
20
-0.641360855789145
30
0
41
1
10
39.2827185998111
20
-0.592755926182321
30
0
41
1
10
38.8428772946021
20
-0.349686417468433
30
0
41
1
10
38.490253168079
20
-0.155121886870546
30
0
41
1
10
37.9603416551514
20
0.137138754642592
30
0
41
1
10
37.783549821627
20
0.23464342282449
30
0
41
1
10
37.5182517888452
20
0.381263625667486
30
0
41
1
10
37.4298018859241
20
0.43019985065024
30
0
41
1
10
37.2528964551364
20
0.528255287425964
30
0
41
1
10
37.1644643889449
20
0.577418935616549
30
0
41
1
10
36.8988344182904
20
0.724576388633778
30
0
41
1
10
36.7212249706519
20
0.822088479790466
30
0
41
1
10
36.4540199758706
20
0.967450570567166
30
0
41
1
10
36.3648204554018
20
1.01575482090763
30
0
41
1
10
36.1861601492593
20
1.11206601785847
30
0
41
1
10
36.096859658501
20
1.15998644949246
30
0
41
1
10
35.8293092951805
20
1.30291571066104
30
0
41
1
10
35.6512927626425
20
1.39714434965248
30
0
41
1
10
35.2960696961587
20
1.58372435769371
30
0
41
1
10
35.118862145641
20
1.67607494085797
30
0
41
1
10
34.8538270456008
20
1.81346979751163
30
0
41
1
10
34.7656355868549
20
1.85911973838074
30
0
41
1
10
34.5892984629625
20
1.94966660864552
30
0
41
1
10
34.5011342262735
20
1.99453293192496
30
0
41
1
10
34.2366439100542
20
2.12790951480503
30
0
41
1
10
34.0603232113742
20
2.21520380857927
30
0
41
1
10
33.7077008762796
20
2.38661891683714
30
0
41
1
10
33.5313959516999
20
2.47073468413294
30
0
41
1
10
33.1788440323879
20
2.63587779859114
30
0
41
1
10
33.0025993544961
20
2.71690996757636
30
0
41
1
10
32.7384024310979
20
2.83631445181081
30
0
41
1
10
32.6503663400593
20
2.87575993116869
30
0
41
1
10
32.4743832748215
20
2.95397282501909
30
0
41
1
10
32.3864614718115
20
2.99277606061932
30
0
41
1
10
32.1225542052289
20
3.10775049363704
30
0
41
1
10
31.9462965639307
20
3.18230344236571
30
0
41
1
10
31.5931029766394
20
3.32720422381843
30
0
41
1
10
31.4161744938047
20
3.39756297395502
30
0
41
1
10
31.0616689505745
20
3.53412552114327
30
0
41
1
10
30.8840860961532
20
3.60032274884878
30
0
41
1
10
30.5283643388269
20
3.72864516487391
30
0
41
1
10
30.3502246478425
20
3.79077075932395
30
0
41
1
10
30.0827453107059
20
3.88100375561419
30
0
41
1
10
29.9936055125819
20
3.91060224262256
30
0
41
1
10
29.8156513206824
20
3.96841070174315
30
0
41
1
10
29.7267354664348
20
3.99661056570304
30
0
41
1
10
29.2823941562577
20
4.13407805887502
30
0
41
1
10
28.9277215143992
20
4.2328461531875
30
0
41
1
10
28.3969820958868
20
4.36496767022402
30
0
41
1
10
28.2202885796923
20
4.4063360656595
30
0
41
1
10
27.9556986250831
20
4.46446325849959
30
0
41
1
10
27.8675782693086
20
4.48318473595188
30
0
41
1
10
27.6915206986778
20
4.51932686785781
30
0
41
1
10
27.6036087321657
20
4.53676265466348
30
0
41
1
10
27.3399103503263
20
4.58694099694205
30
0
41
1
10
27.1639960655616
20
4.61745841292014
30
0
41
1
10
26.8118590878568
20
4.67269168547739
30
0
41
1
10
26.6356492639097
20
4.69741583506575
30
0
41
1
10
26.2829623041156
20
4.74113867219441
30
0
41
1
10
26.1064789615627
20
4.7601364193859
30
0
41
1
10
25.7533384585453
20
4.79241867979664
30
0
41
1
10
25.5766804956072
20
4.80570507939638
30
0
41
1
10
25.311717985973
20
4.8212874118428
30
0
41
1
10
25.2234256023062
20
4.82575873794326
30
0
41
1
10
25.0467229451764
20
4.83320351458525
30
0
41
1
10
24.9582717749362
20
4.83617212820883
30
0
41
1
10
24.7362895620939
20
4.84172289271362
30
0
41
1
10
24.6026141379311
20
4.84335361328888
30
0
41
1
10
24.4686671670159
20
4.84328443263561
30
0
0
SPLINE
5
BF
100
AcDbEntity
8
1
62
256
6
ByLayer
370
18
48
1
60
0
100
AcDbSpline
70
4
71
3
72
100
73
96
40
0
40
0
40
0
40
0
40
0.0664676556698904
40
0.0664676556698904
40
0.102868354124212
40
0.102868354124212
40
0.139269052578535
40
0.139269052578535
40
0.157469401805695
40
0.157469401805695
40
0.175669751032857
40
0.175669751032857
40
0.193870100260018
40
0.193870100260018
40
0.212070449487179
40
0.212070449487179
40
0.221170624100759
40
0.221170624100759
40
0.230270798714338
40
0.230270798714338
40
0.248471147941496
40
0.248471147941496
40
0.266671497168654
40
0.266671497168654
40
0.284871846395811
40
0.284871846395811
40
0.321272544850127
40
0.321272544850127
40
0.357673243304442
40
0.357673243304442
40
0.394073941758758
40
0.394073941758758
40
0.430474640213073
40
0.430474640213073
40
0.466875338667389
40
0.466875338667389
40
0.485075687894547
40
0.485075687894547
40
0.503276037121704
40
0.503276037121704
40
0.576077434030332
40
0.576077434030332
40
0.612478132484644
40
0.612478132484644
40
0.648878830938957
40
0.648878830938957
40
0.68527952939327
40
0.68527952939327
40
0.721680227847583
40
0.721680227847583
40
0.758080926301895
40
0.758080926301895
40
0.776281275529051
40
0.776281275529051
40
0.785381450142628
40
0.785381450142628
40
0.794481624756206
40
0.794481624756206
40
0.830882323210512
40
0.830882323210512
40
0.867283021664818
40
0.867283021664818
40
0.885483370891971
40
0.885483370891971
40
0.894583545505548
40
0.894583545505548
40
0.903683720119125
40
0.903683720119125
40
0.921884069346279
40
0.921884069346279
40
0.926434156653068
40
0.926434156653068
40
0.930984243959856
40
0.930984243959856
40
0.940084418573432
40
0.940084418573432
40
0.949184593187009
40
0.949184593187009
40
0.958284767800585
40
0.958284767800585
40
0.962834855107373
40
0.962834855107373
40
0.967384942414162
40
0.967384942414162
40
0.976485117027737
40
0.976485117027737
40
0.981035204334525
40
0.981035204334525
40
0.985585291641313
40
0.985585291641313
40
0.990135378948101
40
0.990135378948101
40
0.994685466254889
40
0.994685466254889
40
1
40
1
40
1
40
1
41
1
10
12.5105245435616
20
-4.83879395324289
30
0
41
1
10
12.2776013677951
20
-4.83854610359768
30
0
41
1
10
12.0428177807983
20
-4.8350163039004
30
0
41
1
10
11.6760098398534
20
-4.82573904385956
30
0
41
1
10
11.5455444227384
20
-4.82171929875179
30
0
41
1
10
11.2831285431457
20
-4.81251113672838
30
0
41
1
10
11.1511461658143
20
-4.80733276669233
30
0
41
1
10
10.9521171407663
20
-4.79888481320771
30
0
41
1
10
10.8856035128953
20
-4.79595424959521
30
0
41
1
10
10.7523890330645
20
-4.78984184081426
30
0
41
1
10
10.6856859858045
20
-4.7866615458814
30
0
41
1
10
10.5524109813622
20
-4.77994843662179
30
0
41
1
10
10.4858366192462
20
-4.77641782366598
30
0
41
1
10
10.3533728698036
20
-4.76876683017048
30
0
41
1
10
10.2875044733091
20
-4.76463961401001
30
0
41
1
10
10.1897218496511
20
-4.75772539197914
30
0
41
1
10
10.15729608076
20
-4.75529972374238
30
0
41
1
10
10.0927933983925
20
-4.75018108655306
30
0
41
1
10
10.0607173136231
20
-4.74748744738704
30
0
41
1
10
9.96489495196317
20
-4.73902621075044
30
0
41
1
10
9.90155889813337
20
-4.73286803136151
30
0
41
1
10
9.77466335958016
20
-4.72006975939243
30
0
41
1
10
9.71105815265432
20
-4.71345616286089
30
0
41
1
10
9.58277575952789
20
-4.70027079623645
30
0
41
1
10
9.51811179559414
20
-4.69369275588161
30
0
41
1
10
9.32339943778268
20
-4.67434433121497
30
0
41
1
10
9.19235185889636
20
-4.66192885629056
30
0
41
1
10
8.92826353600864
20
-4.63831927188849
30
0
41
1
10
8.79523729181108
20
-4.62709925220943
30
0
41
1
10
8.52730189093279
20
-4.60627941868557
30
0
41
1
10
8.39237484349172
20
-4.59670276626966
30
0
41
1
10
8.12081936962608
20
-4.57935048771259
30
0
41
1
10
7.98420628439197
20
-4.57155278380478
30
0
41
1
10
7.7094543448718
20
-4.55780081316746
30
0
41
1
10
7.57130574414344
20
-4.55185865541321
30
0
41
1
10
7.3629621653709
20
-4.5444396542039
30
0
41
1
10
7.29338990043743
20
-4.54221710054586
30
0
41
1
10
7.15450345147127
20
-4.53828204093546
30
0
41
1
10
7.08511621050639
20
-4.53656658618809
30
0
41
1
10
6.73844737852943
20
-4.52922292893996
30
0
41
1
10
6.4619677423278
20
-4.52732993392445
30
0
41
1
10
6.04840614994887
20
-4.53002951395808
30
0
41
1
10
5.91074157853592
20
-4.53182800900635
30
0
41
1
10
5.63578691473217
20
-4.53715545464459
30
0
41
1
10
5.4984989905974
20
-4.54069514812946
30
0
41
1
10
5.22432978656786
20
-4.54955830527268
30
0
41
1
10
5.08744858625639
20
-4.55488208215399
30
0
41
1
10
4.81410236361472
20
-4.56720045179247
30
0
41
1
10
4.67763562425628
20
-4.57418819738177
30
0
41
1
10
4.40514803968074
20
-4.58974593551483
30
0
41
1
10
4.26912716667647
20
-4.59831806681851
30
0
41
1
10
4.06548638558743
20
-4.61236294989854
30
0
41
1
10
3.99767157990993
20
-4.61724292077733
30
0
41
1
10
3.89605876961414
20
-4.62486484391496
30
0
41
1
10
3.86218847820413
20
-4.62745727612656
30
0
41
1
10
3.79467069229591
20
-4.63272897645194
30
0
41
1
10
3.7610048438373
20
-4.63540958167255
30
0
41
1
10
3.59316349327688
20
-4.64903221156118
30
0
41
1
10
3.46043248497381
20
-4.66063279161298
30
0
41
1
10
3.19884090873416
20
-4.68509014876838
30
0
41
1
10
3.06996750070798
20
-4.69795551191288
30
0
41
1
10
2.88075595640953
20
-4.71809348747226
30
0
41
1
10
2.81837326844484
20
-4.72494405537438
30
0
41
1
10
2.72608266762825
20
-4.73539336940317
30
0
41
1
10
2.69556946411603
20
-4.73890142831721
30
0
41
1
10
2.63537817131845
20
-4.74592836605507
30
0
41
1
10
2.60566321751242
20
-4.74945143408931
30
0
41
1
10
2.51782158137888
20
-4.76003298225189
30
0
41
1
10
2.46098418441971
20
-4.767108383004
30
0
41
1
10
2.39284688162798
20
-4.77588630652983
30
0
41
1
10
2.37934917049722
20
-4.77764041792776
30
0
41
1
10
2.3527990386757
20
-4.78112012092902
30
0
41
1
10
2.33973700691411
20
-4.78284689800552
30
0
41
1
10
2.30122485055597
20
-4.78798025097402
30
0
41
1
10
2.276444971416
20
-4.79133998724402
30
0
41
1
10
2.2289199074398
20
-4.79788854306435
30
0
41
1
10
2.20617045245234
20
-4.80107738660053
30
0
41
1
10
2.16311604891689
20
-4.80723384026479
30
0
41
1
10
2.14281487827333
20
-4.81020249880063
30
0
41
1
10
2.11466069359619
20
-4.81443786442068
30
0
41
1
10
2.10563716500261
20
-4.81581670493264
30
0
41
1
10
2.08854459977292
20
-4.8184711529789
30
0
41
1
10
2.08051572671462
20
-4.81974041041616
30
0
41
1
10
2.05799171738488
20
-4.82335764309633
30
0
41
1
10
2.04503451317348
20
-4.82551471200421
30
0
41
1
10
2.02880239308772
20
-4.82830013310473
30
0
41
1
10
2.02392931683363
20
-4.82915365481671
30
0
41
1
10
2.01539453135686
20
-4.8306998674166
30
0
41
1
10
2.01172577039478
20
-4.83139530934045
30
0
41
1
10
2.00589183845017
20
-4.83259656509881
30
0
41
1
10
2.00372585680151
20
-4.83310318275539
30
0
41
1
10
2.00085335620977
20
-4.8339275214833
30
0
41
1
10
2.00014785848305
20
-4.83424523388038
30
0
41
1
10
1.99986427166138
20
-4.83472814771463
30
0
41
1
10
2.0004560577305
20
-4.83485869965349
30
0
41
1
10
2.00154168736375
20
-4.8348590883503
30
0
0
SPLINE
5
C0
100
AcDbEntity
8
1
62
256
6
ByLayer
370
18
48
1
60
0
100
AcDbSpline
70
4
71
3
72
54
73
50
40
0
40
0
40
0
40
0
40
0.0070651099612847
40
0.0070651099612847
40
0.0834447168873201
40
0.0834447168873201
40
0.159824323813356
40
0.159824323813356
40
0.198014127276373
40
0.198014127276373
40
0.217109029007884
40
0.217109029007884
40
0.236203930739394
40
0.236203930739394
40
0.312583537665445
40
0.312583537665445
40
0.350773341128471
40
0.350773341128471
40
0.369868242859985
40
0.369868242859985
40
0.3889631445915
40
0.3889631445915
40
0.427152948054529
40
0.427152948054529
40
0.446247849786043
40
0.446247849786043
40
0.465342751517558
40
0.465342751517558
40
0.50353255498059
40
0.50353255498059
40
0.541722358443621
40
0.541722358443621
40
0.618101965369682
40
0.618101965369682
40
0.694481572295743
40
0.694481572295743
40
0.71357647402726
40
0.71357647402726
40
0.732671375758777
40
0.732671375758777
40
0.770861179221807
40
0.770861179221807
40
0.847240786147872
40
0.847240786147872
40
0.923620393073936
40
0.923620393073936
40
0.961810196536968
40
0.961810196536968
40
1
40
1
40
1
40
1
41
1
10
32.3144890216282
20
3.02497849613661
30
0
41
1
10
32.3380643158098
20
3.03527040180958
30
0
41
1
10
32.3616448009687
20
3.04551789119267
30
0
41
1
10
32.6402460777903
20
3.1659740921717
30
0
41
1
10
32.8958113246388
20
3.27118002731896
30
0
41
1
10
33.4069716840721
20
3.47322696318773
30
0
41
1
10
33.6625730996564
20
3.57004593306061
30
0
41
1
10
34.0457581808303
20
3.70915746877125
30
0
41
1
10
34.1734512148578
20
3.75450418191545
30
0
41
1
10
34.3649570338194
20
3.82093202394705
30
0
41
1
10
34.4287845182604
20
3.84281164009909
30
0
41
1
10
34.5564425024752
20
3.88601737225775
30
0
41
1
10
34.6202771699996
20
3.9073380686616
30
0
41
1
10
34.9398935332865
20
4.01207246010566
30
0
41
1
10
35.196948874203
20
4.08998364650435
30
0
41
1
10
35.58366462033
20
4.19913006916894
30
0
41
1
10
35.7127705493452
20
4.23420721703897
30
0
41
1
10
35.9066701411727
20
4.28490399854005
30
0
41
1
10
35.9713444928234
20
4.3014818446496
30
0
41
1
10
36.1007726430176
20
4.33399251753445
30
0
41
1
10
36.1655333289463
20
4.34992652332596
30
0
41
1
10
36.3594648041889
20
4.396645040214
30
0
41
1
10
36.4884347439467
20
4.42638910965948
30
0
41
1
10
36.6814201595547
20
4.46887989928473
30
0
41
1
10
36.7456709136947
20
4.48268874261669
30
0
41
1
10
36.8740200433478
20
4.50959060650001
30
0
41
1
10
36.9381092402852
20
4.52268935224785
30
0
41
1
10
37.1302997874574
20
4.56080541123615
30
0
41
1
10
37.2584521150805
20
4.5845609350034
30
0
41
1
10
37.5147992375946
20
4.6288803062067
30
0
41
1
10
37.6429632633357
20
4.64946368329288
30
0
41
1
10
38.0272370309231
20
4.70667605049897
30
0
41
1
10
38.2831184406688
20
4.73878723932668
30
0
41
1
10
38.7937837485454
20
4.7911471604472
30
0
41
1
10
39.0485472488035
20
4.81138390213209
30
0
41
1
10
39.366424134406
20
4.82897982468776
30
0
41
1
10
39.4299828937219
20
4.83211034017202
30
0
41
1
10
39.5572332072259
20
4.83757254710292
30
0
41
1
10
39.6209186648989
20
4.83990635693229
30
0
41
1
10
39.8121228360073
20
4.84573666564532
30
0
41
1
10
39.9397869290347
20
4.84806441737672
30
0
41
1
10
40.3231176776394
20
4.85045218726768
30
0
41
1
10
40.579126720288
20
4.84593265960868
30
0
41
1
10
41.0914735964437
20
4.82448819597434
30
0
41
1
10
41.3478158443979
20
4.80754812434074
30
0
41
1
10
41.7326389265931
20
4.7723840939411
30
0
41
1
10
41.8609448049188
20
4.75901478968484
30
0
41
1
10
42.1185408014493
20
4.72931654527048
30
0
41
1
10
42.2477376308747
20
4.7129663992153
30
0
41
1
10
42.3772433979246
20
4.69509404878463
30
0
0
SPLINE
5
C1
100
AcDbEntity
8
1
62
256
6
ByLayer
370
18
48
1
60
0
100
AcDbSpline
70
4
71
3
72
114
73
110
40
0
40
0
40
0
40
0
40
0.0006884023417103
40
0.0006884023417103
40
0.0228953267341192
40
0.0228953267341192
40
0.045102251126528
40
0.045102251126528
40
0.0673091755189369
40
0.0673091755189369
40
0.0895160999113458
40
0.0895160999113458
40
0.10061956210755
40
0.10061956210755
40
0.111723024303754
40
0.111723024303754
40
0.156136873088573
40
0.156136873088573
40
0.178343797480982
40
0.178343797480982
40
0.189447259677187
40
0.189447259677187
40
0.200550721873391
40
0.200550721873391
40
0.222757646265801
40
0.222757646265801
40
0.244964570658211
40
0.244964570658211
40
0.267171495050622
40
0.267171495050622
40
0.289378419443032
40
0.289378419443032
40
0.300481881639238
40
0.300481881639238
40
0.311585343835443
40
0.311585343835443
40
0.333792268227854
40
0.333792268227854
40
0.344895730424058
40
0.344895730424058
40
0.355999192620262
40
0.355999192620262
40
0.37820611701267
40
0.37820611701267
40
0.389309579208873
40
0.389309579208873
40
0.400413041405076
40
0.400413041405076
40
0.422619965797481
40
0.422619965797481
40
0.444826890189886
40
0.444826890189886
40
0.467033814582291
40
0.467033814582291
40
0.489240738974696
40
0.489240738974696
40
0.500344201170898
40
0.500344201170898
40
0.5114476633671
40
0.5114476633671
40
0.55586151215191
40
0.55586151215191
40
0.578068436544315
40
0.578068436544315
40
0.589171898740518
40
0.589171898740518
40
0.60027536093672
40
0.60027536093672
40
0.611378823132922
40
0.611378823132922
40
0.622482285329125
40
0.644689209721529
40
0.644689209721529
40
0.666896134113933
40
0.666896134113933
40
0.689103058506338
40
0.689103058506338
40
0.711309982898742
40
0.711309982898742
40
0.733516907291146
40
0.733516907291146
40
0.75572383168355
40
0.75572383168355
40
0.777930756075954
40
0.777930756075954
40
0.789034218272157
40
0.789034218272157
40
0.800137680468359
40
0.800137680468359
40
0.811241142664562
40
0.811241142664562
40
0.822344604860764
40
0.844551529253169
40
0.844551529253169
40
0.855654991449372
40
0.855654991449372
40
0.866758453645574
40
0.866758453645574
40
0.888965378037977
40
0.888965378037977
40
0.90006884023418
40
0.90006884023418
40
0.911172302430382
40
0.911172302430382
40
0.955586151215191
40
0.955586151215191
40
0.977793075607596
40
0.977793075607596
40
1
40
1
40
1
40
1
41
1
10
32.3148538233942
20
-3.02396710905313
30
0
41
1
10
32.3094001730823
20
-3.0263468410715
30
0
41
1
10
32.3039463688966
20
-3.02872477584754
30
0
41
1
10
32.1225542052289
20
-3.10775049363698
30
0
41
1
10
31.9462965639307
20
-3.18230344236571
30
0
41
1
10
31.5931029766394
20
-3.32720422381843
30
0
41
1
10
31.4161744938046
20
-3.39756297395499
30
0
41
1
10
31.0616689505744
20
-3.53412552114327
30
0
41
1
10
30.8840860961531
20
-3.60032274884878
30
0
41
1
10
30.5283643388269
20
-3.72864516487388
30
0
41
1
10
30.3502246478425
20
-3.79077075932392
30
0
41
1
10
30.0827453107059
20
-3.88100375561416
30
0
41
1
10
29.9936055125819
20
-3.91060224262256
30
0
41
1
10
29.8156513206824
20
-3.96841070174315
30
0
41
1
10
29.7267354664348
20
-3.99661056570304
30
0
41
1
10
29.2823941562577
20
-4.13407805887502
30
0
41
1
10
28.9277215143992
20
-4.2328461531875
30
0
41
1
10
28.3969820958868
20
-4.36496767022402
30
0
41
1
10
28.2202885796923
20
-4.4063360656595
30
0
41
1
10
27.9556986250831
20
-4.46446325849959
30
0
41
1
10
27.8675782693087
20
-4.48318473595188
30
0
41
1
10
27.6915206986779
20
-4.51932686785781
30
0
41
1
10
27.6036087321657
20
-4.53676265466348
30
0
41
1
10
27.3399103503263
20
-4.58694099694205
30
0
41
1
10
27.1639960655616
20
-4.61745841292014
30
0
41
1
10
26.8118590878568
20
-4.67269168547739
30
0
41
1
10
26.6356492639098
20
-4.69741583506575
30
0
41
1
10
26.2829623041156
20
-4.74113867219438
30
0
41
1
10
26.1064789615626
20
-4.7601364193859
30
0
41
1
10
25.7533384585453
20
-4.79241867979664
30
0
41
1
10
25.5766804956072
20
-4.80570507939638
30
0
41
1
10
25.311717985973
20
-4.8212874118428
30
0
41
1
10
25.2234256023062
20
-4.82575873794326
30
0
41
1
10
25.0467229451764
20
-4.83320351458525
30
0
41
1
10
24.9582717749362
20
-4.83617212820883
30
0
41
1
10
24.6925309739649
20
-4.84281709577908
30
0
41
1
10
24.5148881230373
20
-4.84423997354972
30
0
41
1
10
24.2477071572227
20
-4.84188174472425
30
0
41
1
10
24.158527455239
20
-4.84034637842402
30
0
41
1
10
23.9799307932275
20
-4.83577331233948
30
0
41
1
10
23.8904730760412
20
-4.83273290374802
30
0
41
1
10
23.6226072440626
20
-4.82138705721079
30
0
41
1
10
23.4444428578402
20
-4.81085813492012
30
0
41
1
10
23.1779286650811
20
-4.79061188841237
30
0
41
1
10
23.0892139345555
20
-4.78311971455994
30
0
41
1
10
22.9120614246203
20
-4.76663079254769
30
0
41
1
10
22.8236476700617
20
-4.75762456530606
30
0
41
1
10
22.5586307159299
20
-4.72839818201427
30
0
41
1
10
22.3820506796573
20
-4.70605120149892
30
0
41
1
10
22.0289498431583
20
-4.65583657601132
30
0
41
1
10
21.8524495868863
20
-4.62796147779113
30
0
41
1
10
21.4995601765903
20
-4.56675769758547
30
0
41
1
10
21.3231645918582
20
-4.53343419187854
30
0
41
1
10
20.9705746763339
20
-4.46129258656356
30
0
41
1
10
20.7943796075437
20
-4.42247687338428
30
0
41
1
10
20.5303962660167
20
-4.35994941054193
30
0
41
1
10
20.4424758408356
20
-4.33836936349664
30
0
41
1
10
20.2666398112721
20
-4.29383303303592
30
0
41
1
10
20.1786800012449
20
-4.27091423324433
30
0
41
1
10
19.7384604074146
20
-4.1532750131993
30
0
41
1
10
19.3851196379131
20
-4.04931206441537
30
0
41
1
10
18.8534715058117
20
-3.8786394423974
30
0
41
1
10
18.6759876683516
20
-3.81928243427106
30
0
41
1
10
18.4094662532216
20
-3.72635146894504
30
0
41
1
10
18.320577519457
20
-3.69472310589219
30
0
41
1
10
18.1427304345099
20
-3.63010569728584
30
0
41
1
10
18.0537920288285
20
-3.5970900268662
30
0
41
1
10
17.8757588736134
20
-3.52977992597164
30
0
41
1
10
17.7865461855867
20
-3.4955171181908
30
0
41
1
10
17.6082603839162
20
-3.42615626403554
30
0
41
1
10
17.3410213747257
20
-3.3207883024711
30
0
41
1
10
17.0743395481632
20
-3.21151184719685
30
0
41
1
10
16.7192594137059
20
-3.06239905426906
30
0
41
1
10
16.5419605788348
20
-2.98614743432543
30
0
41
1
10
16.1879390951413
20
-2.8301407948654
30
0
41
1
10
16.0112158754166
20
-2.75038751635478
30
0
41
1
10
15.6585557465359
20
-2.58703149268462
30
0
41
1
10
15.4827409063482
20
-2.50322550507644
30
0
41
1
10
15.1307005001136
20
-2.33363147026947
30
0
41
1
10
14.954582648053
20
-2.2476828350288
30
0
41
1
10
14.6021589221791
20
-2.07351601589065
30
0
41
1
10
14.4258518463657
20
-1.98529996277131
30
0
41
1
10
14.0730772151001
20
-1.80656706195117
30
0
41
1
10
13.8966114831322
20
-1.71604809328838
30
0
41
1
10
13.6319045650928
20
-1.57833201909807
30
0
41
1
10
13.5436685406296
20
-1.53210156828541
30
0
41
1
10
13.367224115914
20
-1.4389316864098
30
0
41
1
10
13.279031530186
20
-1.39196371886192
30
0
41
1
10
13.1026216873653
20
-1.29740064962357
30
0
41
1
10
13.0143588631186
20
-1.24988732966318
30
0
41
1
10
12.8375782544463
20
-1.15465186939056
30
0
41
1
10
12.5720788820991
20
-1.01138815722248
30
0
41
1
10
12.3055968585838
20
-0.866906021586203
30
0
41
1
10
12.0384687915247
20
-0.721596772698888
30
0
41
1
10
11.9493179866581
20
-0.673023111629959
30
0
41
1
10
11.7708053947115
20
-0.575588383851681
30
0
41
1
10
11.6813983227695
20
-0.526701448627676
30
0
41
1
10
11.4132108762153
20
-0.379738267252662
30
0
41
1
10
11.2346986260879
20
-0.281499489317923
30
0
41
1
10
10.9675108551326
20
-0.133453614974599
30
0
41
1
10
10.878562661416
20
-0.0839583074753705
30
0
41
1
10
10.7008079927771
20
0.0151651752001669
30
0
41
1
10
10.6119544349275
20
0.0647073787087891
30
0
41
1
10
10.1674633956854
20
0.311699886005386
30
0
41
1
10
9.81142894914134
20
0.507496781280707
30
0
41
1
10
9.27680104131659
20
0.798684868108012
30
0
41
1
10
9.09850222188356
20
0.895340914017652
30
0
41
1
10
8.74188181243755
20
1.08811484939261
30
0
41
1
10
8.56356128970347
20
1.18423478674868
30
0
41
1
10
8.38534046159828
20
1.28027588196864
30
0
0
SPLINE
5
C2
100
AcDbEntity
8
1
62
256
6
ByLayer
370
18
48
1
60
0
100
AcDbSpline
70
4
71
3
72
118
73
114
40
0
40
0
40
0
40
0
40
0.0481162427339443
40
0.0481162427339443
40
0.0962324854678886
40
0.0962324854678886
40
0.12029060683486
40
0.12029060683486
40
0.132319667518347
40
0.132319667518347
40
0.144348728201833
40
0.144348728201833
40
0.192464970935778
40
0.192464970935778
40
0.240581213669724
40
0.240581213669724
40
0.288697456403669
40
0.288697456403669
40
0.336813699137615
40
0.336813699137615
40
0.38492994187156
40
0.38492994187156
40
0.408988063238533
40
0.408988063238533
40
0.433046184605507
40
0.433046184605507
40
0.445075245288994
40
0.445075245288994
40
0.457104305972481
40
0.457104305972481
40
0.469133366655968
40
0.469133366655968
40
0.481162427339455
40
0.481162427339455
40
0.487176957681199
40
0.487176957681199
40
0.493191488022943
40
0.493191488022943
40
0.50522054870643
40
0.50522054870643
40
0.517249609389917
40
0.517249609389917
40
0.529278670073404
40
0.529278670073404
40
0.553336791440378
40
0.553336791440378
40
0.577394912807351
40
0.577394912807351
40
0.601453034174324
40
0.601453034174324
40
0.625511155541297
40
0.625511155541297
40
0.649569276908271
40
0.649569276908271
40
0.661598337591758
40
0.661598337591758
40
0.673627398275245
40
0.673627398275245
40
0.721743641009196
40
0.721743641009196
40
0.745801762376172
40
0.745801762376172
40
0.769859883743148
40
0.769859883743148
40
0.793918005110123
40
0.793918005110123
40
0.817976126477099
40
0.817976126477099
40
0.842034247844074
40
0.842034247844074
40
0.854063308527562
40
0.854063308527562
40
0.860077838869306
40
0.860077838869306
40
0.86609236921105
40
0.86609236921105
40
0.890150490578028
40
0.890150490578028
40
0.914208611945006
40
0.914208611945006
40
0.926237672628494
40
0.926237672628494
40
0.932252202970239
40
0.932252202970239
40
0.938266733311983
40
0.938266733311983
40
0.950295793995471
40
0.950295793995471
40
0.953303059166344
40
0.953303059166344
40
0.956310324337217
40
0.956310324337217
40
0.962324854678962
40
0.962324854678962
40
0.968339385020708
40
0.968339385020708
40
0.974353915362454
40
0.974353915362454
40
0.977361180533327
40
0.977361180533327
40
0.9803684457042
40
0.9803684457042
40
0.986382976045945
40
0.986382976045945
40
0.989390241216818
40
0.989390241216818
40
0.992397506387691
40
0.992397506387691
40
0.995404771558565
40
0.995404771558565
40
0.998412036729437
40
0.998412036729437
40
1
40
1
40
1
40
1
41
1
10
17.7662709760202
20
4.04432877809668
30
0
41
1
10
17.522083002522
20
4.12207366448271
30
0
41
1
10
17.2779453145312
20
4.1942455617482
30
0
41
1
10
16.7893928315702
20
4.32737769803506
30
0
41
1
10
16.5449805899247
20
4.38833316881099
30
0
41
1
10
16.1776633374114
20
4.47114560724776
30
0
41
1
10
16.0551050196781
20
4.49731149152356
30
0
41
1
10
15.8709989420482
20
4.53437081189202
30
0
41
1
10
15.809585275976
20
4.5463589972565
30
0
41
1
10
15.6866507804589
20
4.56960064639688
30
0
41
1
10
15.6251106301248
20
4.58085734707555
30
0
41
1
10
15.3174848132653
20
4.63522677823221
30
0
41
1
10
15.0714308448509
20
4.67261874588803
30
0
41
1
10
14.5783347874681
20
4.73548799723048
30
0
41
1
10
14.3312972169197
20
4.76096702602916
30
0
41
1
10
13.8351124394748
20
4.80078105785546
30
0
41
1
10
13.5859612170128
20
4.81511254099613
30
0
41
1
10
13.0843112928442
20
4.83389707470894
30
0
41
1
10
12.8317941900456
20
4.83835295480614
30
0
41
1
10
12.3223264749813
20
4.83919643727617
30
0
41
1
10
12.0654026330704
20
4.83558751712715
30
0
41
1
10
11.676009839844
20
4.8257390438593
30
0
41
1
10
11.5455444227287
20
4.82171929875148
30
0
41
1
10
11.2831285431356
20
4.81251113672798
30
0
41
1
10
11.151146165804
20
4.8073327666919
30
0
41
1
10
10.9521171407556
20
4.79888481320722
30
0
41
1
10
10.8856035128844
20
4.79595424959473
30
0
41
1
10
10.7523890330534
20
4.78984184081372
30
0
41
1
10
10.6856859857933
20
4.78666154588086
30
0
41
1
10
10.5524109813509
20
4.7799484366212
30
0
41
1
10
10.4858366192348
20
4.77641782366535
30
0
41
1
10
10.3533728697921
20
4.7687668301698
30
0
41
1
10
10.2875044732976
20
4.76463961400924
30
0
41
1
10
10.1897218496396
20
4.75772539197828
30
0
41
1
10
10.1572960807485
20
4.7552997237415
30
0
41
1
10
10.0927933983809
20
4.75018108655209
30
0
41
1
10
10.0607173136115
20
4.74748744738605
30
0
41
1
10
9.96489495195152
20
4.73902621074933
30
0
41
1
10
9.90155889812169
20
4.73286803136037
30
0
41
1
10
9.77466335956822
20
4.72006975939121
30
0
41
1
10
9.71105815264224
20
4.71345616285964
30
0
41
1
10
9.58277575951547
20
4.7002707962352
30
0
41
1
10
9.5181117955816
20
4.69369275588036
30
0
41
1
10
9.32339943776981
20
4.67434433121375
30
0
41
1
10
9.19235185888328
20
4.66192885628934
30
0
41
1
10
8.9282635359952
20
4.63831927188735
30
0
41
1
10
8.79523729179749
20
4.62709925220832
30
0
41
1
10
8.52730189091886
20
4.60627941868455
30
0
41
1
10
8.3923748434776
20
4.59670276626869
30
0
41
1
10
8.1208193696117
20
4.57935048771174
30
0
41
1
10
7.98420628437742
20
4.57155278380398
30
0
41
1
10
7.70945434485708
20
4.55780081316681
30
0
41
1
10
7.57130574412864
20
4.55185865541262
30
0
41
1
10
7.36296216535595
20
4.54443965420342
30
0
41
1
10
7.29338990042231
20
4.5422171005454
30
0
41
1
10
7.15450345145589
20
4.53828204093506
30
0
41
1
10
7.08511621049084
20
4.53656658618772
30
0
41
1
10
6.73844737851317
20
4.52922292893979
30
0
41
1
10
6.46196774231112
20
4.52732993392442
30
0
41
1
10
6.04840614993162
20
4.53002951395828
30
0
41
1
10
5.91074157851853
20
4.53182800900663
30
0
41
1
10
5.63578691471443
20
4.53715545464502
30
0
41
1
10
5.49849899057952
20
4.54069514812997
30
0
41
1
10
5.22432978654973
20
4.54955830527334
30
0
41
1
10
5.08744858623817
20
4.55488208215473
30
0
41
1
10
4.81410236359636
20
4.56720045179338
30
0
41
1
10
4.67763562423784
20
4.57418819738277
30
0
41
1
10
4.40514803966221
20
4.58974593551596
30
0
41
1
10
4.26912716665785
20
4.59831806681973
30
0
41
1
10
4.06548638556885
20
4.61236294989988
30
0
41
1
10
3.9976715798914
20
4.61724292077866
30
0
41
1
10
3.89605876959561
20
4.62486484391638
30
0
41
1
10
3.86218847818554
20
4.62745727612801
30
0
41
1
10
3.79467069227724
20
4.63272897645342
30
0
41
1
10
3.76100484381857
20
4.63540958167405
30
0
41
1
10
3.59316349325792
20
4.6490322115628
30
0
41
1
10
3.46043248495471
20
4.66063279161469
30
0
41
1
10
3.19884090871483
20
4.68509014877029
30
0
41
1
10
3.06996750068862
20
4.69795551191487
30
0
41
1
10
2.88075595639026
20
4.71809348747433
30
0
41
1
10
2.8183732684256
20
4.72494405537651
30
0
41
1
10
2.72608266760915
20
4.73539336940536
30
0
41
1
10
2.69556946409708
20
4.73890142831939
30
0
41
1
10
2.63537817129983
20
4.74592836605729
30
0
41
1
10
2.60566321749391
20
4.74945143409153
30
0
41
1
10
2.51782158136078
20
4.76003298225413
30
0
41
1
10
2.46098418440192
20
4.76710838300622
30
0
41
1
10
2.39284688161069
20
4.77588630653204
30
0
41
1
10
2.37934917048005
20
4.77764041793
30
0
41
1
10
2.35279903865893
20
4.78112012093121
30
0
41
1
10
2.33973700689754
20
4.7828468980077
30
0
41
1
10
2.30122485053999
20
4.78798025097615
30
0
41
1
10
2.27644497140039
20
4.79133998724615
30
0
41
1
10
2.22891990742502
20
4.79788854306642
30
0
41
1
10
2.20617045243799
20
4.80107738660257
30
0
41
1
10
2.16311604890336
20
4.80723384026675
30
0
41
1
10
2.14281487826028
20
4.81020249880257
30
0
41
1
10
2.11466069358394
20
4.81443786442253
30
0
41
1
10
2.10563716499061
20
4.81581670493452
30
0
41
1
10
2.08854459976195
20
4.81847115298064
30
0
41
1
10
2.08051572670416
20
4.81974041041781
30
0
41
1
10
2.0579917173759
20
4.82335764309778
30
0
41
1
10
2.04503451316543
20
4.82551471200554
30
0
41
1
10
2.02880239308106
20
4.8283001331059
30
0
41
1
10
2.02392931682743
20
4.82915365481782
30
0
41
1
10
2.01539453135172
20
4.83069986741757
30
0
41
1
10
2.01172577039026
20
4.83139530934136
30
0
41
1
10
2.00589183844698
20
4.83259656509952
30
0
41
1
10
2.00372585679901
20
4.83310318275602
30
0
41
1
10
2.00085335620855
20
4.83392752148376
30
0
41
1
10
2.00014785848236
20
4.83424523388078
30
0
41
1
10
1.99994798243665
20
4.83458559845533
30
0
41
1
10
2.000031089289
20
4.83467672601907
30
0
41
1
10
2.00024320694445
20
4.83474131155808
30
0
0
SPLINE
5
C3
100
AcDbEntity
8
1
62
256
6
ByLayer
370
18
48
1
60
0
100
AcDbSpline
70
4
71
3
72
60
73
56
40
0
40
0
40
0
40
0
40
0.0046523642239175
40
0.0046523642239175
40
0.0102442048743459
40
0.0102442048743459
40
0.0158360455247739
40
0.0158360455247739
40
0.0382034081264869
40
0.0382034081264869
40
0.0605707707281999
40
0.0605707707281999
40
0.105305495931626
40
0.105305495931626
40
0.116489177232483
40
0.116489177232483
40
0.127672858533338
40
0.15004022113505
40
0.15004022113505
40
0.194774946338475
40
0.194774946338475
40
0.239509671541899
40
0.239509671541899
40
0.250693352842754
40
0.250693352842754
40
0.261877034143609
40
0.284244396745319
40
0.284244396745319
40
0.328979121948739
40
0.328979121948739
40
0.373713847152157
40
0.373713847152157
40
0.418448572355576
40
0.418448572355576
40
0.440815934957286
40
0.440815934957286
40
0.45199961625814
40
0.45199961625814
40
0.463183297558995
40
0.463183297558995
40
0.552652747965828
40
0.552652747965828
40
0.64212219837266
40
0.64212219837266
40
0.731591648779492
40
0.731591648779492
40
0.776326373982909
40
0.776326373982909
40
0.798693736584618
40
0.798693736584618
40
0.821061099186327
40
0.821061099186327
40
0.910530549593163
40
0.910530549593163
40
1
40
1
40
1
40
1
41
1
10
2.00154169143019
20
4.83485908835175
30
0
41
1
10
2.00231500505873
20
4.83485936499565
30
0
41
1
10
2.00333889273347
20
4.83479359734247
30
0
41
1
10
2.00594563909874
20
4.83450292074553
30
0
41
1
10
2.00762228739478
20
4.83424810350104
30
0
41
1
10
2.0113408802309
20
4.83355042158752
30
0
41
1
10
2.01338535123824
20
4.83310758077971
30
0
41
1
10
2.02439906575506
20
4.83043052153408
30
0
41
1
10
2.03571645303592
20
4.82680973745548
30
0
41
1
10
2.06234199113405
20
4.81675707999966
30
0
41
1
10
2.07766900205579
20
4.81032421411555
30
0
41
1
10
2.12921892038878
20
4.78697853867379
30
0
41
1
10
2.17103954290968
20
4.76602479361279
30
0
41
1
10
2.2325392926746
20
4.73356222430726
30
0
41
1
10
2.24525892818136
20
4.72677704395528
30
0
41
1
10
2.27143673211583
20
4.7126819967053
30
0
41
1
10
2.31184373370013
20
4.69073500056223
30
0
41
1
10
2.35551522213422
20
4.66647768389842
30
0
41
1
10
2.44683686637222
20
4.61510748285397
30
0
41
1
10
2.51299101680951
20
4.57705991046279
30
0
41
1
10
2.65449142745808
20
4.49428631517762
30
0
41
1
10
2.72985009077934
20
4.4495551495049
30
0
41
1
10
2.82948685174003
20
4.38994258312934
30
0
41
1
10
2.84967074480227
20
4.37784473599646
30
0
41
1
10
2.89038860569474
20
4.35340450718937
30
0
41
1
10
2.95205505995298
20
4.31633852148912
30
0
41
1
10
3.01544232056065
20
4.27812132266692
30
0
41
1
10
3.14438861712858
20
4.20030074644814
30
0
41
1
10
3.23324702893396
20
4.14657917206659
30
0
41
1
10
3.41613008009176
20
4.03604815679177
30
0
41
1
10
3.51014848099737
20
3.97923291023929
30
0
41
1
10
3.70287039700048
20
3.86295355268427
30
0
41
1
10
3.80157590943992
20
3.80348794884566
30
0
41
1
10
3.95295595730823
20
3.71261308762655
30
0
41
1
10
4.00397101910619
20
3.68204193328899
30
0
41
1
10
4.08131099380927
20
3.6358033590443
30
0
41
1
10
4.10723996464029
20
3.62031929193225
30
0
41
1
10
4.15922902364525
20
3.58931286855301
30
0
41
1
10
4.18530376284247
20
3.57378173779483
30
0
41
1
10
4.42068798687944
20
3.43377483556864
30
0
41
1
10
4.63498660382277
20
3.30777584466335
30
0
41
1
10
5.07254383520964
20
3.05465176753003
30
0
41
1
10
5.29578117226726
20
2.92749134020852
30
0
41
1
10
5.7498863060496
20
2.67272733513528
30
0
41
1
10
5.98075178905773
20
2.54510904622225
30
0
41
1
10
6.33206389634324
20
2.35363954956486
30
0
41
1
10
6.45000628626417
20
2.28980794477388
30
0
41
1
10
6.62810784218215
20
2.19407429420369
30
0
41
1
10
6.68769840503339
20
2.16215180353711
30
0
41
1
10
6.80712862250019
20
2.09838747426872
30
0
41
1
10
6.86695843768982
20
2.06655076984691
30
0
41
1
10
7.1666635974986
20
1.90759378757011
30
0
41
1
10
7.40820296220369
20
1.78115429624029
30
0
41
1
10
7.89445484356384
20
1.52967981948936
30
0
41
1
10
8.13917079399906
20
1.40464868804352
30
0
41
1
10
8.38532114945579
20
1.28026865124264
30
0
0
SPLINE
5
C4
100
AcDbEntity
8
1
62
256
6
ByLayer
370
18
48
1
60
0
100
AcDbSpline
70
4
71
3
72
108
73
104
40
0
40
0
40
0
40
0
40
0.0343341739059712
40
0.0343341739059712
40
0.0686683478119424
40
0.0686683478119424
40
0.103002521717914
40
0.103002521717914
40
0.111586065194406
40
0.111586065194406
40
0.120169608670899
40
0.120169608670899
40
0.137336695623884
40
0.137336695623884
40
0.171670869529853
40
0.171670869529853
40
0.206005043435823
40
0.206005043435823
40
0.223172130388808
40
0.223172130388808
40
0.240339217341793
40
0.240339217341793
40
0.257506304294778
40
0.257506304294778
40
0.26608984777127
40
0.26608984777127
40
0.274673391247763
40
0.274673391247763
40
0.309007565153737
40
0.309007565153737
40
0.31759110863023
40
0.31759110863023
40
0.326174652106724
40
0.326174652106724
40
0.34334173905971
40
0.34334173905971
40
0.377675912965679
40
0.377675912965679
40
0.412010086871649
40
0.412010086871649
40
0.429177173824634
40
0.429177173824634
40
0.437760717301127
40
0.437760717301127
40
0.446344260777621
40
0.446344260777621
40
0.480678434683593
40
0.480678434683593
40
0.515012608589566
40
0.515012608589566
40
0.532179695542552
40
0.532179695542552
40
0.540763239019046
40
0.540763239019046
40
0.54934678249554
40
0.54934678249554
40
0.583680956401518
40
0.583680956401518
40
0.618015130307497
40
0.618015130307497
40
0.635182217260486
40
0.635182217260486
40
0.652349304213475
40
0.652349304213475
40
0.686683478119455
40
0.686683478119455
40
0.721017652025434
40
0.721017652025434
40
0.738184738978424
40
0.738184738978424
40
0.746768282454919
40
0.746768282454919
40
0.755351825931413
40
0.755351825931413
40
0.789685999837389
40
0.789685999837389
40
0.806853086790376
40
0.806853086790376
40
0.815436630266871
40
0.815436630266871
40
0.824020173743366
40
0.824020173743366
40
0.841187260696353
40
0.841187260696353
40
0.849770804172847
40
0.849770804172847
40
0.858354347649341
40
0.858354347649341
40
0.875521434602328
40
0.875521434602328
40
0.892688521555314
40
0.892688521555314
40
0.927022695461287
40
0.927022695461287
40
0.96135686936726
40
0.96135686936726
40
0.969940412843753
40
0.969940412843753
40
0.978523956320246
40
0.978523956320246
40
0.995691043273231
40
0.995691043273231
40
1
40
1
40
1
40
1
41
1
10
17.7662576739469
20
4.04432592433628
30
0
41
1
10
18.0242081070653
20
3.96470104308995
30
0
41
1
10
18.2821819395872
20
3.88098013235162
30
0
41
1
10
18.7973134518648
20
3.70491057822929
30
0
41
1
10
19.0544251215273
20
3.61250030059054
30
0
41
1
10
19.5670935089395
20
3.41819201958234
30
0
41
1
10
19.8226585990071
20
3.31629148927314
30
0
41
1
10
20.1412310958291
20
3.18297312211044
30
0
41
1
10
20.2049058468246
20
3.15601754951933
30
0
41
1
10
20.3323329401942
20
3.10174445086838
30
0
41
1
10
20.3960933146915
20
3.07443897732821
30
0
41
1
10
20.5874847490186
20
2.99198436787592
30
0
41
1
10
20.7152237459068
20
2.93629500613943
30
0
41
1
10
21.0986211209226
20
2.76674892935705
30
0
41
1
10
21.3544642843548
20
2.65043036487137
30
0
41
1
10
21.8660251712322
20
2.41023735077525
30
0
41
1
10
22.1217490026863
20
2.28636300526472
30
0
41
1
10
22.5052712377467
20
2.09469595667986
30
0
41
1
10
22.6330459943018
20
2.02972844579989
30
0
41
1
10
22.889427631087
20
1.89927998978567
30
0
41
1
10
23.0179675228989
20
1.83369293964447
30
0
41
1
10
23.2755641073165
20
1.70150518291973
30
0
41
1
10
23.4046188339259
20
1.63490025727035
30
0
41
1
10
23.5985170893975
20
1.53410069586903
30
0
41
1
10
23.6632025761577
20
1.50035198081198
30
0
41
1
10
23.7926681289083
20
1.43253392912428
30
0
41
1
10
23.8574855631049
20
1.3984436676906
30
0
41
1
10
24.1812526727607
20
1.22744687986202
30
0
41
1
10
24.4391424364927
20
1.08890999516956
30
0
41
1
10
24.7600528261712
20
0.913481948286375
30
0
41
1
10
24.8241624978809
20
0.878283888720034
30
0
41
1
10
24.9522511576028
20
0.807689454652177
30
0
41
1
10
25.0162334692649
20
0.772299331346574
30
0
41
1
10
25.20824234358
20
0.666311396621552
30
0
41
1
10
25.3363374075533
20
0.595907794926035
30
0
41
1
10
25.720633068948
20
0.384976009069334
30
0
41
1
10
25.9768075452658
20
0.244657854413759
30
0
41
1
10
26.4883620155722
20
-0.0367699875114624
30
0
41
1
10
26.7437501334535
20
-0.177863748619387
30
0
41
1
10
27.1261391596372
20
-0.390263318775851
30
0
41
1
10
27.2534571129425
20
-0.461243549153551
30
0
41
1
10
27.4444353768537
20
-0.567580555461745
30
0
41
1
10
27.5081286677056
20
-0.602942321311303
30
0
41
1
10
27.6356668597868
20
-0.673344910929615
30
0
41
1
10
27.6994985924248
20
-0.708409890438475
30
0
41
1
10
28.0189142649233
20
-0.883157324172146
30
0
41
1
10
28.2752180222477
20
-1.02120281735461
30
0
41
1
10
28.7885096104603
20
-1.29535956691026
30
0
41
1
10
29.0454999222377
20
-1.43146539199719
30
0
41
1
10
29.4313718762011
20
-1.63438191048695
30
0
41
1
10
29.5600633686721
20
-1.70180785108499
30
0
41
1
10
29.7532466777945
20
-1.80254261698917
30
0
41
1
10
29.8176710549865
20
-1.8360433419642
30
0
41
1
10
29.9467444997466
20
-1.90259236525765
30
0
41
1
10
30.011400528511
20
-1.93564405758576
30
0
41
1
10
30.3344156637139
20
-2.09948834225773
30
0
41
1
10
30.592548978721
20
-2.22646916825147
30
0
41
1
10
31.1073590683698
20
-2.47414065571158
30
0
41
1
10
31.3640368235303
20
-2.5948149531784
30
0
41
1
10
31.7477628646199
20
-2.77134909904819
30
0
41
1
10
31.8754607774823
20
-2.82943786139808
30
0
41
1
10
32.1304595508283
20
-2.94403678477056
30
0
41
1
10
32.2577271453791
20
-3.00058799657853
30
0
41
1
10
32.6402460777903
20
-3.1659740921717
30
0
41
1
10
32.8958113246388
20
-3.27118002731899
30
0
41
1
10
33.4069716840722
20
-3.47322696318773
30
0
41
1
10
33.6625730996564
20
-3.57004593306058
30
0
41
1
10
34.0457581808303
20
-3.70915746877128
30
0
41
1
10
34.1734512148578
20
-3.75450418191545
30
0
41
1
10
34.3649570338194
20
-3.82093202394705
30
0
41
1
10
34.4287845182604
20
-3.84281164009909
30
0
41
1
10
34.5564425024753
20
-3.88601737225778
30
0
41
1
10
34.6202771699996
20
-3.9073380686616
30
0
41
1
10
34.9398935332865
20
-4.01207246010569
30
0
41
1
10
35.196948874203
20
-4.08998364650435
30
0
41
1
10
35.5836646203301
20
-4.19913006916894
30
0
41
1
10
35.7127705493452
20
-4.23420721703897
30
0
41
1
10
35.9066701411726
20
-4.28490399854005
30
0
41
1
10
35.9713444928234
20
-4.3014818446496
30
0
41
1
10
36.1007726430176
20
-4.33399251753445
30
0
41
1
10
36.1655333289463
20
-4.34992652332596
30
0
41
1
10
36.359464804189
20
-4.396645040214
30
0
41
1
10
36.4884347439467
20
-4.42638910965951
30
0
41
1
10
36.6814201595548
20
-4.46887989928473
30
0
41
1
10
36.7456709136948
20
-4.48268874261669
30
0
41
1
10
36.8740200433478
20
-4.50959060650001
30
0
41
1
10
36.9381092402852
20
-4.52268935224785
30
0
41
1
10
37.1302997874574
20
-4.56080541123617
30
0
41
1
10
37.2584521150805
20
-4.58456093500342
30
0
41
1
10
37.5147992375946
20
-4.62888030620673
30
0
41
1
10
37.6429632633358
20
-4.64946368329288
30
0
41
1
10
38.0272370309231
20
-4.70667605049897
30
0
41
1
10
38.2831184406688
20
-4.73878723932671
30
0
41
1
10
38.7937837485454
20
-4.7911471604472
30
0
41
1
10
39.0485472488035
20
-4.81138390213209
30
0
41
1
10
39.366424134406
20
-4.82897982468779
30
0
41
1
10
39.4299828937219
20
-4.83211034017199
30
0
41
1
10
39.5572332072259
20
-4.83757254710292
30
0
41
1
10
39.620918664899
20
-4.83990635693229
30
0
41
1
10
39.8121228360073
20
-4.84573666564532
30
0
41
1
10
39.9397869290347
20
-4.84806441737672
30
0
41
1
10
40.0996359844466
20
-4.8490601182512
30
0
41
1
10
40.1317152933917
20
-4.84916363935662
30
0
41
1
10
40.1638011972234
20
-4.84917072345982
30
0
0
SPLINE
5
C5
100
AcDbEntity
8
1
62
256
6
ByLayer
370
18
48
1
60
0
100
AcDbSpline
70
4
71
3
72
20
73
16
40
0
40
0
40
0
40
0
40
0.0005234931212435
40
0.009046817012763
40
0.029381865478755
40
0.106681461531396
40
0.165272145222942
40
0.230078814425685
40
0.303683019282997
40
0.374357076840449
40
0.443212975880567
40
0.536413250388146
40
0.66549830184306
40
0.83130590061828
40
1
40
1
40
1
40
1
41
1
10
39.2996896911174
20
-0.0845895985519292
30
0
41
1
10
39.2997000991479
20
-0.0845525657576047
30
0
41
1
10
39.2997629772406
20
-0.0838814269851298
30
0
41
1
10
39.2934595639824
20
-0.0799842492109235
30
0
41
1
10
39.2136062874719
20
-0.0521265756897265
30
0
41
1
10
39.0314703391359
20
0.0043380220631377
30
0
41
1
10
38.7707736744919
20
0.0886732951437921
30
0
41
1
10
38.4887032174635
20
0.184729847304027
30
0
41
1
10
38.1886235773877
20
0.29362731705757
30
0
41
1
10
37.8791793584938
20
0.41189404458197
30
0
41
1
10
37.538079912955
20
0.548326767368053
30
0
41
1
10
37.1045778326332
20
0.729899143201749
30
0
41
1
10
36.5234705848715
20
0.987861942264317
30
0
41
1
10
35.8265149875609
20
1.31788700092321
30
0
41
1
10
35.3218164126922
20
1.57272987524715
30
0
41
1
10
35.0667881429084
20
1.70560237423499
30
0
0
SPLINE
5
C6
100
AcDbEntity
8
1
62
256
6
ByLayer
370
18
48
1
60
0
100
AcDbSpline
70
4
71
3
72
19
73
15
40
0
40
0
40
0
40
0
40
0.107619423862773
40
0.217674635459596
40
0.308184410030404
40
0.3791281064687
40
0.430489584906832
40
0.464132980990748
40
0.505753222528947
40
0.574721676481054
40
0.66568363773945
40
0.778654490774394
40
0.913652795834313
40
1
40
1
40
1
40
1
41
1
10
9.00608454889269
20
1.00322032004442
30
0
41
1
10
8.77689943650259
20
1.12106869402589
30
0
41
1
10
8.31337164876507
20
1.36118945655949
30
0
41
1
10
7.6571634097823
20
1.7061989182674
30
0
41
1
10
7.07918352483776
20
2.01419908832361
30
0
41
1
10
6.62625966331981
20
2.25815856234038
30
0
41
1
10
6.29441032145814
20
2.43834772434039
30
0
41
1
10
6.02499528744463
20
2.58545146010891
30
0
41
1
10
5.71768949162657
20
2.75406740983044
30
0
41
1
10
5.28818766427426
20
2.99143484091295
30
0
41
1
10
4.70676138044644
20
3.31604779651366
30
0
41
1
10
3.98518042997756
20
3.72439866001244
30
0
41
1
10
3.27404547807737
20
4.13229237196347
30
0
41
1
10
2.80408886666606
20
4.40737350816639
30
0
41
1
10
2.62086193693907
20
4.51533156575385
30
0
0
SPLINE
5
C7
100
AcDbEntity
8
1
62
256
6
ByLayer
370
18
48
1
60
0
100
AcDbSpline
70
4
71
3
72
16
73
12
40
0
40
0
40
0
40
0
40
0.0083345932137367
40
0.0417129325539341
40
0.121610817213095
40
0.196942129419704
40
0.327544227467523
40
0.438875024893949
40
0.5801339800894
40
0.76682909195796
40
1
40
1
40
1
40
1
41
1
10
11.4387259416615
20
0.0163618420102409
30
0
41
1
10
11.4389261449626
20
0.0171541825808958
30
0
41
1
10
11.4375037899207
20
0.0216787513778627
30
0
41
1
10
11.3979386388585
20
0.0423105869234632
30
0
41
1
10
11.2686341158621
20
0.0891839712441822
30
0
41
1
10
11.0789002577362
20
0.158280239834198
30
0
41
1
10
10.8328570375864
20
0.24498253211101
30
0
41
1
10
10.4684475437442
20
0.380269689098327
30
0
41
1
10
10.0398838254399
20
0.549461455840031
30
0
41
1
10
9.49018650963041
20
0.781487652886057
30
0
41
1
10
9.07702234437278
20
0.969681108560025
30
0
41
1
10
8.846972398036
20
1.07875231322382
30
0
0
LINE
5
7D
100
AcDbEntity
8
80
62
256
6
ByLayer
370
18
48
1
60
0
100
AcDbLine
10
0
20
0
30
0
11
-5
21
0
31
0
39
0
210
0
220
0
230
1
0
LINE
5
7E
100
AcDbEntity
8
4
62
256
6
ByLayer
370
18
48
0.05
60
0
100
AcDbLine
10
-5
20
0
30
0
11
50
21
0
31
0
39
0
210
0
220
0
230
1
0
LINE
5
80
100
AcDbEntity
8
SK4
62
256
6
ByLayer
370
18
48
0.05
60
0
100
AcDbLine
10
-49
20
0
30
0
11
50
21
0
31
0
39
0
210
0
220
0
230
1
0
LINE
5
82
100
AcDbEntity
8
81
62
256
6
ByLayer
370
18
48
1
60
0
100
AcDbLine
10
45
20
0
30
0
11
50
21
0
31
0
39
0
210
0
220
0
230
1
0
LINE
5
83
100
AcDbEntity
8
1
62
256
6
ByLayer
370
18
48
1
60
0
100
AcDbLine
10
0
20
4.85
30
0
11
0
21
-4.85
31
0
39
0
210
0
220
0
230
1
0
LINE
5
84
100
AcDbEntity
8
1
62
256
6
ByLayer
370
18
48
1
60
0
100
AcDbLine
10
42.377243
20
-4.85
30
0
11
42.377243
21
-2.225648
31
0
39
0
210
0
220
0
230
1
0
LINE
5
85
100
AcDbEntity
8
1
62
256
6
ByLayer
370
18
48
1
60
0
100
AcDbLine
10
42.377243
20
4.85
30
0
11
42.377243
21
4.695094
31
0
39
0
210
0
220
0
230
1
0
LINE
5
86
100
AcDbEntity
8
1
62
256
6
ByLayer
370
18
48
1
60
0
100
AcDbLine
10
0.4
20
-4.834259
30
0
11
0.4
21
4.834259
31
0
39
0
210
0
220
0
230
1
0
LINE
5
87
100
AcDbEntity
8
SK1
62
256
6
ByLayer
370
18
48
1
60
0
100
AcDbLine
10
0
20
4.85
30
0
11
0
21
-4.85
31
0
39
0
210
0
220
0
230
1
0
LINE
5
89
100
AcDbEntity
8
SK1
62
256
6
ByLayer
370
18
48
1
60
0
100
AcDbLine
10
-44
20
-4.1
30
0
11
-44
21
4.1
31
0
39
0
210
0
220
0
230
1
0
LINE
5
8A
100
AcDbEntity
8
SK1
62
256
6
ByLayer
370
18
48
1
60
0
100
AcDbLine
10
-43.25
20
-4.85
30
0
11
-43.25
21
4.85
31
0
39
0
210
0
220
0
230
1
0
LINE
5
8B
100
AcDbEntity
8
1
62
256
6
ByLayer
370
18
48
1
60
0
100
AcDbLine
10
45
20
0
30
0
11
42.377243
21
4.85
31
0
39
0
210
0
220
0
230
1
0
LINE
5
8C
100
AcDbEntity
8
1
62
256
6
ByLayer
370
18
48
1
60
0
100
AcDbLine
10
42.377243
20
-4.85
30
0
11
45
21
0
31
0
39
0
210
0
220
0
230
1
0
LINE
5
8D
100
AcDbEntity
8
1
62
256
6
ByLayer
370
18
48
1
60
0
100
AcDbLine
10
0.4
20
4.834259
30
0
11
0
21
4.85
31
0
39
0
210
0
220
0
230
1
0
LINE
5
8E
100
AcDbEntity
8
1
62
256
6
ByLayer
370
18
48
1
60
0
100
AcDbLine
10
0
20
-4.85
30
0
11
0.4
21
-4.834259
31
0
39
0
210
0
220
0
230
1
0
LINE
5
8F
100
AcDbEntity
8
1
62
256
6
ByLayer
370
18
48
1
60
0
100
AcDbLine
10
0.4
20
-4.834259
30
0
11
2.008342
21
-4.834862
31
0
39
0
210
0
220
0
230
1
0
LINE
5
90
100
AcDbEntity
8
1
62
256
6
ByLayer
370
18
48
1
60
0
100
AcDbLine
10
12.507286
20
-4.838799
30
0
11
24.467923
21
-4.843284
31
0
39
0
210
0
220
0
230
1
0
LINE
5
91
100
AcDbEntity
8
1
62
256
6
ByLayer
370
18
48
1
60
0
100
AcDbLine
10
40.164686
20
-4.84917
30
0
11
42.377243
21
-4.85
31
0
39
0
210
0
220
0
230
1
0
LINE
5
92
100
AcDbEntity
8
1
62
256
6
ByLayer
370
18
48
1
60
0
100
AcDbLine
10
42.377243
20
4.85
30
0
11
40.164686
21
4.84917
31
0
39
0
210
0
220
0
230
1
0
LINE
5
93
100
AcDbEntity
8
1
62
256
6
ByLayer
370
18
48
1
60
0
100
AcDbLine
10
24.467923
20
4.843284
30
0
11
12.507286
21
4.838799
31
0
39
0
210
0
220
0
230
1
0
LINE
5
94
100
AcDbEntity
8
1
62
256
6
ByLayer
370
18
48
1
60
0
100
AcDbLine
10
2.008342
20
4.834862
30
0
11
0.4
21
4.834259
31
0
39
0
210
0
220
0
230
1
0
LINE
5
95
100
AcDbEntity
8
SK1
62
256
6
ByLayer
370
18
48
1
60
0
100
AcDbLine
10
-43.25
20
-4.85
30
0
11
0
21
-4.85
31
0
39
0
210
0
220
0
230
1
0
LINE
5
96
100
AcDbEntity
8
SK1
62
256
6
ByLayer
370
18
48
1
60
0
100
AcDbLine
10
0
20
4.85
30
0
11
-43.25
21
4.85
31
0
39
0
210
0
220
0
230
1
0
LINE
5
97
100
AcDbEntity
8
SK1
62
256
6
ByLayer
370
18
48
1
60
0
100
AcDbLine
10
-44
20
-4.1
30
0
11
-43.25
21
-4.85
31
0
39
0
210
0
220
0
230
1
0
LINE
5
98
100
AcDbEntity
8
SK1
62
256
6
ByLayer
370
18
48
1
60
0
100
AcDbLine
10
-43.25
20
4.85
30
0
11
-44
21
4.1
31
0
39
0
210
0
220
0
230
1
0
LINE
5
99
100
AcDbEntity
8
SK2
62
256
6
ByLayer
370
13
48
1
60
0
100
AcDbLine
10
-50.5
20
-4.85
30
0
11
-50.5
21
31.632741
31
0
39
0
210
0
220
0
230
1
0
LINE
5
9B
100
AcDbEntity
8
SK2
62
256
6
ByLayer
370
13
48
1
60
0
100
AcDbLine
10
-45.5875
20
4.85
30
0
11
-52.5
21
4.85
31
0
39
0
210
0
220
0
230
1
0
LINE
5
9C
100
AcDbEntity
8
SK2
62
256
6
ByLayer
370
13
48
1
60
0
100
AcDbLine
10
-45.5875
20
-4.85
30
0
11
-52.5
21
-4.85
31
0
39
0
210
0
220
0
230
1
0
LINE
5
9D
100
AcDbEntity
8
1
62
256
6
ByLayer
370
18
48
1
60
1
100
AcDbLine
10
-50.5
20
4.85
30
0
11
-50.039216
21
1.350002
31
0
39
0
210
0
220
0
230
1
0
LINE
5
9E
100
AcDbEntity
8
1
62
256
6
ByLayer
370
18
48
1
60
1
100
AcDbLine
10
-50.039216
20
1.350002
30
0
11
-50.960784
21
1.349998
31
0
39
0
210
0
220
0
230
1
0
LINE
5
9F
100
AcDbEntity
8
1
62
256
6
ByLayer
370
18
48
1
60
1
100
AcDbLine
10
-50.960784
20
1.349998
30
0
11
-50.5
21
4.85
31
0
39
0
210
0
220
0
230
1
0
LINE
5
A0
100
AcDbEntity
8
1
62
256
6
ByLayer
370
18
48
1
60
1
100
AcDbLine
10
-50.5
20
-4.85
30
0
11
-50.960784
21
-1.350002
31
0
39
0
210
0
220
0
230
1
0
LINE
5
A1
100
AcDbEntity
8
1
62
256
6
ByLayer
370
18
48
1
60
1
100
AcDbLine
10
-50.960784
20
-1.350002
30
0
11
-50.039216
21
-1.349998
31
0
39
0
210
0
220
0
230
1
0
LINE
5
A2
100
AcDbEntity
8
1
62
256
6
ByLayer
370
18
48
1
60
1
100
AcDbLine
10
-50.039216
20
-1.349998
30
0
11
-50.5
21
-4.85
31
0
39
0
210
0
220
0
230
1
0
LINE
5
A3
100
AcDbEntity
8
2
62
256
6
ByLayer
370
13
48
1
60
0
100
AcDbLine
10
51.877243
20
-4.85
30
0
11
51.877243
21
31.632741
31
0
39
0
210
0
220
0
230
1
0
LINE
5
A5
100
AcDbEntity
8
2
62
256
6
ByLayer
370
13
48
1
60
0
100
AcDbLine
10
43.964743
20
4.85
30
0
11
53.877243
21
4.85
31
0
39
0
210
0
220
0
230
1
0
LINE
5
A6
100
AcDbEntity
8
2
62
256
6
ByLayer
370
13
48
1
60
0
100
AcDbLine
10
43.964743
20
-4.85
30
0
11
53.877243
21
-4.85
31
0
39
0
210
0
220
0
230
1
0
LINE
5
A7
100
AcDbEntity
8
1
62
256
6
ByLayer
370
18
48
1
60
1
100
AcDbLine
10
51.877243
20
4.85
30
0
11
52.338027
21
1.350002
31
0
39
0
210
0
220
0
230
1
0
LINE
5
A8
100
AcDbEntity
8
1
62
256
6
ByLayer
370
18
48
1
60
1
100
AcDbLine
10
52.338027
20
1.350002
30
0
11
51.41646
21
1.349998
31
0
39
0
210
0
220
0
230
1
0
LINE
5
A9
100
AcDbEntity
8
1
62
256
6
ByLayer
370
18
48
1
60
1
100
AcDbLine
10
51.41646
20
1.349998
30
0
11
51.877243
21
4.85
31
0
39
0
210
0
220
0
230
1
0
LINE
5
AA
100
AcDbEntity
8
1
62
256
6
ByLayer
370
18
48
1
60
1
100
AcDbLine
10
51.877243
20
-4.85
30
0
11
51.41646
21
-1.350002
31
0
39
0
210
0
220
0
230
1
0
LINE
5
AB
100
AcDbEntity
8
1
62
256
6
ByLayer
370
18
48
1
60
1
100
AcDbLine
10
51.41646
20
-1.350002
30
0
11
52.338027
21
-1.349998
31
0
39
0
210
0
220
0
230
1
0
LINE
5
AC
100
AcDbEntity
8
1
62
256
6
ByLayer
370
18
48
1
60
1
100
AcDbLine
10
52.338027
20
-1.349998
30
0
11
51.877243
21
-4.85
31
0
39
0
210
0
220
0
230
1
0
LINE
5
AD
100
AcDbEntity
8
2
62
256
6
ByLayer
370
13
48
1
60
0
100
AcDbLine
10
45.755136
20
-1.396397
30
0
11
56.416232
21
-21.110889
31
0
39
0
210
0
220
0
230
1
0
LINE
5
AE
100
AcDbEntity
8
2
62
256
6
ByLayer
370
13
48
1
60
0
100
AcDbLine
10
45.755136
20
1.396397
30
0
11
56.416232
21
21.110889
31
0
39
0
210
0
220
0
230
1
0
LINE
5
AF
100
AcDbEntity
8
1
62
256
6
ByLayer
370
18
48
1
60
1
100
AcDbLine
10
55.464879
20
-19.351649
30
0
11
58.239971
21
-17.169637
31
0
39
0
210
0
220
0
230
1
0
LINE
5
B0
100
AcDbEntity
8
1
62
256
6
ByLayer
370
18
48
1
60
1
100
AcDbLine
10
58.239971
20
-17.169637
30
0
11
58.710161
21
-17.962233
31
0
39
0
210
0
220
0
230
1
0
LINE
5
B1
100
AcDbEntity
8
1
62
256
6
ByLayer
370
18
48
1
60
1
100
AcDbLine
10
58.710161
20
-17.962233
30
0
11
55.464879
21
-19.351649
31
0
39
0
210
0
220
0
230
1
0
LINE
5
B2
100
AcDbEntity
8
1
62
256
6
ByLayer
370
18
48
1
60
1
100
AcDbLine
10
55.464879
20
19.351649
30
0
11
58.710158
21
17.962234
31
0
39
0
210
0
220
0
230
1
0
LINE
5
B3
100
AcDbEntity
8
1
62
256
6
ByLayer
370
18
48
1
60
1
100
AcDbLine
10
58.710158
20
17.962234
30
0
11
58.239974
21
17.169635
31
0
39
0
210
0
220
0
230
1
0
LINE
5
B4
100
AcDbEntity
8
1
62
256
6
ByLayer
370
18
48
1
60
1
100
AcDbLine
10
58.239974
20
17.169635
30
0
11
55.464879
21
19.351649
31
0
39
0
210
0
220
0
230
1
0
LINE
5
CC
100
AcDbEntity
8
1
62
256
6
ByLayer
370
18
48
1
60
1
100
AcDbLine
10
-50.5
20
4.85
30
0
11
-50.039216
21
1.350002
31
0
39
0
210
0
220
0
230
1
0
LINE
5
CD
100
AcDbEntity
8
1
62
256
6
ByLayer
370
18
48
1
60
1
100
AcDbLine
10
-50.039216
20
1.350002
30
0
11
-50.960784
21
1.349998
31
0
39
0
210
0
220
0
230
1
0
LINE
5
CE
100
AcDbEntity
8
1
62
256
6
ByLayer
370
18
48
1
60
1
100
AcDbLine
10
-50.960784
20
1.349998
30
0
11
-50.5
21
4.85
31
0
39
0
210
0
220
0
230
1
0
LINE
5
D0
100
AcDbEntity
8
1
62
256
6
ByLayer
370
18
48
1
60
1
100
AcDbLine
10
-50.5
20
-4.85
30
0
11
-50.960784
21
-1.350002
31
0
39
0
210
0
220
0
230
1
0
LINE
5
D1
100
AcDbEntity
8
1
62
256
6
ByLayer
370
18
48
1
60
1
100
AcDbLine
10
-50.960784
20
-1.350002
30
0
11
-50.039216
21
-1.349998
31
0
39
0
210
0
220
0
230
1
0
LINE
5
D2
100
AcDbEntity
8
1
62
256
6
ByLayer
370
18
48
1
60
1
100
AcDbLine
10
-50.039216
20
-1.349998
30
0
11
-50.5
21
-4.85
31
0
39
0
210
0
220
0
230
1
0
LINE
5
D6
100
AcDbEntity
8
1
62
256
6
ByLayer
370
18
48
1
60
1
100
AcDbLine
10
51.877243
20
4.85
30
0
11
52.338027
21
1.350002
31
0
39
0
210
0
220
0
230
1
0
LINE
5
D7
100
AcDbEntity
8
1
62
256
6
ByLayer
370
18
48
1
60
1
100
AcDbLine
10
52.338027
20
1.350002
30
0
11
51.41646
21
1.349998
31
0
39
0
210
0
220
0
230
1
0
LINE
5
D8
100
AcDbEntity
8
1
62
256
6
ByLayer
370
18
48
1
60
1
100
AcDbLine
10
51.41646
20
1.349998
30
0
11
51.877243
21
4.85
31
0
39
0
210
0
220
0
230
1
0
LINE
5
DA
100
AcDbEntity
8
1
62
256
6
ByLayer
370
18
48
1
60
1
100
AcDbLine
10
51.877243
20
-4.85
30
0
11
51.41646
21
-1.350002
31
0
39
0
210
0
220
0
230
1
0
LINE
5
DB
100
AcDbEntity
8
1
62
256
6
ByLayer
370
18
48
1
60
1
100
AcDbLine
10
51.41646
20
-1.350002
30
0
11
52.338027
21
-1.349998
31
0
39
0
210
0
220
0
230
1
0
LINE
5
DC
100
AcDbEntity
8
1
62
256
6
ByLayer
370
18
48
1
60
1
100
AcDbLine
10
52.338027
20
-1.349998
30
0
11
51.877243
21
-4.85
31
0
39
0
210
0
220
0
230
1
0
LINE
5
DF
100
AcDbEntity
8
1
62
256
6
ByLayer
370
18
48
1
60
1
100
AcDbLine
10
55.464879
20
-19.351649
30
0
11
58.239971
21
-17.169637
31
0
39
0
210
0
220
0
230
1
0
LINE
5
E0
100
AcDbEntity
8
1
62
256
6
ByLayer
370
18
48
1
60
1
100
AcDbLine
10
58.239971
20
-17.169637
30
0
11
58.710161
21
-17.962233
31
0
39
0
210
0
220
0
230
1
0
LINE
5
E1
100
AcDbEntity
8
1
62
256
6
ByLayer
370
18
48
1
60
1
100
AcDbLine
10
58.710161
20
-17.962233
30
0
11
55.464879
21
-19.351649
31
0
39
0
210
0
220
0
230
1
0
LINE
5
E3
100
AcDbEntity
8
1
62
256
6
ByLayer
370
18
48
1
60
1
100
AcDbLine
10
55.464879
20
19.351649
30
0
11
58.710158
21
17.962234
31
0
39
0
210
0
220
0
230
1
0
LINE
5
E4
100
AcDbEntity
8
1
62
256
6
ByLayer
370
18
48
1
60
1
100
AcDbLine
10
58.710158
20
17.962234
30
0
11
58.239974
21
17.169635
31
0
39
0
210
0
220
0
230
1
0
LINE
5
E5
100
AcDbEntity
8
1
62
256
6
ByLayer
370
18
48
1
60
1
100
AcDbLine
10
58.239974
20
17.169635
30
0
11
55.464879
21
19.351649
31
0
39
0
210
0
220
0
230
1
0
MTEXT
5
C8
100
AcDbEntity
8
SK2
62
256
6
ByLayer
370
18
48
1
60
0
100
AcDbMText
10
-51.841114
20
16.508437
30
0
210
0
220
0
230
1
1
%%c
40
3
41
0
44
1.084337
50
90
71
7
72
5
7
iso_b_vert
0
MTEXT
5
CB
100
AcDbEntity
8
SK2
62
256
6
ByLayer
370
18
48
1
60
0
100
AcDbMText
10
-51.841114
20
22.485
30
0
210
0
220
0
230
1
1
\W0.7468;9.700
40
3
41
0
44
1.084337
50
90
71
7
72
5
7
iso_b_vert
0
MTEXT
5
D4
100
AcDbEntity
8
2
62
256
6
ByLayer
370
18
48
1
60
0
100
AcDbMText
10
50.536129
20
16.508438
30
0
210
0
220
0
230
1
1
%%c
40
3
41
0
44
1.084337
50
90
71
7
72
5
7
iso_b_vert
0
MTEXT
5
D5
100
AcDbEntity
8
2
62
256
6
ByLayer
370
18
48
1
60
0
100
AcDbMText
10
50.536129
20
22.485
30
0
210
0
220
0
230
1
1
\W0.7468;9.700
40
3
41
0
44
1.084337
50
90
71
7
72
5
7
iso_b_vert
0
MTEXT
5
DE
100
AcDbEntity
8
2
62
256
6
ByLayer
370
18
48
1
60
0
100
AcDbMText
10
64.092229
20
-2.114886
30
0
210
0
220
0
230
1
1
\W0.6008;118%%d
40
3
41
0
44
1.084337
50
0
71
7
72
5
7
iso_b_vert
0
MTEXT
5
E7
100
AcDbEntity
8
SK6
62
256
6
ByLayer
370
18
48
1
60
0
100
AcDbMText
10
-5.380367
20
-67.114886
30
0
210
0
220
0
230
1
1
\W0.7690;R0239.7
40
3
41
0
44
1.084337
50
0
71
7
72
5
7
iso_b_vert
0
HATCH
5
CF
100
AcDbEntity
8
SK2
62
256
6
ByLayer
370
13
48
1
60
0
100
AcDbHatch
10
0
20
0
30
0
210
0
220
0
230
1
2
ANSI31
70
0
71
0
91
1
92
5
93
3
72
1
10
-50.5
20
4.84999999999999
11
-50.0392162584472
21
1.35000169255318
72
1
10
-50.0392162584472
20
1.35000169255318
11
-50.9607837415528
21
1.34999830744681
72
1
10
-50.9607837415528
20
1.34999830744681
11
-50.5
21
4.84999999999999
97
0
75
0
76
1
52
0
41
0.0062
77
0
78
1
53
45
43
0
44
0
45
-0.0139193969876572
46
0.0139193969876572
79
0
47
0
98
1
10
0
20
0
0
HATCH
5
D3
100
AcDbEntity
8
SK2
62
256
6
ByLayer
370
13
48
1
60
0
100
AcDbHatch
10
0
20
0
30
0
210
0
220
0
230
1
2
ANSI31
70
0
71
0
91
1
92
5
93
3
72
1
10
-50.5
20
-4.84999999999999
11
-50.9607837415528
21
-1.35000169255318
72
1
10
-50.9607837415528
20
-1.35000169255318
11
-50.0392162584472
21
-1.34999830744681
72
1
10
-50.0392162584472
20
-1.34999830744681
11
-50.5
21
-4.84999999999999
97
0
75
0
76
1
52
0
41
0.0062
77
0
78
1
53
45
43
0
44
0
45
-0.0139193969876572
46
0.0139193969876572
79
0
47
0
98
1
10
0
20
0
0
HATCH
5
D9
100
AcDbEntity
8
2
62
256
6
ByLayer
370
13
48
1
60
0
100
AcDbHatch
10
0
20
0
30
0
210
0
220
0
230
1
2
ANSI31
70
0
71
0
91
1
92
5
93
3
72
1
10
51.8772433979447
20
4.84999999999999
11
52.3380271394975
21
1.35000169255318
72
1
10
52.3380271394975
20
1.35000169255318
11
51.4164596563919
21
1.34999830744681
72
1
10
51.4164596563919
20
1.34999830744681
11
51.8772433979447
21
4.84999999999999
97
0
75
0
76
1
52
0
41
0.0062
77
0
78
1
53
45
43
0
44
0
45
-0.0139193969876572
46
0.0139193969876572
79
0
47
0
98
1
10
0
20
0
0
HATCH
5
DD
100
AcDbEntity
8
2
62
256
6
ByLayer
370
13
48
1
60
0
100
AcDbHatch
10
0
20
0
30
0
210
0
220
0
230
1
2
ANSI31
70
0
71
0
91
1
92
5
93
3
72
1
10
51.8772433979447
20
-4.84999999999999
11
51.4164596563919
21
-1.35000169255318
72
1
10
51.4164596563919
20
-1.35000169255318
11
52.3380271394975
21
-1.34999830744681
72
1
10
52.3380271394975
20
-1.34999830744681
11
51.8772433979447
21
-4.84999999999999
97
0
75
0
76
1
52
0
41
0.0062
77
0
78
1
53
45
43
0
44
0
45
-0.0139193969876572
46
0.0139193969876572
79
0
47
0
98
1
10
0
20
0
0
HATCH
5
E2
100
AcDbEntity
8
2
62
256
6
ByLayer
370
13
48
1
60
0
100
AcDbHatch
10
0
20
0
30
0
210
0
220
0
230
1
2
ANSI31
70
0
71
0
91
1
92
5
93
3
72
1
10
55.464879198752
20
-19.3516485952883
11
58.2399711078382
21
-17.1696369764526
72
1
10
58.2399711078382
20
-17.1696369764526
11
58.710161392925
21
-17.9622325364571
72
1
10
58.710161392925
20
-17.9622325364571
11
55.464879198752
21
-19.3516485952883
97
0
75
0
76
1
52
0
41
0.0062
77
0
78
1
53
45
43
0
44
0
45
-0.0139193969876572
46
0.0139193969876572
79
0
47
0
98
1
10
0
20
0
0
HATCH
5
E6
100
AcDbEntity
8
2
62
256
6
ByLayer
370
13
48
1
60
0
100
AcDbHatch
10
0
20
0
30
0
210
0
220
0
230
1
2
ANSI31
70
0
71
0
91
1
92
5
93
3
72
1
10
55.464879198752
20
19.3516485952883
11
58.7101584815526
21
17.9622342635518
72
1
10
58.7101584815526
20
17.9622342635518
11
58.2399740192106
21
17.1696352493579
72
1
10
58.2399740192106
20
17.1696352493579
11
55.464879198752
21
19.3516485952883
97
0
75
0
76
1
52
0
41
0.0062
77
0
78
1
53
45
43
0
44
0
45
-0.0139193969876572
46
0.0139193969876572
79
0
47
0
98
1
10
0
20
0
0
DIMENSION
5
EA
100
AcDbEntity
8
SK2
62
256
6
ByLayer
370
18
48
1
60
0
100
AcDbDimension
2
_U0
10
45
20
-51.45664
30
0
11
0.5
21
-51.45664
31
0
70
32
71
1
72
1
41
1
210
0
220
0
230
1
3
Standard
100
AcDbAlignedDimension
13
-44
23
-4.85
33
0
14
45
24
0
34
0
50
0
100
AcDbRotatedDimension
1001
ACAD
1000
DSTYLE
1002
{
1070
   371
1070
    13
1070
   372
1070
    13
1070
     3
1000

1070
   170
1070
     0
1070
   144
1040
1.0
1070
   277
1070
     2
1070
   284
1070
     8
1070
   278
1070
    46
1070
   146
1040
1.166667
1070
   345
1005
16
1070
   347
1005
16
1070
   346
1005
16
1070
   344
1005
0
1070
   343
1005
0
1070
   172
1070
     1
1070
    76
1070
     0
1070
    75
1070
     0
1070
   282
1070
     0
1070
   281
1070
     0
1070
    71
1070
     0
1070
    74
1070
     0
1070
   279
1070
     0
1070
   173
1070
     1
1070
   340
1005
C9
1070
   271
1070
     2
1070
   272
1070
     3
1070
    77
1070
     1
1070
    73
1070
     1
1070
   171
1070
     3
1070
   274
1070
     4
1070
   177
1070
     2
1070
   176
1070
     2
1070
   178
1070
     2
1070
    78
1070
     8
1070
    48
1040
-0.1
1070
    41
1040
3.5
1070
   147
1040
1.5
1070
    42
1040
1.5875
1070
    44
1040
2.0
1070
   140
1040
3.0
1002
}
1001
ACAD_DSTYLE_DIM_LINETYPE
1070
   380
1005
16
1001
ACAD_DSTYLE_DIM_EXT1_LINETYPE
1070
   381
1005
16
1001
ACAD_DSTYLE_DIM_EXT2_LINETYPE
1070
   382
1005
16
0
DIMENSION
5
103
100
AcDbEntity
8
2
62
256
6
ByLayer
370
18
48
1
60
0
100
AcDbDimension
2
_U1
10
2
20
-41.45664
30
0
11
23.5
21
-41.45664
31
0
70
32
71
1
72
1
41
1
210
0
220
0
230
1
3
Standard
100
AcDbAlignedDimension
13
45
23
0
33
0
14
2
24
-4.85
34
0
50
0
100
AcDbRotatedDimension
1001
ACAD
1000
DSTYLE
1002
{
1070
   371
1070
    13
1070
   372
1070
    13
1070
     3
1000

1070
   170
1070
     0
1070
   144
1040
1.0
1070
   277
1070
     2
1070
   284
1070
     8
1070
   278
1070
    46
1070
   146
1040
1.166667
1070
   345
1005
16
1070
   347
1005
16
1070
   346
1005
16
1070
   344
1005
0
1070
   343
1005
0
1070
   172
1070
     1
1070
    76
1070
     0
1070
    75
1070
     0
1070
   282
1070
     0
1070
   281
1070
     0
1070
    71
1070
     0
1070
    74
1070
     0
1070
   279
1070
     0
1070
   173
1070
     1
1070
   340
1005
C9
1070
   271
1070
     2
1070
   272
1070
     3
1070
    77
1070
     1
1070
    73
1070
     1
1070
   171
1070
     3
1070
   274
1070
     4
1070
   177
1070
     2
1070
   176
1070
     2
1070
   178
1070
     2
1070
    78
1070
     8
1070
    48
1040
-0.1
1070
    41
1040
3.5
1070
   147
1040
1.5
1070
    42
1040
1.5875
1070
    44
1040
2.0
1070
   140
1040
3.0
1002
}
1001
ACAD_DSTYLE_DIM_LINETYPE
1070
   380
1005
16
1001
ACAD_DSTYLE_DIM_EXT1_LINETYPE
1070
   381
1005
16
1001
ACAD_DSTYLE_DIM_EXT2_LINETYPE
1070
   382
1005
16
0
DIMENSION
5
11B
100
AcDbEntity
8
SK2
62
256
6
ByLayer
370
18
48
1
60
0
100
AcDbDimension
2
_U2
10
0
20
-36.45664
30
0
11
-22
21
-36.45664
31
0
70
32
71
1
72
1
41
1
210
0
220
0
230
1
3
Standard
100
AcDbAlignedDimension
13
-44
23
-4.85
33
0
14
0
24
-4.85
34
0
50
0
100
AcDbRotatedDimension
1001
ACAD
1000
DSTYLE
1002
{
1070
   371
1070
    13
1070
   372
1070
    13
1070
     3
1000

1070
   170
1070
     0
1070
   144
1040
1.0
1070
   277
1070
     2
1070
   284
1070
     8
1070
   278
1070
    46
1070
   146
1040
1.166667
1070
   345
1005
16
1070
   347
1005
16
1070
   346
1005
16
1070
   344
1005
0
1070
   343
1005
0
1070
   172
1070
     1
1070
    76
1070
     0
1070
    75
1070
     0
1070
   282
1070
     0
1070
   281
1070
     0
1070
    71
1070
     0
1070
    74
1070
     0
1070
   279
1070
     0
1070
   173
1070
     1
1070
   340
1005
C9
1070
   271
1070
     2
1070
   272
1070
     3
1070
    77
1070
     1
1070
    73
1070
     1
1070
   171
1070
     3
1070
   274
1070
     4
1070
   177
1070
     2
1070
   176
1070
     2
1070
   178
1070
     2
1070
    78
1070
     8
1070
    48
1040
-0.1
1070
    41
1040
3.5
1070
   147
1040
1.5
1070
    42
1040
1.5875
1070
    44
1040
2.0
1070
   140
1040
3.0
1002
}
1001
ACAD_DSTYLE_DIM_LINETYPE
1070
   380
1005
16
1001
ACAD_DSTYLE_DIM_EXT1_LINETYPE
1070
   381
1005
16
1001
ACAD_DSTYLE_DIM_EXT2_LINETYPE
1070
   382
1005
16
0
DIMENSION
5
133
100
AcDbEntity
8
2
62
256
6
ByLayer
370
18
48
1
60
0
100
AcDbDimension
2
_U3
10
12.75
20
-34.45664
30
0
11
28.875
21
-34.45664
31
0
70
32
71
1
72
1
41
1
210
0
220
0
230
1
3
Standard
100
AcDbAlignedDimension
13
45
23
0
33
0
14
12.75
24
-4.85
34
0
50
0
100
AcDbRotatedDimension
1001
ACAD
1000
DSTYLE
1002
{
1070
   371
1070
    13
1070
   372
1070
    13
1070
     3
1000

1070
   170
1070
     0
1070
   144
1040
1.0
1070
   277
1070
     2
1070
   284
1070
     8
1070
   278
1070
    46
1070
   146
1040
1.166667
1070
   345
1005
16
1070
   347
1005
16
1070
   346
1005
16
1070
   344
1005
0
1070
   343
1005
0
1070
   172
1070
     1
1070
    76
1070
     0
1070
    75
1070
     0
1070
   282
1070
     0
1070
   281
1070
     0
1070
    71
1070
     0
1070
    74
1070
     0
1070
   279
1070
     0
1070
   173
1070
     1
1070
   340
1005
C9
1070
   271
1070
     2
1070
   272
1070
     3
1070
    77
1070
     1
1070
    73
1070
     1
1070
   171
1070
     3
1070
   274
1070
     4
1070
   177
1070
     2
1070
   176
1070
     2
1070
   178
1070
     2
1070
    78
1070
     8
1070
    48
1040
-0.1
1070
    41
1040
3.5
1070
   147
1040
1.5
1070
    42
1040
1.5875
1070
    44
1040
2.0
1070
   140
1040
3.0
1002
}
1001
ACAD_DSTYLE_DIM_LINETYPE
1070
   380
1005
16
1001
ACAD_DSTYLE_DIM_EXT1_LINETYPE
1070
   381
1005
16
1001
ACAD_DSTYLE_DIM_EXT2_LINETYPE
1070
   382
1005
16
0
ENDSEC
0
SECTION
2
OBJECTS
0
DICTIONARY
5
1bd
330
0
100
AcDbDictionary
280
0
281
1
3
ACAD_GROUP
350
1be
3
ACAD_MLINESTYLE
350
1bf
0
DICTIONARY
5
1be
330
0
100
AcDbDictionary
280
0
281
1
0
DICTIONARY
5
1bf
330
0
100
AcDbDictionary
280
0
281
1
3
Standard
350
18
0
MLINESTYLE
5
18
330
1bf
100
AcDbMlineStyle
2
Standard
70
0
3

62
256
51
90
52
90
71
2
49
-0.5
62
256
6
ByLayer
49
0.5
62
256
6
ByLayer
0
RASTERVARIABLES
5
1a9
330

100
AcDbRasterVariables
90
0
70
1
71
1
72
1
0
ENDSEC
0
EOF
