0
SECTION
2
HEADER
9
$ACADVER
1
AC1015
9
$DWGCODEPAGE
3
ANSI_1252
9
$HANDSEED
5
1ca
9
$ANGBASE
50
0
9
$ANGDIR
70
0
9
$ATTMODE
70
1
9
$AUNITS
70
0
9
$AUPREC
70
0
9
$CECOLOR
62
256
9
$CELTSCALE
40
1
9
$CELTYPE
6
ByLayer
9
$CELWEIGHT
370
18
9
$CLAYER
8
0
9
$CMLJUST
70
0
9
$CMLSCALE
40
1
9
$CMLSTYLE
2
Standard
9
$DIMSTYLE
2
Standard
9
$TEXTSIZE
40
0.2
9
$TEXTSTYLE
7
Standard
9
$LUNITS
70
2
9
$LUPREC
70
4
9
$EXTNAMES
290
1
9
$INSUNITS
70
4
9
$LTSCALE
40
1
9
$LWDISPLAY
290
1
9
$PDMODE
70
0
9
$PDSIZE
40
0
9
$PLINEGEN
70
0
0
ENDSEC
0
SECTION
2
CLASSES
0
CLASS
1
RASTERVARIABLES
2
AcDbRasterVariables
3
ISM
90
0
280
0
281
0
0
ENDSEC
0
SECTION
2
TABLES
0
TABLE
2
VPORT
5
1c0
100
AcDbSymbolTable
0
VPORT
5
1
100
AcDbSymbolTableRecord
100
AcDbViewportTableRecord
2
*Active
70
0
10
0
20
0
11
1
21
1
12
-1
22
1
13
0
23
0
14
0.5
24
0.5
15
10
25
10
16
0
26
0
36
1
17
0
27
0
37
0
0
ENDTAB
0
TABLE
2
LTYPE
5
1c1
100
AcDbSymbolTable
0
LTYPE
5
14
100
AcDbSymbolTableRecord
100
AcDbLinetypeTableRecord
70
0
2
ByBlock
3

72
65
73
0
40
0
0
LTYPE
5
15
100
AcDbSymbolTableRecord
100
AcDbLinetypeTableRecord
70
0
2
ByLayer
3

72
65
73
0
40
0
0
LTYPE
5
16
100
AcDbSymbolTableRecord
100
AcDbLinetypeTableRecord
70
0
2
Continuous
3
Solid line
72
65
73
0
40
0
0
LTYPE
5
6E
100
AcDbSymbolTableRecord
100
AcDbLinetypeTableRecord
70
0
2
CENTER
3
____ _ ____ _ ____ _ ____
72
65
73
4
40
47.5
49
22
74
0
49
-8.5
74
0
49
8.5
74
0
49
-8.5
74
0
0
LTYPE
5
6F
100
AcDbSymbolTableRecord
100
AcDbLinetypeTableRecord
70
0
2
DASHED
3
__ __ __ __ __ __ __ __ __
72
65
73
2
40
25.72
49
12.86
74
0
49
-12.86
74
0
0
ENDTAB
0
TABLE
2
LAYER
5
1c2
100
AcDbSymbolTable
0
LAYER
5
10
100
AcDbSymbolTableRecord
100
AcDbLayerTableRecord
2
0
70
0
62
7
6
Continuous
290
1
370
-3
390
0
0
LAYER
5
71
100
AcDbSymbolTableRecord
100
AcDbLayerTableRecord
2
81
70
0
62
-3
6
Continuous
290
1
370
-3
390
0
0
LAYER
5
73
100
AcDbSymbolTableRecord
100
AcDbLayerTableRecord
2
80
70
0
62
-6
6
Continuous
290
1
370
-3
390
0
0
LAYER
5
75
100
AcDbSymbolTableRecord
100
AcDbLayerTableRecord
2
1
70
0
62
4
6
Continuous
290
1
370
-3
390
0
0
LAYER
5
7E
100
AcDbSymbolTableRecord
100
AcDbLayerTableRecord
2
4
70
0
62
-2
6
CENTER
290
1
370
-3
390
0
0
LAYER
5
A4
100
AcDbSymbolTableRecord
100
AcDbLayerTableRecord
2
2
70
0
62
7
6
Continuous
290
1
370
-3
390
0
0
LAYER
5
ED
100
AcDbSymbolTableRecord
100
AcDbLayerTableRecord
2
Defpoints
70
0
62
7
6
Continuous
290
0
370
-3
390
0
0
LAYER
5
1aa
100
AcDbSymbolTableRecord
100
AcDbLayerTableRecord
2
SK4
70
0
62
2
6
CENTER
290
1
370
-3
390
0
0
LAYER
5
1ab
100
AcDbSymbolTableRecord
100
AcDbLayerTableRecord
2
SK1
70
0
62
4
6
Continuous
290
1
370
-3
390
0
0
LAYER
5
1ac
100
AcDbSymbolTableRecord
100
AcDbLayerTableRecord
2
SK2
70
0
62
7
6
Continuous
290
1
370
-3
390
0
0
LAYER
5
1ad
100
AcDbSymbolTableRecord
100
AcDbLayerTableRecord
2
NOCUT
70
0
62
-7
6
Continuous
290
1
370
-3
390
0
0
LAYER
5
1ae
100
AcDbSymbolTableRecord
100
AcDbLayerTableRecord
2
CUT
70
0
62
-1
6
Continuous
290
1
370
-3
390
0
0
LAYER
5
1af
100
AcDbSymbolTableRecord
100
AcDbLayerTableRecord
2
SK6
70
0
62
5
6
Continuous
290
1
370
-3
390
0
0
ENDTAB
0
TABLE
2
STYLE
5
1c3
100
AcDbSymbolTable
0
STYLE
5
11
100
AcDbSymbolTableRecord
100
AcDbTextStyleTableRecord
2
Standard
3
txt
70
0
71
0
40
0
41
1
42
0
50
0
0
STYLE
5
C9
100
AcDbSymbolTableRecord
100
AcDbTextStyleTableRecord
2
iso_b_vert
3
simplex.shx
70
0
71
0
40
0
41
1
42
0
50
0
0
STYLE
5
CA
100
AcDbSymbolTableRecord
100
AcDbTextStyleTableRecord
2
DWGDirectTextStyle
3
simplex
70
0
71
0
40
0
41
1
42
0
50
0
0
ENDTAB
0
TABLE
2
DIMSTYLE
5
1c4
100
AcDbSymbolTable
100
AcDbDimStyleTable
0
DIMSTYLE
105
27
100
AcDbSymbolTableRecord
100
AcDbDimStyleTableRecord
2
Standard
70
0
3
<>
41
0.18
42
0.0625
44
0.18
140
0.18
147
0.09
73
0
74
0
77
1
271
2
275
0
278
52
280
0
340
11
0
ENDTAB
0
TABLE
2
VIEW
5
1c5
100
AcDbSymbolTable
0
ENDTAB
0
TABLE
2
UCS
5
1c6
100
AcDbSymbolTable
0
ENDTAB
0
TABLE
2
APPID
5
1c7
100
AcDbSymbolTable
0
APPID
5
12
100
AcDbSymbolTableRecord
100
AcDbRegAppTableRecord
2
ACAD
70
0
0
APPID
5
E9
100
AcDbSymbolTableRecord
100
AcDbRegAppTableRecord
2
ACAD_DSTYLE_DIMBREAK
70
0
0
APPID
5
169
100
AcDbSymbolTableRecord
100
AcDbRegAppTableRecord
2
ACAD_DSTYLE_DIM_LINETYPE
70
0
0
APPID
5
16A
100
AcDbSymbolTableRecord
100
AcDbRegAppTableRecord
2
ACAD_DSTYLE_DIM_EXT1_LINETYPE
70
0
0
APPID
5
16B
100
AcDbSymbolTableRecord
100
AcDbRegAppTableRecord
2
ACAD_DSTYLE_DIM_EXT2_LINETYPE
70
0
0
APPID
5
1A6
100
AcDbSymbolTableRecord
100
AcDbRegAppTableRecord
2
ACAD_MLEADERVER
70
0
0
ENDTAB
0
TABLE
2
BLOCK_RECORD
5
1c8
100
AcDbSymbolTable
0
BLOCK_RECORD
5
1F
100
AcDbSymbolTableRecord
100
AcDbBlockTableRecord
2
*Model_Space
340
0
70
0
0
BLOCK_RECORD
5
1B
100
AcDbSymbolTableRecord
100
AcDbBlockTableRecord
2
*Paper_Space
340
0
70
0
0
BLOCK_RECORD
5
23
100
AcDbSymbolTableRecord
100
AcDbBlockTableRecord
2
*Paper_Space0
340
0
70
0
0
BLOCK_RECORD
5
EE
100
AcDbSymbolTableRecord
100
AcDbBlockTableRecord
2
*D1
340
0
70
0
0
BLOCK_RECORD
5
FA
100
AcDbSymbolTableRecord
100
AcDbBlockTableRecord
2
_U0
340
0
70
0
0
BLOCK_RECORD
5
106
100
AcDbSymbolTableRecord
100
AcDbBlockTableRecord
2
*D3
340
0
70
0
0
BLOCK_RECORD
5
112
100
AcDbSymbolTableRecord
100
AcDbBlockTableRecord
2
_U1
340
0
70
0
0
BLOCK_RECORD
5
11E
100
AcDbSymbolTableRecord
100
AcDbBlockTableRecord
2
*D5
340
0
70
0
0
BLOCK_RECORD
5
12A
100
AcDbSymbolTableRecord
100
AcDbBlockTableRecord
2
_U2
340
0
70
0
0
BLOCK_RECORD
5
136
100
AcDbSymbolTableRecord
100
AcDbBlockTableRecord
2
*D7
340
0
70
0
0
BLOCK_RECORD
5
142
100
AcDbSymbolTableRecord
100
AcDbBlockTableRecord
2
_U3
340
0
70
0
0
ENDTAB
0
ENDSEC
0
SECTION
2
BLOCKS
0
BLOCK
5
20
100
AcDbEntity
8
0
100
AcDbBlockBegin
2
*Model_Space
70
0
10
0
20
0
30
0
3
*Model_Space
0
ENDBLK
5
21
100
AcDbEntity
8
0
100
AcDbBlockEnd
0
BLOCK
5
1C
100
AcDbEntity
8
0
100
AcDbBlockBegin
2
*Paper_Space
70
0
10
0
20
0
30
0
3
*Paper_Space
0
ENDBLK
5
1D
100
AcDbEntity
8
0
100
AcDbBlockEnd
0
BLOCK
5
24
100
AcDbEntity
8
0
100
AcDbBlockBegin
2
*Paper_Space0
70
0
10
0
20
0
30
0
3
*Paper_Space0
0
ENDBLK
5
25
100
AcDbEntity
8
0
100
AcDbBlockEnd
0
BLOCK
5
EF
100
AcDbEntity
8
0
100
AcDbBlockBegin
2
*D1
70
1
10
0
20
0
30
0
3
*D1
0
LINE
5
F1
100
AcDbEntity
8
0
62
256
6
ByLayer
370
-2
48
1
60
0
100
AcDbLine
10
-40
20
-5.5875
30
0
11
-40
21
-53.707356
31
0
39
0
210
0
220
0
230
1
0
LINE
5
F2
100
AcDbEntity
8
0
62
256
6
ByLayer
370
-2
48
1
60
0
100
AcDbLine
10
39
20
-1.5875
30
0
11
39
21
-53.707356
31
0
39
0
210
0
220
0
230
1
0
LINE
5
F3
100
AcDbEntity
8
0
62
256
6
ByLayer
370
-2
48
1
60
0
100
AcDbLine
10
-36.5
20
-51.707356
30
0
11
35.5
21
-51.707356
31
0
39
0
210
0
220
0
230
1
0
SOLID
5
F4
100
AcDbEntity
8
0
62
256
6
ByLayer
370
-1
48
1
60
0
100
AcDbTrace
10
-36.5
20
-51.124023
30
0
11
-36.5
21
-52.29069
31
0
12
-40
22
-51.707356
32
0
13
-40
23
-51.707356
33
0
39
0
210
0
220
0
230
1
0
SOLID
5
F5
100
AcDbEntity
8
0
62
256
6
ByLayer
370
-1
48
1
60
0
100
AcDbTrace
10
35.5
20
-52.29069
30
0
11
35.5
21
-51.124023
31
0
12
39
22
-51.707356
32
0
13
39
23
-51.707356
33
0
39
0
210
0
220
0
230
1
0
MTEXT
5
F6
100
AcDbEntity
8
0
62
256
6
ByLayer
370
18
48
1
60
0
100
AcDbMText
10
-0.5
20
-45.707356
30
0
210
0
220
0
230
1
1
\A1;79
40
3
41
0
44
1
50
0
71
5
72
5
7
iso_b_vert
0
POINT
5
F7
100
AcDbEntity
8
Defpoints
62
0
6
ByLayer
370
-1
48
1
60
0
100
AcDbPoint
10
-40
20
-4
30
0
39
0
210
0
220
0
230
1
50
360
0
POINT
5
F8
100
AcDbEntity
8
Defpoints
62
0
6
ByLayer
370
-1
48
1
60
0
100
AcDbPoint
10
39
20
0
30
0
39
0
210
0
220
0
230
1
50
360
0
POINT
5
F9
100
AcDbEntity
8
Defpoints
62
0
6
ByLayer
370
-1
48
1
60
0
100
AcDbPoint
10
39
20
-51.707356
30
0
39
0
210
0
220
0
230
1
50
360
0
ENDBLK
5
F0
100
AcDbEntity
8
0
100
AcDbBlockEnd
0
BLOCK
5
101
100
AcDbEntity
8
0
100
AcDbBlockBegin
2
_U0
70
0
10
0
20
0
30
0
3
_U0
0
MTEXT
5
FB
100
AcDbEntity
8
SK2
62
256
6
ByLayer
370
18
48
1
60
0
100
AcDbMText
10
-4.98237
20
-50.822242
30
0
210
0
220
0
230
1
1
\W0.7468;79.00
40
3
41
0
44
1.084337
50
0
71
7
72
5
7
iso_b_vert
0
LINE
5
FC
100
AcDbEntity
8
SK2
62
256
6
ByLayer
370
13
48
1
60
0
100
AcDbLine
10
-40
20
-5.5875
30
0
11
-40
21
-53.707356
31
0
39
0
210
0
220
0
230
1
0
LINE
5
FD
100
AcDbEntity
8
SK2
62
256
6
ByLayer
370
13
48
1
60
0
100
AcDbLine
10
39
20
-1.5875
30
0
11
39
21
-53.707356
31
0
39
0
210
0
220
0
230
1
0
LINE
5
FE
100
AcDbEntity
8
SK2
62
256
6
ByLayer
370
13
48
1
60
0
100
AcDbLine
10
-40
20
-51.707356
30
0
11
39
21
-51.707356
31
0
39
0
210
0
220
0
230
1
0
SOLID
5
FF
100
AcDbEntity
8
SK2
62
256
6
ByLayer
370
18
48
1
60
0
100
AcDbTrace
10
-40
20
-51.707356
30
0
11
-36.500002
21
-51.246573
31
0
12
-36.499998
22
-52.16814
32
0
13
-36.499998
23
-52.16814
33
0
39
0
210
0
220
0
230
1
0
SOLID
5
100
100
AcDbEntity
8
SK2
62
256
6
ByLayer
370
18
48
1
60
0
100
AcDbTrace
10
39
20
-51.707356
30
0
11
35.500002
21
-52.16814
31
0
12
35.499998
22
-51.246573
32
0
13
35.499998
23
-51.246573
33
0
39
0
210
0
220
0
230
1
0
ENDBLK
5
102
100
AcDbEntity
8
0
100
AcDbBlockEnd
0
BLOCK
5
107
100
AcDbEntity
8
0
100
AcDbBlockBegin
2
*D3
70
1
10
0
20
0
30
0
3
*D3
0
LINE
5
109
100
AcDbEntity
8
0
62
256
6
ByLayer
370
-2
48
1
60
0
100
AcDbLine
10
39
20
-1.5875
30
0
11
39
21
-43.707356
31
0
39
0
210
0
220
0
230
1
0
LINE
5
10A
100
AcDbEntity
8
0
62
256
6
ByLayer
370
-2
48
1
60
0
100
AcDbLine
10
2
20
-5.5875
30
0
11
2
21
-43.707356
31
0
39
0
210
0
220
0
230
1
0
LINE
5
10B
100
AcDbEntity
8
0
62
256
6
ByLayer
370
-2
48
1
60
0
100
AcDbLine
10
35.5
20
-41.707356
30
0
11
5.5
21
-41.707356
31
0
39
0
210
0
220
0
230
1
0
SOLID
5
10C
100
AcDbEntity
8
0
62
256
6
ByLayer
370
-1
48
1
60
0
100
AcDbTrace
10
35.5
20
-42.29069
30
0
11
35.5
21
-41.124023
31
0
12
39
22
-41.707356
32
0
13
39
23
-41.707356
33
0
39
0
210
0
220
0
230
1
0
SOLID
5
10D
100
AcDbEntity
8
0
62
256
6
ByLayer
370
-1
48
1
60
0
100
AcDbTrace
10
5.5
20
-41.124023
30
0
11
5.5
21
-42.29069
31
0
12
2
22
-41.707356
32
0
13
2
23
-41.707356
33
0
39
0
210
0
220
0
230
1
0
MTEXT
5
10E
100
AcDbEntity
8
0
62
256
6
ByLayer
370
18
48
1
60
0
100
AcDbMText
10
20.5
20
-35.707356
30
0
210
0
220
0
230
1
1
\A1;37
40
3
41
0
44
1
50
0
71
5
72
5
7
iso_b_vert
0
POINT
5
10F
100
AcDbEntity
8
Defpoints
62
0
6
ByLayer
370
-1
48
1
60
0
100
AcDbPoint
10
39
20
0
30
0
39
0
210
0
220
0
230
1
50
360
0
POINT
5
110
100
AcDbEntity
8
Defpoints
62
0
6
ByLayer
370
-1
48
1
60
0
100
AcDbPoint
10
2
20
-4
30
0
39
0
210
0
220
0
230
1
50
360
0
POINT
5
111
100
AcDbEntity
8
Defpoints
62
0
6
ByLayer
370
-1
48
1
60
0
100
AcDbPoint
10
2
20
-41.707356
30
0
39
0
210
0
220
0
230
1
50
360
0
ENDBLK
5
108
100
AcDbEntity
8
0
100
AcDbBlockEnd
0
BLOCK
5
119
100
AcDbEntity
8
0
100
AcDbBlockBegin
2
_U1
70
0
10
0
20
0
30
0
3
_U1
0
MTEXT
5
113
100
AcDbEntity
8
2
62
256
6
ByLayer
370
18
48
1
60
0
100
AcDbMText
10
16.01763
20
-40.822242
30
0
210
0
220
0
230
1
1
\W0.7468;37.00
40
3
41
0
44
1.084337
50
0
71
7
72
5
7
iso_b_vert
0
LINE
5
114
100
AcDbEntity
8
2
62
256
6
ByLayer
370
13
48
1
60
0
100
AcDbLine
10
39
20
-1.5875
30
0
11
39
21
-43.707356
31
0
39
0
210
0
220
0
230
1
0
LINE
5
115
100
AcDbEntity
8
2
62
256
6
ByLayer
370
13
48
1
60
0
100
AcDbLine
10
2
20
-5.5875
30
0
11
2
21
-43.707356
31
0
39
0
210
0
220
0
230
1
0
LINE
5
116
100
AcDbEntity
8
2
62
256
6
ByLayer
370
13
48
1
60
0
100
AcDbLine
10
39
20
-41.707356
30
0
11
2
21
-41.707356
31
0
39
0
210
0
220
0
230
1
0
SOLID
5
117
100
AcDbEntity
8
2
62
256
6
ByLayer
370
18
48
1
60
0
100
AcDbTrace
10
39
20
-41.707356
30
0
11
35.500002
21
-42.16814
31
0
12
35.499998
22
-41.246573
32
0
13
35.499998
23
-41.246573
33
0
39
0
210
0
220
0
230
1
0
SOLID
5
118
100
AcDbEntity
8
2
62
256
6
ByLayer
370
18
48
1
60
0
100
AcDbTrace
10
2
20
-41.707356
30
0
11
5.499998
21
-41.246573
31
0
12
5.500002
22
-42.16814
32
0
13
5.500002
23
-42.16814
33
0
39
0
210
0
220
0
230
1
0
ENDBLK
5
11A
100
AcDbEntity
8
0
100
AcDbBlockEnd
0
BLOCK
5
11F
100
AcDbEntity
8
0
100
AcDbBlockBegin
2
*D5
70
1
10
0
20
0
30
0
3
*D5
0
LINE
5
121
100
AcDbEntity
8
0
62
256
6
ByLayer
370
-2
48
1
60
0
100
AcDbLine
10
-40
20
-5.5875
30
0
11
-40
21
-38.707356
31
0
39
0
210
0
220
0
230
1
0
LINE
5
122
100
AcDbEntity
8
0
62
256
6
ByLayer
370
-2
48
1
60
0
100
AcDbLine
10
0
20
-5.5875
30
0
11
0
21
-38.707356
31
0
39
0
210
0
220
0
230
1
0
LINE
5
123
100
AcDbEntity
8
0
62
256
6
ByLayer
370
-2
48
1
60
0
100
AcDbLine
10
-36.5
20
-36.707356
30
0
11
-3.5
21
-36.707356
31
0
39
0
210
0
220
0
230
1
0
SOLID
5
124
100
AcDbEntity
8
0
62
256
6
ByLayer
370
-1
48
1
60
0
100
AcDbTrace
10
-36.5
20
-36.124023
30
0
11
-36.5
21
-37.29069
31
0
12
-40
22
-36.707356
32
0
13
-40
23
-36.707356
33
0
39
0
210
0
220
0
230
1
0
SOLID
5
125
100
AcDbEntity
8
0
62
256
6
ByLayer
370
-1
48
1
60
0
100
AcDbTrace
10
-3.5
20
-37.29069
30
0
11
-3.5
21
-36.124023
31
0
12
0
22
-36.707356
32
0
13
0
23
-36.707356
33
0
39
0
210
0
220
0
230
1
0
MTEXT
5
126
100
AcDbEntity
8
0
62
256
6
ByLayer
370
18
48
1
60
0
100
AcDbMText
10
-20
20
-30.707356
30
0
210
0
220
0
230
1
1
\A1;40
40
3
41
0
44
1
50
0
71
5
72
5
7
iso_b_vert
0
POINT
5
127
100
AcDbEntity
8
Defpoints
62
0
6
ByLayer
370
-1
48
1
60
0
100
AcDbPoint
10
-40
20
-4
30
0
39
0
210
0
220
0
230
1
50
360
0
POINT
5
128
100
AcDbEntity
8
Defpoints
62
0
6
ByLayer
370
-1
48
1
60
0
100
AcDbPoint
10
0
20
-4
30
0
39
0
210
0
220
0
230
1
50
360
0
POINT
5
129
100
AcDbEntity
8
Defpoints
62
0
6
ByLayer
370
-1
48
1
60
0
100
AcDbPoint
10
0
20
-36.707356
30
0
39
0
210
0
220
0
230
1
50
360
0
ENDBLK
5
120
100
AcDbEntity
8
0
100
AcDbBlockEnd
0
BLOCK
5
131
100
AcDbEntity
8
0
100
AcDbBlockBegin
2
_U2
70
0
10
0
20
0
30
0
3
_U2
0
MTEXT
5
12B
100
AcDbEntity
8
SK2
62
256
6
ByLayer
370
18
48
1
60
0
100
AcDbMText
10
-24.640313
20
-35.822242
30
0
210
0
220
0
230
1
1
\W0.7694;40.00
40
3
41
0
44
1.084337
50
0
71
7
72
5
7
iso_b_vert
0
LINE
5
12C
100
AcDbEntity
8
SK2
62
256
6
ByLayer
370
13
48
1
60
0
100
AcDbLine
10
-40
20
-5.5875
30
0
11
-40
21
-38.707356
31
0
39
0
210
0
220
0
230
1
0
LINE
5
12D
100
AcDbEntity
8
SK2
62
256
6
ByLayer
370
13
48
1
60
0
100
AcDbLine
10
0
20
-5.5875
30
0
11
0
21
-38.707356
31
0
39
0
210
0
220
0
230
1
0
LINE
5
12E
100
AcDbEntity
8
SK2
62
256
6
ByLayer
370
13
48
1
60
0
100
AcDbLine
10
-40
20
-36.707356
30
0
11
0
21
-36.707356
31
0
39
0
210
0
220
0
230
1
0
SOLID
5
12F
100
AcDbEntity
8
SK2
62
256
6
ByLayer
370
18
48
1
60
0
100
AcDbTrace
10
-40
20
-36.707356
30
0
11
-36.500002
21
-36.246573
31
0
12
-36.499998
22
-37.16814
32
0
13
-36.499998
23
-37.16814
33
0
39
0
210
0
220
0
230
1
0
SOLID
5
130
100
AcDbEntity
8
SK2
62
256
6
ByLayer
370
18
48
1
60
0
100
AcDbTrace
10
0
20
-36.707356
30
0
11
-3.499998
21
-37.16814
31
0
12
-3.500002
22
-36.246573
32
0
13
-3.500002
23
-36.246573
33
0
39
0
210
0
220
0
230
1
0
ENDBLK
5
132
100
AcDbEntity
8
0
100
AcDbBlockEnd
0
BLOCK
5
137
100
AcDbEntity
8
0
100
AcDbBlockBegin
2
*D7
70
1
10
0
20
0
30
0
3
*D7
0
LINE
5
139
100
AcDbEntity
8
0
62
256
6
ByLayer
370
-2
48
1
60
0
100
AcDbLine
10
39
20
-1.5875
30
0
11
39
21
-36.707356
31
0
39
0
210
0
220
0
230
1
0
LINE
5
13A
100
AcDbEntity
8
0
62
256
6
ByLayer
370
-2
48
1
60
0
100
AcDbLine
10
11.25
20
-5.5875
30
0
11
11.25
21
-36.707356
31
0
39
0
210
0
220
0
230
1
0
LINE
5
13B
100
AcDbEntity
8
0
62
256
6
ByLayer
370
-2
48
1
60
0
100
AcDbLine
10
35.5
20
-34.707356
30
0
11
14.75
21
-34.707356
31
0
39
0
210
0
220
0
230
1
0
SOLID
5
13C
100
AcDbEntity
8
0
62
256
6
ByLayer
370
-1
48
1
60
0
100
AcDbTrace
10
35.5
20
-35.29069
30
0
11
35.5
21
-34.124023
31
0
12
39
22
-34.707356
32
0
13
39
23
-34.707356
33
0
39
0
210
0
220
0
230
1
0
SOLID
5
13D
100
AcDbEntity
8
0
62
256
6
ByLayer
370
-1
48
1
60
0
100
AcDbTrace
10
14.75
20
-34.124023
30
0
11
14.75
21
-35.29069
31
0
12
11.25
22
-34.707356
32
0
13
11.25
23
-34.707356
33
0
39
0
210
0
220
0
230
1
0
MTEXT
5
13E
100
AcDbEntity
8
0
62
256
6
ByLayer
370
18
48
1
60
0
100
AcDbMText
10
25.125
20
-28.707356
30
0
210
0
220
0
230
1
1
\A1;27.75
40
3
41
0
44
1
50
0
71
5
72
5
7
iso_b_vert
0
POINT
5
13F
100
AcDbEntity
8
Defpoints
62
0
6
ByLayer
370
-1
48
1
60
0
100
AcDbPoint
10
39
20
0
30
0
39
0
210
0
220
0
230
1
50
360
0
POINT
5
140
100
AcDbEntity
8
Defpoints
62
0
6
ByLayer
370
-1
48
1
60
0
100
AcDbPoint
10
11.25
20
-4
30
0
39
0
210
0
220
0
230
1
50
360
0
POINT
5
141
100
AcDbEntity
8
Defpoints
62
0
6
ByLayer
370
-1
48
1
60
0
100
AcDbPoint
10
11.25
20
-34.707356
30
0
39
0
210
0
220
0
230
1
50
360
0
ENDBLK
5
138
100
AcDbEntity
8
0
100
AcDbBlockEnd
0
BLOCK
5
149
100
AcDbEntity
8
0
100
AcDbBlockBegin
2
_U3
70
0
10
0
20
0
30
0
3
_U3
0
MTEXT
5
143
100
AcDbEntity
8
2
62
256
6
ByLayer
370
18
48
1
60
0
100
AcDbMText
10
20.64263
20
-33.822242
30
0
210
0
220
0
230
1
1
\W0.7468;27.75
40
3
41
0
44
1.084337
50
0
71
7
72
5
7
iso_b_vert
0
LINE
5
144
100
AcDbEntity
8
2
62
256
6
ByLayer
370
13
48
1
60
0
100
AcDbLine
10
39
20
-1.5875
30
0
11
39
21
-36.707356
31
0
39
0
210
0
220
0
230
1
0
LINE
5
145
100
AcDbEntity
8
2
62
256
6
ByLayer
370
13
48
1
60
0
100
AcDbLine
10
11.25
20
-5.5875
30
0
11
11.25
21
-36.707356
31
0
39
0
210
0
220
0
230
1
0
LINE
5
146
100
AcDbEntity
8
2
62
256
6
ByLayer
370
13
48
1
60
0
100
AcDbLine
10
39
20
-34.707356
30
0
11
11.25
21
-34.707356
31
0
39
0
210
0
220
0
230
1
0
SOLID
5
147
100
AcDbEntity
8
2
62
256
6
ByLayer
370
18
48
1
60
0
100
AcDbTrace
10
39
20
-34.707356
30
0
11
35.500002
21
-35.16814
31
0
12
35.499998
22
-34.246573
32
0
13
35.499998
23
-34.246573
33
0
39
0
210
0
220
0
230
1
0
SOLID
5
148
100
AcDbEntity
8
2
62
256
6
ByLayer
370
18
48
1
60
0
100
AcDbTrace
10
11.25
20
-34.707356
30
0
11
14.749998
21
-34.246573
31
0
12
14.750002
22
-35.16814
32
0
13
14.750002
23
-35.16814
33
0
39
0
210
0
220
0
230
1
0
ENDBLK
5
14A
100
AcDbEntity
8
0
100
AcDbBlockEnd
0
ENDSEC
0
SECTION
2
ENTITIES
0
ARC
5
B5
100
AcDbEntity
8
2
62
256
6
ByLayer
370
13
48
1
60
0
100
AcDbCircle
39
0
10
39
20
0
30
0
40
21.9999999999999
210
0
220
0
230
1
100
AcDbArc
50
7.83748
51
61.596605
0
ARC
5
B6
100
AcDbEntity
8
2
62
256
6
ByLayer
370
13
48
1
60
0
100
AcDbCircle
39
0
10
39
20
0
30
0
40
21.9999999999999
210
0
220
0
230
1
100
AcDbArc
50
298.403395
51
352.16252
0
POINT
5
70
100
AcDbEntity
8
81
62
256
6
ByLayer
370
18
48
1
60
0
100
AcDbPoint
10
39
20
0
30
0
39
0
210
0
220
0
230
1
50
360
0
POINT
5
72
100
AcDbEntity
8
80
62
256
6
ByLayer
370
18
48
1
60
0
100
AcDbPoint
10
0
20
0
30
0
39
0
210
0
220
0
230
1
50
360
0
POINT
5
74
100
AcDbEntity
8
1
62
256
6
ByLayer
370
18
48
1
60
1
100
AcDbPoint
10
-40
20
-4
30
0
39
0
210
0
220
0
230
1
50
360
0
POINT
5
76
100
AcDbEntity
8
1
62
256
6
ByLayer
370
18
48
1
60
1
100
AcDbPoint
10
39
20
0
30
0
39
0
210
0
220
0
230
1
50
360
0
POINT
5
77
100
AcDbEntity
8
1
62
256
6
ByLayer
370
18
48
1
60
1
100
AcDbPoint
10
39
20
0
30
0
39
0
210
0
220
0
230
1
50
360
0
POINT
5
78
100
AcDbEntity
8
1
62
256
6
ByLayer
370
18
48
1
60
1
100
AcDbPoint
10
2
20
-4
30
0
39
0
210
0
220
0
230
1
50
360
0
POINT
5
79
100
AcDbEntity
8
1
62
256
6
ByLayer
370
18
48
1
60
1
100
AcDbPoint
10
-40
20
-4
30
0
39
0
210
0
220
0
230
1
50
360
0
POINT
5
7A
100
AcDbEntity
8
1
62
256
6
ByLayer
370
18
48
1
60
1
100
AcDbPoint
10
0
20
-4
30
0
39
0
210
0
220
0
230
1
50
360
0
POINT
5
7B
100
AcDbEntity
8
1
62
256
6
ByLayer
370
18
48
1
60
1
100
AcDbPoint
10
39
20
0
30
0
39
0
210
0
220
0
230
1
50
360
0
POINT
5
7C
100
AcDbEntity
8
1
62
256
6
ByLayer
370
18
48
1
60
1
100
AcDbPoint
10
11.25
20
-4
30
0
39
0
210
0
220
0
230
1
50
360
0
SPLINE
5
B7
100
AcDbEntity
8
NOCUT
62
256
6
ByLayer
370
18
48
1
60
0
100
AcDbSpline
70
2053
71
3
72
26
73
22
40
0
40
0
40
0
40
0
40
0.356651855103476
40
0.356651855103476
40
0.356651855103476
40
0.366289725622487
40
0.366289725622487
40
0.366289725622487
40
0.395821407891293
40
0.395821407891293
40
0.395821407891293
40
0.861513320605114
40
0.861513320605114
40
0.861513320605114
40
0.897772819061355
40
0.897772819061355
40
0.897772819061355
40
0.996363211416177
40
0.996363211416177
40
0.996363211416177
40
1
40
1
40
1
40
1
41
1
10
-2.84E-14
20
4
30
0
41
1
10
-13.0833333333333
20
4
30
0
41
1
10
-26.1666666666667
20
4
30
0
41
1
10
-39.25
20
4
30
0
41
1
10
-39.5
20
3.75
30
0
41
1
10
-39.75
20
3.5
30
0
41
1
10
-40
20
3.25
30
0
41
1
10
-40
20
2.16666666666666
30
0
41
1
10
-40
20
1.08333333333334
30
0
41
1
10
-40
20
0
30
0
41
1
10
-22.9166666666667
20
0
30
0
41
1
10
-5.83333333333346
20
0
30
0
41
1
10
11.2499999999999
20
0
30
0
41
1
10
11.25
20
1.33013497061191
30
0
41
1
10
11.25
20
2.66026994122379
30
0
41
1
10
11.25
20
3.9904049118357
30
0
41
1
10
7.63333333333301
20
3.98904866183568
30
0
41
1
10
4.016666666666
20
3.98769241183569
30
0
41
1
10
0.400000000469674
20
3.98633616181962
30
0
41
1
10
0.266666667293549
20
3.9908907745357
30
0
41
1
10
0.133333333646789
20
3.99544538726786
30
0
41
1
10
-2.84E-14
20
4
30
0
0
SPLINE
5
B9
100
AcDbEntity
8
CUT
62
256
6
ByLayer
370
18
48
1
60
0
100
AcDbSpline
70
2053
71
3
72
17
73
13
40
0
40
0
40
0
40
0
40
0.448486844181193
40
0.448486844181193
40
0.448486844181193
40
0.512978523673256
40
0.512978523673256
40
0.512978523673256
40
0.926506078078423
40
0.926506078078423
40
0.926506078078423
40
1
40
1
40
1
40
1
41
1
10
39
20
0
30
0
41
1
10
29.75
20
0
30
0
41
1
10
20.5
20
0
30
0
41
1
10
11.25
20
0
30
0
41
1
10
11.25
20
1.33013497061191
30
0
41
1
10
11.25
20
2.66026994122379
30
0
41
1
10
11.2499999999989
20
3.9904049118357
30
0
41
1
10
19.7789672571654
20
3.99360327455713
30
0
41
1
10
28.3079345143331
20
3.99680163727857
30
0
41
1
10
36.8369017715007
20
4
30
0
41
1
10
37.5579345143339
20
2.66666666666669
30
0
41
1
10
38.2789672571669
20
1.33333333333334
30
0
41
1
10
39
20
0
30
0
0
SPLINE
5
BB
100
AcDbEntity
8
1
62
256
6
ByLayer
370
18
48
1
60
0
100
AcDbSpline
70
4
71
3
72
115
73
111
40
0
40
0
40
0
40
0
40
0.0312500000000022
40
0.0312500000000022
40
0.0625000000000044
40
0.0625000000000044
40
0.125000000000006
40
0.125000000000006
40
0.187500000000008
40
0.187500000000008
40
0.218750000000009
40
0.218750000000009
40
0.25000000000001
40
0.25000000000001
40
0.26562500000001
40
0.26562500000001
40
0.281250000000009
40
0.281250000000009
40
0.289062500000008
40
0.289062500000008
40
0.296875000000007
40
0.296875000000007
40
0.304687500000005
40
0.304687500000005
40
0.312500000000004
40
0.312500000000004
40
0.328125000000004
40
0.328125000000004
40
0.335937500000005
40
0.335937500000005
40
0.343750000000006
40
0.343750000000006
40
0.351562500000007
40
0.351562500000007
40
0.359375000000008
40
0.359375000000008
40
0.367187500000009
40
0.367187500000009
40
0.37500000000001
40
0.382812500000011
40
0.382812500000011
40
0.390625000000012
40
0.390625000000012
40
0.406250000000016
40
0.406250000000016
40
0.42187500000002
40
0.42187500000002
40
0.437500000000024
40
0.437500000000024
40
0.453125000000028
40
0.453125000000028
40
0.468750000000033
40
0.468750000000033
40
0.484375000000037
40
0.484375000000037
40
0.488281250000038
40
0.488281250000038
40
0.492187500000039
40
0.492187500000039
40
0.50000000000004
40
0.50000000000004
40
0.515625000000044
40
0.515625000000044
40
0.519531250000045
40
0.519531250000045
40
0.523437500000046
40
0.523437500000046
40
0.531250000000048
40
0.531250000000048
40
0.546875000000051
40
0.546875000000051
40
0.554687500000051
40
0.554687500000051
40
0.562500000000052
40
0.562500000000052
40
0.578125000000051
40
0.578125000000051
40
0.59375000000005
40
0.59375000000005
40
0.60156250000005
40
0.60156250000005
40
0.609375000000049
40
0.609375000000049
40
0.625000000000051
40
0.625000000000051
40
0.656250000000051
40
0.656250000000051
40
0.67187500000005
40
0.67187500000005
40
0.687500000000049
40
0.687500000000049
40
0.750000000000041
40
0.750000000000041
40
0.757812500000039
40
0.757812500000039
40
0.765625000000038
40
0.765625000000038
40
0.781250000000036
40
0.781250000000036
40
0.796875000000033
40
0.796875000000033
40
0.812500000000031
40
0.812500000000031
40
0.875000000000021
40
0.875000000000021
40
0.937500000000012
40
0.937500000000012
40
0.968750000000006
40
0.968750000000006
40
1
40
1
40
1
40
1
41
1
10
36.8369017715007
20
3.87300793278166
30
0
41
1
10
36.8776096690187
20
3.79350997917825
30
0
41
1
10
36.9184181980702
20
3.71408052974539
30
0
41
1
10
37.0001266324351
20
3.55529042586923
30
0
41
1
10
37.0410189480457
20
3.47592535712371
30
0
41
1
10
37.1636354311428
20
3.23781713565685
30
0
41
1
10
37.2454211937692
20
3.07913131516511
30
0
41
1
10
37.4085380828029
20
2.76156074028071
30
0
41
1
10
37.4898800594006
20
2.6026821844994
30
0
41
1
10
37.6111222973013
20
2.36398719528418
30
0
41
1
10
37.6513979686566
20
2.28435388653784
30
0
41
1
10
37.7315648400707
20
2.12489493773742
30
0
41
1
10
37.7714725857118
20
2.04507855350062
30
0
41
1
10
37.8310094774444
20
1.92519375670253
30
0
41
1
10
37.8507966382341
20
1.88521759591254
30
0
41
1
10
37.8901647443662
20
1.80508030534566
30
0
41
1
10
37.9097438484974
20
1.76492227682323
30
0
41
1
10
37.9392169068555
20
1.70538500784443
30
0
41
1
10
37.9490587390446
20
1.68565345045042
30
0
41
1
10
37.9688555816763
20
1.64662779806355
30
0
41
1
10
37.9788113692618
20
1.62733532447615
30
0
41
1
10
37.998899766884
20
1.58933041792292
30
0
41
1
10
38.0090354256273
20
1.5706259311988
30
0
41
1
10
38.0294910158043
20
1.53377581784352
30
0
41
1
10
38.0398139724339
20
1.51563862013546
30
0
41
1
10
38.0709987372438
20
1.46185519815401
30
0
41
1
10
38.0920909806095
20
1.42687217395687
30
0
41
1
10
38.1236589797626
20
1.37421271662532
30
0
41
1
10
38.1341704326878
20
1.35663159345205
30
0
41
1
10
38.1550952200507
20
1.32121218430032
30
0
41
1
10
38.1655128090035
20
1.30338575420271
30
0
41
1
10
38.1862462374531
20
1.26747949938363
30
0
41
1
10
38.1965633766193
20
1.24940372015601
30
0
41
1
10
38.2171465935206
20
1.21314756383938
30
0
41
1
10
38.2274123861899
20
1.19496607140317
30
0
41
1
10
38.2478948177466
20
1.15851280330131
30
0
41
1
10
38.2581123195203
20
1.14023953476564
30
0
41
1
10
38.2784978637979
20
1.10363136113693
30
0
41
1
10
38.2988339349266
20
1.06696459273212
30
0
41
1
10
38.3189902800549
20
1.03005744022883
30
0
41
1
10
38.3390008363704
20
0.992950622913384
30
0
41
1
10
38.3489341791868
20
0.974299309981575
30
0
41
1
10
38.3785066182677
20
0.918064283925418
30
0
41
1
10
38.3979257816414
20
0.880209645790501
30
0
41
1
10
38.4360459088397
20
0.803777788057545
30
0
41
1
10
38.454764106921
20
0.765222384426266
30
0
41
1
10
38.4911199082918
20
0.687136454466355
30
0
41
1
10
38.5086719193779
20
0.647490410979458
30
0
41
1
10
38.5424114369365
20
0.567265188708035
30
0
41
1
10
38.5586035771334
20
0.526654087593016
30
0
41
1
10
38.5887943484875
20
0.444079206901279
30
0
41
1
10
38.6026357823478
20
0.402465527260546
30
0
41
1
10
38.6264494902696
20
0.318233539803146
30
0
41
1
10
38.6364053635433
20
0.275610929064214
30
0
41
1
10
38.6453829328518
20
0.221434453967362
30
0
41
1
10
38.6470054365909
20
0.210554347949199
30
0
41
1
10
38.6498806751469
20
0.188698419475173
30
0
41
1
10
38.6511339003127
20
0.177708923919141
30
0
41
1
10
38.6542837494038
20
0.144866329439708
30
0
41
1
10
38.6555854631602
20
0.123055709031007
30
0
41
1
10
38.6569725946881
20
0.0578995642192695
30
0
41
1
10
38.654505020253
20
0.0148311923630047
30
0
41
1
10
38.6472623772337
20
-0.0384826325121992
30
0
41
1
10
38.6456083929471
20
-0.0491193758317365
30
0
41
1
10
38.6419003259046
20
-0.0703394805832147
30
0
41
1
10
38.6398432252277
20
-0.0809327942877758
30
0
41
1
10
38.6331567903131
20
-0.112350323855765
30
0
41
1
10
38.6279985190423
20
-0.132905285897863
30
0
41
1
10
38.6107435400146
20
-0.193492856648277
30
0
41
1
10
38.5968146585352
20
-0.23237361934136
30
0
41
1
10
38.5735838980837
20
-0.289012146580887
30
0
41
1
10
38.5654234392803
20
-0.307660238274849
30
0
41
1
10
38.5485822376338
20
-0.3441399820436
30
0
41
1
10
38.539903029115
20
-0.361975826769282
30
0
41
1
10
38.5132593964108
20
-0.414399956582599
30
0
41
1
10
38.494704408448
20
-0.44793115037055
30
0
41
1
10
38.4565538675717
20
-0.512500559009908
30
0
41
1
10
38.4369524892799
20
-0.543532228173802
30
0
41
1
10
38.4069763341031
20
-0.588301948179321
30
0
41
1
10
38.3968868331612
20
-0.602926753145965
30
0
41
1
10
38.3765332515112
20
-0.631581117042913
30
0
41
1
10
38.366255867547
20
-0.645626653441326
30
0
41
1
10
38.3352712202445
20
-0.686767193249551
30
0
41
1
10
38.3145835380159
20
-0.712664022291193
30
0
41
1
10
38.2525258433689
20
-0.786284424652735
30
0
41
1
10
38.2111711751275
20
-0.829874695684367
30
0
41
1
10
38.149178386289
20
-0.887799391795312
30
0
41
1
10
38.1285170918913
20
-0.905866449701676
30
0
41
1
10
38.0871741458608
20
-0.939545222860858
30
0
41
1
10
38.0664292230022
20
-0.955196090202008
30
0
41
1
10
37.9639446086313
20
-1.02632671252462
30
0
41
1
10
37.8850425192811
20
-1.06155435692452
30
0
41
1
10
37.7975806371573
20
-1.08154674137006
30
0
41
1
10
37.7878828382697
20
-1.0834821568059
30
0
41
1
10
37.7685326114769
20
-1.08669599273034
30
0
41
1
10
37.7588840159774
20
-1.08794176301694
30
0
41
1
10
37.729971064999
20
-1.09090546254402
30
0
41
1
10
37.7107155142845
20
-1.09203113123451
30
0
41
1
10
37.6719940195547
20
-1.09480696614645
30
0
41
1
10
37.6525282292993
20
-1.09647865006198
30
0
41
1
10
37.6133762736202
20
-1.1008366414716
30
0
41
1
10
37.5936938609844
20
-1.1034925131604
30
0
41
1
10
37.49483734568
20
-1.11912375391518
30
0
41
1
10
37.4143924040762
20
-1.13891640468765
30
0
41
1
10
37.2519042988069
20
-1.19518402003828
30
0
41
1
10
37.1698412028254
20
-1.23173971383125
30
0
41
1
10
37.0457407995728
20
-1.30143323650799
30
0
41
1
10
37.0041987369775
20
-1.32718404366716
30
0
41
1
10
36.9207855947519
20
-1.3835782666404
30
0
41
1
10
36.8789153600316
20
-1.41420142944878
30
0
41
1
10
36.8369017715007
20
-1.4468651667741
30
0
0
SPLINE
5
BC
100
AcDbEntity
8
1
62
256
6
ByLayer
370
18
48
1
60
0
100
AcDbSpline
70
4
71
3
72
39
73
35
40
0
40
0
40
0
40
0
40
0.0182633552074269
40
0.0785836891458003
40
0.138904023084174
40
0.199224357022548
40
0.259544690960921
40
0.289704857930108
40
0.319865024899295
40
0.350025191868481
40
0.380185358837668
40
0.410345525806855
40
0.425425609291448
40
0.440505692776042
40
0.455585776260635
40
0.470665859745229
40
0.485745943229822
40
0.500826026714415
40
0.515906110199009
40
0.530986193683602
40
0.546066277168195
40
0.561146360652789
40
0.591306527621976
40
0.621466694591162
40
0.651626861560349
40
0.681787028529536
40
0.711947195498723
40
0.742107362467909
40
0.772267529437096
40
0.802427696406283
40
0.862748030344656
40
0.92306836428303
40
0.983388698221404
40
1
40
1
40
1
40
1
41
1
10
15.2219523899048
20
3.67787246382392
30
0
41
1
10
15.2071673283838
20
3.65138690101276
30
0
41
1
10
15.143389724677
20
3.53747173795367
30
0
41
1
10
15.0277541312393
20
3.33660998694219
30
0
41
1
10
14.8603308680991
20
3.07941722934947
30
0
41
1
10
14.6720650972696
20
2.82714693069354
30
0
41
1
10
14.4968380794071
20
2.62179859160685
30
0
41
1
10
14.3447558774351
20
2.45999724616897
30
0
41
1
10
14.2251098886622
20
2.3406154000246
30
0
41
1
10
14.1006070445058
20
2.22390148740101
30
0
41
1
10
13.9720751050901
20
2.1100335622244
30
0
41
1
10
13.861993342424
20
2.01766800798623
30
0
41
1
10
13.7713876080506
20
1.94520674936831
30
0
41
1
10
13.7029672239017
20
1.89105413042546
30
0
41
1
10
13.6351561546495
20
1.8364353508166
30
0
41
1
10
13.5699085372736
20
1.78031244022625
30
0
41
1
10
13.5089071892394
20
1.72178464665973
30
0
41
1
10
13.4521118944732
20
1.66086553190837
30
0
41
1
10
13.3975279622221
20
1.59867668158827
30
0
41
1
10
13.3415362382615
20
1.53734652136279
30
0
41
1
10
13.2816546781905
20
1.47835151035525
30
0
41
1
10
13.196836584049
20
1.40270586168012
30
0
41
1
10
13.0854381847269
20
1.31155564023479
30
0
41
1
10
12.9461674882716
20
1.20713190281742
30
0
41
1
10
12.799677065389
20
1.1105269820853
30
0
41
1
10
12.6492593187841
20
1.02103208084151
30
0
41
1
10
12.4956435794771
20
0.937417998364282
30
0
41
1
10
12.3378680237648
20
0.858964819590994
30
0
41
1
10
12.1773042907377
20
0.785575924530463
30
0
41
1
10
11.9622977009232
20
0.694725250816361
30
0
41
1
10
11.6922881251673
20
0.594456873299663
30
0
41
1
10
11.3653295342372
20
0.49351700729946
30
0
41
1
10
11.1156414708482
20
0.430020350010949
30
0
41
1
10
10.9752092360901
20
0.399463014538327
30
0
41
1
10
10.9448942253072
20
0.393110638898634
30
0
0
SPLINE
5
BD
100
AcDbEntity
8
1
62
256
6
ByLayer
370
18
48
1
60
0
100
AcDbSpline
70
4
71
3
72
81
73
77
40
0
40
0
40
0
40
0
40
0.0322788890780364
40
0.0322788890780364
40
0.0484183336170535
40
0.0484183336170535
40
0.0645577781560705
40
0.0645577781560705
40
0.0968366672341046
40
0.0968366672341046
40
0.129115556312139
40
0.129115556312139
40
0.161394445390173
40
0.161394445390173
40
0.193673334468207
40
0.193673334468207
40
0.209812779007225
40
0.209812779007225
40
0.225952223546243
40
0.225952223546243
40
0.25823111262428
40
0.25823111262428
40
0.290510001702316
40
0.290510001702316
40
0.306649446241333
40
0.306649446241333
40
0.32278889078035
40
0.338928335319367
40
0.338928335319367
40
0.355067779858384
40
0.355067779858384
40
0.387346668936419
40
0.419625558014453
40
0.419625558014453
40
0.451904447092487
40
0.451904447092487
40
0.484183336170521
40
0.484183336170521
40
0.500322780709538
40
0.500322780709538
40
0.516462225248555
40
0.516462225248555
40
0.581020003404621
40
0.581020003404621
40
0.597159447943638
40
0.597159447943638
40
0.613298892482655
40
0.613298892482655
40
0.629438337021672
40
0.629438337021672
40
0.645577781560689
40
0.645577781560689
40
0.710135559716764
40
0.710135559716764
40
0.7424144487948
40
0.7424144487948
40
0.774693337872837
40
0.774693337872837
40
0.790832782411855
40
0.790832782411855
40
0.806972226950873
40
0.839251116028912
40
0.839251116028912
40
0.87153000510695
40
0.87153000510695
40
0.903808894184989
40
0.903808894184989
40
0.919948338724009
40
0.919948338724009
40
0.93608778326303
40
0.93608778326303
40
0.968366672341071
40
0.968366672341071
40
0.98450611688009
40
0.98450611688009
40
1
40
1
40
1
40
1
41
1
10
36.8369017715038
20
-1.44686516677569
30
0
41
1
10
36.6849385303986
20
-1.36871178730894
30
0
41
1
10
36.5332930503038
20
-1.28979039383776
30
0
41
1
10
36.3064186393837
20
-1.1700473381446
30
0
41
1
10
36.2308939154686
20
-1.12990408977259
30
0
41
1
10
36.0800742537546
20
-1.04910578539273
30
0
41
1
10
36.0048026867257
20
-1.00840854005577
30
0
41
1
10
35.7791398143522
20
-0.885895048387482
30
0
41
1
10
35.6287245763689
20
-0.803974514406832
30
0
41
1
10
35.3278502450974
20
-0.63982954070255
30
0
41
1
10
35.1774065538025
20
-0.557577331036896
30
0
41
1
10
34.8765148428502
20
-0.392703306091079
30
0
41
1
10
34.7260601897862
20
-0.310093712305786
30
0
41
1
10
34.4252531636781
20
-0.144310613542928
30
0
41
1
10
34.2749003796284
20
-0.0611380030234727
30
0
41
1
10
34.0496094538101
20
0.0643462120203253
30
0
41
1
10
33.9745763630925
20
0.106339849782955
30
0
41
1
10
33.8244074476109
20
0.190235395454891
30
0
41
1
10
33.7492486743178
20
0.232094897718639
30
0
41
1
10
33.5235337218682
20
0.357378468783992
30
0
41
1
10
33.372745723375
20
0.440519990952197
30
0
41
1
10
33.0705575603684
20
0.606057667090283
30
0
41
1
10
32.9191525666808
20
0.688444801987487
30
0
41
1
10
32.6916149280422
20
0.811521694263234
30
0
41
1
10
32.6156745875568
20
0.852479558286035
30
0
41
1
10
32.4637758869746
20
0.934210364119252
30
0
41
1
10
32.3120803807758
20
1.01563605503506
30
0
41
1
10
32.1608432264441
20
1.09654433598371
30
0
41
1
10
32.0098660699102
20
1.17724377115974
30
0
41
1
10
31.934522206096
20
1.21751405819936
30
0
41
1
10
31.7085045464089
20
1.33733553890158
30
0
41
1
10
31.4072208188885
20
1.4945364966496
30
0
41
1
10
31.1060779573679
20
1.64674997850415
30
0
41
1
10
30.8050148134943
20
1.79652365859064
30
0
41
1
10
30.6545207630074
20
1.8701878604773
30
0
41
1
10
30.3537430551789
20
2.0152877501518
30
0
41
1
10
30.2034594656873
20
2.08672447721347
30
0
41
1
10
29.9783632987395
20
2.19243040027072
30
0
41
1
10
29.9033803966656
20
2.22741327662544
30
0
41
1
10
29.7532440657722
20
2.29646187490155
30
0
41
1
10
29.6781083444294
20
2.33055572000046
30
0
41
1
10
29.3020930717827
20
2.4988883292489
30
0
41
1
10
29.0001805293824
20
2.62670704283542
30
0
41
1
10
28.6215716859242
20
2.77816197620322
30
0
41
1
10
28.5457927920841
20
2.80804079369895
30
0
41
1
10
28.3941395189947
20
2.86699258745563
30
0
41
1
10
28.3182197950599
20
2.89608265435777
30
0
41
1
10
28.166522859257
20
2.95339919944397
30
0
41
1
10
28.0908215646277
20
2.98160431713001
30
0
41
1
10
27.9397186058285
20
3.03710390275557
30
0
41
1
10
27.8642874592065
20
3.06435867535512
30
0
41
1
10
27.4872011386862
20
3.1975290568603
30
0
41
1
10
27.1860836303103
20
3.29461029113978
30
0
41
1
10
26.7352443914061
20
3.42674380564066
30
0
41
1
10
26.5851086036252
20
3.46853889007326
30
0
41
1
10
26.2852690026433
20
3.54776304530532
30
0
41
1
10
26.1355906152767
20
3.5852135855605
30
0
41
1
10
25.9114990791535
20
3.63811792114174
30
0
41
1
10
25.8368229330361
20
3.6551662041698
30
0
41
1
10
25.6873482856469
20
3.68797419576237
30
0
41
1
10
25.4630113634006
20
3.73529935341571
30
0
41
1
10
25.2383025592723
20
3.77702483406136
30
0
41
1
10
24.9383715568369
20
3.82773799051012
30
0
41
1
10
24.7882388864277
20
3.85063137591845
30
0
41
1
10
24.4877327546496
20
3.89152251233853
30
0
41
1
10
24.3373602748194
20
3.90952278507382
30
0
41
1
10
24.1117659220539
20
3.93282126036905
30
0
41
1
10
24.0365776162383
20
3.93997386350452
30
0
41
1
10
23.886139898107
20
3.95300150168347
30
0
41
1
10
23.8108473191355
20
3.95886334504422
30
0
41
1
10
23.5845694686338
20
3.97445012895727
30
0
41
1
10
23.4332470285495
20
3.98219788747122
30
0
41
1
10
23.2055626266974
20
3.98987107840782
30
0
41
1
10
23.1295718184426
20
3.99176819552608
30
0
41
1
10
22.9809011184218
20
3.99419115837287
30
0
41
1
10
22.9081518124469
20
3.99477103371231
30
0
41
1
10
22.8354745144701
20
3.99474942590865
30
0
0
SPLINE
5
BE
100
AcDbEntity
8
1
62
256
6
ByLayer
370
18
48
1
60
0
100
AcDbSpline
70
4
71
3
72
66
73
62
40
0
40
0
40
0
40
0
40
0.0254878351689577
40
0.0254878351689577
40
0.112033995895626
40
0.112033995895626
40
0.198580156622294
40
0.198580156622294
40
0.241853236985629
40
0.241853236985629
40
0.285126317348964
40
0.285126317348964
40
0.3283993977123
40
0.3283993977123
40
0.350035937893967
40
0.350035937893967
40
0.371672478075635
40
0.371672478075635
40
0.393309018257303
40
0.393309018257303
40
0.41494555843897
40
0.41494555843897
40
0.436582098620638
40
0.436582098620638
40
0.458218638802306
40
0.458218638802306
40
0.479855178983973
40
0.479855178983973
40
0.501491719165641
40
0.501491719165641
40
0.523128259347309
40
0.523128259347309
40
0.544764799528976
40
0.544764799528976
40
0.566401339710644
40
0.566401339710644
40
0.588037879892312
40
0.588037879892312
40
0.609674420073979
40
0.609674420073979
40
0.631310960255647
40
0.631310960255647
40
0.67458404061898
40
0.67458404061898
40
0.717857120982313
40
0.717857120982313
40
0.761130201345645
40
0.761130201345645
40
0.804403281708978
40
0.804403281708978
40
0.847676362072311
40
0.847676362072311
40
0.890949442435644
40
0.890949442435644
40
0.934222522798977
40
0.934222522798977
40
0.97749560316231
40
0.97749560316231
40
0.999132143343977
40
0.999132143343977
40
1
40
1
40
1
40
1
41
1
10
12.2966812407378
20
-3.99079406477037
30
0
41
1
10
12.2348632250234
20
-3.9907309214241
30
0
41
1
10
12.1730000665083
20
-3.99028866832978
30
0
41
1
10
11.9008239779333
20
-3.98674169363284
30
0
41
1
10
11.689902645003
20
-3.97978665050823
30
0
41
1
10
11.2658713219457
20
-3.95887409401055
30
0
41
1
10
11.052783465943
20
-3.94490693547041
30
0
41
1
10
10.7307704126957
20
-3.92008409195012
30
0
41
1
10
10.623029679567
20
-3.91117119269745
30
0
41
1
10
10.4066516237834
20
-3.89232183425705
30
0
41
1
10
10.2980177610048
20
-3.88238482965386
30
0
41
1
10
10.0798630724738
20
-3.86168993563726
30
0
41
1
10
9.97035327525359
20
-3.85092380358327
30
0
41
1
10
9.80533199039539
20
-3.83436494613198
30
0
41
1
10
9.75019392331797
20
-3.82878041509733
30
0
41
1
10
9.63962863967475
20
-3.81752818494274
30
0
41
1
10
9.58419820763223
20
-3.81186320284939
30
0
41
1
10
9.47310204321909
20
-3.80043926786414
30
0
41
1
10
9.41743277904749
20
-3.79468389448164
30
0
41
1
10
9.30610099708699
20
-3.78291277884426
30
0
41
1
10
9.25044125022859
20
-3.77689634050358
30
0
41
1
10
9.13962555042491
20
-3.76419407999265
30
0
41
1
10
9.08448120692833
20
-3.75749939299337
30
0
41
1
10
8.97519543350049
20
-3.74295344265065
30
0
41
1
10
8.92106783189024
20
-3.73508863781009
30
0
41
1
10
8.81391828447227
20
-3.71797939896345
30
0
41
1
10
8.76090602591353
20
-3.70872083613099
30
0
41
1
10
8.65533667105709
20
-3.68928089761593
30
0
41
1
10
8.60274392032184
20
-3.67912774240784
30
0
41
1
10
8.49679046269458
20
-3.65905532886472
30
0
41
1
10
8.44339415281974
20
-3.64917703516264
30
0
41
1
10
8.33541264917764
20
-3.63021062063285
30
0
41
1
10
8.28085503306784
20
-3.62109981110871
30
0
41
1
10
8.17097200246511
20
-3.60335947500428
30
0
41
1
10
8.11567255105277
20
-3.59470167602356
30
0
41
1
10
8.00459875025123
20
-3.5776180743029
30
0
41
1
10
7.94881551146142
20
-3.56919977923064
30
0
41
1
10
7.83665414096834
20
-3.5527771749147
30
0
41
1
10
7.78026490050419
20
-3.54478520047738
30
0
41
1
10
7.66673348986364
20
-3.52945864706578
30
0
41
1
10
7.60956955697478
20
-3.52212115344378
30
0
41
1
10
7.43712320227687
20
-3.50117007542386
30
0
41
1
10
7.32194760762494
20
-3.48870787046346
30
0
41
1
10
7.0912754945474
20
-3.46625893396475
30
0
41
1
10
6.97577495505013
20
-3.45630227890206
30
0
41
1
10
6.74446380923095
20
-3.43897993694821
30
0
41
1
10
6.62865291508433
20
-3.43161698285252
30
0
41
1
10
6.39676361792624
20
-3.41924387163209
30
0
41
1
10
6.28068712670998
20
-3.41421500899347
30
0
41
1
10
6.04828468461321
20
-3.40642885903404
30
0
41
1
10
5.93195674149118
20
-3.40368963774273
30
0
41
1
10
5.69903708194357
20
-3.40066105343155
30
0
41
1
10
5.58244483242234
20
-3.40037676651966
30
0
41
1
10
5.34900814875817
20
-3.40215513208972
30
0
41
1
10
5.23216520412851
20
-3.40420370945711
30
0
41
1
10
4.99823963340609
20
-3.41049746552378
30
0
41
1
10
4.8811565826023
20
-3.41474691444654
30
0
41
1
10
4.70534063606456
20
-3.42282205878089
30
0
41
1
10
4.64670330591804
20
-3.42579804028873
30
0
41
1
10
4.58567925850952
20
-3.42919521004021
30
0
41
1
10
4.58332591722592
20
-3.42932668365529
30
0
41
1
10
4.58097257064927
20
-3.42945862234595
30
0
0
SPLINE
5
BF
100
AcDbEntity
8
1
62
256
6
ByLayer
370
18
48
1
60
0
100
AcDbSpline
70
4
71
3
72
44
73
40
40
0
40
0
40
0
40
0
40
0.0190642265088873
40
0.0190642265088873
40
0.0617136079650243
40
0.0617136079650243
40
0.147012370877295
40
0.147012370877295
40
0.232311133789565
40
0.232311133789565
40
0.2749605152457
40
0.2749605152457
40
0.317609896701835
40
0.317609896701835
40
0.402908659614101
40
0.402908659614101
40
0.488207422526367
40
0.488207422526367
40
0.5308568039825
40
0.5308568039825
40
0.573506185438633
40
0.573506185438633
40
0.616155566894766
40
0.616155566894766
40
0.637480257622833
40
0.637480257622833
40
0.658804948350899
40
0.658804948350899
40
0.744103711263169
40
0.744103711263169
40
0.786753092719305
40
0.786753092719305
40
0.808077783447374
40
0.808077783447374
40
0.829402474175444
40
0.829402474175444
40
0.914701237087722
40
0.914701237087722
40
1
40
1
40
1
40
1
41
1
10
28.9143271750974
20
2.65253033392301
30
0
41
1
10
28.9649637940541
20
2.67362431344054
30
0
41
1
10
29.0155777100585
20
2.69455010950071
30
0
41
1
10
29.179166845191
20
2.76165665159203
30
0
41
1
10
29.2918366229725
20
2.8071761050866
30
0
41
1
10
29.6300450434453
20
2.939355449055
30
0
41
1
10
29.8555372260801
20
3.02205519529966
30
0
41
1
10
30.305531767811
20
3.1784021572592
30
0
41
1
10
30.5300408849398
20
3.25201974733963
30
0
41
1
10
30.86584135752
20
3.35578748381513
30
0
41
1
10
30.9776174400638
20
3.38925940951091
30
0
41
1
10
31.2008816114801
20
3.45389995568502
30
0
41
1
10
31.3123178785721
20
3.48510679477957
30
0
41
1
10
31.6474056259776
20
3.57417299907746
30
0
41
1
10
31.8714929540918
20
3.62785996214271
30
0
41
1
10
32.3199990746721
20
3.72497360881601
30
0
41
1
10
32.5444250810346
20
3.76837642023321
30
0
41
1
10
32.8811112018046
20
3.82566769860395
30
0
41
1
10
32.9933518883031
20
3.8434558742712
30
0
41
1
10
33.2178895426706
20
3.87632951688269
30
0
41
1
10
33.3301540714461
20
3.89141940985132
30
0
41
1
10
33.5555522687906
20
3.91851504661503
30
0
41
1
10
33.6685983077303
20
3.93057127022763
30
0
41
1
10
33.8385548010181
20
3.9464928640399
30
0
41
1
10
33.895272404148
20
3.95143865715036
30
0
41
1
10
34.0088275315041
20
3.96061015995059
30
0
41
1
10
34.0656551109426
20
3.96483464130986
30
0
41
1
10
34.3495098634874
20
3.98412367762521
30
0
41
1
10
34.5760894130968
20
3.99375071115892
30
0
41
1
10
34.9149879265873
20
3.99939858913629
30
0
41
1
10
35.0277976114894
20
3.99981065923413
30
0
41
1
10
35.196798511645
20
3.99818446667317
30
0
41
1
10
35.2530888768443
20
3.997267014557
30
0
41
1
10
35.3657274220817
20
3.99468874020272
30
0
41
1
10
35.4220940214978
20
3.99303032321612
30
0
41
1
10
35.704174040178
20
3.98292432269204
30
0
41
1
10
35.9305118164672
20
3.96906253722966
30
0
41
1
10
36.3835137198441
20
3.92982197597882
30
0
41
1
10
36.6101825578426
20
3.90442356117765
30
0
41
1
10
36.8369017715038
20
3.87300793278126
30
0
0
SPLINE
5
C0
100
AcDbEntity
8
1
62
256
6
ByLayer
370
18
48
1
60
0
100
AcDbSpline
70
4
71
3
72
114
73
110
40
0
40
0
40
0
40
0
40
0.0102844517332006
40
0.0102844517332006
40
0.0210422294317529
40
0.0210422294317529
40
0.0318000071303051
40
0.0318000071303051
40
0.0425577848288574
40
0.0425577848288574
40
0.0533155625274097
40
0.0533155625274097
40
0.0963466733216202
40
0.0963466733216202
40
0.117862228718725
40
0.117862228718725
40
0.139377784115831
40
0.139377784115831
40
0.150135561814383
40
0.150135561814383
40
0.160893339512936
40
0.182408894910041
40
0.182408894910041
40
0.203924450307147
40
0.203924450307147
40
0.225440005704252
40
0.225440005704252
40
0.236197783402805
40
0.236197783402805
40
0.246955561101357
40
0.246955561101357
40
0.268471116498461
40
0.268471116498461
40
0.279228894197014
40
0.279228894197014
40
0.289986671895566
40
0.289986671895566
40
0.311502227292671
40
0.311502227292671
40
0.322260004991223
40
0.322260004991223
40
0.333017782689776
40
0.333017782689776
40
0.35453333808688
40
0.35453333808688
40
0.376048893483985
40
0.376048893483985
40
0.397564448881089
40
0.397564448881089
40
0.419080004278194
40
0.419080004278194
40
0.429837781976746
40
0.429837781976746
40
0.440595559675298
40
0.440595559675298
40
0.483626670469507
40
0.483626670469507
40
0.505142225866611
40
0.505142225866611
40
0.515900003565162
40
0.515900003565162
40
0.526657781263714
40
0.526657781263714
40
0.569688892057923
40
0.569688892057923
40
0.591204447455027
40
0.591204447455027
40
0.612720002852132
40
0.612720002852132
40
0.623477780550684
40
0.623477780550684
40
0.634235558249237
40
0.655751113646341
40
0.655751113646341
40
0.677266669043446
40
0.677266669043446
40
0.69878222444055
40
0.69878222444055
40
0.709540002139102
40
0.709540002139102
40
0.720297779837654
40
0.720297779837654
40
0.741813335234757
40
0.741813335234757
40
0.75257111293331
40
0.75257111293331
40
0.763328890631862
40
0.763328890631862
40
0.784844446028966
40
0.784844446028966
40
0.806360001426069
40
0.806360001426069
40
0.817117779124621
40
0.817117779124621
40
0.827875556823173
40
0.827875556823173
40
0.870906667617378
40
0.870906667617378
40
0.892422223014481
40
0.892422223014481
40
0.903180000713033
40
0.903180000713033
40
0.913937778411585
40
0.913937778411585
40
0.956968889205793
40
0.956968889205793
40
0.978484444602896
40
0.978484444602896
40
1
40
1
40
1
40
1
41
1
10
28.9142951138093
20
-2.65985328856448
30
0
41
1
10
28.8420180387236
20
-2.68957440333836
30
0
41
1
10
28.7696835798894
20
-2.71891276050457
30
0
41
1
10
28.6215716859244
20
-2.77816197620316
30
0
41
1
10
28.5457927920843
20
-2.80804079369889
30
0
41
1
10
28.3941395189949
20
-2.86699258745557
30
0
41
1
10
28.3182197950601
20
-2.89608265435771
30
0
41
1
10
28.1665228592571
20
-2.95339919944391
30
0
41
1
10
28.0908215646279
20
-2.98160431712992
30
0
41
1
10
27.9397186058286
20
-3.03710390275552
30
0
41
1
10
27.8642874592066
20
-3.06435867535507
30
0
41
1
10
27.4872011386863
20
-3.19752905686025
30
0
41
1
10
27.1860836303104
20
-3.29461029113972
30
0
41
1
10
26.7352443914062
20
-3.42674380564063
30
0
41
1
10
26.5851086036252
20
-3.46853889007323
30
0
41
1
10
26.2852690026434
20
-3.54776304530529
30
0
41
1
10
26.1355906152768
20
-3.5852135855605
30
0
41
1
10
25.9114990791535
20
-3.63811792114171
30
0
41
1
10
25.8368229330362
20
-3.65516620416977
30
0
41
1
10
25.687348285647
20
-3.68797419576237
30
0
41
1
10
25.4630113634008
20
-3.73529935341571
30
0
41
1
10
25.2383025592724
20
-3.77702483406134
30
0
41
1
10
24.938371556837
20
-3.82773799051009
30
0
41
1
10
24.7882388864278
20
-3.85063137591845
30
0
41
1
10
24.4877327546497
20
-3.89152251233853
30
0
41
1
10
24.3373602748195
20
-3.90952278507379
30
0
41
1
10
24.1117659220541
20
-3.93282126036905
30
0
41
1
10
24.0365776162384
20
-3.93997386350449
30
0
41
1
10
23.886139898107
20
-3.95300150168347
30
0
41
1
10
23.8108473191356
20
-3.95886334504419
30
0
41
1
10
23.5845694686339
20
-3.97445012895727
30
0
41
1
10
23.4332470285497
20
-3.98219788747122
30
0
41
1
10
23.2055626266976
20
-3.98987107840782
30
0
41
1
10
23.1295718184428
20
-3.99176819552608
30
0
41
1
10
22.977867100973
20
-3.99424060531538
30
0
41
1
10
22.9020896501865
20
-3.99481830182145
30
0
41
1
10
22.6749921015525
20
-3.99459417486429
30
0
41
1
10
22.5239057229694
20
-3.99183976376347
30
0
41
1
10
22.2978580875749
20
-3.98380529505971
30
0
41
1
10
22.2226069418615
20
-3.98047557976454
30
0
41
1
10
22.0723297657549
20
-3.97249886068391
30
0
41
1
10
21.9973257187629
20
-3.96784617225617
30
0
41
1
10
21.772484732051
20
-3.95192816966735
30
0
41
1
10
21.6226285376954
20
-3.93875351537778
30
0
41
1
10
21.3228664308739
20
-3.90744564437668
30
0
41
1
10
21.1729802662597
20
-3.88930785882016
30
0
41
1
10
20.8732069559443
20
-3.84813531642675
30
0
41
1
10
20.7233129327416
20
-3.8251055502794
30
0
41
1
10
20.4236248813788
20
-3.7741012231449
30
0
41
1
10
20.2738305407038
20
-3.74612869886192
30
0
41
1
10
20.0493715356704
20
-3.70028379341395
30
0
41
1
10
19.9746149118632
20
-3.68433471927335
30
0
41
1
10
19.8250284946851
20
-3.65122705042319
30
0
41
1
10
19.7501676143468
20
-3.6340928643844
30
0
41
1
10
19.3754585897499
20
-3.54559642857856
30
0
41
1
10
19.0744505648724
20
-3.46576121764716
30
0
41
1
10
18.621193143108
20
-3.33242271792204
30
0
41
1
10
18.4698252553879
20
-3.28569786824906
30
0
41
1
10
18.2424650811823
20
-3.21197658561138
30
0
41
1
10
18.1665708621569
20
-3.18677545947065
30
0
41
1
10
18.0149908242009
20
-3.13519530257577
30
0
41
1
10
17.9393792279917
20
-3.10880846230441
30
0
41
1
10
17.5615841976117
20
-2.97465600262416
30
0
41
1
10
17.2599994928245
20
-2.86051869028634
30
0
41
1
10
16.8085749621613
20
-2.67958045534067
30
0
41
1
10
16.6582571193769
20
-2.61764451794511
30
0
41
1
10
16.3580637601246
20
-2.49035813650531
30
0
41
1
10
16.2081878063092
20
-2.42500927496758
30
0
41
1
10
15.9838745657128
20
-2.32413937170972
30
0
41
1
10
15.9091973302377
20
-2.2900238540613
30
0
41
1
10
15.7597516558098
20
-2.22122725049289
30
0
41
1
10
15.5354737360974
20
-2.1171460819096
30
0
41
1
10
15.3108671358918
20
-2.01044615004685
30
0
41
1
10
15.0111090948481
20
-1.86587457345334
30
0
41
1
10
14.8610827468508
20
-1.7924465936365
30
0
41
1
10
14.5607989640555
20
-1.64320292373242
30
0
41
1
10
14.4105445918971
20
-1.5673833767066
30
0
41
1
10
14.1851250764305
20
-1.45159248669069
30
0
41
1
10
14.1099799505103
20
-1.41264954373946
30
0
41
1
10
13.9597070610412
20
-1.33400854071078
30
0
41
1
10
13.8845725794615
20
-1.29432078296938
30
0
41
1
10
13.6587800026553
20
-1.17485690038311
30
0
41
1
10
13.5078033047677
20
-1.09455971695868
30
0
41
1
10
13.2806708580916
20
-0.973138475800283
30
0
41
1
10
13.2048488555899
20
-0.932501791318572
30
0
41
1
10
13.0529834166199
20
-0.850900008211823
30
0
41
1
10
12.9769500445192
20
-0.809940414772029
30
0
41
1
10
12.7492906486394
20
-0.686977910062865
30
0
41
1
10
12.5978479898116
20
-0.604755328601215
30
0
41
1
10
12.2957560532197
20
-0.439555351404408
30
0
41
1
10
12.1451177263966
20
-0.356557082929157
30
0
41
1
10
11.9199012962899
20
-0.23122595080838
30
0
41
1
10
11.8449176194447
20
-0.189376427177706
30
0
41
1
10
11.6949173629037
20
-0.105925112696696
30
0
41
1
10
11.6199221734491
20
-0.0642829248647274
30
0
41
1
10
11.2449693250765
20
0.143514091079339
30
0
41
1
10
10.9450484201896
20
0.308373303155776
30
0
41
1
10
10.4954372848007
20
0.554030360994915
30
0
41
1
10
10.3456253161123
20
0.635667701000671
30
0
41
1
10
10.1211401449605
20
0.758007577240733
30
0
41
1
10
10.046360377317
20
0.798785812926923
30
0
41
1
10
9.89686772568174
20
0.880280789673009
30
0
41
1
10
9.82211669495561
20
0.920928285803711
30
0
41
1
10
9.44791867791886
20
1.12291025224366
30
0
41
1
10
9.14745025670905
20
1.28104113131244
30
0
41
1
10
8.69515660620016
20
1.51321049162675
30
0
41
1
10
8.54413257987633
20
1.58977178193385
30
0
41
1
10
8.24170751765649
20
1.74147291405328
30
0
41
1
10
8.09030755393175
20
1.81661488173845
30
0
41
1
10
7.93881360870631
20
1.89119395880141
30
0
0
SPLINE
5
C1
100
AcDbEntity
8
1
62
256
6
ByLayer
370
18
48
1
60
0
100
AcDbSpline
70
4
71
3
72
76
73
72
40
0
40
0
40
0
40
0
40
0.061506286495437
40
0.061506286495437
40
0.123012572990874
40
0.123012572990874
40
0.184518859486311
40
0.184518859486311
40
0.246025145981748
40
0.246025145981748
40
0.276778289229467
40
0.276778289229467
40
0.307531432477185
40
0.307531432477185
40
0.369037718972621
40
0.369037718972621
40
0.430544005468056
40
0.430544005468056
40
0.461297148715775
40
0.461297148715775
40
0.492050291963493
40
0.492050291963493
40
0.522803435211212
40
0.522803435211212
40
0.538180006835072
40
0.538180006835072
40
0.553556578458932
40
0.553556578458932
40
0.568933150082792
40
0.568933150082792
40
0.584309721706652
40
0.584309721706652
40
0.599686293330512
40
0.599686293330512
40
0.615062864954372
40
0.615062864954372
40
0.630439436578233
40
0.630439436578233
40
0.645816008202093
40
0.645816008202093
40
0.661192579825953
40
0.661192579825953
40
0.676569151449813
40
0.676569151449813
40
0.691945723073673
40
0.691945723073673
40
0.707322294697533
40
0.707322294697533
40
0.722698866321393
40
0.722698866321393
40
0.738075437945254
40
0.738075437945254
40
0.768828581192974
40
0.768828581192974
40
0.799581724440694
40
0.799581724440694
40
0.830334867688414
40
0.830334867688414
40
0.861088010936135
40
0.861088010936135
40
0.891841154183855
40
0.891841154183855
40
0.922594297431575
40
0.922594297431575
40
0.953347440679295
40
0.953347440679295
40
0.984100583927016
40
0.984100583927016
40
0.999477155550875
40
0.999477155550875
40
1
40
1
40
1
40
1
41
1
10
15.2219058527882
20
3.6778712685186
30
0
41
1
10
15.0158087681437
20
3.7230904223162
30
0
41
1
10
14.8097770221655
20
3.76330617381342
30
0
41
1
10
14.3976321782575
20
3.8339321602779
30
0
41
1
10
14.1915219733927
20
3.86433639753923
30
0
41
1
10
13.7787429504545
20
3.91535693443723
30
0
41
1
10
13.5720709694076
20
3.93596449603464
30
0
41
1
10
13.1574024126313
20
3.96745946622454
30
0
41
1
10
12.949402629781
20
3.97834122957119
30
0
41
1
10
12.6357136792718
20
3.98763708940893
30
0
41
1
10
12.5308851878227
20
3.98956457546399
30
0
41
1
10
12.3211708164248
20
3.99117055230772
30
0
41
1
10
12.2162076521402
20
3.9908517457616
30
0
41
1
10
11.9008239779331
20
3.98674169363284
30
0
41
1
10
11.6899026450028
20
3.9797866505082
30
0
41
1
10
11.2658713219456
20
3.95887409401052
30
0
41
1
10
11.0527834659429
20
3.94490693547041
30
0
41
1
10
10.7307704126956
20
3.92008409195012
30
0
41
1
10
10.6230296795669
20
3.91117119269745
30
0
41
1
10
10.4066516237832
20
3.89232183425702
30
0
41
1
10
10.2980177610046
20
3.88238482965386
30
0
41
1
10
10.0798630724737
20
3.86168993563726
30
0
41
1
10
9.97035327525342
20
3.85092380358327
30
0
41
1
10
9.80533199039516
20
3.83436494613196
30
0
41
1
10
9.75019392331774
20
3.8287804150973
30
0
41
1
10
9.63962863967456
20
3.81752818494272
30
0
41
1
10
9.584198207632
20
3.81186320284937
30
0
41
1
10
9.47310204321886
20
3.80043926786411
30
0
41
1
10
9.41743277904726
20
3.79468389448161
30
0
41
1
10
9.30610099708676
20
3.78291277884423
30
0
41
1
10
9.25044125022836
20
3.77689634050355
30
0
41
1
10
9.13962555042468
20
3.76419407999262
30
0
41
1
10
9.08448120692807
20
3.75749939299334
30
0
41
1
10
8.97519543350026
20
3.74295344265062
30
0
41
1
10
8.92106783188999
20
3.73508863781006
30
0
41
1
10
8.81391828447201
20
3.71797939896342
30
0
41
1
10
8.76090602591327
20
3.70872083613096
30
0
41
1
10
8.6553366710568
20
3.68928089761587
30
0
41
1
10
8.60274392032156
20
3.67912774240779
30
0
41
1
10
8.49679046269429
20
3.6590553288647
30
0
41
1
10
8.44339415281942
20
3.64917703516258
30
0
41
1
10
8.33541264917736
20
3.63021062063279
30
0
41
1
10
8.28085503306758
20
3.62109981110868
30
0
41
1
10
8.17097200246482
20
3.60335947500425
30
0
41
1
10
8.11567255105248
20
3.5947016760235
30
0
41
1
10
8.00459875025098
20
3.57761807430288
30
0
41
1
10
7.94881551146114
20
3.56919977923059
30
0
41
1
10
7.83665414096805
20
3.55277717491467
30
0
41
1
10
7.78026490050391
20
3.54478520047735
30
0
41
1
10
7.66673348986336
20
3.52945864706575
30
0
41
1
10
7.60956955697444
20
3.52212115344375
30
0
41
1
10
7.43712320227652
20
3.50117007542383
30
0
41
1
10
7.32194760762462
20
3.48870787046343
30
0
41
1
10
7.09127549454703
20
3.46625893396472
30
0
41
1
10
6.97577495504976
20
3.45630227890203
30
0
41
1
10
6.74446380923055
20
3.43897993694821
30
0
41
1
10
6.62865291508399
20
3.43161698285252
30
0
41
1
10
6.3967636179259
20
3.41924387163206
30
0
41
1
10
6.28068712670961
20
3.41421500899344
30
0
41
1
10
6.04828468461281
20
3.40642885903404
30
0
41
1
10
5.93195674149081
20
3.40368963774273
30
0
41
1
10
5.69903708194317
20
3.40066105343155
30
0
41
1
10
5.58244483242197
20
3.40037676651966
30
0
41
1
10
5.34900814875778
20
3.40215513208972
30
0
41
1
10
5.23216520412808
20
3.40420370945711
30
0
41
1
10
4.99823963340569
20
3.41049746552378
30
0
41
1
10
4.88115658260193
20
3.41474691444657
30
0
41
1
10
4.70534063606417
20
3.42282205878092
30
0
41
1
10
4.64670330591761
20
3.42579804028875
30
0
41
1
10
4.58603762089413
20
3.4291752602351
30
0
41
1
10
4.58404264700204
20
3.42928665303958
30
0
41
1
10
4.5820476679383
20
3.42939838011884
30
0
0
SPLINE
5
C2
100
AcDbEntity
8
1
62
256
6
ByLayer
370
18
48
1
60
0
100
AcDbSpline
70
4
71
3
72
39
73
35
40
0
40
0
40
0
40
0
40
0.0480008533202255
40
0.0480008533202255
40
0.0730534624433779
40
0.0730534624433779
40
0.0981060715665302
40
0.0981060715665302
40
0.148211289812833
40
0.148211289812833
40
0.198316508059135
40
0.198316508059135
40
0.248421726305438
40
0.248421726305438
40
0.29852694455174
40
0.29852694455174
40
0.398737381044345
40
0.398737381044345
40
0.423789990167497
40
0.423789990167497
40
0.448842599290649
40
0.498947817536954
40
0.498947817536954
40
0.599158254029564
40
0.599158254029564
40
0.699368690522174
40
0.699368690522174
40
0.799579127014783
40
0.799579127014783
40
0.849684345261088
40
0.849684345261088
40
0.899789563507393
40
0.899789563507393
40
1
40
1
40
1
40
1
41
1
10
2.50126610363654
20
3.98712406791319
30
0
41
1
10
2.57719574343628
20
3.98715629470982
30
0
41
1
10
2.65207710601197
20
3.98459695151632
30
0
41
1
10
2.76559012156142
20
3.97659400135891
30
0
41
1
10
2.80445018997111
20
3.9731175202308
30
0
41
1
10
2.88222243176199
20
3.96469848874699
30
0
41
1
10
2.92115987171175
20
3.9597510307631
30
0
41
1
10
3.03782757415897
20
3.94279382513167
30
0
41
1
10
3.11553937431026
20
3.92865630685284
30
0
41
1
10
3.27176971606772
20
3.89510877930172
30
0
41
1
10
3.35028719465518
20
3.87570095603195
30
0
41
1
10
3.50884501070195
20
3.83209258087109
30
0
41
1
10
3.5888838534043
20
3.80789310597217
30
0
41
1
10
3.75104287062726
20
3.75521852067743
30
0
41
1
10
3.83316410668806
20
3.72674511836351
30
0
41
1
10
4.08325147108928
20
3.63568367688478
30
0
41
1
10
4.25498101261246
20
3.56747688930778
30
0
41
1
10
4.47688457873105
20
3.47509896949688
30
0
41
1
10
4.52165596359885
20
3.45625212881299
30
0
41
1
10
4.61178741758673
20
3.41795241077978
30
0
41
1
10
4.74754294272066
20
3.35973089294373
30
0
41
1
10
4.88500257537871
20
3.2994482188584
30
0
41
1
10
5.16218846420657
20
3.17666803984287
30
0
41
1
10
5.35000891637503
20
3.09189462482433
30
0
41
1
10
5.73118162407417
20
2.91827011646089
30
0
41
1
10
5.92452074390721
20
2.82939868173517
30
0
41
1
10
6.31612478045625
20
2.64855277384447
30
0
41
1
10
6.51439135613444
20
2.55657462449156
30
0
41
1
10
6.81509693071115
20
2.41671071838203
30
0
41
1
10
6.91588330444307
20
2.36977017727028
30
0
41
1
10
7.11849693921786
20
2.27529104904593
30
0
41
1
10
7.22038933249695
20
2.22772183975539
30
0
41
1
10
7.52685763622608
20
2.08447297275643
30
0
41
1
10
7.73232624096892
20
1.98821212341906
30
0
41
1
10
7.93878786293973
20
1.89118530794769
30
0
0
SPLINE
5
C3
100
AcDbEntity
8
1
62
256
6
ByLayer
370
18
48
1
60
0
100
AcDbSpline
70
4
71
3
72
106
73
102
40
0
40
0
40
0
40
0
40
0.0341209581641726
40
0.0341209581641726
40
0.0511814372462589
40
0.0511814372462589
40
0.0682419163283451
40
0.0682419163283451
40
0.0853023954104314
40
0.0853023954104314
40
0.093832634951475
40
0.093832634951475
40
0.102362874492519
40
0.102362874492519
40
0.119423353574605
40
0.119423353574605
40
0.136483832656691
40
0.136483832656691
40
0.170604790820864
40
0.170604790820864
40
0.18766526990295
40
0.18766526990295
40
0.196195509443993
40
0.196195509443993
40
0.204725748985036
40
0.204725748985036
40
0.23884670714921
40
0.23884670714921
40
0.272967665313383
40
0.272967665313383
40
0.29002814439547
40
0.29002814439547
40
0.298558383936513
40
0.298558383936513
40
0.307088623477557
40
0.307088623477557
40
0.341209581641732
40
0.341209581641732
40
0.375330539805907
40
0.375330539805907
40
0.392391018887995
40
0.392391018887995
40
0.400921258429038
40
0.400921258429038
40
0.409451497970082
40
0.409451497970082
40
0.426511977052168
40
0.426511977052168
40
0.443572456134254
40
0.443572456134254
40
0.477693414298424
40
0.477693414298424
40
0.494753893380509
40
0.494753893380509
40
0.503284132921552
40
0.503284132921552
40
0.511814372462594
40
0.511814372462594
40
0.545935330626763
40
0.545935330626763
40
0.580056288790931
40
0.580056288790931
40
0.597116767873016
40
0.597116767873016
40
0.605647007414058
40
0.605647007414058
40
0.614177246955101
40
0.614177246955101
40
0.648298205119273
40
0.648298205119273
40
0.682419163283445
40
0.682419163283445
40
0.699479642365531
40
0.699479642365531
40
0.716540121447618
40
0.716540121447618
40
0.750661079611793
40
0.750661079611793
40
0.784782037775968
40
0.784782037775968
40
0.801842516858056
40
0.801842516858056
40
0.818902995940143
40
0.818902995940143
40
0.85302395410432
40
0.85302395410432
40
0.887144912268496
40
0.887144912268496
40
0.904205391350585
40
0.904205391350585
40
0.921265870432673
40
0.921265870432673
40
0.938326349514761
40
0.938326349514761
40
0.946856589055805
40
0.946856589055805
40
0.955386828596848
40
0.955386828596848
40
0.98950778676102
40
0.98950778676102
40
1
40
1
40
1
40
1
41
1
10
15.2219559863421
20
3.67787890638672
30
0
41
1
10
15.4480942672495
20
3.62852499026567
30
0
41
1
10
15.6745331287307
20
3.57442219148069
30
0
41
1
10
16.0139596403846
20
3.48605728111991
30
0
41
1
10
16.1270612222679
20
3.45539229649171
30
0
41
1
10
16.3530601625009
20
3.39154299030633
30
0
41
1
10
16.4659598524649
20
3.35835974746323
30
0
41
1
10
16.6915323057184
20
3.28943218137755
30
0
41
1
10
16.8042009129747
20
3.25368326659788
30
0
41
1
10
16.9730324099361
20
3.19811037232245
30
0
41
1
10
17.0292817759029
20
3.17926186427431
30
0
41
1
10
17.1417287178266
20
3.14091507563384
30
0
41
1
10
17.1979165065408
20
3.12140523912069
30
0
41
1
10
17.366541352903
20
3.06205369887201
30
0
41
1
10
17.4791665170653
20
3.02153911167477
30
0
41
1
10
17.7048104876544
20
2.93865239265438
30
0
41
1
10
17.8177981339198
20
2.89624337600361
30
0
41
1
10
18.1570712344475
20
2.76591626839885
30
0
41
1
10
18.3836467110416
20
2.67488474386312
30
0
41
1
10
18.7237819064864
20
2.53151189664695
30
0
41
1
10
18.8373003592205
20
2.4825400943034
30
0
41
1
10
19.0069751662104
20
2.40765684955105
30
0
41
1
10
19.0634563062107
20
2.38244980141221
30
0
41
1
10
19.1762676076601
20
2.33154759022648
30
0
41
1
10
19.2325911615132
20
2.30584177558939
30
0
41
1
10
19.5141544805827
20
2.17659943561318
30
0
41
1
10
19.7395613613174
20
2.07146481554531
30
0
41
1
10
20.1896068865383
20
1.85619893064492
30
0
41
1
10
20.4142432096361
20
1.7460562009102
30
0
41
1
10
20.7503150233165
20
1.57656049071665
30
0
41
1
10
20.8621932348686
20
1.51934889439724
30
0
41
1
10
21.0298037603699
20
1.43247113544712
30
0
41
1
10
21.0856398294215
20
1.4033357350132
30
0
41
1
10
21.1972473401175
20
1.34471661590695
30
0
41
1
10
21.2530174248317
20
1.31523020518156
30
0
41
1
10
21.5320776897007
20
1.16757243356361
30
0
41
1
10
21.7561719952494
20
1.04904891514207
30
0
41
1
10
22.2048694093497
20
0.809244256920152
30
0
41
1
10
22.4294817944864
20
0.687972604639498
30
0
41
1
10
22.7665158370347
20
0.503432133386298
30
0
41
1
10
22.8788814125346
20
0.441481097972854
30
0
41
1
10
23.047479560985
20
0.347914622861623
30
0
41
1
10
23.1036868267715
20
0.316618312051844
30
0
41
1
10
23.2161260615334
20
0.253824184298793
30
0
41
1
10
23.2723604681441
20
0.222330619632856
30
0
41
1
10
23.4413459794418
20
0.128014545100797
30
0
41
1
10
23.5543891545597
20
0.0653780779304611
30
0
41
1
10
23.7810684306232
20
-0.0597407419809315
30
0
41
1
10
23.8948019327161
20
-0.122291613866594
30
0
41
1
10
24.2351165854591
20
-0.30915287803947
30
0
41
1
10
24.4612246254039
20
-0.432982093020087
30
0
41
1
10
24.7989690521594
20
-0.618121131029426
30
0
41
1
10
24.911315245539
20
-0.679729451963055
30
0
41
1
10
25.0794982152171
20
-0.771944533726327
30
0
41
1
10
25.1354996379157
20
-0.802656379329989
30
0
41
1
10
25.2474113546514
20
-0.863973864729871
30
0
41
1
10
25.3033296121469
20
-0.894564602164365
30
0
41
1
10
25.5831194460872
20
-1.04648208141631
30
0
41
1
10
25.8073920089857
20
-1.16507625416099
30
0
41
1
10
26.2556973074759
20
-1.39855368597639
30
0
41
1
10
26.4797397725342
20
-1.51341141278812
30
0
41
1
10
26.8153811797186
20
-1.68326419396823
30
0
41
1
10
26.9271927931955
20
-1.73947171491582
30
0
41
1
10
27.0948272211517
20
-1.8231175136923
30
0
41
1
10
27.150686435534
20
-1.85089683961522
30
0
41
1
10
27.2624076281515
20
-1.90618055020306
30
0
41
1
10
27.3182801634
20
-1.93366734512406
30
0
41
1
10
27.5980650612891
20
-2.06974012648072
30
0
41
1
10
27.8229973539974
20
-2.17466558771878
30
0
41
1
10
28.2739426332105
20
-2.37854091299846
30
0
41
1
10
28.4999658612365
20
-2.47746679648267
30
0
41
1
10
28.8396098889689
20
-2.62154856041809
30
0
41
1
10
28.9530586769469
20
-2.668903931204
30
0
41
1
10
29.1791668451907
20
-2.76165665159198
30
0
41
1
10
29.2918366229723
20
-2.80717610508651
30
0
41
1
10
29.6300450434452
20
-2.93935544905497
30
0
41
1
10
29.85553722608
20
-3.02205519529966
30
0
41
1
10
30.305531767811
20
-3.1784021572592
30
0
41
1
10
30.5300408849398
20
-3.25201974733966
30
0
41
1
10
30.86584135752
20
-3.35578748381516
30
0
41
1
10
30.9776174400639
20
-3.38925940951094
30
0
41
1
10
31.2008816114802
20
-3.45389995568505
30
0
41
1
10
31.3123178785722
20
-3.4851067947796
30
0
41
1
10
31.6474056259777
20
-3.57417299907749
30
0
41
1
10
31.8714929540919
20
-3.62785996214274
30
0
41
1
10
32.3199990746723
20
-3.72497360881601
30
0
41
1
10
32.5444250810347
20
-3.76837642023321
30
0
41
1
10
32.8811112018046
20
-3.82566769860395
30
0
41
1
10
32.9933518883031
20
-3.8434558742712
30
0
41
1
10
33.2178895426705
20
-3.87632951688269
30
0
41
1
10
33.330154071446
20
-3.89141940985132
30
0
41
1
10
33.5555522687905
20
-3.918515046615
30
0
41
1
10
33.6685983077302
20
-3.93057127022763
30
0
41
1
10
33.8385548010179
20
-3.9464928640399
30
0
41
1
10
33.8952724041477
20
-3.95143865715036
30
0
41
1
10
34.0088275315038
20
-3.96061015995059
30
0
41
1
10
34.0656551109423
20
-3.96483464130984
30
0
41
1
10
34.3495098634872
20
-3.98412367762518
30
0
41
1
10
34.5760894130966
20
-3.99375071115892
30
0
41
1
10
34.8714960738725
20
-3.99867378018209
30
0
41
1
10
34.9409112050953
20
-3.99927539424473
30
0
41
1
10
35.0102704214741
20
-3.99931484062182
30
0
0
SPLINE
5
C4
100
AcDbEntity
8
1
62
256
6
ByLayer
370
18
48
1
60
0
100
AcDbSpline
70
4
71
3
72
18
73
14
40
0
40
0
40
0
40
0
40
0.0339391361173005
40
0.0990585532776653
40
0.178727497373807
40
0.254227420492745
40
0.321844192376485
40
0.382810320434786
40
0.445980259153722
40
0.541580628128318
40
0.673573235732325
40
0.843139037598145
40
1
40
1
40
1
40
1
41
1
10
34.5404023496293
20
-0.127927433260339
30
0
41
1
10
34.5429420769066
20
-0.120101211398435
30
0
41
1
10
34.5395735917341
20
-0.0907915897041676
30
0
41
1
10
34.4882129181891
20
-0.0183279200711581
30
0
41
1
10
34.3418717168769
20
0.0675836380585224
30
0
41
1
10
34.1644780613813
20
0.156219566434686
30
0
41
1
10
33.9714091112137
20
0.243393316003306
30
0
41
1
10
33.7680586145928
20
0.334239975888693
30
0
41
1
10
33.5185956240183
20
0.447633574414112
30
0
41
1
10
33.1936885843644
20
0.59829180064358
30
0
41
1
10
32.7477121768223
20
0.810781910463191
30
0
41
1
10
32.2334087672635
20
1.064930309516
30
0
41
1
10
31.8676822104316
20
1.25408016060928
30
0
41
1
10
31.6920393612685
20
1.34675752182005
30
0
0
SPLINE
5
C5
100
AcDbEntity
8
1
62
256
6
ByLayer
370
18
48
1
60
0
100
AcDbSpline
70
4
71
3
72
15
73
11
40
0
40
0
40
0
40
0
40
0.0225808604631694
40
0.121546083210987
40
0.207321849266967
40
0.290049769755489
40
0.379494871484673
40
0.543579889386392
40
0.772065463419574
40
1
40
1
40
1
40
1
41
1
10
11.4347425318435
20
0.0867599176554847
30
0
41
1
10
11.4370128490718
20
0.0929523999125763
30
0
41
1
10
11.4453300383367
20
0.126135507865143
30
0
41
1
10
11.4125547670411
20
0.176788951236432
30
0
41
1
10
11.2730959949427
20
0.253674261632142
30
0
41
1
10
11.0621585955746
20
0.348636088178779
30
0
41
1
10
10.7380598846821
20
0.496169185053446
30
0
41
1
10
10.2811531071208
20
0.712188487112797
30
0
41
1
10
9.69353726931561
20
1.00143249974792
30
0
41
1
10
9.26154846659369
20
1.22210274177053
30
0
41
1
10
9.04589487851874
20
1.33441384268718
30
0
0
SPLINE
5
C6
100
AcDbEntity
8
1
62
256
6
ByLayer
370
18
48
1
60
0
100
AcDbSpline
70
4
71
3
72
9
73
5
40
0
40
0
40
0
40
0
40
0.324894036969762
40
1
40
1
40
1
40
1
41
1
10
23.9153211308911
20
-0.138965364996977
30
0
41
1
10
23.9161074810871
20
-0.138524375080436
30
0
41
1
10
23.9293756047518
20
-0.142608819543739
30
0
41
1
10
23.9505079233766
20
-0.152826556225051
30
0
41
1
10
23.9664551358754
20
-0.161080759588287
30
0
0
SPLINE
5
C7
100
AcDbEntity
8
1
62
256
6
ByLayer
370
18
48
1
60
0
100
AcDbSpline
70
4
71
3
72
8
73
4
40
0
40
0
40
0
40
0
40
1
40
1
40
1
40
1
41
1
10
24.0324546022135
20
-0.19721447553431
30
0
41
1
10
24.0391925433197
20
-0.201078740927215
30
0
41
1
10
24.0461411537149
20
-0.205112314574137
30
0
41
1
10
24.0533232891734
20
-0.209332476589708
30
0
0
LINE
5
7D
100
AcDbEntity
8
4
62
256
6
ByLayer
370
18
48
0.05
60
0
100
AcDbLine
10
-5
20
0
30
0
11
44
21
0
31
0
39
0
210
0
220
0
230
1
0
LINE
5
7F
100
AcDbEntity
8
81
62
256
6
ByLayer
370
18
48
1
60
0
100
AcDbLine
10
39
20
0
30
0
11
44
21
0
31
0
39
0
210
0
220
0
230
1
0
LINE
5
80
100
AcDbEntity
8
SK4
62
256
6
ByLayer
370
18
48
0.05
60
0
100
AcDbLine
10
-45
20
0
30
0
11
44
21
0
31
0
39
0
210
0
220
0
230
1
0
LINE
5
82
100
AcDbEntity
8
80
62
256
6
ByLayer
370
18
48
1
60
0
100
AcDbLine
10
0
20
0
30
0
11
-5
21
0
31
0
39
0
210
0
220
0
230
1
0
LINE
5
83
100
AcDbEntity
8
1
62
256
6
ByLayer
370
18
48
1
60
0
100
AcDbLine
10
0
20
4
30
0
11
0
21
-4
31
0
39
0
210
0
220
0
230
1
0
LINE
5
84
100
AcDbEntity
8
1
62
256
6
ByLayer
370
18
48
1
60
0
100
AcDbLine
10
36.836902
20
-4
30
0
11
36.836902
21
-1.446865
31
0
39
0
210
0
220
0
230
1
0
LINE
5
85
100
AcDbEntity
8
1
62
256
6
ByLayer
370
18
48
1
60
0
100
AcDbLine
10
36.836902
20
4
30
0
11
36.836902
21
3.873008
31
0
39
0
210
0
220
0
230
1
0
LINE
5
86
100
AcDbEntity
8
1
62
256
6
ByLayer
370
18
48
1
60
0
100
AcDbLine
10
0.4
20
-3.986336
30
0
11
0.4
21
3.986336
31
0
39
0
210
0
220
0
230
1
0
LINE
5
87
100
AcDbEntity
8
SK1
62
256
6
ByLayer
370
18
48
1
60
0
100
AcDbLine
10
0
20
4
30
0
11
0
21
-4
31
0
39
0
210
0
220
0
230
1
0
LINE
5
89
100
AcDbEntity
8
SK1
62
256
6
ByLayer
370
18
48
1
60
0
100
AcDbLine
10
-40
20
-3.25
30
0
11
-40
21
3.25
31
0
39
0
210
0
220
0
230
1
0
LINE
5
8A
100
AcDbEntity
8
SK1
62
256
6
ByLayer
370
18
48
1
60
0
100
AcDbLine
10
-39.25
20
-4
30
0
11
-39.25
21
4
31
0
39
0
210
0
220
0
230
1
0
LINE
5
8B
100
AcDbEntity
8
1
62
256
6
ByLayer
370
18
48
1
60
0
100
AcDbLine
10
0.4
20
3.986336
30
0
11
0
21
4
31
0
39
0
210
0
220
0
230
1
0
LINE
5
8C
100
AcDbEntity
8
1
62
256
6
ByLayer
370
18
48
1
60
0
100
AcDbLine
10
0
20
-4
30
0
11
0.4
21
-3.986336
31
0
39
0
210
0
220
0
230
1
0
LINE
5
8D
100
AcDbEntity
8
1
62
256
6
ByLayer
370
18
48
1
60
0
100
AcDbLine
10
39
20
0
30
0
11
36.836902
21
4
31
0
39
0
210
0
220
0
230
1
0
LINE
5
8E
100
AcDbEntity
8
1
62
256
6
ByLayer
370
18
48
1
60
0
100
AcDbLine
10
36.836902
20
-4
30
0
11
39
21
0
31
0
39
0
210
0
220
0
230
1
0
LINE
5
8F
100
AcDbEntity
8
1
62
256
6
ByLayer
370
18
48
1
60
0
100
AcDbLine
10
0.4
20
-3.986336
30
0
11
2.501437
21
-3.987124
31
0
39
0
210
0
220
0
230
1
0
LINE
5
90
100
AcDbEntity
8
1
62
256
6
ByLayer
370
18
48
1
60
0
100
AcDbLine
10
12.294136
20
-3.990796
30
0
11
22.835646
21
-3.99475
31
0
39
0
210
0
220
0
230
1
0
LINE
5
91
100
AcDbEntity
8
1
62
256
6
ByLayer
370
18
48
1
60
0
100
AcDbLine
10
35.009568
20
-3.999315
30
0
11
36.836902
21
-4
31
0
39
0
210
0
220
0
230
1
0
LINE
5
92
100
AcDbEntity
8
1
62
256
6
ByLayer
370
18
48
1
60
0
100
AcDbLine
10
36.836902
20
4
30
0
11
35.009568
21
3.999315
31
0
39
0
210
0
220
0
230
1
0
LINE
5
93
100
AcDbEntity
8
1
62
256
6
ByLayer
370
18
48
1
60
0
100
AcDbLine
10
22.835646
20
3.99475
30
0
11
12.294136
21
3.990796
31
0
39
0
210
0
220
0
230
1
0
LINE
5
94
100
AcDbEntity
8
1
62
256
6
ByLayer
370
18
48
1
60
0
100
AcDbLine
10
2.501437
20
3.987124
30
0
11
0.4
21
3.986336
31
0
39
0
210
0
220
0
230
1
0
LINE
5
95
100
AcDbEntity
8
SK1
62
256
6
ByLayer
370
18
48
1
60
0
100
AcDbLine
10
-39.25
20
-4
30
0
11
0
21
-4
31
0
39
0
210
0
220
0
230
1
0
LINE
5
96
100
AcDbEntity
8
SK1
62
256
6
ByLayer
370
18
48
1
60
0
100
AcDbLine
10
0
20
4
30
0
11
-39.25
21
4
31
0
39
0
210
0
220
0
230
1
0
LINE
5
97
100
AcDbEntity
8
SK1
62
256
6
ByLayer
370
18
48
1
60
0
100
AcDbLine
10
-40
20
-3.25
30
0
11
-39.25
21
-4
31
0
39
0
210
0
220
0
230
1
0
LINE
5
98
100
AcDbEntity
8
SK1
62
256
6
ByLayer
370
18
48
1
60
0
100
AcDbLine
10
-39.25
20
4
30
0
11
-40
21
3.25
31
0
39
0
210
0
220
0
230
1
0
LINE
5
99
100
AcDbEntity
8
SK2
62
256
6
ByLayer
370
13
48
1
60
0
100
AcDbLine
10
-46.5
20
-4
30
0
11
-46.5
21
30.782741
31
0
39
0
210
0
220
0
230
1
0
LINE
5
9B
100
AcDbEntity
8
SK2
62
256
6
ByLayer
370
13
48
1
60
0
100
AcDbLine
10
-41.5875
20
4
30
0
11
-48.5
21
4
31
0
39
0
210
0
220
0
230
1
0
LINE
5
9C
100
AcDbEntity
8
SK2
62
256
6
ByLayer
370
13
48
1
60
0
100
AcDbLine
10
-41.5875
20
-4
30
0
11
-48.5
21
-4
31
0
39
0
210
0
220
0
230
1
0
LINE
5
9D
100
AcDbEntity
8
1
62
256
6
ByLayer
370
18
48
1
60
1
100
AcDbLine
10
-46.5
20
4
30
0
11
-46.039216
21
0.500002
31
0
39
0
210
0
220
0
230
1
0
LINE
5
9E
100
AcDbEntity
8
1
62
256
6
ByLayer
370
18
48
1
60
1
100
AcDbLine
10
-46.039216
20
0.500002
30
0
11
-46.960784
21
0.499998
31
0
39
0
210
0
220
0
230
1
0
LINE
5
9F
100
AcDbEntity
8
1
62
256
6
ByLayer
370
18
48
1
60
1
100
AcDbLine
10
-46.960784
20
0.499998
30
0
11
-46.5
21
4
31
0
39
0
210
0
220
0
230
1
0
LINE
5
A0
100
AcDbEntity
8
1
62
256
6
ByLayer
370
18
48
1
60
1
100
AcDbLine
10
-46.5
20
-4
30
0
11
-46.960784
21
-0.500002
31
0
39
0
210
0
220
0
230
1
0
LINE
5
A1
100
AcDbEntity
8
1
62
256
6
ByLayer
370
18
48
1
60
1
100
AcDbLine
10
-46.960784
20
-0.500002
30
0
11
-46.039216
21
-0.499998
31
0
39
0
210
0
220
0
230
1
0
LINE
5
A2
100
AcDbEntity
8
1
62
256
6
ByLayer
370
18
48
1
60
1
100
AcDbLine
10
-46.039216
20
-0.499998
30
0
11
-46.5
21
-4
31
0
39
0
210
0
220
0
230
1
0
LINE
5
A3
100
AcDbEntity
8
2
62
256
6
ByLayer
370
13
48
1
60
0
100
AcDbLine
10
46.336902
20
-4
30
0
11
46.336902
21
30.782741
31
0
39
0
210
0
220
0
230
1
0
LINE
5
A5
100
AcDbEntity
8
2
62
256
6
ByLayer
370
13
48
1
60
0
100
AcDbLine
10
38.424402
20
4
30
0
11
48.336902
21
4
31
0
39
0
210
0
220
0
230
1
0
LINE
5
A6
100
AcDbEntity
8
2
62
256
6
ByLayer
370
13
48
1
60
0
100
AcDbLine
10
38.424402
20
-4
30
0
11
48.336902
21
-4
31
0
39
0
210
0
220
0
230
1
0
LINE
5
A7
100
AcDbEntity
8
1
62
256
6
ByLayer
370
18
48
1
60
1
100
AcDbLine
10
46.336902
20
4
30
0
11
46.797686
21
0.500002
31
0
39
0
210
0
220
0
230
1
0
LINE
5
A8
100
AcDbEntity
8
1
62
256
6
ByLayer
370
18
48
1
60
1
100
AcDbLine
10
46.797686
20
0.500002
30
0
11
45.876118
21
0.499998
31
0
39
0
210
0
220
0
230
1
0
LINE
5
A9
100
AcDbEntity
8
1
62
256
6
ByLayer
370
18
48
1
60
1
100
AcDbLine
10
45.876118
20
0.499998
30
0
11
46.336902
21
4
31
0
39
0
210
0
220
0
230
1
0
LINE
5
AA
100
AcDbEntity
8
1
62
256
6
ByLayer
370
18
48
1
60
1
100
AcDbLine
10
46.336902
20
-4
30
0
11
45.876118
21
-0.500002
31
0
39
0
210
0
220
0
230
1
0
LINE
5
AB
100
AcDbEntity
8
1
62
256
6
ByLayer
370
18
48
1
60
1
100
AcDbLine
10
45.876118
20
-0.500002
30
0
11
46.797686
21
-0.499998
31
0
39
0
210
0
220
0
230
1
0
LINE
5
AC
100
AcDbEntity
8
1
62
256
6
ByLayer
370
18
48
1
60
1
100
AcDbLine
10
46.797686
20
-0.499998
30
0
11
46.336902
21
-4
31
0
39
0
210
0
220
0
230
1
0
LINE
5
AD
100
AcDbEntity
8
2
62
256
6
ByLayer
370
13
48
1
60
0
100
AcDbLine
10
39.755136
20
-1.396397
30
0
11
50.416232
21
-21.110889
31
0
39
0
210
0
220
0
230
1
0
LINE
5
AE
100
AcDbEntity
8
2
62
256
6
ByLayer
370
13
48
1
60
0
100
AcDbLine
10
39.755136
20
1.396397
30
0
11
50.416232
21
21.110889
31
0
39
0
210
0
220
0
230
1
0
LINE
5
AF
100
AcDbEntity
8
1
62
256
6
ByLayer
370
18
48
1
60
1
100
AcDbLine
10
49.464879
20
-19.351649
30
0
11
52.239971
21
-17.169637
31
0
39
0
210
0
220
0
230
1
0
LINE
5
B0
100
AcDbEntity
8
1
62
256
6
ByLayer
370
18
48
1
60
1
100
AcDbLine
10
52.239971
20
-17.169637
30
0
11
52.710161
21
-17.962233
31
0
39
0
210
0
220
0
230
1
0
LINE
5
B1
100
AcDbEntity
8
1
62
256
6
ByLayer
370
18
48
1
60
1
100
AcDbLine
10
52.710161
20
-17.962233
30
0
11
49.464879
21
-19.351649
31
0
39
0
210
0
220
0
230
1
0
LINE
5
B2
100
AcDbEntity
8
1
62
256
6
ByLayer
370
18
48
1
60
1
100
AcDbLine
10
49.464879
20
19.351649
30
0
11
52.710158
21
17.962234
31
0
39
0
210
0
220
0
230
1
0
LINE
5
B3
100
AcDbEntity
8
1
62
256
6
ByLayer
370
18
48
1
60
1
100
AcDbLine
10
52.710158
20
17.962234
30
0
11
52.239974
21
17.169635
31
0
39
0
210
0
220
0
230
1
0
LINE
5
B4
100
AcDbEntity
8
1
62
256
6
ByLayer
370
18
48
1
60
1
100
AcDbLine
10
52.239974
20
17.169635
30
0
11
49.464879
21
19.351649
31
0
39
0
210
0
220
0
230
1
0
LINE
5
CC
100
AcDbEntity
8
1
62
256
6
ByLayer
370
18
48
1
60
1
100
AcDbLine
10
-46.5
20
4
30
0
11
-46.039216
21
0.500002
31
0
39
0
210
0
220
0
230
1
0
LINE
5
CD
100
AcDbEntity
8
1
62
256
6
ByLayer
370
18
48
1
60
1
100
AcDbLine
10
-46.039216
20
0.500002
30
0
11
-46.960784
21
0.499998
31
0
39
0
210
0
220
0
230
1
0
LINE
5
CE
100
AcDbEntity
8
1
62
256
6
ByLayer
370
18
48
1
60
1
100
AcDbLine
10
-46.960784
20
0.499998
30
0
11
-46.5
21
4
31
0
39
0
210
0
220
0
230
1
0
LINE
5
D0
100
AcDbEntity
8
1
62
256
6
ByLayer
370
18
48
1
60
1
100
AcDbLine
10
-46.5
20
-4
30
0
11
-46.960784
21
-0.500002
31
0
39
0
210
0
220
0
230
1
0
LINE
5
D1
100
AcDbEntity
8
1
62
256
6
ByLayer
370
18
48
1
60
1
100
AcDbLine
10
-46.960784
20
-0.500002
30
0
11
-46.039216
21
-0.499998
31
0
39
0
210
0
220
0
230
1
0
LINE
5
D2
100
AcDbEntity
8
1
62
256
6
ByLayer
370
18
48
1
60
1
100
AcDbLine
10
-46.039216
20
-0.499998
30
0
11
-46.5
21
-4
31
0
39
0
210
0
220
0
230
1
0
LINE
5
D6
100
AcDbEntity
8
1
62
256
6
ByLayer
370
18
48
1
60
1
100
AcDbLine
10
46.336902
20
4
30
0
11
46.797686
21
0.500002
31
0
39
0
210
0
220
0
230
1
0
LINE
5
D7
100
AcDbEntity
8
1
62
256
6
ByLayer
370
18
48
1
60
1
100
AcDbLine
10
46.797686
20
0.500002
30
0
11
45.876118
21
0.499998
31
0
39
0
210
0
220
0
230
1
0
LINE
5
D8
100
AcDbEntity
8
1
62
256
6
ByLayer
370
18
48
1
60
1
100
AcDbLine
10
45.876118
20
0.499998
30
0
11
46.336902
21
4
31
0
39
0
210
0
220
0
230
1
0
LINE
5
DA
100
AcDbEntity
8
1
62
256
6
ByLayer
370
18
48
1
60
1
100
AcDbLine
10
46.336902
20
-4
30
0
11
45.876118
21
-0.500002
31
0
39
0
210
0
220
0
230
1
0
LINE
5
DB
100
AcDbEntity
8
1
62
256
6
ByLayer
370
18
48
1
60
1
100
AcDbLine
10
45.876118
20
-0.500002
30
0
11
46.797686
21
-0.499998
31
0
39
0
210
0
220
0
230
1
0
LINE
5
DC
100
AcDbEntity
8
1
62
256
6
ByLayer
370
18
48
1
60
1
100
AcDbLine
10
46.797686
20
-0.499998
30
0
11
46.336902
21
-4
31
0
39
0
210
0
220
0
230
1
0
LINE
5
DF
100
AcDbEntity
8
1
62
256
6
ByLayer
370
18
48
1
60
1
100
AcDbLine
10
49.464879
20
-19.351649
30
0
11
52.239971
21
-17.169637
31
0
39
0
210
0
220
0
230
1
0
LINE
5
E0
100
AcDbEntity
8
1
62
256
6
ByLayer
370
18
48
1
60
1
100
AcDbLine
10
52.239971
20
-17.169637
30
0
11
52.710161
21
-17.962233
31
0
39
0
210
0
220
0
230
1
0
LINE
5
E1
100
AcDbEntity
8
1
62
256
6
ByLayer
370
18
48
1
60
1
100
AcDbLine
10
52.710161
20
-17.962233
30
0
11
49.464879
21
-19.351649
31
0
39
0
210
0
220
0
230
1
0
LINE
5
E3
100
AcDbEntity
8
1
62
256
6
ByLayer
370
18
48
1
60
1
100
AcDbLine
10
49.464879
20
19.351649
30
0
11
52.710158
21
17.962234
31
0
39
0
210
0
220
0
230
1
0
LINE
5
E4
100
AcDbEntity
8
1
62
256
6
ByLayer
370
18
48
1
60
1
100
AcDbLine
10
52.710158
20
17.962234
30
0
11
52.239974
21
17.169635
31
0
39
0
210
0
220
0
230
1
0
LINE
5
E5
100
AcDbEntity
8
1
62
256
6
ByLayer
370
18
48
1
60
1
100
AcDbLine
10
52.239974
20
17.169635
30
0
11
49.464879
21
19.351649
31
0
39
0
210
0
220
0
230
1
0
MTEXT
5
C8
100
AcDbEntity
8
SK2
62
256
6
ByLayer
370
18
48
1
60
0
100
AcDbMText
10
-47.841114
20
15.658437
30
0
210
0
220
0
230
1
1
%%c
40
3
41
0
44
1.084337
50
90
71
7
72
5
7
iso_b_vert
0
MTEXT
5
CB
100
AcDbEntity
8
SK2
62
256
6
ByLayer
370
18
48
1
60
0
100
AcDbMText
10
-47.841114
20
21.635
30
0
210
0
220
0
230
1
1
\W0.7468;8.000
40
3
41
0
44
1.084337
50
90
71
7
72
5
7
iso_b_vert
0
MTEXT
5
D4
100
AcDbEntity
8
2
62
256
6
ByLayer
370
18
48
1
60
0
100
AcDbMText
10
44.995787
20
15.658437
30
0
210
0
220
0
230
1
1
%%c
40
3
41
0
44
1.084337
50
90
71
7
72
5
7
iso_b_vert
0
MTEXT
5
D5
100
AcDbEntity
8
2
62
256
6
ByLayer
370
18
48
1
60
0
100
AcDbMText
10
44.995787
20
21.635
30
0
210
0
220
0
230
1
1
\W0.7468;8.000
40
3
41
0
44
1.084337
50
90
71
7
72
5
7
iso_b_vert
0
MTEXT
5
DE
100
AcDbEntity
8
2
62
256
6
ByLayer
370
18
48
1
60
0
100
AcDbMText
10
58.092229
20
-2.114886
30
0
210
0
220
0
230
1
1
\W0.6008;118%%d
40
3
41
0
44
1.084337
50
0
71
7
72
5
7
iso_b_vert
0
MTEXT
5
E7
100
AcDbEntity
8
SK6
62
256
6
ByLayer
370
18
48
1
60
0
100
AcDbMText
10
-7.097606
20
-67.114886
30
0
210
0
220
0
230
1
1
\W0.7690;R0238.0
40
3
41
0
44
1.084337
50
0
71
7
72
5
7
iso_b_vert
0
HATCH
5
CF
100
AcDbEntity
8
SK2
62
256
6
ByLayer
370
13
48
1
60
0
100
AcDbHatch
10
0
20
0
30
0
210
0
220
0
230
1
2
ANSI31
70
0
71
0
91
1
92
5
93
3
72
1
10
-46.5
20
4
11
-46.0392162584472
21
0.500001692553184
72
1
10
-46.0392162584472
20
0.500001692553184
11
-46.9607837415528
21
0.499998307446816
72
1
10
-46.9607837415528
20
0.499998307446816
11
-46.5
21
4
97
0
75
0
76
1
52
0
41
0.0062
77
0
78
1
53
45
43
0
44
0
45
-0.0139193969876572
46
0.0139193969876572
79
0
47
0
98
1
10
0
20
0
0
HATCH
5
D3
100
AcDbEntity
8
SK2
62
256
6
ByLayer
370
13
48
1
60
0
100
AcDbHatch
10
0
20
0
30
0
210
0
220
0
230
1
2
ANSI31
70
0
71
0
91
1
92
5
93
3
72
1
10
-46.5
20
-4
11
-46.9607837415528
21
-0.500001692553184
72
1
10
-46.9607837415528
20
-0.500001692553184
11
-46.0392162584472
21
-0.499998307446816
72
1
10
-46.0392162584472
20
-0.499998307446816
11
-46.5
21
-4
97
0
75
0
76
1
52
0
41
0.0062
77
0
78
1
53
45
43
0
44
0
45
-0.0139193969876572
46
0.0139193969876572
79
0
47
0
98
1
10
0
20
0
0
HATCH
5
D9
100
AcDbEntity
8
2
62
256
6
ByLayer
370
13
48
1
60
0
100
AcDbHatch
10
0
20
0
30
0
210
0
220
0
230
1
2
ANSI31
70
0
71
0
91
1
92
5
93
3
72
1
10
46.3369017715008
20
4
11
46.7976855130536
21
0.500001692553184
72
1
10
46.7976855130536
20
0.500001692553184
11
45.876118029948
21
0.499998307446816
72
1
10
45.876118029948
20
0.499998307446816
11
46.3369017715008
21
4
97
0
75
0
76
1
52
0
41
0.0062
77
0
78
1
53
45
43
0
44
0
45
-0.0139193969876572
46
0.0139193969876572
79
0
47
0
98
1
10
0
20
0
0
HATCH
5
DD
100
AcDbEntity
8
2
62
256
6
ByLayer
370
13
48
1
60
0
100
AcDbHatch
10
0
20
0
30
0
210
0
220
0
230
1
2
ANSI31
70
0
71
0
91
1
92
5
93
3
72
1
10
46.3369017715008
20
-4
11
45.876118029948
21
-0.500001692553184
72
1
10
45.876118029948
20
-0.500001692553184
11
46.7976855130536
21
-0.499998307446816
72
1
10
46.7976855130536
20
-0.499998307446816
11
46.3369017715008
21
-4
97
0
75
0
76
1
52
0
41
0.0062
77
0
78
1
53
45
43
0
44
0
45
-0.0139193969876572
46
0.0139193969876572
79
0
47
0
98
1
10
0
20
0
0
HATCH
5
E2
100
AcDbEntity
8
2
62
256
6
ByLayer
370
13
48
1
60
0
100
AcDbHatch
10
0
20
0
30
0
210
0
220
0
230
1
2
ANSI31
70
0
71
0
91
1
92
5
93
3
72
1
10
49.464879198752
20
-19.3516485952884
11
52.2399711078382
21
-17.1696369764526
72
1
10
52.2399711078382
20
-17.1696369764526
11
52.710161392925
21
-17.9622325364572
72
1
10
52.710161392925
20
-17.9622325364572
11
49.464879198752
21
-19.3516485952884
97
0
75
0
76
1
52
0
41
0.0062
77
0
78
1
53
45
43
0
44
0
45
-0.0139193969876572
46
0.0139193969876572
79
0
47
0
98
1
10
0
20
0
0
HATCH
5
E6
100
AcDbEntity
8
2
62
256
6
ByLayer
370
13
48
1
60
0
100
AcDbHatch
10
0
20
0
30
0
210
0
220
0
230
1
2
ANSI31
70
0
71
0
91
1
92
5
93
3
72
1
10
49.464879198752
20
19.3516485952884
11
52.7101584815526
21
17.9622342635518
72
1
10
52.7101584815526
20
17.9622342635518
11
52.2399740192106
21
17.1696352493579
72
1
10
52.2399740192106
20
17.1696352493579
11
49.464879198752
21
19.3516485952884
97
0
75
0
76
1
52
0
41
0.0062
77
0
78
1
53
45
43
0
44
0
45
-0.0139193969876572
46
0.0139193969876572
79
0
47
0
98
1
10
0
20
0
0
DIMENSION
5
EA
100
AcDbEntity
8
SK2
62
256
6
ByLayer
370
18
48
1
60
0
100
AcDbDimension
2
_U0
10
39
20
-51.707356
30
0
11
-0.5
21
-51.707356
31
0
70
32
71
1
72
1
41
1
210
0
220
0
230
1
3
Standard
100
AcDbAlignedDimension
13
-40
23
-4
33
0
14
39
24
0
34
0
50
0
100
AcDbRotatedDimension
1001
ACAD
1000
DSTYLE
1002
{
1070
   371
1070
    13
1070
   372
1070
    13
1070
     3
1000

1070
   170
1070
     0
1070
   144
1040
1.0
1070
   277
1070
     2
1070
   284
1070
     8
1070
   278
1070
    46
1070
   146
1040
1.166667
1070
   345
1005
16
1070
   347
1005
16
1070
   346
1005
16
1070
   344
1005
0
1070
   343
1005
0
1070
   172
1070
     1
1070
    76
1070
     0
1070
    75
1070
     0
1070
   282
1070
     0
1070
   281
1070
     0
1070
    71
1070
     0
1070
    74
1070
     0
1070
   279
1070
     0
1070
   173
1070
     1
1070
   340
1005
C9
1070
   271
1070
     2
1070
   272
1070
     3
1070
    77
1070
     1
1070
    73
1070
     1
1070
   171
1070
     3
1070
   274
1070
     4
1070
   177
1070
     2
1070
   176
1070
     2
1070
   178
1070
     2
1070
    78
1070
     8
1070
    48
1040
-0.1
1070
    41
1040
3.5
1070
   147
1040
1.5
1070
    42
1040
1.5875
1070
    44
1040
2.0
1070
   140
1040
3.0
1002
}
1001
ACAD_DSTYLE_DIM_LINETYPE
1070
   380
1005
16
1001
ACAD_DSTYLE_DIM_EXT1_LINETYPE
1070
   381
1005
16
1001
ACAD_DSTYLE_DIM_EXT2_LINETYPE
1070
   382
1005
16
0
DIMENSION
5
103
100
AcDbEntity
8
2
62
256
6
ByLayer
370
18
48
1
60
0
100
AcDbDimension
2
_U1
10
2
20
-41.707356
30
0
11
20.5
21
-41.707356
31
0
70
32
71
1
72
1
41
1
210
0
220
0
230
1
3
Standard
100
AcDbAlignedDimension
13
39
23
0
33
0
14
2
24
-4
34
0
50
0
100
AcDbRotatedDimension
1001
ACAD
1000
DSTYLE
1002
{
1070
   371
1070
    13
1070
   372
1070
    13
1070
     3
1000

1070
   170
1070
     0
1070
   144
1040
1.0
1070
   277
1070
     2
1070
   284
1070
     8
1070
   278
1070
    46
1070
   146
1040
1.166667
1070
   345
1005
16
1070
   347
1005
16
1070
   346
1005
16
1070
   344
1005
0
1070
   343
1005
0
1070
   172
1070
     1
1070
    76
1070
     0
1070
    75
1070
     0
1070
   282
1070
     0
1070
   281
1070
     0
1070
    71
1070
     0
1070
    74
1070
     0
1070
   279
1070
     0
1070
   173
1070
     1
1070
   340
1005
C9
1070
   271
1070
     2
1070
   272
1070
     3
1070
    77
1070
     1
1070
    73
1070
     1
1070
   171
1070
     3
1070
   274
1070
     4
1070
   177
1070
     2
1070
   176
1070
     2
1070
   178
1070
     2
1070
    78
1070
     8
1070
    48
1040
-0.1
1070
    41
1040
3.5
1070
   147
1040
1.5
1070
    42
1040
1.5875
1070
    44
1040
2.0
1070
   140
1040
3.0
1002
}
1001
ACAD_DSTYLE_DIM_LINETYPE
1070
   380
1005
16
1001
ACAD_DSTYLE_DIM_EXT1_LINETYPE
1070
   381
1005
16
1001
ACAD_DSTYLE_DIM_EXT2_LINETYPE
1070
   382
1005
16
0
DIMENSION
5
11B
100
AcDbEntity
8
SK2
62
256
6
ByLayer
370
18
48
1
60
0
100
AcDbDimension
2
_U2
10
0
20
-36.707356
30
0
11
-20
21
-36.707356
31
0
70
32
71
1
72
1
41
1
210
0
220
0
230
1
3
Standard
100
AcDbAlignedDimension
13
-40
23
-4
33
0
14
0
24
-4
34
0
50
0
100
AcDbRotatedDimension
1001
ACAD
1000
DSTYLE
1002
{
1070
   371
1070
    13
1070
   372
1070
    13
1070
     3
1000

1070
   170
1070
     0
1070
   144
1040
1.0
1070
   277
1070
     2
1070
   284
1070
     8
1070
   278
1070
    46
1070
   146
1040
1.166667
1070
   345
1005
16
1070
   347
1005
16
1070
   346
1005
16
1070
   344
1005
0
1070
   343
1005
0
1070
   172
1070
     1
1070
    76
1070
     0
1070
    75
1070
     0
1070
   282
1070
     0
1070
   281
1070
     0
1070
    71
1070
     0
1070
    74
1070
     0
1070
   279
1070
     0
1070
   173
1070
     1
1070
   340
1005
C9
1070
   271
1070
     2
1070
   272
1070
     3
1070
    77
1070
     1
1070
    73
1070
     1
1070
   171
1070
     3
1070
   274
1070
     4
1070
   177
1070
     2
1070
   176
1070
     2
1070
   178
1070
     2
1070
    78
1070
     8
1070
    48
1040
-0.1
1070
    41
1040
3.5
1070
   147
1040
1.5
1070
    42
1040
1.5875
1070
    44
1040
2.0
1070
   140
1040
3.0
1002
}
1001
ACAD_DSTYLE_DIM_LINETYPE
1070
   380
1005
16
1001
ACAD_DSTYLE_DIM_EXT1_LINETYPE
1070
   381
1005
16
1001
ACAD_DSTYLE_DIM_EXT2_LINETYPE
1070
   382
1005
16
0
DIMENSION
5
133
100
AcDbEntity
8
2
62
256
6
ByLayer
370
18
48
1
60
0
100
AcDbDimension
2
_U3
10
11.25
20
-34.707356
30
0
11
25.125
21
-34.707356
31
0
70
32
71
1
72
1
41
1
210
0
220
0
230
1
3
Standard
100
AcDbAlignedDimension
13
39
23
0
33
0
14
11.25
24
-4
34
0
50
0
100
AcDbRotatedDimension
1001
ACAD
1000
DSTYLE
1002
{
1070
   371
1070
    13
1070
   372
1070
    13
1070
     3
1000

1070
   170
1070
     0
1070
   144
1040
1.0
1070
   277
1070
     2
1070
   284
1070
     8
1070
   278
1070
    46
1070
   146
1040
1.166667
1070
   345
1005
16
1070
   347
1005
16
1070
   346
1005
16
1070
   344
1005
0
1070
   343
1005
0
1070
   172
1070
     1
1070
    76
1070
     0
1070
    75
1070
     0
1070
   282
1070
     0
1070
   281
1070
     0
1070
    71
1070
     0
1070
    74
1070
     0
1070
   279
1070
     0
1070
   173
1070
     1
1070
   340
1005
C9
1070
   271
1070
     2
1070
   272
1070
     3
1070
    77
1070
     1
1070
    73
1070
     1
1070
   171
1070
     3
1070
   274
1070
     4
1070
   177
1070
     2
1070
   176
1070
     2
1070
   178
1070
     2
1070
    78
1070
     8
1070
    48
1040
-0.1
1070
    41
1040
3.5
1070
   147
1040
1.5
1070
    42
1040
1.5875
1070
    44
1040
2.0
1070
   140
1040
3.0
1002
}
1001
ACAD_DSTYLE_DIM_LINETYPE
1070
   380
1005
16
1001
ACAD_DSTYLE_DIM_EXT1_LINETYPE
1070
   381
1005
16
1001
ACAD_DSTYLE_DIM_EXT2_LINETYPE
1070
   382
1005
16
0
ENDSEC
0
SECTION
2
OBJECTS
0
DICTIONARY
5
1bd
330
0
100
AcDbDictionary
280
0
281
1
3
ACAD_GROUP
350
1be
3
ACAD_MLINESTYLE
350
1bf
0
DICTIONARY
5
1be
330
0
100
AcDbDictionary
280
0
281
1
0
DICTIONARY
5
1bf
330
0
100
AcDbDictionary
280
0
281
1
3
Standard
350
18
0
MLINESTYLE
5
18
330
1bf
100
AcDbMlineStyle
2
Standard
70
0
3

62
256
51
90
52
90
71
2
49
-0.5
62
256
6
ByLayer
49
0.5
62
256
6
ByLayer
0
RASTERVARIABLES
5
1a9
330

100
AcDbRasterVariables
90
0
70
1
71
1
72
1
0
ENDSEC
0
EOF
