0
SECTION
2
HEADER
9
$ACADVER
1
AC1015
9
$DWGCODEPAGE
3
ANSI_1252
9
$HANDSEED
5
1c7
9
$ANGBASE
50
0
9
$ANGDIR
70
0
9
$ATTMODE
70
1
9
$AUNITS
70
0
9
$AUPREC
70
0
9
$CECOLOR
62
256
9
$CELTSCALE
40
1
9
$CELTYPE
6
ByLayer
9
$CELWEIGHT
370
18
9
$CLAYER
8
0
9
$CMLJUST
70
0
9
$CMLSCALE
40
1
9
$CMLSTYLE
2
Standard
9
$DIMSTYLE
2
Standard
9
$TEXTSIZE
40
0.2
9
$TEXTSTYLE
7
Standard
9
$LUNITS
70
2
9
$LUPREC
70
4
9
$EXTNAMES
290
1
9
$INSUNITS
70
4
9
$LTSCALE
40
1
9
$LWDISPLAY
290
1
9
$PDMODE
70
0
9
$PDSIZE
40
0
9
$PLINEGEN
70
0
0
ENDSEC
0
SECTION
2
CLASSES
0
CLASS
1
RASTERVARIABLES
2
AcDbRasterVariables
3
ISM
90
0
280
0
281
0
0
ENDSEC
0
SECTION
2
TABLES
0
TABLE
2
VPORT
5
1bd
100
AcDbSymbolTable
0
VPORT
5
1
100
AcDbSymbolTableRecord
100
AcDbViewportTableRecord
2
*Active
70
0
10
0
20
0
11
1
21
1
12
-1
22
1
13
0
23
0
14
0.5
24
0.5
15
10
25
10
16
0
26
0
36
1
17
0
27
0
37
0
0
ENDTAB
0
TABLE
2
LTYPE
5
1be
100
AcDbSymbolTable
0
LTYPE
5
14
100
AcDbSymbolTableRecord
100
AcDbLinetypeTableRecord
70
0
2
ByBlock
3

72
65
73
0
40
0
0
LTYPE
5
15
100
AcDbSymbolTableRecord
100
AcDbLinetypeTableRecord
70
0
2
ByLayer
3

72
65
73
0
40
0
0
LTYPE
5
16
100
AcDbSymbolTableRecord
100
AcDbLinetypeTableRecord
70
0
2
Continuous
3
Solid line
72
65
73
0
40
0
0
LTYPE
5
6E
100
AcDbSymbolTableRecord
100
AcDbLinetypeTableRecord
70
0
2
CENTER
3
____ _ ____ _ ____ _ ____
72
65
73
4
40
47.5
49
22
74
0
49
-8.5
74
0
49
8.5
74
0
49
-8.5
74
0
0
LTYPE
5
6F
100
AcDbSymbolTableRecord
100
AcDbLinetypeTableRecord
70
0
2
DASHED
3
__ __ __ __ __ __ __ __ __
72
65
73
2
40
25.72
49
12.86
74
0
49
-12.86
74
0
0
ENDTAB
0
TABLE
2
LAYER
5
1bf
100
AcDbSymbolTable
0
LAYER
5
10
100
AcDbSymbolTableRecord
100
AcDbLayerTableRecord
2
0
70
0
62
7
6
Continuous
290
1
370
-3
390
0
0
LAYER
5
71
100
AcDbSymbolTableRecord
100
AcDbLayerTableRecord
2
81
70
0
62
-3
6
Continuous
290
1
370
-3
390
0
0
LAYER
5
73
100
AcDbSymbolTableRecord
100
AcDbLayerTableRecord
2
80
70
0
62
-6
6
Continuous
290
1
370
-3
390
0
0
LAYER
5
75
100
AcDbSymbolTableRecord
100
AcDbLayerTableRecord
2
1
70
0
62
4
6
Continuous
290
1
370
-3
390
0
0
LAYER
5
7F
100
AcDbSymbolTableRecord
100
AcDbLayerTableRecord
2
4
70
0
62
-2
6
CENTER
290
1
370
-3
390
0
0
LAYER
5
A4
100
AcDbSymbolTableRecord
100
AcDbLayerTableRecord
2
2
70
0
62
7
6
Continuous
290
1
370
-3
390
0
0
LAYER
5
EA
100
AcDbSymbolTableRecord
100
AcDbLayerTableRecord
2
Defpoints
70
0
62
7
6
Continuous
290
0
370
-3
390
0
0
LAYER
5
1a7
100
AcDbSymbolTableRecord
100
AcDbLayerTableRecord
2
SK4
70
0
62
2
6
CENTER
290
1
370
-3
390
0
0
LAYER
5
1a8
100
AcDbSymbolTableRecord
100
AcDbLayerTableRecord
2
SK1
70
0
62
4
6
Continuous
290
1
370
-3
390
0
0
LAYER
5
1a9
100
AcDbSymbolTableRecord
100
AcDbLayerTableRecord
2
SK2
70
0
62
7
6
Continuous
290
1
370
-3
390
0
0
LAYER
5
1aa
100
AcDbSymbolTableRecord
100
AcDbLayerTableRecord
2
NOCUT
70
0
62
-7
6
Continuous
290
1
370
-3
390
0
0
LAYER
5
1ab
100
AcDbSymbolTableRecord
100
AcDbLayerTableRecord
2
CUT
70
0
62
-1
6
Continuous
290
1
370
-3
390
0
0
LAYER
5
1ac
100
AcDbSymbolTableRecord
100
AcDbLayerTableRecord
2
SK6
70
0
62
5
6
Continuous
290
1
370
-3
390
0
0
ENDTAB
0
TABLE
2
STYLE
5
1c0
100
AcDbSymbolTable
0
STYLE
5
11
100
AcDbSymbolTableRecord
100
AcDbTextStyleTableRecord
2
Standard
3
txt
70
0
71
0
40
0
41
1
42
0
50
0
0
STYLE
5
C6
100
AcDbSymbolTableRecord
100
AcDbTextStyleTableRecord
2
iso_b_vert
3
simplex.shx
70
0
71
0
40
0
41
1
42
0
50
0
0
STYLE
5
C7
100
AcDbSymbolTableRecord
100
AcDbTextStyleTableRecord
2
DWGDirectTextStyle
3
simplex
70
0
71
0
40
0
41
1
42
0
50
0
0
ENDTAB
0
TABLE
2
DIMSTYLE
5
1c1
100
AcDbSymbolTable
100
AcDbDimStyleTable
0
DIMSTYLE
105
27
100
AcDbSymbolTableRecord
100
AcDbDimStyleTableRecord
2
Standard
70
0
3
<>
41
0.18
42
0.0625
44
0.18
140
0.18
147
0.09
73
0
74
0
77
1
271
2
275
0
278
52
280
0
340
11
0
ENDTAB
0
TABLE
2
VIEW
5
1c2
100
AcDbSymbolTable
0
ENDTAB
0
TABLE
2
UCS
5
1c3
100
AcDbSymbolTable
0
ENDTAB
0
TABLE
2
APPID
5
1c4
100
AcDbSymbolTable
0
APPID
5
12
100
AcDbSymbolTableRecord
100
AcDbRegAppTableRecord
2
ACAD
70
0
0
APPID
5
E6
100
AcDbSymbolTableRecord
100
AcDbRegAppTableRecord
2
ACAD_DSTYLE_DIMBREAK
70
0
0
APPID
5
166
100
AcDbSymbolTableRecord
100
AcDbRegAppTableRecord
2
ACAD_DSTYLE_DIM_LINETYPE
70
0
0
APPID
5
167
100
AcDbSymbolTableRecord
100
AcDbRegAppTableRecord
2
ACAD_DSTYLE_DIM_EXT1_LINETYPE
70
0
0
APPID
5
168
100
AcDbSymbolTableRecord
100
AcDbRegAppTableRecord
2
ACAD_DSTYLE_DIM_EXT2_LINETYPE
70
0
0
APPID
5
1A3
100
AcDbSymbolTableRecord
100
AcDbRegAppTableRecord
2
ACAD_MLEADERVER
70
0
0
ENDTAB
0
TABLE
2
BLOCK_RECORD
5
1c5
100
AcDbSymbolTable
0
BLOCK_RECORD
5
1F
100
AcDbSymbolTableRecord
100
AcDbBlockTableRecord
2
*Model_Space
340
0
70
0
0
BLOCK_RECORD
5
1B
100
AcDbSymbolTableRecord
100
AcDbBlockTableRecord
2
*Paper_Space
340
0
70
0
0
BLOCK_RECORD
5
23
100
AcDbSymbolTableRecord
100
AcDbBlockTableRecord
2
*Paper_Space0
340
0
70
0
0
BLOCK_RECORD
5
EB
100
AcDbSymbolTableRecord
100
AcDbBlockTableRecord
2
*D1
340
0
70
0
0
BLOCK_RECORD
5
F7
100
AcDbSymbolTableRecord
100
AcDbBlockTableRecord
2
_U0
340
0
70
0
0
BLOCK_RECORD
5
103
100
AcDbSymbolTableRecord
100
AcDbBlockTableRecord
2
*D3
340
0
70
0
0
BLOCK_RECORD
5
10F
100
AcDbSymbolTableRecord
100
AcDbBlockTableRecord
2
_U1
340
0
70
0
0
BLOCK_RECORD
5
11B
100
AcDbSymbolTableRecord
100
AcDbBlockTableRecord
2
*D5
340
0
70
0
0
BLOCK_RECORD
5
127
100
AcDbSymbolTableRecord
100
AcDbBlockTableRecord
2
_U2
340
0
70
0
0
BLOCK_RECORD
5
133
100
AcDbSymbolTableRecord
100
AcDbBlockTableRecord
2
*D7
340
0
70
0
0
BLOCK_RECORD
5
13F
100
AcDbSymbolTableRecord
100
AcDbBlockTableRecord
2
_U3
340
0
70
0
0
ENDTAB
0
ENDSEC
0
SECTION
2
BLOCKS
0
BLOCK
5
20
100
AcDbEntity
8
0
100
AcDbBlockBegin
2
*Model_Space
70
0
10
0
20
0
30
0
3
*Model_Space
0
ENDBLK
5
21
100
AcDbEntity
8
0
100
AcDbBlockEnd
0
BLOCK
5
1C
100
AcDbEntity
8
0
100
AcDbBlockBegin
2
*Paper_Space
70
0
10
0
20
0
30
0
3
*Paper_Space
0
ENDBLK
5
1D
100
AcDbEntity
8
0
100
AcDbBlockEnd
0
BLOCK
5
24
100
AcDbEntity
8
0
100
AcDbBlockBegin
2
*Paper_Space0
70
0
10
0
20
0
30
0
3
*Paper_Space0
0
ENDBLK
5
25
100
AcDbEntity
8
0
100
AcDbBlockEnd
0
BLOCK
5
EC
100
AcDbEntity
8
0
100
AcDbBlockBegin
2
*D1
70
1
10
0
20
0
30
0
3
*D1
0
LINE
5
EE
100
AcDbEntity
8
0
62
256
6
ByLayer
370
-2
48
1
60
0
100
AcDbLine
10
-37
20
-4.6375
30
0
11
-37
21
-49.557616
31
0
39
0
210
0
220
0
230
1
0
LINE
5
EF
100
AcDbEntity
8
0
62
256
6
ByLayer
370
-2
48
1
60
0
100
AcDbLine
10
33
20
-1.5875
30
0
11
33
21
-49.557616
31
0
39
0
210
0
220
0
230
1
0
LINE
5
F0
100
AcDbEntity
8
0
62
256
6
ByLayer
370
-2
48
1
60
0
100
AcDbLine
10
-33.5
20
-47.557616
30
0
11
29.5
21
-47.557616
31
0
39
0
210
0
220
0
230
1
0
SOLID
5
F1
100
AcDbEntity
8
0
62
256
6
ByLayer
370
-1
48
1
60
0
100
AcDbTrace
10
-33.5
20
-46.974283
30
0
11
-33.5
21
-48.14095
31
0
12
-37
22
-47.557616
32
0
13
-37
23
-47.557616
33
0
39
0
210
0
220
0
230
1
0
SOLID
5
F2
100
AcDbEntity
8
0
62
256
6
ByLayer
370
-1
48
1
60
0
100
AcDbTrace
10
29.5
20
-48.14095
30
0
11
29.5
21
-46.974283
31
0
12
33
22
-47.557616
32
0
13
33
23
-47.557616
33
0
39
0
210
0
220
0
230
1
0
MTEXT
5
F3
100
AcDbEntity
8
0
62
256
6
ByLayer
370
18
48
1
60
0
100
AcDbMText
10
-2
20
-41.557616
30
0
210
0
220
0
230
1
1
\A1;70
40
3
41
0
44
1
50
0
71
5
72
5
7
iso_b_vert
0
POINT
5
F4
100
AcDbEntity
8
Defpoints
62
0
6
ByLayer
370
-1
48
1
60
0
100
AcDbPoint
10
-37
20
-3.05
30
0
39
0
210
0
220
0
230
1
50
360
0
POINT
5
F5
100
AcDbEntity
8
Defpoints
62
0
6
ByLayer
370
-1
48
1
60
0
100
AcDbPoint
10
33
20
0
30
0
39
0
210
0
220
0
230
1
50
360
0
POINT
5
F6
100
AcDbEntity
8
Defpoints
62
0
6
ByLayer
370
-1
48
1
60
0
100
AcDbPoint
10
33
20
-47.557616
30
0
39
0
210
0
220
0
230
1
50
360
0
ENDBLK
5
ED
100
AcDbEntity
8
0
100
AcDbBlockEnd
0
BLOCK
5
FE
100
AcDbEntity
8
0
100
AcDbBlockBegin
2
_U0
70
0
10
0
20
0
30
0
3
_U0
0
MTEXT
5
F8
100
AcDbEntity
8
SK2
62
256
6
ByLayer
370
18
48
1
60
0
100
AcDbMText
10
-6.48237
20
-46.672502
30
0
210
0
220
0
230
1
1
\W0.7468;70.00
40
3
41
0
44
1.084337
50
0
71
7
72
5
7
iso_b_vert
0
LINE
5
F9
100
AcDbEntity
8
SK2
62
256
6
ByLayer
370
13
48
1
60
0
100
AcDbLine
10
-37
20
-4.6375
30
0
11
-37
21
-49.557616
31
0
39
0
210
0
220
0
230
1
0
LINE
5
FA
100
AcDbEntity
8
SK2
62
256
6
ByLayer
370
13
48
1
60
0
100
AcDbLine
10
33
20
-1.5875
30
0
11
33
21
-49.557616
31
0
39
0
210
0
220
0
230
1
0
LINE
5
FB
100
AcDbEntity
8
SK2
62
256
6
ByLayer
370
13
48
1
60
0
100
AcDbLine
10
-37
20
-47.557616
30
0
11
33
21
-47.557616
31
0
39
0
210
0
220
0
230
1
0
SOLID
5
FC
100
AcDbEntity
8
SK2
62
256
6
ByLayer
370
18
48
1
60
0
100
AcDbTrace
10
-37
20
-47.557616
30
0
11
-33.500002
21
-47.096833
31
0
12
-33.499998
22
-48.0184
32
0
13
-33.499998
23
-48.0184
33
0
39
0
210
0
220
0
230
1
0
SOLID
5
FD
100
AcDbEntity
8
SK2
62
256
6
ByLayer
370
18
48
1
60
0
100
AcDbTrace
10
33
20
-47.557616
30
0
11
29.500002
21
-48.0184
31
0
12
29.499998
22
-47.096833
32
0
13
29.499998
23
-47.096833
33
0
39
0
210
0
220
0
230
1
0
ENDBLK
5
FF
100
AcDbEntity
8
0
100
AcDbBlockEnd
0
BLOCK
5
104
100
AcDbEntity
8
0
100
AcDbBlockBegin
2
*D3
70
1
10
0
20
0
30
0
3
*D3
0
LINE
5
106
100
AcDbEntity
8
0
62
256
6
ByLayer
370
-2
48
1
60
0
100
AcDbLine
10
33
20
-1.5875
30
0
11
33
21
-39.557616
31
0
39
0
210
0
220
0
230
1
0
LINE
5
107
100
AcDbEntity
8
0
62
256
6
ByLayer
370
-2
48
1
60
0
100
AcDbLine
10
2
20
-4.6375
30
0
11
2
21
-39.557616
31
0
39
0
210
0
220
0
230
1
0
LINE
5
108
100
AcDbEntity
8
0
62
256
6
ByLayer
370
-2
48
1
60
0
100
AcDbLine
10
29.5
20
-37.557616
30
0
11
5.5
21
-37.557616
31
0
39
0
210
0
220
0
230
1
0
SOLID
5
109
100
AcDbEntity
8
0
62
256
6
ByLayer
370
-1
48
1
60
0
100
AcDbTrace
10
29.5
20
-38.14095
30
0
11
29.5
21
-36.974283
31
0
12
33
22
-37.557616
32
0
13
33
23
-37.557616
33
0
39
0
210
0
220
0
230
1
0
SOLID
5
10A
100
AcDbEntity
8
0
62
256
6
ByLayer
370
-1
48
1
60
0
100
AcDbTrace
10
5.5
20
-36.974283
30
0
11
5.5
21
-38.14095
31
0
12
2
22
-37.557616
32
0
13
2
23
-37.557616
33
0
39
0
210
0
220
0
230
1
0
MTEXT
5
10B
100
AcDbEntity
8
0
62
256
6
ByLayer
370
18
48
1
60
0
100
AcDbMText
10
17.5
20
-31.557616
30
0
210
0
220
0
230
1
1
\A1;31
40
3
41
0
44
1
50
0
71
5
72
5
7
iso_b_vert
0
POINT
5
10C
100
AcDbEntity
8
Defpoints
62
0
6
ByLayer
370
-1
48
1
60
0
100
AcDbPoint
10
33
20
0
30
0
39
0
210
0
220
0
230
1
50
360
0
POINT
5
10D
100
AcDbEntity
8
Defpoints
62
0
6
ByLayer
370
-1
48
1
60
0
100
AcDbPoint
10
2
20
-3.05
30
0
39
0
210
0
220
0
230
1
50
360
0
POINT
5
10E
100
AcDbEntity
8
Defpoints
62
0
6
ByLayer
370
-1
48
1
60
0
100
AcDbPoint
10
2
20
-37.557616
30
0
39
0
210
0
220
0
230
1
50
360
0
ENDBLK
5
105
100
AcDbEntity
8
0
100
AcDbBlockEnd
0
BLOCK
5
116
100
AcDbEntity
8
0
100
AcDbBlockBegin
2
_U1
70
0
10
0
20
0
30
0
3
_U1
0
MTEXT
5
110
100
AcDbEntity
8
2
62
256
6
ByLayer
370
18
48
1
60
0
100
AcDbMText
10
13.392572
20
-36.672502
30
0
210
0
220
0
230
1
1
\W0.6864;31.00
40
3
41
0
44
1.084337
50
0
71
7
72
5
7
iso_b_vert
0
LINE
5
111
100
AcDbEntity
8
2
62
256
6
ByLayer
370
13
48
1
60
0
100
AcDbLine
10
33
20
-1.5875
30
0
11
33
21
-39.557616
31
0
39
0
210
0
220
0
230
1
0
LINE
5
112
100
AcDbEntity
8
2
62
256
6
ByLayer
370
13
48
1
60
0
100
AcDbLine
10
2
20
-4.6375
30
0
11
2
21
-39.557616
31
0
39
0
210
0
220
0
230
1
0
LINE
5
113
100
AcDbEntity
8
2
62
256
6
ByLayer
370
13
48
1
60
0
100
AcDbLine
10
33
20
-37.557616
30
0
11
2
21
-37.557616
31
0
39
0
210
0
220
0
230
1
0
SOLID
5
114
100
AcDbEntity
8
2
62
256
6
ByLayer
370
18
48
1
60
0
100
AcDbTrace
10
33
20
-37.557616
30
0
11
29.500002
21
-38.0184
31
0
12
29.499998
22
-37.096833
32
0
13
29.499998
23
-37.096833
33
0
39
0
210
0
220
0
230
1
0
SOLID
5
115
100
AcDbEntity
8
2
62
256
6
ByLayer
370
18
48
1
60
0
100
AcDbTrace
10
2
20
-37.557616
30
0
11
5.499998
21
-37.096833
31
0
12
5.500002
22
-38.0184
32
0
13
5.500002
23
-38.0184
33
0
39
0
210
0
220
0
230
1
0
ENDBLK
5
117
100
AcDbEntity
8
0
100
AcDbBlockEnd
0
BLOCK
5
11C
100
AcDbEntity
8
0
100
AcDbBlockBegin
2
*D5
70
1
10
0
20
0
30
0
3
*D5
0
LINE
5
11E
100
AcDbEntity
8
0
62
256
6
ByLayer
370
-2
48
1
60
0
100
AcDbLine
10
-37
20
-4.6375
30
0
11
-37
21
-34.557616
31
0
39
0
210
0
220
0
230
1
0
LINE
5
11F
100
AcDbEntity
8
0
62
256
6
ByLayer
370
-2
48
1
60
0
100
AcDbLine
10
0
20
-4.6375
30
0
11
0
21
-34.557616
31
0
39
0
210
0
220
0
230
1
0
LINE
5
120
100
AcDbEntity
8
0
62
256
6
ByLayer
370
-2
48
1
60
0
100
AcDbLine
10
-33.5
20
-32.557616
30
0
11
-3.5
21
-32.557616
31
0
39
0
210
0
220
0
230
1
0
SOLID
5
121
100
AcDbEntity
8
0
62
256
6
ByLayer
370
-1
48
1
60
0
100
AcDbTrace
10
-33.5
20
-31.974283
30
0
11
-33.5
21
-33.14095
31
0
12
-37
22
-32.557616
32
0
13
-37
23
-32.557616
33
0
39
0
210
0
220
0
230
1
0
SOLID
5
122
100
AcDbEntity
8
0
62
256
6
ByLayer
370
-1
48
1
60
0
100
AcDbTrace
10
-3.5
20
-33.14095
30
0
11
-3.5
21
-31.974283
31
0
12
0
22
-32.557616
32
0
13
0
23
-32.557616
33
0
39
0
210
0
220
0
230
1
0
MTEXT
5
123
100
AcDbEntity
8
0
62
256
6
ByLayer
370
18
48
1
60
0
100
AcDbMText
10
-18.5
20
-26.557616
30
0
210
0
220
0
230
1
1
\A1;37
40
3
41
0
44
1
50
0
71
5
72
5
7
iso_b_vert
0
POINT
5
124
100
AcDbEntity
8
Defpoints
62
0
6
ByLayer
370
-1
48
1
60
0
100
AcDbPoint
10
-37
20
-3.05
30
0
39
0
210
0
220
0
230
1
50
360
0
POINT
5
125
100
AcDbEntity
8
Defpoints
62
0
6
ByLayer
370
-1
48
1
60
0
100
AcDbPoint
10
0
20
-3.05
30
0
39
0
210
0
220
0
230
1
50
360
0
POINT
5
126
100
AcDbEntity
8
Defpoints
62
0
6
ByLayer
370
-1
48
1
60
0
100
AcDbPoint
10
0
20
-32.557616
30
0
39
0
210
0
220
0
230
1
50
360
0
ENDBLK
5
11D
100
AcDbEntity
8
0
100
AcDbBlockEnd
0
BLOCK
5
12E
100
AcDbEntity
8
0
100
AcDbBlockBegin
2
_U2
70
0
10
0
20
0
30
0
3
_U2
0
MTEXT
5
128
100
AcDbEntity
8
SK2
62
256
6
ByLayer
370
18
48
1
60
0
100
AcDbMText
10
-22.98237
20
-31.672502
30
0
210
0
220
0
230
1
1
\W0.7468;37.00
40
3
41
0
44
1.084337
50
0
71
7
72
5
7
iso_b_vert
0
LINE
5
129
100
AcDbEntity
8
SK2
62
256
6
ByLayer
370
13
48
1
60
0
100
AcDbLine
10
-37
20
-4.6375
30
0
11
-37
21
-34.557616
31
0
39
0
210
0
220
0
230
1
0
LINE
5
12A
100
AcDbEntity
8
SK2
62
256
6
ByLayer
370
13
48
1
60
0
100
AcDbLine
10
0
20
-4.6375
30
0
11
0
21
-34.557616
31
0
39
0
210
0
220
0
230
1
0
LINE
5
12B
100
AcDbEntity
8
SK2
62
256
6
ByLayer
370
13
48
1
60
0
100
AcDbLine
10
-37
20
-32.557616
30
0
11
0
21
-32.557616
31
0
39
0
210
0
220
0
230
1
0
SOLID
5
12C
100
AcDbEntity
8
SK2
62
256
6
ByLayer
370
18
48
1
60
0
100
AcDbTrace
10
-37
20
-32.557616
30
0
11
-33.500002
21
-32.096833
31
0
12
-33.499998
22
-33.0184
32
0
13
-33.499998
23
-33.0184
33
0
39
0
210
0
220
0
230
1
0
SOLID
5
12D
100
AcDbEntity
8
SK2
62
256
6
ByLayer
370
18
48
1
60
0
100
AcDbTrace
10
0
20
-32.557616
30
0
11
-3.499998
21
-33.0184
31
0
12
-3.500002
22
-32.096833
32
0
13
-3.500002
23
-32.096833
33
0
39
0
210
0
220
0
230
1
0
ENDBLK
5
12F
100
AcDbEntity
8
0
100
AcDbBlockEnd
0
BLOCK
5
134
100
AcDbEntity
8
0
100
AcDbBlockBegin
2
*D7
70
1
10
0
20
0
30
0
3
*D7
0
LINE
5
136
100
AcDbEntity
8
0
62
256
6
ByLayer
370
-2
48
1
60
0
100
AcDbLine
10
33
20
-1.5875
30
0
11
33
21
-32.557616
31
0
39
0
210
0
220
0
230
1
0
LINE
5
137
100
AcDbEntity
8
0
62
256
6
ByLayer
370
-2
48
1
60
0
100
AcDbLine
10
9.75
20
-4.6375
30
0
11
9.75
21
-32.557616
31
0
39
0
210
0
220
0
230
1
0
LINE
5
138
100
AcDbEntity
8
0
62
256
6
ByLayer
370
-2
48
1
60
0
100
AcDbLine
10
29.5
20
-30.557616
30
0
11
13.25
21
-30.557616
31
0
39
0
210
0
220
0
230
1
0
SOLID
5
139
100
AcDbEntity
8
0
62
256
6
ByLayer
370
-1
48
1
60
0
100
AcDbTrace
10
29.5
20
-31.14095
30
0
11
29.5
21
-29.974283
31
0
12
33
22
-30.557616
32
0
13
33
23
-30.557616
33
0
39
0
210
0
220
0
230
1
0
SOLID
5
13A
100
AcDbEntity
8
0
62
256
6
ByLayer
370
-1
48
1
60
0
100
AcDbTrace
10
13.25
20
-29.974283
30
0
11
13.25
21
-31.14095
31
0
12
9.75
22
-30.557616
32
0
13
9.75
23
-30.557616
33
0
39
0
210
0
220
0
230
1
0
MTEXT
5
13B
100
AcDbEntity
8
0
62
256
6
ByLayer
370
18
48
1
60
0
100
AcDbMText
10
21.375
20
-24.557616
30
0
210
0
220
0
230
1
1
\A1;23.25
40
3
41
0
44
1
50
0
71
5
72
5
7
iso_b_vert
0
POINT
5
13C
100
AcDbEntity
8
Defpoints
62
0
6
ByLayer
370
-1
48
1
60
0
100
AcDbPoint
10
33
20
0
30
0
39
0
210
0
220
0
230
1
50
360
0
POINT
5
13D
100
AcDbEntity
8
Defpoints
62
0
6
ByLayer
370
-1
48
1
60
0
100
AcDbPoint
10
9.75
20
-3.05
30
0
39
0
210
0
220
0
230
1
50
360
0
POINT
5
13E
100
AcDbEntity
8
Defpoints
62
0
6
ByLayer
370
-1
48
1
60
0
100
AcDbPoint
10
9.75
20
-30.557616
30
0
39
0
210
0
220
0
230
1
50
360
0
ENDBLK
5
135
100
AcDbEntity
8
0
100
AcDbBlockEnd
0
BLOCK
5
146
100
AcDbEntity
8
0
100
AcDbBlockBegin
2
_U3
70
0
10
0
20
0
30
0
3
_U3
0
MTEXT
5
140
100
AcDbEntity
8
2
62
256
6
ByLayer
370
18
48
1
60
0
100
AcDbMText
10
16.89263
20
-29.672502
30
0
210
0
220
0
230
1
1
\W0.7468;23.25
40
3
41
0
44
1.084337
50
0
71
7
72
5
7
iso_b_vert
0
LINE
5
141
100
AcDbEntity
8
2
62
256
6
ByLayer
370
13
48
1
60
0
100
AcDbLine
10
33
20
-1.5875
30
0
11
33
21
-32.557616
31
0
39
0
210
0
220
0
230
1
0
LINE
5
142
100
AcDbEntity
8
2
62
256
6
ByLayer
370
13
48
1
60
0
100
AcDbLine
10
9.75
20
-4.6375
30
0
11
9.75
21
-32.557616
31
0
39
0
210
0
220
0
230
1
0
LINE
5
143
100
AcDbEntity
8
2
62
256
6
ByLayer
370
13
48
1
60
0
100
AcDbLine
10
33
20
-30.557616
30
0
11
9.75
21
-30.557616
31
0
39
0
210
0
220
0
230
1
0
SOLID
5
144
100
AcDbEntity
8
2
62
256
6
ByLayer
370
18
48
1
60
0
100
AcDbTrace
10
33
20
-30.557616
30
0
11
29.500002
21
-31.0184
31
0
12
29.499998
22
-30.096833
32
0
13
29.499998
23
-30.096833
33
0
39
0
210
0
220
0
230
1
0
SOLID
5
145
100
AcDbEntity
8
2
62
256
6
ByLayer
370
18
48
1
60
0
100
AcDbTrace
10
9.75
20
-30.557616
30
0
11
13.249998
21
-30.096833
31
0
12
13.250002
22
-31.0184
32
0
13
13.250002
23
-31.0184
33
0
39
0
210
0
220
0
230
1
0
ENDBLK
5
147
100
AcDbEntity
8
0
100
AcDbBlockEnd
0
ENDSEC
0
SECTION
2
ENTITIES
0
ARC
5
B5
100
AcDbEntity
8
2
62
256
6
ByLayer
370
13
48
1
60
0
100
AcDbCircle
39
0
10
33
20
0
30
0
40
22
210
0
220
0
230
1
100
AcDbArc
50
7.83748
51
61.596605
0
ARC
5
B6
100
AcDbEntity
8
2
62
256
6
ByLayer
370
13
48
1
60
0
100
AcDbCircle
39
0
10
33
20
0
30
0
40
22
210
0
220
0
230
1
100
AcDbArc
50
298.403395
51
352.16252
0
POINT
5
70
100
AcDbEntity
8
81
62
256
6
ByLayer
370
18
48
1
60
0
100
AcDbPoint
10
33
20
0
30
0
39
0
210
0
220
0
230
1
50
360
0
POINT
5
72
100
AcDbEntity
8
80
62
256
6
ByLayer
370
18
48
1
60
0
100
AcDbPoint
10
0
20
0
30
0
39
0
210
0
220
0
230
1
50
360
0
POINT
5
74
100
AcDbEntity
8
1
62
256
6
ByLayer
370
18
48
1
60
1
100
AcDbPoint
10
-37
20
-3.05
30
0
39
0
210
0
220
0
230
1
50
360
0
POINT
5
76
100
AcDbEntity
8
1
62
256
6
ByLayer
370
18
48
1
60
1
100
AcDbPoint
10
33
20
0
30
0
39
0
210
0
220
0
230
1
50
360
0
POINT
5
77
100
AcDbEntity
8
1
62
256
6
ByLayer
370
18
48
1
60
1
100
AcDbPoint
10
33
20
0
30
0
39
0
210
0
220
0
230
1
50
360
0
POINT
5
78
100
AcDbEntity
8
1
62
256
6
ByLayer
370
18
48
1
60
1
100
AcDbPoint
10
2
20
-3.05
30
0
39
0
210
0
220
0
230
1
50
360
0
POINT
5
79
100
AcDbEntity
8
1
62
256
6
ByLayer
370
18
48
1
60
1
100
AcDbPoint
10
-37
20
-3.05
30
0
39
0
210
0
220
0
230
1
50
360
0
POINT
5
7A
100
AcDbEntity
8
1
62
256
6
ByLayer
370
18
48
1
60
1
100
AcDbPoint
10
0
20
-3.05
30
0
39
0
210
0
220
0
230
1
50
360
0
POINT
5
7B
100
AcDbEntity
8
1
62
256
6
ByLayer
370
18
48
1
60
1
100
AcDbPoint
10
33
20
0
30
0
39
0
210
0
220
0
230
1
50
360
0
POINT
5
7C
100
AcDbEntity
8
1
62
256
6
ByLayer
370
18
48
1
60
1
100
AcDbPoint
10
9.75
20
-3.05
30
0
39
0
210
0
220
0
230
1
50
360
0
SPLINE
5
B7
100
AcDbEntity
8
NOCUT
62
256
6
ByLayer
370
18
48
1
60
0
100
AcDbSpline
70
2053
71
3
72
26
73
22
40
0
40
0
40
0
40
0
40
0.471494839319116
40
0.471494839319116
40
0.471494839319116
40
0.502173770633475
40
0.502173770633475
40
0.502173770633475
40
0.596472745127676
40
0.596472745127676
40
0.596472745127676
40
0.600508623465827
40
0.600508623465827
40
0.600508623465827
40
0.966106226146198
40
0.966106226146198
40
0.966106226146198
40
0.976803462450561
40
0.976803462450561
40
0.976803462450561
40
1
40
1
40
1
40
1
41
1
10
-37
20
0
30
0
41
1
10
-21.4166666666668
20
0
30
0
41
1
10
-5.83333333333354
20
0
30
0
41
1
10
9.74999999999983
20
0
30
0
41
1
10
9.75
20
1.01396658695933
30
0
41
1
10
9.75
20
2.02793317391868
30
0
41
1
10
9.75
20
3.04189976087801
30
0
41
1
10
6.63333333333324
20
3.04073101087784
30
0
41
1
10
3.51666666666651
20
3.03956226087766
30
0
41
1
10
0.399999999076897
20
3.03839351090429
30
0
41
1
10
0.26666666543602
20
3.04226234062071
30
0
41
1
10
0.133333332718024
20
3.04613117031036
30
0
41
1
10
0
20
3.05000000000001
30
0
41
1
10
-12.0833333333333
20
3.05000000000001
30
0
41
1
10
-24.1666666666667
20
3.05000000000001
30
0
41
1
10
-36.25
20
3.05000000000001
30
0
41
1
10
-36.5
20
2.80000000000001
30
0
41
1
10
-36.75
20
2.55000000000001
30
0
41
1
10
-37
20
2.30000000000001
30
0
41
1
10
-37
20
1.53333333333333
30
0
41
1
10
-37
20
0.76666666666668
30
0
41
1
10
-37
20
0
30
0
0
SPLINE
5
B9
100
AcDbEntity
8
CUT
62
256
6
ByLayer
370
18
48
1
60
0
100
AcDbSpline
70
2053
71
3
72
17
73
13
40
0
40
0
40
0
40
0
40
0.452687411938415
40
0.452687411938415
40
0.452687411938415
40
0.51191449710369
40
0.51191449710369
40
0.51191449710369
40
0.932488149543352
40
0.932488149543352
40
0.932488149543352
40
1
40
1
40
1
40
1
41
1
10
33
20
0
30
0
41
1
10
25.25
20
0
30
0
41
1
10
17.5
20
0
30
0
41
1
10
9.75
20
0
30
0
41
1
10
9.75
20
1.01396658695933
30
0
41
1
10
9.75
20
2.02793317391868
30
0
41
1
10
9.74999999999966
20
3.04189976087801
30
0
41
1
10
16.950212533593
20
3.04459984057851
30
0
41
1
10
24.1504250671867
20
3.04729992027899
30
0
41
1
10
31.3506376007804
20
3.04999999997949
30
0
41
1
10
31.900425067187
20
2.03333333331966
30
0
41
1
10
32.4502125335935
20
1.01666666665983
30
0
41
1
10
33
20
0
30
0
0
SPLINE
5
BB
100
AcDbEntity
8
1
62
256
6
ByLayer
370
18
48
1
60
0
100
AcDbSpline
70
4
71
3
72
77
73
73
40
0
40
0
40
0
40
0
40
0.0624999999999875
40
0.0624999999999875
40
0.124999999999975
40
0.124999999999975
40
0.187499999999963
40
0.187499999999963
40
0.24999999999995
40
0.24999999999995
40
0.281249999999944
40
0.281249999999944
40
0.296874999999941
40
0.296874999999941
40
0.312499999999938
40
0.312499999999938
40
0.343749999999934
40
0.343749999999934
40
0.374999999999931
40
0.374999999999931
40
0.406249999999928
40
0.406249999999928
40
0.437499999999925
40
0.437499999999925
40
0.468749999999921
40
0.468749999999921
40
0.484374999999919
40
0.484374999999919
40
0.492187499999917
40
0.492187499999917
40
0.499999999999916
40
0.499999999999916
40
0.503906249999915
40
0.503906249999915
40
0.507812499999914
40
0.507812499999914
40
0.511718749999914
40
0.511718749999914
40
0.515624999999913
40
0.515624999999913
40
0.519531249999912
40
0.519531249999912
40
0.523437499999912
40
0.523437499999912
40
0.527343749999911
40
0.527343749999911
40
0.53124999999991
40
0.53124999999991
40
0.546874999999912
40
0.546874999999912
40
0.562499999999914
40
0.562499999999914
40
0.593749999999921
40
0.593749999999921
40
0.624999999999927
40
0.624999999999927
40
0.687499999999941
40
0.687499999999941
40
0.718749999999947
40
0.718749999999947
40
0.749999999999954
40
0.749999999999954
40
0.812499999999967
40
0.812499999999967
40
0.87499999999998
40
0.87499999999998
40
0.937499999999993
40
0.937499999999993
40
0.953124999999995
40
0.953124999999995
40
0.968749999999998
40
1
40
1
40
1
40
1
41
1
10
31.3506376007804
20
2.95276205904463
30
0
41
1
10
31.4127635033301
20
2.83870696070957
30
0
41
1
10
31.4746767890381
20
2.72432676871739
30
0
41
1
10
31.5980371238647
20
2.49498427114253
30
0
41
1
10
31.6594852700327
20
2.38002243669027
30
0
41
1
10
31.7817857622973
20
2.1495207079723
30
0
41
1
10
31.8426415243037
20
2.03398281979196
30
0
41
1
10
31.9634786246831
20
1.80223733381516
30
0
41
1
10
32.0234654429256
20
1.68603098024508
30
0
41
1
10
32.1123656044642
20
1.51103259066454
30
0
41
1
10
32.1418177329628
20
1.45258098329288
30
0
41
1
10
32.185615342146
20
1.36468643207854
30
0
41
1
10
32.200151782903
20
1.33535482395928
30
0
41
1
10
32.2291616815913
20
1.27668518976284
30
0
41
1
10
32.2436390865101
20
1.24735033801633
30
0
41
1
10
32.287001520784
20
1.1593610379247
30
0
41
1
10
32.3158022273203
20
1.10070854055812
30
0
41
1
10
32.3730626626794
20
0.983350707268841
30
0
41
1
10
32.4015431194991
20
0.924632250869792
30
0
41
1
10
32.4579295100382
20
0.807173317937043
30
0
41
1
10
32.4858322634458
20
0.748440694446572
30
0
41
1
10
32.5406837417039
20
0.630802724978395
30
0
41
1
10
32.5676554885254
20
0.571879420068797
30
0
41
1
10
32.6198252064337
20
0.453657599649233
30
0
41
1
10
32.6450541724147
20
0.394363497832472
30
0
41
1
10
32.6802690953827
20
0.30463689743226
30
0
41
1
10
32.6915416120309
20
0.274612697272886
30
0
41
1
10
32.7075107886405
20
0.229356186989889
30
0
41
1
10
32.7126937855098
20
0.21424576192166
30
0
41
1
10
32.7226129899612
20
0.183883835467185
30
0
41
1
10
32.7273538976217
20
0.168639275164509
30
0
41
1
10
32.7323815548238
20
0.144547939248241
30
0
41
1
10
32.7336873882711
20
0.136442082407314
30
0
41
1
10
32.7354605520463
20
0.120293020017527
30
0
41
1
10
32.7359378772144
20
0.112208683252277
30
0
41
1
10
32.7359935112029
20
0.0960614361140131
30
0
41
1
10
32.735571887538
20
0.0882480132200385
30
0
41
1
10
32.7338606641244
20
0.0731356667143928
30
0
41
1
10
32.7325569178918
20
0.0657899636723869
30
0
41
1
10
32.7291156644703
20
0.0518659523822862
30
0
41
1
10
32.7270116008963
20
0.0454296986540044
30
0
41
1
10
32.7222444196773
20
0.0333444186809118
30
0
41
1
10
32.7195899547465
20
0.027681194012132
30
0
41
1
10
32.7140527085103
20
0.0166186163139059
30
0
41
1
10
32.7111824790042
20
0.0112255940601926
30
0
41
1
10
32.7053638950706
20
0.0004860312098174
30
0
41
1
10
32.7024089462819
20
-0.0048532034903701
30
0
41
1
10
32.6874462028417
20
-0.031452044533097
30
0
41
1
10
32.6748641699265
20
-0.0523833191579115
30
0
41
1
10
32.6487627262673
20
-0.0932947017034849
30
0
41
1
10
32.6352516393601
20
-0.113310778496697
30
0
41
1
10
32.5937932392025
20
-0.172161930209114
30
0
41
1
10
32.5650773888493
20
-0.209616735877631
30
0
41
1
10
32.506629234846
20
-0.281462530448749
30
0
41
1
10
32.4768769719319
20
-0.315847577047833
30
0
41
1
10
32.3867648616366
20
-0.414717380485996
30
0
41
1
10
32.3255854941684
20
-0.474944731527671
30
0
41
1
10
32.2330853446596
20
-0.557131657342296
30
0
41
1
10
32.2020848988145
20
-0.583181809413816
30
0
41
1
10
32.1399673276173
20
-0.632435630323613
30
0
41
1
10
32.1090113172483
20
-0.655511496684227
30
0
41
1
10
32.0164439948048
20
-0.720269673947882
30
0
41
1
10
31.9551345259426
20
-0.757519747437982
30
0
41
1
10
31.8331182766218
20
-0.820737933119005
30
0
41
1
10
31.7724098688042
20
-0.846684414365768
30
0
41
1
10
31.6513171826056
20
-0.88735033130655
30
0
41
1
10
31.5909320623882
20
-0.902071646653894
30
0
41
1
10
31.5154566088332
20
-0.913384503246419
30
0
41
1
10
31.5003620723524
20
-0.915291301354983
30
0
41
1
10
31.4702598718098
20
-0.918384180666578
30
0
41
1
10
31.4252023727149
20
-0.921947893361335
30
0
41
1
10
31.3804067782342
20
-0.922307639235186
30
0
41
1
10
31.3506376007805
20
-0.92113654060816
30
0
0
SPLINE
5
BC
100
AcDbEntity
8
1
62
256
6
ByLayer
370
18
48
1
60
0
100
AcDbSpline
70
4
71
5
72
88
73
82
40
0
40
0
40
0
40
0
40
0
40
0
40
0.0006471795658577
40
0.0244994363795626
40
0.048376588495465
40
0.0721433682862795
40
0.0938768144401516
40
0.113786303374681
40
0.137101987085514
40
0.161304434801632
40
0.185573764813971
40
0.209885008407492
40
0.234177119625219
40
0.258000838109543
40
0.281931276091582
40
0.30647263759587
40
0.331118196351477
40
0.355523064324559
40
0.377058809074526
40
0.398240259804061
40
0.419885954704833
40
0.440201223446936
40
0.456830625648842
40
0.464715202591823
40
0.466333931493366
40
0.468506682813639
40
0.469893807377133
40
0.470412073697559
40
0.4736334445554
40
0.476089285977772
40
0.476753095929649
40
0.477427612493654
40
0.480022559148287
40
0.483376445561957
40
0.486762190051592
40
0.490119761095989
40
0.493420318492103
40
0.495597183985674
40
0.496720125584072
40
0.497000860983671
40
0.497793178070688
40
0.498585495157704
40
0.499895955425685
40
0.501206415693667
40
0.502421819765763
40
0.50450914415045
40
0.505334826264646
40
0.506160508378842
40
0.506986190493038
40
0.507811872607234
40
0.511919599739648
40
0.516027326872061
40
0.524242781136889
40
0.541977033776202
40
0.597831511706227
40
0.636404496128986
40
0.638349352486436
40
0.684540282799338
40
0.702462301747289
40
0.718465558530119
40
0.7344138206819
40
0.750328073388731
40
0.76620502858272
40
0.782043214128034
40
0.797841134622036
40
0.813593935043493
40
0.829302088631652
40
0.844961865882324
40
0.860570599384989
40
0.87612784675491
40
0.891628060866712
40
0.90707146480886
40
0.922455053256166
40
0.937730348468056
40
0.952281190242894
40
0.966030769926922
40
0.98053322475208
40
0.995219659450331
40
1
40
1
40
1
40
1
40
1
40
1
41
1
10
8.58471974823465
20
1.93237031642664
30
0
41
1
10
8.58471974823462
20
1.93189161288262
30
0
41
1
10
8.58471974823462
20
1.91377198933077
30
0
41
1
10
8.58471974823462
20
1.87814508103327
30
0
41
1
10
8.58471974823459
20
1.8254625903096
30
0
41
1
10
8.58471974823453
20
1.75777355288139
30
0
41
1
10
8.58471974823465
20
1.67754981020889
30
0
41
1
10
8.58471974823453
20
1.59898722775216
30
0
41
1
10
8.58471974823462
20
1.52145755922831
30
0
41
1
10
8.58471974823453
20
1.44518862735555
30
0
41
1
10
8.58471974823465
20
1.3687233289337
30
0
41
1
10
8.58471974823456
20
1.29110992310382
30
0
41
1
10
8.58471974823465
20
1.21487070830222
30
0
41
1
10
8.58471974823456
20
1.14052695000197
30
0
41
1
10
8.58471974823462
20
1.06768886428321
30
0
41
1
10
8.58471974823459
20
0.99636319958833
30
0
41
1
10
8.58471974823462
20
0.92680085780782
30
0
41
1
10
8.58471974823453
20
0.860279475041978
30
0
41
1
10
8.58471974823465
20
0.79697705858095
30
0
41
1
10
8.58471974823453
20
0.73678707599521
30
0
41
1
10
8.58471974823462
20
0.680359717072236
30
0
41
1
10
8.58471974823459
20
0.629260487339081
30
0
41
1
10
8.58471974823459
20
0.586117547922328
30
0
41
1
10
8.58471974823462
20
0.553272225786401
30
0
41
1
10
8.58471974823459
20
0.53025216325409
30
0
41
1
10
8.58471974823459
20
0.516103661693649
30
0
41
1
10
8.58471974823459
20
0.509638884677088
30
0
41
1
10
8.58471974823459
20
0.505417442271863
30
0
41
1
10
8.58471974823459
20
0.500890537288825
30
0
41
1
10
8.58471974823459
20
0.497228003176048
30
0
41
1
10
8.58471974823459
20
0.494163512609475
30
0
41
1
10
8.58471974823459
20
0.490796686514301
30
0
41
1
10
8.58471974823462
20
0.487937445834263
30
0
41
1
10
8.58471974823462
20
0.485549523289933
30
0
41
1
10
8.58471974823462
20
0.483866043925843
30
0
41
1
10
8.58471974823462
20
0.483814174824232
30
0
41
1
10
8.58471974823459
20
0.485734384907005
30
0
41
1
10
8.58471974823453
20
0.488902259659909
30
0
41
1
10
8.58471974823448
20
0.492269096566872
30
0
41
1
10
8.58471974823445
20
0.495257279073854
30
0
41
1
10
8.58471974823442
20
0.497460736745467
30
0
41
1
10
8.58471974823442
20
0.499400059012231
30
0
41
1
10
8.58471974823445
20
0.501537462748331
30
0
41
1
10
8.58471974823448
20
0.504288329638513
30
0
41
1
10
8.58471974823451
20
0.507894751696455
30
0
41
1
10
8.58471974823453
20
0.511720201508979
30
0
41
1
10
8.58471974823456
20
0.515386669466153
30
0
41
1
10
8.58471974823459
20
0.518821800803806
30
0
41
1
10
8.58471974823459
20
0.522041341189492
30
0
41
1
10
8.58471974823459
20
0.526475780670353
30
0
41
1
10
8.58471974823459
20
0.532876691070754
30
0
41
1
10
8.58471974823459
20
0.54368894031856
30
0
41
1
10
8.58471974823456
20
0.56450166751091
30
0
41
1
10
8.58471974823465
20
0.617916974262442
30
0
41
1
10
8.58471974823451
20
0.691890558197201
30
0
41
1
10
8.58471974823462
20
0.764633580151894
30
0
41
1
10
8.58471974823456
20
0.859936109400849
30
0
41
1
10
8.58471974823462
20
0.955551879153518
30
0
41
1
10
8.58471974823459
20
1.0272967545159
30
0
41
1
10
8.58471974823459
20
1.0859150510928
30
0
41
1
10
8.58471974823459
20
1.15228083589742
30
0
41
1
10
8.58471974823462
20
1.20243684714509
30
0
41
1
10
8.58471974823459
20
1.25276534465462
30
0
41
1
10
8.58471974823462
20
1.30439615300426
30
0
41
1
10
8.58471974823459
20
1.35735604443073
30
0
41
1
10
8.58471974823456
20
1.41161406275609
30
0
41
1
10
8.58471974823462
20
1.46717279918872
30
0
41
1
10
8.58471974823456
20
1.52401522969663
30
0
41
1
10
8.58471974823462
20
1.58213938030025
30
0
41
1
10
8.58471974823459
20
1.64153704119497
30
0
41
1
10
8.58471974823459
20
1.70220567286359
30
0
41
1
10
8.58471974823459
20
1.76414346094717
30
0
41
1
10
8.58471974823459
20
1.82731276383365
30
0
41
1
10
8.58471974823459
20
1.89116033539014
30
0
41
1
10
8.58471974823459
20
1.95501338800847
30
0
41
1
10
8.58471974823459
20
2.01950474167208
30
0
41
1
10
8.58471974823459
20
2.08491458301859
30
0
41
1
10
8.58471974823459
20
2.14149828484665
30
0
41
1
10
8.58471974823462
20
2.18534904175456
30
0
41
1
10
8.58471974823459
20
2.21679882626611
30
0
41
1
10
8.58471974823459
20
2.2348987989395
30
0
41
1
10
8.58471974823459
20
2.23934815337981
30
0
0
SPLINE
5
BD
100
AcDbEntity
8
1
62
256
6
ByLayer
370
18
48
1
60
0
100
AcDbSpline
70
4
71
3
72
77
73
73
40
0
40
0
40
0
40
0
40
0.0344044596825511
40
0.0344044596825511
40
0.0688089193651022
40
0.0688089193651022
40
0.0860111492063778
40
0.0860111492063778
40
0.103213379047653
40
0.103213379047653
40
0.137617838730205
40
0.137617838730205
40
0.206426758095304
40
0.206426758095304
40
0.22362898793658
40
0.22362898793658
40
0.240831217777856
40
0.240831217777856
40
0.275235677460406
40
0.275235677460406
40
0.309640137142955
40
0.309640137142955
40
0.344044596825505
40
0.344044596825505
40
0.361246826666778
40
0.361246826666778
40
0.378449056508051
40
0.378449056508051
40
0.395651286349325
40
0.395651286349325
40
0.412853516190598
40
0.412853516190598
40
0.447257975873144
40
0.447257975873144
40
0.481662435555691
40
0.481662435555691
40
0.516066895238237
40
0.516066895238237
40
0.550471354920784
40
0.550471354920784
40
0.58487581460333
40
0.58487581460333
40
0.619280274285877
40
0.619280274285877
40
0.653684733968423
40
0.653684733968423
40
0.68808919365097
40
0.68808919365097
40
0.705291423492243
40
0.705291423492243
40
0.722493653333516
40
0.73969588317479
40
0.73969588317479
40
0.756898113016063
40
0.756898113016063
40
0.791302572698609
40
0.791302572698609
40
0.825707032381156
40
0.825707032381156
40
0.860111492063702
40
0.860111492063702
40
0.894515951746249
40
0.894515951746249
40
0.928920411428795
40
0.928920411428795
40
0.963324871111342
40
0.963324871111342
40
0.980527100952615
40
0.980527100952615
40
0.997729330793888
40
0.997729330793888
40
1
40
1
40
1
40
1
41
1
10
31.3506376007816
20
-0.921136540608757
30
0
41
1
10
31.2308935746696
20
-0.858129944068281
30
0
41
1
10
31.1114132617397
20
-0.794729664426484
30
0
41
1
10
30.8731275276731
20
-0.666864270620323
30
0
41
1
10
30.7543422889105
20
-0.602361736890913
30
0
41
1
10
30.5766582963591
20
-0.504833777373165
30
0
41
1
10
30.5175131827455
20
-0.47219442778669
30
0
41
1
10
30.3992630576844
20
-0.406888952275494
30
0
41
1
10
30.3401433542001
20
-0.374250037135312
30
0
41
1
10
30.1628004011868
20
-0.276373550483811
30
0
41
1
10
30.0446172628566
20
-0.211131789647624
30
0
41
1
10
29.6901706439277
20
-0.0154918023535515
30
0
41
1
10
29.4538750880319
20
0.114574556806559
30
0
41
1
10
29.1590489599839
20
0.277699588149829
30
0
41
1
10
29.1001113077344
20
0.31035225151777
30
0
41
1
10
28.9822571788087
20
0.375649969215345
30
0
41
1
10
28.9233450997892
20
0.408303046513026
30
0
41
1
10
28.7464410812286
20
0.505884711962409
30
0
41
1
10
28.6282618818462
20
0.570400442702947
30
0
41
1
10
28.3915141156717
20
0.698534045422605
30
0
41
1
10
28.2729319666988
20
0.762126959696616
30
0
41
1
10
28.0352872528852
20
0.888248385630646
30
0
41
1
10
27.916231730446
20
0.950789942951872
30
0
41
1
10
27.7374181212325
20
1.04403810702618
30
0
41
1
10
27.6777743346061
20
1.07502517425772
30
0
41
1
10
27.5584056704482
20
1.13680243914365
30
0
41
1
10
27.4986312301062
20
1.16762559521831
30
0
41
1
10
27.3792830920415
20
1.22883633450994
30
0
41
1
10
27.3197065517917
20
1.25922353451901
30
0
41
1
10
27.2006020895965
20
1.31931068649772
30
0
41
1
10
27.1410825540659
20
1.34902655193159
30
0
41
1
10
26.9626437419122
20
1.43724760304943
30
0
41
1
10
26.843854908346
20
1.49484437349028
30
0
41
1
10
26.6065551071316
20
1.60756201103211
30
0
41
1
10
26.4880249309328
20
1.66265388752495
30
0
41
1
10
26.2513062733596
20
1.77049395391154
30
0
41
1
10
26.1331405179315
20
1.82327628425514
30
0
41
1
10
25.8972446391724
20
1.92660127410616
30
0
41
1
10
25.7795559935007
20
1.97719271015919
30
0
41
1
10
25.5438770816447
20
2.07507247159691
30
0
41
1
10
25.4259253285555
20
2.12242560068603
30
0
41
1
10
25.1898527774756
20
2.21407196757249
30
0
41
1
10
25.0717123246679
20
2.2583385742609
30
0
41
1
10
24.8351940226877
20
2.34373271568614
30
0
41
1
10
24.7168320593965
20
2.38488211438741
30
0
41
1
10
24.4800543002816
20
2.46421574385229
30
0
41
1
10
24.3616602555509
20
2.50241872415384
30
0
41
1
10
24.183847844795
20
2.55723236244981
30
0
41
1
10
24.1245148649666
20
2.57506195741755
30
0
41
1
10
24.0056396146714
20
2.60975307807723
30
0
41
1
10
23.8865786042738
20
2.64350127244401
30
0
41
1
10
23.7671789412741
20
2.67539877810438
30
0
41
1
10
23.6476010722558
20
2.70636074077541
30
0
41
1
10
23.5876966692115
20
2.72137987718423
30
0
41
1
10
23.4083131229508
20
2.76487283691404
30
0
41
1
10
23.288962614089
20
2.79182971602998
30
0
41
1
10
23.0508743552513
20
2.8418284700376
30
0
41
1
10
22.9321574051295
20
2.8648820584304
30
0
41
1
10
22.6953651165398
20
2.90704811759974
30
0
41
1
10
22.5772783445708
20
2.92613846605914
30
0
41
1
10
22.3409582188754
20
2.95997578301478
30
0
41
1
10
22.2228179472503
20
2.97478312709438
30
0
41
1
10
21.9865799093813
20
3.00024835631243
30
0
41
1
10
21.8684598804892
20
3.01089843919095
30
0
41
1
10
21.6322397716411
20
3.02807059862462
30
0
41
1
10
21.5141615435378
20
3.03459993902618
30
0
41
1
10
21.3371809935332
20
3.04127955402876
30
0
41
1
10
21.2782094840483
20
3.04298573231856
30
0
41
1
10
21.1602894144496
20
3.04534216739094
30
0
41
1
10
21.1013448033204
20
3.04599170926952
30
0
41
1
10
21.0345694568594
20
3.04612287195957
30
0
41
1
10
21.0267818946943
20
3.04612889865931
30
0
41
1
10
21.0189932283799
20
3.04612566398293
30
0
0
SPLINE
5
BE
100
AcDbEntity
8
1
62
256
6
ByLayer
370
18
48
1
60
0
100
AcDbSpline
70
4
71
3
72
31
73
27
40
0
40
0
40
0
40
0
40
0.174109864912306
40
0.174109864912306
40
0.348219729824611
40
0.348219729824611
40
0.435274662280764
40
0.435274662280764
40
0.522329594736916
40
0.522329594736916
40
0.609384527193069
40
0.609384527193069
40
0.696439459649222
40
0.696439459649222
40
0.7399669258773
40
0.7399669258773
40
0.783494392105378
40
0.783494392105378
40
0.827021858333457
40
0.827021858333457
40
0.870549324561535
40
0.914076790789613
40
0.914076790789613
40
0.957604257017691
40
0.957604257017691
40
1
40
1
40
1
40
1
41
1
10
8.58471974823459
20
-2.23934815338146
30
0
41
1
10
8.82328384900904
20
-2.33009615855164
30
0
41
1
10
9.06188171766721
20
-2.41222180437529
30
0
41
1
10
9.5373718029372
20
-2.56265718041524
30
0
41
1
10
9.77419195927848
20
-2.63097174689847
30
0
41
1
10
10.1279020198642
20
-2.72294967482833
30
0
41
1
10
10.2455883556968
20
-2.75180260550314
30
0
41
1
10
10.4815308018473
20
-2.80515250404275
30
0
41
1
10
10.5997262107237
20
-2.82971883443901
30
0
41
1
10
10.8362719109796
20
-2.87493249000448
30
0
41
1
10
10.9546089401858
20
-2.89558639105442
30
0
41
1
10
11.1912249888845
20
-2.93305665426499
30
0
41
1
10
11.3095319337632
20
-2.94985451307306
30
0
41
1
10
11.4870065158916
20
-2.97206239969878
30
0
41
1
10
11.5461628440485
20
-2.97896835808831
30
0
41
1
10
11.6644705442094
20
-2.99176847316684
30
0
41
1
10
11.7236317637727
20
-2.99765748077707
30
0
41
1
10
11.8421286158451
20
-3.00835462836747
30
0
41
1
10
11.9014744822713
20
-3.01316060369407
30
0
41
1
10
12.0204198820127
20
-3.02168546647891
30
0
41
1
10
12.1395957180039
20
-3.02913078328373
30
0
41
1
10
12.2591632747951
20
-3.03445096167061
30
0
41
1
10
12.3788915393751
20
-3.03871412788067
30
0
41
1
10
12.4388842580271
20
-3.04031761058462
30
0
41
1
10
12.557082322209
20
-3.04242873485768
30
0
41
1
10
12.6153142277929
20
-3.04296535592758
30
0
41
1
10
12.6734596771896
20
-3.04299619606621
30
0
0
SPLINE
5
BF
100
AcDbEntity
8
1
62
256
6
ByLayer
370
18
48
1
60
0
100
AcDbSpline
70
4
71
3
72
48
73
44
40
0
40
0
40
0
40
0
40
0.027887475526479
40
0.027887475526479
40
0.088644508306078
40
0.088644508306078
40
0.149401541085677
40
0.149401541085677
40
0.210158573865276
40
0.210158573865276
40
0.270915606644876
40
0.270915606644876
40
0.301294123034673
40
0.301294123034673
40
0.33167263942447
40
0.33167263942447
40
0.362051155814267
40
0.362051155814267
40
0.392429672204064
40
0.392429672204064
40
0.422808188593861
40
0.422808188593861
40
0.453186704983658
40
0.453186704983658
40
0.513943737763251
40
0.513943737763251
40
0.574700770542845
40
0.574700770542845
40
0.635457803322438
40
0.635457803322438
40
0.696214836102032
40
0.696214836102032
40
0.756971868881626
40
0.756971868881626
40
0.817728901661219
40
0.817728901661219
40
0.848107418051016
40
0.848107418051016
40
0.878485934440812
40
0.878485934440812
40
0.939242967220406
40
0.939242967220406
40
1
40
1
40
1
40
1
41
1
10
25.4950932563031
20
2.09836158336441
30
0
41
1
10
25.5492568633978
20
2.1201707933385
30
0
41
1
10
25.6033758314851
20
2.14170587633331
30
0
41
1
10
25.7752568278235
20
2.20928448362875
30
0
41
1
10
25.8927627193874
20
2.25438713314946
30
0
41
1
10
26.1283224097165
20
2.34072504064579
30
0
41
1
10
26.2463822515637
20
2.38197412860865
30
0
41
1
10
26.4827873449092
20
2.46104090631661
30
0
41
1
10
26.6011265619182
20
2.49886507346397
30
0
41
1
10
26.8378254015656
20
2.57134370844199
30
0
41
1
10
26.956206695415
20
2.60597155811837
30
0
41
1
10
27.1338586466615
20
2.65540307775799
30
0
41
1
10
27.193087911307
20
2.67146309666421
30
0
41
1
10
27.3115588255774
20
2.70274436433857
30
0
41
1
10
27.3707897799051
20
2.71797391188764
30
0
41
1
10
27.489389413492
20
2.74747163913548
30
0
41
1
10
27.5487627532259
20
2.7617359287787
30
0
41
1
10
27.667791965573
20
2.78919155556181
30
0
41
1
10
27.7274375280433
20
2.80239249520761
30
0
41
1
10
27.8469558408559
20
2.82777693985275
30
0
41
1
10
27.9068778633994
20
2.83996974737209
30
0
41
1
10
28.0266241009157
20
2.86330927346344
30
0
41
1
10
28.0864458206752
20
2.87445670261732
30
0
41
1
10
28.2657034191182
20
2.90637897184155
30
0
41
1
10
28.3849102971396
20
2.92564698765634
30
0
41
1
10
28.622732089743
20
2.96013505694307
30
0
41
1
10
28.7413631066213
20
2.97534881288354
30
0
41
1
10
28.977989641428
20
3.00167581954744
30
0
41
1
10
29.0960133442853
20
3.01275493969291
30
0
41
1
10
29.3325962216115
20
3.03048557044232
30
0
41
1
10
29.4510624352306
20
3.03718768403084
30
0
41
1
10
29.6880663075607
20
3.04642716149456
30
0
41
1
10
29.8065878949098
20
3.04896464286603
30
0
41
1
10
30.0434866456935
20
3.0498522679672
30
0
41
1
10
30.1618920380881
20
3.04819830630569
30
0
41
1
10
30.3394465821762
20
3.04249711765479
30
0
41
1
10
30.3986176691495
20
3.04005912360924
30
0
41
1
10
30.516934321059
20
3.03408918048734
30
0
41
1
10
30.5760908394625
20
3.030557445845
30
0
41
1
10
30.7537961179548
20
3.01836426786642
30
0
41
1
10
30.8726791895869
20
3.00813698318703
30
0
41
1
10
31.1112073173673
20
2.98357691224837
30
0
41
1
10
31.2308197011873
20
2.96923756284159
30
0
41
1
10
31.3506376007816
20
2.95276205904446
30
0
0
SPLINE
5
C0
100
AcDbEntity
8
1
62
256
6
ByLayer
370
18
48
1
60
0
100
AcDbSpline
70
4
71
3
72
116
73
112
40
0
40
0
40
0
40
0
40
0.0111092425529007
40
0.0111092425529007
40
0.0321494714347522
40
0.0321494714347522
40
0.0531897003166036
40
0.0531897003166036
40
0.0742299291984551
40
0.0742299291984551
40
0.0847500436393804
40
0.0847500436393804
40
0.0952701580803056
40
0.105790272521231
40
0.105790272521231
40
0.116310386962156
40
0.116310386962156
40
0.137350615844007
40
0.137350615844007
40
0.158390844725857
40
0.158390844725857
40
0.179431073607708
40
0.179431073607708
40
0.200471302489558
40
0.200471302489558
40
0.221511531371409
40
0.221511531371409
40
0.24255176025326
40
0.24255176025326
40
0.253071874694185
40
0.253071874694185
40
0.26359198913511
40
0.26359198913511
40
0.284632218016962
40
0.284632218016962
40
0.305672446898813
40
0.305672446898813
40
0.326712675780665
40
0.326712675780665
40
0.337232790221591
40
0.337232790221591
40
0.347752904662517
40
0.347752904662517
40
0.358273019103443
40
0.358273019103443
40
0.36879313354437
40
0.36879313354437
40
0.389833362426223
40
0.389833362426223
40
0.410873591308077
40
0.410873591308077
40
0.43191382018993
40
0.43191382018993
40
0.442433934630857
40
0.452954049071783
40
0.452954049071783
40
0.473994277953637
40
0.473994277953637
40
0.49503450683549
40
0.49503450683549
40
0.516074735717344
40
0.516074735717344
40
0.537114964599197
40
0.537114964599197
40
0.547635079040124
40
0.547635079040124
40
0.558155193481051
40
0.558155193481051
40
0.579195422362906
40
0.579195422362906
40
0.60023565124476
40
0.60023565124476
40
0.621275880126614
40
0.621275880126614
40
0.642316109008469
40
0.642316109008469
40
0.663356337890323
40
0.663356337890323
40
0.684396566772177
40
0.684396566772177
40
0.705436795654031
40
0.705436795654031
40
0.726477024535886
40
0.726477024535886
40
0.74751725341774
40
0.74751725341774
40
0.768557482299594
40
0.768557482299594
40
0.789597711181449
40
0.789597711181449
40
0.800117825622376
40
0.800117825622376
40
0.810637940063303
40
0.810637940063303
40
0.82115805450423
40
0.82115805450423
40
0.831678168945157
40
0.831678168945157
40
0.852718397827013
40
0.852718397827013
40
0.873758626708868
40
0.873758626708868
40
0.894798855590723
40
0.894798855590723
40
0.915839084472578
40
0.915839084472578
40
0.936879313354433
40
0.936879313354433
40
0.957919542236289
40
0.957919542236289
40
1
40
1
40
1
40
1
41
1
10
25.4947837632124
20
-2.094376915205
30
0
41
1
10
25.4325118155825
20
-2.11943297049638
30
0
41
1
10
25.3702122160561
20
-2.14405413956169
30
0
41
1
10
25.1898527774756
20
-2.21407196757249
30
0
41
1
10
25.0717123246679
20
-2.2583385742609
30
0
41
1
10
24.8351940226876
20
-2.34373271568617
30
0
41
1
10
24.7168320593965
20
-2.38488211438741
30
0
41
1
10
24.4800543002816
20
-2.46421574385232
30
0
41
1
10
24.3616602555509
20
-2.50241872415384
30
0
41
1
10
24.183847844795
20
-2.55723236244981
30
0
41
1
10
24.1245148649666
20
-2.57506195741755
30
0
41
1
10
24.0056396146715
20
-2.60975307807723
30
0
41
1
10
23.8865790994897
20
-2.64350192417501
30
0
41
1
10
23.7671789412742
20
-2.67539877810438
30
0
41
1
10
23.6476010722558
20
-2.70636074077538
30
0
41
1
10
23.5876966692115
20
-2.72137987718423
30
0
41
1
10
23.4083131229507
20
-2.76487283691404
30
0
41
1
10
23.288962614089
20
-2.79182971602998
30
0
41
1
10
23.0508743552513
20
-2.8418284700376
30
0
41
1
10
22.9321574051295
20
-2.8648820584304
30
0
41
1
10
22.6953651165398
20
-2.90704811759974
30
0
41
1
10
22.5772783445708
20
-2.92613846605914
30
0
41
1
10
22.3409582188754
20
-2.95997578301475
30
0
41
1
10
22.2228179472503
20
-2.97478312709438
30
0
41
1
10
21.9865799093812
20
-3.00024835631243
30
0
41
1
10
21.8684598804892
20
-3.01089843919095
30
0
41
1
10
21.6322397716411
20
-3.02807059862462
30
0
41
1
10
21.5141615435378
20
-3.03459993902618
30
0
41
1
10
21.3371809935332
20
-3.04127955402876
30
0
41
1
10
21.2782094840483
20
-3.04298573231856
30
0
41
1
10
21.1602894144496
20
-3.04534216739094
30
0
41
1
10
21.1013448033204
20
-3.04599170926952
30
0
41
1
10
20.9243781090304
20
-3.04633931402043
30
0
41
1
10
20.8061446136959
20
-3.04444342307082
30
0
41
1
10
20.5692333695934
20
-3.03644065901722
30
0
41
1
10
20.4505534586682
20
-3.03033124072374
30
0
41
1
10
20.2126719482018
20
-3.01390700827616
30
0
41
1
10
20.0934717970825
20
-3.00359687001753
30
0
41
1
10
19.9143975177728
20
-2.98489364943848
30
0
41
1
10
19.8546615781997
20
-2.97811783321231
30
0
41
1
10
19.735098034703
20
-2.96346485630627
30
0
41
1
10
19.6753323721871
20
-2.95559210663472
30
0
41
1
10
19.5560821952103
20
-2.93880074307646
30
0
41
1
10
19.4965601808737
20
-2.92987397931554
30
0
41
1
10
19.3775791182578
20
-2.91103992684307
30
0
41
1
10
19.3181156507174
20
-2.90113650719565
30
0
41
1
10
19.1398269458484
20
-2.8699792769979
30
0
41
1
10
19.0211173963219
20
-2.84727035685032
30
0
41
1
10
18.7839524732302
20
-2.79808386829106
30
0
41
1
10
18.6654758135135
20
-2.77162323448246
30
0
41
1
10
18.4288103121775
20
-2.71494655951491
30
0
41
1
10
18.3106451793477
20
-2.68471119323044
30
0
41
1
10
18.1337030127729
20
-2.63643345912908
30
0
41
1
10
18.0158450564847
20
-2.60327074961626
30
0
41
1
10
17.8981040368153
20
-2.56821715930275
30
0
41
1
10
17.721359225244
20
-2.51444085639244
30
0
41
1
10
17.6033902947732
20
-2.47696405898998
30
0
41
1
10
17.367252982972
20
-2.39872649518307
30
0
41
1
10
17.249067436379
20
-2.35798257691843
30
0
41
1
10
17.0124128408926
20
-2.27331565088855
30
0
41
1
10
16.8939554284235
20
-2.22938226866171
30
0
41
1
10
16.6569413947958
20
-2.13805865513749
30
0
41
1
10
16.538400383673
20
-2.09064205955684
30
0
41
1
10
16.3603893374317
20
-2.01700560786574
30
0
41
1
10
16.3010030914961
20
-1.99206343102406
30
0
41
1
10
16.1820090062005
20
-1.94156352970992
30
0
41
1
10
16.1224133432474
20
-1.91598920383481
30
0
41
1
10
15.9433553676162
20
-1.83825944600352
30
0
41
1
10
15.8234763062726
20
-1.78501489500249
30
0
41
1
10
15.5845170784354
20
-1.67663387784552
30
0
41
1
10
15.465258584545
20
-1.62145740409341
30
0
41
1
10
15.2273024363089
20
-1.50895683790651
30
0
41
1
10
15.1086262888292
20
-1.45159688056833
30
0
41
1
10
14.871900559297
20
-1.3346083770945
30
0
41
1
10
14.7538680634639
20
-1.27494644279554
30
0
41
1
10
14.5176468032208
20
-1.15467875029932
30
0
41
1
10
14.399531177411
20
-1.09395299275448
30
0
41
1
10
14.1633171114454
20
-0.971291730588234
30
0
41
1
10
14.0451971819703
20
-0.90939342130477
30
0
41
1
10
13.8089264345226
20
-0.784479568762549
30
0
41
1
10
13.6907950197453
20
-0.721430407839335
30
0
41
1
10
13.4546782595447
20
-0.593884288147223
30
0
41
1
10
13.336724085999
20
-0.529328068437621
30
0
41
1
10
13.100636510859
20
-0.399331528360222
30
0
41
1
10
12.9823448491124
20
-0.334184705544431
30
0
41
1
10
12.7452541882347
20
-0.203628281207159
30
0
41
1
10
12.6264711097988
20
-0.138188473756401
30
0
41
1
10
12.3883562995356
20
-0.0071230918983929
30
0
41
1
10
12.269019396621
20
0.0584912173143266
30
0
41
1
10
12.0897031891196
20
0.157259349308674
30
0
41
1
10
12.0298358329153
20
0.19027068093439
30
0
41
1
10
11.9102390156882
20
0.256293124857763
30
0
41
1
10
11.8505428637837
20
0.289291832375113
30
0
41
1
10
11.731332876509
20
0.355219930754231
30
0
41
1
10
11.6718233103506
20
0.388157017976795
30
0
41
1
10
11.5528698512015
20
0.453742728203366
30
0
41
1
10
11.4934105003929
20
0.486362885629234
30
0
41
1
10
11.3150818235006
20
0.583710057124904
30
0
41
1
10
11.1962871778693
20
0.647971081757049
30
0
41
1
10
10.9588546834017
20
0.775203562089473
30
0
41
1
10
10.8401934701527
20
0.838133394135014
30
0
41
1
10
10.603036557394
20
0.962733822870604
30
0
41
1
10
10.4845666238409
20
1.02444999989831
30
0
41
1
10
10.2479324424719
20
1.14684746518463
30
0
41
1
10
10.1298032082065
20
1.20758389557781
30
0
41
1
10
9.89332647575586
20
1.32710892676164
30
0
41
1
10
9.77489236268795
20
1.38575767691643
30
0
41
1
10
9.5377291771274
20
1.50100656235645
30
0
41
1
10
9.41898545891166
20
1.55758168000614
30
0
41
1
10
9.06217479478067
20
1.72401202501891
30
0
41
1
10
8.82353487056457
20
1.83061496102388
30
0
41
1
10
8.58471974823459
20
1.93358717547898
30
0
0
SPLINE
5
C1
100
AcDbEntity
8
1
62
256
6
ByLayer
370
18
48
1
60
0
100
AcDbSpline
70
4
71
3
72
26
73
22
40
0
40
0
40
0
40
0
40
0.347312650550021
40
0.347312650550021
40
0.520968975825031
40
0.520968975825031
40
0.564383057143785
40
0.564383057143785
40
0.607797138462539
40
0.607797138462539
40
0.694625301100051
40
0.694625301100051
40
0.781453463737562
40
0.781453463737562
40
0.868281626375074
40
0.868281626375074
40
0.955109789012585
40
0.955109789012585
40
0.998523870331339
40
0.998523870331339
40
1
40
1
40
1
40
1
41
1
10
8.58471974823459
20
1.93358717547901
30
0
41
1
10
7.97581209137445
20
2.13801846744457
30
0
41
1
10
7.37640255048106
20
2.32964479387121
30
0
41
1
10
6.48641310586083
20
2.5781186690316
30
0
41
1
10
6.19127824910618
20
2.65447521273575
30
0
41
1
10
5.82388042974398
20
2.73961107355632
30
0
41
1
10
5.75047751480415
20
2.75612116833037
30
0
41
1
10
5.60381800954684
20
2.7880432388898
30
0
41
1
10
5.53050431846103
20
2.80346640655264
30
0
41
1
10
5.31136353624188
20
2.84786778821126
30
0
41
1
10
5.16625920764872
20
2.87500136594548
30
0
41
1
10
4.87809723593926
20
2.92382604385171
30
0
41
1
10
4.73503853056067
20
2.94551958446198
30
0
41
1
10
4.45111672557468
20
2.98282451063415
30
0
41
1
10
4.3102517201886
20
2.9984401513432
30
0
41
1
10
4.03099127694142
20
3.02271855811247
30
0
41
1
10
3.89259204941232
20
3.0313895767851
30
0
41
1
10
3.68720485603777
20
3.0382224960459
30
0
41
1
10
3.61911297958625
20
3.03946733648564
30
0
41
1
10
3.54913711550469
20
3.03956871421897
30
0
41
1
10
3.54683657466415
20
3.03957072008291
30
0
41
1
10
3.54453651918939
20
3.03957139275366
30
0
0
SPLINE
5
C2
100
AcDbEntity
8
1
62
256
6
ByLayer
370
18
48
1
60
0
100
AcDbSpline
70
4
71
3
72
8
73
4
40
0
40
0
40
0
40
0
40
1
40
1
40
1
40
1
41
1
10
8.10637384264618
20
2.08576131096379
30
0
41
1
10
8.26666847364595
20
2.13709236974986
30
0
41
1
10
8.42604784736682
20
2.18852323153968
30
0
41
1
10
8.58471974823459
20
2.2393481533814
30
0
0
SPLINE
5
C3
100
AcDbEntity
8
1
62
256
6
ByLayer
370
18
48
1
60
0
100
AcDbSpline
70
4
71
3
72
148
73
144
40
0
40
0
40
0
40
0
40
0.0332834077682184
40
0.0332834077682184
40
0.0665668155364367
40
0.0665668155364367
40
0.0832085194205459
40
0.0832085194205459
40
0.0998502233046551
40
0.0998502233046551
40
0.116491927188764
40
0.116491927188764
40
0.133133631072873
40
0.133133631072873
40
0.141454483014928
40
0.141454483014928
40
0.149775334956983
40
0.149775334956983
40
0.158096186899038
40
0.158096186899038
40
0.166417038841093
40
0.174737890783148
40
0.174737890783148
40
0.183058742725203
40
0.183058742725203
40
0.199700446609312
40
0.199700446609312
40
0.216342150493422
40
0.216342150493422
40
0.224663002435477
40
0.224663002435477
40
0.232983854377532
40
0.232983854377532
40
0.249625558261642
40
0.249625558261642
40
0.266267262145753
40
0.266267262145753
40
0.282908966029863
40
0.282908966029863
40
0.299550669913974
40
0.299550669913974
40
0.332834077682195
40
0.332834077682195
40
0.349475781566305
40
0.349475781566305
40
0.357796633508361
40
0.357796633508361
40
0.366117485450416
40
0.366117485450416
40
0.374438337392472
40
0.374438337392472
40
0.382759189334527
40
0.382759189334527
40
0.399400893218638
40
0.399400893218638
40
0.43268430098686
40
0.43268430098686
40
0.449326004870971
40
0.449326004870971
40
0.465967708755081
40
0.465967708755081
40
0.482609412639192
40
0.482609412639192
40
0.499251116523303
40
0.499251116523303
40
0.507571968465358
40
0.507571968465358
40
0.515892820407413
40
0.515892820407413
40
0.524213672349467
40
0.524213672349467
40
0.532534524291522
40
0.540855376233577
40
0.540855376233577
40
0.549176228175632
40
0.549176228175632
40
0.565817932059743
40
0.565817932059743
40
0.582459635943854
40
0.582459635943854
40
0.590780487885909
40
0.590780487885909
40
0.599101339827964
40
0.599101339827964
40
0.615743043712074
40
0.615743043712074
40
0.632384747596185
40
0.632384747596185
40
0.649026451480296
40
0.649026451480296
40
0.657347303422351
40
0.657347303422351
40
0.665668155364406
40
0.665668155364406
40
0.682309859248518
40
0.682309859248518
40
0.698951563132629
40
0.698951563132629
40
0.715593267016741
40
0.715593267016741
40
0.723914118958796
40
0.723914118958796
40
0.732234970900852
40
0.732234970900852
40
0.740555822842908
40
0.740555822842908
40
0.748876674784964
40
0.748876674784964
40
0.765518378669075
40
0.765518378669075
40
0.798801786437298
40
0.798801786437298
40
0.81544349032141
40
0.81544349032141
40
0.832085194205522
40
0.832085194205522
40
0.848726898089633
40
0.848726898089633
40
0.865368601973745
40
0.865368601973745
40
0.8736894539158
40
0.8736894539158
40
0.882010305857855
40
0.882010305857855
40
0.890331157799911
40
0.890331157799911
40
0.898652009741966
40
0.898652009741966
40
0.906972861684021
40
0.906972861684021
40
0.915293713626076
40
0.915293713626076
40
0.931935417510186
40
0.931935417510186
40
0.948577121394297
40
0.948577121394297
40
0.965218825278407
40
0.965218825278407
40
0.981860529162518
40
0.981860529162518
40
0.998502233046628
40
0.998502233046628
40
1
40
1
40
1
40
1
41
1
10
8.58471974823459
20
2.23934815338146
30
0
41
1
10
8.82328384900904
20
2.33009615855164
30
0
41
1
10
9.06188171766721
20
2.41222180437529
30
0
41
1
10
9.5373718029372
20
2.56265718041527
30
0
41
1
10
9.77419195927845
20
2.63097174689847
30
0
41
1
10
10.1279020198642
20
2.72294967482833
30
0
41
1
10
10.2455883556968
20
2.75180260550314
30
0
41
1
10
10.4815308018473
20
2.80515250404278
30
0
41
1
10
10.5997262107237
20
2.82971883443901
30
0
41
1
10
10.8362719109796
20
2.87493249000448
30
0
41
1
10
10.9546089401858
20
2.89558639105442
30
0
41
1
10
11.1912249888845
20
2.93305665426502
30
0
41
1
10
11.3095319337632
20
2.94985451307306
30
0
41
1
10
11.4870065158916
20
2.97206239969878
30
0
41
1
10
11.5461628440485
20
2.97896835808831
30
0
41
1
10
11.6644705442094
20
2.99176847316682
30
0
41
1
10
11.7236317637727
20
2.99765748077707
30
0
41
1
10
11.8421286158451
20
3.00835462836747
30
0
41
1
10
11.9014744822713
20
3.01316060369407
30
0
41
1
10
12.0204198820127
20
3.02168546647891
30
0
41
1
10
12.1395957180039
20
3.02913078328373
30
0
41
1
10
12.2591632747951
20
3.03445096167061
30
0
41
1
10
12.378891539375
20
3.03871412788067
30
0
41
1
10
12.4388842580271
20
3.04031761058462
30
0
41
1
10
12.6185165934875
20
3.04352600647704
30
0
41
1
10
12.7378974320307
20
3.04353549299194
30
0
41
1
10
12.97595009188
20
3.03928271175411
30
0
41
1
10
13.0946113758817
20
3.0350201566263
30
0
41
1
10
13.2720679156981
20
3.02537743896005
30
0
41
1
10
13.3311521819409
20
3.02162383458631
30
0
41
1
10
13.4493396894497
20
3.01308049615872
30
0
41
1
10
13.5084555231036
20
3.00829531101033
30
0
41
1
10
13.6858805858731
20
2.99243888802954
30
0
41
1
10
13.8042452537018
20
2.97986725618017
30
0
41
1
10
14.0408610889149
20
2.95071743502328
30
0
41
1
10
14.1590886330007
20
2.93412589494133
30
0
41
1
10
14.3952819261416
20
2.89682560910612
30
0
41
1
10
14.5132738860241
20
2.87612927540911
30
0
41
1
10
14.7490305960002
20
2.83054575003351
30
0
41
1
10
14.8666908148964
20
2.80557094810004
30
0
41
1
10
15.220588604932
20
2.72514626216372
30
0
41
1
10
15.4580712998313
20
2.66463351719307
30
0
41
1
10
15.8149979836596
20
2.56230523692005
30
0
41
1
10
15.934104657909
20
2.52625503283971
30
0
41
1
10
16.1130000985831
20
2.46921505781009
30
0
41
1
10
16.1726708318538
20
2.44970716077228
30
0
41
1
10
16.2920795904681
20
2.40966811541128
30
0
41
1
10
16.3517965614193
20
2.38912245548224
30
0
41
1
10
16.4709657516273
20
2.34725228602062
30
0
41
1
10
16.5304777412005
20
2.32591889727777
30
0
41
1
10
16.6495066792552
20
2.28265401712773
30
0
41
1
10
16.709021375053
20
2.26072075605123
30
0
41
1
10
16.8875193611703
20
2.19398144518826
30
0
41
1
10
17.0064578701896
20
2.1482409029299
30
0
41
1
10
17.3626806889831
20
2.0068092908227
30
0
41
1
10
17.599270294694
20
1.90677203290386
30
0
41
1
10
17.9527518094677
20
1.74782755594973
30
0
41
1
10
18.0702958829227
20
1.69327471017999
30
0
41
1
10
18.3060040241686
20
1.58285467465106
30
0
41
1
10
18.4241110427503
20
1.52691426962164
30
0
41
1
10
18.6605549049345
20
1.41319342544173
30
0
41
1
10
18.7788810659388
20
1.3553951531012
30
0
41
1
10
19.0155197742478
20
1.23753654302595
30
0
41
1
10
19.1338582783706
20
1.17751724217882
30
0
41
1
10
19.3114192964675
20
1.0858520561886
30
0
41
1
10
19.3706129996746
20
1.05502039773594
30
0
41
1
10
19.4890021613701
20
0.992772477870886
30
0
41
1
10
19.5481966446418
20
0.961353506728329
30
0
41
1
10
19.6667459360788
20
0.898208130574091
30
0
41
1
10
19.7261067568965
20
0.86649294834956
30
0
41
1
10
19.845101055514
20
0.802968202437796
30
0
41
1
10
19.964341059056
20
0.739300816100211
30
0
41
1
10
20.0840037262429
20
0.675231890203406
30
0
41
1
10
20.2038429101173
20
0.610896554687514
30
0
41
1
10
20.2637528775421
20
0.578647946718121
30
0
41
1
10
20.4431476919829
20
0.481693331476635
30
0
41
1
10
20.5623890158368
20
0.416692895776066
30
0
41
1
10
20.8001898275595
20
0.286020428906198
30
0
41
1
10
20.9187551414127
20
0.220359204172553
30
0
41
1
10
21.0960605994551
20
0.121311829000604
30
0
41
1
10
21.1550853841137
20
0.088228892380954
30
0
41
1
10
21.2731394569825
20
0.0222249279755147
30
0
41
1
10
21.3321798561251
20
-0.0106755039594475
30
0
41
1
10
21.5094165541237
20
-0.108936802607161
30
0
41
1
10
21.6276867015257
20
-0.173936423359322
30
0
41
1
10
21.8641765259417
20
-0.303444536195855
30
0
41
1
10
21.9823760531479
20
-0.36798976387405
30
0
41
1
10
22.2185409916103
20
-0.496920949298897
30
0
41
1
10
22.3365341029809
20
-0.561255942842536
30
0
41
1
10
22.513389191585
20
-0.657553977070251
30
0
41
1
10
22.5723095973122
20
-0.689635175226584
30
0
41
1
10
22.6901186381019
20
-0.753703279733571
30
0
41
1
10
22.749020881722
20
-0.78566550139314
30
0
41
1
10
22.9259531486695
20
-0.880919498038509
30
0
41
1
10
23.0442900251417
20
-0.943434434434096
30
0
41
1
10
23.2815629809739
20
-1.06679901935212
30
0
41
1
10
23.4004813717497
20
-1.1276804461653
30
0
41
1
10
23.6385993463611
20
-1.24833606023839
30
0
41
1
10
23.7578045141009
20
-1.30809949736846
30
0
41
1
10
23.9368714784859
20
-1.39681406030778
30
0
41
1
10
23.9966395071916
20
-1.42624595942942
30
0
41
1
10
24.1160961082528
20
-1.48473254296019
30
0
41
1
10
24.1756934772588
20
-1.51376683713261
30
0
41
1
10
24.2947024176637
20
-1.57128386628924
30
0
41
1
10
24.3541256403113
20
-1.5997465452476
30
0
41
1
10
24.4729631411857
20
-1.65584076425802
30
0
41
1
10
24.5323864956928
20
-1.68345904128628
30
0
41
1
10
24.7106381190754
20
-1.76511171284409
30
0
41
1
10
24.8294429604837
20
-1.81795672537271
30
0
41
1
10
25.1853583213669
20
-1.97247263306198
30
0
41
1
10
25.4218346183168
20
-2.07032915282116
30
0
41
1
10
25.7752568278235
20
-2.20928448362875
30
0
41
1
10
25.8927627193873
20
-2.25438713314949
30
0
41
1
10
26.1283224097165
20
-2.34072504064579
30
0
41
1
10
26.2463822515637
20
-2.38197412860865
30
0
41
1
10
26.4827873449092
20
-2.46104090631664
30
0
41
1
10
26.6011265619182
20
-2.498865073464
30
0
41
1
10
26.8378254015656
20
-2.57134370844202
30
0
41
1
10
26.956206695415
20
-2.60597155811837
30
0
41
1
10
27.1338586466615
20
-2.65540307775799
30
0
41
1
10
27.193087911307
20
-2.67146309666421
30
0
41
1
10
27.3115588255774
20
-2.70274436433854
30
0
41
1
10
27.3707897799051
20
-2.71797391188764
30
0
41
1
10
27.489389413492
20
-2.74747163913548
30
0
41
1
10
27.5487627532259
20
-2.7617359287787
30
0
41
1
10
27.6677919655731
20
-2.78919155556184
30
0
41
1
10
27.7274375280433
20
-2.80239249520761
30
0
41
1
10
27.8469558408559
20
-2.82777693985275
30
0
41
1
10
27.9068778633994
20
-2.83996974737209
30
0
41
1
10
28.0266241009157
20
-2.86330927346344
30
0
41
1
10
28.0864458206753
20
-2.87445670261732
30
0
41
1
10
28.2657034191182
20
-2.90637897184155
30
0
41
1
10
28.3849102971396
20
-2.92564698765634
30
0
41
1
10
28.622732089743
20
-2.96013505694307
30
0
41
1
10
28.7413631066212
20
-2.97534881288354
30
0
41
1
10
28.977989641428
20
-3.00167581954744
30
0
41
1
10
29.0960133442853
20
-3.01275493969291
30
0
41
1
10
29.3325962216115
20
-3.03048557044232
30
0
41
1
10
29.4510624352305
20
-3.03718768403084
30
0
41
1
10
29.6880663075607
20
-3.04642716149456
30
0
41
1
10
29.8065878949098
20
-3.04896464286603
30
0
41
1
10
29.9356978109136
20
-3.04944839890896
30
0
41
1
10
29.9463579952569
20
-3.04947135012154
30
0
41
1
10
29.9570178293725
20
-3.0494772732911
30
0
0
SPLINE
5
C4
100
AcDbEntity
8
1
62
256
6
ByLayer
370
18
48
1
60
0
100
AcDbSpline
70
4
71
3
72
8
73
4
40
0
40
0
40
0
40
0
40
1
40
1
40
1
40
1
41
1
10
8.1036072238245
20
-2.08487539734551
30
0
41
1
10
8.26483462925503
20
-2.13650058558568
30
0
41
1
10
8.4251350069745
20
-2.18823083546113
30
0
41
1
10
8.58471974823459
20
-2.2393481533814
30
0
0
LINE
5
7D
100
AcDbEntity
8
80
62
256
6
ByLayer
370
18
48
1
60
0
100
AcDbLine
10
0
20
0
30
0
11
-5
21
0
31
0
39
0
210
0
220
0
230
1
0
LINE
5
7E
100
AcDbEntity
8
4
62
256
6
ByLayer
370
18
48
0.05
60
0
100
AcDbLine
10
-5
20
0
30
0
11
38
21
0
31
0
39
0
210
0
220
0
230
1
0
LINE
5
80
100
AcDbEntity
8
81
62
256
6
ByLayer
370
18
48
1
60
0
100
AcDbLine
10
33
20
0
30
0
11
38
21
0
31
0
39
0
210
0
220
0
230
1
0
LINE
5
81
100
AcDbEntity
8
SK4
62
256
6
ByLayer
370
18
48
0.05
60
0
100
AcDbLine
10
-42
20
0
30
0
11
38
21
0
31
0
39
0
210
0
220
0
230
1
0
LINE
5
83
100
AcDbEntity
8
1
62
256
6
ByLayer
370
18
48
1
60
0
100
AcDbLine
10
0
20
3.05
30
0
11
0
21
-3.05
31
0
39
0
210
0
220
0
230
1
0
LINE
5
84
100
AcDbEntity
8
1
62
256
6
ByLayer
370
18
48
1
60
0
100
AcDbLine
10
31.350638
20
-3.05
30
0
11
31.350638
21
-0.921137
31
0
39
0
210
0
220
0
230
1
0
LINE
5
85
100
AcDbEntity
8
1
62
256
6
ByLayer
370
18
48
1
60
0
100
AcDbLine
10
31.350638
20
3.05
30
0
11
31.350638
21
2.952762
31
0
39
0
210
0
220
0
230
1
0
LINE
5
86
100
AcDbEntity
8
1
62
256
6
ByLayer
370
18
48
1
60
0
100
AcDbLine
10
0.4
20
-3.038394
30
0
11
0.4
21
3.038394
31
0
39
0
210
0
220
0
230
1
0
LINE
5
87
100
AcDbEntity
8
SK1
62
256
6
ByLayer
370
18
48
1
60
0
100
AcDbLine
10
0
20
3.05
30
0
11
0
21
-3.05
31
0
39
0
210
0
220
0
230
1
0
LINE
5
89
100
AcDbEntity
8
SK1
62
256
6
ByLayer
370
18
48
1
60
0
100
AcDbLine
10
-37
20
-2.3
30
0
11
-37
21
2.3
31
0
39
0
210
0
220
0
230
1
0
LINE
5
8A
100
AcDbEntity
8
SK1
62
256
6
ByLayer
370
18
48
1
60
0
100
AcDbLine
10
-36.25
20
-3.05
30
0
11
-36.25
21
3.05
31
0
39
0
210
0
220
0
230
1
0
LINE
5
8B
100
AcDbEntity
8
1
62
256
6
ByLayer
370
18
48
1
60
0
100
AcDbLine
10
33
20
0
30
0
11
31.350638
21
3.05
31
0
39
0
210
0
220
0
230
1
0
LINE
5
8C
100
AcDbEntity
8
1
62
256
6
ByLayer
370
18
48
1
60
0
100
AcDbLine
10
31.350638
20
-3.05
30
0
11
33
21
0
31
0
39
0
210
0
220
0
230
1
0
LINE
5
8D
100
AcDbEntity
8
1
62
256
6
ByLayer
370
18
48
1
60
0
100
AcDbLine
10
0.4
20
3.038394
30
0
11
0
21
3.05
31
0
39
0
210
0
220
0
230
1
0
LINE
5
8E
100
AcDbEntity
8
1
62
256
6
ByLayer
370
18
48
1
60
0
100
AcDbLine
10
0
20
-3.05
30
0
11
0.4
21
-3.038394
31
0
39
0
210
0
220
0
230
1
0
LINE
5
8F
100
AcDbEntity
8
1
62
256
6
ByLayer
370
18
48
1
60
0
100
AcDbLine
10
0.4
20
-3.038394
30
0
11
3.546926
21
-3.039574
31
0
39
0
210
0
220
0
230
1
0
LINE
5
90
100
AcDbEntity
8
1
62
256
6
ByLayer
370
18
48
1
60
0
100
AcDbLine
10
12.672791
20
-3.042996
30
0
11
21.019392
21
-3.046126
31
0
39
0
210
0
220
0
230
1
0
LINE
5
91
100
AcDbEntity
8
1
62
256
6
ByLayer
370
18
48
1
60
0
100
AcDbLine
10
29.95677
20
-3.049477
30
0
11
31.350638
21
-3.05
31
0
39
0
210
0
220
0
230
1
0
LINE
5
92
100
AcDbEntity
8
1
62
256
6
ByLayer
370
18
48
1
60
0
100
AcDbLine
10
31.350638
20
3.05
30
0
11
29.95677
21
3.049477
31
0
39
0
210
0
220
0
230
1
0
LINE
5
93
100
AcDbEntity
8
1
62
256
6
ByLayer
370
18
48
1
60
0
100
AcDbLine
10
21.019392
20
3.046126
30
0
11
12.672791
21
3.042996
31
0
39
0
210
0
220
0
230
1
0
LINE
5
94
100
AcDbEntity
8
1
62
256
6
ByLayer
370
18
48
1
60
0
100
AcDbLine
10
3.546926
20
3.039574
30
0
11
0.4
21
3.038394
31
0
39
0
210
0
220
0
230
1
0
LINE
5
95
100
AcDbEntity
8
SK1
62
256
6
ByLayer
370
18
48
1
60
0
100
AcDbLine
10
-36.25
20
-3.05
30
0
11
0
21
-3.05
31
0
39
0
210
0
220
0
230
1
0
LINE
5
96
100
AcDbEntity
8
SK1
62
256
6
ByLayer
370
18
48
1
60
0
100
AcDbLine
10
0
20
3.05
30
0
11
-36.25
21
3.05
31
0
39
0
210
0
220
0
230
1
0
LINE
5
97
100
AcDbEntity
8
SK1
62
256
6
ByLayer
370
18
48
1
60
0
100
AcDbLine
10
-37
20
-2.3
30
0
11
-36.25
21
-3.05
31
0
39
0
210
0
220
0
230
1
0
LINE
5
98
100
AcDbEntity
8
SK1
62
256
6
ByLayer
370
18
48
1
60
0
100
AcDbLine
10
-36.25
20
3.05
30
0
11
-37
21
2.3
31
0
39
0
210
0
220
0
230
1
0
LINE
5
99
100
AcDbEntity
8
SK2
62
256
6
ByLayer
370
13
48
1
60
0
100
AcDbLine
10
-43.5
20
29.082855
30
0
11
-43.5
21
-10.55
31
0
39
0
210
0
220
0
230
1
0
LINE
5
9B
100
AcDbEntity
8
SK2
62
256
6
ByLayer
370
13
48
1
60
0
100
AcDbLine
10
-38.5875
20
3.05
30
0
11
-45.5
21
3.05
31
0
39
0
210
0
220
0
230
1
0
LINE
5
9C
100
AcDbEntity
8
SK2
62
256
6
ByLayer
370
13
48
1
60
0
100
AcDbLine
10
-38.5875
20
-3.05
30
0
11
-45.5
21
-3.05
31
0
39
0
210
0
220
0
230
1
0
LINE
5
9D
100
AcDbEntity
8
1
62
256
6
ByLayer
370
18
48
1
60
1
100
AcDbLine
10
-43.5
20
3.05
30
0
11
-43.960784
21
6.549998
31
0
39
0
210
0
220
0
230
1
0
LINE
5
9E
100
AcDbEntity
8
1
62
256
6
ByLayer
370
18
48
1
60
1
100
AcDbLine
10
-43.960784
20
6.549998
30
0
11
-43.039216
21
6.550002
31
0
39
0
210
0
220
0
230
1
0
LINE
5
9F
100
AcDbEntity
8
1
62
256
6
ByLayer
370
18
48
1
60
1
100
AcDbLine
10
-43.039216
20
6.550002
30
0
11
-43.5
21
3.05
31
0
39
0
210
0
220
0
230
1
0
LINE
5
A0
100
AcDbEntity
8
1
62
256
6
ByLayer
370
18
48
1
60
1
100
AcDbLine
10
-43.5
20
-3.05
30
0
11
-43.039216
21
-6.549998
31
0
39
0
210
0
220
0
230
1
0
LINE
5
A1
100
AcDbEntity
8
1
62
256
6
ByLayer
370
18
48
1
60
1
100
AcDbLine
10
-43.039216
20
-6.549998
30
0
11
-43.960784
21
-6.550002
31
0
39
0
210
0
220
0
230
1
0
LINE
5
A2
100
AcDbEntity
8
1
62
256
6
ByLayer
370
18
48
1
60
1
100
AcDbLine
10
-43.960784
20
-6.550002
30
0
11
-43.5
21
-3.05
31
0
39
0
210
0
220
0
230
1
0
LINE
5
A3
100
AcDbEntity
8
2
62
256
6
ByLayer
370
13
48
1
60
0
100
AcDbLine
10
40.850638
20
29.082855
30
0
11
40.850638
21
-10.55
31
0
39
0
210
0
220
0
230
1
0
LINE
5
A5
100
AcDbEntity
8
2
62
256
6
ByLayer
370
13
48
1
60
0
100
AcDbLine
10
32.938138
20
3.05
30
0
11
42.850638
21
3.05
31
0
39
0
210
0
220
0
230
1
0
LINE
5
A6
100
AcDbEntity
8
2
62
256
6
ByLayer
370
13
48
1
60
0
100
AcDbLine
10
32.938138
20
-3.05
30
0
11
42.850638
21
-3.05
31
0
39
0
210
0
220
0
230
1
0
LINE
5
A7
100
AcDbEntity
8
1
62
256
6
ByLayer
370
18
48
1
60
1
100
AcDbLine
10
40.850638
20
3.05
30
0
11
40.389854
21
6.549998
31
0
39
0
210
0
220
0
230
1
0
LINE
5
A8
100
AcDbEntity
8
1
62
256
6
ByLayer
370
18
48
1
60
1
100
AcDbLine
10
40.389854
20
6.549998
30
0
11
41.311421
21
6.550002
31
0
39
0
210
0
220
0
230
1
0
LINE
5
A9
100
AcDbEntity
8
1
62
256
6
ByLayer
370
18
48
1
60
1
100
AcDbLine
10
41.311421
20
6.550002
30
0
11
40.850638
21
3.05
31
0
39
0
210
0
220
0
230
1
0
LINE
5
AA
100
AcDbEntity
8
1
62
256
6
ByLayer
370
18
48
1
60
1
100
AcDbLine
10
40.850638
20
-3.05
30
0
11
41.311421
21
-6.549998
31
0
39
0
210
0
220
0
230
1
0
LINE
5
AB
100
AcDbEntity
8
1
62
256
6
ByLayer
370
18
48
1
60
1
100
AcDbLine
10
41.311421
20
-6.549998
30
0
11
40.389854
21
-6.550002
31
0
39
0
210
0
220
0
230
1
0
LINE
5
AC
100
AcDbEntity
8
1
62
256
6
ByLayer
370
18
48
1
60
1
100
AcDbLine
10
40.389854
20
-6.550002
30
0
11
40.850638
21
-3.05
31
0
39
0
210
0
220
0
230
1
0
LINE
5
AD
100
AcDbEntity
8
2
62
256
6
ByLayer
370
13
48
1
60
0
100
AcDbLine
10
33.755136
20
-1.396397
30
0
11
44.416232
21
-21.110889
31
0
39
0
210
0
220
0
230
1
0
LINE
5
AE
100
AcDbEntity
8
2
62
256
6
ByLayer
370
13
48
1
60
0
100
AcDbLine
10
33.755136
20
1.396397
30
0
11
44.416232
21
21.110889
31
0
39
0
210
0
220
0
230
1
0
LINE
5
AF
100
AcDbEntity
8
1
62
256
6
ByLayer
370
18
48
1
60
1
100
AcDbLine
10
43.464879
20
-19.351649
30
0
11
46.239971
21
-17.169637
31
0
39
0
210
0
220
0
230
1
0
LINE
5
B0
100
AcDbEntity
8
1
62
256
6
ByLayer
370
18
48
1
60
1
100
AcDbLine
10
46.239971
20
-17.169637
30
0
11
46.710161
21
-17.962233
31
0
39
0
210
0
220
0
230
1
0
LINE
5
B1
100
AcDbEntity
8
1
62
256
6
ByLayer
370
18
48
1
60
1
100
AcDbLine
10
46.710161
20
-17.962233
30
0
11
43.464879
21
-19.351649
31
0
39
0
210
0
220
0
230
1
0
LINE
5
B2
100
AcDbEntity
8
1
62
256
6
ByLayer
370
18
48
1
60
1
100
AcDbLine
10
43.464879
20
19.351649
30
0
11
46.710158
21
17.962234
31
0
39
0
210
0
220
0
230
1
0
LINE
5
B3
100
AcDbEntity
8
1
62
256
6
ByLayer
370
18
48
1
60
1
100
AcDbLine
10
46.710158
20
17.962234
30
0
11
46.239974
21
17.169635
31
0
39
0
210
0
220
0
230
1
0
LINE
5
B4
100
AcDbEntity
8
1
62
256
6
ByLayer
370
18
48
1
60
1
100
AcDbLine
10
46.239974
20
17.169635
30
0
11
43.464879
21
19.351649
31
0
39
0
210
0
220
0
230
1
0
LINE
5
C9
100
AcDbEntity
8
1
62
256
6
ByLayer
370
18
48
1
60
1
100
AcDbLine
10
-43.5
20
3.05
30
0
11
-43.960784
21
6.549998
31
0
39
0
210
0
220
0
230
1
0
LINE
5
CA
100
AcDbEntity
8
1
62
256
6
ByLayer
370
18
48
1
60
1
100
AcDbLine
10
-43.960784
20
6.549998
30
0
11
-43.039216
21
6.550002
31
0
39
0
210
0
220
0
230
1
0
LINE
5
CB
100
AcDbEntity
8
1
62
256
6
ByLayer
370
18
48
1
60
1
100
AcDbLine
10
-43.039216
20
6.550002
30
0
11
-43.5
21
3.05
31
0
39
0
210
0
220
0
230
1
0
LINE
5
CD
100
AcDbEntity
8
1
62
256
6
ByLayer
370
18
48
1
60
1
100
AcDbLine
10
-43.5
20
-3.05
30
0
11
-43.039216
21
-6.549998
31
0
39
0
210
0
220
0
230
1
0
LINE
5
CE
100
AcDbEntity
8
1
62
256
6
ByLayer
370
18
48
1
60
1
100
AcDbLine
10
-43.039216
20
-6.549998
30
0
11
-43.960784
21
-6.550002
31
0
39
0
210
0
220
0
230
1
0
LINE
5
CF
100
AcDbEntity
8
1
62
256
6
ByLayer
370
18
48
1
60
1
100
AcDbLine
10
-43.960784
20
-6.550002
30
0
11
-43.5
21
-3.05
31
0
39
0
210
0
220
0
230
1
0
LINE
5
D3
100
AcDbEntity
8
1
62
256
6
ByLayer
370
18
48
1
60
1
100
AcDbLine
10
40.850638
20
3.05
30
0
11
40.389854
21
6.549998
31
0
39
0
210
0
220
0
230
1
0
LINE
5
D4
100
AcDbEntity
8
1
62
256
6
ByLayer
370
18
48
1
60
1
100
AcDbLine
10
40.389854
20
6.549998
30
0
11
41.311421
21
6.550002
31
0
39
0
210
0
220
0
230
1
0
LINE
5
D5
100
AcDbEntity
8
1
62
256
6
ByLayer
370
18
48
1
60
1
100
AcDbLine
10
41.311421
20
6.550002
30
0
11
40.850638
21
3.05
31
0
39
0
210
0
220
0
230
1
0
LINE
5
D7
100
AcDbEntity
8
1
62
256
6
ByLayer
370
18
48
1
60
1
100
AcDbLine
10
40.850638
20
-3.05
30
0
11
41.311421
21
-6.549998
31
0
39
0
210
0
220
0
230
1
0
LINE
5
D8
100
AcDbEntity
8
1
62
256
6
ByLayer
370
18
48
1
60
1
100
AcDbLine
10
41.311421
20
-6.549998
30
0
11
40.389854
21
-6.550002
31
0
39
0
210
0
220
0
230
1
0
LINE
5
D9
100
AcDbEntity
8
1
62
256
6
ByLayer
370
18
48
1
60
1
100
AcDbLine
10
40.389854
20
-6.550002
30
0
11
40.850638
21
-3.05
31
0
39
0
210
0
220
0
230
1
0
LINE
5
DC
100
AcDbEntity
8
1
62
256
6
ByLayer
370
18
48
1
60
1
100
AcDbLine
10
43.464879
20
-19.351649
30
0
11
46.239971
21
-17.169637
31
0
39
0
210
0
220
0
230
1
0
LINE
5
DD
100
AcDbEntity
8
1
62
256
6
ByLayer
370
18
48
1
60
1
100
AcDbLine
10
46.239971
20
-17.169637
30
0
11
46.710161
21
-17.962233
31
0
39
0
210
0
220
0
230
1
0
LINE
5
DE
100
AcDbEntity
8
1
62
256
6
ByLayer
370
18
48
1
60
1
100
AcDbLine
10
46.710161
20
-17.962233
30
0
11
43.464879
21
-19.351649
31
0
39
0
210
0
220
0
230
1
0
LINE
5
E0
100
AcDbEntity
8
1
62
256
6
ByLayer
370
18
48
1
60
1
100
AcDbLine
10
43.464879
20
19.351649
30
0
11
46.710158
21
17.962234
31
0
39
0
210
0
220
0
230
1
0
LINE
5
E1
100
AcDbEntity
8
1
62
256
6
ByLayer
370
18
48
1
60
1
100
AcDbLine
10
46.710158
20
17.962234
30
0
11
46.239974
21
17.169635
31
0
39
0
210
0
220
0
230
1
0
LINE
5
E2
100
AcDbEntity
8
1
62
256
6
ByLayer
370
18
48
1
60
1
100
AcDbLine
10
46.239974
20
17.169635
30
0
11
43.464879
21
19.351649
31
0
39
0
210
0
220
0
230
1
0
MTEXT
5
C5
100
AcDbEntity
8
SK2
62
256
6
ByLayer
370
18
48
1
60
0
100
AcDbMText
10
-44.841114
20
14.708438
30
0
210
0
220
0
230
1
1
%%c
40
3
41
0
44
1.084337
50
90
71
7
72
5
7
iso_b_vert
0
MTEXT
5
C8
100
AcDbEntity
8
SK2
62
256
6
ByLayer
370
18
48
1
60
0
100
AcDbMText
10
-44.841114
20
20.685
30
0
210
0
220
0
230
1
1
\W0.6864;6.100
40
3
41
0
44
1.084337
50
90
71
7
72
5
7
iso_b_vert
0
MTEXT
5
D1
100
AcDbEntity
8
2
62
256
6
ByLayer
370
18
48
1
60
0
100
AcDbMText
10
39.509523
20
14.708438
30
0
210
0
220
0
230
1
1
%%c
40
3
41
0
44
1.084337
50
90
71
7
72
5
7
iso_b_vert
0
MTEXT
5
D2
100
AcDbEntity
8
2
62
256
6
ByLayer
370
18
48
1
60
0
100
AcDbMText
10
39.509523
20
20.685
30
0
210
0
220
0
230
1
1
\W0.6864;6.100
40
3
41
0
44
1.084337
50
90
71
7
72
5
7
iso_b_vert
0
MTEXT
5
DB
100
AcDbEntity
8
2
62
256
6
ByLayer
370
18
48
1
60
0
100
AcDbMText
10
52.092229
20
-2.114886
30
0
210
0
220
0
230
1
1
\W0.6008;118%%d
40
3
41
0
44
1.084337
50
0
71
7
72
5
7
iso_b_vert
0
MTEXT
5
E4
100
AcDbEntity
8
SK6
62
256
6
ByLayer
370
18
48
1
60
0
100
AcDbMText
10
-8.507199
20
-67.114886
30
0
210
0
220
0
230
1
1
\W0.7638;R0236.1
40
3
41
0
44
1.084337
50
0
71
7
72
5
7
iso_b_vert
0
HATCH
5
CC
100
AcDbEntity
8
SK2
62
256
6
ByLayer
370
13
48
1
60
0
100
AcDbHatch
10
0
20
0
30
0
210
0
220
0
230
1
2
ANSI31
70
0
71
0
91
1
92
5
93
3
72
1
10
-43.5
20
3.05000000000001
11
-43.9607837415528
21
6.54999830744683
72
1
10
-43.9607837415528
20
6.54999830744683
11
-43.0392162584472
21
6.5500016925532
72
1
10
-43.0392162584472
20
6.5500016925532
11
-43.5
21
3.05000000000001
97
0
75
0
76
1
52
0
41
0.0062
77
0
78
1
53
45
43
0
44
0
45
-0.0139193969876572
46
0.0139193969876572
79
0
47
0
98
1
10
0
20
0
0
HATCH
5
D0
100
AcDbEntity
8
SK2
62
256
6
ByLayer
370
13
48
1
60
0
100
AcDbHatch
10
0
20
0
30
0
210
0
220
0
230
1
2
ANSI31
70
0
71
0
91
1
92
5
93
3
72
1
10
-43.5
20
-3.04999999999998
11
-43.0392162584472
21
-6.5499983074468
72
1
10
-43.0392162584472
20
-6.5499983074468
11
-43.9607837415528
21
-6.55000169255317
72
1
10
-43.9607837415528
20
-6.55000169255317
11
-43.5
21
-3.04999999999998
97
0
75
0
76
1
52
0
41
0.0062
77
0
78
1
53
45
43
0
44
0
45
-0.0139193969876572
46
0.0139193969876572
79
0
47
0
98
1
10
0
20
0
0
HATCH
5
D6
100
AcDbEntity
8
2
62
256
6
ByLayer
370
13
48
1
60
0
100
AcDbHatch
10
0
20
0
30
0
210
0
220
0
230
1
2
ANSI31
70
0
71
0
91
1
92
5
93
3
72
1
10
40.8506376007694
20
3.05000000000001
11
40.3898538592166
21
6.54999830744683
72
1
10
40.3898538592166
20
6.54999830744683
11
41.3114213423221
21
6.5500016925532
72
1
10
41.3114213423221
20
6.5500016925532
11
40.8506376007694
21
3.05000000000001
97
0
75
0
76
1
52
0
41
0.0062
77
0
78
1
53
45
43
0
44
0
45
-0.0139193969876572
46
0.0139193969876572
79
0
47
0
98
1
10
0
20
0
0
HATCH
5
DA
100
AcDbEntity
8
2
62
256
6
ByLayer
370
13
48
1
60
0
100
AcDbHatch
10
0
20
0
30
0
210
0
220
0
230
1
2
ANSI31
70
0
71
0
91
1
92
5
93
3
72
1
10
40.8506376007694
20
-3.04999999999998
11
41.3114213423221
21
-6.5499983074468
72
1
10
41.3114213423221
20
-6.5499983074468
11
40.3898538592166
21
-6.55000169255317
72
1
10
40.3898538592166
20
-6.55000169255317
11
40.8506376007694
21
-3.04999999999998
97
0
75
0
76
1
52
0
41
0.0062
77
0
78
1
53
45
43
0
44
0
45
-0.0139193969876572
46
0.0139193969876572
79
0
47
0
98
1
10
0
20
0
0
HATCH
5
DF
100
AcDbEntity
8
2
62
256
6
ByLayer
370
13
48
1
60
0
100
AcDbHatch
10
0
20
0
30
0
210
0
220
0
230
1
2
ANSI31
70
0
71
0
91
1
92
5
93
3
72
1
10
43.4648791987519
20
-19.3516485952884
11
46.2399711078381
21
-17.1696369764526
72
1
10
46.2399711078381
20
-17.1696369764526
11
46.710161392925
21
-17.9622325364572
72
1
10
46.710161392925
20
-17.9622325364572
11
43.4648791987519
21
-19.3516485952884
97
0
75
0
76
1
52
0
41
0.0062
77
0
78
1
53
45
43
0
44
0
45
-0.0139193969876572
46
0.0139193969876572
79
0
47
0
98
1
10
0
20
0
0
HATCH
5
E3
100
AcDbEntity
8
2
62
256
6
ByLayer
370
13
48
1
60
0
100
AcDbHatch
10
0
20
0
30
0
210
0
220
0
230
1
2
ANSI31
70
0
71
0
91
1
92
5
93
3
72
1
10
43.464879198752
20
19.3516485952884
11
46.7101584815526
21
17.9622342635519
72
1
10
46.7101584815526
20
17.9622342635519
11
46.2399740192106
21
17.169635249358
72
1
10
46.2399740192106
20
17.169635249358
11
43.464879198752
21
19.3516485952884
97
0
75
0
76
1
52
0
41
0.0062
77
0
78
1
53
45
43
0
44
0
45
-0.0139193969876572
46
0.0139193969876572
79
0
47
0
98
1
10
0
20
0
0
DIMENSION
5
E7
100
AcDbEntity
8
SK2
62
256
6
ByLayer
370
18
48
1
60
0
100
AcDbDimension
2
_U0
10
33
20
-47.557616
30
0
11
-2
21
-47.557616
31
0
70
32
71
1
72
1
41
1
210
0
220
0
230
1
3
Standard
100
AcDbAlignedDimension
13
-37
23
-3.05
33
0
14
33
24
0
34
0
50
0
100
AcDbRotatedDimension
1001
ACAD
1000
DSTYLE
1002
{
1070
   371
1070
    13
1070
   372
1070
    13
1070
     3
1000

1070
   170
1070
     0
1070
   144
1040
1.0
1070
   277
1070
     2
1070
   284
1070
     8
1070
   278
1070
    46
1070
   146
1040
1.166667
1070
   345
1005
16
1070
   347
1005
16
1070
   346
1005
16
1070
   344
1005
0
1070
   343
1005
0
1070
   172
1070
     1
1070
    76
1070
     0
1070
    75
1070
     0
1070
   282
1070
     0
1070
   281
1070
     0
1070
    71
1070
     0
1070
    74
1070
     0
1070
   279
1070
     0
1070
   173
1070
     1
1070
   340
1005
C6
1070
   271
1070
     2
1070
   272
1070
     3
1070
    77
1070
     1
1070
    73
1070
     1
1070
   171
1070
     3
1070
   274
1070
     4
1070
   177
1070
     2
1070
   176
1070
     2
1070
   178
1070
     2
1070
    78
1070
     8
1070
    48
1040
-0.1
1070
    41
1040
3.5
1070
   147
1040
1.5
1070
    42
1040
1.5875
1070
    44
1040
2.0
1070
   140
1040
3.0
1002
}
1001
ACAD_DSTYLE_DIM_LINETYPE
1070
   380
1005
16
1001
ACAD_DSTYLE_DIM_EXT1_LINETYPE
1070
   381
1005
16
1001
ACAD_DSTYLE_DIM_EXT2_LINETYPE
1070
   382
1005
16
0
DIMENSION
5
100
100
AcDbEntity
8
2
62
256
6
ByLayer
370
18
48
1
60
0
100
AcDbDimension
2
_U1
10
2
20
-37.557616
30
0
11
17.5
21
-37.557616
31
0
70
32
71
1
72
1
41
1
210
0
220
0
230
1
3
Standard
100
AcDbAlignedDimension
13
33
23
0
33
0
14
2
24
-3.05
34
0
50
0
100
AcDbRotatedDimension
1001
ACAD
1000
DSTYLE
1002
{
1070
   371
1070
    13
1070
   372
1070
    13
1070
     3
1000

1070
   170
1070
     0
1070
   144
1040
1.0
1070
   277
1070
     2
1070
   284
1070
     8
1070
   278
1070
    46
1070
   146
1040
1.166667
1070
   345
1005
16
1070
   347
1005
16
1070
   346
1005
16
1070
   344
1005
0
1070
   343
1005
0
1070
   172
1070
     1
1070
    76
1070
     0
1070
    75
1070
     0
1070
   282
1070
     0
1070
   281
1070
     0
1070
    71
1070
     0
1070
    74
1070
     0
1070
   279
1070
     0
1070
   173
1070
     1
1070
   340
1005
C6
1070
   271
1070
     2
1070
   272
1070
     3
1070
    77
1070
     1
1070
    73
1070
     1
1070
   171
1070
     3
1070
   274
1070
     4
1070
   177
1070
     2
1070
   176
1070
     2
1070
   178
1070
     2
1070
    78
1070
     8
1070
    48
1040
-0.1
1070
    41
1040
3.5
1070
   147
1040
1.5
1070
    42
1040
1.5875
1070
    44
1040
2.0
1070
   140
1040
3.0
1002
}
1001
ACAD_DSTYLE_DIM_LINETYPE
1070
   380
1005
16
1001
ACAD_DSTYLE_DIM_EXT1_LINETYPE
1070
   381
1005
16
1001
ACAD_DSTYLE_DIM_EXT2_LINETYPE
1070
   382
1005
16
0
DIMENSION
5
118
100
AcDbEntity
8
SK2
62
256
6
ByLayer
370
18
48
1
60
0
100
AcDbDimension
2
_U2
10
0
20
-32.557616
30
0
11
-18.5
21
-32.557616
31
0
70
32
71
1
72
1
41
1
210
0
220
0
230
1
3
Standard
100
AcDbAlignedDimension
13
-37
23
-3.05
33
0
14
0
24
-3.05
34
0
50
0
100
AcDbRotatedDimension
1001
ACAD
1000
DSTYLE
1002
{
1070
   371
1070
    13
1070
   372
1070
    13
1070
     3
1000

1070
   170
1070
     0
1070
   144
1040
1.0
1070
   277
1070
     2
1070
   284
1070
     8
1070
   278
1070
    46
1070
   146
1040
1.166667
1070
   345
1005
16
1070
   347
1005
16
1070
   346
1005
16
1070
   344
1005
0
1070
   343
1005
0
1070
   172
1070
     1
1070
    76
1070
     0
1070
    75
1070
     0
1070
   282
1070
     0
1070
   281
1070
     0
1070
    71
1070
     0
1070
    74
1070
     0
1070
   279
1070
     0
1070
   173
1070
     1
1070
   340
1005
C6
1070
   271
1070
     2
1070
   272
1070
     3
1070
    77
1070
     1
1070
    73
1070
     1
1070
   171
1070
     3
1070
   274
1070
     4
1070
   177
1070
     2
1070
   176
1070
     2
1070
   178
1070
     2
1070
    78
1070
     8
1070
    48
1040
-0.1
1070
    41
1040
3.5
1070
   147
1040
1.5
1070
    42
1040
1.5875
1070
    44
1040
2.0
1070
   140
1040
3.0
1002
}
1001
ACAD_DSTYLE_DIM_LINETYPE
1070
   380
1005
16
1001
ACAD_DSTYLE_DIM_EXT1_LINETYPE
1070
   381
1005
16
1001
ACAD_DSTYLE_DIM_EXT2_LINETYPE
1070
   382
1005
16
0
DIMENSION
5
130
100
AcDbEntity
8
2
62
256
6
ByLayer
370
18
48
1
60
0
100
AcDbDimension
2
_U3
10
9.75
20
-30.557616
30
0
11
21.375
21
-30.557616
31
0
70
32
71
1
72
1
41
1
210
0
220
0
230
1
3
Standard
100
AcDbAlignedDimension
13
33
23
0
33
0
14
9.75
24
-3.05
34
0
50
0
100
AcDbRotatedDimension
1001
ACAD
1000
DSTYLE
1002
{
1070
   371
1070
    13
1070
   372
1070
    13
1070
     3
1000

1070
   170
1070
     0
1070
   144
1040
1.0
1070
   277
1070
     2
1070
   284
1070
     8
1070
   278
1070
    46
1070
   146
1040
1.166667
1070
   345
1005
16
1070
   347
1005
16
1070
   346
1005
16
1070
   344
1005
0
1070
   343
1005
0
1070
   172
1070
     1
1070
    76
1070
     0
1070
    75
1070
     0
1070
   282
1070
     0
1070
   281
1070
     0
1070
    71
1070
     0
1070
    74
1070
     0
1070
   279
1070
     0
1070
   173
1070
     1
1070
   340
1005
C6
1070
   271
1070
     2
1070
   272
1070
     3
1070
    77
1070
     1
1070
    73
1070
     1
1070
   171
1070
     3
1070
   274
1070
     4
1070
   177
1070
     2
1070
   176
1070
     2
1070
   178
1070
     2
1070
    78
1070
     8
1070
    48
1040
-0.1
1070
    41
1040
3.5
1070
   147
1040
1.5
1070
    42
1040
1.5875
1070
    44
1040
2.0
1070
   140
1040
3.0
1002
}
1001
ACAD_DSTYLE_DIM_LINETYPE
1070
   380
1005
16
1001
ACAD_DSTYLE_DIM_EXT1_LINETYPE
1070
   381
1005
16
1001
ACAD_DSTYLE_DIM_EXT2_LINETYPE
1070
   382
1005
16
0
ENDSEC
0
SECTION
2
OBJECTS
0
DICTIONARY
5
1ba
330
0
100
AcDbDictionary
280
0
281
1
3
ACAD_GROUP
350
1bb
3
ACAD_MLINESTYLE
350
1bc
0
DICTIONARY
5
1bb
330
0
100
AcDbDictionary
280
0
281
1
0
DICTIONARY
5
1bc
330
0
100
AcDbDictionary
280
0
281
1
3
Standard
350
18
0
MLINESTYLE
5
18
330
1bc
100
AcDbMlineStyle
2
Standard
70
0
3

62
256
51
90
52
90
71
2
49
-0.5
62
256
6
ByLayer
49
0.5
62
256
6
ByLayer
0
RASTERVARIABLES
5
1a6
330

100
AcDbRasterVariables
90
0
70
1
71
1
72
1
0
ENDSEC
0
EOF
