0
SECTION
2
HEADER
9
$ACADVER
1
AC1015
9
$DWGCODEPAGE
3
ANSI_1252
9
$HANDSEED
5
1c7
9
$ANGBASE
50
0
9
$ANGDIR
70
0
9
$ATTMODE
70
1
9
$AUNITS
70
0
9
$AUPREC
70
0
9
$CECOLOR
62
256
9
$CELTSCALE
40
1
9
$CELTYPE
6
ByLayer
9
$CELWEIGHT
370
18
9
$CLAYER
8
0
9
$CMLJUST
70
0
9
$CMLSCALE
40
1
9
$CMLSTYLE
2
Standard
9
$DIMSTYLE
2
Standard
9
$TEXTSIZE
40
0.2
9
$TEXTSTYLE
7
Standard
9
$LUNITS
70
2
9
$LUPREC
70
4
9
$EXTNAMES
290
1
9
$INSUNITS
70
4
9
$LTSCALE
40
1
9
$LWDISPLAY
290
1
9
$PDMODE
70
0
9
$PDSIZE
40
0
9
$PLINEGEN
70
0
0
ENDSEC
0
SECTION
2
CLASSES
0
CLASS
1
RASTERVARIABLES
2
AcDbRasterVariables
3
ISM
90
0
280
0
281
0
0
ENDSEC
0
SECTION
2
TABLES
0
TABLE
2
VPORT
5
1bd
100
AcDbSymbolTable
0
VPORT
5
1
100
AcDbSymbolTableRecord
100
AcDbViewportTableRecord
2
*Active
70
0
10
0
20
0
11
1
21
1
12
-1
22
1
13
0
23
0
14
0.5
24
0.5
15
10
25
10
16
0
26
0
36
1
17
0
27
0
37
0
0
ENDTAB
0
TABLE
2
LTYPE
5
1be
100
AcDbSymbolTable
0
LTYPE
5
14
100
AcDbSymbolTableRecord
100
AcDbLinetypeTableRecord
70
0
2
ByBlock
3

72
65
73
0
40
0
0
LTYPE
5
15
100
AcDbSymbolTableRecord
100
AcDbLinetypeTableRecord
70
0
2
ByLayer
3

72
65
73
0
40
0
0
LTYPE
5
16
100
AcDbSymbolTableRecord
100
AcDbLinetypeTableRecord
70
0
2
Continuous
3
Solid line
72
65
73
0
40
0
0
LTYPE
5
6E
100
AcDbSymbolTableRecord
100
AcDbLinetypeTableRecord
70
0
2
CENTER
3
____ _ ____ _ ____ _ ____
72
65
73
4
40
47.5
49
22
74
0
49
-8.5
74
0
49
8.5
74
0
49
-8.5
74
0
0
LTYPE
5
6F
100
AcDbSymbolTableRecord
100
AcDbLinetypeTableRecord
70
0
2
DASHED
3
__ __ __ __ __ __ __ __ __
72
65
73
2
40
25.72
49
12.86
74
0
49
-12.86
74
0
0
ENDTAB
0
TABLE
2
LAYER
5
1bf
100
AcDbSymbolTable
0
LAYER
5
10
100
AcDbSymbolTableRecord
100
AcDbLayerTableRecord
2
0
70
0
62
7
6
Continuous
290
1
370
-3
390
0
0
LAYER
5
71
100
AcDbSymbolTableRecord
100
AcDbLayerTableRecord
2
81
70
0
62
-3
6
Continuous
290
1
370
-3
390
0
0
LAYER
5
73
100
AcDbSymbolTableRecord
100
AcDbLayerTableRecord
2
80
70
0
62
-6
6
Continuous
290
1
370
-3
390
0
0
LAYER
5
75
100
AcDbSymbolTableRecord
100
AcDbLayerTableRecord
2
1
70
0
62
4
6
Continuous
290
1
370
-3
390
0
0
LAYER
5
7F
100
AcDbSymbolTableRecord
100
AcDbLayerTableRecord
2
4
70
0
62
-2
6
CENTER
290
1
370
-3
390
0
0
LAYER
5
A4
100
AcDbSymbolTableRecord
100
AcDbLayerTableRecord
2
2
70
0
62
7
6
Continuous
290
1
370
-3
390
0
0
LAYER
5
EA
100
AcDbSymbolTableRecord
100
AcDbLayerTableRecord
2
Defpoints
70
0
62
7
6
Continuous
290
0
370
-3
390
0
0
LAYER
5
1a7
100
AcDbSymbolTableRecord
100
AcDbLayerTableRecord
2
SK4
70
0
62
2
6
CENTER
290
1
370
-3
390
0
0
LAYER
5
1a8
100
AcDbSymbolTableRecord
100
AcDbLayerTableRecord
2
SK1
70
0
62
4
6
Continuous
290
1
370
-3
390
0
0
LAYER
5
1a9
100
AcDbSymbolTableRecord
100
AcDbLayerTableRecord
2
SK2
70
0
62
7
6
Continuous
290
1
370
-3
390
0
0
LAYER
5
1aa
100
AcDbSymbolTableRecord
100
AcDbLayerTableRecord
2
CUT
70
0
62
-1
6
Continuous
290
1
370
-3
390
0
0
LAYER
5
1ab
100
AcDbSymbolTableRecord
100
AcDbLayerTableRecord
2
NOCUT
70
0
62
-7
6
Continuous
290
1
370
-3
390
0
0
LAYER
5
1ac
100
AcDbSymbolTableRecord
100
AcDbLayerTableRecord
2
SK6
70
0
62
5
6
Continuous
290
1
370
-3
390
0
0
ENDTAB
0
TABLE
2
STYLE
5
1c0
100
AcDbSymbolTable
0
STYLE
5
11
100
AcDbSymbolTableRecord
100
AcDbTextStyleTableRecord
2
Standard
3
txt
70
0
71
0
40
0
41
1
42
0
50
0
0
STYLE
5
C6
100
AcDbSymbolTableRecord
100
AcDbTextStyleTableRecord
2
iso_b_vert
3
simplex.shx
70
0
71
0
40
0
41
1
42
0
50
0
0
STYLE
5
C7
100
AcDbSymbolTableRecord
100
AcDbTextStyleTableRecord
2
DWGDirectTextStyle
3
simplex
70
0
71
0
40
0
41
1
42
0
50
0
0
ENDTAB
0
TABLE
2
DIMSTYLE
5
1c1
100
AcDbSymbolTable
100
AcDbDimStyleTable
0
DIMSTYLE
105
27
100
AcDbSymbolTableRecord
100
AcDbDimStyleTableRecord
2
Standard
70
0
3
<>
41
0.18
42
0.0625
44
0.18
140
0.18
147
0.09
73
0
74
0
77
1
271
2
275
0
278
52
280
0
340
11
0
ENDTAB
0
TABLE
2
VIEW
5
1c2
100
AcDbSymbolTable
0
ENDTAB
0
TABLE
2
UCS
5
1c3
100
AcDbSymbolTable
0
ENDTAB
0
TABLE
2
APPID
5
1c4
100
AcDbSymbolTable
0
APPID
5
12
100
AcDbSymbolTableRecord
100
AcDbRegAppTableRecord
2
ACAD
70
0
0
APPID
5
E6
100
AcDbSymbolTableRecord
100
AcDbRegAppTableRecord
2
ACAD_DSTYLE_DIMBREAK
70
0
0
APPID
5
166
100
AcDbSymbolTableRecord
100
AcDbRegAppTableRecord
2
ACAD_DSTYLE_DIM_LINETYPE
70
0
0
APPID
5
167
100
AcDbSymbolTableRecord
100
AcDbRegAppTableRecord
2
ACAD_DSTYLE_DIM_EXT1_LINETYPE
70
0
0
APPID
5
168
100
AcDbSymbolTableRecord
100
AcDbRegAppTableRecord
2
ACAD_DSTYLE_DIM_EXT2_LINETYPE
70
0
0
APPID
5
1A3
100
AcDbSymbolTableRecord
100
AcDbRegAppTableRecord
2
ACAD_MLEADERVER
70
0
0
ENDTAB
0
TABLE
2
BLOCK_RECORD
5
1c5
100
AcDbSymbolTable
0
BLOCK_RECORD
5
1F
100
AcDbSymbolTableRecord
100
AcDbBlockTableRecord
2
*Model_Space
340
0
70
0
0
BLOCK_RECORD
5
1B
100
AcDbSymbolTableRecord
100
AcDbBlockTableRecord
2
*Paper_Space
340
0
70
0
0
BLOCK_RECORD
5
23
100
AcDbSymbolTableRecord
100
AcDbBlockTableRecord
2
*Paper_Space0
340
0
70
0
0
BLOCK_RECORD
5
EB
100
AcDbSymbolTableRecord
100
AcDbBlockTableRecord
2
*D1
340
0
70
0
0
BLOCK_RECORD
5
F7
100
AcDbSymbolTableRecord
100
AcDbBlockTableRecord
2
_U0
340
0
70
0
0
BLOCK_RECORD
5
103
100
AcDbSymbolTableRecord
100
AcDbBlockTableRecord
2
*D3
340
0
70
0
0
BLOCK_RECORD
5
10F
100
AcDbSymbolTableRecord
100
AcDbBlockTableRecord
2
_U1
340
0
70
0
0
BLOCK_RECORD
5
11B
100
AcDbSymbolTableRecord
100
AcDbBlockTableRecord
2
*D5
340
0
70
0
0
BLOCK_RECORD
5
127
100
AcDbSymbolTableRecord
100
AcDbBlockTableRecord
2
_U2
340
0
70
0
0
BLOCK_RECORD
5
133
100
AcDbSymbolTableRecord
100
AcDbBlockTableRecord
2
*D7
340
0
70
0
0
BLOCK_RECORD
5
13F
100
AcDbSymbolTableRecord
100
AcDbBlockTableRecord
2
_U3
340
0
70
0
0
ENDTAB
0
ENDSEC
0
SECTION
2
BLOCKS
0
BLOCK
5
20
100
AcDbEntity
8
0
100
AcDbBlockBegin
2
*Model_Space
70
0
10
0
20
0
30
0
3
*Model_Space
0
ENDBLK
5
21
100
AcDbEntity
8
0
100
AcDbBlockEnd
0
BLOCK
5
1C
100
AcDbEntity
8
0
100
AcDbBlockBegin
2
*Paper_Space
70
0
10
0
20
0
30
0
3
*Paper_Space
0
ENDBLK
5
1D
100
AcDbEntity
8
0
100
AcDbBlockEnd
0
BLOCK
5
24
100
AcDbEntity
8
0
100
AcDbBlockBegin
2
*Paper_Space0
70
0
10
0
20
0
30
0
3
*Paper_Space0
0
ENDBLK
5
25
100
AcDbEntity
8
0
100
AcDbBlockEnd
0
BLOCK
5
EC
100
AcDbEntity
8
0
100
AcDbBlockBegin
2
*D1
70
1
10
0
20
0
30
0
3
*D1
0
LINE
5
EE
100
AcDbEntity
8
0
62
256
6
ByLayer
370
-2
48
1
60
0
100
AcDbLine
10
-34
20
-4.1375
30
0
11
-34
21
-48.799026
31
0
39
0
210
0
220
0
230
1
0
LINE
5
EF
100
AcDbEntity
8
0
62
256
6
ByLayer
370
-2
48
1
60
0
100
AcDbLine
10
28
20
-1.5875
30
0
11
28
21
-48.799026
31
0
39
0
210
0
220
0
230
1
0
LINE
5
F0
100
AcDbEntity
8
0
62
256
6
ByLayer
370
-2
48
1
60
0
100
AcDbLine
10
-30.5
20
-46.799026
30
0
11
24.5
21
-46.799026
31
0
39
0
210
0
220
0
230
1
0
SOLID
5
F1
100
AcDbEntity
8
0
62
256
6
ByLayer
370
-1
48
1
60
0
100
AcDbTrace
10
-30.5
20
-46.215692
30
0
11
-30.5
21
-47.382359
31
0
12
-34
22
-46.799026
32
0
13
-34
23
-46.799026
33
0
39
0
210
0
220
0
230
1
0
SOLID
5
F2
100
AcDbEntity
8
0
62
256
6
ByLayer
370
-1
48
1
60
0
100
AcDbTrace
10
24.5
20
-47.382359
30
0
11
24.5
21
-46.215692
31
0
12
28
22
-46.799026
32
0
13
28
23
-46.799026
33
0
39
0
210
0
220
0
230
1
0
MTEXT
5
F3
100
AcDbEntity
8
0
62
256
6
ByLayer
370
18
48
1
60
0
100
AcDbMText
10
-3
20
-40.799026
30
0
210
0
220
0
230
1
1
\A1;62
40
3
41
0
44
1
50
0
71
5
72
5
7
iso_b_vert
0
POINT
5
F4
100
AcDbEntity
8
Defpoints
62
0
6
ByLayer
370
-1
48
1
60
0
100
AcDbPoint
10
-34
20
-2.55
30
0
39
0
210
0
220
0
230
1
50
360
0
POINT
5
F5
100
AcDbEntity
8
Defpoints
62
0
6
ByLayer
370
-1
48
1
60
0
100
AcDbPoint
10
28
20
0
30
0
39
0
210
0
220
0
230
1
50
360
0
POINT
5
F6
100
AcDbEntity
8
Defpoints
62
0
6
ByLayer
370
-1
48
1
60
0
100
AcDbPoint
10
28
20
-46.799026
30
0
39
0
210
0
220
0
230
1
50
360
0
ENDBLK
5
ED
100
AcDbEntity
8
0
100
AcDbBlockEnd
0
BLOCK
5
FE
100
AcDbEntity
8
0
100
AcDbBlockBegin
2
_U0
70
0
10
0
20
0
30
0
3
_U0
0
MTEXT
5
F8
100
AcDbEntity
8
SK2
62
256
6
ByLayer
370
18
48
1
60
0
100
AcDbMText
10
-7.48237
20
-45.913911
30
0
210
0
220
0
230
1
1
\W0.7468;62.00
40
3
41
0
44
1.084337
50
0
71
7
72
5
7
iso_b_vert
0
LINE
5
F9
100
AcDbEntity
8
SK2
62
256
6
ByLayer
370
13
48
1
60
0
100
AcDbLine
10
-34
20
-4.1375
30
0
11
-34
21
-48.799026
31
0
39
0
210
0
220
0
230
1
0
LINE
5
FA
100
AcDbEntity
8
SK2
62
256
6
ByLayer
370
13
48
1
60
0
100
AcDbLine
10
28
20
-1.5875
30
0
11
28
21
-48.799026
31
0
39
0
210
0
220
0
230
1
0
LINE
5
FB
100
AcDbEntity
8
SK2
62
256
6
ByLayer
370
13
48
1
60
0
100
AcDbLine
10
-34
20
-46.799026
30
0
11
28
21
-46.799026
31
0
39
0
210
0
220
0
230
1
0
SOLID
5
FC
100
AcDbEntity
8
SK2
62
256
6
ByLayer
370
18
48
1
60
0
100
AcDbTrace
10
-34
20
-46.799026
30
0
11
-30.500002
21
-46.338242
31
0
12
-30.499998
22
-47.25981
32
0
13
-30.499998
23
-47.25981
33
0
39
0
210
0
220
0
230
1
0
SOLID
5
FD
100
AcDbEntity
8
SK2
62
256
6
ByLayer
370
18
48
1
60
0
100
AcDbTrace
10
28
20
-46.799026
30
0
11
24.500002
21
-47.25981
31
0
12
24.499998
22
-46.338242
32
0
13
24.499998
23
-46.338242
33
0
39
0
210
0
220
0
230
1
0
ENDBLK
5
FF
100
AcDbEntity
8
0
100
AcDbBlockEnd
0
BLOCK
5
104
100
AcDbEntity
8
0
100
AcDbBlockBegin
2
*D3
70
1
10
0
20
0
30
0
3
*D3
0
LINE
5
106
100
AcDbEntity
8
0
62
256
6
ByLayer
370
-2
48
1
60
0
100
AcDbLine
10
28
20
-1.5875
30
0
11
28
21
-38.799026
31
0
39
0
210
0
220
0
230
1
0
LINE
5
107
100
AcDbEntity
8
0
62
256
6
ByLayer
370
-2
48
1
60
0
100
AcDbLine
10
2
20
-4.1375
30
0
11
2
21
-38.799026
31
0
39
0
210
0
220
0
230
1
0
LINE
5
108
100
AcDbEntity
8
0
62
256
6
ByLayer
370
-2
48
1
60
0
100
AcDbLine
10
24.5
20
-36.799026
30
0
11
5.5
21
-36.799026
31
0
39
0
210
0
220
0
230
1
0
SOLID
5
109
100
AcDbEntity
8
0
62
256
6
ByLayer
370
-1
48
1
60
0
100
AcDbTrace
10
24.5
20
-37.382359
30
0
11
24.5
21
-36.215692
31
0
12
28
22
-36.799026
32
0
13
28
23
-36.799026
33
0
39
0
210
0
220
0
230
1
0
SOLID
5
10A
100
AcDbEntity
8
0
62
256
6
ByLayer
370
-1
48
1
60
0
100
AcDbTrace
10
5.5
20
-36.215692
30
0
11
5.5
21
-37.382359
31
0
12
2
22
-36.799026
32
0
13
2
23
-36.799026
33
0
39
0
210
0
220
0
230
1
0
MTEXT
5
10B
100
AcDbEntity
8
0
62
256
6
ByLayer
370
18
48
1
60
0
100
AcDbMText
10
15
20
-30.799026
30
0
210
0
220
0
230
1
1
\A1;26
40
3
41
0
44
1
50
0
71
5
72
5
7
iso_b_vert
0
POINT
5
10C
100
AcDbEntity
8
Defpoints
62
0
6
ByLayer
370
-1
48
1
60
0
100
AcDbPoint
10
28
20
0
30
0
39
0
210
0
220
0
230
1
50
360
0
POINT
5
10D
100
AcDbEntity
8
Defpoints
62
0
6
ByLayer
370
-1
48
1
60
0
100
AcDbPoint
10
2
20
-2.55
30
0
39
0
210
0
220
0
230
1
50
360
0
POINT
5
10E
100
AcDbEntity
8
Defpoints
62
0
6
ByLayer
370
-1
48
1
60
0
100
AcDbPoint
10
2
20
-36.799026
30
0
39
0
210
0
220
0
230
1
50
360
0
ENDBLK
5
105
100
AcDbEntity
8
0
100
AcDbBlockEnd
0
BLOCK
5
116
100
AcDbEntity
8
0
100
AcDbBlockBegin
2
_U1
70
0
10
0
20
0
30
0
3
_U1
0
MTEXT
5
110
100
AcDbEntity
8
2
62
256
6
ByLayer
370
18
48
1
60
0
100
AcDbMText
10
10.51763
20
-35.913911
30
0
210
0
220
0
230
1
1
\W0.7468;26.00
40
3
41
0
44
1.084337
50
0
71
7
72
5
7
iso_b_vert
0
LINE
5
111
100
AcDbEntity
8
2
62
256
6
ByLayer
370
13
48
1
60
0
100
AcDbLine
10
28
20
-1.5875
30
0
11
28
21
-38.799026
31
0
39
0
210
0
220
0
230
1
0
LINE
5
112
100
AcDbEntity
8
2
62
256
6
ByLayer
370
13
48
1
60
0
100
AcDbLine
10
2
20
-4.1375
30
0
11
2
21
-38.799026
31
0
39
0
210
0
220
0
230
1
0
LINE
5
113
100
AcDbEntity
8
2
62
256
6
ByLayer
370
13
48
1
60
0
100
AcDbLine
10
28
20
-36.799026
30
0
11
2
21
-36.799026
31
0
39
0
210
0
220
0
230
1
0
SOLID
5
114
100
AcDbEntity
8
2
62
256
6
ByLayer
370
18
48
1
60
0
100
AcDbTrace
10
28
20
-36.799026
30
0
11
24.500002
21
-37.25981
31
0
12
24.499998
22
-36.338242
32
0
13
24.499998
23
-36.338242
33
0
39
0
210
0
220
0
230
1
0
SOLID
5
115
100
AcDbEntity
8
2
62
256
6
ByLayer
370
18
48
1
60
0
100
AcDbTrace
10
2
20
-36.799026
30
0
11
5.499998
21
-36.338242
31
0
12
5.500002
22
-37.25981
32
0
13
5.500002
23
-37.25981
33
0
39
0
210
0
220
0
230
1
0
ENDBLK
5
117
100
AcDbEntity
8
0
100
AcDbBlockEnd
0
BLOCK
5
11C
100
AcDbEntity
8
0
100
AcDbBlockBegin
2
*D5
70
1
10
0
20
0
30
0
3
*D5
0
LINE
5
11E
100
AcDbEntity
8
0
62
256
6
ByLayer
370
-2
48
1
60
0
100
AcDbLine
10
-34
20
-4.1375
30
0
11
-34
21
-33.799026
31
0
39
0
210
0
220
0
230
1
0
LINE
5
11F
100
AcDbEntity
8
0
62
256
6
ByLayer
370
-2
48
1
60
0
100
AcDbLine
10
0
20
-4.1375
30
0
11
0
21
-33.799026
31
0
39
0
210
0
220
0
230
1
0
LINE
5
120
100
AcDbEntity
8
0
62
256
6
ByLayer
370
-2
48
1
60
0
100
AcDbLine
10
-30.5
20
-31.799026
30
0
11
-3.5
21
-31.799026
31
0
39
0
210
0
220
0
230
1
0
SOLID
5
121
100
AcDbEntity
8
0
62
256
6
ByLayer
370
-1
48
1
60
0
100
AcDbTrace
10
-30.5
20
-31.215692
30
0
11
-30.5
21
-32.382359
31
0
12
-34
22
-31.799026
32
0
13
-34
23
-31.799026
33
0
39
0
210
0
220
0
230
1
0
SOLID
5
122
100
AcDbEntity
8
0
62
256
6
ByLayer
370
-1
48
1
60
0
100
AcDbTrace
10
-3.5
20
-32.382359
30
0
11
-3.5
21
-31.215692
31
0
12
0
22
-31.799026
32
0
13
0
23
-31.799026
33
0
39
0
210
0
220
0
230
1
0
MTEXT
5
123
100
AcDbEntity
8
0
62
256
6
ByLayer
370
18
48
1
60
0
100
AcDbMText
10
-17
20
-25.799026
30
0
210
0
220
0
230
1
1
\A1;34
40
3
41
0
44
1
50
0
71
5
72
5
7
iso_b_vert
0
POINT
5
124
100
AcDbEntity
8
Defpoints
62
0
6
ByLayer
370
-1
48
1
60
0
100
AcDbPoint
10
-34
20
-2.55
30
0
39
0
210
0
220
0
230
1
50
360
0
POINT
5
125
100
AcDbEntity
8
Defpoints
62
0
6
ByLayer
370
-1
48
1
60
0
100
AcDbPoint
10
0
20
-2.55
30
0
39
0
210
0
220
0
230
1
50
360
0
POINT
5
126
100
AcDbEntity
8
Defpoints
62
0
6
ByLayer
370
-1
48
1
60
0
100
AcDbPoint
10
0
20
-31.799026
30
0
39
0
210
0
220
0
230
1
50
360
0
ENDBLK
5
11D
100
AcDbEntity
8
0
100
AcDbBlockEnd
0
BLOCK
5
12E
100
AcDbEntity
8
0
100
AcDbBlockBegin
2
_U2
70
0
10
0
20
0
30
0
3
_U2
0
MTEXT
5
128
100
AcDbEntity
8
SK2
62
256
6
ByLayer
370
18
48
1
60
0
100
AcDbMText
10
-21.640313
20
-30.913911
30
0
210
0
220
0
230
1
1
\W0.7694;34.00
40
3
41
0
44
1.084337
50
0
71
7
72
5
7
iso_b_vert
0
LINE
5
129
100
AcDbEntity
8
SK2
62
256
6
ByLayer
370
13
48
1
60
0
100
AcDbLine
10
-34
20
-4.1375
30
0
11
-34
21
-33.799026
31
0
39
0
210
0
220
0
230
1
0
LINE
5
12A
100
AcDbEntity
8
SK2
62
256
6
ByLayer
370
13
48
1
60
0
100
AcDbLine
10
0
20
-4.1375
30
0
11
0
21
-33.799026
31
0
39
0
210
0
220
0
230
1
0
LINE
5
12B
100
AcDbEntity
8
SK2
62
256
6
ByLayer
370
13
48
1
60
0
100
AcDbLine
10
-34
20
-31.799026
30
0
11
0
21
-31.799026
31
0
39
0
210
0
220
0
230
1
0
SOLID
5
12C
100
AcDbEntity
8
SK2
62
256
6
ByLayer
370
18
48
1
60
0
100
AcDbTrace
10
-34
20
-31.799026
30
0
11
-30.500002
21
-31.338242
31
0
12
-30.499998
22
-32.25981
32
0
13
-30.499998
23
-32.25981
33
0
39
0
210
0
220
0
230
1
0
SOLID
5
12D
100
AcDbEntity
8
SK2
62
256
6
ByLayer
370
18
48
1
60
0
100
AcDbTrace
10
0
20
-31.799026
30
0
11
-3.499998
21
-32.25981
31
0
12
-3.500002
22
-31.338242
32
0
13
-3.500002
23
-31.338242
33
0
39
0
210
0
220
0
230
1
0
ENDBLK
5
12F
100
AcDbEntity
8
0
100
AcDbBlockEnd
0
BLOCK
5
134
100
AcDbEntity
8
0
100
AcDbBlockBegin
2
*D7
70
1
10
0
20
0
30
0
3
*D7
0
LINE
5
136
100
AcDbEntity
8
0
62
256
6
ByLayer
370
-2
48
1
60
0
100
AcDbLine
10
28
20
-1.5875
30
0
11
28
21
-31.799026
31
0
39
0
210
0
220
0
230
1
0
LINE
5
137
100
AcDbEntity
8
0
62
256
6
ByLayer
370
-2
48
1
60
0
100
AcDbLine
10
8.5
20
-4.1375
30
0
11
8.5
21
-31.799026
31
0
39
0
210
0
220
0
230
1
0
LINE
5
138
100
AcDbEntity
8
0
62
256
6
ByLayer
370
-2
48
1
60
0
100
AcDbLine
10
24.5
20
-29.799026
30
0
11
12
21
-29.799026
31
0
39
0
210
0
220
0
230
1
0
SOLID
5
139
100
AcDbEntity
8
0
62
256
6
ByLayer
370
-1
48
1
60
0
100
AcDbTrace
10
24.5
20
-30.382359
30
0
11
24.5
21
-29.215692
31
0
12
28
22
-29.799026
32
0
13
28
23
-29.799026
33
0
39
0
210
0
220
0
230
1
0
SOLID
5
13A
100
AcDbEntity
8
0
62
256
6
ByLayer
370
-1
48
1
60
0
100
AcDbTrace
10
12
20
-29.215692
30
0
11
12
21
-30.382359
31
0
12
8.5
22
-29.799026
32
0
13
8.5
23
-29.799026
33
0
39
0
210
0
220
0
230
1
0
MTEXT
5
13B
100
AcDbEntity
8
0
62
256
6
ByLayer
370
18
48
1
60
0
100
AcDbMText
10
18.25
20
-23.799026
30
0
210
0
220
0
230
1
1
\A1;19.5
40
3
41
0
44
1
50
0
71
5
72
5
7
iso_b_vert
0
POINT
5
13C
100
AcDbEntity
8
Defpoints
62
0
6
ByLayer
370
-1
48
1
60
0
100
AcDbPoint
10
28
20
0
30
0
39
0
210
0
220
0
230
1
50
360
0
POINT
5
13D
100
AcDbEntity
8
Defpoints
62
0
6
ByLayer
370
-1
48
1
60
0
100
AcDbPoint
10
8.5
20
-2.55
30
0
39
0
210
0
220
0
230
1
50
360
0
POINT
5
13E
100
AcDbEntity
8
Defpoints
62
0
6
ByLayer
370
-1
48
1
60
0
100
AcDbPoint
10
8.5
20
-29.799026
30
0
39
0
210
0
220
0
230
1
50
360
0
ENDBLK
5
135
100
AcDbEntity
8
0
100
AcDbBlockEnd
0
BLOCK
5
146
100
AcDbEntity
8
0
100
AcDbBlockBegin
2
_U3
70
0
10
0
20
0
30
0
3
_U3
0
MTEXT
5
140
100
AcDbEntity
8
2
62
256
6
ByLayer
370
18
48
1
60
0
100
AcDbMText
10
14.142572
20
-28.913911
30
0
210
0
220
0
230
1
1
\W0.6864;19.50
40
3
41
0
44
1.084337
50
0
71
7
72
5
7
iso_b_vert
0
LINE
5
141
100
AcDbEntity
8
2
62
256
6
ByLayer
370
13
48
1
60
0
100
AcDbLine
10
28
20
-1.5875
30
0
11
28
21
-31.799026
31
0
39
0
210
0
220
0
230
1
0
LINE
5
142
100
AcDbEntity
8
2
62
256
6
ByLayer
370
13
48
1
60
0
100
AcDbLine
10
8.5
20
-4.1375
30
0
11
8.5
21
-31.799026
31
0
39
0
210
0
220
0
230
1
0
LINE
5
143
100
AcDbEntity
8
2
62
256
6
ByLayer
370
13
48
1
60
0
100
AcDbLine
10
28
20
-29.799026
30
0
11
8.5
21
-29.799026
31
0
39
0
210
0
220
0
230
1
0
SOLID
5
144
100
AcDbEntity
8
2
62
256
6
ByLayer
370
18
48
1
60
0
100
AcDbTrace
10
28
20
-29.799026
30
0
11
24.500002
21
-30.25981
31
0
12
24.499998
22
-29.338242
32
0
13
24.499998
23
-29.338242
33
0
39
0
210
0
220
0
230
1
0
SOLID
5
145
100
AcDbEntity
8
2
62
256
6
ByLayer
370
18
48
1
60
0
100
AcDbTrace
10
8.5
20
-29.799026
30
0
11
11.999998
21
-29.338242
31
0
12
12.000002
22
-30.25981
32
0
13
12.000002
23
-30.25981
33
0
39
0
210
0
220
0
230
1
0
ENDBLK
5
147
100
AcDbEntity
8
0
100
AcDbBlockEnd
0
ENDSEC
0
SECTION
2
ENTITIES
0
ARC
5
B5
100
AcDbEntity
8
2
62
256
6
ByLayer
370
13
48
1
60
0
100
AcDbCircle
39
0
10
28
20
0
30
0
40
22
210
0
220
0
230
1
100
AcDbArc
50
7.83748
51
61.596605
0
ARC
5
B6
100
AcDbEntity
8
2
62
256
6
ByLayer
370
13
48
1
60
0
100
AcDbCircle
39
0
10
28
20
0
30
0
40
22
210
0
220
0
230
1
100
AcDbArc
50
298.403395
51
352.16252
0
POINT
5
70
100
AcDbEntity
8
81
62
256
6
ByLayer
370
18
48
1
60
0
100
AcDbPoint
10
28
20
0
30
0
39
0
210
0
220
0
230
1
50
360
0
POINT
5
72
100
AcDbEntity
8
80
62
256
6
ByLayer
370
18
48
1
60
0
100
AcDbPoint
10
0
20
0
30
0
39
0
210
0
220
0
230
1
50
360
0
POINT
5
74
100
AcDbEntity
8
1
62
256
6
ByLayer
370
18
48
1
60
1
100
AcDbPoint
10
-34
20
-2.55
30
0
39
0
210
0
220
0
230
1
50
360
0
POINT
5
76
100
AcDbEntity
8
1
62
256
6
ByLayer
370
18
48
1
60
1
100
AcDbPoint
10
28
20
0
30
0
39
0
210
0
220
0
230
1
50
360
0
POINT
5
77
100
AcDbEntity
8
1
62
256
6
ByLayer
370
18
48
1
60
1
100
AcDbPoint
10
28
20
0
30
0
39
0
210
0
220
0
230
1
50
360
0
POINT
5
78
100
AcDbEntity
8
1
62
256
6
ByLayer
370
18
48
1
60
1
100
AcDbPoint
10
2
20
-2.55
30
0
39
0
210
0
220
0
230
1
50
360
0
POINT
5
79
100
AcDbEntity
8
1
62
256
6
ByLayer
370
18
48
1
60
1
100
AcDbPoint
10
-34
20
-2.55
30
0
39
0
210
0
220
0
230
1
50
360
0
POINT
5
7A
100
AcDbEntity
8
1
62
256
6
ByLayer
370
18
48
1
60
1
100
AcDbPoint
10
0
20
-2.55
30
0
39
0
210
0
220
0
230
1
50
360
0
POINT
5
7B
100
AcDbEntity
8
1
62
256
6
ByLayer
370
18
48
1
60
1
100
AcDbPoint
10
28
20
0
30
0
39
0
210
0
220
0
230
1
50
360
0
POINT
5
7C
100
AcDbEntity
8
1
62
256
6
ByLayer
370
18
48
1
60
1
100
AcDbPoint
10
8.5
20
-2.55
30
0
39
0
210
0
220
0
230
1
50
360
0
SPLINE
5
B7
100
AcDbEntity
8
CUT
62
256
6
ByLayer
370
18
48
1
60
0
100
AcDbSpline
70
2053
71
3
72
17
73
13
40
0
40
0
40
0
40
0
40
0.452822737560359
40
0.452822737560359
40
0.452822737560359
40
0.511880218391751
40
0.511880218391751
40
0.511880218391751
40
0.932680868144851
40
0.932680868144851
40
0.932680868144851
40
1
40
1
40
1
40
1
41
1
10
28
20
0
30
0
41
1
10
21.5
20
0
30
0
41
1
10
15
20
0
30
0
41
1
10
8.5
20
0
30
0
41
1
10
8.5
20
0.847734871890481
30
0
41
1
10
8.5
20
1.69546974378099
30
0
41
1
10
8.49999999999955
20
2.54320461567147
30
0
41
1
10
14.5403416264432
20
2.54546974378124
30
0
41
1
10
20.5806832528872
20
2.54773487189104
30
0
41
1
10
26.6210248793313
20
2.55000000000081
30
0
41
1
10
27.0806832528876
20
1.70000000000053
30
0
41
1
10
27.5403416264438
20
0.85000000000025
30
0
41
1
10
28
20
0
30
0
0
SPLINE
5
B9
100
AcDbEntity
8
NOCUT
62
256
6
ByLayer
370
18
48
1
60
0
100
AcDbSpline
70
2053
71
3
72
26
73
22
40
0
40
0
40
0
40
0
40
0.373048910024753
40
0.373048910024753
40
0.373048910024753
40
0.380923101486283
40
0.380923101486283
40
0.380923101486283
40
0.403751467621081
40
0.403751467621081
40
0.403751467621081
40
0.877022472876664
40
0.877022472876664
40
0.877022472876664
40
0.905343061229569
40
0.905343061229569
40
0.905343061229569
40
0.997770111106845
40
0.997770111106845
40
0.997770111106845
40
1
40
1
40
1
40
1
41
1
10
0
20
2.55000000000001
30
0
41
1
10
-11.1666666666667
20
2.55000000000001
30
0
41
1
10
-22.3333333333333
20
2.55000000000001
30
0
41
1
10
-33.5
20
2.55000000000001
30
0
41
1
10
-33.6666666666667
20
2.38333333333333
30
0
41
1
10
-33.8333333333333
20
2.21666666666667
30
0
41
1
10
-34
20
2.05000000000001
30
0
41
1
10
-34
20
1.36666666666667
30
0
41
1
10
-34
20
0.683333333333337
30
0
41
1
10
-34
20
0
30
0
41
1
10
-19.8333333333334
20
0
30
0
41
1
10
-5.66666666666683
20
0
30
0
41
1
10
8.49999999999989
20
0
30
0
41
1
10
8.5
20
0.847734871890481
30
0
41
1
10
8.5
20
1.69546974378099
30
0
41
1
10
8.5
20
2.54320461567147
30
0
41
1
10
5.73333333333329
20
2.54216711567153
30
0
41
1
10
2.96666666666661
20
2.54112961567159
30
0
41
1
10
0.200000000120866
20
2.54009211568089
30
0
41
1
10
0.133333333494562
20
2.54339474379341
30
0
41
1
10
0.0666666667472668
20
2.5466973718967
30
0
41
1
10
0
20
2.55000000000001
30
0
0
SPLINE
5
BB
100
AcDbEntity
8
1
62
256
6
ByLayer
370
18
48
1
60
0
100
AcDbSpline
70
4
71
3
72
78
73
74
40
0
40
0
40
0
40
0
40
0.124999999999999
40
0.124999999999999
40
0.187499999999999
40
0.187499999999999
40
0.218749999999999
40
0.218749999999999
40
0.249999999999998
40
0.249999999999998
40
0.265624999999997
40
0.265624999999997
40
0.281249999999997
40
0.281249999999997
40
0.312499999999995
40
0.312499999999995
40
0.343749999999993
40
0.343749999999993
40
0.374999999999991
40
0.374999999999991
40
0.40624999999999
40
0.40624999999999
40
0.437499999999988
40
0.437499999999988
40
0.468749999999986
40
0.468749999999986
40
0.484374999999985
40
0.484374999999985
40
0.492187499999985
40
0.492187499999985
40
0.499999999999984
40
0.499999999999984
40
0.503906249999984
40
0.503906249999984
40
0.507812499999985
40
0.507812499999985
40
0.511718749999985
40
0.511718749999985
40
0.515624999999985
40
0.515624999999985
40
0.519531249999985
40
0.519531249999985
40
0.523437499999985
40
0.523437499999985
40
0.527343749999986
40
0.527343749999986
40
0.531249999999986
40
0.531249999999986
40
0.546874999999986
40
0.546874999999986
40
0.562499999999987
40
0.562499999999987
40
0.593749999999988
40
0.593749999999988
40
0.62499999999999
40
0.62499999999999
40
0.64062499999999
40
0.64062499999999
40
0.656249999999991
40
0.656249999999991
40
0.687499999999993
40
0.687499999999993
40
0.749999999999995
40
0.749999999999995
40
0.812499999999998
40
0.812499999999998
40
0.843749999999998
40
0.843749999999998
40
0.874999999999999
40
0.874999999999999
40
0.937499999999999
40
0.937499999999999
40
1
40
1
40
1
40
1
41
1
10
26.6210248793313
20
2.46903740774252
30
0
41
1
10
26.7250369616871
20
2.2781352733283
30
0
41
1
10
26.8283636274973
20
2.08614353518712
30
0
41
1
10
26.9819041526799
20
1.79672501836109
30
0
41
1
10
27.0328363019733
20
1.70000987408997
30
0
41
1
10
27.1087046244226
20
1.55454038792956
30
0
41
1
10
27.1339011387522
20
1.50597923927248
30
0
41
1
10
27.1840741282933
20
1.40871188058935
30
0
41
1
10
27.2090398708613
20
1.35999237677675
30
0
41
1
10
27.2462779310431
20
1.28678789457811
30
0
41
1
10
27.2586568412746
20
1.26236696243882
30
0
41
1
10
27.2833146071123
20
1.21345718018714
30
0
41
1
10
27.2955920809768
20
1.18896634135231
30
0
41
1
10
27.3322855601508
20
1.11542667767011
30
0
41
1
10
27.3565769019738
20
1.06632224944585
30
0
41
1
10
27.4049760163598
20
0.968126180349401
30
0
41
1
10
27.4290863741622
20
0.919034922706828
30
0
41
1
10
27.4770614225272
20
0.820838504467673
30
0
41
1
10
27.5009276987558
20
0.77171226928192
30
0
41
1
10
27.5481192363435
20
0.673393986405159
30
0
41
1
10
27.5714411647824
20
0.624195584841033
30
0
41
1
10
27.6173326433609
20
0.525699925229389
30
0
41
1
10
27.6399438227085
20
0.476406099727313
30
0
41
1
10
27.6835911149842
20
0.377479380272462
30
0
41
1
10
27.7046427782997
20
0.327831813344602
30
0
41
1
10
27.7340118710019
20
0.25271861259003
30
0
41
1
10
27.7434175633186
20
0.227549845058036
30
0
41
1
10
27.7567494194046
20
0.189615741455128
30
0
41
1
10
27.7610892119967
20
0.176970394627858
30
0
41
1
10
27.7692893862339
20
0.151471732202822
30
0
41
1
10
27.7731096857879
20
0.138513656259107
30
0
41
1
10
27.7769630450229
20
0.118493447355377
30
0
41
1
10
27.7779564141706
20
0.111659377154723
30
0
41
1
10
27.7792139265514
20
0.0980466218633467
30
0
41
1
10
27.7794777114624
20
0.0913526902279216
30
0
41
1
10
27.7792763725252
20
0.0781881381030871
30
0
41
1
10
27.7788095181027
20
0.0716989973751652
30
0
41
1
10
27.7771113647092
20
0.0590407363632153
30
0
41
1
10
27.775907544558
20
0.0530613352934779
30
0
41
1
10
27.772852202921
20
0.0417750491649826
30
0
41
1
10
27.7709751174441
20
0.0364270788222996
30
0
41
1
10
27.7667283647647
20
0.0266257517837687
30
0
41
1
10
27.7643842806185
20
0.022200053864708
30
0
41
1
10
27.7594804538619
20
0.0137892032397247
30
0
41
1
10
27.756925718339
20
0.0097889863589842
30
0
41
1
10
27.7517525403378
20
0.0018450181457865
30
0
41
1
10
27.7491295339818
20
-0.002087695896364
30
0
41
1
10
27.7358997731086
20
-0.0217061072658851
30
0
41
1
10
27.7249247911393
20
-0.0372074756163556
30
0
41
1
10
27.7023716465309
20
-0.0674650871179097
30
0
41
1
10
27.6908174261068
20
-0.0822274996730243
30
0
41
1
10
27.6555953697199
20
-0.125540296435332
30
0
41
1
10
27.6313830680457
20
-0.153119428285606
30
0
41
1
10
27.5822219461256
20
-0.205956589879378
30
0
41
1
10
27.5572604927863
20
-0.231210333662119
30
0
41
1
10
27.519481513707
20
-0.267428834804775
30
0
41
1
10
27.506830344438
20
-0.279223811168805
30
0
41
1
10
27.4814328882316
20
-0.302264532569495
30
0
41
1
10
27.4686767353332
20
-0.313518275818922
30
0
41
1
10
27.4304127757054
20
-0.346354176305994
30
0
41
1
10
27.4048817509025
20
-0.367040666887874
30
0
41
1
10
27.3283143514032
20
-0.425594106936757
30
0
41
1
10
27.27731118787
20
-0.459960309584346
30
0
41
1
10
27.1754608332622
20
-0.51963811188665
30
0
41
1
10
27.1246064306779
20
-0.544944000452261
30
0
41
1
10
27.0483299347615
20
-0.576114879724713
30
0
41
1
10
27.0229043277905
20
-0.585371675122332
30
0
41
1
10
26.9720275642478
20
-0.601614007543361
30
0
41
1
10
26.9465388631248
20
-0.608606890489028
30
0
41
1
10
26.8704827096432
20
-0.626086259068302
30
0
41
1
10
26.820203692436
20
-0.633149833256681
30
0
41
1
10
26.7202327302499
20
-0.638395753835539
30
0
41
1
10
26.6705426861563
20
-0.636561537061596
30
0
41
1
10
26.6210248793313
20
-0.630297155908266
30
0
0
SPLINE
5
BC
100
AcDbEntity
8
1
62
256
6
ByLayer
370
18
48
1
60
0
100
AcDbSpline
70
4
71
3
72
64
73
60
40
0
40
0
40
0
40
0
40
0.0360087870143161
40
0.0360087870143161
40
0.0720175740286321
40
0.0720175740286321
40
0.108026361042948
40
0.108026361042948
40
0.126030754550105
40
0.126030754550105
40
0.144035148057262
40
0.144035148057262
40
0.180043935071577
40
0.180043935071577
40
0.216052722085891
40
0.216052722085891
40
0.252061509100205
40
0.252061509100205
40
0.288070296114519
40
0.288070296114519
40
0.360087870143149
40
0.360087870143149
40
0.378092263650308
40
0.378092263650308
40
0.396096657157466
40
0.396096657157466
40
0.432105444171785
40
0.432105444171785
40
0.504123018200423
40
0.504123018200423
40
0.540131805214743
40
0.540131805214743
40
0.576140592229063
40
0.576140592229063
40
0.612149379243382
40
0.612149379243382
40
0.648158166257702
40
0.648158166257702
40
0.684166953272022
40
0.684166953272022
40
0.720175740286342
40
0.720175740286342
40
0.756184527300662
40
0.756184527300662
40
0.774188920807822
40
0.774188920807822
40
0.792193314314982
40
0.792193314314982
40
0.828202101329299
40
0.828202101329299
40
0.864210888343617
40
0.864210888343617
40
0.900219675357935
40
0.900219675357935
40
0.936228462372253
40
0.936228462372253
40
0.972237249386571
40
0.972237249386571
40
1
40
1
40
1
40
1
41
1
10
26.6210248793317
20
-0.630297155908522
30
0
41
1
10
26.5195103644126
20
-0.575820289238379
30
0
41
1
10
26.4182084463734
20
-0.521136696024115
30
0
41
1
10
26.2159603905338
20
-0.411478219992148
30
0
41
1
10
26.1150219443752
20
-0.356488335157735
30
0
41
1
10
25.91368505752
20
-0.245868310850312
30
0
41
1
10
25.8133008727965
20
-0.190212193877301
30
0
41
1
10
25.6630156227016
20
-0.106464944759438
30
0
41
1
10
25.6129650435405
20
-0.0785128451762489
30
0
41
1
10
25.5128508560803
20
-0.0227250990730852
30
0
41
1
10
25.4627820278469
20
0.0051009812172822
30
0
41
1
10
25.3125655490079
20
0.0884243597834882
30
0
41
1
10
25.2124206801147
20
0.143790390726906
30
0
41
1
10
25.0120722146887
20
0.254055306011196
30
0
41
1
10
24.9118504126959
20
0.30892108769018
30
0
41
1
10
24.7114351675671
20
0.418345940191415
30
0
41
1
10
24.611268071417
20
0.472952877982351
30
0
41
1
10
24.411012547975
20
0.581943100415316
30
0
41
1
10
24.3109358409369
20
0.636346341943437
30
0
41
1
10
24.0099029975963
20
0.797548924457146
30
0
41
1
10
23.808286192689
20
0.902604304132382
30
0
41
1
10
23.5550500095372
20
1.03080951506928
30
0
41
1
10
23.5043457545557
20
1.05630135550879
30
0
41
1
10
23.4028442896755
20
1.10702289540757
30
0
41
1
10
23.3520562056011
20
1.13225288431747
30
0
41
1
10
23.2001004362832
20
1.20729474582649
30
0
41
1
10
23.0991913222932
20
1.25659281469268
30
0
41
1
10
22.7970772330054
20
1.40133026838606
30
0
41
1
10
22.5960591170996
20
1.49295011754955
30
0
41
1
10
22.2949213011566
20
1.62313596767831
30
0
41
1
10
22.1946018042542
20
1.66531604680472
30
0
41
1
10
21.9942517481244
20
1.74748296069362
30
0
41
1
10
21.8942398263595
20
1.78749080594869
30
0
41
1
10
21.6943960968391
20
1.86511309485798
30
0
41
1
10
21.5945213327854
20
1.90266715754967
30
0
41
1
10
21.3943608035414
20
1.97465924700919
30
0
41
1
10
21.2941600181046
20
2.00920579685345
30
0
41
1
10
21.0934780917817
20
2.07537328394417
30
0
41
1
10
20.9929757226612
20
2.1069726940049
30
0
41
1
10
20.7917465697775
20
2.16729665228752
30
0
41
1
10
20.6910459638919
20
2.19604714489483
30
0
41
1
10
20.4895005889037
20
2.25067329365896
30
0
41
1
10
20.3886701651448
20
2.27655227014011
30
0
41
1
10
20.2368824722244
20
2.31278199904384
30
0
41
1
10
20.1861521757277
20
2.32443278171203
30
0
41
1
10
20.0847050854079
20
2.34684402394169
30
0
41
1
10
20.0340323249709
20
2.35759623235984
30
0
41
1
10
19.8821543655911
20
2.38850324681744
30
0
41
1
10
19.7810802592945
20
2.40730348212057
30
0
41
1
10
19.5792679387834
20
2.44136097667706
30
0
41
1
10
19.4785494877814
20
2.45663291866475
30
0
41
1
10
19.2776298998965
20
2.48372628713284
30
0
41
1
10
19.1774425630425
20
2.49554449751028
30
0
41
1
10
18.9772955446381
20
2.51556335790414
30
0
41
1
10
18.8772249671059
20
2.52373135824203
30
0
41
1
10
18.6769830870048
20
2.53643177997884
30
0
41
1
10
18.5768416114053
20
2.54097121149388
30
0
41
1
10
18.3993927718651
20
2.54582903698383
30
0
41
1
10
18.3221058166201
20
2.54687854511434
30
0
41
1
10
18.2448207506678
20
2.5468593274301
30
0
0
SPLINE
5
BD
100
AcDbEntity
8
1
62
256
6
ByLayer
370
18
48
1
60
0
100
AcDbSpline
70
4
71
3
72
8
73
4
40
0
40
0
40
0
40
0
40
1
40
1
40
1
40
1
41
1
10
7.34335748684887
20
-1.82182098885434
30
0
41
1
10
7.33231626369573
20
-1.82611411560606
30
0
41
1
10
7.3212742820628
20
-1.8303956607603
30
0
41
1
10
7.31023162950038
20
-1.83466571429861
30
0
0
SPLINE
5
BE
100
AcDbEntity
8
1
62
256
6
ByLayer
370
18
48
1
60
0
100
AcDbSpline
70
4
71
3
72
30
73
26
40
0
40
0
40
0
40
0
40
0.163438740517698
40
0.163438740517698
40
0.326877481035395
40
0.326877481035395
40
0.408596851294242
40
0.408596851294242
40
0.490316221553089
40
0.490316221553089
40
0.572035591811936
40
0.572035591811936
40
0.653754962070782
40
0.653754962070782
40
0.735474332329629
40
0.735474332329629
40
0.817193702588475
40
0.817193702588475
40
0.858053387717899
40
0.858053387717899
40
0.898913072847322
40
0.898913072847322
40
0.980632443106169
40
0.980632443106169
40
1
40
1
40
1
40
1
41
1
10
7.31023162950041
20
-1.76484600737547
30
0
41
1
10
7.51262298831867
20
-1.84675586807694
30
0
41
1
10
7.71505399903253
20
-1.92142641136746
30
0
41
1
10
8.11842776176982
20
-2.05940613850274
30
0
41
1
10
8.31930226600355
20
-2.1227292971077
30
0
41
1
10
8.61932423756761
20
-2.2090487841152
30
0
41
1
10
8.71919049122988
20
-2.23628734673201
30
0
41
1
10
8.91941072949319
20
-2.28707176636243
30
0
41
1
10
9.01971109391766
20
-2.31068165766581
30
0
41
1
10
9.22042078422965
20
-2.35462287230749
30
0
41
1
10
9.32081744600561
20
-2.37496092675897
30
0
41
1
10
9.52156885370769
20
-2.41241558234623
30
0
41
1
10
9.62195018459528
20
-2.42951380177752
30
0
41
1
10
9.82270128649358
20
-2.46037206282057
30
0
41
1
10
9.92299815743999
20
-2.47415410092469
30
0
41
1
10
10.1242406748374
20
-2.49799526286526
30
0
41
1
10
10.225267092832
20
-2.50803944182027
30
0
41
1
10
10.3773222440313
20
-2.52037808766866
30
0
41
1
10
10.4280874657552
20
-2.524037399782
30
0
41
1
10
10.5297480182551
20
-2.53045428667622
30
0
41
1
10
10.5806235295126
20
-2.53320985412341
30
0
41
1
10
10.7328761367049
20
-2.54009912952057
30
0
41
1
10
10.8340596402199
20
-2.54286507929862
30
0
41
1
10
10.9588473970258
20
-2.54401417088729
30
0
41
1
10
10.9827386247165
20
-2.54413114637205
30
0
41
1
10
11.0066115562852
20
-2.54414451411148
30
0
0
SPLINE
5
BF
100
AcDbEntity
8
1
62
256
6
ByLayer
370
18
48
1
60
0
100
AcDbSpline
70
4
71
3
72
41
73
37
40
0
40
0
40
0
40
0
40
0.019731832546205
40
0.019731832546205
40
0.0513533863350375
40
0.0513533863350375
40
0.1145964939127
40
0.1145964939127
40
0.241082709068024
40
0.241082709068024
40
0.304325816645686
40
0.304325816645686
40
0.335947370434517
40
0.335947370434517
40
0.367568924223349
40
0.367568924223349
40
0.494055139378676
40
0.494055139378676
40
0.557298246956342
40
0.557298246956342
40
0.620541354534007
40
0.620541354534007
40
0.683784462111673
40
0.683784462111673
40
0.747027569689339
40
0.747027569689339
40
0.778649123478171
40
0.778649123478171
40
0.810270677267004
40
0.841892231055837
40
0.841892231055837
40
0.873513784844669
40
0.873513784844669
40
0.936756892422335
40
0.936756892422335
40
1
40
1
40
1
40
1
41
1
10
21.8496879932793
20
1.80440176154997
30
0
41
1
10
21.8808474542809
20
1.81670056262035
30
0
41
1
10
21.9120203871248
20
1.82885588136924
30
0
41
1
10
21.9932152929216
20
1.86008149517429
30
0
41
1
10
22.0432728095539
20
1.87891090604168
30
0
41
1
10
22.1935681254113
20
1.93429449777759
30
0
41
1
10
22.2939286812693
20
1.96974741675763
30
0
41
1
10
22.595132002667
20
2.07215036189973
30
0
41
1
10
22.7960473064396
20
2.13520246692477
30
0
41
1
10
23.0976902739871
20
2.22138685170663
30
0
41
1
10
23.1983852442941
20
2.24860156050255
30
0
41
1
10
23.3501900515653
20
2.28667317068323
30
0
41
1
10
23.4009012637621
20
2.29892343670036
30
0
41
1
10
23.5025048329027
20
2.32258105077338
30
0
41
1
10
23.5533135444689
20
2.33396774433055
30
0
41
1
10
23.8069634795659
20
2.38869720033262
30
0
41
1
10
24.0088639555694
20
2.4256371900255
30
0
41
1
10
24.3099863776452
20
2.47077779993629
30
0
41
1
10
24.410026126863
20
2.48411022029339
30
0
41
1
10
24.6102866721556
20
2.50699214266393
30
0
41
1
10
24.7105649665211
20
2.51654165347384
30
0
41
1
10
24.9112089504978
20
2.53205255729674
30
0
41
1
10
25.0115623993395
20
2.53801717943156
30
0
41
1
10
25.2121082093284
20
2.54640399195114
30
0
41
1
10
25.312318174039
20
2.5488188643364
30
0
41
1
10
25.4625580265835
20
2.54971640426098
30
0
41
1
10
25.5126231630317
20
2.54956142040456
30
0
41
1
10
25.6127082470027
20
2.54832742070269
30
0
41
1
10
25.7127582574335
20
2.54616699158916
30
0
41
1
10
25.8129677110773
20
2.54215570895764
30
0
41
1
10
25.9133546573548
20
2.53724117809457
30
0
41
1
10
25.9636420213951
20
2.53433453290262
30
0
41
1
10
26.1147306025128
20
2.52427616685037
30
0
41
1
10
26.2157535874845
20
2.51579011678402
30
0
41
1
10
26.4181483958519
20
2.49518318611248
30
0
41
1
10
26.5195035338939
20
2.48305118266137
30
0
41
1
10
26.6210248793317
20
2.46903740774246
30
0
0
SPLINE
5
C0
100
AcDbEntity
8
1
62
256
6
ByLayer
370
18
48
1
60
0
100
AcDbSpline
70
4
71
3
72
109
73
105
40
0
40
0
40
0
40
0
40
0.0038186968055786
40
0.0038186968055786
40
0.0245724739554662
40
0.0245724739554662
40
0.0453262511053538
40
0.0453262511053538
40
0.0660800282552413
40
0.0660800282552413
40
0.0868338054051289
40
0.0868338054051289
40
0.107587582555016
40
0.107587582555016
40
0.11796447112996
40
0.11796447112996
40
0.128341359704903
40
0.128341359704903
40
0.149095136854788
40
0.149095136854788
40
0.169848914004674
40
0.169848914004674
40
0.190602691154559
40
0.190602691154559
40
0.211356468304445
40
0.211356468304445
40
0.23211024545433
40
0.23211024545433
40
0.252864022604215
40
0.252864022604215
40
0.273617799754101
40
0.273617799754101
40
0.294371576903986
40
0.294371576903986
40
0.315125354053872
40
0.315125354053872
40
0.335879131203757
40
0.335879131203757
40
0.3462560197787
40
0.3462560197787
40
0.356632908353643
40
0.356632908353643
40
0.377386685503527
40
0.377386685503527
40
0.398140462653411
40
0.398140462653411
40
0.418894239803296
40
0.418894239803296
40
0.43964801695318
40
0.43964801695318
40
0.460401794103064
40
0.460401794103064
40
0.470778682678006
40
0.470778682678006
40
0.481155571252949
40
0.501909348402832
40
0.501909348402832
40
0.522663125552715
40
0.522663125552715
40
0.543416902702598
40
0.543416902702598
40
0.55379379127754
40
0.55379379127754
40
0.564170679852481
40
0.564170679852481
40
0.584924457002364
40
0.584924457002364
40
0.626432011302127
40
0.626432011302127
40
0.647185788452008
40
0.647185788452008
40
0.66793956560189
40
0.66793956560189
40
0.688693342751772
40
0.688693342751772
40
0.709447119901654
40
0.709447119901654
40
0.730200897051535
40
0.730200897051535
40
0.740577785626477
40
0.740577785626477
40
0.750954674201418
40
0.750954674201418
40
0.771708451351301
40
0.771708451351301
40
0.782085339926242
40
0.782085339926242
40
0.792462228501184
40
0.792462228501184
40
0.813216005651065
40
0.813216005651065
40
0.833969782800947
40
0.833969782800947
40
0.87547733710071
40
0.87547733710071
40
0.896231114250592
40
0.896231114250592
40
0.916984891400473
40
0.916984891400473
40
0.937738668550355
40
0.937738668550355
40
0.958492445700237
40
0.958492445700237
40
1
40
1
40
1
40
1
41
1
10
21.8494844590704
20
-1.80475739621391
30
0
41
1
10
21.8310922742328
20
-1.81197892693365
30
0
41
1
10
21.8127035934297
20
-1.81916069643884
30
0
41
1
10
21.6943960968391
20
-1.86511309485795
30
0
41
1
10
21.5945213327854
20
-1.90266715754967
30
0
41
1
10
21.3943608035414
20
-1.97465924700919
30
0
41
1
10
21.2941600181046
20
-2.00920579685345
30
0
41
1
10
21.0934780917817
20
-2.07537328394417
30
0
41
1
10
20.9929757226612
20
-2.1069726940049
30
0
41
1
10
20.7917465697775
20
-2.16729665228752
30
0
41
1
10
20.6910459638919
20
-2.19604714489483
30
0
41
1
10
20.4895005889037
20
-2.25067329365893
30
0
41
1
10
20.3886701651448
20
-2.27655227014011
30
0
41
1
10
20.2368824722244
20
-2.31278199904384
30
0
41
1
10
20.1861521757277
20
-2.32443278171201
30
0
41
1
10
20.0847050854079
20
-2.34684402394169
30
0
41
1
10
20.0340323249709
20
-2.35759623235984
30
0
41
1
10
19.8821543655911
20
-2.38850324681744
30
0
41
1
10
19.7810802592945
20
-2.40730348212057
30
0
41
1
10
19.5792679387834
20
-2.44136097667706
30
0
41
1
10
19.4785494877814
20
-2.45663291866475
30
0
41
1
10
19.2776298998965
20
-2.48372628713284
30
0
41
1
10
19.1774425630424
20
-2.49554449751028
30
0
41
1
10
18.9772955446381
20
-2.51556335790414
30
0
41
1
10
18.8772249671059
20
-2.52373135824203
30
0
41
1
10
18.6769830870048
20
-2.53643177997884
30
0
41
1
10
18.5768416114053
20
-2.54097121149388
30
0
41
1
10
18.3764475890363
20
-2.54645718250626
30
0
41
1
10
18.2761914854431
20
-2.54740800746407
30
0
41
1
10
18.0757226258291
20
-2.54571052560607
30
0
41
1
10
17.9755334414238
20
-2.54305621149402
30
0
41
1
10
17.7751319922396
20
-2.5340525137604
30
0
41
1
10
17.6748982379513
20
-2.52769644371443
30
0
41
1
10
17.4737818638796
20
-2.51140016189362
30
0
41
1
10
17.372981822591
20
-2.5014490678162
30
0
41
1
10
17.1708763126971
20
-2.47795360718635
30
0
41
1
10
17.0695475927257
20
-2.46442080015964
30
0
41
1
10
16.9171944819846
20
-2.44139113550392
30
0
41
1
10
16.8663765780182
20
-2.43326009074255
30
0
41
1
10
16.7650028274366
20
-2.41612231565858
30
0
41
1
10
16.7144032353335
20
-2.40710988187442
30
0
41
1
10
16.5628610447283
20
-2.37874057374262
30
0
41
1
10
16.4622029935693
20
-2.35802521762389
30
0
41
1
10
16.2610710114995
20
-2.31339778630834
30
0
41
1
10
16.160552154981
20
-2.28953060211427
30
0
41
1
10
15.9596843459691
20
-2.23870550458918
30
0
41
1
10
15.8593148962236
20
-2.21176315444592
30
0
41
1
10
15.6586716654191
20
-2.15489096495779
30
0
41
1
10
15.5584141149364
20
-2.12494867795448
30
0
41
1
10
15.3581857685068
20
-2.0618697314209
30
0
41
1
10
15.2582266015159
20
-2.02871417695451
30
0
41
1
10
15.1083262563152
20
-1.97673059665499
30
0
41
1
10
15.0583559633384
20
-1.95903904575749
30
0
41
1
10
14.9583141635778
20
-1.92304323080921
30
0
41
1
10
14.8081208067663
20
-1.86810821977005
30
0
41
1
10
14.657625299485
20
-1.81026198918042
30
0
41
1
10
14.4566284935395
20
-1.73064696943928
30
0
41
1
10
14.3559514485643
20
-1.68961397975505
30
0
41
1
10
14.1543892974673
20
-1.60485919711059
30
0
41
1
10
14.053529677647
20
-1.56109696278494
30
0
41
1
10
13.9020598533737
20
-1.49339549653752
30
0
41
1
10
13.8515382536885
20
-1.47048710582575
30
0
41
1
10
13.7503576005902
20
-1.42409571802972
30
0
41
1
10
13.6996458912549
20
-1.40060966753896
30
0
41
1
10
13.5475273844712
20
-1.3296176609409
30
0
41
1
10
13.4462936725157
20
-1.28154919041643
30
0
41
1
10
13.1431069631716
20
-1.13519376779573
30
0
41
1
10
12.9415307066013
20
-1.03500184088961
30
0
41
1
10
12.640625164223
20
-0.879711808307235
30
0
41
1
10
12.540581478405
20
-0.827083007111725
30
0
41
1
10
12.3405091827303
20
-0.720968853359921
30
0
41
1
10
12.2404044635749
20
-0.667620458836467
30
0
41
1
10
12.0401270117391
20
-0.560234273746005
30
0
41
1
10
11.9399418175932
20
-0.506218262415672
30
0
41
1
10
11.7394290508171
20
-0.397636590430437
30
0
41
1
10
11.6391133901221
20
-0.343050249379417
30
0
41
1
10
11.4385304401754
20
-0.23297042799652
30
0
41
1
10
11.3382746511409
20
-0.177454012033138
30
0
41
1
10
11.1877859433884
20
-0.0937435633027235
30
0
41
1
10
11.1375992232465
20
-0.0657791888662018
30
0
41
1
10
11.0370765596397
20
-0.0099198462172296
30
0
41
1
10
10.9867411293659
20
0.0179758006923123
30
0
41
1
10
10.8355437736527
20
0.101618275312347
30
0
41
1
10
10.7344967962197
20
0.15733224336617
30
0
41
1
10
10.5825045199735
20
0.240739400011279
30
0
41
1
10
10.531767760674
20
0.268509892667851
30
0
41
1
10
10.4301600777702
20
0.324009714271796
30
0
41
1
10
10.3793235615479
20
0.351721582556905
30
0
41
1
10
10.2271611724857
20
0.434580514423942
30
0
41
1
10
10.1260472990844
20
0.489579498465929
30
0
41
1
10
9.92443098781698
20
0.599000228678108
30
0
41
1
10
9.82393113844469
20
0.653421082829567
30
0
41
1
10
9.52238481571337
20
0.814071704091361
30
0
41
1
10
9.32153763891961
20
0.91816641164769
30
0
41
1
10
9.02045743896943
20
1.06980340658296
30
0
41
1
10
8.92016247308757
20
1.1196533626152
30
0
41
1
10
8.71980765295407
20
1.21811329594846
30
0
41
1
10
8.61976479643459
20
1.26674629851425
30
0
41
1
10
8.41951724445528
20
1.3621007737072
30
0
41
1
10
8.31921615012291
20
1.40867383193839
30
0
41
1
10
8.11829866182759
20
1.49969196540889
30
0
41
1
10
8.01767959632656
20
1.54413199319393
30
0
41
1
10
7.71524161213449
20
1.67409722716715
30
0
41
1
10
7.5128495629186
20
1.75631593206765
30
0
41
1
10
7.31023162950038
20
1.83466571429861
30
0
0
SPLINE
5
C1
100
AcDbEntity
8
1
62
256
6
ByLayer
370
18
48
1
60
0
100
AcDbSpline
70
4
71
3
72
22
73
18
40
0
40
0
40
0
40
0
40
0.193498460675714
40
0.193498460675714
40
0.386996921351427
40
0.386996921351427
40
0.580495382027141
40
0.580495382027141
40
0.773993842702854
40
0.773993842702854
40
0.822368457871786
40
0.822368457871786
40
0.870743073040718
40
0.870743073040718
40
0.967492303378577
40
0.967492303378577
40
1
40
1
40
1
40
1
41
1
10
7.31023162950061
20
1.83466571429852
30
0
41
1
10
7.06452073969834
20
1.91183603116687
30
0
41
1
10
6.8206177199157
20
1.98483976767145
30
0
41
1
10
6.33588223934422
20
2.1205044054405
30
0
41
1
10
6.09504774045055
20
2.18317367309606
30
0
41
1
10
5.61600593077659
20
2.29608583142178
30
0
41
1
10
5.37779572767047
20
2.34634486696035
30
0
41
1
10
4.90373277855568
20
2.43192033461801
30
0
41
1
10
4.66787397331223
20
2.46727344131955
30
0
41
1
10
4.37453972905155
20
2.49982893500692
30
0
41
1
10
4.31605916675232
20
2.5057405148616
30
0
41
1
10
4.19965003986295
20
2.51628449466176
30
0
41
1
10
4.14169585889476
20
2.52091984299378
30
0
41
1
10
3.96862006048593
20
2.53280723804391
30
0
41
1
10
3.85428063475274
20
2.53804955609362
30
0
41
1
10
3.70310576161015
20
2.54096593545449
30
0
41
1
10
3.66521912514585
20
2.54135479528554
30
0
41
1
10
3.62747468942015
20
2.54137772825643
30
0
0
SPLINE
5
C2
100
AcDbEntity
8
1
62
256
6
ByLayer
370
18
48
1
60
0
100
AcDbSpline
70
4
71
3
72
142
73
138
40
0
40
0
40
0
40
0
40
0.0284864603091465
40
0.0284864603091465
40
0.0619016616738955
40
0.0619016616738955
40
0.0786092623562701
40
0.0786092623562701
40
0.0953168630386446
40
0.0953168630386446
40
0.112024463721019
40
0.112024463721019
40
0.128732064403394
40
0.128732064403394
40
0.145439665085768
40
0.145439665085768
40
0.162147265768143
40
0.162147265768143
40
0.17050106610933
40
0.17050106610933
40
0.178854866450516
40
0.178854866450516
40
0.19556246713289
40
0.19556246713289
40
0.203916267474077
40
0.203916267474077
40
0.212270067815263
40
0.212270067815263
40
0.220623868156449
40
0.220623868156449
40
0.228977668497636
40
0.228977668497636
40
0.245685269180007
40
0.245685269180007
40
0.262392869862379
40
0.262392869862379
40
0.279100470544751
40
0.279100470544751
40
0.295808071227123
40
0.295808071227123
40
0.312515671909495
40
0.312515671909495
40
0.329223272591867
40
0.329223272591867
40
0.345930873274239
40
0.345930873274239
40
0.354284673615425
40
0.354284673615425
40
0.362638473956611
40
0.362638473956611
40
0.379346074638984
40
0.379346074638984
40
0.396053675321356
40
0.396053675321356
40
0.412761276003729
40
0.412761276003729
40
0.421115076344915
40
0.421115076344915
40
0.429468876686102
40
0.429468876686102
40
0.437822677027288
40
0.437822677027288
40
0.446176477368474
40
0.446176477368474
40
0.462884078050847
40
0.462884078050847
40
0.496299279415594
40
0.496299279415594
40
0.513006880097967
40
0.513006880097967
40
0.529714480780341
40
0.529714480780341
40
0.538068281121528
40
0.538068281121528
40
0.546422081462716
40
0.546422081462716
40
0.56312968214509
40
0.56312968214509
40
0.579837282827465
40
0.579837282827465
40
0.588191083168652
40
0.588191083168652
40
0.596544883509839
40
0.596544883509839
40
0.613252484192215
40
0.613252484192215
40
0.62996008487459
40
0.62996008487459
40
0.646667685556966
40
0.646667685556966
40
0.663375286239341
40
0.663375286239341
40
0.680082886921717
40
0.680082886921717
40
0.696790487604092
40
0.696790487604092
40
0.705144287945279
40
0.705144287945279
40
0.713498088286467
40
0.713498088286467
40
0.73020568896884
40
0.73020568896884
40
0.746913289651214
40
0.746913289651214
40
0.763620890333588
40
0.763620890333588
40
0.780328491015962
40
0.780328491015962
40
0.788682291357148
40
0.788682291357148
40
0.797036091698335
40
0.797036091698335
40
0.805389892039522
40
0.805389892039522
40
0.813743692380709
40
0.813743692380709
40
0.830451293063083
40
0.830451293063083
40
0.863866494427831
40
0.863866494427831
40
0.880574095110206
40
0.880574095110206
40
0.888927895451393
40
0.888927895451393
40
0.89728169579258
40
0.89728169579258
40
0.930696897157326
40
0.930696897157326
40
0.9474044978397
40
0.9474044978397
40
0.964112098522073
40
0.964112098522073
40
0.980819699204447
40
0.980819699204447
40
0.997527299886821
40
0.997527299886821
40
1
40
1
40
1
40
1
41
1
10
7.39978985779896
20
1.80062361306997
30
0
41
1
10
7.57232393314129
20
1.86866008299651
30
0
41
1
10
7.74480280711921
20
1.93160241387827
30
0
41
1
10
8.11842776176985
20
2.05940613850274
30
0
41
1
10
8.31930226600355
20
2.1227292971077
30
0
41
1
10
8.61932423756761
20
2.2090487841152
30
0
41
1
10
8.71919049122988
20
2.23628734673201
30
0
41
1
10
8.91941072949317
20
2.28707176636243
30
0
41
1
10
9.01971109391766
20
2.31068165766581
30
0
41
1
10
9.22042078422962
20
2.35462287230752
30
0
41
1
10
9.32081744600563
20
2.37496092675897
30
0
41
1
10
9.52156885370772
20
2.41241558234623
30
0
41
1
10
9.62195018459533
20
2.42951380177752
30
0
41
1
10
9.82270128649364
20
2.4603720628206
30
0
41
1
10
9.92299815744002
20
2.47415410092469
30
0
41
1
10
10.1242406748375
20
2.49799526286529
30
0
41
1
10
10.225267092832
20
2.5080394418203
30
0
41
1
10
10.3773222440314
20
2.52037808766866
30
0
41
1
10
10.4280874657553
20
2.524037399782
30
0
41
1
10
10.5297480182551
20
2.53045428667622
30
0
41
1
10
10.5806235295126
20
2.53320985412341
30
0
41
1
10
10.7328761367049
20
2.54009912952057
30
0
41
1
10
10.8340596402199
20
2.54286507929862
30
0
41
1
10
10.9853785672478
20
2.54425847966658
30
0
41
1
10
11.0357414576806
20
2.54426369927123
30
0
41
1
10
11.1362939841756
20
2.54334765856956
30
0
41
1
10
11.1864821174225
20
2.5424249859455
30
0
41
1
10
11.2867946298483
20
2.53965480653414
30
0
41
1
10
11.3369198794692
20
2.53780755092754
30
0
41
1
10
11.4372070871767
20
2.53321500779302
30
0
41
1
10
11.4873777780732
20
2.5304723164156
30
0
41
1
10
11.6379361638153
20
2.52092928820997
30
0
41
1
10
11.7383577610797
20
2.51281663289851
30
0
41
1
10
11.9390528341917
20
2.49307998881764
30
0
41
1
10
12.0393068364178
20
2.48144485685813
30
0
41
1
10
12.2396154460173
20
2.45459022377989
30
0
41
1
10
12.3396831892369
20
2.43937774161401
30
0
41
1
10
12.539581520744
20
2.40525448382496
30
0
41
1
10
12.6394638746745
20
2.38635527689678
30
0
41
1
10
12.8399263154009
20
2.34543313931394
30
0
41
1
10
12.9404818544661
20
2.32341544568314
30
0
41
1
10
13.1419587425055
20
2.27612279454948
30
0
41
1
10
13.2428716241108
20
2.25083866192756
30
0
41
1
10
13.4448960591129
20
2.19680016626569
30
0
41
1
10
13.5460336812563
20
2.1680672596969
30
0
41
1
10
13.6979284318166
20
2.12230150463341
30
0
41
1
10
13.7486251689002
20
2.10657329529531
30
0
41
1
10
13.8498446311903
20
2.07432589529321
30
0
41
1
10
13.9003723136402
20
2.05781799654125
30
0
41
1
10
14.0518706403652
20
2.00733457021292
30
0
41
1
10
14.1528324325475
20
1.97249158163743
30
0
41
1
10
14.354647725214
20
1.90049398671076
30
0
41
1
10
14.4554678020334
20
1.86330038438774
30
0
41
1
10
14.656690840568
20
1.78624100283898
30
0
41
1
10
14.7570997547211
20
1.74637963615999
30
0
41
1
10
14.907430094161
20
1.68460053026197
30
0
41
1
10
14.9574937947897
20
1.66367735631062
30
0
41
1
10
15.057509111721
20
1.62113794960859
30
0
41
1
10
15.1074529090604
20
1.59950994192292
30
0
41
1
10
15.2073161401715
20
1.55568045291554
30
0
41
1
10
15.2572383849346
20
1.53348306140197
30
0
41
1
10
15.3571651653987
20
1.48867610218167
30
0
41
1
10
15.4071793428994
20
1.46608143306472
30
0
41
1
10
15.5573762953199
20
1.39774290458442
30
0
41
1
10
15.657685964063
20
1.35140651016374
30
0
41
1
10
15.9587687366432
20
1.20951308080493
30
0
41
1
10
16.1596131374383
20
1.11094838822908
30
0
41
1
10
16.4609261872804
20
0.956588700300898
30
0
41
1
10
16.5613822650373
20
0.904052892346243
30
0
41
1
10
16.7631744240727
20
0.798301394465284
30
0
41
1
10
16.8645194408881
20
0.745116121005452
30
0
41
1
10
17.0169990988
20
0.664507954493104
30
0
41
1
10
17.0678432843044
20
0.637533106555424
30
0
41
1
10
17.1693257121739
20
0.583426948604085
30
0
41
1
10
17.2199933249809
20
0.556273834835508
30
0
41
1
10
17.3717676879118
20
0.474499913072663
30
0
41
1
10
17.4726553609107
20
0.419582125178465
30
0
41
1
10
17.6738398178753
20
0.308944705090909
30
0
41
1
10
17.7740464488662
20
0.253057382175854
30
0
41
1
10
17.9242871232803
20
0.169325545636497
30
0
41
1
10
17.9743650660728
20
0.141448521533164
30
0
41
1
10
18.0745968492356
20
0.0859097271137728
30
0
41
1
10
18.1247413596968
20
0.0582305270597487
30
0
41
1
10
18.275203259398
20
-0.0246451708247264
30
0
41
1
10
18.3755516513456
20
-0.0796752734780739
30
0
41
1
10
18.5760822881167
20
-0.189753520939178
30
0
41
1
10
18.6762606366566
20
-0.244808403247305
30
0
41
1
10
18.8764709841444
20
-0.35489408555614
30
0
41
1
10
18.9764722771708
20
-0.409981023219842
30
0
41
1
10
19.1763969780306
20
-0.51999737368476
30
0
41
1
10
19.2764305056529
20
-0.574725130446012
30
0
41
1
10
19.4772725201445
20
-0.682475132972712
30
0
41
1
10
19.5779972864052
20
-0.73565069837241
30
0
41
1
10
19.7797950812545
20
-0.841074460477273
30
0
41
1
10
19.8808498191477
20
-0.893355332172206
30
0
41
1
10
20.0326222562384
20
-0.971202644566858
30
0
41
1
10
20.0832481220131
20
-0.997050044572404
30
0
41
1
10
20.1845752311151
20
-1.04853065374437
30
0
41
1
10
20.2353197555876
20
-1.0741868242298
30
0
41
1
10
20.3871780849337
20
-1.15064732288104
30
0
41
1
10
20.4879802048611
20
-1.2009697680453
30
0
41
1
10
20.6895746218194
20
-1.29888175207813
30
0
41
1
10
20.7904011965238
20
-1.34643167841969
30
0
41
1
10
20.9918632513221
20
-1.43923445100765
30
0
41
1
10
21.0924917782234
20
-1.48449709218548
30
0
41
1
10
21.2933442320929
20
-1.57305983180606
30
0
41
1
10
21.3935900313814
20
-1.6163242762438
30
0
41
1
10
21.5436972609562
20
-1.67965525364397
30
0
41
1
10
21.5936834378008
20
-1.70051280445358
30
0
41
1
10
21.693558802896
20
-1.74171065200321
30
0
41
1
10
21.7434574572031
20
-1.76203729981745
30
0
41
1
10
21.8432890984744
20
-1.80199469606958
30
0
41
1
10
21.893221533434
20
-1.8216262930155
30
0
41
1
10
21.9932152929216
20
-1.86008149517431
30
0
41
1
10
22.0432728095539
20
-1.87891090604168
30
0
41
1
10
22.1935681254113
20
-1.93429449777759
30
0
41
1
10
22.2939286812693
20
-1.96974741675766
30
0
41
1
10
22.595132002667
20
-2.07215036189976
30
0
41
1
10
22.7960473064396
20
-2.13520246692477
30
0
41
1
10
23.0976902739872
20
-2.22138685170665
30
0
41
1
10
23.1983852442942
20
-2.24860156050258
30
0
41
1
10
23.3501900515653
20
-2.28667317068326
30
0
41
1
10
23.4009012637622
20
-2.29892343670039
30
0
41
1
10
23.5025048329028
20
-2.32258105077338
30
0
41
1
10
23.5533135444689
20
-2.33396774433058
30
0
41
1
10
23.8069634795659
20
-2.38869720033262
30
0
41
1
10
24.0088639555694
20
-2.4256371900255
30
0
41
1
10
24.3099863776453
20
-2.47077779993629
30
0
41
1
10
24.410026126863
20
-2.48411022029342
30
0
41
1
10
24.6102866721556
20
-2.50699214266393
30
0
41
1
10
24.7105649665212
20
-2.51654165347384
30
0
41
1
10
24.9112089504978
20
-2.53205255729674
30
0
41
1
10
25.0115623993396
20
-2.53801717943156
30
0
41
1
10
25.2121082093285
20
-2.54640399195114
30
0
41
1
10
25.3123181740391
20
-2.5488188643364
30
0
41
1
10
25.4273015925867
20
-2.54950578067093
30
0
41
1
10
25.4421238114856
20
-2.54955454583529
30
0
41
1
10
25.4569445306673
20
-2.54956331614469
30
0
0
SPLINE
5
C3
100
AcDbEntity
8
1
62
256
6
ByLayer
370
18
48
1
60
0
100
AcDbSpline
70
4
71
5
72
103
73
97
40
0
40
0
40
0
40
0
40
0
40
0
40
0.0170866315453535
40
0.0440715322559372
40
0.0710845628873488
40
0.0980955529659524
40
0.124161766872795
40
0.146260514667273
40
0.169859393540632
40
0.197022080433136
40
0.224575899721284
40
0.252181568673308
40
0.279833043061664
40
0.307529767946817
40
0.335269837259093
40
0.363050573434899
40
0.390820602050789
40
0.416947734144665
40
0.433343028439369
40
0.441111105502852
40
0.447306296071045
40
0.453098860713526
40
0.458504533482446
40
0.46350861598063
40
0.46812474750122
40
0.472355980837435
40
0.472963947055068
40
0.474725924493046
40
0.475570278595368
40
0.476215178972731
40
0.476414632697689
40
0.47722506442996
40
0.478035496162231
40
0.479740562988072
40
0.482593803564773
40
0.483035441524363
40
0.483312880755388
40
0.484031957946003
40
0.484705055877747
40
0.485378153809491
40
0.485983394909514
40
0.486007223299278
40
0.486588636009536
40
0.487735578471737
40
0.488643901459541
40
0.491785226341175
40
0.495117312822974
40
0.498318688631272
40
0.501609114870672
40
0.50493436267225
40
0.505238912391936
40
0.506709390815947
40
0.507533687166083
40
0.50794583534115
40
0.508357983516218
40
0.508380817910766
40
0.509082975543107
40
0.509807967569995
40
0.511257951623771
40
0.513188572290163
40
0.514153882623359
40
0.515119192956555
40
0.516084503289751
40
0.517049813622947
40
0.518015123956143
40
0.518980434289338
40
0.523247354295112
40
0.523818816795886
40
0.528657199302433
40
0.538333964315528
40
0.57457658481781
40
0.595410174015866
40
0.622683236238774
40
0.687203429073017
40
0.722562671768278
40
0.739205010147719
40
0.755058762724731
40
0.770876099112955
40
0.78665696882357
40
0.802399051692471
40
0.818098820803619
40
0.833754275689034
40
0.849363730184821
40
0.864924808777165
40
0.880435112665969
40
0.895889959668436
40
0.911288235229886
40
0.926577958433181
40
0.941205894958811
40
0.955082284280437
40
0.969577535157701
40
0.984271294783321
40
0.998943498374904
40
1
40
1
40
1
40
1
40
1
40
1
41
1
10
7.31023162950038
20
-1.83466571429091
30
0
41
1
10
7.31023162950038
20
-1.82325927711122
30
0
41
1
10
7.31023162950038
20
-1.7938971938087
30
0
41
1
10
7.31023162950041
20
-1.74678096563306
30
0
41
1
10
7.31023162950038
20
-1.68229876851873
30
0
41
1
10
7.31023162950038
20
-1.60164157345733
30
0
41
1
10
7.31023162950038
20
-1.51877006523733
30
0
41
1
10
7.31023162950041
20
-1.43911231709586
30
0
41
1
10
7.31023162950038
20
-1.36023810440705
30
0
41
1
10
7.31023162950041
20
-1.28216647387026
30
0
41
1
10
7.31023162950035
20
-1.20442567938585
30
0
41
1
10
7.31023162950046
20
-1.12462478359222
30
0
41
1
10
7.31023162950032
20
-1.04382476060022
30
0
41
1
10
7.31023162950044
20
-0.964103851034537
30
0
41
1
10
7.31023162950038
20
-0.885687926784215
30
0
41
1
10
7.31023162950038
20
-0.808596436866765
30
0
41
1
10
7.31023162950035
20
-0.733759243003817
30
0
41
1
10
7.31023162950044
20
-0.666350505091117
30
0
41
1
10
7.31023162950038
20
-0.610594674242975
30
0
41
1
10
7.31023162950038
20
-0.566807327222563
30
0
41
1
10
7.31023162950038
20
-0.534762680681695
30
0
41
1
10
7.31023162950038
20
-0.513526964179391
30
0
41
1
10
7.31023162950041
20
-0.498188417412564
30
0
41
1
10
7.31023162950038
20
-0.484517197269526
30
0
41
1
10
7.31023162950038
20
-0.471892702651644
30
0
41
1
10
7.31023162950038
20
-0.461902073555365
30
0
41
1
10
7.31023162950038
20
-0.453731862062909
30
0
41
1
10
7.31023162950038
20
-0.44764447732797
30
0
41
1
10
7.31023162950038
20
-0.44356020174169
30
0
41
1
10
7.31023162950038
20
-0.44151249475172
30
0
41
1
10
7.31023162950038
20
-0.439366977209602
30
0
41
1
10
7.31023162950041
20
-0.437704308457995
30
0
41
1
10
7.31023162950041
20
-0.435615586865197
30
0
41
1
10
7.31023162950044
20
-0.432440357457153
30
0
41
1
10
7.31023162950046
20
-0.429208578606193
30
0
41
1
10
7.31023162950049
20
-0.426346366406562
30
0
41
1
10
7.31023162950049
20
-0.423675958783633
30
0
41
1
10
7.31023162950052
20
-0.421587681453133
30
0
41
1
10
7.31023162950052
20
-0.420452519515209
30
0
41
1
10
7.31023162950052
20
-0.419295770050013
30
0
41
1
10
7.31023162950052
20
-0.418288431398992
30
0
41
1
10
7.31023162950052
20
-0.417369080406388
30
0
41
1
10
7.31023162950049
20
-0.416321479120001
30
0
41
1
10
7.31023162950049
20
-0.415250206865721
30
0
41
1
10
7.31023162950049
20
-0.413464993739581
30
0
41
1
10
7.31023162950044
20
-0.41107108949177
30
0
41
1
10
7.31023162950041
20
-0.408782071090229
30
0
41
1
10
7.31023162950038
20
-0.407245284795294
30
0
41
1
10
7.31023162950038
20
-0.40711458873821
30
0
41
1
10
7.31023162950038
20
-0.408403982655074
30
0
41
1
10
7.31023162950038
20
-0.410440773760939
30
0
41
1
10
7.31023162950038
20
-0.41266499124518
30
0
41
1
10
7.31023162950038
20
-0.414482564160267
30
0
41
1
10
7.31023162950038
20
-0.415542335173115
30
0
41
1
10
7.31023162950038
20
-0.416586193414645
30
0
41
1
10
7.31023162950038
20
-0.41740263814296
30
0
41
1
10
7.31023162950038
20
-0.418209164226653
30
0
41
1
10
7.31023162950038
20
-0.419424745654311
30
0
41
1
10
7.31023162950035
20
-0.421286650548183
30
0
41
1
10
7.31023162950035
20
-0.42366508896481
30
0
41
1
10
7.31023162950035
20
-0.426282125396028
30
0
41
1
10
7.31023162950038
20
-0.429098487526573
30
0
41
1
10
7.31023162950038
20
-0.431744970768961
30
0
41
1
10
7.31023162950038
20
-0.433968797479594
30
0
41
1
10
7.31023162950038
20
-0.436201620654629
30
0
41
1
10
7.31023162950038
20
-0.439966291706696
30
0
41
1
10
7.31023162950038
20
-0.443547069992064
30
0
41
1
10
7.31023162950038
20
-0.44890885250274
30
0
41
1
10
7.31023162950038
20
-0.45826381453918
30
0
41
1
10
7.31023162950038
20
-0.483715263244505
30
0
41
1
10
7.31023162950038
20
-0.516727832555716
30
0
41
1
10
7.31023162950044
20
-0.561812015021815
30
0
41
1
10
7.31023162950038
20
-0.635268028279427
30
0
41
1
10
7.31023162950041
20
-0.718439488008556
30
0
41
1
10
7.31023162950035
20
-0.79535419799447
30
0
41
1
10
7.31023162950044
20
-0.867456553411046
30
0
41
1
10
7.31023162950032
20
-0.936463868414052
30
0
41
1
10
7.31023162950041
20
-0.985834149653243
30
0
41
1
10
7.31023162950038
20
-1.02640675781683
30
0
41
1
10
7.31023162950041
20
-1.06806827115065
30
0
41
1
10
7.31023162950038
20
-1.11077681627466
30
0
41
1
10
7.31023162950038
20
-1.15477960414415
30
0
41
1
10
7.31023162950041
20
-1.19991664187219
30
0
41
1
10
7.31023162950038
20
-1.24627459287768
30
0
41
1
10
7.31023162950038
20
-1.29379427195653
30
0
41
1
10
7.31023162950041
20
-1.34250637212347
30
0
41
1
10
7.31023162950041
20
-1.39235876359663
30
0
41
1
10
7.31023162950035
20
-1.44296264095868
30
0
41
1
10
7.31023162950035
20
-1.49380692659994
30
0
41
1
10
7.31023162950041
20
-1.54530698553128
30
0
41
1
10
7.31023162950038
20
-1.59766696041072
30
0
41
1
10
7.31023162950038
20
-1.65037222094094
30
0
41
1
10
7.31023162950038
20
-1.69387884838284
30
0
41
1
10
7.31023162950035
20
-1.7275243628724
30
0
41
1
10
7.31023162950041
20
-1.75050002970065
30
0
41
1
10
7.31023162950041
20
-1.76242895327158
30
0
41
1
10
7.31023162950041
20
-1.76323044937786
30
0
0
SPLINE
5
C4
100
AcDbEntity
8
1
62
256
6
ByLayer
370
18
48
1
60
0
100
AcDbSpline
70
4
71
3
72
121
73
117
40
0
40
0
40
0
40
0
40
0.062500000000002
40
0.062500000000002
40
0.125000000000004
40
0.125000000000004
40
0.187500000000006
40
0.187500000000006
40
0.250000000000008
40
0.250000000000008
40
0.265625000000008
40
0.265625000000008
40
0.281250000000009
40
0.281250000000009
40
0.31250000000001
40
0.31250000000001
40
0.343750000000011
40
0.343750000000011
40
0.375000000000012
40
0.375000000000012
40
0.390625000000012
40
0.390625000000012
40
0.406250000000013
40
0.406250000000013
40
0.421875000000013
40
0.421875000000013
40
0.429687500000013
40
0.429687500000013
40
0.437500000000013
40
0.437500000000013
40
0.453125000000011
40
0.453125000000011
40
0.468750000000009
40
0.468750000000009
40
0.484375000000007
40
0.484375000000007
40
0.488281250000007
40
0.488281250000007
40
0.492187500000006
40
0.492187500000006
40
0.500000000000005
40
0.507812500000005
40
0.507812500000005
40
0.511718750000005
40
0.511718750000005
40
0.515625000000005
40
0.515625000000005
40
0.531250000000004
40
0.531250000000004
40
0.539062500000003
40
0.539062500000003
40
0.542968750000003
40
0.542968750000003
40
0.546875000000003
40
0.546875000000003
40
0.562500000000004
40
0.562500000000004
40
0.578125000000004
40
0.578125000000004
40
0.593750000000005
40
0.593750000000005
40
0.601562500000005
40
0.601562500000005
40
0.609375000000005
40
0.609375000000005
40
0.625000000000006
40
0.625000000000006
40
0.640625000000007
40
0.640625000000007
40
0.648437500000007
40
0.648437500000007
40
0.656250000000007
40
0.656250000000007
40
0.660156250000007
40
0.660156250000007
40
0.662109375000007
40
0.662109375000007
40
0.664062500000006
40
0.664062500000006
40
0.666015625000006
40
0.666015625000006
40
0.667968750000006
40
0.667968750000006
40
0.671875000000005
40
0.671875000000005
40
0.675781250000005
40
0.675781250000005
40
0.679687500000004
40
0.679687500000004
40
0.683593750000004
40
0.683593750000004
40
0.687500000000003
40
0.687500000000003
40
0.703125000000003
40
0.703125000000003
40
0.718750000000002
40
0.718750000000002
40
0.734375000000002
40
0.734375000000002
40
0.750000000000001
40
0.750000000000001
40
0.78125
40
0.78125
40
0.796874999999999
40
0.796874999999999
40
0.812499999999999
40
0.812499999999999
40
0.828124999999998
40
0.828124999999998
40
0.843749999999998
40
0.843749999999998
40
0.874999999999998
40
0.874999999999998
40
0.937499999999999
40
0.937499999999999
40
1
40
1
40
1
40
1
41
1
10
7.31023162950061
20
-1.83466571429855
30
0
41
1
10
7.06452073975819
20
-1.91183603114806
30
0
41
1
10
6.82061772003476
20
-1.9848397676358
30
0
41
1
10
6.33588223958068
20
-2.12050440537664
30
0
41
1
10
6.0950477407452
20
-2.1831736730208
30
0
41
1
10
5.616005931187
20
-2.29608583133086
30
0
41
1
10
5.37779572813838
20
-2.34634486686514
30
0
41
1
10
4.90373277913807
20
-2.43192033452365
30
0
41
1
10
4.6678739739516
20
-2.46727344123028
30
0
41
1
10
4.37453972976166
20
-2.49982893493268
30
0
41
1
10
4.3160591674725
20
-2.50574051479123
30
0
41
1
10
4.19965004060649
20
-2.51628449459957
30
0
41
1
10
4.14169585964987
20
-2.52091984293611
30
0
41
1
10
3.96862006127554
20
-2.53280723800128
30
0
41
1
10
3.85428063556492
20
-2.53804955606296
30
0
41
1
10
3.62797086688622
20
-2.5424153949709
30
0
41
1
10
3.51599718191858
20
-2.54154593843884
30
0
41
1
10
3.2948787409297
20
-2.5325778262781
30
0
41
1
10
3.18572654482881
20
-2.52449458203645
30
0
41
1
10
3.0247140127023
20
-2.50560870287541
30
0
41
1
10
2.97168029347552
20
-2.49819861339563
30
0
41
1
10
2.86727070187484
20
-2.480909349321
30
0
41
1
10
2.81586281120127
20
-2.47102776432561
30
0
41
1
10
2.71489882153122
20
-2.4484395155215
30
0
41
1
10
2.66534114720571
20
-2.43573490557881
30
0
41
1
10
2.59266315382581
20
-2.41419635146878
30
0
41
1
10
2.56871452129289
20
-2.40660199268766
30
0
41
1
10
2.5214319896281
20
-2.39050348331946
30
0
41
1
10
2.49810346452907
20
-2.38199852107962
30
0
41
1
10
2.42962613182917
20
-2.35517765236395
30
0
41
1
10
2.38581724187651
20
-2.33551158317411
30
0
41
1
10
2.30263983411078
20
-2.29196831827468
30
0
41
1
10
2.26326431029608
20
-2.26809696159154
30
0
41
1
10
2.19007697139264
20
-2.21519536945311
30
0
41
1
10
2.15624952121311
20
-2.18617802166278
30
0
41
1
10
2.11857460940905
20
-2.14573167665023
30
0
41
1
10
2.11127258130247
20
-2.13743161411196
30
0
41
1
10
2.097175002217
20
-2.12037597311948
30
0
41
1
10
2.09038988490073
20
-2.11162954949745
30
0
41
1
10
2.07105307913969
20
-2.08493939097943
30
0
41
1
10
2.04784590538671
20
-2.04798844188085
30
0
41
1
10
2.03027780035797
20
-2.00809434647553
30
0
41
1
10
2.01944365097455
20
-1.97696994723304
30
0
41
1
10
2.01622308784937
20
-1.96639428927068
30
0
41
1
10
2.01060827237077
20
-1.94482153945324
30
0
41
1
10
2.0082085668823
20
-1.93378792098457
30
0
41
1
10
1.99848430576844
20
-1.87804401384383
30
0
41
1
10
1.9979218636567
20
-1.83168074369951
30
0
41
1
10
2.00809910467757
20
-1.75958211293445
30
0
41
1
10
2.01333035919282
20
-1.73512308767206
30
0
41
1
10
2.02398070099869
20
-1.69780327263695
30
0
41
1
10
2.0279859642126
20
-1.68530894635597
30
0
41
1
10
2.03680958983398
20
-1.66041522636863
30
0
41
1
10
2.0416364077752
20
-1.64798542607448
30
0
41
1
10
2.06775360305218
20
-1.58592416922227
30
0
41
1
10
2.0949657886938
20
-1.53655651127036
30
0
41
1
10
2.16016901146506
20
-1.43843620610096
30
0
41
1
10
2.1972688126321
20
-1.39098538004691
30
0
41
1
10
2.27819983887056
20
-1.2987539125902
30
0
41
1
10
2.32206741847887
20
-1.25395137200263
30
0
41
1
10
2.3919579421227
20
-1.18837866612614
30
0
41
1
10
2.41599104026327
20
-1.16675195573066
30
0
41
1
10
2.46501171722991
20
-1.12425329977131
30
0
41
1
10
2.4899945513354
20
-1.10338086353829
30
0
41
1
10
2.56620071863938
20
-1.041775179393
30
0
41
1
10
2.61867470329543
20
-1.00204831702607
30
0
41
1
10
2.72633498237269
20
-0.924813684838938
30
0
41
1
10
2.78157537890729
20
-0.887276232876758
30
0
41
1
10
2.86596670092345
20
-0.83250706727361
30
0
41
1
10
2.89433373374348
20
-0.814516674472316
30
0
41
1
10
2.9515126502707
20
-0.779042375935433
30
0
41
1
10
2.98036022142102
20
-0.761604335270249
30
0
41
1
10
3.02377668295958
20
-0.735583909283804
30
0
41
1
10
3.03822146890397
20
-0.726847690159616
30
0
41
1
10
3.06007972499754
20
-0.714063825221359
30
0
41
1
10
3.06741511171484
20
-0.709887022146035
30
0
41
1
10
3.08248052837493
20
-0.702232682670768
30
0
41
1
10
3.09022253904749
20
-0.698776654645172
30
0
41
1
10
3.10622495197933
20
-0.692788334298314
30
0
41
1
10
3.11452704750326
20
-0.690220871868064
30
0
41
1
10
3.13127742017537
20
-0.685922314272744
30
0
41
1
10
3.13969667672421
20
-0.684188993754503
30
0
41
1
10
3.16506292465948
20
-0.680014516177664
30
0
41
1
10
3.18211626008011
20
-0.678578815277405
30
0
41
1
10
3.21646419508971
20
-0.677991900770138
30
0
41
1
10
3.23387054948694
20
-0.678887870464195
30
0
41
1
10
3.26804561450325
20
-0.682882883872111
30
0
41
1
10
3.28487360189712
20
-0.686037989827298
30
0
41
1
10
3.31835334096644
20
-0.693129067387417
30
0
41
1
10
3.33503359537548
20
-0.696937994352396
30
0
41
1
10
3.36843135916354
20
-0.704384643509684
30
0
41
1
10
3.38513409175479
20
-0.708088317723906
30
0
41
1
10
3.46866658810848
20
-0.72651064825294
30
0
41
1
10
3.53551481046207
20
-0.741110624094688
30
0
41
1
10
3.66918495992672
20
-0.770349177663519
30
0
41
1
10
3.73600341842752
20
-0.784999311396177
30
0
41
1
10
3.86958800766519
20
-0.814387229042154
30
0
41
1
10
3.93637257886024
20
-0.829058078383042
30
0
41
1
10
4.06998616969463
20
-0.858119773467621
30
0
41
1
10
4.13680228664012
20
-0.872561796326607
30
0
41
1
10
4.33715991421801
20
-0.916082079456686
30
0
41
1
10
4.470616706671
20
-0.94532693673932
30
0
41
1
10
4.67085203462133
20
-0.988672380570904
30
0
41
1
10
4.73760631044919
20
-1.00303197236573
30
0
41
1
10
4.87103161215794
20
-1.03195801554583
30
0
41
1
10
4.93770150563165
20
-1.04652956603337
30
0
41
1
10
5.07070236717522
20
-1.07682990453745
30
0
41
1
10
5.13700957895568
20
-1.09264657244481
30
0
41
1
10
5.26933279581365
20
-1.1252221989852
30
0
41
1
10
5.3353797766697
20
-1.1419937940976
30
0
41
1
10
5.53277197129819
20
-1.19383759909911
30
0
41
1
10
5.66337201045533
20
-1.23019244479235
30
0
41
1
10
6.05233905482567
20
-1.34367555999191
30
0
41
1
10
6.30785952261749
20
-1.42523682013146
30
0
41
1
10
6.81295017590168
20
-1.59327714921937
30
0
41
1
10
7.06252089928012
20
-1.6797358472798
30
0
41
1
10
7.31023162950063
20
-1.76484600737552
30
0
0
LINE
5
7D
100
AcDbEntity
8
80
62
256
6
ByLayer
370
18
48
1
60
0
100
AcDbLine
10
0
20
0
30
0
11
-5
21
0
31
0
39
0
210
0
220
0
230
1
0
LINE
5
7E
100
AcDbEntity
8
4
62
256
6
ByLayer
370
18
48
0.05
60
0
100
AcDbLine
10
-5
20
0
30
0
11
33
21
0
31
0
39
0
210
0
220
0
230
1
0
LINE
5
80
100
AcDbEntity
8
81
62
256
6
ByLayer
370
18
48
1
60
0
100
AcDbLine
10
28
20
0
30
0
11
33
21
0
31
0
39
0
210
0
220
0
230
1
0
LINE
5
81
100
AcDbEntity
8
SK4
62
256
6
ByLayer
370
18
48
0.05
60
0
100
AcDbLine
10
-39
20
0
30
0
11
33
21
0
31
0
39
0
210
0
220
0
230
1
0
LINE
5
83
100
AcDbEntity
8
1
62
256
6
ByLayer
370
18
48
1
60
0
100
AcDbLine
10
0
20
2.55
30
0
11
0
21
-2.55
31
0
39
0
210
0
220
0
230
1
0
LINE
5
84
100
AcDbEntity
8
1
62
256
6
ByLayer
370
18
48
1
60
0
100
AcDbLine
10
26.621025
20
-2.55
30
0
11
26.621025
21
-0.630297
31
0
39
0
210
0
220
0
230
1
0
LINE
5
85
100
AcDbEntity
8
1
62
256
6
ByLayer
370
18
48
1
60
0
100
AcDbLine
10
26.621025
20
2.55
30
0
11
26.621025
21
2.469037
31
0
39
0
210
0
220
0
230
1
0
LINE
5
86
100
AcDbEntity
8
1
62
256
6
ByLayer
370
18
48
1
60
0
100
AcDbLine
10
0.2
20
-2.540092
30
0
11
0.2
21
2.540092
31
0
39
0
210
0
220
0
230
1
0
LINE
5
87
100
AcDbEntity
8
SK1
62
256
6
ByLayer
370
18
48
1
60
0
100
AcDbLine
10
-34
20
-2.05
30
0
11
-34
21
2.05
31
0
39
0
210
0
220
0
230
1
0
LINE
5
89
100
AcDbEntity
8
SK1
62
256
6
ByLayer
370
18
48
1
60
0
100
AcDbLine
10
-33.5
20
-2.55
30
0
11
-33.5
21
2.55
31
0
39
0
210
0
220
0
230
1
0
LINE
5
8A
100
AcDbEntity
8
SK1
62
256
6
ByLayer
370
18
48
1
60
0
100
AcDbLine
10
0
20
2.55
30
0
11
0
21
-2.55
31
0
39
0
210
0
220
0
230
1
0
LINE
5
8B
100
AcDbEntity
8
1
62
256
6
ByLayer
370
18
48
1
60
0
100
AcDbLine
10
0.2
20
2.540092
30
0
11
0
21
2.55
31
0
39
0
210
0
220
0
230
1
0
LINE
5
8C
100
AcDbEntity
8
1
62
256
6
ByLayer
370
18
48
1
60
0
100
AcDbLine
10
0
20
-2.55
30
0
11
0.2
21
-2.540092
31
0
39
0
210
0
220
0
230
1
0
LINE
5
8D
100
AcDbEntity
8
1
62
256
6
ByLayer
370
18
48
1
60
0
100
AcDbLine
10
28
20
0
30
0
11
26.621025
21
2.55
31
0
39
0
210
0
220
0
230
1
0
LINE
5
8E
100
AcDbEntity
8
1
62
256
6
ByLayer
370
18
48
1
60
0
100
AcDbLine
10
26.621025
20
-2.55
30
0
11
28
21
0
31
0
39
0
210
0
220
0
230
1
0
LINE
5
8F
100
AcDbEntity
8
1
62
256
6
ByLayer
370
18
48
1
60
0
100
AcDbLine
10
0.2
20
-2.540092
30
0
11
3.629813
21
-2.541378
31
0
39
0
210
0
220
0
230
1
0
LINE
5
90
100
AcDbEntity
8
1
62
256
6
ByLayer
370
18
48
1
60
0
100
AcDbLine
10
11.005992
20
-2.544144
30
0
11
18.245093
21
-2.546859
31
0
39
0
210
0
220
0
230
1
0
LINE
5
91
100
AcDbEntity
8
1
62
256
6
ByLayer
370
18
48
1
60
0
100
AcDbLine
10
25.456517
20
-2.549563
30
0
11
26.621025
21
-2.55
31
0
39
0
210
0
220
0
230
1
0
LINE
5
92
100
AcDbEntity
8
1
62
256
6
ByLayer
370
18
48
1
60
0
100
AcDbLine
10
26.621025
20
2.55
30
0
11
25.456517
21
2.549563
31
0
39
0
210
0
220
0
230
1
0
LINE
5
93
100
AcDbEntity
8
1
62
256
6
ByLayer
370
18
48
1
60
0
100
AcDbLine
10
18.245093
20
2.546859
30
0
11
11.005992
21
2.544144
31
0
39
0
210
0
220
0
230
1
0
LINE
5
94
100
AcDbEntity
8
1
62
256
6
ByLayer
370
18
48
1
60
0
100
AcDbLine
10
3.629813
20
2.541378
30
0
11
0.2
21
2.540092
31
0
39
0
210
0
220
0
230
1
0
LINE
5
95
100
AcDbEntity
8
SK1
62
256
6
ByLayer
370
18
48
1
60
0
100
AcDbLine
10
-34
20
-2.05
30
0
11
-33.5
21
-2.55
31
0
39
0
210
0
220
0
230
1
0
LINE
5
96
100
AcDbEntity
8
SK1
62
256
6
ByLayer
370
18
48
1
60
0
100
AcDbLine
10
-33.5
20
2.55
30
0
11
-34
21
2.05
31
0
39
0
210
0
220
0
230
1
0
LINE
5
97
100
AcDbEntity
8
SK1
62
256
6
ByLayer
370
18
48
1
60
0
100
AcDbLine
10
-33.5
20
-2.55
30
0
11
0
21
-2.55
31
0
39
0
210
0
220
0
230
1
0
LINE
5
98
100
AcDbEntity
8
SK1
62
256
6
ByLayer
370
18
48
1
60
0
100
AcDbLine
10
0
20
2.55
30
0
11
-33.5
21
2.55
31
0
39
0
210
0
220
0
230
1
0
LINE
5
99
100
AcDbEntity
8
SK2
62
256
6
ByLayer
370
13
48
1
60
0
100
AcDbLine
10
-40.5
20
28.582855
30
0
11
-40.5
21
-10.05
31
0
39
0
210
0
220
0
230
1
0
LINE
5
9B
100
AcDbEntity
8
SK2
62
256
6
ByLayer
370
13
48
1
60
0
100
AcDbLine
10
-35.5875
20
2.55
30
0
11
-42.5
21
2.55
31
0
39
0
210
0
220
0
230
1
0
LINE
5
9C
100
AcDbEntity
8
SK2
62
256
6
ByLayer
370
13
48
1
60
0
100
AcDbLine
10
-35.5875
20
-2.55
30
0
11
-42.5
21
-2.55
31
0
39
0
210
0
220
0
230
1
0
LINE
5
9D
100
AcDbEntity
8
1
62
256
6
ByLayer
370
18
48
1
60
1
100
AcDbLine
10
-40.5
20
2.55
30
0
11
-40.960784
21
6.049998
31
0
39
0
210
0
220
0
230
1
0
LINE
5
9E
100
AcDbEntity
8
1
62
256
6
ByLayer
370
18
48
1
60
1
100
AcDbLine
10
-40.960784
20
6.049998
30
0
11
-40.039216
21
6.050002
31
0
39
0
210
0
220
0
230
1
0
LINE
5
9F
100
AcDbEntity
8
1
62
256
6
ByLayer
370
18
48
1
60
1
100
AcDbLine
10
-40.039216
20
6.050002
30
0
11
-40.5
21
2.55
31
0
39
0
210
0
220
0
230
1
0
LINE
5
A0
100
AcDbEntity
8
1
62
256
6
ByLayer
370
18
48
1
60
1
100
AcDbLine
10
-40.5
20
-2.55
30
0
11
-40.039216
21
-6.049998
31
0
39
0
210
0
220
0
230
1
0
LINE
5
A1
100
AcDbEntity
8
1
62
256
6
ByLayer
370
18
48
1
60
1
100
AcDbLine
10
-40.039216
20
-6.049998
30
0
11
-40.960784
21
-6.050002
31
0
39
0
210
0
220
0
230
1
0
LINE
5
A2
100
AcDbEntity
8
1
62
256
6
ByLayer
370
18
48
1
60
1
100
AcDbLine
10
-40.960784
20
-6.050002
30
0
11
-40.5
21
-2.55
31
0
39
0
210
0
220
0
230
1
0
LINE
5
A3
100
AcDbEntity
8
2
62
256
6
ByLayer
370
13
48
1
60
0
100
AcDbLine
10
36.121025
20
28.582855
30
0
11
36.121025
21
-10.05
31
0
39
0
210
0
220
0
230
1
0
LINE
5
A5
100
AcDbEntity
8
2
62
256
6
ByLayer
370
13
48
1
60
0
100
AcDbLine
10
28.208525
20
2.55
30
0
11
38.121025
21
2.55
31
0
39
0
210
0
220
0
230
1
0
LINE
5
A6
100
AcDbEntity
8
2
62
256
6
ByLayer
370
13
48
1
60
0
100
AcDbLine
10
28.208525
20
-2.55
30
0
11
38.121025
21
-2.55
31
0
39
0
210
0
220
0
230
1
0
LINE
5
A7
100
AcDbEntity
8
1
62
256
6
ByLayer
370
18
48
1
60
1
100
AcDbLine
10
36.121025
20
2.55
30
0
11
35.660241
21
6.049998
31
0
39
0
210
0
220
0
230
1
0
LINE
5
A8
100
AcDbEntity
8
1
62
256
6
ByLayer
370
18
48
1
60
1
100
AcDbLine
10
35.660241
20
6.049998
30
0
11
36.581809
21
6.050002
31
0
39
0
210
0
220
0
230
1
0
LINE
5
A9
100
AcDbEntity
8
1
62
256
6
ByLayer
370
18
48
1
60
1
100
AcDbLine
10
36.581809
20
6.050002
30
0
11
36.121025
21
2.55
31
0
39
0
210
0
220
0
230
1
0
LINE
5
AA
100
AcDbEntity
8
1
62
256
6
ByLayer
370
18
48
1
60
1
100
AcDbLine
10
36.121025
20
-2.55
30
0
11
36.581809
21
-6.049998
31
0
39
0
210
0
220
0
230
1
0
LINE
5
AB
100
AcDbEntity
8
1
62
256
6
ByLayer
370
18
48
1
60
1
100
AcDbLine
10
36.581809
20
-6.049998
30
0
11
35.660241
21
-6.050002
31
0
39
0
210
0
220
0
230
1
0
LINE
5
AC
100
AcDbEntity
8
1
62
256
6
ByLayer
370
18
48
1
60
1
100
AcDbLine
10
35.660241
20
-6.050002
30
0
11
36.121025
21
-2.55
31
0
39
0
210
0
220
0
230
1
0
LINE
5
AD
100
AcDbEntity
8
2
62
256
6
ByLayer
370
13
48
1
60
0
100
AcDbLine
10
28.755136
20
-1.396397
30
0
11
39.416232
21
-21.110889
31
0
39
0
210
0
220
0
230
1
0
LINE
5
AE
100
AcDbEntity
8
2
62
256
6
ByLayer
370
13
48
1
60
0
100
AcDbLine
10
28.755136
20
1.396397
30
0
11
39.416232
21
21.110889
31
0
39
0
210
0
220
0
230
1
0
LINE
5
AF
100
AcDbEntity
8
1
62
256
6
ByLayer
370
18
48
1
60
1
100
AcDbLine
10
38.464879
20
-19.351649
30
0
11
41.239971
21
-17.169637
31
0
39
0
210
0
220
0
230
1
0
LINE
5
B0
100
AcDbEntity
8
1
62
256
6
ByLayer
370
18
48
1
60
1
100
AcDbLine
10
41.239971
20
-17.169637
30
0
11
41.710161
21
-17.962233
31
0
39
0
210
0
220
0
230
1
0
LINE
5
B1
100
AcDbEntity
8
1
62
256
6
ByLayer
370
18
48
1
60
1
100
AcDbLine
10
41.710161
20
-17.962233
30
0
11
38.464879
21
-19.351649
31
0
39
0
210
0
220
0
230
1
0
LINE
5
B2
100
AcDbEntity
8
1
62
256
6
ByLayer
370
18
48
1
60
1
100
AcDbLine
10
38.464879
20
19.351649
30
0
11
41.710158
21
17.962234
31
0
39
0
210
0
220
0
230
1
0
LINE
5
B3
100
AcDbEntity
8
1
62
256
6
ByLayer
370
18
48
1
60
1
100
AcDbLine
10
41.710158
20
17.962234
30
0
11
41.239974
21
17.169635
31
0
39
0
210
0
220
0
230
1
0
LINE
5
B4
100
AcDbEntity
8
1
62
256
6
ByLayer
370
18
48
1
60
1
100
AcDbLine
10
41.239974
20
17.169635
30
0
11
38.464879
21
19.351649
31
0
39
0
210
0
220
0
230
1
0
LINE
5
C9
100
AcDbEntity
8
1
62
256
6
ByLayer
370
18
48
1
60
1
100
AcDbLine
10
-40.5
20
2.55
30
0
11
-40.960784
21
6.049998
31
0
39
0
210
0
220
0
230
1
0
LINE
5
CA
100
AcDbEntity
8
1
62
256
6
ByLayer
370
18
48
1
60
1
100
AcDbLine
10
-40.960784
20
6.049998
30
0
11
-40.039216
21
6.050002
31
0
39
0
210
0
220
0
230
1
0
LINE
5
CB
100
AcDbEntity
8
1
62
256
6
ByLayer
370
18
48
1
60
1
100
AcDbLine
10
-40.039216
20
6.050002
30
0
11
-40.5
21
2.55
31
0
39
0
210
0
220
0
230
1
0
LINE
5
CD
100
AcDbEntity
8
1
62
256
6
ByLayer
370
18
48
1
60
1
100
AcDbLine
10
-40.5
20
-2.55
30
0
11
-40.039216
21
-6.049998
31
0
39
0
210
0
220
0
230
1
0
LINE
5
CE
100
AcDbEntity
8
1
62
256
6
ByLayer
370
18
48
1
60
1
100
AcDbLine
10
-40.039216
20
-6.049998
30
0
11
-40.960784
21
-6.050002
31
0
39
0
210
0
220
0
230
1
0
LINE
5
CF
100
AcDbEntity
8
1
62
256
6
ByLayer
370
18
48
1
60
1
100
AcDbLine
10
-40.960784
20
-6.050002
30
0
11
-40.5
21
-2.55
31
0
39
0
210
0
220
0
230
1
0
LINE
5
D3
100
AcDbEntity
8
1
62
256
6
ByLayer
370
18
48
1
60
1
100
AcDbLine
10
36.121025
20
2.55
30
0
11
35.660241
21
6.049998
31
0
39
0
210
0
220
0
230
1
0
LINE
5
D4
100
AcDbEntity
8
1
62
256
6
ByLayer
370
18
48
1
60
1
100
AcDbLine
10
35.660241
20
6.049998
30
0
11
36.581809
21
6.050002
31
0
39
0
210
0
220
0
230
1
0
LINE
5
D5
100
AcDbEntity
8
1
62
256
6
ByLayer
370
18
48
1
60
1
100
AcDbLine
10
36.581809
20
6.050002
30
0
11
36.121025
21
2.55
31
0
39
0
210
0
220
0
230
1
0
LINE
5
D7
100
AcDbEntity
8
1
62
256
6
ByLayer
370
18
48
1
60
1
100
AcDbLine
10
36.121025
20
-2.55
30
0
11
36.581809
21
-6.049998
31
0
39
0
210
0
220
0
230
1
0
LINE
5
D8
100
AcDbEntity
8
1
62
256
6
ByLayer
370
18
48
1
60
1
100
AcDbLine
10
36.581809
20
-6.049998
30
0
11
35.660241
21
-6.050002
31
0
39
0
210
0
220
0
230
1
0
LINE
5
D9
100
AcDbEntity
8
1
62
256
6
ByLayer
370
18
48
1
60
1
100
AcDbLine
10
35.660241
20
-6.050002
30
0
11
36.121025
21
-2.55
31
0
39
0
210
0
220
0
230
1
0
LINE
5
DC
100
AcDbEntity
8
1
62
256
6
ByLayer
370
18
48
1
60
1
100
AcDbLine
10
38.464879
20
-19.351649
30
0
11
41.239971
21
-17.169637
31
0
39
0
210
0
220
0
230
1
0
LINE
5
DD
100
AcDbEntity
8
1
62
256
6
ByLayer
370
18
48
1
60
1
100
AcDbLine
10
41.239971
20
-17.169637
30
0
11
41.710161
21
-17.962233
31
0
39
0
210
0
220
0
230
1
0
LINE
5
DE
100
AcDbEntity
8
1
62
256
6
ByLayer
370
18
48
1
60
1
100
AcDbLine
10
41.710161
20
-17.962233
30
0
11
38.464879
21
-19.351649
31
0
39
0
210
0
220
0
230
1
0
LINE
5
E0
100
AcDbEntity
8
1
62
256
6
ByLayer
370
18
48
1
60
1
100
AcDbLine
10
38.464879
20
19.351649
30
0
11
41.710158
21
17.962234
31
0
39
0
210
0
220
0
230
1
0
LINE
5
E1
100
AcDbEntity
8
1
62
256
6
ByLayer
370
18
48
1
60
1
100
AcDbLine
10
41.710158
20
17.962234
30
0
11
41.239974
21
17.169635
31
0
39
0
210
0
220
0
230
1
0
LINE
5
E2
100
AcDbEntity
8
1
62
256
6
ByLayer
370
18
48
1
60
1
100
AcDbLine
10
41.239974
20
17.169635
30
0
11
38.464879
21
19.351649
31
0
39
0
210
0
220
0
230
1
0
MTEXT
5
C5
100
AcDbEntity
8
SK2
62
256
6
ByLayer
370
18
48
1
60
0
100
AcDbMText
10
-41.841114
20
14.208437
30
0
210
0
220
0
230
1
1
%%c
40
3
41
0
44
1.084337
50
90
71
7
72
5
7
iso_b_vert
0
MTEXT
5
C8
100
AcDbEntity
8
SK2
62
256
6
ByLayer
370
18
48
1
60
0
100
AcDbMText
10
-41.841114
20
20.185
30
0
210
0
220
0
230
1
1
\W0.6864;5.100
40
3
41
0
44
1.084337
50
90
71
7
72
5
7
iso_b_vert
0
MTEXT
5
D1
100
AcDbEntity
8
2
62
256
6
ByLayer
370
18
48
1
60
0
100
AcDbMText
10
34.77991
20
14.208437
30
0
210
0
220
0
230
1
1
%%c
40
3
41
0
44
1.084337
50
90
71
7
72
5
7
iso_b_vert
0
MTEXT
5
D2
100
AcDbEntity
8
2
62
256
6
ByLayer
370
18
48
1
60
0
100
AcDbMText
10
34.77991
20
20.185
30
0
210
0
220
0
230
1
1
\W0.6864;5.100
40
3
41
0
44
1.084337
50
90
71
7
72
5
7
iso_b_vert
0
MTEXT
5
DB
100
AcDbEntity
8
2
62
256
6
ByLayer
370
18
48
1
60
0
100
AcDbMText
10
47.092229
20
-2.114886
30
0
210
0
220
0
230
1
1
\W0.6008;118%%d
40
3
41
0
44
1.084337
50
0
71
7
72
5
7
iso_b_vert
0
MTEXT
5
E4
100
AcDbEntity
8
SK6
62
256
6
ByLayer
370
18
48
1
60
0
100
AcDbMText
10
-9.507199
20
-67.114886
30
0
210
0
220
0
230
1
1
\W0.7638;R0235.1
40
3
41
0
44
1.084337
50
0
71
7
72
5
7
iso_b_vert
0
HATCH
5
CC
100
AcDbEntity
8
SK2
62
256
6
ByLayer
370
13
48
1
60
0
100
AcDbHatch
10
0
20
0
30
0
210
0
220
0
230
1
2
ANSI31
70
0
71
0
91
1
92
5
93
3
72
1
10
-40.5
20
2.54999999999998
11
-40.9607837415528
21
6.0499983074468
72
1
10
-40.9607837415528
20
6.0499983074468
11
-40.0392162584472
21
6.05000169255317
72
1
10
-40.0392162584472
20
6.05000169255317
11
-40.5
21
2.54999999999998
97
0
75
0
76
1
52
0
41
0.0062
77
0
78
1
53
45
43
0
44
0
45
-0.0139193969876572
46
0.0139193969876572
79
0
47
0
98
1
10
0
20
0
0
HATCH
5
D0
100
AcDbEntity
8
SK2
62
256
6
ByLayer
370
13
48
1
60
0
100
AcDbHatch
10
0
20
0
30
0
210
0
220
0
230
1
2
ANSI31
70
0
71
0
91
1
92
5
93
3
72
1
10
-40.5
20
-2.55000000000001
11
-40.0392162584472
21
-6.04999830744683
72
1
10
-40.0392162584472
20
-6.04999830744683
11
-40.9607837415528
21
-6.0500016925532
72
1
10
-40.9607837415528
20
-6.0500016925532
11
-40.5
21
-2.55000000000001
97
0
75
0
76
1
52
0
41
0.0062
77
0
78
1
53
45
43
0
44
0
45
-0.0139193969876572
46
0.0139193969876572
79
0
47
0
98
1
10
0
20
0
0
HATCH
5
D6
100
AcDbEntity
8
2
62
256
6
ByLayer
370
13
48
1
60
0
100
AcDbHatch
10
0
20
0
30
0
210
0
220
0
230
1
2
ANSI31
70
0
71
0
91
1
92
5
93
3
72
1
10
36.1210248793317
20
2.54999999999998
11
35.660241137779
21
6.0499983074468
72
1
10
35.660241137779
20
6.0499983074468
11
36.5818086208845
21
6.05000169255317
72
1
10
36.5818086208845
20
6.05000169255317
11
36.1210248793317
21
2.54999999999998
97
0
75
0
76
1
52
0
41
0.0062
77
0
78
1
53
45
43
0
44
0
45
-0.0139193969876572
46
0.0139193969876572
79
0
47
0
98
1
10
0
20
0
0
HATCH
5
DA
100
AcDbEntity
8
2
62
256
6
ByLayer
370
13
48
1
60
0
100
AcDbHatch
10
0
20
0
30
0
210
0
220
0
230
1
2
ANSI31
70
0
71
0
91
1
92
5
93
3
72
1
10
36.1210248793317
20
-2.55000000000001
11
36.5818086208845
21
-6.04999830744683
72
1
10
36.5818086208845
20
-6.04999830744683
11
35.660241137779
21
-6.0500016925532
72
1
10
35.660241137779
20
-6.0500016925532
11
36.1210248793317
21
-2.55000000000001
97
0
75
0
76
1
52
0
41
0.0062
77
0
78
1
53
45
43
0
44
0
45
-0.0139193969876572
46
0.0139193969876572
79
0
47
0
98
1
10
0
20
0
0
HATCH
5
DF
100
AcDbEntity
8
2
62
256
6
ByLayer
370
13
48
1
60
0
100
AcDbHatch
10
0
20
0
30
0
210
0
220
0
230
1
2
ANSI31
70
0
71
0
91
1
92
5
93
3
72
1
10
38.464879198752
20
-19.3516485952884
11
41.2399711078382
21
-17.1696369764526
72
1
10
41.2399711078382
20
-17.1696369764526
11
41.7101613929251
21
-17.9622325364571
72
1
10
41.7101613929251
20
-17.9622325364571
11
38.464879198752
21
-19.3516485952884
97
0
75
0
76
1
52
0
41
0.0062
77
0
78
1
53
45
43
0
44
0
45
-0.0139193969876572
46
0.0139193969876572
79
0
47
0
98
1
10
0
20
0
0
HATCH
5
E3
100
AcDbEntity
8
2
62
256
6
ByLayer
370
13
48
1
60
0
100
AcDbHatch
10
0
20
0
30
0
210
0
220
0
230
1
2
ANSI31
70
0
71
0
91
1
92
5
93
3
72
1
10
38.464879198752
20
19.3516485952884
11
41.7101584815526
21
17.9622342635518
72
1
10
41.7101584815526
20
17.9622342635518
11
41.2399740192106
21
17.1696352493579
72
1
10
41.2399740192106
20
17.1696352493579
11
38.464879198752
21
19.3516485952884
97
0
75
0
76
1
52
0
41
0.0062
77
0
78
1
53
45
43
0
44
0
45
-0.0139193969876572
46
0.0139193969876572
79
0
47
0
98
1
10
0
20
0
0
DIMENSION
5
E7
100
AcDbEntity
8
SK2
62
256
6
ByLayer
370
18
48
1
60
0
100
AcDbDimension
2
_U0
10
28
20
-46.799026
30
0
11
-3
21
-46.799026
31
0
70
32
71
1
72
1
41
1
210
0
220
0
230
1
3
Standard
100
AcDbAlignedDimension
13
-34
23
-2.55
33
0
14
28
24
0
34
0
50
0
100
AcDbRotatedDimension
1001
ACAD
1000
DSTYLE
1002
{
1070
   371
1070
    13
1070
   372
1070
    13
1070
     3
1000

1070
   170
1070
     0
1070
   144
1040
1.0
1070
   277
1070
     2
1070
   284
1070
     8
1070
   278
1070
    46
1070
   146
1040
1.166667
1070
   345
1005
16
1070
   347
1005
16
1070
   346
1005
16
1070
   344
1005
0
1070
   343
1005
0
1070
   172
1070
     1
1070
    76
1070
     0
1070
    75
1070
     0
1070
   282
1070
     0
1070
   281
1070
     0
1070
    71
1070
     0
1070
    74
1070
     0
1070
   279
1070
     0
1070
   173
1070
     1
1070
   340
1005
C6
1070
   271
1070
     2
1070
   272
1070
     3
1070
    77
1070
     1
1070
    73
1070
     1
1070
   171
1070
     3
1070
   274
1070
     4
1070
   177
1070
     2
1070
   176
1070
     2
1070
   178
1070
     2
1070
    78
1070
     8
1070
    48
1040
-0.1
1070
    41
1040
3.5
1070
   147
1040
1.5
1070
    42
1040
1.5875
1070
    44
1040
2.0
1070
   140
1040
3.0
1002
}
1001
ACAD_DSTYLE_DIM_LINETYPE
1070
   380
1005
16
1001
ACAD_DSTYLE_DIM_EXT1_LINETYPE
1070
   381
1005
16
1001
ACAD_DSTYLE_DIM_EXT2_LINETYPE
1070
   382
1005
16
0
DIMENSION
5
100
100
AcDbEntity
8
2
62
256
6
ByLayer
370
18
48
1
60
0
100
AcDbDimension
2
_U1
10
2
20
-36.799026
30
0
11
15
21
-36.799026
31
0
70
32
71
1
72
1
41
1
210
0
220
0
230
1
3
Standard
100
AcDbAlignedDimension
13
28
23
0
33
0
14
2
24
-2.55
34
0
50
0
100
AcDbRotatedDimension
1001
ACAD
1000
DSTYLE
1002
{
1070
   371
1070
    13
1070
   372
1070
    13
1070
     3
1000

1070
   170
1070
     0
1070
   144
1040
1.0
1070
   277
1070
     2
1070
   284
1070
     8
1070
   278
1070
    46
1070
   146
1040
1.166667
1070
   345
1005
16
1070
   347
1005
16
1070
   346
1005
16
1070
   344
1005
0
1070
   343
1005
0
1070
   172
1070
     1
1070
    76
1070
     0
1070
    75
1070
     0
1070
   282
1070
     0
1070
   281
1070
     0
1070
    71
1070
     0
1070
    74
1070
     0
1070
   279
1070
     0
1070
   173
1070
     1
1070
   340
1005
C6
1070
   271
1070
     2
1070
   272
1070
     3
1070
    77
1070
     1
1070
    73
1070
     1
1070
   171
1070
     3
1070
   274
1070
     4
1070
   177
1070
     2
1070
   176
1070
     2
1070
   178
1070
     2
1070
    78
1070
     8
1070
    48
1040
-0.1
1070
    41
1040
3.5
1070
   147
1040
1.5
1070
    42
1040
1.5875
1070
    44
1040
2.0
1070
   140
1040
3.0
1002
}
1001
ACAD_DSTYLE_DIM_LINETYPE
1070
   380
1005
16
1001
ACAD_DSTYLE_DIM_EXT1_LINETYPE
1070
   381
1005
16
1001
ACAD_DSTYLE_DIM_EXT2_LINETYPE
1070
   382
1005
16
0
DIMENSION
5
118
100
AcDbEntity
8
SK2
62
256
6
ByLayer
370
18
48
1
60
0
100
AcDbDimension
2
_U2
10
0
20
-31.799026
30
0
11
-17
21
-31.799026
31
0
70
32
71
1
72
1
41
1
210
0
220
0
230
1
3
Standard
100
AcDbAlignedDimension
13
-34
23
-2.55
33
0
14
0
24
-2.55
34
0
50
0
100
AcDbRotatedDimension
1001
ACAD
1000
DSTYLE
1002
{
1070
   371
1070
    13
1070
   372
1070
    13
1070
     3
1000

1070
   170
1070
     0
1070
   144
1040
1.0
1070
   277
1070
     2
1070
   284
1070
     8
1070
   278
1070
    46
1070
   146
1040
1.166667
1070
   345
1005
16
1070
   347
1005
16
1070
   346
1005
16
1070
   344
1005
0
1070
   343
1005
0
1070
   172
1070
     1
1070
    76
1070
     0
1070
    75
1070
     0
1070
   282
1070
     0
1070
   281
1070
     0
1070
    71
1070
     0
1070
    74
1070
     0
1070
   279
1070
     0
1070
   173
1070
     1
1070
   340
1005
C6
1070
   271
1070
     2
1070
   272
1070
     3
1070
    77
1070
     1
1070
    73
1070
     1
1070
   171
1070
     3
1070
   274
1070
     4
1070
   177
1070
     2
1070
   176
1070
     2
1070
   178
1070
     2
1070
    78
1070
     8
1070
    48
1040
-0.1
1070
    41
1040
3.5
1070
   147
1040
1.5
1070
    42
1040
1.5875
1070
    44
1040
2.0
1070
   140
1040
3.0
1002
}
1001
ACAD_DSTYLE_DIM_LINETYPE
1070
   380
1005
16
1001
ACAD_DSTYLE_DIM_EXT1_LINETYPE
1070
   381
1005
16
1001
ACAD_DSTYLE_DIM_EXT2_LINETYPE
1070
   382
1005
16
0
DIMENSION
5
130
100
AcDbEntity
8
2
62
256
6
ByLayer
370
18
48
1
60
0
100
AcDbDimension
2
_U3
10
8.5
20
-29.799026
30
0
11
18.25
21
-29.799026
31
0
70
32
71
1
72
1
41
1
210
0
220
0
230
1
3
Standard
100
AcDbAlignedDimension
13
28
23
0
33
0
14
8.5
24
-2.55
34
0
50
0
100
AcDbRotatedDimension
1001
ACAD
1000
DSTYLE
1002
{
1070
   371
1070
    13
1070
   372
1070
    13
1070
     3
1000

1070
   170
1070
     0
1070
   144
1040
1.0
1070
   277
1070
     2
1070
   284
1070
     8
1070
   278
1070
    46
1070
   146
1040
1.166667
1070
   345
1005
16
1070
   347
1005
16
1070
   346
1005
16
1070
   344
1005
0
1070
   343
1005
0
1070
   172
1070
     1
1070
    76
1070
     0
1070
    75
1070
     0
1070
   282
1070
     0
1070
   281
1070
     0
1070
    71
1070
     0
1070
    74
1070
     0
1070
   279
1070
     0
1070
   173
1070
     1
1070
   340
1005
C6
1070
   271
1070
     2
1070
   272
1070
     3
1070
    77
1070
     1
1070
    73
1070
     1
1070
   171
1070
     3
1070
   274
1070
     4
1070
   177
1070
     2
1070
   176
1070
     2
1070
   178
1070
     2
1070
    78
1070
     8
1070
    48
1040
-0.1
1070
    41
1040
3.5
1070
   147
1040
1.5
1070
    42
1040
1.5875
1070
    44
1040
2.0
1070
   140
1040
3.0
1002
}
1001
ACAD_DSTYLE_DIM_LINETYPE
1070
   380
1005
16
1001
ACAD_DSTYLE_DIM_EXT1_LINETYPE
1070
   381
1005
16
1001
ACAD_DSTYLE_DIM_EXT2_LINETYPE
1070
   382
1005
16
0
ENDSEC
0
SECTION
2
OBJECTS
0
DICTIONARY
5
1ba
330
0
100
AcDbDictionary
280
0
281
1
3
ACAD_GROUP
350
1bb
3
ACAD_MLINESTYLE
350
1bc
0
DICTIONARY
5
1bb
330
0
100
AcDbDictionary
280
0
281
1
0
DICTIONARY
5
1bc
330
0
100
AcDbDictionary
280
0
281
1
3
Standard
350
18
0
MLINESTYLE
5
18
330
1bc
100
AcDbMlineStyle
2
Standard
70
0
3

62
256
51
90
52
90
71
2
49
-0.5
62
256
6
ByLayer
49
0.5
62
256
6
ByLayer
0
RASTERVARIABLES
5
1a6
330

100
AcDbRasterVariables
90
0
70
1
71
1
72
1
0
ENDSEC
0
EOF
