0
SECTION
2
HEADER
9
$ACADVER
1
AC1015
9
$DWGCODEPAGE
3
ANSI_1252
9
$HANDSEED
5
1c8
9
$ANGBASE
50
0
9
$ANGDIR
70
0
9
$ATTMODE
70
1
9
$AUNITS
70
0
9
$AUPREC
70
0
9
$CECOLOR
62
256
9
$CELTSCALE
40
1
9
$CELTYPE
6
ByLayer
9
$CELWEIGHT
370
18
9
$CLAYER
8
0
9
$CMLJUST
70
0
9
$CMLSCALE
40
1
9
$CMLSTYLE
2
Standard
9
$DIMSTYLE
2
Standard
9
$TEXTSIZE
40
0.2
9
$TEXTSTYLE
7
Standard
9
$LUNITS
70
2
9
$LUPREC
70
4
9
$EXTNAMES
290
1
9
$INSUNITS
70
4
9
$LTSCALE
40
1
9
$LWDISPLAY
290
1
9
$PDMODE
70
0
9
$PDSIZE
40
0
9
$PLINEGEN
70
0
0
ENDSEC
0
SECTION
2
CLASSES
0
CLASS
1
RASTERVARIABLES
2
AcDbRasterVariables
3
ISM
90
0
280
0
281
0
0
ENDSEC
0
SECTION
2
TABLES
0
TABLE
2
VPORT
5
1be
100
AcDbSymbolTable
0
VPORT
5
1
100
AcDbSymbolTableRecord
100
AcDbViewportTableRecord
2
*Active
70
0
10
0
20
0
11
1
21
1
12
-1
22
1
13
0
23
0
14
0.5
24
0.5
15
10
25
10
16
0
26
0
36
1
17
0
27
0
37
0
0
ENDTAB
0
TABLE
2
LTYPE
5
1bf
100
AcDbSymbolTable
0
LTYPE
5
14
100
AcDbSymbolTableRecord
100
AcDbLinetypeTableRecord
70
0
2
ByBlock
3

72
65
73
0
40
0
0
LTYPE
5
15
100
AcDbSymbolTableRecord
100
AcDbLinetypeTableRecord
70
0
2
ByLayer
3

72
65
73
0
40
0
0
LTYPE
5
16
100
AcDbSymbolTableRecord
100
AcDbLinetypeTableRecord
70
0
2
Continuous
3
Solid line
72
65
73
0
40
0
0
LTYPE
5
6E
100
AcDbSymbolTableRecord
100
AcDbLinetypeTableRecord
70
0
2
CENTER
3
____ _ ____ _ ____ _ ____
72
65
73
4
40
47.5
49
22
74
0
49
-8.5
74
0
49
8.5
74
0
49
-8.5
74
0
0
LTYPE
5
6F
100
AcDbSymbolTableRecord
100
AcDbLinetypeTableRecord
70
0
2
DASHED
3
__ __ __ __ __ __ __ __ __
72
65
73
2
40
25.72
49
12.86
74
0
49
-12.86
74
0
0
ENDTAB
0
TABLE
2
LAYER
5
1c0
100
AcDbSymbolTable
0
LAYER
5
10
100
AcDbSymbolTableRecord
100
AcDbLayerTableRecord
2
0
70
0
62
7
6
Continuous
290
1
370
-3
390
0
0
LAYER
5
71
100
AcDbSymbolTableRecord
100
AcDbLayerTableRecord
2
80
70
0
62
-6
6
Continuous
290
1
370
-3
390
0
0
LAYER
5
73
100
AcDbSymbolTableRecord
100
AcDbLayerTableRecord
2
81
70
0
62
-3
6
Continuous
290
1
370
-3
390
0
0
LAYER
5
75
100
AcDbSymbolTableRecord
100
AcDbLayerTableRecord
2
1
70
0
62
4
6
Continuous
290
1
370
-3
390
0
0
LAYER
5
7F
100
AcDbSymbolTableRecord
100
AcDbLayerTableRecord
2
4
70
0
62
-2
6
CENTER
290
1
370
-3
390
0
0
LAYER
5
A4
100
AcDbSymbolTableRecord
100
AcDbLayerTableRecord
2
2
70
0
62
7
6
Continuous
290
1
370
-3
390
0
0
LAYER
5
EA
100
AcDbSymbolTableRecord
100
AcDbLayerTableRecord
2
Defpoints
70
0
62
7
6
Continuous
290
0
370
-3
390
0
0
LAYER
5
1a8
100
AcDbSymbolTableRecord
100
AcDbLayerTableRecord
2
SK4
70
0
62
2
6
CENTER
290
1
370
-3
390
0
0
LAYER
5
1a9
100
AcDbSymbolTableRecord
100
AcDbLayerTableRecord
2
SK1
70
0
62
4
6
Continuous
290
1
370
-3
390
0
0
LAYER
5
1aa
100
AcDbSymbolTableRecord
100
AcDbLayerTableRecord
2
SK2
70
0
62
7
6
Continuous
290
1
370
-3
390
0
0
LAYER
5
1ab
100
AcDbSymbolTableRecord
100
AcDbLayerTableRecord
2
NOCUT
70
0
62
-7
6
Continuous
290
1
370
-3
390
0
0
LAYER
5
1ac
100
AcDbSymbolTableRecord
100
AcDbLayerTableRecord
2
CUT
70
0
62
-1
6
Continuous
290
1
370
-3
390
0
0
LAYER
5
1ad
100
AcDbSymbolTableRecord
100
AcDbLayerTableRecord
2
SK6
70
0
62
5
6
Continuous
290
1
370
-3
390
0
0
ENDTAB
0
TABLE
2
STYLE
5
1c1
100
AcDbSymbolTable
0
STYLE
5
11
100
AcDbSymbolTableRecord
100
AcDbTextStyleTableRecord
2
Standard
3
txt
70
0
71
0
40
0
41
1
42
0
50
0
0
STYLE
5
C6
100
AcDbSymbolTableRecord
100
AcDbTextStyleTableRecord
2
iso_b_vert
3
simplex.shx
70
0
71
0
40
0
41
1
42
0
50
0
0
STYLE
5
C7
100
AcDbSymbolTableRecord
100
AcDbTextStyleTableRecord
2
DWGDirectTextStyle
3
simplex
70
0
71
0
40
0
41
1
42
0
50
0
0
ENDTAB
0
TABLE
2
DIMSTYLE
5
1c2
100
AcDbSymbolTable
100
AcDbDimStyleTable
0
DIMSTYLE
105
27
100
AcDbSymbolTableRecord
100
AcDbDimStyleTableRecord
2
Standard
70
0
3
<>
41
0.18
42
0.0625
44
0.18
140
0.18
147
0.09
73
0
74
0
77
1
271
2
275
0
278
52
280
0
340
11
0
ENDTAB
0
TABLE
2
VIEW
5
1c3
100
AcDbSymbolTable
0
ENDTAB
0
TABLE
2
UCS
5
1c4
100
AcDbSymbolTable
0
ENDTAB
0
TABLE
2
APPID
5
1c5
100
AcDbSymbolTable
0
APPID
5
12
100
AcDbSymbolTableRecord
100
AcDbRegAppTableRecord
2
ACAD
70
0
0
APPID
5
E6
100
AcDbSymbolTableRecord
100
AcDbRegAppTableRecord
2
ACAD_DSTYLE_DIMBREAK
70
0
0
APPID
5
167
100
AcDbSymbolTableRecord
100
AcDbRegAppTableRecord
2
ACAD_DSTYLE_DIM_LINETYPE
70
0
0
APPID
5
168
100
AcDbSymbolTableRecord
100
AcDbRegAppTableRecord
2
ACAD_DSTYLE_DIM_EXT1_LINETYPE
70
0
0
APPID
5
169
100
AcDbSymbolTableRecord
100
AcDbRegAppTableRecord
2
ACAD_DSTYLE_DIM_EXT2_LINETYPE
70
0
0
APPID
5
1A4
100
AcDbSymbolTableRecord
100
AcDbRegAppTableRecord
2
ACAD_MLEADERVER
70
0
0
ENDTAB
0
TABLE
2
BLOCK_RECORD
5
1c6
100
AcDbSymbolTable
0
BLOCK_RECORD
5
1F
100
AcDbSymbolTableRecord
100
AcDbBlockTableRecord
2
*Model_Space
340
0
70
0
0
BLOCK_RECORD
5
1B
100
AcDbSymbolTableRecord
100
AcDbBlockTableRecord
2
*Paper_Space
340
0
70
0
0
BLOCK_RECORD
5
23
100
AcDbSymbolTableRecord
100
AcDbBlockTableRecord
2
*Paper_Space0
340
0
70
0
0
BLOCK_RECORD
5
EB
100
AcDbSymbolTableRecord
100
AcDbBlockTableRecord
2
*D1
340
0
70
0
0
BLOCK_RECORD
5
F7
100
AcDbSymbolTableRecord
100
AcDbBlockTableRecord
2
_U0
340
0
70
0
0
BLOCK_RECORD
5
103
100
AcDbSymbolTableRecord
100
AcDbBlockTableRecord
2
*D3
340
0
70
0
0
BLOCK_RECORD
5
10F
100
AcDbSymbolTableRecord
100
AcDbBlockTableRecord
2
_U1
340
0
70
0
0
BLOCK_RECORD
5
11B
100
AcDbSymbolTableRecord
100
AcDbBlockTableRecord
2
*D5
340
0
70
0
0
BLOCK_RECORD
5
127
100
AcDbSymbolTableRecord
100
AcDbBlockTableRecord
2
_U2
340
0
70
0
0
BLOCK_RECORD
5
133
100
AcDbSymbolTableRecord
100
AcDbBlockTableRecord
2
*D7
340
0
70
0
0
BLOCK_RECORD
5
140
100
AcDbSymbolTableRecord
100
AcDbBlockTableRecord
2
_U3
340
0
70
0
0
ENDTAB
0
ENDSEC
0
SECTION
2
BLOCKS
0
BLOCK
5
20
100
AcDbEntity
8
0
100
AcDbBlockBegin
2
*Model_Space
70
0
10
0
20
0
30
0
3
*Model_Space
0
ENDBLK
5
21
100
AcDbEntity
8
0
100
AcDbBlockEnd
0
BLOCK
5
1C
100
AcDbEntity
8
0
100
AcDbBlockBegin
2
*Paper_Space
70
0
10
0
20
0
30
0
3
*Paper_Space
0
ENDBLK
5
1D
100
AcDbEntity
8
0
100
AcDbBlockEnd
0
BLOCK
5
24
100
AcDbEntity
8
0
100
AcDbBlockBegin
2
*Paper_Space0
70
0
10
0
20
0
30
0
3
*Paper_Space0
0
ENDBLK
5
25
100
AcDbEntity
8
0
100
AcDbBlockEnd
0
BLOCK
5
EC
100
AcDbEntity
8
0
100
AcDbBlockBegin
2
*D1
70
1
10
0
20
0
30
0
3
*D1
0
LINE
5
EE
100
AcDbEntity
8
0
62
256
6
ByLayer
370
-2
48
1
60
0
100
AcDbLine
10
-28
20
-3.0875
30
0
11
-28
21
-50.388614
31
0
39
0
210
0
220
0
230
1
0
LINE
5
EF
100
AcDbEntity
8
0
62
256
6
ByLayer
370
-2
48
1
60
0
100
AcDbLine
10
18
20
-1.5875
30
0
11
18
21
-50.388614
31
0
39
0
210
0
220
0
230
1
0
LINE
5
F0
100
AcDbEntity
8
0
62
256
6
ByLayer
370
-2
48
1
60
0
100
AcDbLine
10
-24.5
20
-48.388614
30
0
11
14.5
21
-48.388614
31
0
39
0
210
0
220
0
230
1
0
SOLID
5
F1
100
AcDbEntity
8
0
62
256
6
ByLayer
370
-1
48
1
60
0
100
AcDbTrace
10
-24.5
20
-47.80528
30
0
11
-24.5
21
-48.971947
31
0
12
-28
22
-48.388614
32
0
13
-28
23
-48.388614
33
0
39
0
210
0
220
0
230
1
0
SOLID
5
F2
100
AcDbEntity
8
0
62
256
6
ByLayer
370
-1
48
1
60
0
100
AcDbTrace
10
14.5
20
-48.971947
30
0
11
14.5
21
-47.80528
31
0
12
18
22
-48.388614
32
0
13
18
23
-48.388614
33
0
39
0
210
0
220
0
230
1
0
MTEXT
5
F3
100
AcDbEntity
8
0
62
256
6
ByLayer
370
18
48
1
60
0
100
AcDbMText
10
-5
20
-42.388614
30
0
210
0
220
0
230
1
1
\A1;46
40
3
41
0
44
1
50
0
71
5
72
5
7
iso_b_vert
0
POINT
5
F4
100
AcDbEntity
8
Defpoints
62
0
6
ByLayer
370
-1
48
1
60
0
100
AcDbPoint
10
-28
20
-1.5
30
0
39
0
210
0
220
0
230
1
50
360
0
POINT
5
F5
100
AcDbEntity
8
Defpoints
62
0
6
ByLayer
370
-1
48
1
60
0
100
AcDbPoint
10
18
20
0
30
0
39
0
210
0
220
0
230
1
50
360
0
POINT
5
F6
100
AcDbEntity
8
Defpoints
62
0
6
ByLayer
370
-1
48
1
60
0
100
AcDbPoint
10
18
20
-48.388614
30
0
39
0
210
0
220
0
230
1
50
360
0
ENDBLK
5
ED
100
AcDbEntity
8
0
100
AcDbBlockEnd
0
BLOCK
5
FE
100
AcDbEntity
8
0
100
AcDbBlockBegin
2
_U0
70
0
10
0
20
0
30
0
3
_U0
0
MTEXT
5
F8
100
AcDbEntity
8
SK2
62
256
6
ByLayer
370
18
48
1
60
0
100
AcDbMText
10
-9.640313
20
-47.503499
30
0
210
0
220
0
230
1
1
\W0.7694;46.00
40
3
41
0
44
1.084337
50
0
71
7
72
5
7
iso_b_vert
0
LINE
5
F9
100
AcDbEntity
8
SK2
62
256
6
ByLayer
370
13
48
1
60
0
100
AcDbLine
10
-28
20
-3.0875
30
0
11
-28
21
-50.388614
31
0
39
0
210
0
220
0
230
1
0
LINE
5
FA
100
AcDbEntity
8
SK2
62
256
6
ByLayer
370
13
48
1
60
0
100
AcDbLine
10
18
20
-1.5875
30
0
11
18
21
-50.388614
31
0
39
0
210
0
220
0
230
1
0
LINE
5
FB
100
AcDbEntity
8
SK2
62
256
6
ByLayer
370
13
48
1
60
0
100
AcDbLine
10
-28
20
-48.388614
30
0
11
18
21
-48.388614
31
0
39
0
210
0
220
0
230
1
0
SOLID
5
FC
100
AcDbEntity
8
SK2
62
256
6
ByLayer
370
18
48
1
60
0
100
AcDbTrace
10
-28
20
-48.388614
30
0
11
-24.500002
21
-47.92783
31
0
12
-24.499998
22
-48.849397
32
0
13
-24.499998
23
-48.849397
33
0
39
0
210
0
220
0
230
1
0
SOLID
5
FD
100
AcDbEntity
8
SK2
62
256
6
ByLayer
370
18
48
1
60
0
100
AcDbTrace
10
18
20
-48.388614
30
0
11
14.500002
21
-48.849397
31
0
12
14.499998
22
-47.92783
32
0
13
14.499998
23
-47.92783
33
0
39
0
210
0
220
0
230
1
0
ENDBLK
5
FF
100
AcDbEntity
8
0
100
AcDbBlockEnd
0
BLOCK
5
104
100
AcDbEntity
8
0
100
AcDbBlockBegin
2
*D3
70
1
10
0
20
0
30
0
3
*D3
0
LINE
5
106
100
AcDbEntity
8
0
62
256
6
ByLayer
370
-2
48
1
60
0
100
AcDbLine
10
18
20
-1.5875
30
0
11
18
21
-40.388614
31
0
39
0
210
0
220
0
230
1
0
LINE
5
107
100
AcDbEntity
8
0
62
256
6
ByLayer
370
-2
48
1
60
0
100
AcDbLine
10
2
20
-3.0875
30
0
11
2
21
-40.388614
31
0
39
0
210
0
220
0
230
1
0
LINE
5
108
100
AcDbEntity
8
0
62
256
6
ByLayer
370
-2
48
1
60
0
100
AcDbLine
10
14.5
20
-38.388614
30
0
11
5.5
21
-38.388614
31
0
39
0
210
0
220
0
230
1
0
SOLID
5
109
100
AcDbEntity
8
0
62
256
6
ByLayer
370
-1
48
1
60
0
100
AcDbTrace
10
14.5
20
-38.971947
30
0
11
14.5
21
-37.80528
31
0
12
18
22
-38.388614
32
0
13
18
23
-38.388614
33
0
39
0
210
0
220
0
230
1
0
SOLID
5
10A
100
AcDbEntity
8
0
62
256
6
ByLayer
370
-1
48
1
60
0
100
AcDbTrace
10
5.5
20
-37.80528
30
0
11
5.5
21
-38.971947
31
0
12
2
22
-38.388614
32
0
13
2
23
-38.388614
33
0
39
0
210
0
220
0
230
1
0
MTEXT
5
10B
100
AcDbEntity
8
0
62
256
6
ByLayer
370
18
48
1
60
0
100
AcDbMText
10
10
20
-32.388614
30
0
210
0
220
0
230
1
1
\A1;16
40
3
41
0
44
1
50
0
71
5
72
5
7
iso_b_vert
0
POINT
5
10C
100
AcDbEntity
8
Defpoints
62
0
6
ByLayer
370
-1
48
1
60
0
100
AcDbPoint
10
18
20
0
30
0
39
0
210
0
220
0
230
1
50
360
0
POINT
5
10D
100
AcDbEntity
8
Defpoints
62
0
6
ByLayer
370
-1
48
1
60
0
100
AcDbPoint
10
2
20
-1.5
30
0
39
0
210
0
220
0
230
1
50
360
0
POINT
5
10E
100
AcDbEntity
8
Defpoints
62
0
6
ByLayer
370
-1
48
1
60
0
100
AcDbPoint
10
2
20
-38.388614
30
0
39
0
210
0
220
0
230
1
50
360
0
ENDBLK
5
105
100
AcDbEntity
8
0
100
AcDbBlockEnd
0
BLOCK
5
116
100
AcDbEntity
8
0
100
AcDbBlockBegin
2
_U1
70
0
10
0
20
0
30
0
3
_U1
0
MTEXT
5
110
100
AcDbEntity
8
2
62
256
6
ByLayer
370
18
48
1
60
0
100
AcDbMText
10
5.892572
20
-37.503499
30
0
210
0
220
0
230
1
1
\W0.6864;16.00
40
3
41
0
44
1.084337
50
0
71
7
72
5
7
iso_b_vert
0
LINE
5
111
100
AcDbEntity
8
2
62
256
6
ByLayer
370
13
48
1
60
0
100
AcDbLine
10
18
20
-1.5875
30
0
11
18
21
-40.388614
31
0
39
0
210
0
220
0
230
1
0
LINE
5
112
100
AcDbEntity
8
2
62
256
6
ByLayer
370
13
48
1
60
0
100
AcDbLine
10
2
20
-3.0875
30
0
11
2
21
-40.388614
31
0
39
0
210
0
220
0
230
1
0
LINE
5
113
100
AcDbEntity
8
2
62
256
6
ByLayer
370
13
48
1
60
0
100
AcDbLine
10
18
20
-38.388614
30
0
11
2
21
-38.388614
31
0
39
0
210
0
220
0
230
1
0
SOLID
5
114
100
AcDbEntity
8
2
62
256
6
ByLayer
370
18
48
1
60
0
100
AcDbTrace
10
18
20
-38.388614
30
0
11
14.500002
21
-38.849397
31
0
12
14.499998
22
-37.92783
32
0
13
14.499998
23
-37.92783
33
0
39
0
210
0
220
0
230
1
0
SOLID
5
115
100
AcDbEntity
8
2
62
256
6
ByLayer
370
18
48
1
60
0
100
AcDbTrace
10
2
20
-38.388614
30
0
11
5.499998
21
-37.92783
31
0
12
5.500002
22
-38.849397
32
0
13
5.500002
23
-38.849397
33
0
39
0
210
0
220
0
230
1
0
ENDBLK
5
117
100
AcDbEntity
8
0
100
AcDbBlockEnd
0
BLOCK
5
11C
100
AcDbEntity
8
0
100
AcDbBlockBegin
2
*D5
70
1
10
0
20
0
30
0
3
*D5
0
LINE
5
11E
100
AcDbEntity
8
0
62
256
6
ByLayer
370
-2
48
1
60
0
100
AcDbLine
10
-28
20
-3.0875
30
0
11
-28
21
-35.388614
31
0
39
0
210
0
220
0
230
1
0
LINE
5
11F
100
AcDbEntity
8
0
62
256
6
ByLayer
370
-2
48
1
60
0
100
AcDbLine
10
0
20
-3.0875
30
0
11
0
21
-35.388614
31
0
39
0
210
0
220
0
230
1
0
LINE
5
120
100
AcDbEntity
8
0
62
256
6
ByLayer
370
-2
48
1
60
0
100
AcDbLine
10
-24.5
20
-33.388614
30
0
11
-3.5
21
-33.388614
31
0
39
0
210
0
220
0
230
1
0
SOLID
5
121
100
AcDbEntity
8
0
62
256
6
ByLayer
370
-1
48
1
60
0
100
AcDbTrace
10
-24.5
20
-32.80528
30
0
11
-24.5
21
-33.971947
31
0
12
-28
22
-33.388614
32
0
13
-28
23
-33.388614
33
0
39
0
210
0
220
0
230
1
0
SOLID
5
122
100
AcDbEntity
8
0
62
256
6
ByLayer
370
-1
48
1
60
0
100
AcDbTrace
10
-3.5
20
-33.971947
30
0
11
-3.5
21
-32.80528
31
0
12
0
22
-33.388614
32
0
13
0
23
-33.388614
33
0
39
0
210
0
220
0
230
1
0
MTEXT
5
123
100
AcDbEntity
8
0
62
256
6
ByLayer
370
18
48
1
60
0
100
AcDbMText
10
-14
20
-27.388614
30
0
210
0
220
0
230
1
1
\A1;28
40
3
41
0
44
1
50
0
71
5
72
5
7
iso_b_vert
0
POINT
5
124
100
AcDbEntity
8
Defpoints
62
0
6
ByLayer
370
-1
48
1
60
0
100
AcDbPoint
10
-28
20
-1.5
30
0
39
0
210
0
220
0
230
1
50
360
0
POINT
5
125
100
AcDbEntity
8
Defpoints
62
0
6
ByLayer
370
-1
48
1
60
0
100
AcDbPoint
10
0
20
-1.5
30
0
39
0
210
0
220
0
230
1
50
360
0
POINT
5
126
100
AcDbEntity
8
Defpoints
62
0
6
ByLayer
370
-1
48
1
60
0
100
AcDbPoint
10
0
20
-33.388614
30
0
39
0
210
0
220
0
230
1
50
360
0
ENDBLK
5
11D
100
AcDbEntity
8
0
100
AcDbBlockEnd
0
BLOCK
5
12E
100
AcDbEntity
8
0
100
AcDbBlockBegin
2
_U2
70
0
10
0
20
0
30
0
3
_U2
0
MTEXT
5
128
100
AcDbEntity
8
SK2
62
256
6
ByLayer
370
18
48
1
60
0
100
AcDbMText
10
-18.48237
20
-32.503499
30
0
210
0
220
0
230
1
1
\W0.7468;28.00
40
3
41
0
44
1.084337
50
0
71
7
72
5
7
iso_b_vert
0
LINE
5
129
100
AcDbEntity
8
SK2
62
256
6
ByLayer
370
13
48
1
60
0
100
AcDbLine
10
-28
20
-3.0875
30
0
11
-28
21
-35.388614
31
0
39
0
210
0
220
0
230
1
0
LINE
5
12A
100
AcDbEntity
8
SK2
62
256
6
ByLayer
370
13
48
1
60
0
100
AcDbLine
10
0
20
-3.0875
30
0
11
0
21
-35.388614
31
0
39
0
210
0
220
0
230
1
0
LINE
5
12B
100
AcDbEntity
8
SK2
62
256
6
ByLayer
370
13
48
1
60
0
100
AcDbLine
10
-28
20
-33.388614
30
0
11
0
21
-33.388614
31
0
39
0
210
0
220
0
230
1
0
SOLID
5
12C
100
AcDbEntity
8
SK2
62
256
6
ByLayer
370
18
48
1
60
0
100
AcDbTrace
10
-28
20
-33.388614
30
0
11
-24.500002
21
-32.92783
31
0
12
-24.499998
22
-33.849397
32
0
13
-24.499998
23
-33.849397
33
0
39
0
210
0
220
0
230
1
0
SOLID
5
12D
100
AcDbEntity
8
SK2
62
256
6
ByLayer
370
18
48
1
60
0
100
AcDbTrace
10
0
20
-33.388614
30
0
11
-3.499998
21
-33.849397
31
0
12
-3.500002
22
-32.92783
32
0
13
-3.500002
23
-32.92783
33
0
39
0
210
0
220
0
230
1
0
ENDBLK
5
12F
100
AcDbEntity
8
0
100
AcDbBlockEnd
0
BLOCK
5
134
100
AcDbEntity
8
0
100
AcDbBlockBegin
2
*D7
70
1
10
0
20
0
30
0
3
*D7
0
LINE
5
136
100
AcDbEntity
8
0
62
256
6
ByLayer
370
-2
48
1
60
0
100
AcDbLine
10
18
20
-1.5875
30
0
11
18
21
-33.388614
31
0
39
0
210
0
220
0
230
1
0
LINE
5
137
100
AcDbEntity
8
0
62
256
6
ByLayer
370
-2
48
1
60
0
100
AcDbLine
10
6
20
-3.0875
30
0
11
6
21
-33.388614
31
0
39
0
210
0
220
0
230
1
0
LINE
5
138
100
AcDbEntity
8
0
62
256
6
ByLayer
370
-2
48
1
60
0
100
AcDbLine
10
21.5
20
-31.388614
30
0
11
25
21
-31.388614
31
0
39
0
210
0
220
0
230
1
0
LINE
5
139
100
AcDbEntity
8
0
62
256
6
ByLayer
370
-2
48
1
60
0
100
AcDbLine
10
2.5
20
-31.388614
30
0
11
-1
21
-31.388614
31
0
39
0
210
0
220
0
230
1
0
SOLID
5
13A
100
AcDbEntity
8
0
62
256
6
ByLayer
370
-1
48
1
60
0
100
AcDbTrace
10
21.5
20
-30.80528
30
0
11
21.5
21
-31.971947
31
0
12
18
22
-31.388614
32
0
13
18
23
-31.388614
33
0
39
0
210
0
220
0
230
1
0
SOLID
5
13B
100
AcDbEntity
8
0
62
256
6
ByLayer
370
-1
48
1
60
0
100
AcDbTrace
10
2.5
20
-31.971947
30
0
11
2.5
21
-30.80528
31
0
12
6
22
-31.388614
32
0
13
6
23
-31.388614
33
0
39
0
210
0
220
0
230
1
0
MTEXT
5
13C
100
AcDbEntity
8
0
62
256
6
ByLayer
370
18
48
1
60
0
100
AcDbMText
10
12
20
-25.388614
30
0
210
0
220
0
230
1
1
\A1;12
40
3
41
0
44
1
50
0
71
5
72
5
7
iso_b_vert
0
POINT
5
13D
100
AcDbEntity
8
Defpoints
62
0
6
ByLayer
370
-1
48
1
60
0
100
AcDbPoint
10
18
20
0
30
0
39
0
210
0
220
0
230
1
50
360
0
POINT
5
13E
100
AcDbEntity
8
Defpoints
62
0
6
ByLayer
370
-1
48
1
60
0
100
AcDbPoint
10
6
20
-1.5
30
0
39
0
210
0
220
0
230
1
50
360
0
POINT
5
13F
100
AcDbEntity
8
Defpoints
62
0
6
ByLayer
370
-1
48
1
60
0
100
AcDbPoint
10
6
20
-31.388614
30
0
39
0
210
0
220
0
230
1
50
360
0
ENDBLK
5
135
100
AcDbEntity
8
0
100
AcDbBlockEnd
0
BLOCK
5
147
100
AcDbEntity
8
0
100
AcDbBlockBegin
2
_U3
70
0
10
0
20
0
30
0
3
_U3
0
MTEXT
5
141
100
AcDbEntity
8
2
62
256
6
ByLayer
370
18
48
1
60
0
100
AcDbMText
10
7.892572
20
-30.503499
30
0
210
0
220
0
230
1
1
\W0.6864;12.00
40
3
41
0
44
1.084337
50
0
71
7
72
5
7
iso_b_vert
0
LINE
5
142
100
AcDbEntity
8
2
62
256
6
ByLayer
370
13
48
1
60
0
100
AcDbLine
10
18
20
-1.5875
30
0
11
18
21
-33.388614
31
0
39
0
210
0
220
0
230
1
0
LINE
5
143
100
AcDbEntity
8
2
62
256
6
ByLayer
370
13
48
1
60
0
100
AcDbLine
10
6
20
-3.0875
30
0
11
6
21
-33.388614
31
0
39
0
210
0
220
0
230
1
0
LINE
5
144
100
AcDbEntity
8
2
62
256
6
ByLayer
370
13
48
1
60
0
100
AcDbLine
10
18
20
-31.388614
30
0
11
6
21
-31.388614
31
0
39
0
210
0
220
0
230
1
0
SOLID
5
145
100
AcDbEntity
8
2
62
256
6
ByLayer
370
18
48
1
60
0
100
AcDbTrace
10
18
20
-31.388614
30
0
11
14.500002
21
-31.849397
31
0
12
14.499998
22
-30.92783
32
0
13
14.499998
23
-30.92783
33
0
39
0
210
0
220
0
230
1
0
SOLID
5
146
100
AcDbEntity
8
2
62
256
6
ByLayer
370
18
48
1
60
0
100
AcDbTrace
10
6
20
-31.388614
30
0
11
9.499998
21
-30.92783
31
0
12
9.500002
22
-31.849397
32
0
13
9.500002
23
-31.849397
33
0
39
0
210
0
220
0
230
1
0
ENDBLK
5
148
100
AcDbEntity
8
0
100
AcDbBlockEnd
0
ENDSEC
0
SECTION
2
ENTITIES
0
ARC
5
B5
100
AcDbEntity
8
2
62
256
6
ByLayer
370
13
48
1
60
0
100
AcDbCircle
39
0
10
18
20
0
30
0
40
22
210
0
220
0
230
1
100
AcDbArc
50
7.83748
51
61.596605
0
ARC
5
B6
100
AcDbEntity
8
2
62
256
6
ByLayer
370
13
48
1
60
0
100
AcDbCircle
39
0
10
18
20
0
30
0
40
22
210
0
220
0
230
1
100
AcDbArc
50
298.403395
51
352.16252
0
POINT
5
70
100
AcDbEntity
8
80
62
256
6
ByLayer
370
18
48
1
60
0
100
AcDbPoint
10
0
20
0
30
0
39
0
210
0
220
0
230
1
50
360
0
POINT
5
72
100
AcDbEntity
8
81
62
256
6
ByLayer
370
18
48
1
60
0
100
AcDbPoint
10
18
20
0
30
0
39
0
210
0
220
0
230
1
50
360
0
POINT
5
74
100
AcDbEntity
8
1
62
256
6
ByLayer
370
18
48
1
60
1
100
AcDbPoint
10
-28
20
-1.5
30
0
39
0
210
0
220
0
230
1
50
360
0
POINT
5
76
100
AcDbEntity
8
1
62
256
6
ByLayer
370
18
48
1
60
1
100
AcDbPoint
10
18
20
0
30
0
39
0
210
0
220
0
230
1
50
360
0
POINT
5
77
100
AcDbEntity
8
1
62
256
6
ByLayer
370
18
48
1
60
1
100
AcDbPoint
10
18
20
0
30
0
39
0
210
0
220
0
230
1
50
360
0
POINT
5
78
100
AcDbEntity
8
1
62
256
6
ByLayer
370
18
48
1
60
1
100
AcDbPoint
10
2
20
-1.5
30
0
39
0
210
0
220
0
230
1
50
360
0
POINT
5
79
100
AcDbEntity
8
1
62
256
6
ByLayer
370
18
48
1
60
1
100
AcDbPoint
10
-28
20
-1.5
30
0
39
0
210
0
220
0
230
1
50
360
0
POINT
5
7A
100
AcDbEntity
8
1
62
256
6
ByLayer
370
18
48
1
60
1
100
AcDbPoint
10
0
20
-1.5
30
0
39
0
210
0
220
0
230
1
50
360
0
POINT
5
7B
100
AcDbEntity
8
1
62
256
6
ByLayer
370
18
48
1
60
1
100
AcDbPoint
10
18
20
0
30
0
39
0
210
0
220
0
230
1
50
360
0
POINT
5
7C
100
AcDbEntity
8
1
62
256
6
ByLayer
370
18
48
1
60
1
100
AcDbPoint
10
6
20
-1.5
30
0
39
0
210
0
220
0
230
1
50
360
0
SPLINE
5
B7
100
AcDbEntity
8
NOCUT
62
256
6
ByLayer
370
18
48
1
60
0
100
AcDbSpline
70
2053
71
3
72
26
73
22
40
0
40
0
40
0
40
0
40
0.391130936344931
40
0.391130936344931
40
0.391130936344931
40
0.397121651234756
40
0.397121651234756
40
0.397121651234756
40
0.414065951726233
40
0.414065951726233
40
0.414065951726233
40
0.894154465650007
40
0.894154465650007
40
0.894154465650007
40
0.915275595314354
40
0.915275595314354
40
0.915275595314354
40
0.998585078587863
40
0.998585078587863
40
0.998585078587863
40
1
40
1
40
1
40
1
41
1
10
0
20
1.5
30
0
41
1
10
-9.23333333333332
20
1.5
30
0
41
1
10
-18.4666666666667
20
1.5
30
0
41
1
10
-27.7
20
1.5
30
0
41
1
10
-27.8
20
1.40000000000001
30
0
41
1
10
-27.9
20
1.30000000000001
30
0
41
1
10
-28
20
1.19999999999999
30
0
41
1
10
-28
20
0.800000000000011
30
0
41
1
10
-28
20
0.400000000000006
30
0
41
1
10
-28
20
0
30
0
41
1
10
-16.6666666666668
20
0
30
0
41
1
10
-5.33333333333354
20
0
30
0
41
1
10
5.99999999999983
20
0
30
0
41
1
10
6
20
0.498601395224256
30
0
41
1
10
6
20
0.997202790448512
30
0
41
1
10
6
20
1.49580418567277
30
0
41
1
10
4.03333333333316
20
1.49506668567281
30
0
41
1
10
2.06666666666635
20
1.49432918567285
30
0
41
1
10
0.0999999998831242
20
1.49359168568037
30
0
41
1
10
0.0666666665111393
20
1.49572779045857
30
0
41
1
10
0.0333333332555696
20
1.49786389522927
30
0
41
1
10
0
20
1.5
30
0
0
SPLINE
5
B9
100
AcDbEntity
8
CUT
62
256
6
ByLayer
370
18
48
1
60
0
100
AcDbSpline
70
2053
71
3
72
17
73
13
40
0
40
0
40
0
40
0
40
0.454719002091336
40
0.454719002091336
40
0.454719002091336
40
0.511399884308481
40
0.511399884308481
40
0.511399884308481
40
0.935381357841963
40
0.935381357841963
40
0.935381357841963
40
1
40
1
40
1
40
1
41
1
10
18
20
0
30
0
41
1
10
14
20
0
30
0
41
1
10
10
20
0
30
0
41
1
10
6
20
0
30
0
41
1
10
6
20
0.498601395224256
30
0
41
1
10
6
20
0.997202790448512
30
0
41
1
10
5.99999999999974
20
1.49580418567277
30
0
41
1
10
9.72961272144011
20
1.49720279044323
30
0
41
1
10
13.4592254428808
20
1.49860139521365
30
0
41
1
10
17.1888381643214
20
1.49999999998411
30
0
41
1
10
17.4592254428809
20
0.999999999989427
30
0
41
1
10
17.7296127214405
20
0.499999999994714
30
0
41
1
10
18
20
0
30
0
0
SPLINE
5
BB
100
AcDbEntity
8
1
62
256
6
ByLayer
370
18
48
1
60
0
100
AcDbSpline
70
4
71
3
72
65
73
61
40
0
40
0
40
0
40
0
40
0.124999999999975
40
0.124999999999975
40
0.249999999999951
40
0.249999999999951
40
0.281249999999944
40
0.281249999999944
40
0.312499999999938
40
0.312499999999938
40
0.374999999999926
40
0.374999999999926
40
0.406249999999918
40
0.406249999999918
40
0.43749999999991
40
0.43749999999991
40
0.468749999999903
40
0.468749999999903
40
0.4843749999999
40
0.4843749999999
40
0.4921874999999
40
0.4921874999999
40
0.496093749999899
40
0.496093749999899
40
0.499999999999898
40
0.499999999999898
40
0.507812499999897
40
0.507812499999897
40
0.511718749999897
40
0.511718749999897
40
0.515624999999896
40
0.519531249999896
40
0.519531249999896
40
0.523437499999895
40
0.523437499999895
40
0.531249999999893
40
0.531249999999893
40
0.535156249999892
40
0.535156249999892
40
0.539062499999891
40
0.539062499999891
40
0.546874999999891
40
0.546874999999891
40
0.562499999999895
40
0.562499999999895
40
0.593749999999902
40
0.593749999999902
40
0.62499999999991
40
0.62499999999991
40
0.687499999999925
40
0.687499999999925
40
0.74999999999994
40
0.74999999999994
40
0.781249999999947
40
0.781249999999947
40
0.812499999999955
40
0.812499999999955
40
0.87499999999997
40
0.87499999999997
40
1
40
1
40
1
40
1
41
1
10
17.1888381643214
20
1.45250737121307
30
0
41
1
10
17.249495291662
20
1.33923670368776
30
0
41
1
10
17.3098053511507
20
1.22564738779113
30
0
41
1
10
17.4292550535112
20
0.997703849154135
30
0
41
1
10
17.4884484060387
20
0.883376937752445
30
0
41
1
10
17.560713922448
20
0.739532105909518
30
0
41
1
10
17.5750889057312
20
0.710720205143303
30
0
41
1
10
17.603768775596
20
0.653139848630872
30
0
41
1
10
17.618075545008
20
0.624377649143042
30
0
41
1
10
17.6608470126278
20
0.538144283154736
30
0
41
1
10
17.6891981588706
20
0.480689352051229
30
0
41
1
10
17.730987558772
20
0.394589473075996
30
0
41
1
10
17.744784712582
20
0.36591556565233
30
0
41
1
10
17.7719469621171
20
0.308546553711381
30
0
41
1
10
17.7853158087416
20
0.279852039242598
30
0
41
1
10
17.8112777133948
20
0.222284570128494
30
0
41
1
10
17.8238835415584
20
0.193388672692549
30
0
41
1
10
17.8416607087953
20
0.14987584397565
30
0
41
1
10
17.8474242188529
20
0.13536668068852
30
0
41
1
10
17.8555477908902
20
0.113404771379493
30
0
41
1
10
17.8581632417969
20
0.106044895620784
30
0
41
1
10
17.8617091993352
20
0.0947438041389717
30
0
41
1
10
17.8628263606443
20
0.0909316705631227
30
0
41
1
10
17.8648727845898
20
0.0831710084650865
30
0
41
1
10
17.8658049734167
20
0.0792015689839332
30
0
41
1
10
17.8682002442403
20
0.0672861750533116
30
0
41
1
10
17.8692804329917
20
0.059290460485073
30
0
41
1
10
17.8700009279919
20
0.0472047601671761
30
0
41
1
10
17.8700891935237
20
0.0431373680043237
30
0
41
1
10
17.8699488997977
20
0.0351771093351658
30
0
41
1
10
17.869497683009
20
0.0273533191861475
30
0
41
1
10
17.8684423135002
20
0.0198005874359524
30
0
41
1
10
17.8670888942725
20
0.0123871929185952
30
0
41
1
10
17.8662563435051
20
0.0087308593744524
30
0
41
1
10
17.8633909702172
20
-0.0017485596680729
30
0
41
1
10
17.8609847043218
20
-0.0081575665228968
30
0
41
1
10
17.8567749327921
20
-0.0169715878408283
30
0
41
1
10
17.8552714929767
20
-0.0197712828301349
30
0
41
1
10
17.8521718553211
20
-0.025021032091928
30
0
41
1
10
17.8505671359818
20
-0.0274916305949375
30
0
41
1
10
17.8456478035306
20
-0.0346066617575502
30
0
41
1
10
17.8422351775912
20
-0.0389767390070688
30
0
41
1
10
17.8318907127904
20
-0.0519228126537143
30
0
41
1
10
17.8248428180612
20
-0.0603184408997777
30
0
41
1
10
17.803459713846
20
-0.0851984473385414
30
0
41
1
10
17.7888271411633
20
-0.101191738558669
30
0
41
1
10
17.7593156132081
20
-0.131627731700433
30
0
41
1
10
17.7444191975158
20
-0.146124216070348
30
0
41
1
10
17.6995318455823
20
-0.187592852413758
30
0
41
1
10
17.6693520071579
20
-0.212534229496413
30
0
41
1
10
17.6088185446602
20
-0.257191639772401
30
0
41
1
10
17.5784506096977
20
-0.276902711498906
30
0
41
1
10
17.5327468936
20
-0.302566620402928
30
0
41
1
10
17.5175041143173
20
-0.310457317461214
30
0
41
1
10
17.4871398320973
20
-0.324854024833485
30
0
41
1
10
17.4719968198948
20
-0.331372345000972
30
0
41
1
10
17.4266621686758
20
-0.348921892002579
30
0
41
1
10
17.3965651691532
20
-0.357953757662671
30
0
41
1
10
17.3064538574979
20
-0.377064445794986
30
0
41
1
10
17.2474033870772
20
-0.37902206330017
30
0
41
1
10
17.1888381643214
20
-0.370549138310906
30
0
0
SPLINE
5
BC
100
AcDbEntity
8
1
62
256
6
ByLayer
370
18
48
1
60
0
100
AcDbSpline
70
4
71
3
72
49
73
45
40
0
40
0
40
0
40
0
40
0.0766489019799199
40
0.0766489019799199
40
0.11497335296988
40
0.11497335296988
40
0.15329780395984
40
0.15329780395984
40
0.229946705939763
40
0.229946705939763
40
0.268271156929724
40
0.268271156929724
40
0.306595607919686
40
0.306595607919686
40
0.383244509899606
40
0.383244509899606
40
0.421568960889564
40
0.421568960889564
40
0.459893411879522
40
0.459893411879522
40
0.536542313859439
40
0.536542313859439
40
0.574866764849397
40
0.574866764849397
40
0.613191215839356
40
0.613191215839356
40
0.689840117819276
40
0.689840117819276
40
0.728164568809236
40
0.728164568809236
40
0.766489019799196
40
0.766489019799196
40
0.785651245294177
40
0.785651245294177
40
0.804813470789159
40
0.843137921779122
40
0.843137921779122
40
0.881462372769085
40
0.881462372769085
40
0.919786823759048
40
0.919786823759048
40
0.996435725738972
40
0.996435725738972
40
1
40
1
40
1
40
1
41
1
10
17.1888381643215
20
-0.370549138310992
30
0
41
1
10
17.0617227612165
20
-0.302454500732353
30
0
41
1
10
16.9353548291321
20
-0.233466698404584
30
0
41
1
10
16.7466919308442
20
-0.12907490658705
30
0
41
1
10
16.6839180448926
20
-0.0941910644751829
30
0
41
1
10
16.5583552964582
20
-0.0246976284090863
30
0
41
1
10
16.4955949189
20
0.0099655687378686
30
0
41
1
10
16.3074634010483
20
0.113868935355868
30
0
41
1
10
16.1821954933643
20
0.182937575245745
30
0
41
1
10
15.9943618236349
20
0.285932917017703
30
0
41
1
10
15.9317486504843
20
0.320138356431528
30
0
41
1
10
15.8062298938217
20
0.387773764507472
30
0
41
1
10
15.7433360605361
20
0.421225758523832
30
0
41
1
10
15.5543614820436
20
0.520683535463576
30
0
41
1
10
15.4279579325713
20
0.58573811286891
30
0
41
1
10
15.237533069469
20
0.681076869702594
30
0
41
1
10
15.1742505348007
20
0.712325698119798
30
0
41
1
10
15.0478917899619
20
0.77323530206931
30
0
41
1
10
14.9847844008685
20
0.802890722615132
30
0
41
1
10
14.7957779658651
20
0.889686003468057
30
0
41
1
10
14.6701963805873
20
0.944658233364976
30
0
41
1
10
14.4822839140405
20
1.02253262755818
30
0
41
1
10
14.4197412348519
20
1.0477463963208
30
0
41
1
10
14.2945809802958
20
1.09633075452456
30
0
41
1
10
14.2319332256216
20
1.1196669392402
30
0
41
1
10
14.0438272608373
20
1.18689166405892
30
0
41
1
10
13.9182659488074
20
1.2280720325484
30
0
41
1
10
13.7295177036574
20
1.28408537157316
30
0
41
1
10
13.6665541239989
20
1.3018123989344
30
0
41
1
10
13.5403171590849
20
1.33513905374198
30
0
41
1
10
13.4770059327476
20
1.35070688052303
30
0
41
1
10
13.3817135940087
20
1.37238483565631
30
0
41
1
10
13.3499226882913
20
1.37932976840622
30
0
41
1
10
13.2864815324539
20
1.39262578300532
30
0
41
1
10
13.1914475033161
20
1.41169424414255
30
0
41
1
10
13.09676390384
20
1.42813455268617
30
0
41
1
10
12.9708094223395
20
1.44771951862276
30
0
41
1
10
12.9079939979281
20
1.45634999616647
30
0
41
1
10
12.7825264121044
20
1.47121192205697
30
0
41
1
10
12.7198364422704
20
1.47742908190247
30
0
41
1
10
12.5317043063563
20
1.49244887604519
30
0
41
1
10
12.406358609935
20
1.49768486623992
30
0
41
1
10
12.2751932771479
20
1.49814330809937
30
0
41
1
10
12.2693650331727
20
1.49815326257735
30
0
41
1
10
12.2635368409365
20
1.49815278776003
30
0
0
SPLINE
5
BD
100
AcDbEntity
8
1
62
256
6
ByLayer
370
18
48
1
60
0
100
AcDbSpline
70
4
71
3
72
14
73
10
40
0
40
0
40
0
40
0
40
0.0298326346588192
40
0.0298326346588192
40
0.272374475994118
40
0.272374475994118
40
0.514916317329419
40
0.514916317329419
40
1
40
1
40
1
40
1
41
1
10
5.88390295780513
20
-1.05843625579186
30
0
41
1
10
5.87611536774946
20
-1.06148394571693
30
0
41
1
10
5.86832601450411
20
-1.06452023177576
30
0
41
1
10
5.79719219725087
20
-1.09213709132894
30
0
41
1
10
5.73366041583063
20
-1.11596744682942
30
0
41
1
10
5.60668630979379
20
-1.16149219596011
30
0
41
1
10
5.54318866234502
20
-1.18322950761521
30
0
41
1
10
5.35263704614201
20
-1.24538330201105
30
0
41
1
10
5.22550468835883
20
-1.28276862496301
30
0
41
1
10
5.09873110616792
20
-1.31637481523524
30
0
0
SPLINE
5
BE
100
AcDbEntity
8
1
62
256
6
ByLayer
370
18
48
1
60
0
100
AcDbSpline
70
4
71
3
72
36
73
32
40
0
40
0
40
0
40
0
40
0.129962951826177
40
0.129962951826177
40
0.194944427739266
40
0.194944427739266
40
0.259925903652354
40
0.259925903652354
40
0.324907379565443
40
0.324907379565443
40
0.389888855478531
40
0.389888855478531
40
0.45487033139162
40
0.45487033139162
40
0.519851807304708
40
0.519851807304708
40
0.584833283217797
40
0.584833283217797
40
0.649814759130885
40
0.649814759130885
40
0.714796235043974
40
0.714796235043974
40
0.779777710957062
40
0.779777710957062
40
0.844759186870151
40
0.844759186870151
40
0.909740662783239
40
0.909740662783239
40
0.974722138696328
40
0.974722138696328
40
1
40
1
40
1
40
1
41
1
10
5.09873110616792
20
-0.71235658998279
30
0
41
1
10
5.22540304181473
20
-0.77493317879356
30
0
41
1
10
5.35209015512481
20
-0.833507574624321
30
0
41
1
10
5.54133719614782
20
-0.917124869220856
30
0
41
1
10
5.60428017141982
20
-0.944289768667431
30
0
41
1
10
5.72986934559813
20
-0.997212729579076
30
0
41
1
10
5.79250281992279
20
-1.02298412319143
30
0
41
1
10
5.91771975229801
20
-1.07275985230311
30
0
41
1
10
5.98030993501879
20
-1.09675620803293
30
0
41
1
10
6.10567398052362
20
-1.14272014830303
30
0
41
1
10
6.16847268967376
20
-1.16466370298571
30
0
41
1
10
6.29412241039398
20
-1.20671487542893
30
0
41
1
10
6.35695338999568
20
-1.22684279393437
30
0
41
1
10
6.48259492100573
20
-1.26529813634511
30
0
41
1
10
6.54538767661165
20
-1.28363959256478
30
0
41
1
10
6.67115202517709
20
-1.31826954316736
30
0
41
1
10
6.73413800143925
20
-1.33454433428094
30
0
41
1
10
6.86055943244099
20
-1.36480260964669
30
0
41
1
10
6.92402625979113
20
-1.37876896151812
30
0
41
1
10
7.05135245555354
20
-1.40446681331065
30
0
41
1
10
7.11483106943703
20
-1.416150720421
30
0
41
1
10
7.24134921970995
20
-1.43723694684672
30
0
41
1
10
7.3043762454121
20
-1.44664079921216
30
0
41
1
10
7.43013869487049
20
-1.46305950751173
30
0
41
1
10
7.49289383361847
20
-1.47006401131424
30
0
41
1
10
7.61840822814301
20
-1.48161048451308
30
0
41
1
10
7.68119130184104
20
-1.48615103257868
30
0
41
1
10
7.80679723959071
20
-1.49284100213893
30
0
41
1
10
7.86958108988495
20
-1.49499950978748
30
0
41
1
10
7.95667886486919
20
-1.49634567598454
30
0
41
1
10
7.98105917211828
20
-1.49654201084388
30
0
41
1
10
8.00543040191343
20
-1.49655600161162
30
0
0
SPLINE
5
BF
100
AcDbEntity
8
1
62
256
6
ByLayer
370
18
48
1
60
0
100
AcDbSpline
70
4
71
3
72
38
73
34
40
0
40
0
40
0
40
0
40
0.0514263861537908
40
0.0514263861537908
40
0.0853040152197271
40
0.0853040152197271
40
0.119181644285663
40
0.119181644285663
40
0.186936902417535
40
0.186936902417535
40
0.254692160549407
40
0.254692160549407
40
0.322447418681279
40
0.322447418681279
40
0.390202676813151
40
0.390202676813151
40
0.457957934945023
40
0.457957934945023
40
0.525713193076895
40
0.525713193076895
40
0.593468451208768
40
0.593468451208768
40
0.66122370934064
40
0.66122370934064
40
0.728978967472512
40
0.728978967472512
40
0.796734225604384
40
0.796734225604384
40
0.864489483736256
40
0.864489483736256
40
0.932244741868128
40
0.932244741868128
40
1
40
1
40
1
40
1
41
1
10
14.3959632974708
20
1.06555587601687
30
0
41
1
10
14.443839412325
20
1.08434335199414
30
0
41
1
10
14.4917739010159
20
1.10268717656208
30
0
41
1
10
14.5714888729169
20
1.13222966374843
30
0
41
1
10
14.6032291537427
20
1.14374256903369
30
0
41
1
10
14.6666726186944
20
1.16621404972932
30
0
41
1
10
14.6983711322882
20
1.17716960181392
30
0
41
1
10
14.7934253434519
20
1.20918233157551
30
0
41
1
10
14.8567234967559
20
1.22941119248273
30
0
41
1
10
14.9829692037637
20
1.26791539039837
30
0
41
1
10
15.0459252556602
20
1.28617735466983
30
0
41
1
10
15.1714945668147
20
1.32070149865353
30
0
41
1
10
15.2341136985109
20
1.3369521808697
30
0
41
1
10
15.359309644351
20
1.36717698163628
30
0
41
1
10
15.4218878504464
20
1.38115151583966
30
0
41
1
10
15.5472230982228
20
1.40671785971347
30
0
41
1
10
15.609984665605
20
1.41831527492329
30
0
41
1
10
15.7354767913072
20
1.43929849462455
30
0
41
1
10
15.7982018485353
20
1.44868328192655
30
0
41
1
10
15.9236000910674
20
1.46519067418077
30
0
41
1
10
15.9862594624508
20
1.47231347327869
30
0
41
1
10
16.1117782305579
20
1.48414229951698
30
0
41
1
10
16.1746448700363
20
1.48884695934362
30
0
41
1
10
16.3008185848253
20
1.49579564152657
30
0
41
1
10
16.3641503711215
20
1.49804373361386
30
0
41
1
10
16.4911247556559
20
1.50011965114433
30
0
41
1
10
16.5547848893083
20
1.49994142829112
30
0
41
1
10
16.6816977309634
20
1.49710276947837
30
0
41
1
10
16.745008330285
20
1.49443785816464
30
0
41
1
10
16.8715859149483
20
1.48661350105408
30
0
41
1
10
16.9348670141033
20
1.48145689025358
30
0
41
1
10
17.0616631815578
20
1.46875156913532
30
0
41
1
10
17.1252087711004
20
1.46122077651054
30
0
41
1
10
17.1888381643215
20
1.45250737121307
30
0
0
SPLINE
5
C0
100
AcDbEntity
8
1
62
256
6
ByLayer
370
18
48
1
60
0
100
AcDbSpline
70
4
71
3
72
99
73
95
40
0
40
0
40
0
40
0
40
0.0041055287879137
40
0.0041055287879137
40
0.0244299057514233
40
0.0244299057514233
40
0.0650786596784444
40
0.0650786596784444
40
0.0854030366419558
40
0.0854030366419558
40
0.105727413605467
40
0.105727413605467
40
0.115889602087223
40
0.115889602087223
40
0.126051790568979
40
0.14637616753249
40
0.14637616753249
40
0.166700544496001
40
0.166700544496001
40
0.187024921459513
40
0.187024921459513
40
0.227673675386537
40
0.227673675386537
40
0.247998052350049
40
0.247998052350049
40
0.268322429313561
40
0.268322429313561
40
0.308971183240586
40
0.308971183240586
40
0.319133371722343
40
0.319133371722343
40
0.3292955602041
40
0.3292955602041
40
0.349619937167612
40
0.349619937167612
40
0.369944314131124
40
0.369944314131124
40
0.390268691094637
40
0.390268691094637
40
0.410593068058149
40
0.410593068058149
40
0.430917445021661
40
0.430917445021661
40
0.451241821985173
40
0.451241821985173
40
0.471566198948686
40
0.471566198948686
40
0.491890575912198
40
0.491890575912198
40
0.51221495287571
40
0.51221495287571
40
0.522377141357467
40
0.522377141357467
40
0.532539329839224
40
0.532539329839224
40
0.552863706802738
40
0.552863706802738
40
0.573188083766252
40
0.573188083766252
40
0.593512460729766
40
0.593512460729766
40
0.634161214656794
40
0.634161214656794
40
0.654485591620307
40
0.654485591620307
40
0.67480996858382
40
0.67480996858382
40
0.695134345547333
40
0.695134345547333
40
0.715458722510846
40
0.715458722510846
40
0.725620910992603
40
0.725620910992603
40
0.735783099474359
40
0.735783099474359
40
0.756107476437871
40
0.756107476437871
40
0.776431853401382
40
0.776431853401382
40
0.796756230364893
40
0.796756230364893
40
0.837404984291916
40
0.837404984291916
40
0.857729361255427
40
0.857729361255427
40
0.878053738218937
40
0.878053738218937
40
0.918702492145956
40
0.918702492145956
40
0.939026869109467
40
0.939026869109467
40
0.959351246072977
40
0.959351246072977
40
1
40
1
40
1
40
1
41
1
10
14.395081213597
20
-1.05720614513862
30
0
41
1
10
14.3824419795405
20
-1.06218691934123
30
0
41
1
10
14.3698023075748
20
-1.06713154969671
30
0
41
1
10
14.2945809802958
20
-1.09633075452456
30
0
41
1
10
14.2319332256216
20
-1.1196669392402
30
0
41
1
10
14.0438272608373
20
-1.18689166405889
30
0
41
1
10
13.9182659488074
20
-1.22807203254837
30
0
41
1
10
13.7295177036575
20
-1.28408537157316
30
0
41
1
10
13.6665541239989
20
-1.30181239893437
30
0
41
1
10
13.5403171590849
20
-1.33513905374201
30
0
41
1
10
13.4770059327476
20
-1.35070688052303
30
0
41
1
10
13.3817135940088
20
-1.37238483565631
30
0
41
1
10
13.3499226882913
20
-1.37932976840622
30
0
41
1
10
13.2864815324539
20
-1.39262578300532
30
0
41
1
10
13.1914475033161
20
-1.41169424414255
30
0
41
1
10
13.09676390384
20
-1.42813455268615
30
0
41
1
10
12.9708094223396
20
-1.44771951862276
30
0
41
1
10
12.9079939979281
20
-1.45634999616647
30
0
41
1
10
12.7825264121044
20
-1.47121192205697
30
0
41
1
10
12.7198364422704
20
-1.47742908190247
30
0
41
1
10
12.5317043063563
20
-1.49244887604519
30
0
41
1
10
12.406358609935
20
-1.49768486623992
30
0
41
1
10
12.2183531124511
20
-1.49834197271781
30
0
41
1
10
12.1556950751019
20
-1.49735672912109
30
0
41
1
10
12.030303581212
20
-1.49294561338638
30
0
41
1
10
11.967539652023
20
-1.48952062496502
30
0
41
1
10
11.7787226680038
20
-1.47566287802235
30
0
41
1
10
11.6523233435955
20
-1.46163784611719
30
0
41
1
10
11.4936182731184
20
-1.43797984037204
30
0
41
1
10
11.4618314762253
20
-1.43293909360165
30
0
41
1
10
11.3984203104512
20
-1.42227949239273
30
0
41
1
10
11.3667681303086
20
-1.41665554785766
30
0
41
1
10
11.271949618968
20
-1.39891603331577
30
0
41
1
10
11.2089089526158
20
-1.38593734538927
30
0
41
1
10
11.0828983104726
20
-1.35791265783681
30
0
41
1
10
11.0199506521864
20
-1.3428557849997
30
0
41
1
10
10.8942348630354
20
-1.31063337415574
30
0
41
1
10
10.8314576775215
20
-1.29347384801415
30
0
41
1
10
10.7060296330163
20
-1.25709477068347
30
0
41
1
10
10.6433818208494
20
-1.23787244181807
30
0
41
1
10
10.5181943817953
20
-1.19737069653104
30
0
41
1
10
10.4556502257402
20
-1.17609157811359
30
0
41
1
10
10.3303705231143
20
-1.13181075414943
30
0
41
1
10
10.2676342256458
20
-1.10881622776796
30
0
41
1
10
10.1420453352258
20
-1.06103755750939
30
0
41
1
10
10.0791925690949
20
-1.03625157826556
30
0
41
1
10
9.95332537082118
20
-0.984925786436321
30
0
41
1
10
9.8903137790646
20
-0.958382480383221
30
0
41
1
10
9.76410963953015
20
-0.90352914333414
30
0
41
1
10
9.70092854747705
20
-0.875197167269306
30
0
41
1
10
9.60582667905732
20
-0.831645985125732
30
0
41
1
10
9.5740384021168
20
-0.816947474684554
30
0
41
1
10
9.51054710533157
20
-0.787312439146945
30
0
41
1
10
9.47883365730314
20
-0.772368116341482
30
0
41
1
10
9.38380239852722
20
-0.727136623567475
30
0
41
1
10
9.32059986365519
20
-0.696440557734803
30
0
41
1
10
9.19445617543465
20
-0.634041761220772
30
0
41
1
10
9.13151553878456
20
-0.602338249912521
30
0
41
1
10
9.00587746715667
20
-0.537956437442375
30
0
41
1
10
8.94319801023144
20
-0.505245921426734
30
0
41
1
10
8.75521358628845
20
-0.406193531028663
30
0
41
1
10
8.62981181373192
20
-0.339206310009416
30
0
41
1
10
8.44170341120252
20
-0.237122574879521
30
0
41
1
10
8.37898823974984
20
-0.20284683110026
30
0
41
1
10
8.2535138795896
20
-0.133828848966658
30
0
41
1
10
8.19077258819274
20
-0.0990527454230801
30
0
41
1
10
8.06509526265069
20
-0.0293050507954149
30
0
41
1
10
8.00212061575212
20
0.0055936293283594
30
0
41
1
10
7.8758086962747
20
0.0752664801611331
30
0
41
1
10
7.81250146911782
20
0.110097444020852
30
0
41
1
10
7.71731517512904
20
0.162343960862017
30
0
41
1
10
7.68551952562683
20
0.17977074333362
30
0
41
1
10
7.621983946472
20
0.214534064850397
30
0
41
1
10
7.59026472288596
20
0.231859794332763
30
0
41
1
10
7.49524898122917
20
0.283663588275687
30
0
41
1
10
7.43210821586646
20
0.317993874152847
30
0
41
1
10
7.30610149555031
20
0.386000297684149
30
0
41
1
10
7.24320004413943
20
0.419610550542131
30
0
41
1
10
7.11743292997619
20
0.485767284752569
30
0
41
1
10
7.05460011946789
20
0.518374398236602
30
0
41
1
10
6.86630060828611
20
0.614879489576538
30
0
41
1
10
6.74100348696209
20
0.677411513373841
30
0
41
1
10
6.55319320686564
20
0.76809362699683
30
0
41
1
10
6.49057823953856
20
0.797743850073317
30
0
41
1
10
6.36508041100581
20
0.855512329955104
30
0
41
1
10
6.30222573956996
20
0.88367724472144
30
0
41
1
10
6.11343168731796
20
0.966145266633731
30
0
41
1
10
5.9872202124109
20
1.01836097177724
30
0
41
1
10
5.79719219725087
20
1.09213709132891
30
0
41
1
10
5.73366041583066
20
1.11596744682942
30
0
41
1
10
5.60668630979379
20
1.16149219596011
30
0
41
1
10
5.54318866234502
20
1.18322950761521
30
0
41
1
10
5.35263704614204
20
1.24538330201105
30
0
41
1
10
5.22550468835883
20
1.28276862496301
30
0
41
1
10
5.09873110616792
20
1.31637481523524
30
0
0
SPLINE
5
C1
100
AcDbEntity
8
1
62
256
6
ByLayer
370
18
48
1
60
0
100
AcDbSpline
70
4
71
3
72
14
73
10
40
0
40
0
40
0
40
0
40
0.288122257998827
40
0.288122257998827
40
0.576244515997654
40
0.576244515997654
40
0.864366773996482
40
0.864366773996482
40
1
40
1
40
1
40
1
41
1
10
5.09873110616792
20
1.31637481523524
30
0
41
1
10
4.95634057959248
20
1.34857193451029
30
0
41
1
10
4.81503296821825
20
1.37691928313555
30
0
41
1
10
4.53427293850055
20
1.42514745709442
30
0
41
1
10
4.39481960773554
20
1.44503412212728
30
0
41
1
10
4.11754356390597
20
1.47544331240289
30
0
41
1
10
3.97971925385244
20
1.48597621278589
30
0
41
1
10
3.77813774407645
20
1.49364989476228
30
0
41
1
10
3.71378514316317
20
1.49493320538323
30
0
41
1
10
3.64960613471001
20
1.49493211405493
30
0
0
SPLINE
5
C2
100
AcDbEntity
8
1
62
256
6
ByLayer
370
18
48
1
60
0
100
AcDbSpline
70
4
71
3
72
118
73
114
40
0
40
0
40
0
40
0
40
0.0149670210723034
40
0.0149670210723034
40
0.032742586646019
40
0.032742586646019
40
0.0505181522197347
40
0.0505181522197347
40
0.0682937177934504
40
0.0682937177934504
40
0.086069283367166
40
0.086069283367166
40
0.103844848940882
40
0.103844848940882
40
0.121620414514597
40
0.121620414514597
40
0.139395980088313
40
0.139395980088313
40
0.157171545662029
40
0.157171545662029
40
0.174947111235744
40
0.174947111235744
40
0.19272267680946
40
0.19272267680946
40
0.210498242383176
40
0.210498242383176
40
0.228273807956891
40
0.228273807956891
40
0.246049373530607
40
0.246049373530607
40
0.263824939104323
40
0.263824939104323
40
0.281600504678038
40
0.281600504678038
40
0.299376070251754
40
0.299376070251754
40
0.317151635825469
40
0.317151635825469
40
0.334927201399185
40
0.334927201399185
40
0.352702766972901
40
0.352702766972901
40
0.388253898120334
40
0.388253898120334
40
0.40602946369405
40
0.40602946369405
40
0.423805029267766
40
0.423805029267766
40
0.459356160415199
40
0.459356160415199
40
0.468243943202058
40
0.468243943202058
40
0.477131725988917
40
0.477131725988917
40
0.494907291562635
40
0.494907291562635
40
0.530458422710072
40
0.530458422710072
40
0.548233988283791
40
0.548233988283791
40
0.56600955385751
40
0.56600955385751
40
0.601560685004947
40
0.601560685004947
40
0.619336250578666
40
0.619336250578666
40
0.637111816152384
40
0.637111816152384
40
0.645999598939244
40
0.645999598939244
40
0.654887381726103
40
0.654887381726103
40
0.672662947299822
40
0.672662947299822
40
0.69043851287354
40
0.69043851287354
40
0.708214078447259
40
0.708214078447259
40
0.725989644020978
40
0.725989644020978
40
0.743765209594696
40
0.743765209594696
40
0.761540775168415
40
0.761540775168415
40
0.779316340742134
40
0.779316340742134
40
0.797091906315852
40
0.797091906315852
40
0.814867471889571
40
0.814867471889571
40
0.82375525467643
40
0.82375525467643
40
0.83264303746329
40
0.83264303746329
40
0.850418603037008
40
0.850418603037008
40
0.868194168610727
40
0.868194168610727
40
0.885969734184446
40
0.885969734184446
40
0.903745299758164
40
0.903745299758164
40
0.921520865331883
40
0.921520865331883
40
0.939296430905602
40
0.939296430905602
40
0.95707199647932
40
0.95707199647932
40
0.974847562053039
40
0.974847562053039
40
0.992623127626758
40
0.992623127626758
40
1
40
1
40
1
40
1
41
1
10
5.88478681847658
20
1.05960160534929
30
0
41
1
10
5.9375005789434
20
1.08031739137874
30
0
41
1
10
5.99021371274154
20
1.10038736596073
30
0
41
1
10
6.10567398052359
20
1.14272014830303
30
0
41
1
10
6.16847268967376
20
1.16466370298571
30
0
41
1
10
6.29412241039398
20
1.20671487542893
30
0
41
1
10
6.35695338999565
20
1.22684279393437
30
0
41
1
10
6.48259492100573
20
1.26529813634511
30
0
41
1
10
6.54538767661165
20
1.28363959256478
30
0
41
1
10
6.67115202517709
20
1.31826954316736
30
0
41
1
10
6.73413800143925
20
1.33454433428094
30
0
41
1
10
6.86055943244099
20
1.36480260964669
30
0
41
1
10
6.92402625979111
20
1.37876896151812
30
0
41
1
10
7.05135245555354
20
1.40446681331065
30
0
41
1
10
7.11483106943703
20
1.416150720421
30
0
41
1
10
7.24134921970995
20
1.43723694684672
30
0
41
1
10
7.3043762454121
20
1.44664079921216
30
0
41
1
10
7.43013869487046
20
1.46305950751173
30
0
41
1
10
7.49289383361847
20
1.47006401131424
30
0
41
1
10
7.61840822814298
20
1.48161048451308
30
0
41
1
10
7.68119130184101
20
1.4861510325787
30
0
41
1
10
7.80679723959071
20
1.49284100213893
30
0
41
1
10
7.86958108988492
20
1.49499950978748
30
0
41
1
10
7.99499175966713
20
1.49693783260278
30
0
41
1
10
8.05761691547127
20
1.49671304888804
30
0
41
1
10
8.18281068015062
20
1.4938187091854
30
0
41
1
10
8.24540298607451
20
1.4911473038425
30
0
41
1
10
8.37085160068023
20
1.4833922796133
30
0
41
1
10
8.43372022764481
20
1.47831510150647
30
0
41
1
10
8.55983722920504
20
1.46583000802363
30
0
41
1
10
8.62304554531366
20
1.45841431929267
30
0
41
1
10
8.74959760903042
20
1.4411302626863
30
0
41
1
10
8.81294951219613
20
1.43126113614341
30
0
41
1
10
8.93985686454846
20
1.40899763211848
30
0
41
1
10
9.00315141351638
20
1.39665984086463
30
0
41
1
10
9.12946860908556
20
1.36983837850201
30
0
41
1
10
9.19253405817176
20
1.35535329462974
30
0
41
1
10
9.31864976079484
20
1.32444299352537
30
0
41
1
10
9.38166842595194
20
1.30799738962395
30
0
41
1
10
9.50742879000694
20
1.27296555045967
30
0
41
1
10
9.57018143674816
20
1.25438618253364
30
0
41
1
10
9.75805902778336
20
1.19541087843348
30
0
41
1
10
9.88289626139056
20
1.15182131628441
30
0
41
1
10
10.0710424155621
20
1.08186063329282
30
0
41
1
10
10.1338866819443
20
1.05777038588747
30
0
41
1
10
10.259613288771
20
1.00777187938428
30
0
41
1
10
10.3224971014511
20
0.981862160557057
30
0
41
1
10
10.5112015730889
20
0.901307519051926
30
0
41
1
10
10.6370814327356
20
0.843786405273846
30
0
41
1
10
10.7958320168281
20
0.769049487751602
30
0
41
1
10
10.8276516335922
20
0.753965566618263
30
0
41
1
10
10.8911721059594
20
0.723605469664022
30
0
41
1
10
10.9229019993638
20
0.708313544146762
30
0
41
1
10
11.0179609451828
20
0.66203615046976
30
0
41
1
10
11.081149342533
20
0.630632156480402
30
0
41
1
10
11.2701344131323
20
0.534710922539546
30
0
41
1
10
11.3952866253791
20
0.468358502967334
30
0
41
1
10
11.5833335336922
20
0.368014807321288
30
0
41
1
10
11.6460913990064
20
0.334475195584417
30
0
41
1
10
11.7716071254006
20
0.26695103941347
30
0
41
1
10
11.8343394530049
20
0.232919909263387
30
0
41
1
10
12.022384546844
20
0.129871209356139
30
0
41
1
10
12.1474432473208
20
0.0596974140467239
30
0
41
1
10
12.3360816110113
20
-0.0450051598120069
30
0
41
1
10
12.3991637221961
20
-0.0797575447437566
30
0
41
1
10
12.5256752954903
20
-0.14906928860475
30
0
41
1
10
12.5890683177316
20
-0.183697943534923
30
0
41
1
10
12.6842975503322
20
-0.235736645249006
30
0
41
1
10
12.7160875120543
20
-0.253104558025626
30
0
41
1
10
12.7794895888662
20
-0.287737875503581
30
0
41
1
10
12.8111263971563
20
-0.30501567635315
30
0
41
1
10
12.9058974487146
20
-0.356630339971304
30
0
41
1
10
12.968896338938
20
-0.390739323392921
30
0
41
1
10
13.0947984447258
20
-0.457885528454057
30
0
41
1
10
13.1577210903498
20
-0.49089014885169
30
0
41
1
10
13.283547065384
20
-0.555738173051225
30
0
41
1
10
13.3464098832727
20
-0.587654153471561
30
0
41
1
10
13.4718946738447
20
-0.650709390983707
30
0
41
1
10
13.5345197091674
20
-0.681841235370911
30
0
41
1
10
13.6596078070106
20
-0.743169291388426
30
0
41
1
10
13.7220943823332
20
-0.773325253848014
30
0
41
1
10
13.8472300560159
20
-0.83218114677797
30
0
41
1
10
13.9098866354164
20
-0.860870942519398
30
0
41
1
10
14.035509127243
20
-0.916598598612723
30
0
41
1
10
14.0984383551869
20
-0.943694662635124
30
0
41
1
10
14.2243467763326
20
-0.996612303752357
30
0
41
1
10
14.2873367408693
20
-1.02241634182312
30
0
41
1
10
14.4134115071856
20
-1.07264049323058
30
0
41
1
10
14.4765148822282
20
-1.09703216149697
30
0
41
1
10
14.5714888729169
20
-1.13222966374843
30
0
41
1
10
14.6032291537427
20
-1.14374256903369
30
0
41
1
10
14.6666726186944
20
-1.16621404972932
30
0
41
1
10
14.6983711322882
20
-1.17716960181392
30
0
41
1
10
14.7934253434519
20
-1.20918233157551
30
0
41
1
10
14.8567234967559
20
-1.22941119248273
30
0
41
1
10
14.9829692037637
20
-1.26791539039837
30
0
41
1
10
15.0459252556602
20
-1.28617735466983
30
0
41
1
10
15.1714945668147
20
-1.32070149865353
30
0
41
1
10
15.2341136985109
20
-1.3369521808697
30
0
41
1
10
15.359309644351
20
-1.36717698163628
30
0
41
1
10
15.4218878504464
20
-1.38115151583966
30
0
41
1
10
15.5472230982228
20
-1.40671785971347
30
0
41
1
10
15.609984665605
20
-1.41831527492329
30
0
41
1
10
15.7354767913071
20
-1.43929849462455
30
0
41
1
10
15.7982018485353
20
-1.44868328192655
30
0
41
1
10
15.9236000910674
20
-1.46519067418077
30
0
41
1
10
15.9862594624507
20
-1.47231347327869
30
0
41
1
10
16.1117782305579
20
-1.48414229951698
30
0
41
1
10
16.1746448700363
20
-1.48884695934362
30
0
41
1
10
16.3008185848253
20
-1.49579564152657
30
0
41
1
10
16.3641503711215
20
-1.49804373361386
30
0
41
1
10
16.4539847933966
20
-1.49951244600592
30
0
41
1
10
16.4803618083368
20
-1.49973374203461
30
0
41
1
10
16.506741687323
20
-1.49974379898671
30
0
0
SPLINE
5
C3
100
AcDbEntity
8
1
62
256
6
ByLayer
370
18
48
1
60
0
100
AcDbSpline
70
4
71
5
72
84
73
78
40
0
40
0
40
0
40
0
40
0
40
0
40
0.0024293638414277
40
0.0380962399772731
40
0.0738340991795212
40
0.10964279870248
40
0.145517009512923
40
0.181453818304378
40
0.217450402004596
40
0.253503887334874
40
0.289612936442199
40
0.325763501517976
40
0.361822568440581
40
0.397413638085802
40
0.428141636307701
40
0.444880560342565
40
0.448927721579328
40
0.45086490907043
40
0.452802096561532
40
0.45389750340462
40
0.454511595119685
40
0.456221093677838
40
0.457732909689677
40
0.459244725701515
40
0.460600055641434
40
0.465688511294339
40
0.466311003919511
40
0.467417651748334
40
0.468524299577156
40
0.469715082478285
40
0.470674645398613
40
0.470905865379414
40
0.47339363086481
40
0.476113682233383
40
0.481046055889719
40
0.48592896506966
40
0.491566826672019
40
0.497398824258052
40
0.503153342010746
40
0.505556925878774
40
0.508100381235459
40
0.50875905392922
40
0.509356738410594
40
0.51061309558573
40
0.512009349128442
40
0.513405602671153
40
0.515471357897849
40
0.517932683274337
40
0.520289705889818
40
0.522646728505299
40
0.52500375112078
40
0.52736077373626
40
0.531585719370145
40
0.535810665004028
40
0.538353836162289
40
0.544260556271796
40
0.58413698840987
40
0.619126008731612
40
0.646874317511228
40
0.673135081097484
40
0.698181426296031
40
0.722140607245233
40
0.745273151320218
40
0.767991090520103
40
0.790590054590026
40
0.813036032050592
40
0.83494132529332
40
0.856448502860428
40
0.877963464023103
40
0.899436748542405
40
0.920850642664531
40
0.942200425281695
40
0.963481561209864
40
0.984687118860089
40
1
40
1
40
1
40
1
40
1
40
1
41
1
10
5.09873110616792
20
-1.31637481525075
30
0
41
1
10
5.09873110616792
20
-1.31520651316225
30
0
41
1
10
5.09873110616792
20
-1.29688896462778
30
0
41
1
10
5.09873110616792
20
-1.26148697220702
30
0
41
1
10
5.09873110616792
20
-1.209199640967
30
0
41
1
10
5.09873110616792
20
-1.14036130252276
30
0
41
1
10
5.09873110616792
20
-1.05655706517382
30
0
41
1
10
5.09873110616789
20
-0.973481420387117
30
0
41
1
10
5.09873110616792
20
-0.891137957307365
30
0
41
1
10
5.09873110616792
20
-0.809535764533848
30
0
41
1
10
5.09873110616792
20
-0.728681874250498
30
0
41
1
10
5.09873110616792
20
-0.648651896943704
30
0
41
1
10
5.09873110616786
20
-0.569665648200072
30
0
41
1
10
5.09873110616797
20
-0.493872436300109
30
0
41
1
10
5.09873110616789
20
-0.427166799362624
30
0
41
1
10
5.09873110616789
20
-0.374832753822744
30
0
41
1
10
5.09873110616792
20
-0.337409250236021
30
0
41
1
10
5.09873110616792
20
-0.314139188801391
30
0
41
1
10
5.09873110616792
20
-0.30330828397237
30
0
41
1
10
5.09873110616792
20
-0.299260803187366
30
0
41
1
10
5.09873110616792
20
-0.296198148084216
30
0
41
1
10
5.09873110616792
20
-0.293318027918616
30
0
41
1
10
5.09873110616792
20
-0.290621577303881
30
0
41
1
10
5.09873110616792
20
-0.287825826664317
30
0
41
1
10
5.09873110616792
20
-0.283193127228884
30
0
41
1
10
5.09873110616792
20
-0.279073385533962
30
0
41
1
10
5.09873110616792
20
-0.275210108074958
30
0
41
1
10
5.09873110616792
20
-0.271624319864372
30
0
41
1
10
5.09873110616795
20
-0.26823819435711
30
0
41
1
10
5.09873110616795
20
-0.266426269469179
30
0
41
1
10
5.09873110616795
20
-0.264799097005181
30
0
41
1
10
5.09873110616797
20
-0.262728718498778
30
0
41
1
10
5.09873110616797
20
-0.260182642548642
30
0
41
1
10
5.098731106168
20
-0.256549438944518
30
0
41
1
10
5.098731106168
20
-0.252037040140209
30
0
41
1
10
5.09873110616797
20
-0.246688034011157
30
0
41
1
10
5.09873110616792
20
-0.241568629052892
30
0
41
1
10
5.09873110616792
20
-0.237280642724414
30
0
41
1
10
5.09873110616789
20
-0.234813284780728
30
0
41
1
10
5.09873110616786
20
-0.233757207824965
30
0
41
1
10
5.09873110616786
20
-0.233722308435233
30
0
41
1
10
5.09873110616789
20
-0.234073126718755
30
0
41
1
10
5.09873110616789
20
-0.23441867495373
30
0
41
1
10
5.09873110616789
20
-0.234805162662326
30
0
41
1
10
5.09873110616789
20
-0.235177951258635
30
0
41
1
10
5.09873110616789
20
-0.23572984959614
30
0
41
1
10
5.09873110616789
20
-0.23656222341603
30
0
41
1
10
5.09873110616789
20
-0.237654537885163
30
0
41
1
10
5.09873110616792
20
-0.239011123522488
30
0
41
1
10
5.09873110616792
20
-0.240634204197221
30
0
41
1
10
5.09873110616792
20
-0.242397235780885
30
0
41
1
10
5.09873110616792
20
-0.244485281445549
30
0
41
1
10
5.09873110616792
20
-0.246898074588472
30
0
41
1
10
5.09873110616792
20
-0.249347096810197
30
0
41
1
10
5.09873110616792
20
-0.252339204115827
30
0
41
1
10
5.09873110616792
20
-0.261113140699251
30
0
41
1
10
5.09873110616792
20
-0.274413731687474
30
0
41
1
10
5.09873110616789
20
-0.291293866119389
30
0
41
1
10
5.09873110616797
20
-0.311890826457983
30
0
41
1
10
5.09873110616786
20
-0.335344375935847
30
0
41
1
10
5.09873110616792
20
-0.356456237485133
30
0
41
1
10
5.09873110616786
20
-0.375679694140246
30
0
41
1
10
5.09873110616795
20
-0.394293061003452
30
0
41
1
10
5.09873110616789
20
-0.411998618677842
30
0
41
1
10
5.09873110616792
20
-0.430071015877388
30
0
41
1
10
5.09873110616792
20
-0.449858368650581
30
0
41
1
10
5.09873110616789
20
-0.470846071191886
30
0
41
1
10
5.09873110616792
20
-0.493332458131761
30
0
41
1
10
5.09873110616792
20
-0.517096965905552
30
0
41
1
10
5.09873110616786
20
-0.54202418053805
30
0
41
1
10
5.09873110616792
20
-0.568206759375641
30
0
41
1
10
5.09873110616789
20
-0.595720197115014
30
0
41
1
10
5.09873110616792
20
-0.624538248393378
30
0
41
1
10
5.09873110616792
20
-0.653003688586722
30
0
41
1
10
5.09873110616789
20
-0.676376865282634
30
0
41
1
10
5.09873110616792
20
-0.693967553676202
30
0
41
1
10
5.09873110616792
20
-0.705292303038817
30
0
41
1
10
5.09873110616792
20
-0.710078201720989
30
0
0
SPLINE
5
C4
100
AcDbEntity
8
1
62
256
6
ByLayer
370
18
48
1
60
0
100
AcDbSpline
70
4
71
3
72
103
73
99
40
0
40
0
40
0
40
0
40
0.0624999999999994
40
0.0624999999999994
40
0.124999999999999
40
0.124999999999999
40
0.187499999999998
40
0.187499999999998
40
0.249999999999998
40
0.249999999999998
40
0.281249999999998
40
0.281249999999998
40
0.296874999999998
40
0.296874999999998
40
0.312499999999998
40
0.312499999999998
40
0.343749999999999
40
0.343749999999999
40
0.375
40
0.375
40
0.406250000000001
40
0.406250000000001
40
0.421875000000002
40
0.421875000000002
40
0.437500000000002
40
0.437500000000002
40
0.453125000000003
40
0.453125000000003
40
0.460937500000003
40
0.460937500000003
40
0.468750000000003
40
0.468750000000003
40
0.484375000000003
40
0.484375000000003
40
0.492187500000004
40
0.492187500000004
40
0.500000000000004
40
0.500000000000004
40
0.515625000000005
40
0.515625000000005
40
0.519531250000006
40
0.519531250000006
40
0.523437500000006
40
0.523437500000006
40
0.531250000000007
40
0.539062500000007
40
0.539062500000007
40
0.546875000000008
40
0.546875000000008
40
0.56250000000001
40
0.56250000000001
40
0.57031250000001
40
0.57031250000001
40
0.578125000000011
40
0.578125000000011
40
0.593750000000012
40
0.593750000000012
40
0.609375000000013
40
0.609375000000013
40
0.625000000000014
40
0.625000000000014
40
0.640625000000015
40
0.640625000000015
40
0.644531250000015
40
0.644531250000015
40
0.648437500000016
40
0.648437500000016
40
0.652343750000016
40
0.652343750000016
40
0.656250000000016
40
0.656250000000016
40
0.664062500000017
40
0.664062500000017
40
0.667968750000017
40
0.667968750000017
40
0.671875000000017
40
0.671875000000017
40
0.675781250000018
40
0.675781250000018
40
0.679687500000018
40
0.679687500000018
40
0.687500000000018
40
0.687500000000018
40
0.718750000000016
40
0.718750000000016
40
0.750000000000015
40
0.750000000000015
40
0.812500000000008
40
0.812500000000008
40
0.828125000000006
40
0.828125000000006
40
0.843750000000004
40
0.843750000000004
40
0.875000000000002
40
0.875000000000002
40
0.937500000000001
40
0.937500000000001
40
1
40
1
40
1
40
1
41
1
10
5.09873110616792
20
-1.31637481523524
30
0
41
1
10
4.95634057959427
20
-1.34857193450989
30
0
41
1
10
4.8150329682218
20
-1.37691928313484
30
0
41
1
10
4.53427293850768
20
-1.42514745709329
30
0
41
1
10
4.39481960774452
20
-1.44503412212609
30
0
41
1
10
4.1175435639185
20
-1.47544331240175
30
0
41
1
10
3.97971925386676
20
-1.48597621278492
30
0
41
1
10
3.70559834235365
20
-1.49641128046818
30
0
41
1
10
3.56929803861919
20
-1.49633633358289
30
0
41
1
10
3.36606170895132
20
-1.48668102661978
30
0
41
1
10
3.29852038833869
20
-1.48186402099154
30
0
41
1
10
3.19754813547749
20
-1.47191819025937
30
0
41
1
10
3.16394755249428
20
-1.4681484184124
30
0
41
1
10
3.09686891045027
20
-1.45962882338833
30
0
41
1
10
3.06334495872491
20
-1.45487105178927
30
0
41
1
10
2.96348553175622
20
-1.43908289008476
30
0
41
1
10
2.89777145863354
20
-1.42654166582059
30
0
41
1
10
2.76836368435284
20
-1.39678217681961
30
0
41
1
10
2.70466579048971
20
-1.37957202106196
30
0
41
1
10
2.57979080474124
20
-1.33945225803831
30
0
41
1
10
2.51860331849605
20
-1.31656258993956
30
0
41
1
10
2.42938773500188
20
-1.27661258346177
30
0
41
1
10
2.40003813275044
20
-1.26232411308314
30
0
41
1
10
2.34292093557332
20
-1.23178779944232
30
0
41
1
10
2.31509551317302
20
-1.21551963312211
30
0
41
1
10
2.26121225703801
20
-1.18061372459979
30
0
41
1
10
2.23515172733733
20
-1.16197922591772
30
0
41
1
10
2.19772007494106
20
-1.13184324407763
30
0
41
1
10
2.18555013411182
20
-1.12145305228296
30
0
41
1
10
2.16202972567919
20
-1.10003724640515
30
0
41
1
10
2.15065897737222
20
-1.08899575239272
30
0
41
1
10
2.11784164115554
20
-1.05477249553539
30
0
41
1
10
2.09767585966449
20
-1.03050281216142
30
0
41
1
10
2.07070168182392
20
-0.991371160951786
30
0
41
1
10
2.06225907122382
20
-0.977870419696643
30
0
41
1
10
2.04664111901349
20
-0.949824216765307
30
0
41
1
10
2.03944354177133
20
-0.935211942134259
30
0
41
1
10
2.02042081491948
20
-0.890436670813557
30
0
41
1
10
2.01102515122463
20
-0.859169874903046
30
0
41
1
10
2.0041529517157
20
-0.818040642051585
30
0
41
1
10
2.00302332643778
20
-0.809712064876578
30
0
41
1
10
2.00127817785375
20
-0.792840594089427
30
0
41
1
10
2.00066420311782
20
-0.784287156090272
30
0
41
1
10
1.99963614756203
20
-0.758636213335734
30
0
41
1
10
2.00040608601824
20
-0.724245829149794
30
0
41
1
10
2.00540210226174
20
-0.689500333673351
30
0
41
1
10
2.01249323277594
20
-0.654587655679649
30
0
41
1
10
2.0171034684486
20
-0.6369952538017
30
0
41
1
10
2.03395246542755
20
-0.584323087996665
30
0
41
1
10
2.04890575890011
20
-0.550144231125728
30
0
41
1
10
2.07592304663078
20
-0.50006279485342
30
0
41
1
10
2.08572596590724
20
-0.483524019083461
30
0
41
1
10
2.10661726805864
20
-0.451013584565004
30
0
41
1
10
2.11763506594019
20
-0.435142164859087
30
0
41
1
10
2.15217510714612
20
-0.388529521185973
30
0
41
1
10
2.17717361092491
20
-0.358783227456627
30
0
41
1
10
2.23025051771109
20
-0.30138293303483
30
0
41
1
10
2.258345511805
20
-0.273723709464719
30
0
41
1
10
2.31702562243015
20
-0.220177896773322
30
0
41
1
10
2.34735394745019
20
-0.194512983073821
30
0
41
1
10
2.40961721431287
20
-0.144991843660023
30
0
41
1
10
2.44163032025489
20
-0.121182614005505
30
0
41
1
10
2.48223905435935
20
-0.0922144422293911
30
0
41
1
10
2.49038541100677
20
-0.0864567957370355
30
0
41
1
10
2.506721883197
20
-0.0750052306642317
30
0
41
1
10
2.51489844000517
20
-0.0692904705616684
30
0
41
1
10
2.53148701285238
20
-0.0582192436017124
30
0
41
1
10
2.53993063752765
20
-0.0529112724752849
30
0
41
1
10
2.55770054124497
20
-0.0436490459314882
30
0
41
1
10
2.56710330299822
20
-0.0396849901609926
30
0
41
1
10
2.59555413947604
20
-0.030054429844995
30
0
41
1
10
2.61505185309875
20
-0.0262774924851499
30
0
41
1
10
2.64480387282919
20
-0.0231320524505918
30
0
41
1
10
2.65485144666118
20
-0.0225272644031236
30
0
41
1
10
2.67491113188123
20
-0.0221612623028022
30
0
41
1
10
2.68488596260505
20
-0.0223977888343825
30
0
41
1
10
2.70473134955324
20
-0.0236660326168021
30
0
41
1
10
2.71460142401455
20
-0.0247014235005736
30
0
41
1
10
2.73424107244023
20
-0.027538528353432
30
0
41
1
10
2.74400918368886
20
-0.0293513934561531
30
0
41
1
10
2.77321127585751
20
-0.0355693714373615
30
0
41
1
10
2.79256292984576
20
-0.0406151429039312
30
0
41
1
10
2.88934556427404
20
-0.0652219465193298
30
0
41
1
10
2.96686419933559
20
-0.0845092599341797
30
0
41
1
10
3.12186383671033
20
-0.123178054382038
30
0
41
1
10
3.19935797325789
20
-0.142506787679878
30
0
41
1
10
3.43185032431703
20
-0.200368485999917
30
0
41
1
10
3.58681375266426
20
-0.238851816569138
30
0
41
1
10
3.78037138162569
20
-0.286688111711783
30
0
41
1
10
3.81906563045607
20
-0.296279874445048
30
0
41
1
10
3.89627923021274
20
-0.315938549463766
30
0
41
1
10
3.93479092390805
20
-0.32602862926467
30
0
41
1
10
4.04998889766108
20
-0.35722137342168
30
0
41
1
10
4.12638289937431
20
-0.379109502312559
30
0
41
1
10
4.35442350080262
20
-0.447684619292659
30
0
41
1
10
4.50493293717099
20
-0.497268004331517
30
0
41
1
10
4.8034792930444
20
-0.601679839831291
30
0
41
1
10
4.95152108874089
20
-0.656490028089422
30
0
41
1
10
5.09873110616792
20
-0.712356589982761
30
0
0
LINE
5
7D
100
AcDbEntity
8
80
62
256
6
ByLayer
370
18
48
1
60
0
100
AcDbLine
10
0
20
0
30
0
11
-5
21
0
31
0
39
0
210
0
220
0
230
1
0
LINE
5
7E
100
AcDbEntity
8
4
62
256
6
ByLayer
370
18
48
0.05
60
0
100
AcDbLine
10
-5
20
0
30
0
11
23
21
0
31
0
39
0
210
0
220
0
230
1
0
LINE
5
80
100
AcDbEntity
8
81
62
256
6
ByLayer
370
18
48
1
60
0
100
AcDbLine
10
18
20
0
30
0
11
23
21
0
31
0
39
0
210
0
220
0
230
1
0
LINE
5
81
100
AcDbEntity
8
SK4
62
256
6
ByLayer
370
18
48
0.05
60
0
100
AcDbLine
10
-33
20
0
30
0
11
23
21
0
31
0
39
0
210
0
220
0
230
1
0
LINE
5
83
100
AcDbEntity
8
1
62
256
6
ByLayer
370
18
48
1
60
0
100
AcDbLine
10
0
20
1.5
30
0
11
0
21
-1.5
31
0
39
0
210
0
220
0
230
1
0
LINE
5
84
100
AcDbEntity
8
1
62
256
6
ByLayer
370
18
48
1
60
0
100
AcDbLine
10
17.188838
20
-1.5
30
0
11
17.188838
21
-0.370549
31
0
39
0
210
0
220
0
230
1
0
LINE
5
85
100
AcDbEntity
8
1
62
256
6
ByLayer
370
18
48
1
60
0
100
AcDbLine
10
17.188838
20
1.5
30
0
11
17.188838
21
1.452507
31
0
39
0
210
0
220
0
230
1
0
LINE
5
86
100
AcDbEntity
8
1
62
256
6
ByLayer
370
18
48
1
60
0
100
AcDbLine
10
0.1
20
-1.493592
30
0
11
0.1
21
1.493592
31
0
39
0
210
0
220
0
230
1
0
LINE
5
87
100
AcDbEntity
8
SK1
62
256
6
ByLayer
370
18
48
1
60
0
100
AcDbLine
10
-28
20
-1.2
30
0
11
-28
21
1.2
31
0
39
0
210
0
220
0
230
1
0
LINE
5
89
100
AcDbEntity
8
SK1
62
256
6
ByLayer
370
18
48
1
60
0
100
AcDbLine
10
-27.7
20
-1.5
30
0
11
-27.7
21
1.5
31
0
39
0
210
0
220
0
230
1
0
LINE
5
8A
100
AcDbEntity
8
SK1
62
256
6
ByLayer
370
18
48
1
60
0
100
AcDbLine
10
0
20
1.5
30
0
11
0
21
-1.5
31
0
39
0
210
0
220
0
230
1
0
LINE
5
8B
100
AcDbEntity
8
1
62
256
6
ByLayer
370
18
48
1
60
0
100
AcDbLine
10
18
20
0
30
0
11
17.188838
21
1.5
31
0
39
0
210
0
220
0
230
1
0
LINE
5
8C
100
AcDbEntity
8
1
62
256
6
ByLayer
370
18
48
1
60
0
100
AcDbLine
10
17.188838
20
-1.5
30
0
11
18
21
0
31
0
39
0
210
0
220
0
230
1
0
LINE
5
8D
100
AcDbEntity
8
1
62
256
6
ByLayer
370
18
48
1
60
0
100
AcDbLine
10
0.1
20
1.493592
30
0
11
0
21
1.5
31
0
39
0
210
0
220
0
230
1
0
LINE
5
8E
100
AcDbEntity
8
1
62
256
6
ByLayer
370
18
48
1
60
0
100
AcDbLine
10
0
20
-1.5
30
0
11
0.1
21
-1.493592
31
0
39
0
210
0
220
0
230
1
0
LINE
5
8F
100
AcDbEntity
8
1
62
256
6
ByLayer
370
18
48
1
60
0
100
AcDbLine
10
0.1
20
-1.493592
30
0
11
3.650345
21
-1.494923
31
0
39
0
210
0
220
0
230
1
0
LINE
5
90
100
AcDbEntity
8
1
62
256
6
ByLayer
370
18
48
1
60
0
100
AcDbLine
10
8.005592
20
-1.496556
30
0
11
12.263272
21
-1.498153
31
0
39
0
210
0
220
0
230
1
0
LINE
5
91
100
AcDbEntity
8
1
62
256
6
ByLayer
370
18
48
1
60
0
100
AcDbLine
10
16.506798
20
-1.499744
30
0
11
17.188838
21
-1.5
31
0
39
0
210
0
220
0
230
1
0
LINE
5
92
100
AcDbEntity
8
1
62
256
6
ByLayer
370
18
48
1
60
0
100
AcDbLine
10
17.188838
20
1.5
30
0
11
16.506798
21
1.499744
31
0
39
0
210
0
220
0
230
1
0
LINE
5
93
100
AcDbEntity
8
1
62
256
6
ByLayer
370
18
48
1
60
0
100
AcDbLine
10
12.263272
20
1.498153
30
0
11
8.005592
21
1.496556
31
0
39
0
210
0
220
0
230
1
0
LINE
5
94
100
AcDbEntity
8
1
62
256
6
ByLayer
370
18
48
1
60
0
100
AcDbLine
10
3.650345
20
1.494923
30
0
11
0.1
21
1.493592
31
0
39
0
210
0
220
0
230
1
0
LINE
5
95
100
AcDbEntity
8
SK1
62
256
6
ByLayer
370
18
48
1
60
0
100
AcDbLine
10
-28
20
-1.2
30
0
11
-27.7
21
-1.5
31
0
39
0
210
0
220
0
230
1
0
LINE
5
96
100
AcDbEntity
8
SK1
62
256
6
ByLayer
370
18
48
1
60
0
100
AcDbLine
10
-27.7
20
1.5
30
0
11
-28
21
1.2
31
0
39
0
210
0
220
0
230
1
0
LINE
5
97
100
AcDbEntity
8
SK1
62
256
6
ByLayer
370
18
48
1
60
0
100
AcDbLine
10
-27.7
20
-1.5
30
0
11
0
21
-1.5
31
0
39
0
210
0
220
0
230
1
0
LINE
5
98
100
AcDbEntity
8
SK1
62
256
6
ByLayer
370
18
48
1
60
0
100
AcDbLine
10
0
20
1.5
30
0
11
-27.7
21
1.5
31
0
39
0
210
0
220
0
230
1
0
LINE
5
99
100
AcDbEntity
8
SK2
62
256
6
ByLayer
370
13
48
1
60
0
100
AcDbLine
10
-34.5
20
28.282741
30
0
11
-34.5
21
-9
31
0
39
0
210
0
220
0
230
1
0
LINE
5
9B
100
AcDbEntity
8
SK2
62
256
6
ByLayer
370
13
48
1
60
0
100
AcDbLine
10
-29.5875
20
1.5
30
0
11
-36.5
21
1.5
31
0
39
0
210
0
220
0
230
1
0
LINE
5
9C
100
AcDbEntity
8
SK2
62
256
6
ByLayer
370
13
48
1
60
0
100
AcDbLine
10
-29.5875
20
-1.5
30
0
11
-36.5
21
-1.5
31
0
39
0
210
0
220
0
230
1
0
LINE
5
9D
100
AcDbEntity
8
1
62
256
6
ByLayer
370
18
48
1
60
1
100
AcDbLine
10
-34.5
20
1.5
30
0
11
-34.960784
21
4.999998
31
0
39
0
210
0
220
0
230
1
0
LINE
5
9E
100
AcDbEntity
8
1
62
256
6
ByLayer
370
18
48
1
60
1
100
AcDbLine
10
-34.960784
20
4.999998
30
0
11
-34.039216
21
5.000002
31
0
39
0
210
0
220
0
230
1
0
LINE
5
9F
100
AcDbEntity
8
1
62
256
6
ByLayer
370
18
48
1
60
1
100
AcDbLine
10
-34.039216
20
5.000002
30
0
11
-34.5
21
1.5
31
0
39
0
210
0
220
0
230
1
0
LINE
5
A0
100
AcDbEntity
8
1
62
256
6
ByLayer
370
18
48
1
60
1
100
AcDbLine
10
-34.5
20
-1.5
30
0
11
-34.039216
21
-4.999998
31
0
39
0
210
0
220
0
230
1
0
LINE
5
A1
100
AcDbEntity
8
1
62
256
6
ByLayer
370
18
48
1
60
1
100
AcDbLine
10
-34.039216
20
-4.999998
30
0
11
-34.960784
21
-5.000002
31
0
39
0
210
0
220
0
230
1
0
LINE
5
A2
100
AcDbEntity
8
1
62
256
6
ByLayer
370
18
48
1
60
1
100
AcDbLine
10
-34.960784
20
-5.000002
30
0
11
-34.5
21
-1.5
31
0
39
0
210
0
220
0
230
1
0
LINE
5
A3
100
AcDbEntity
8
2
62
256
6
ByLayer
370
13
48
1
60
0
100
AcDbLine
10
26.688838
20
28.282741
30
0
11
26.688838
21
-9
31
0
39
0
210
0
220
0
230
1
0
LINE
5
A5
100
AcDbEntity
8
2
62
256
6
ByLayer
370
13
48
1
60
0
100
AcDbLine
10
18.776338
20
1.5
30
0
11
28.688838
21
1.5
31
0
39
0
210
0
220
0
230
1
0
LINE
5
A6
100
AcDbEntity
8
2
62
256
6
ByLayer
370
13
48
1
60
0
100
AcDbLine
10
18.776338
20
-1.5
30
0
11
28.688838
21
-1.5
31
0
39
0
210
0
220
0
230
1
0
LINE
5
A7
100
AcDbEntity
8
1
62
256
6
ByLayer
370
18
48
1
60
1
100
AcDbLine
10
26.688838
20
1.5
30
0
11
26.228054
21
4.999998
31
0
39
0
210
0
220
0
230
1
0
LINE
5
A8
100
AcDbEntity
8
1
62
256
6
ByLayer
370
18
48
1
60
1
100
AcDbLine
10
26.228054
20
4.999998
30
0
11
27.149622
21
5.000002
31
0
39
0
210
0
220
0
230
1
0
LINE
5
A9
100
AcDbEntity
8
1
62
256
6
ByLayer
370
18
48
1
60
1
100
AcDbLine
10
27.149622
20
5.000002
30
0
11
26.688838
21
1.5
31
0
39
0
210
0
220
0
230
1
0
LINE
5
AA
100
AcDbEntity
8
1
62
256
6
ByLayer
370
18
48
1
60
1
100
AcDbLine
10
26.688838
20
-1.5
30
0
11
27.149622
21
-4.999998
31
0
39
0
210
0
220
0
230
1
0
LINE
5
AB
100
AcDbEntity
8
1
62
256
6
ByLayer
370
18
48
1
60
1
100
AcDbLine
10
27.149622
20
-4.999998
30
0
11
26.228054
21
-5.000002
31
0
39
0
210
0
220
0
230
1
0
LINE
5
AC
100
AcDbEntity
8
1
62
256
6
ByLayer
370
18
48
1
60
1
100
AcDbLine
10
26.228054
20
-5.000002
30
0
11
26.688838
21
-1.5
31
0
39
0
210
0
220
0
230
1
0
LINE
5
AD
100
AcDbEntity
8
2
62
256
6
ByLayer
370
13
48
1
60
0
100
AcDbLine
10
18.755136
20
-1.396397
30
0
11
29.416232
21
-21.110889
31
0
39
0
210
0
220
0
230
1
0
LINE
5
AE
100
AcDbEntity
8
2
62
256
6
ByLayer
370
13
48
1
60
0
100
AcDbLine
10
18.755136
20
1.396397
30
0
11
29.416232
21
21.110889
31
0
39
0
210
0
220
0
230
1
0
LINE
5
AF
100
AcDbEntity
8
1
62
256
6
ByLayer
370
18
48
1
60
1
100
AcDbLine
10
28.464879
20
-19.351649
30
0
11
31.239971
21
-17.169637
31
0
39
0
210
0
220
0
230
1
0
LINE
5
B0
100
AcDbEntity
8
1
62
256
6
ByLayer
370
18
48
1
60
1
100
AcDbLine
10
31.239971
20
-17.169637
30
0
11
31.710161
21
-17.962233
31
0
39
0
210
0
220
0
230
1
0
LINE
5
B1
100
AcDbEntity
8
1
62
256
6
ByLayer
370
18
48
1
60
1
100
AcDbLine
10
31.710161
20
-17.962233
30
0
11
28.464879
21
-19.351649
31
0
39
0
210
0
220
0
230
1
0
LINE
5
B2
100
AcDbEntity
8
1
62
256
6
ByLayer
370
18
48
1
60
1
100
AcDbLine
10
28.464879
20
19.351649
30
0
11
31.710158
21
17.962234
31
0
39
0
210
0
220
0
230
1
0
LINE
5
B3
100
AcDbEntity
8
1
62
256
6
ByLayer
370
18
48
1
60
1
100
AcDbLine
10
31.710158
20
17.962234
30
0
11
31.239974
21
17.169635
31
0
39
0
210
0
220
0
230
1
0
LINE
5
B4
100
AcDbEntity
8
1
62
256
6
ByLayer
370
18
48
1
60
1
100
AcDbLine
10
31.239974
20
17.169635
30
0
11
28.464879
21
19.351649
31
0
39
0
210
0
220
0
230
1
0
LINE
5
C9
100
AcDbEntity
8
1
62
256
6
ByLayer
370
18
48
1
60
1
100
AcDbLine
10
-34.5
20
1.5
30
0
11
-34.960784
21
4.999998
31
0
39
0
210
0
220
0
230
1
0
LINE
5
CA
100
AcDbEntity
8
1
62
256
6
ByLayer
370
18
48
1
60
1
100
AcDbLine
10
-34.960784
20
4.999998
30
0
11
-34.039216
21
5.000002
31
0
39
0
210
0
220
0
230
1
0
LINE
5
CB
100
AcDbEntity
8
1
62
256
6
ByLayer
370
18
48
1
60
1
100
AcDbLine
10
-34.039216
20
5.000002
30
0
11
-34.5
21
1.5
31
0
39
0
210
0
220
0
230
1
0
LINE
5
CD
100
AcDbEntity
8
1
62
256
6
ByLayer
370
18
48
1
60
1
100
AcDbLine
10
-34.5
20
-1.5
30
0
11
-34.039216
21
-4.999998
31
0
39
0
210
0
220
0
230
1
0
LINE
5
CE
100
AcDbEntity
8
1
62
256
6
ByLayer
370
18
48
1
60
1
100
AcDbLine
10
-34.039216
20
-4.999998
30
0
11
-34.960784
21
-5.000002
31
0
39
0
210
0
220
0
230
1
0
LINE
5
CF
100
AcDbEntity
8
1
62
256
6
ByLayer
370
18
48
1
60
1
100
AcDbLine
10
-34.960784
20
-5.000002
30
0
11
-34.5
21
-1.5
31
0
39
0
210
0
220
0
230
1
0
LINE
5
D3
100
AcDbEntity
8
1
62
256
6
ByLayer
370
18
48
1
60
1
100
AcDbLine
10
26.688838
20
1.5
30
0
11
26.228054
21
4.999998
31
0
39
0
210
0
220
0
230
1
0
LINE
5
D4
100
AcDbEntity
8
1
62
256
6
ByLayer
370
18
48
1
60
1
100
AcDbLine
10
26.228054
20
4.999998
30
0
11
27.149622
21
5.000002
31
0
39
0
210
0
220
0
230
1
0
LINE
5
D5
100
AcDbEntity
8
1
62
256
6
ByLayer
370
18
48
1
60
1
100
AcDbLine
10
27.149622
20
5.000002
30
0
11
26.688838
21
1.5
31
0
39
0
210
0
220
0
230
1
0
LINE
5
D7
100
AcDbEntity
8
1
62
256
6
ByLayer
370
18
48
1
60
1
100
AcDbLine
10
26.688838
20
-1.5
30
0
11
27.149622
21
-4.999998
31
0
39
0
210
0
220
0
230
1
0
LINE
5
D8
100
AcDbEntity
8
1
62
256
6
ByLayer
370
18
48
1
60
1
100
AcDbLine
10
27.149622
20
-4.999998
30
0
11
26.228054
21
-5.000002
31
0
39
0
210
0
220
0
230
1
0
LINE
5
D9
100
AcDbEntity
8
1
62
256
6
ByLayer
370
18
48
1
60
1
100
AcDbLine
10
26.228054
20
-5.000002
30
0
11
26.688838
21
-1.5
31
0
39
0
210
0
220
0
230
1
0
LINE
5
DC
100
AcDbEntity
8
1
62
256
6
ByLayer
370
18
48
1
60
1
100
AcDbLine
10
28.464879
20
-19.351649
30
0
11
31.239971
21
-17.169637
31
0
39
0
210
0
220
0
230
1
0
LINE
5
DD
100
AcDbEntity
8
1
62
256
6
ByLayer
370
18
48
1
60
1
100
AcDbLine
10
31.239971
20
-17.169637
30
0
11
31.710161
21
-17.962233
31
0
39
0
210
0
220
0
230
1
0
LINE
5
DE
100
AcDbEntity
8
1
62
256
6
ByLayer
370
18
48
1
60
1
100
AcDbLine
10
31.710161
20
-17.962233
30
0
11
28.464879
21
-19.351649
31
0
39
0
210
0
220
0
230
1
0
LINE
5
E0
100
AcDbEntity
8
1
62
256
6
ByLayer
370
18
48
1
60
1
100
AcDbLine
10
28.464879
20
19.351649
30
0
11
31.710158
21
17.962234
31
0
39
0
210
0
220
0
230
1
0
LINE
5
E1
100
AcDbEntity
8
1
62
256
6
ByLayer
370
18
48
1
60
1
100
AcDbLine
10
31.710158
20
17.962234
30
0
11
31.239974
21
17.169635
31
0
39
0
210
0
220
0
230
1
0
LINE
5
E2
100
AcDbEntity
8
1
62
256
6
ByLayer
370
18
48
1
60
1
100
AcDbLine
10
31.239974
20
17.169635
30
0
11
28.464879
21
19.351649
31
0
39
0
210
0
220
0
230
1
0
MTEXT
5
C5
100
AcDbEntity
8
SK2
62
256
6
ByLayer
370
18
48
1
60
0
100
AcDbMText
10
-35.841114
20
13.158437
30
0
210
0
220
0
230
1
1
%%c
40
3
41
0
44
1.084337
50
90
71
7
72
5
7
iso_b_vert
0
MTEXT
5
C8
100
AcDbEntity
8
SK2
62
256
6
ByLayer
370
18
48
1
60
0
100
AcDbMText
10
-35.841114
20
19.135
30
0
210
0
220
0
230
1
1
\W0.7468;3.000
40
3
41
0
44
1.084337
50
90
71
7
72
5
7
iso_b_vert
0
MTEXT
5
D1
100
AcDbEntity
8
2
62
256
6
ByLayer
370
18
48
1
60
0
100
AcDbMText
10
25.347724
20
13.158437
30
0
210
0
220
0
230
1
1
%%c
40
3
41
0
44
1.084337
50
90
71
7
72
5
7
iso_b_vert
0
MTEXT
5
D2
100
AcDbEntity
8
2
62
256
6
ByLayer
370
18
48
1
60
0
100
AcDbMText
10
25.347724
20
19.135
30
0
210
0
220
0
230
1
1
\W0.7468;3.000
40
3
41
0
44
1.084337
50
90
71
7
72
5
7
iso_b_vert
0
MTEXT
5
DB
100
AcDbEntity
8
2
62
256
6
ByLayer
370
18
48
1
60
0
100
AcDbMText
10
37.092229
20
-2.114886
30
0
210
0
220
0
230
1
1
\W0.6008;118%%d
40
3
41
0
44
1.084337
50
0
71
7
72
5
7
iso_b_vert
0
MTEXT
5
E4
100
AcDbEntity
8
SK6
62
256
6
ByLayer
370
18
48
1
60
0
100
AcDbMText
10
-11.882141
20
-67.114886
30
0
210
0
220
0
230
1
1
\W0.7690;R0233.0
40
3
41
0
44
1.084337
50
0
71
7
72
5
7
iso_b_vert
0
HATCH
5
CC
100
AcDbEntity
8
SK2
62
256
6
ByLayer
370
13
48
1
60
0
100
AcDbHatch
10
0
20
0
30
0
210
0
220
0
230
1
2
ANSI31
70
0
71
0
91
1
92
5
93
3
72
1
10
-34.5
20
1.5
11
-34.9607837415528
21
4.99999830744682
72
1
10
-34.9607837415528
20
4.99999830744682
11
-34.0392162584472
21
5.00000169255318
72
1
10
-34.0392162584472
20
5.00000169255318
11
-34.5
21
1.5
97
0
75
0
76
1
52
0
41
0.0062
77
0
78
1
53
45
43
0
44
0
45
-0.0139193969876572
46
0.0139193969876572
79
0
47
0
98
1
10
0
20
0
0
HATCH
5
D0
100
AcDbEntity
8
SK2
62
256
6
ByLayer
370
13
48
1
60
0
100
AcDbHatch
10
0
20
0
30
0
210
0
220
0
230
1
2
ANSI31
70
0
71
0
91
1
92
5
93
3
72
1
10
-34.5
20
-1.5
11
-34.0392162584472
21
-4.99999830744682
72
1
10
-34.0392162584472
20
-4.99999830744682
11
-34.9607837415528
21
-5.00000169255318
72
1
10
-34.9607837415528
20
-5.00000169255318
11
-34.5
21
-1.5
97
0
75
0
76
1
52
0
41
0.0062
77
0
78
1
53
45
43
0
44
0
45
-0.0139193969876572
46
0.0139193969876572
79
0
47
0
98
1
10
0
20
0
0
HATCH
5
D6
100
AcDbEntity
8
2
62
256
6
ByLayer
370
13
48
1
60
0
100
AcDbHatch
10
0
20
0
30
0
210
0
220
0
230
1
2
ANSI31
70
0
71
0
91
1
92
5
93
3
72
1
10
26.6888381643128
20
1.5
11
26.22805442276
21
4.99999830744682
72
1
10
26.22805442276
20
4.99999830744682
11
27.1496219058656
21
5.00000169255318
72
1
10
27.1496219058656
20
5.00000169255318
11
26.6888381643128
21
1.5
97
0
75
0
76
1
52
0
41
0.0062
77
0
78
1
53
45
43
0
44
0
45
-0.0139193969876572
46
0.0139193969876572
79
0
47
0
98
1
10
0
20
0
0
HATCH
5
DA
100
AcDbEntity
8
2
62
256
6
ByLayer
370
13
48
1
60
0
100
AcDbHatch
10
0
20
0
30
0
210
0
220
0
230
1
2
ANSI31
70
0
71
0
91
1
92
5
93
3
72
1
10
26.6888381643128
20
-1.5
11
27.1496219058656
21
-4.99999830744682
72
1
10
27.1496219058656
20
-4.99999830744682
11
26.22805442276
21
-5.00000169255318
72
1
10
26.22805442276
20
-5.00000169255318
11
26.6888381643128
21
-1.5
97
0
75
0
76
1
52
0
41
0.0062
77
0
78
1
53
45
43
0
44
0
45
-0.0139193969876572
46
0.0139193969876572
79
0
47
0
98
1
10
0
20
0
0
HATCH
5
DF
100
AcDbEntity
8
2
62
256
6
ByLayer
370
13
48
1
60
0
100
AcDbHatch
10
0
20
0
30
0
210
0
220
0
230
1
2
ANSI31
70
0
71
0
91
1
92
5
93
3
72
1
10
28.464879198752
20
-19.3516485952884
11
31.2399711078382
21
-17.1696369764526
72
1
10
31.2399711078382
20
-17.1696369764526
11
31.710161392925
21
-17.9622325364572
72
1
10
31.710161392925
20
-17.9622325364572
11
28.464879198752
21
-19.3516485952884
97
0
75
0
76
1
52
0
41
0.0062
77
0
78
1
53
45
43
0
44
0
45
-0.0139193969876572
46
0.0139193969876572
79
0
47
0
98
1
10
0
20
0
0
HATCH
5
E3
100
AcDbEntity
8
2
62
256
6
ByLayer
370
13
48
1
60
0
100
AcDbHatch
10
0
20
0
30
0
210
0
220
0
230
1
2
ANSI31
70
0
71
0
91
1
92
5
93
3
72
1
10
28.464879198752
20
19.3516485952884
11
31.7101584815527
21
17.9622342635518
72
1
10
31.7101584815527
20
17.9622342635518
11
31.2399740192106
21
17.1696352493579
72
1
10
31.2399740192106
20
17.1696352493579
11
28.464879198752
21
19.3516485952884
97
0
75
0
76
1
52
0
41
0.0062
77
0
78
1
53
45
43
0
44
0
45
-0.0139193969876572
46
0.0139193969876572
79
0
47
0
98
1
10
0
20
0
0
DIMENSION
5
E7
100
AcDbEntity
8
SK2
62
256
6
ByLayer
370
18
48
1
60
0
100
AcDbDimension
2
_U0
10
18
20
-48.388614
30
0
11
-5
21
-48.388614
31
0
70
32
71
1
72
1
41
1
210
0
220
0
230
1
3
Standard
100
AcDbAlignedDimension
13
-28
23
-1.5
33
0
14
18
24
0
34
0
50
0
100
AcDbRotatedDimension
1001
ACAD
1000
DSTYLE
1002
{
1070
   371
1070
    13
1070
   372
1070
    13
1070
     3
1000

1070
   170
1070
     0
1070
   144
1040
1.0
1070
   277
1070
     2
1070
   284
1070
     8
1070
   278
1070
    46
1070
   146
1040
1.166667
1070
   345
1005
16
1070
   347
1005
16
1070
   346
1005
16
1070
   344
1005
0
1070
   343
1005
0
1070
   172
1070
     1
1070
    76
1070
     0
1070
    75
1070
     0
1070
   282
1070
     0
1070
   281
1070
     0
1070
    71
1070
     0
1070
    74
1070
     0
1070
   279
1070
     0
1070
   173
1070
     1
1070
   340
1005
C6
1070
   271
1070
     2
1070
   272
1070
     3
1070
    77
1070
     1
1070
    73
1070
     1
1070
   171
1070
     3
1070
   274
1070
     4
1070
   177
1070
     2
1070
   176
1070
     2
1070
   178
1070
     2
1070
    78
1070
     8
1070
    48
1040
-0.1
1070
    41
1040
3.5
1070
   147
1040
1.5
1070
    42
1040
1.5875
1070
    44
1040
2.0
1070
   140
1040
3.0
1002
}
1001
ACAD_DSTYLE_DIM_LINETYPE
1070
   380
1005
16
1001
ACAD_DSTYLE_DIM_EXT1_LINETYPE
1070
   381
1005
16
1001
ACAD_DSTYLE_DIM_EXT2_LINETYPE
1070
   382
1005
16
0
DIMENSION
5
100
100
AcDbEntity
8
2
62
256
6
ByLayer
370
18
48
1
60
0
100
AcDbDimension
2
_U1
10
2
20
-38.388614
30
0
11
10
21
-38.388614
31
0
70
32
71
1
72
1
41
1
210
0
220
0
230
1
3
Standard
100
AcDbAlignedDimension
13
18
23
0
33
0
14
2
24
-1.5
34
0
50
0
100
AcDbRotatedDimension
1001
ACAD
1000
DSTYLE
1002
{
1070
   371
1070
    13
1070
   372
1070
    13
1070
     3
1000

1070
   170
1070
     0
1070
   144
1040
1.0
1070
   277
1070
     2
1070
   284
1070
     8
1070
   278
1070
    46
1070
   146
1040
1.166667
1070
   345
1005
16
1070
   347
1005
16
1070
   346
1005
16
1070
   344
1005
0
1070
   343
1005
0
1070
   172
1070
     1
1070
    76
1070
     0
1070
    75
1070
     0
1070
   282
1070
     0
1070
   281
1070
     0
1070
    71
1070
     0
1070
    74
1070
     0
1070
   279
1070
     0
1070
   173
1070
     1
1070
   340
1005
C6
1070
   271
1070
     2
1070
   272
1070
     3
1070
    77
1070
     1
1070
    73
1070
     1
1070
   171
1070
     3
1070
   274
1070
     4
1070
   177
1070
     2
1070
   176
1070
     2
1070
   178
1070
     2
1070
    78
1070
     8
1070
    48
1040
-0.1
1070
    41
1040
3.5
1070
   147
1040
1.5
1070
    42
1040
1.5875
1070
    44
1040
2.0
1070
   140
1040
3.0
1002
}
1001
ACAD_DSTYLE_DIM_LINETYPE
1070
   380
1005
16
1001
ACAD_DSTYLE_DIM_EXT1_LINETYPE
1070
   381
1005
16
1001
ACAD_DSTYLE_DIM_EXT2_LINETYPE
1070
   382
1005
16
0
DIMENSION
5
118
100
AcDbEntity
8
SK2
62
256
6
ByLayer
370
18
48
1
60
0
100
AcDbDimension
2
_U2
10
0
20
-33.388614
30
0
11
-14
21
-33.388614
31
0
70
32
71
1
72
1
41
1
210
0
220
0
230
1
3
Standard
100
AcDbAlignedDimension
13
-28
23
-1.5
33
0
14
0
24
-1.5
34
0
50
0
100
AcDbRotatedDimension
1001
ACAD
1000
DSTYLE
1002
{
1070
   371
1070
    13
1070
   372
1070
    13
1070
     3
1000

1070
   170
1070
     0
1070
   144
1040
1.0
1070
   277
1070
     2
1070
   284
1070
     8
1070
   278
1070
    46
1070
   146
1040
1.166667
1070
   345
1005
16
1070
   347
1005
16
1070
   346
1005
16
1070
   344
1005
0
1070
   343
1005
0
1070
   172
1070
     1
1070
    76
1070
     0
1070
    75
1070
     0
1070
   282
1070
     0
1070
   281
1070
     0
1070
    71
1070
     0
1070
    74
1070
     0
1070
   279
1070
     0
1070
   173
1070
     1
1070
   340
1005
C6
1070
   271
1070
     2
1070
   272
1070
     3
1070
    77
1070
     1
1070
    73
1070
     1
1070
   171
1070
     3
1070
   274
1070
     4
1070
   177
1070
     2
1070
   176
1070
     2
1070
   178
1070
     2
1070
    78
1070
     8
1070
    48
1040
-0.1
1070
    41
1040
3.5
1070
   147
1040
1.5
1070
    42
1040
1.5875
1070
    44
1040
2.0
1070
   140
1040
3.0
1002
}
1001
ACAD_DSTYLE_DIM_LINETYPE
1070
   380
1005
16
1001
ACAD_DSTYLE_DIM_EXT1_LINETYPE
1070
   381
1005
16
1001
ACAD_DSTYLE_DIM_EXT2_LINETYPE
1070
   382
1005
16
0
DIMENSION
5
130
100
AcDbEntity
8
2
62
256
6
ByLayer
370
18
48
1
60
0
100
AcDbDimension
2
_U3
10
6
20
-31.388614
30
0
11
12
21
-31.388614
31
0
70
32
71
1
72
1
41
1
210
0
220
0
230
1
3
Standard
100
AcDbAlignedDimension
13
18
23
0
33
0
14
6
24
-1.5
34
0
50
0
100
AcDbRotatedDimension
1001
ACAD
1000
DSTYLE
1002
{
1070
   371
1070
    13
1070
   372
1070
    13
1070
     3
1000

1070
   170
1070
     0
1070
   144
1040
1.0
1070
   277
1070
     2
1070
   284
1070
     8
1070
   278
1070
    46
1070
   146
1040
1.166667
1070
   345
1005
16
1070
   347
1005
16
1070
   346
1005
16
1070
   344
1005
0
1070
   343
1005
0
1070
   172
1070
     1
1070
    76
1070
     0
1070
    75
1070
     0
1070
   282
1070
     0
1070
   281
1070
     0
1070
    71
1070
     0
1070
    74
1070
     0
1070
   279
1070
     0
1070
   173
1070
     1
1070
   340
1005
C6
1070
   271
1070
     2
1070
   272
1070
     3
1070
    77
1070
     1
1070
    73
1070
     1
1070
   171
1070
     3
1070
   274
1070
     4
1070
   177
1070
     2
1070
   176
1070
     2
1070
   178
1070
     2
1070
    78
1070
     8
1070
    48
1040
-0.1
1070
    41
1040
3.5
1070
   147
1040
1.5
1070
    42
1040
1.5875
1070
    44
1040
2.0
1070
   140
1040
3.0
1002
}
1001
ACAD_DSTYLE_DIM_LINETYPE
1070
   380
1005
16
1001
ACAD_DSTYLE_DIM_EXT1_LINETYPE
1070
   381
1005
16
1001
ACAD_DSTYLE_DIM_EXT2_LINETYPE
1070
   382
1005
16
0
ENDSEC
0
SECTION
2
OBJECTS
0
DICTIONARY
5
1bb
330
0
100
AcDbDictionary
280
0
281
1
3
ACAD_GROUP
350
1bc
3
ACAD_MLINESTYLE
350
1bd
0
DICTIONARY
5
1bc
330
0
100
AcDbDictionary
280
0
281
1
0
DICTIONARY
5
1bd
330
0
100
AcDbDictionary
280
0
281
1
3
Standard
350
18
0
MLINESTYLE
5
18
330
1bd
100
AcDbMlineStyle
2
Standard
70
0
3

62
256
51
90
52
90
71
2
49
-0.5
62
256
6
ByLayer
49
0.5
62
256
6
ByLayer
0
RASTERVARIABLES
5
1a7
330

100
AcDbRasterVariables
90
0
70
1
71
1
72
1
0
ENDSEC
0
EOF
