0
SECTION
2
HEADER
9
$ACADVER
1
AC1015
9
$DWGCODEPAGE
3
ANSI_1252
9
$HANDSEED
5
1c9
9
$ANGBASE
50
0
9
$ANGDIR
70
0
9
$ATTMODE
70
1
9
$AUNITS
70
0
9
$AUPREC
70
0
9
$CECOLOR
62
256
9
$CELTSCALE
40
1
9
$CELTYPE
6
ByLayer
9
$CELWEIGHT
370
18
9
$CLAYER
8
0
9
$CMLJUST
70
0
9
$CMLSCALE
40
1
9
$CMLSTYLE
2
Standard
9
$DIMSTYLE
2
Standard
9
$TEXTSIZE
40
0.2
9
$TEXTSTYLE
7
Standard
9
$LUNITS
70
2
9
$LUPREC
70
4
9
$EXTNAMES
290
1
9
$INSUNITS
70
4
9
$LTSCALE
40
1
9
$LWDISPLAY
290
1
9
$PDMODE
70
0
9
$PDSIZE
40
0
9
$PLINEGEN
70
0
0
ENDSEC
0
SECTION
2
CLASSES
0
CLASS
1
RASTERVARIABLES
2
AcDbRasterVariables
3
ISM
90
0
280
0
281
0
0
ENDSEC
0
SECTION
2
TABLES
0
TABLE
2
VPORT
5
1bf
100
AcDbSymbolTable
0
VPORT
5
1
100
AcDbSymbolTableRecord
100
AcDbViewportTableRecord
2
*Active
70
0
10
0
20
0
11
1
21
1
12
-1
22
1
13
0
23
0
14
0.5
24
0.5
15
10
25
10
16
0
26
0
36
1
17
0
27
0
37
0
0
ENDTAB
0
TABLE
2
LTYPE
5
1c0
100
AcDbSymbolTable
0
LTYPE
5
14
100
AcDbSymbolTableRecord
100
AcDbLinetypeTableRecord
70
0
2
ByBlock
3

72
65
73
0
40
0
0
LTYPE
5
15
100
AcDbSymbolTableRecord
100
AcDbLinetypeTableRecord
70
0
2
ByLayer
3

72
65
73
0
40
0
0
LTYPE
5
16
100
AcDbSymbolTableRecord
100
AcDbLinetypeTableRecord
70
0
2
Continuous
3
Solid line
72
65
73
0
40
0
0
LTYPE
5
6E
100
AcDbSymbolTableRecord
100
AcDbLinetypeTableRecord
70
0
2
CENTER
3
____ _ ____ _ ____ _ ____
72
65
73
4
40
47.5
49
22
74
0
49
-8.5
74
0
49
8.5
74
0
49
-8.5
74
0
0
LTYPE
5
6F
100
AcDbSymbolTableRecord
100
AcDbLinetypeTableRecord
70
0
2
DASHED
3
__ __ __ __ __ __ __ __ __
72
65
73
2
40
25.72
49
12.86
74
0
49
-12.86
74
0
0
ENDTAB
0
TABLE
2
LAYER
5
1c1
100
AcDbSymbolTable
0
LAYER
5
10
100
AcDbSymbolTableRecord
100
AcDbLayerTableRecord
2
0
70
0
62
7
6
Continuous
290
1
370
-3
390
0
0
LAYER
5
71
100
AcDbSymbolTableRecord
100
AcDbLayerTableRecord
2
81
70
0
62
-3
6
Continuous
290
1
370
-3
390
0
0
LAYER
5
73
100
AcDbSymbolTableRecord
100
AcDbLayerTableRecord
2
80
70
0
62
-6
6
Continuous
290
1
370
-3
390
0
0
LAYER
5
75
100
AcDbSymbolTableRecord
100
AcDbLayerTableRecord
2
1
70
0
62
4
6
Continuous
290
1
370
-3
390
0
0
LAYER
5
7F
100
AcDbSymbolTableRecord
100
AcDbLayerTableRecord
2
4
70
0
62
-2
6
CENTER
290
1
370
-3
390
0
0
LAYER
5
A4
100
AcDbSymbolTableRecord
100
AcDbLayerTableRecord
2
2
70
0
62
7
6
Continuous
290
1
370
-3
390
0
0
LAYER
5
EA
100
AcDbSymbolTableRecord
100
AcDbLayerTableRecord
2
Defpoints
70
0
62
7
6
Continuous
290
0
370
-3
390
0
0
LAYER
5
1a9
100
AcDbSymbolTableRecord
100
AcDbLayerTableRecord
2
SK4
70
0
62
2
6
CENTER
290
1
370
-3
390
0
0
LAYER
5
1aa
100
AcDbSymbolTableRecord
100
AcDbLayerTableRecord
2
SK1
70
0
62
4
6
Continuous
290
1
370
-3
390
0
0
LAYER
5
1ab
100
AcDbSymbolTableRecord
100
AcDbLayerTableRecord
2
SK2
70
0
62
7
6
Continuous
290
1
370
-3
390
0
0
LAYER
5
1ac
100
AcDbSymbolTableRecord
100
AcDbLayerTableRecord
2
NOCUT
70
0
62
-7
6
Continuous
290
1
370
-3
390
0
0
LAYER
5
1ad
100
AcDbSymbolTableRecord
100
AcDbLayerTableRecord
2
CUT
70
0
62
-1
6
Continuous
290
1
370
-3
390
0
0
LAYER
5
1ae
100
AcDbSymbolTableRecord
100
AcDbLayerTableRecord
2
SK6
70
0
62
5
6
Continuous
290
1
370
-3
390
0
0
ENDTAB
0
TABLE
2
STYLE
5
1c2
100
AcDbSymbolTable
0
STYLE
5
11
100
AcDbSymbolTableRecord
100
AcDbTextStyleTableRecord
2
Standard
3
txt
70
0
71
0
40
0
41
1
42
0
50
0
0
STYLE
5
C6
100
AcDbSymbolTableRecord
100
AcDbTextStyleTableRecord
2
iso_b_vert
3
simplex.shx
70
0
71
0
40
0
41
1
42
0
50
0
0
STYLE
5
C7
100
AcDbSymbolTableRecord
100
AcDbTextStyleTableRecord
2
DWGDirectTextStyle
3
simplex
70
0
71
0
40
0
41
1
42
0
50
0
0
ENDTAB
0
TABLE
2
DIMSTYLE
5
1c3
100
AcDbSymbolTable
100
AcDbDimStyleTable
0
DIMSTYLE
105
27
100
AcDbSymbolTableRecord
100
AcDbDimStyleTableRecord
2
Standard
70
0
3
<>
41
0.18
42
0.0625
44
0.18
140
0.18
147
0.09
73
0
74
0
77
1
271
2
275
0
278
52
280
0
340
11
0
ENDTAB
0
TABLE
2
VIEW
5
1c4
100
AcDbSymbolTable
0
ENDTAB
0
TABLE
2
UCS
5
1c5
100
AcDbSymbolTable
0
ENDTAB
0
TABLE
2
APPID
5
1c6
100
AcDbSymbolTable
0
APPID
5
12
100
AcDbSymbolTableRecord
100
AcDbRegAppTableRecord
2
ACAD
70
0
0
APPID
5
E6
100
AcDbSymbolTableRecord
100
AcDbRegAppTableRecord
2
ACAD_DSTYLE_DIMBREAK
70
0
0
APPID
5
168
100
AcDbSymbolTableRecord
100
AcDbRegAppTableRecord
2
ACAD_DSTYLE_DIM_LINETYPE
70
0
0
APPID
5
169
100
AcDbSymbolTableRecord
100
AcDbRegAppTableRecord
2
ACAD_DSTYLE_DIM_EXT1_LINETYPE
70
0
0
APPID
5
16A
100
AcDbSymbolTableRecord
100
AcDbRegAppTableRecord
2
ACAD_DSTYLE_DIM_EXT2_LINETYPE
70
0
0
APPID
5
1A5
100
AcDbSymbolTableRecord
100
AcDbRegAppTableRecord
2
ACAD_MLEADERVER
70
0
0
ENDTAB
0
TABLE
2
BLOCK_RECORD
5
1c7
100
AcDbSymbolTable
0
BLOCK_RECORD
5
1F
100
AcDbSymbolTableRecord
100
AcDbBlockTableRecord
2
*Model_Space
340
0
70
0
0
BLOCK_RECORD
5
1B
100
AcDbSymbolTableRecord
100
AcDbBlockTableRecord
2
*Paper_Space
340
0
70
0
0
BLOCK_RECORD
5
23
100
AcDbSymbolTableRecord
100
AcDbBlockTableRecord
2
*Paper_Space0
340
0
70
0
0
BLOCK_RECORD
5
EB
100
AcDbSymbolTableRecord
100
AcDbBlockTableRecord
2
*D1
340
0
70
0
0
BLOCK_RECORD
5
F7
100
AcDbSymbolTableRecord
100
AcDbBlockTableRecord
2
_U0
340
0
70
0
0
BLOCK_RECORD
5
103
100
AcDbSymbolTableRecord
100
AcDbBlockTableRecord
2
*D3
340
0
70
0
0
BLOCK_RECORD
5
110
100
AcDbSymbolTableRecord
100
AcDbBlockTableRecord
2
_U1
340
0
70
0
0
BLOCK_RECORD
5
11C
100
AcDbSymbolTableRecord
100
AcDbBlockTableRecord
2
*D5
340
0
70
0
0
BLOCK_RECORD
5
128
100
AcDbSymbolTableRecord
100
AcDbBlockTableRecord
2
_U2
340
0
70
0
0
BLOCK_RECORD
5
134
100
AcDbSymbolTableRecord
100
AcDbBlockTableRecord
2
*D7
340
0
70
0
0
BLOCK_RECORD
5
141
100
AcDbSymbolTableRecord
100
AcDbBlockTableRecord
2
_U3
340
0
70
0
0
ENDTAB
0
ENDSEC
0
SECTION
2
BLOCKS
0
BLOCK
5
20
100
AcDbEntity
8
0
100
AcDbBlockBegin
2
*Model_Space
70
0
10
0
20
0
30
0
3
*Model_Space
0
ENDBLK
5
21
100
AcDbEntity
8
0
100
AcDbBlockEnd
0
BLOCK
5
1C
100
AcDbEntity
8
0
100
AcDbBlockBegin
2
*Paper_Space
70
0
10
0
20
0
30
0
3
*Paper_Space
0
ENDBLK
5
1D
100
AcDbEntity
8
0
100
AcDbBlockEnd
0
BLOCK
5
24
100
AcDbEntity
8
0
100
AcDbBlockBegin
2
*Paper_Space0
70
0
10
0
20
0
30
0
3
*Paper_Space0
0
ENDBLK
5
25
100
AcDbEntity
8
0
100
AcDbBlockEnd
0
BLOCK
5
EC
100
AcDbEntity
8
0
100
AcDbBlockBegin
2
*D1
70
1
10
0
20
0
30
0
3
*D1
0
LINE
5
EE
100
AcDbEntity
8
0
62
256
6
ByLayer
370
-2
48
1
60
0
100
AcDbLine
10
-25
20
-2.7375
30
0
11
-25
21
-51.672382
31
0
39
0
210
0
220
0
230
1
0
LINE
5
EF
100
AcDbEntity
8
0
62
256
6
ByLayer
370
-2
48
1
60
0
100
AcDbLine
10
15
20
-1.5875
30
0
11
15
21
-51.672382
31
0
39
0
210
0
220
0
230
1
0
LINE
5
F0
100
AcDbEntity
8
0
62
256
6
ByLayer
370
-2
48
1
60
0
100
AcDbLine
10
-21.5
20
-49.672382
30
0
11
11.5
21
-49.672382
31
0
39
0
210
0
220
0
230
1
0
SOLID
5
F1
100
AcDbEntity
8
0
62
256
6
ByLayer
370
-1
48
1
60
0
100
AcDbTrace
10
-21.5
20
-49.089048
30
0
11
-21.5
21
-50.255715
31
0
12
-25
22
-49.672382
32
0
13
-25
23
-49.672382
33
0
39
0
210
0
220
0
230
1
0
SOLID
5
F2
100
AcDbEntity
8
0
62
256
6
ByLayer
370
-1
48
1
60
0
100
AcDbTrace
10
11.5
20
-50.255715
30
0
11
11.5
21
-49.089048
31
0
12
15
22
-49.672382
32
0
13
15
23
-49.672382
33
0
39
0
210
0
220
0
230
1
0
MTEXT
5
F3
100
AcDbEntity
8
0
62
256
6
ByLayer
370
18
48
1
60
0
100
AcDbMText
10
-5
20
-43.672382
30
0
210
0
220
0
230
1
1
\A1;40
40
3
41
0
44
1
50
0
71
5
72
5
7
iso_b_vert
0
POINT
5
F4
100
AcDbEntity
8
Defpoints
62
0
6
ByLayer
370
-1
48
1
60
0
100
AcDbPoint
10
-25
20
-1.15
30
0
39
0
210
0
220
0
230
1
50
360
0
POINT
5
F5
100
AcDbEntity
8
Defpoints
62
0
6
ByLayer
370
-1
48
1
60
0
100
AcDbPoint
10
15
20
0
30
0
39
0
210
0
220
0
230
1
50
360
0
POINT
5
F6
100
AcDbEntity
8
Defpoints
62
0
6
ByLayer
370
-1
48
1
60
0
100
AcDbPoint
10
15
20
-49.672382
30
0
39
0
210
0
220
0
230
1
50
360
0
ENDBLK
5
ED
100
AcDbEntity
8
0
100
AcDbBlockEnd
0
BLOCK
5
FE
100
AcDbEntity
8
0
100
AcDbBlockBegin
2
_U0
70
0
10
0
20
0
30
0
3
_U0
0
MTEXT
5
F8
100
AcDbEntity
8
SK2
62
256
6
ByLayer
370
18
48
1
60
0
100
AcDbMText
10
-9.640313
20
-48.787267
30
0
210
0
220
0
230
1
1
\W0.7694;40.00
40
3
41
0
44
1.084337
50
0
71
7
72
5
7
iso_b_vert
0
LINE
5
F9
100
AcDbEntity
8
SK2
62
256
6
ByLayer
370
13
48
1
60
0
100
AcDbLine
10
-25
20
-2.7375
30
0
11
-25
21
-51.672382
31
0
39
0
210
0
220
0
230
1
0
LINE
5
FA
100
AcDbEntity
8
SK2
62
256
6
ByLayer
370
13
48
1
60
0
100
AcDbLine
10
15
20
-1.5875
30
0
11
15
21
-51.672382
31
0
39
0
210
0
220
0
230
1
0
LINE
5
FB
100
AcDbEntity
8
SK2
62
256
6
ByLayer
370
13
48
1
60
0
100
AcDbLine
10
-25
20
-49.672382
30
0
11
15
21
-49.672382
31
0
39
0
210
0
220
0
230
1
0
SOLID
5
FC
100
AcDbEntity
8
SK2
62
256
6
ByLayer
370
18
48
1
60
0
100
AcDbTrace
10
-25
20
-49.672382
30
0
11
-21.500002
21
-49.211598
31
0
12
-21.499998
22
-50.133166
32
0
13
-21.499998
23
-50.133166
33
0
39
0
210
0
220
0
230
1
0
SOLID
5
FD
100
AcDbEntity
8
SK2
62
256
6
ByLayer
370
18
48
1
60
0
100
AcDbTrace
10
15
20
-49.672382
30
0
11
11.500002
21
-50.133166
31
0
12
11.499998
22
-49.211598
32
0
13
11.499998
23
-49.211598
33
0
39
0
210
0
220
0
230
1
0
ENDBLK
5
FF
100
AcDbEntity
8
0
100
AcDbBlockEnd
0
BLOCK
5
104
100
AcDbEntity
8
0
100
AcDbBlockBegin
2
*D3
70
1
10
0
20
0
30
0
3
*D3
0
LINE
5
106
100
AcDbEntity
8
0
62
256
6
ByLayer
370
-2
48
1
60
0
100
AcDbLine
10
15
20
-1.5875
30
0
11
15
21
-41.672382
31
0
39
0
210
0
220
0
230
1
0
LINE
5
107
100
AcDbEntity
8
0
62
256
6
ByLayer
370
-2
48
1
60
0
100
AcDbLine
10
2
20
-2.7375
30
0
11
2
21
-41.672382
31
0
39
0
210
0
220
0
230
1
0
LINE
5
108
100
AcDbEntity
8
0
62
256
6
ByLayer
370
-2
48
1
60
0
100
AcDbLine
10
18.5
20
-39.672382
30
0
11
22
21
-39.672382
31
0
39
0
210
0
220
0
230
1
0
LINE
5
109
100
AcDbEntity
8
0
62
256
6
ByLayer
370
-2
48
1
60
0
100
AcDbLine
10
-1.5
20
-39.672382
30
0
11
-5
21
-39.672382
31
0
39
0
210
0
220
0
230
1
0
SOLID
5
10A
100
AcDbEntity
8
0
62
256
6
ByLayer
370
-1
48
1
60
0
100
AcDbTrace
10
18.5
20
-39.089048
30
0
11
18.5
21
-40.255715
31
0
12
15
22
-39.672382
32
0
13
15
23
-39.672382
33
0
39
0
210
0
220
0
230
1
0
SOLID
5
10B
100
AcDbEntity
8
0
62
256
6
ByLayer
370
-1
48
1
60
0
100
AcDbTrace
10
-1.5
20
-40.255715
30
0
11
-1.5
21
-39.089048
31
0
12
2
22
-39.672382
32
0
13
2
23
-39.672382
33
0
39
0
210
0
220
0
230
1
0
MTEXT
5
10C
100
AcDbEntity
8
0
62
256
6
ByLayer
370
18
48
1
60
0
100
AcDbMText
10
8.5
20
-33.672382
30
0
210
0
220
0
230
1
1
\A1;13
40
3
41
0
44
1
50
0
71
5
72
5
7
iso_b_vert
0
POINT
5
10D
100
AcDbEntity
8
Defpoints
62
0
6
ByLayer
370
-1
48
1
60
0
100
AcDbPoint
10
15
20
0
30
0
39
0
210
0
220
0
230
1
50
360
0
POINT
5
10E
100
AcDbEntity
8
Defpoints
62
0
6
ByLayer
370
-1
48
1
60
0
100
AcDbPoint
10
2
20
-1.15
30
0
39
0
210
0
220
0
230
1
50
360
0
POINT
5
10F
100
AcDbEntity
8
Defpoints
62
0
6
ByLayer
370
-1
48
1
60
0
100
AcDbPoint
10
2
20
-39.672382
30
0
39
0
210
0
220
0
230
1
50
360
0
ENDBLK
5
105
100
AcDbEntity
8
0
100
AcDbBlockEnd
0
BLOCK
5
117
100
AcDbEntity
8
0
100
AcDbBlockBegin
2
_U1
70
0
10
0
20
0
30
0
3
_U1
0
MTEXT
5
111
100
AcDbEntity
8
2
62
256
6
ByLayer
370
18
48
1
60
0
100
AcDbMText
10
4.392572
20
-38.787267
30
0
210
0
220
0
230
1
1
\W0.6864;13.00
40
3
41
0
44
1.084337
50
0
71
7
72
5
7
iso_b_vert
0
LINE
5
112
100
AcDbEntity
8
2
62
256
6
ByLayer
370
13
48
1
60
0
100
AcDbLine
10
15
20
-1.5875
30
0
11
15
21
-41.672382
31
0
39
0
210
0
220
0
230
1
0
LINE
5
113
100
AcDbEntity
8
2
62
256
6
ByLayer
370
13
48
1
60
0
100
AcDbLine
10
2
20
-2.7375
30
0
11
2
21
-41.672382
31
0
39
0
210
0
220
0
230
1
0
LINE
5
114
100
AcDbEntity
8
2
62
256
6
ByLayer
370
13
48
1
60
0
100
AcDbLine
10
15
20
-39.672382
30
0
11
2
21
-39.672382
31
0
39
0
210
0
220
0
230
1
0
SOLID
5
115
100
AcDbEntity
8
2
62
256
6
ByLayer
370
18
48
1
60
0
100
AcDbTrace
10
15
20
-39.672382
30
0
11
11.500002
21
-40.133166
31
0
12
11.499998
22
-39.211598
32
0
13
11.499998
23
-39.211598
33
0
39
0
210
0
220
0
230
1
0
SOLID
5
116
100
AcDbEntity
8
2
62
256
6
ByLayer
370
18
48
1
60
0
100
AcDbTrace
10
2
20
-39.672382
30
0
11
5.499998
21
-39.211598
31
0
12
5.500002
22
-40.133166
32
0
13
5.500002
23
-40.133166
33
0
39
0
210
0
220
0
230
1
0
ENDBLK
5
118
100
AcDbEntity
8
0
100
AcDbBlockEnd
0
BLOCK
5
11D
100
AcDbEntity
8
0
100
AcDbBlockBegin
2
*D5
70
1
10
0
20
0
30
0
3
*D5
0
LINE
5
11F
100
AcDbEntity
8
0
62
256
6
ByLayer
370
-2
48
1
60
0
100
AcDbLine
10
-25
20
-2.7375
30
0
11
-25
21
-36.672382
31
0
39
0
210
0
220
0
230
1
0
LINE
5
120
100
AcDbEntity
8
0
62
256
6
ByLayer
370
-2
48
1
60
0
100
AcDbLine
10
0
20
-2.7375
30
0
11
0
21
-36.672382
31
0
39
0
210
0
220
0
230
1
0
LINE
5
121
100
AcDbEntity
8
0
62
256
6
ByLayer
370
-2
48
1
60
0
100
AcDbLine
10
-21.5
20
-34.672382
30
0
11
-3.5
21
-34.672382
31
0
39
0
210
0
220
0
230
1
0
SOLID
5
122
100
AcDbEntity
8
0
62
256
6
ByLayer
370
-1
48
1
60
0
100
AcDbTrace
10
-21.5
20
-34.089048
30
0
11
-21.5
21
-35.255715
31
0
12
-25
22
-34.672382
32
0
13
-25
23
-34.672382
33
0
39
0
210
0
220
0
230
1
0
SOLID
5
123
100
AcDbEntity
8
0
62
256
6
ByLayer
370
-1
48
1
60
0
100
AcDbTrace
10
-3.5
20
-35.255715
30
0
11
-3.5
21
-34.089048
31
0
12
0
22
-34.672382
32
0
13
0
23
-34.672382
33
0
39
0
210
0
220
0
230
1
0
MTEXT
5
124
100
AcDbEntity
8
0
62
256
6
ByLayer
370
18
48
1
60
0
100
AcDbMText
10
-12.5
20
-28.672382
30
0
210
0
220
0
230
1
1
\A1;25
40
3
41
0
44
1
50
0
71
5
72
5
7
iso_b_vert
0
POINT
5
125
100
AcDbEntity
8
Defpoints
62
0
6
ByLayer
370
-1
48
1
60
0
100
AcDbPoint
10
-25
20
-1.15
30
0
39
0
210
0
220
0
230
1
50
360
0
POINT
5
126
100
AcDbEntity
8
Defpoints
62
0
6
ByLayer
370
-1
48
1
60
0
100
AcDbPoint
10
0
20
-1.15
30
0
39
0
210
0
220
0
230
1
50
360
0
POINT
5
127
100
AcDbEntity
8
Defpoints
62
0
6
ByLayer
370
-1
48
1
60
0
100
AcDbPoint
10
0
20
-34.672382
30
0
39
0
210
0
220
0
230
1
50
360
0
ENDBLK
5
11E
100
AcDbEntity
8
0
100
AcDbBlockEnd
0
BLOCK
5
12F
100
AcDbEntity
8
0
100
AcDbBlockBegin
2
_U2
70
0
10
0
20
0
30
0
3
_U2
0
MTEXT
5
129
100
AcDbEntity
8
SK2
62
256
6
ByLayer
370
18
48
1
60
0
100
AcDbMText
10
-16.98237
20
-33.787267
30
0
210
0
220
0
230
1
1
\W0.7468;25.00
40
3
41
0
44
1.084337
50
0
71
7
72
5
7
iso_b_vert
0
LINE
5
12A
100
AcDbEntity
8
SK2
62
256
6
ByLayer
370
13
48
1
60
0
100
AcDbLine
10
-25
20
-2.7375
30
0
11
-25
21
-36.672382
31
0
39
0
210
0
220
0
230
1
0
LINE
5
12B
100
AcDbEntity
8
SK2
62
256
6
ByLayer
370
13
48
1
60
0
100
AcDbLine
10
0
20
-2.7375
30
0
11
0
21
-36.672382
31
0
39
0
210
0
220
0
230
1
0
LINE
5
12C
100
AcDbEntity
8
SK2
62
256
6
ByLayer
370
13
48
1
60
0
100
AcDbLine
10
-25
20
-34.672382
30
0
11
0
21
-34.672382
31
0
39
0
210
0
220
0
230
1
0
SOLID
5
12D
100
AcDbEntity
8
SK2
62
256
6
ByLayer
370
18
48
1
60
0
100
AcDbTrace
10
-25
20
-34.672382
30
0
11
-21.500002
21
-34.211598
31
0
12
-21.499998
22
-35.133166
32
0
13
-21.499998
23
-35.133166
33
0
39
0
210
0
220
0
230
1
0
SOLID
5
12E
100
AcDbEntity
8
SK2
62
256
6
ByLayer
370
18
48
1
60
0
100
AcDbTrace
10
0
20
-34.672382
30
0
11
-3.499998
21
-35.133166
31
0
12
-3.500002
22
-34.211598
32
0
13
-3.500002
23
-34.211598
33
0
39
0
210
0
220
0
230
1
0
ENDBLK
5
130
100
AcDbEntity
8
0
100
AcDbBlockEnd
0
BLOCK
5
135
100
AcDbEntity
8
0
100
AcDbBlockBegin
2
*D7
70
1
10
0
20
0
30
0
3
*D7
0
LINE
5
137
100
AcDbEntity
8
0
62
256
6
ByLayer
370
-2
48
1
60
0
100
AcDbLine
10
15
20
-1.5875
30
0
11
15
21
-34.672382
31
0
39
0
210
0
220
0
230
1
0
LINE
5
138
100
AcDbEntity
8
0
62
256
6
ByLayer
370
-2
48
1
60
0
100
AcDbLine
10
5.25
20
-2.7375
30
0
11
5.25
21
-34.672382
31
0
39
0
210
0
220
0
230
1
0
LINE
5
139
100
AcDbEntity
8
0
62
256
6
ByLayer
370
-2
48
1
60
0
100
AcDbLine
10
18.5
20
-32.672382
30
0
11
22
21
-32.672382
31
0
39
0
210
0
220
0
230
1
0
LINE
5
13A
100
AcDbEntity
8
0
62
256
6
ByLayer
370
-2
48
1
60
0
100
AcDbLine
10
1.75
20
-32.672382
30
0
11
-1.75
21
-32.672382
31
0
39
0
210
0
220
0
230
1
0
SOLID
5
13B
100
AcDbEntity
8
0
62
256
6
ByLayer
370
-1
48
1
60
0
100
AcDbTrace
10
18.5
20
-32.089048
30
0
11
18.5
21
-33.255715
31
0
12
15
22
-32.672382
32
0
13
15
23
-32.672382
33
0
39
0
210
0
220
0
230
1
0
SOLID
5
13C
100
AcDbEntity
8
0
62
256
6
ByLayer
370
-1
48
1
60
0
100
AcDbTrace
10
1.75
20
-33.255715
30
0
11
1.75
21
-32.089048
31
0
12
5.25
22
-32.672382
32
0
13
5.25
23
-32.672382
33
0
39
0
210
0
220
0
230
1
0
MTEXT
5
13D
100
AcDbEntity
8
0
62
256
6
ByLayer
370
18
48
1
60
0
100
AcDbMText
10
10.125
20
-26.672382
30
0
210
0
220
0
230
1
1
\A1;9.75
40
3
41
0
44
1
50
0
71
5
72
5
7
iso_b_vert
0
POINT
5
13E
100
AcDbEntity
8
Defpoints
62
0
6
ByLayer
370
-1
48
1
60
0
100
AcDbPoint
10
15
20
0
30
0
39
0
210
0
220
0
230
1
50
360
0
POINT
5
13F
100
AcDbEntity
8
Defpoints
62
0
6
ByLayer
370
-1
48
1
60
0
100
AcDbPoint
10
5.25
20
-1.15
30
0
39
0
210
0
220
0
230
1
50
360
0
POINT
5
140
100
AcDbEntity
8
Defpoints
62
0
6
ByLayer
370
-1
48
1
60
0
100
AcDbPoint
10
5.25
20
-32.672382
30
0
39
0
210
0
220
0
230
1
50
360
0
ENDBLK
5
136
100
AcDbEntity
8
0
100
AcDbBlockEnd
0
BLOCK
5
148
100
AcDbEntity
8
0
100
AcDbBlockBegin
2
_U3
70
0
10
0
20
0
30
0
3
_U3
0
MTEXT
5
142
100
AcDbEntity
8
2
62
256
6
ByLayer
370
18
48
1
60
0
100
AcDbMText
10
6.763544
20
-31.787267
30
0
210
0
220
0
230
1
1
\W0.7346;9.75
40
3
41
0
44
1.084337
50
0
71
7
72
5
7
iso_b_vert
0
LINE
5
143
100
AcDbEntity
8
2
62
256
6
ByLayer
370
13
48
1
60
0
100
AcDbLine
10
15
20
-1.5875
30
0
11
15
21
-34.672382
31
0
39
0
210
0
220
0
230
1
0
LINE
5
144
100
AcDbEntity
8
2
62
256
6
ByLayer
370
13
48
1
60
0
100
AcDbLine
10
5.25
20
-2.7375
30
0
11
5.25
21
-34.672382
31
0
39
0
210
0
220
0
230
1
0
LINE
5
145
100
AcDbEntity
8
2
62
256
6
ByLayer
370
13
48
1
60
0
100
AcDbLine
10
15
20
-32.672382
30
0
11
5.25
21
-32.672382
31
0
39
0
210
0
220
0
230
1
0
SOLID
5
146
100
AcDbEntity
8
2
62
256
6
ByLayer
370
18
48
1
60
0
100
AcDbTrace
10
15
20
-32.672382
30
0
11
11.500002
21
-33.133166
31
0
12
11.499998
22
-32.211598
32
0
13
11.499998
23
-32.211598
33
0
39
0
210
0
220
0
230
1
0
SOLID
5
147
100
AcDbEntity
8
2
62
256
6
ByLayer
370
18
48
1
60
0
100
AcDbTrace
10
5.25
20
-32.672382
30
0
11
8.749998
21
-32.211598
31
0
12
8.750002
22
-33.133166
32
0
13
8.750002
23
-33.133166
33
0
39
0
210
0
220
0
230
1
0
ENDBLK
5
149
100
AcDbEntity
8
0
100
AcDbBlockEnd
0
ENDSEC
0
SECTION
2
ENTITIES
0
ARC
5
B5
100
AcDbEntity
8
2
62
256
6
ByLayer
370
13
48
1
60
0
100
AcDbCircle
39
0
10
15
20
0
30
0
40
22
210
0
220
0
230
1
100
AcDbArc
50
7.83748
51
61.596605
0
ARC
5
B6
100
AcDbEntity
8
2
62
256
6
ByLayer
370
13
48
1
60
0
100
AcDbCircle
39
0
10
15
20
0
30
0
40
22
210
0
220
0
230
1
100
AcDbArc
50
298.403395
51
352.16252
0
POINT
5
70
100
AcDbEntity
8
81
62
256
6
ByLayer
370
18
48
1
60
0
100
AcDbPoint
10
15
20
0
30
0
39
0
210
0
220
0
230
1
50
360
0
POINT
5
72
100
AcDbEntity
8
80
62
256
6
ByLayer
370
18
48
1
60
0
100
AcDbPoint
10
0
20
0
30
0
39
0
210
0
220
0
230
1
50
360
0
POINT
5
74
100
AcDbEntity
8
1
62
256
6
ByLayer
370
18
48
1
60
1
100
AcDbPoint
10
-25
20
-1.15
30
0
39
0
210
0
220
0
230
1
50
360
0
POINT
5
76
100
AcDbEntity
8
1
62
256
6
ByLayer
370
18
48
1
60
1
100
AcDbPoint
10
15
20
0
30
0
39
0
210
0
220
0
230
1
50
360
0
POINT
5
77
100
AcDbEntity
8
1
62
256
6
ByLayer
370
18
48
1
60
1
100
AcDbPoint
10
15
20
0
30
0
39
0
210
0
220
0
230
1
50
360
0
POINT
5
78
100
AcDbEntity
8
1
62
256
6
ByLayer
370
18
48
1
60
1
100
AcDbPoint
10
2
20
-1.15
30
0
39
0
210
0
220
0
230
1
50
360
0
POINT
5
79
100
AcDbEntity
8
1
62
256
6
ByLayer
370
18
48
1
60
1
100
AcDbPoint
10
-25
20
-1.15
30
0
39
0
210
0
220
0
230
1
50
360
0
POINT
5
7A
100
AcDbEntity
8
1
62
256
6
ByLayer
370
18
48
1
60
1
100
AcDbPoint
10
0
20
-1.15
30
0
39
0
210
0
220
0
230
1
50
360
0
POINT
5
7B
100
AcDbEntity
8
1
62
256
6
ByLayer
370
18
48
1
60
1
100
AcDbPoint
10
15
20
0
30
0
39
0
210
0
220
0
230
1
50
360
0
POINT
5
7C
100
AcDbEntity
8
1
62
256
6
ByLayer
370
18
48
1
60
1
100
AcDbPoint
10
5.25
20
-1.15
30
0
39
0
210
0
220
0
230
1
50
360
0
SPLINE
5
B7
100
AcDbEntity
8
NOCUT
62
256
6
ByLayer
370
18
48
1
60
0
100
AcDbSpline
70
2053
71
3
72
26
73
22
40
0
40
0
40
0
40
0
40
0.483064905138201
40
0.483064905138201
40
0.483064905138201
40
0.501374693235159
40
0.501374693235159
40
0.501374693235159
40
0.583615501049359
40
0.583615501049359
40
0.583615501049359
40
0.585214697243599
40
0.585214697243599
40
0.585214697243599
40
0.979651165240741
40
0.979651165240741
40
0.979651165240741
40
0.986426275392811
40
0.986426275392811
40
0.986426275392811
40
1
40
1
40
1
40
1
41
1
10
-25
20
0
30
0
41
1
10
-14.9166666666667
20
0
30
0
41
1
10
-4.83333333333329
20
0
30
0
41
1
10
5.25000000000003
20
0
30
0
41
1
10
5.25
20
0.38219231966886
30
0
41
1
10
5.25
20
0.764384639337692
30
0
41
1
10
5.25
20
1.14657695900655
30
0
41
1
10
3.5333333333333
20
1.14593320900659
30
0
41
1
10
1.81666666666661
20
1.14528945900662
30
0
41
1
10
0.100000000383034
20
1.14464570900677
30
0
41
1
10
0.0666666671774578
20
1.14643047267126
30
0
41
1
10
0.0333333335887289
20
1.14821523633563
30
0
41
1
10
0
20
1.15000000000001
30
0
41
1
10
-8.23333333333332
20
1.15000000000001
30
0
41
1
10
-16.4666666666667
20
1.15000000000001
30
0
41
1
10
-24.7
20
1.15000000000001
30
0
41
1
10
-24.8
20
1.05000000000001
30
0
41
1
10
-24.9
20
0.949999999999989
30
0
41
1
10
-25
20
0.849999999999994
30
0
41
1
10
-25
20
0.566666666666663
30
0
41
1
10
-25
20
0.283333333333331
30
0
41
1
10
-25
20
0
30
0
0
SPLINE
5
B9
100
AcDbEntity
8
CUT
62
256
6
ByLayer
370
18
48
1
60
0
100
AcDbSpline
70
2053
71
3
72
17
73
13
40
0
40
0
40
0
40
0
40
0.457058337573803
40
0.457058337573803
40
0.457058337573803
40
0.510807317961594
40
0.510807317961594
40
0.510807317961594
40
0.93871282940649
40
0.93871282940649
40
0.93871282940649
40
1
40
1
40
1
40
1
41
1
10
15
20
0
30
0
41
1
10
11.75
20
0
30
0
41
1
10
8.5
20
0
30
0
41
1
10
5.25
20
0
30
0
41
1
10
5.25
20
0.38219231966886
30
0
41
1
10
5.25
20
0.764384639337692
30
0
41
1
10
5.24999999999989
20
1.14657695900655
30
0
41
1
10
8.29270308643922
20
1.14771797266388
30
0
41
1
10
11.3354061728786
20
1.14885898632124
30
0
41
1
10
14.3781092593181
20
1.14999999997858
30
0
41
1
10
14.5854061728787
20
0.766666666652384
30
0
41
1
10
14.7927030864394
20
0.383333333326192
30
0
41
1
10
15
20
0
30
0
0
SPLINE
5
BB
100
AcDbEntity
8
1
62
256
6
ByLayer
370
18
48
1
60
0
100
AcDbSpline
70
4
71
3
72
60
73
56
40
0
40
0
40
0
40
0
40
0.125000000000008
40
0.125000000000008
40
0.187500000000014
40
0.187500000000014
40
0.250000000000021
40
0.250000000000021
40
0.281250000000024
40
0.281250000000024
40
0.312500000000027
40
0.312500000000027
40
0.375000000000029
40
0.375000000000029
40
0.437500000000031
40
0.437500000000031
40
0.468750000000031
40
0.468750000000031
40
0.476562500000032
40
0.476562500000032
40
0.484375000000032
40
0.484375000000032
40
0.492187500000033
40
0.492187500000033
40
0.500000000000034
40
0.500000000000034
40
0.507812500000034
40
0.507812500000034
40
0.515625000000035
40
0.515625000000035
40
0.523437500000035
40
0.523437500000035
40
0.531250000000036
40
0.531250000000036
40
0.539062500000037
40
0.539062500000037
40
0.546875000000037
40
0.546875000000037
40
0.562500000000035
40
0.562500000000035
40
0.593750000000031
40
0.593750000000031
40
0.625000000000027
40
0.625000000000027
40
0.687500000000022
40
0.687500000000022
40
0.750000000000018
40
0.750000000000018
40
0.812500000000013
40
0.812500000000013
40
0.843750000000011
40
0.843750000000011
40
0.875000000000009
40
0.875000000000009
40
1
40
1
40
1
40
1
41
1
10
14.3781092593181
20
1.11355478264176
30
0
41
1
10
14.4250900867185
20
1.02712549857569
30
0
41
1
10
14.4718032139406
20
0.940204608149031
30
0
41
1
10
14.5412513776896
20
0.809170081433848
30
0
41
1
10
14.5642948315314
20
0.7653786491164
30
0
41
1
10
14.6100594830426
20
0.677551699968689
30
0
41
1
10
14.6327769978726
20
0.63353661614201
30
0
41
1
10
14.6664336326462
20
0.567277661245356
30
0
41
1
10
14.6775745997908
20
0.545146139382808
30
0
41
1
10
14.6997070760363
20
0.500811458490602
30
0
41
1
10
14.7107105953356
20
0.478613803314147
30
0
41
1
10
14.743612822143
20
0.412042499771673
30
0
41
1
10
14.7653921400727
20
0.367734361671808
30
0
41
1
10
14.8081832881571
20
0.279034164596254
30
0
41
1
10
14.8292477421669
20
0.234684061013496
30
0
41
1
10
14.8589957293836
20
0.167767991937154
30
0
41
1
10
14.868592403468
20
0.14538446180498
30
0
41
1
10
14.879812433563
20
0.117269138140443
30
0
41
1
10
14.8820176892751
20
0.111638908279019
30
0
41
1
10
14.8863132318229
20
0.100338110476883
30
0
41
1
10
14.8884079084968
20
0.0946711962281768
30
0
41
1
10
14.8923442063649
20
0.0831834572256582
30
0
41
1
10
14.8941922668405
20
0.0773205663722933
30
0
41
1
10
14.8972763393523
20
0.0653970781715998
30
0
41
1
10
14.8984998761255
20
0.0593635104287671
30
0
41
1
10
14.9000929667302
20
0.0471049824482748
30
0
41
1
10
14.9004493384316
20
0.040873183469273
30
0
41
1
10
14.9001829501682
20
0.0289228014692071
30
0
41
1
10
14.8995729575372
20
0.023097305191385
30
0
41
1
10
14.8974297331779
20
0.0118671783243087
30
0
41
1
10
14.8959371506317
20
0.0066868808252423
30
0
41
1
10
14.8923931195156
20
-0.0030719588652346
30
0
41
1
10
14.8903436655565
20
-0.0076723497727755
30
0
41
1
10
14.8860448120647
20
-0.0166130360095451
30
0
41
1
10
14.883795843961
20
-0.0209666495848921
30
0
41
1
10
14.8791972281592
20
-0.0296206754223647
30
0
41
1
10
14.8768429118437
20
-0.0339109390862973
30
0
41
1
10
14.8696483292661
20
-0.0466932742929203
30
0
41
1
10
14.8646752595014
20
-0.0550914996069878
30
0
41
1
10
14.8493638527945
20
-0.0798832916362926
30
0
41
1
10
14.8386252500966
20
-0.0958938783316796
30
0
41
1
10
14.8166941056223
20
-0.126850262035333
30
0
41
1
10
14.8055165208467
20
-0.141775336032992
30
0
41
1
10
14.7716723128141
20
-0.185066895891907
30
0
41
1
10
14.7487084083536
20
-0.211955381049279
30
0
41
1
10
14.7025514321175
20
-0.262118197115285
30
0
41
1
10
14.679338403841
20
-0.28538059698937
30
0
41
1
10
14.6327558315567
20
-0.328356497970418
30
0
41
1
10
14.6093816569436
20
-0.348070094309577
30
0
41
1
10
14.5741767853107
20
-0.374974913868869
30
0
41
1
10
14.5624582770281
20
-0.383465800787576
30
0
41
1
10
14.5391284995648
20
-0.399454059272074
30
0
41
1
10
14.52750384976
20
-0.40696224060602
30
0
41
1
10
14.4695533878217
20
-0.44210971037316
30
0
41
1
10
14.4237488001126
20
-0.46260856144832
30
0
41
1
10
14.3781092593181
20
-0.475527347970654
30
0
0
SPLINE
5
BC
100
AcDbEntity
8
1
62
256
6
ByLayer
370
18
48
1
60
0
100
AcDbSpline
70
4
71
3
72
56
73
52
40
0
40
0
40
0
40
0
40
0.0714591963346596
40
0.0714591963346596
40
0.107188794501987
40
0.107188794501987
40
0.142918392669315
40
0.142918392669315
40
0.214377589003967
40
0.214377589003967
40
0.250107187171295
40
0.250107187171295
40
0.285836785338623
40
0.285836785338623
40
0.321566383505951
40
0.321566383505951
40
0.339431182589615
40
0.339431182589615
40
0.357295981673278
40
0.357295981673278
40
0.393025579840606
40
0.393025579840606
40
0.428755178007934
40
0.428755178007934
40
0.500214374342586
40
0.500214374342586
40
0.535943972509914
40
0.535943972509914
40
0.571673570677242
40
0.571673570677242
40
0.643132767011898
40
0.643132767011898
40
0.678862365179225
40
0.678862365179225
40
0.696727164262887
40
0.696727164262887
40
0.714591963346549
40
0.714591963346549
40
0.786051159681205
40
0.786051159681205
40
0.821780757848533
40
0.821780757848533
40
0.857510356015861
40
0.857510356015861
40
0.893239954183189
40
0.893239954183189
40
0.928969552350517
40
0.928969552350517
40
0.964699150517845
40
0.964699150517845
40
1
40
1
40
1
40
1
41
1
10
14.3781092593182
20
-0.475527347970683
30
0
41
1
10
14.2783885180514
20
-0.425301111402575
30
0
41
1
10
14.1792487756018
20
-0.373716829236628
30
0
41
1
10
14.0311975688458
20
-0.29469364876897
30
0
41
1
10
13.9819643024542
20
-0.268064306785419
30
0
41
1
10
13.8835060265597
20
-0.214640512676794
30
0
41
1
10
13.8342761650577
20
-0.1878553877645
30
0
41
1
10
13.6866954668809
20
-0.107081014604802
30
0
41
1
10
13.5884301588887
20
-0.0527149732119767
30
0
41
1
10
13.4409685215842
20
0.0291609426174659
30
0
41
1
10
13.3918238967842
20
0.0565444555784893
30
0
41
1
10
13.2933418384887
20
0.111104090230583
30
0
41
1
10
13.2439829746392
20
0.138239959931951
30
0
41
1
10
13.1450791565705
20
0.19231567240891
30
0
41
1
10
13.095547379018
20
0.219280323168931
30
0
41
1
10
13.0210801803642
20
0.259526192332658
30
0
41
1
10
12.9962287788955
20
0.272906555373709
30
0
41
1
10
12.9464640828792
20
0.299590476564049
30
0
41
1
10
12.9215285715146
20
0.312906763080207
30
0
41
1
10
12.8468774472482
20
0.352606903508189
30
0
41
1
10
12.797290051149
20
0.378791929319021
30
0
41
1
10
12.6982913446117
20
0.430274994407085
30
0
41
1
10
12.648850688548
20
0.455523276400925
30
0
41
1
10
12.5007139783799
20
0.529848670191086
30
0
41
1
10
12.4022836042593
20
0.577642093133761
30
0
41
1
10
12.2548562055696
20
0.646267012187536
30
0
41
1
10
12.2057726099011
20
0.668664370795312
30
0
41
1
10
12.107581058349
20
0.712282112803308
30
0
41
1
10
12.0584411815466
20
0.733456590049485
30
0
41
1
10
11.9108082561019
20
0.794980354416225
30
0
41
1
10
11.8122357343075
20
0.833519781555026
30
0
41
1
10
11.663895055346
20
0.887202629444261
30
0
41
1
10
11.6143834733559
20
0.904427224246632
30
0
41
1
10
11.5399443536932
20
0.92915034071487
30
0
41
1
10
11.5150991336665
20
0.93720161718727
30
0
41
1
10
11.4653154068436
20
0.952890958198111
30
0
41
1
10
11.4403794364611
20
0.960524744621864
30
0
41
1
10
11.3159534448694
20
0.99753053732934
30
0
41
1
10
11.2169223263506
20
1.0236266617566
30
0
41
1
10
11.0689131242327
20
1.0574266695908
30
0
41
1
10
11.019674641792
20
1.06780723343957
30
0
41
1
10
10.9213340542952
20
1.08674980761253
30
0
41
1
10
10.8722081469442
20
1.0952941308245
30
0
41
1
10
10.7738744651198
20
1.11045944554624
30
0
41
1
10
10.7246931947094
20
1.1170987170712
30
0
41
1
10
10.6263490102916
20
1.1285160120249
30
0
41
1
10
10.5771720565075
20
1.13328635595718
30
0
41
1
10
10.4787506717266
20
1.14092011159394
30
0
41
1
10
10.4295137358439
20
1.14378623741212
30
0
41
1
10
10.33155385567
20
1.14755852818553
30
0
41
1
10
10.282818137053
20
1.14848189563011
30
0
41
1
10
10.2339284876215
20
1.14844567761634
30
0
0
SPLINE
5
BD
100
AcDbEntity
8
1
62
256
6
ByLayer
370
18
48
1
60
0
100
AcDbSpline
70
4
71
3
72
14
73
10
40
0
40
0
40
0
40
0
40
0.0574934805076146
40
0.0574934805076146
40
0.293120110380714
40
0.293120110380714
40
0.528746740253815
40
0.528746740253815
40
1
40
1
40
1
40
1
41
1
10
5.52491803456675
20
-0.738248782964888
30
0
41
1
10
5.51277372918418
20
-0.743390465824348
30
0
41
1
10
5.50063471924528
20
-0.748494855969057
30
0
41
1
10
5.43877981576188
20
-0.774324478474995
30
0
41
1
10
5.38912962227627
20
-0.794448220503114
30
0
41
1
10
5.2897659767232
20
-0.833151790449989
30
0
41
1
10
5.24005919830626
20
-0.851743356039947
30
0
41
1
10
5.09084928949557
20
-0.905244258230994
30
0
41
1
10
4.99123148289056
20
-0.937878295181008
30
0
41
1
10
4.89171298378352
20
-0.967624129432068
30
0
0
SPLINE
5
BE
100
AcDbEntity
8
1
62
256
6
ByLayer
370
18
48
1
60
0
100
AcDbSpline
70
4
71
3
72
40
73
36
40
0
40
0
40
0
40
0
40
0.121131387899413
40
0.121131387899413
40
0.181697081849122
40
0.181697081849122
40
0.24226277579883
40
0.24226277579883
40
0.302828469748538
40
0.302828469748538
40
0.363394163698247
40
0.363394163698247
40
0.423959857647955
40
0.423959857647955
40
0.484525551597663
40
0.484525551597663
40
0.545091245547371
40
0.545091245547371
40
0.575374092522225
40
0.575374092522225
40
0.60565693949708
40
0.60565693949708
40
0.666222633446794
40
0.666222633446794
40
0.726788327396509
40
0.726788327396509
40
0.787354021346224
40
0.787354021346224
40
0.847919715295938
40
0.847919715295938
40
0.908485409245653
40
0.908485409245653
40
0.969051103195368
40
0.969051103195368
40
1
40
1
40
1
40
1
41
1
10
4.89171298378352
20
-0.437564188572537
30
0
41
1
10
4.99106958613035
20
-0.489222187653326
30
0
41
1
10
5.09047157451232
20
-0.537917274946693
30
0
41
1
10
5.23894666451392
20
-0.608057206984483
30
0
41
1
10
5.28832776697755
20
-0.63095272001857
30
0
41
1
10
5.38683828321766
20
-0.675806758787246
30
0
41
1
10
5.43595659822421
20
-0.697778043523584
30
0
41
1
10
5.53417132163284
20
-0.740423222914103
30
0
41
1
10
5.58327441358435
20
-0.761088722017178
30
0
41
1
10
5.68164451140993
20
-0.800893222001463
30
0
41
1
10
5.73093022765795
20
-0.820011790081907
30
0
41
1
10
5.82954423257019
20
-0.856909280505164
30
0
41
1
10
5.8788584631092
20
-0.874704234270808
30
0
41
1
10
5.97746430717146
20
-0.90899854398549
30
0
41
1
10
6.02673818890651
20
-0.925514787563628
30
0
41
1
10
6.12545229549306
20
-0.956992860677076
30
0
41
1
10
6.17490636750259
20
-0.97194003774942
30
0
41
1
10
6.24937797651924
20
-0.993026880034051
30
0
41
1
10
6.27425149309855
20
-0.999832856722861
30
0
41
1
10
6.32410357605539
20
-1.01299633913683
30
0
41
1
10
6.34909886856528
20
-1.01936175348354
30
0
41
1
10
6.4239392483218
20
-1.03776346526337
30
0
41
1
10
6.47368817030929
20
-1.04913426544996
30
0
41
1
10
6.57283561232529
20
-1.07012715702262
30
0
41
1
10
6.62221834285873
20
-1.07975527535305
30
0
41
1
10
6.7207760795248
20
-1.09713643460063
30
0
41
1
10
6.76996998637344
20
-1.10487767715296
30
0
41
1
10
6.86839669127906
20
-1.11839137756249
30
0
41
1
10
6.91764953979927
20
-1.12416022409249
30
0
41
1
10
7.0161896976953
20
-1.13379594105766
30
0
41
1
10
7.06544756613323
20
-1.13767342509314
30
0
41
1
10
7.16384596248505
20
-1.1435497184666
30
0
41
1
10
7.21297804340085
20
-1.14554574955881
30
0
41
1
10
7.28720273454977
20
-1.14708574310157
30
0
41
1
10
7.31230819107304
20
-1.14735038853493
30
0
41
1
10
7.33743269224456
20
-1.14735902402273
30
0
0
SPLINE
5
BF
100
AcDbEntity
8
1
62
256
6
ByLayer
370
18
48
1
60
0
100
AcDbSpline
70
4
71
3
72
40
73
36
40
0
40
0
40
0
40
0
40
0.0464080836101661
40
0.0464080836101661
40
0.0781944808231572
40
0.0781944808231572
40
0.109980878036149
40
0.109980878036149
40
0.173553672462138
40
0.173553672462138
40
0.237126466888127
40
0.237126466888127
40
0.300699261314117
40
0.300699261314117
40
0.364272055740106
40
0.364272055740106
40
0.427844850166095
40
0.427844850166095
40
0.491417644592085
40
0.491417644592085
40
0.554990439018074
40
0.554990439018074
40
0.618563233444064
40
0.618563233444064
40
0.682136027870053
40
0.682136027870053
40
0.745708822296042
40
0.745708822296042
40
0.809281616722031
40
0.809281616722031
40
0.872854411148021
40
0.872854411148021
40
0.93642720557401
40
0.93642720557401
40
1
40
1
40
1
40
1
41
1
10
12.0425311544707
20
0.737651902044206
30
0
41
1
10
12.0787460822043
20
0.753031546863383
30
0
41
1
10
12.1149886990148
20
0.768152370688227
30
0
41
1
10
12.1761297743349
20
0.793141621156195
30
0
41
1
10
12.201015690279
20
0.803158342885666
30
0
41
1
10
12.2506782317698
20
0.822778933277789
30
0
41
1
10
12.2754797971038
20
0.832391692107024
30
0
41
1
10
12.3498324204771
20
0.860598361026888
30
0
41
1
10
12.3993445994225
20
0.878543951567394
30
0
41
1
10
12.4983328745276
20
0.912697055072499
30
0
41
1
10
12.5477769778899
20
0.928946625401494
30
0
41
1
10
12.6464218218258
20
0.959960559286628
30
0
41
1
10
12.6956266812352
20
0.974717081949194
30
0
41
1
10
12.7938285043898
20
1.00266607262446
30
0
41
1
10
12.8428475920327
20
1.01583328601305
30
0
41
1
10
12.9409758184526
20
1.04033277463475
30
0
41
1
10
12.9900850430946
20
1.05166738662047
30
0
41
1
10
13.0885249881182
20
1.07245082192384
30
0
41
1
10
13.1378306229106
20
1.08192326005843
30
0
41
1
10
13.2364422312133
20
1.09913427884859
30
0
41
1
10
13.2857560035507
20
1.1068652220176
30
0
41
1
10
13.384391334
20
1.12052184052379
30
0
41
1
10
13.4337266094429
20
1.12643536049285
30
0
41
1
10
13.5327000951953
20
1.1362915628269
30
0
41
1
10
13.5823365018897
20
1.14023678763252
30
0
41
1
10
13.6820736712471
20
1.14613582189412
30
0
41
1
10
13.7319830253536
20
1.14808855068353
30
0
41
1
10
13.8315916756139
20
1.15004862835286
30
0
41
1
10
13.8813112281902
20
1.15005305234541
30
0
41
1
10
13.9805553111677
20
1.14807047993702
30
0
41
1
10
14.0300807152853
20
1.14607703744107
30
0
41
1
10
14.129213566605
20
1.14010115355816
30
0
41
1
10
14.1788230613756
20
1.13612120638481
30
0
41
1
10
14.2783060488197
20
1.12626267524777
30
0
41
1
10
14.328186016441
20
1.12039428376983
30
0
41
1
10
14.3781092593182
20
1.11355478264173
30
0
0
SPLINE
5
C0
100
AcDbEntity
8
1
62
256
6
ByLayer
370
18
48
1
60
0
100
AcDbSpline
70
4
71
3
72
94
73
90
40
0
40
0
40
0
40
0
40
0.004665574212021
40
0.004665574212021
40
0.0461378419531896
40
0.0461378419531896
40
0.0668739758237739
40
0.0668739758237739
40
0.0772420427590649
40
0.0772420427590649
40
0.0876101096943561
40
0.0876101096943561
40
0.129082377435518
40
0.129082377435518
40
0.1498185113061
40
0.1498185113061
40
0.170554645176682
40
0.170554645176682
40
0.191290779047264
40
0.191290779047264
40
0.212026912917847
40
0.212026912917847
40
0.232763046788429
40
0.232763046788429
40
0.253499180659011
40
0.253499180659011
40
0.274235314529593
40
0.274235314529593
40
0.294971448400175
40
0.294971448400175
40
0.315707582270758
40
0.315707582270758
40
0.33644371614134
40
0.33644371614134
40
0.357179850011922
40
0.357179850011922
40
0.377915983882504
40
0.377915983882504
40
0.398652117753086
40
0.398652117753086
40
0.419388251623668
40
0.419388251623668
40
0.44012438549425
40
0.44012438549425
40
0.460860519364833
40
0.460860519364833
40
0.481596653235415
40
0.481596653235415
40
0.502332787105997
40
0.502332787105997
40
0.543805054847159
40
0.543805054847159
40
0.56454118871774
40
0.56454118871774
40
0.585277322588321
40
0.585277322588321
40
0.626749590329485
40
0.626749590329485
40
0.647485724200068
40
0.647485724200068
40
0.668221858070651
40
0.668221858070651
40
0.688957991941235
40
0.688957991941235
40
0.699326058876526
40
0.699326058876526
40
0.709694125811818
40
0.709694125811818
40
0.751166393552986
40
0.751166393552986
40
0.771902527423571
40
0.771902527423571
40
0.792638661294155
40
0.792638661294155
40
0.834110929035324
40
0.834110929035324
40
0.854847062905908
40
0.854847062905908
40
0.875583196776493
40
0.875583196776493
40
0.896319330647077
40
0.896319330647077
40
0.917055464517661
40
0.917055464517661
40
0.937791598388246
40
0.937791598388246
40
0.95852773225883
40
0.95852773225883
40
1
40
1
40
1
40
1
41
1
10
12.0424367262777
20
-0.74002096600114
30
0
41
1
10
12.0313712805818
20
-0.744702313858966
30
0
41
1
10
12.0203025431239
20
-0.749350284471092
30
0
41
1
10
11.9108082561018
20
-0.794980354416225
30
0
41
1
10
11.8122357343075
20
-0.833519781555026
30
0
41
1
10
11.6638950553459
20
-0.887202629444261
30
0
41
1
10
11.6143834733559
20
-0.904427224246632
30
0
41
1
10
11.5399443536932
20
-0.92915034071487
30
0
41
1
10
11.5150991336665
20
-0.93720161718727
30
0
41
1
10
11.4653154068435
20
-0.952890958198111
30
0
41
1
10
11.4403794364611
20
-0.960524744621864
30
0
41
1
10
11.3159534448694
20
-0.99753053732934
30
0
41
1
10
11.2169223263506
20
-1.0236266617566
30
0
41
1
10
11.0689131242327
20
-1.0574266695908
30
0
41
1
10
11.019674641792
20
-1.06780723343957
30
0
41
1
10
10.9213340542952
20
-1.08674980761253
30
0
41
1
10
10.8722081469442
20
-1.0952941308245
30
0
41
1
10
10.7738744651198
20
-1.11045944554624
30
0
41
1
10
10.7246931947094
20
-1.1170987170712
30
0
41
1
10
10.6263490102916
20
-1.1285160120249
30
0
41
1
10
10.5771720565075
20
-1.13328635595718
30
0
41
1
10
10.4787506717266
20
-1.14092011159394
30
0
41
1
10
10.4295137358439
20
-1.14378623741212
30
0
41
1
10
10.3309625575547
20
-1.14758129820547
30
0
41
1
10
10.2816342840021
20
-1.14850418492028
30
0
41
1
10
10.1826598007792
20
-1.14838368163635
30
0
41
1
10
10.1330304546778
20
-1.14734659485484
30
0
41
1
10
10.0335536001194
20
-1.1432962474278
30
0
41
1
10
9.98362362835573
20
-1.14027249735582
30
0
41
1
10
9.88417661337581
20
-1.13228801251788
30
0
41
1
10
9.83459162540368
20
-1.12732739621401
30
0
41
1
10
9.73568883698786
20
-1.1154819096904
30
0
41
1
10
9.6863671572595
20
-1.10859412952621
30
0
41
1
10
9.58775497611282
20
-1.09302378052561
30
0
41
1
10
9.53846647674996
20
-1.0843462343735
30
0
41
1
10
9.43999784775039
20
-1.06518892578083
30
0
41
1
10
9.39081687378498
20
-1.05470675026368
30
0
41
1
10
9.29248742781155
20
-1.03198801439316
30
0
41
1
10
9.24333989831047
20
-1.01975208135173
30
0
41
1
10
9.14507388171506
20
-0.993518596164819
30
0
41
1
10
9.09596384325943
20
-0.979509393957642
30
0
41
1
10
8.99757281049432
20
-0.949905176376177
30
0
41
1
10
8.94827463388862
20
-0.934332940720338
30
0
41
1
10
8.84953442597822
20
-0.901590069492499
30
0
41
1
10
8.80010244205664
20
-0.884405524141727
30
0
41
1
10
8.70104371529862
20
-0.848468701970177
30
0
41
1
10
8.65141380281472
20
-0.82972165112659
30
0
41
1
10
8.55193904187601
20
-0.790650740782695
30
0
41
1
10
8.50209097003284
20
-0.770292150471533
30
0
41
1
10
8.35313586076975
20
-0.70765188156517
30
0
41
1
10
8.25414295706113
20
-0.663808769940403
30
0
41
1
10
8.10618567457087
20
-0.594898233664651
30
0
41
1
10
8.0569341713996
20
-0.571434797387241
30
0
41
1
10
7.95855016031848
20
-0.523548401743028
30
0
41
1
10
7.90943488275568
20
-0.499096162074636
30
0
41
1
10
7.76208455964138
20
-0.424596925157459
30
0
41
1
10
7.66368939004639
20
-0.373681733320524
30
0
41
1
10
7.51592380818963
20
-0.295330311840701
30
0
41
1
10
7.46662250745584
20
-0.268912187118559
30
0
41
1
10
7.36789815758337
20
-0.215518310199599
30
0
41
1
10
7.31849120564749
20
-0.188512248206933
30
0
41
1
10
7.21947390058088
20
-0.134078630481838
30
0
41
1
10
7.16983252878799
20
-0.106709872807699
30
0
41
1
10
7.09509946530719
20
-0.0655665385573343
30
0
41
1
10
7.07013507544136
20
-0.0518197812276924
30
0
41
1
10
7.0203219704751
20
-0.0243614154112777
30
0
41
1
10
6.99545268936959
20
-0.0106364394705167
30
0
41
1
10
6.87126668841023
20
0.0579191029999038
30
0
41
1
10
6.77241809932457
20
0.11251874550706
30
0
41
1
10
6.62467254194041
20
0.193646565466253
30
0
41
1
10
6.57547797499353
20
0.22049668025619
30
0
41
1
10
6.47704707256344
20
0.273548720581516
30
0
41
1
10
6.42783899027737
20
0.299802983539308
30
0
41
1
10
6.28029224345434
20
0.377852310487583
30
0
41
1
10
6.18195377209037
20
0.428797238650247
30
0
41
1
10
6.03430121335296
20
0.503232127853494
30
0
41
1
10
5.98504172611422
20
0.527681505408651
30
0
41
1
10
5.88623774192723
20
0.575520306774678
30
0
41
1
10
5.83671439605052
20
0.598946472685981
30
0
41
1
10
5.73748482896261
20
0.64490545103078
30
0
41
1
10
5.68776701483142
20
0.667418717774865
30
0
41
1
10
5.58805812799261
20
0.711394773134515
30
0
41
1
10
5.53822480048154
20
0.732797836757584
30
0
41
1
10
5.43877981576185
20
0.774324478474995
30
0
41
1
10
5.38912962227627
20
0.794448220503114
30
0
41
1
10
5.28976597672323
20
0.833151790449989
30
0
41
1
10
5.24005919830626
20
0.851743356039947
30
0
41
1
10
5.09084928949554
20
0.905244258230994
30
0
41
1
10
4.99123148289053
20
0.937878295181008
30
0
41
1
10
4.89171298378352
20
0.967624129432068
30
0
0
SPLINE
5
C1
100
AcDbEntity
8
1
62
256
6
ByLayer
370
18
48
1
60
0
100
AcDbSpline
70
4
71
3
72
12
73
8
40
0
40
0
40
0
40
0
40
0.513215332612772
40
0.513215332612772
40
0.769822998919156
40
0.769822998919156
40
1
40
1
40
1
40
1
41
1
10
4.89171298378352
20
0.967624129431954
30
0
41
1
10
4.62429509830537
20
1.02056574794651
30
0
41
1
10
4.36057392850049
20
1.06549365187036
30
0
41
1
10
3.96931599497054
20
1.11302108732434
30
0
41
1
10
3.83961681662632
20
1.12555133629343
30
0
41
1
10
3.59478895959933
20
1.14150543091267
30
0
41
1
10
3.47953346666043
20
1.14575138981863
30
0
41
1
10
3.36476324484499
20
1.14586635080613
30
0
0
SPLINE
5
C2
100
AcDbEntity
8
1
62
256
6
ByLayer
370
18
48
1
60
0
100
AcDbSpline
70
4
71
3
72
120
73
116
40
0
40
0
40
0
40
0
40
0.0129701439795296
40
0.0129701439795296
40
0.0307618388108555
40
0.0307618388108555
40
0.0485535336421814
40
0.0485535336421814
40
0.0663452284735073
40
0.0663452284735073
40
0.0841369233048331
40
0.0841369233048331
40
0.0930327707204961
40
0.0930327707204961
40
0.101928618136159
40
0.101928618136159
40
0.119720312967487
40
0.119720312967487
40
0.137512007798815
40
0.137512007798815
40
0.155303702630142
40
0.155303702630142
40
0.17309539746147
40
0.17309539746147
40
0.190887092292798
40
0.190887092292798
40
0.208678787124126
40
0.208678787124126
40
0.226470481955453
40
0.226470481955453
40
0.244262176786781
40
0.244262176786781
40
0.262053871618109
40
0.262053871618109
40
0.279845566449437
40
0.279845566449437
40
0.297637261280765
40
0.297637261280765
40
0.315428956112092
40
0.315428956112092
40
0.33322065094342
40
0.33322065094342
40
0.351012345774748
40
0.351012345774748
40
0.368804040606076
40
0.368804040606076
40
0.386595735437404
40
0.386595735437404
40
0.404387430268731
40
0.404387430268731
40
0.422179125100059
40
0.422179125100059
40
0.439970819931387
40
0.439970819931387
40
0.457762514762715
40
0.457762514762715
40
0.475554209594042
40
0.475554209594042
40
0.49334590442537
40
0.49334590442537
40
0.511137599256698
40
0.511137599256698
40
0.528929294088026
40
0.528929294088026
40
0.546720988919354
40
0.546720988919354
40
0.564512683750682
40
0.564512683750682
40
0.600096073413335
40
0.600096073413335
40
0.617887768244662
40
0.617887768244662
40
0.626783615660326
40
0.626783615660326
40
0.635679463075991
40
0.635679463075991
40
0.671262852738644
40
0.671262852738644
40
0.706846242401298
40
0.706846242401298
40
0.724637937232624
40
0.724637937232624
40
0.742429632063949
40
0.742429632063949
40
0.760221326895275
40
0.760221326895275
40
0.778013021726601
40
0.778013021726601
40
0.795804716557927
40
0.795804716557927
40
0.804700563973588
40
0.804700563973588
40
0.81359641138925
40
0.81359641138925
40
0.831388106220576
40
0.831388106220576
40
0.849179801051902
40
0.849179801051902
40
0.866971495883228
40
0.866971495883228
40
0.884763190714554
40
0.884763190714554
40
0.90255488554588
40
0.90255488554588
40
0.920346580377205
40
0.920346580377205
40
0.938138275208531
40
0.938138275208531
40
0.955929970039857
40
0.955929970039857
40
0.973721664871183
40
0.973721664871183
40
0.991513359702509
40
0.991513359702509
40
1
40
1
40
1
40
1
41
1
10
5.52498903325389
20
0.736289019136024
30
0
41
1
10
5.56079122504508
20
0.751567873220466
30
0
41
1
10
5.59660356613156
20
0.766482233501705
30
0
41
1
10
5.6816445114099
20
0.800893222001463
30
0
41
1
10
5.73093022765795
20
0.820011790081907
30
0
41
1
10
5.82954423257021
20
0.856909280505164
30
0
41
1
10
5.8788584631092
20
0.874704234270808
30
0
41
1
10
5.97746430717146
20
0.90899854398549
30
0
41
1
10
6.02673818890651
20
0.925514787563628
30
0
41
1
10
6.12545229549303
20
0.956992860677076
30
0
41
1
10
6.17490636750259
20
0.97194003774942
30
0
41
1
10
6.24937797651927
20
0.993026880034051
30
0
41
1
10
6.27425149309855
20
0.999832856722861
30
0
41
1
10
6.32410357605542
20
1.01299633913683
30
0
41
1
10
6.34909886856528
20
1.01936175348357
30
0
41
1
10
6.4239392483218
20
1.0377634652634
30
0
41
1
10
6.47368817030929
20
1.04913426544996
30
0
41
1
10
6.57283561232529
20
1.07012715702262
30
0
41
1
10
6.62221834285873
20
1.07975527535305
30
0
41
1
10
6.7207760795248
20
1.09713643460063
30
0
41
1
10
6.76996998637344
20
1.10487767715296
30
0
41
1
10
6.86839669127906
20
1.11839137756249
30
0
41
1
10
6.91764953979921
20
1.12416022409249
30
0
41
1
10
7.01618969769527
20
1.13379594105766
30
0
41
1
10
7.0654475661334
20
1.13767342509314
30
0
41
1
10
7.16384596248523
20
1.14354971846657
30
0
41
1
10
7.21297804340085
20
1.14554574955881
30
0
41
1
10
7.31122401468434
20
1.14758413003619
30
0
41
1
10
7.36036136553636
20
1.14762231632952
30
0
41
1
10
7.45889403491964
20
1.14573889828469
30
0
41
1
10
7.50830122763315
20
1.14382241597789
30
0
41
1
10
7.60742842693136
20
1.13807951347766
30
0
41
1
10
7.65711541606044
20
1.13425019996563
30
0
41
1
10
7.75661337513105
20
1.12460099500314
30
0
41
1
10
7.80651721063063
20
1.11876214999811
30
0
41
1
10
7.9058568495081
20
1.1051214994549
30
0
41
1
10
7.9553540468697
20
1.09732789301145
30
0
41
1
10
8.05424961633375
20
1.07995857437959
30
0
41
1
10
8.10365311579733
20
1.07038908695756
30
0
41
1
10
8.20246690978189
20
1.04960822576527
30
0
41
1
10
8.25184666106722
20
1.03837939263101
30
0
41
1
10
8.35039907694716
20
1.01413317979819
30
0
41
1
10
8.39957776228945
20
1.00111770258687
30
0
41
1
10
8.4977528081842
20
0.973276320964288
30
0
41
1
10
8.5467694495355
20
0.958464987721413
30
0
41
1
10
8.64492032691851
20
0.927316453621813
30
0
41
1
10
8.69405317581334
20
0.91097984103726
30
0
41
1
10
8.79258059184804
20
0.876983201854188
30
0
41
1
10
8.84195401858364
20
0.859304606177432
30
0
41
1
10
8.94074323826169
20
0.822366263735773
30
0
41
1
10
8.99016618420836
20
0.803112767579677
30
0
41
1
10
9.08905478829951
20
0.762959058237669
30
0
41
1
10
9.13852993892857
20
0.742066422461647
30
0
41
1
10
9.23780936802808
20
0.698999213741985
30
0
41
1
10
9.28767842714689
20
0.676794016248834
30
0
41
1
10
9.38717627309904
20
0.631718712896259
30
0
41
1
10
9.43687976842725
20
0.60881124532068
30
0
41
1
10
9.53601707783713
20
0.561981445000328
30
0
41
1
10
9.5854511043691
20
0.538058339557182
30
0
41
1
10
9.68402580483888
20
0.48914807251191
30
0
41
1
10
9.73316053609611
20
0.4641490988474
30
0
41
1
10
9.83138816326513
20
0.413506221286099
30
0
41
1
10
9.88048542273981
20
0.387870391113154
30
0
41
1
10
9.97882241938586
20
0.336288205913945
30
0
41
1
10
10.0280768825618
20
0.310369835665654
30
0
41
1
10
10.1265847507859
20
0.257981010688496
30
0
41
1
10
10.1758279435398
20
0.231491401968896
30
0
41
1
10
10.3234790820506
20
0.151033113414997
30
0
41
1
10
10.4217565492205
20
0.0959598600117886
30
0
41
1
10
10.5703045606307
20
0.013717265766644
30
0
41
1
10
10.6200219400318
20
-0.0136056306950536
30
0
41
1
10
10.6948044955144
20
-0.0546342058059111
30
0
41
1
10
10.7197869840643
20
-0.0683370814747661
30
0
41
1
10
10.7696471343473
20
-0.0957141498264775
30
0
41
1
10
10.7945312514647
20
-0.109388363633059
30
0
41
1
10
10.9187148158694
20
-0.177699845123016
30
0
41
1
10
11.0171953193632
20
-0.232339388954244
30
0
41
1
10
11.2142273329556
20
-0.338288689693684
30
0
41
1
10
11.3128873977058
20
-0.389451178308349
30
0
41
1
10
11.4603942820829
20
-0.464749911460643
30
0
41
1
10
11.5094766771185
20
-0.489612222937524
30
0
41
1
10
11.6076047223703
20
-0.538614202800488
30
0
41
1
10
11.6566724950586
20
-0.562716594157365
30
0
41
1
10
11.7550362331279
20
-0.609769463167851
30
0
41
1
10
11.8043469335546
20
-0.632698277500623
30
0
41
1
10
11.9032315831664
20
-0.677366802712328
30
0
41
1
10
11.9527731943874
20
-0.699157592766227
30
0
41
1
10
12.0519424211283
20
-0.741806583324319
30
0
41
1
10
12.1015674336545
20
-0.76266690351369
30
0
41
1
10
12.1761297743349
20
-0.793141621156195
30
0
41
1
10
12.201015690279
20
-0.803158342885666
30
0
41
1
10
12.2506782317698
20
-0.822778933277789
30
0
41
1
10
12.2754797971038
20
-0.832391692107024
30
0
41
1
10
12.3498324204772
20
-0.860598361026888
30
0
41
1
10
12.3993445994226
20
-0.878543951567394
30
0
41
1
10
12.4983328745276
20
-0.912697055072528
30
0
41
1
10
12.54777697789
20
-0.928946625401522
30
0
41
1
10
12.6464218218258
20
-0.959960559286628
30
0
41
1
10
12.6956266812352
20
-0.974717081949194
30
0
41
1
10
12.7938285043898
20
-1.00266607262446
30
0
41
1
10
12.8428475920327
20
-1.01583328601305
30
0
41
1
10
12.9409758184526
20
-1.04033277463475
30
0
41
1
10
12.9900850430947
20
-1.05166738662047
30
0
41
1
10
13.0885249881182
20
-1.07245082192384
30
0
41
1
10
13.1378306229106
20
-1.08192326005843
30
0
41
1
10
13.2364422312133
20
-1.09913427884862
30
0
41
1
10
13.2857560035506
20
-1.1068652220176
30
0
41
1
10
13.3843913339999
20
-1.12052184052379
30
0
41
1
10
13.4337266094429
20
-1.12643536049285
30
0
41
1
10
13.5327000951953
20
-1.1362915628269
30
0
41
1
10
13.5823365018897
20
-1.14023678763252
30
0
41
1
10
13.6820736712471
20
-1.14613582189412
30
0
41
1
10
13.7319830253536
20
-1.14808855068353
30
0
41
1
10
13.8055440187858
20
-1.14953606814495
30
0
41
1
10
13.8292813988649
20
-1.14978156600483
30
0
41
1
10
13.8529981081903
20
-1.1498029021208
30
0
0
SPLINE
5
C3
100
AcDbEntity
8
1
62
256
6
ByLayer
370
18
48
1
60
0
100
AcDbSpline
70
4
71
5
72
110
73
104
40
0
40
0
40
0
40
0
40
0
40
0
40
0.0132169238484621
40
0.0532139508990402
40
0.0926424205526171
40
0.131247423825748
40
0.170947688292354
40
0.211526995320732
40
0.251972061740163
40
0.288403130014922
40
0.312918897496157
40
0.32929174032923
40
0.344111671974362
40
0.35835178299944
40
0.372011929461287
40
0.385079838643087
40
0.39754373817379
40
0.409392192584753
40
0.420614215455851
40
0.431199435080225
40
0.441138358533737
40
0.45042283402341
40
0.45904695196115
40
0.467009049382291
40
0.468611173961243
40
0.472262439038672
40
0.474008889221798
40
0.474317086312938
40
0.475755339404924
40
0.477425896598267
40
0.479096453791609
40
0.480697175375359
40
0.481006558538606
40
0.48229789695911
40
0.483838819537986
40
0.487188030752753
40
0.488368441390071
40
0.48982625603999
40
0.49128407068991
40
0.492703253777348
40
0.493025253301389
40
0.494122436864787
40
0.495498943545481
40
0.496875450226174
40
0.498234114707629
40
0.498565217816554
40
0.499592779189083
40
0.502365456411241
40
0.504165678470078
40
0.505221808744594
40
0.508098938877458
40
0.509882228679891
40
0.510891195278637
40
0.513526568147465
40
0.515172736720843
40
0.516070646851775
40
0.51737857920874
40
0.518686511565705
40
0.520076845789288
40
0.520509134581494
40
0.521467180012871
40
0.523030169547416
40
0.523811664314688
40
0.524593159081961
40
0.525748270587853
40
0.526903382093744
40
0.527660514005169
40
0.529213605105528
40
0.533865384329658
40
0.53502832913569
40
0.536191273941722
40
0.537354218747754
40
0.538517163553787
40
0.540679137468313
40
0.54284111138284
40
0.545003085297366
40
0.547165059211893
40
0.550144586287374
40
0.551489007040946
40
0.555812954869999
40
0.567448451976964
40
0.594245342534429
40
0.628109894394024
40
0.652926848011936
40
0.676243498100855
40
0.698849440139713
40
0.720907594710542
40
0.742646804084563
40
0.764251815820093
40
0.785777163499553
40
0.807214031620847
40
0.828345223221784
40
0.84855315150056
40
0.868521788238233
40
0.888837173273785
40
0.9091754663831
40
0.92945173577811
40
0.949658046384567
40
0.969788965964286
40
0.989839002704068
40
1
40
1
40
1
40
1
40
1
40
1
41
1
10
4.89171298378352
20
-0.967624129431982
30
0
41
1
10
4.89171298378352
20
-0.963098856604773
30
0
41
1
10
4.89171298378352
20
-0.944897061575006
30
0
41
1
10
4.89171298378352
20
-0.913333687685736
30
0
41
1
10
4.89171298378355
20
-0.868924049088037
30
0
41
1
10
4.89171298378349
20
-0.811657812051067
30
0
41
1
10
4.89171298378352
20
-0.745973617572162
30
0
41
1
10
4.89171298378349
20
-0.681036502869318
30
0
41
1
10
4.89171298378355
20
-0.617984442261104
30
0
41
1
10
4.89171298378352
20
-0.560270838560598
30
0
41
1
10
4.89171298378352
20
-0.51060749475738
30
0
41
1
10
4.89171298378352
20
-0.469452580392272
30
0
41
1
10
4.89171298378352
20
-0.436718745312476
30
0
41
1
10
4.89171298378352
20
-0.411173635039859
30
0
41
1
10
4.89171298378352
20
-0.389257456908865
30
0
41
1
10
4.89171298378352
20
-0.368645629441517
30
0
41
1
10
4.89171298378352
20
-0.349037695078238
30
0
41
1
10
4.89171298378352
20
-0.330433101468088
30
0
41
1
10
4.89171298378352
20
-0.312834594472548
30
0
41
1
10
4.89171298378352
20
-0.296245344289076
30
0
41
1
10
4.89171298378352
20
-0.280668951789778
30
0
41
1
10
4.89171298378352
20
-0.266108034030282
30
0
41
1
10
4.89171298378352
20
-0.252558801960589
30
0
41
1
10
4.89171298378352
20
-0.241665362725513
30
0
41
1
10
4.89171298378352
20
-0.232609176853856
30
0
41
1
10
4.89171298378352
20
-0.225742942967855
30
0
41
1
10
4.89171298378352
20
-0.221295286138911
30
0
41
1
10
4.89171298378352
20
-0.218747423457984
30
0
41
1
10
4.89171298378352
20
-0.216180205458954
30
0
41
1
10
4.89171298378352
20
-0.214190594760169
30
0
41
1
10
4.89171298378352
20
-0.212244754828987
30
0
41
1
10
4.89171298378352
20
-0.21030202313338
30
0
41
1
10
4.89171298378352
20
-0.208406975183067
30
0
41
1
10
4.89171298378352
20
-0.206556034688305
30
0
41
1
10
4.89171298378352
20
-0.204231261544635
30
0
41
1
10
4.89171298378355
20
-0.202044733044232
30
0
41
1
10
4.89171298378355
20
-0.199565255143682
30
0
41
1
10
4.89171298378355
20
-0.197088806585583
30
0
41
1
10
4.89171298378355
20
-0.194707780755977
30
0
41
1
10
4.89171298378358
20
-0.193174509182057
30
0
41
1
10
4.89171298378358
20
-0.191695695648065
30
0
41
1
10
4.89171298378358
20
-0.190269768586091
30
0
41
1
10
4.89171298378358
20
-0.188897124135139
30
0
41
1
10
4.89171298378358
20
-0.187573255976133
30
0
41
1
10
4.89171298378358
20
-0.186292392770156
30
0
41
1
10
4.89171298378358
20
-0.185067913247082
30
0
41
1
10
4.89171298378358
20
-0.18357920168026
30
0
41
1
10
4.89171298378358
20
-0.182069351844831
30
0
41
1
10
4.89171298378358
20
-0.180698164204642
30
0
41
1
10
4.89171298378355
20
-0.17894868132808
30
0
41
1
10
4.89171298378352
20
-0.177233496860708
30
0
41
1
10
4.89171298378349
20
-0.175942725940899
30
0
41
1
10
4.89171298378344
20
-0.174656758978244
30
0
41
1
10
4.89171298378338
20
-0.173465453303379
30
0
41
1
10
4.89171298378329
20
-0.172633027090825
30
0
41
1
10
4.89171298378324
20
-0.171951929866793
30
0
41
1
10
4.89171298378312
20
-0.171355626037183
30
0
41
1
10
4.89171298378304
20
-0.170929756857276
30
0
41
1
10
4.89171298378298
20
-0.170641220030262
30
0
41
1
10
4.8917129837829
20
-0.170402847809981
30
0
41
1
10
4.89171298378284
20
-0.170204385030502
30
0
41
1
10
4.89171298378278
20
-0.170073255310371
30
0
41
1
10
4.89171298378272
20
-0.169994201532262
30
0
41
1
10
4.89171298378267
20
-0.169952341683739
30
0
41
1
10
4.89171298378267
20
-0.169936521338116
30
0
41
1
10
4.89171298378267
20
-0.169982850987736
30
0
41
1
10
4.89171298378267
20
-0.170063200922755
30
0
41
1
10
4.89171298378272
20
-0.170276534967058
30
0
41
1
10
4.89171298378284
20
-0.170611128883735
30
0
41
1
10
4.89171298378298
20
-0.171044001218178
30
0
41
1
10
4.89171298378309
20
-0.17157383474094
30
0
41
1
10
4.89171298378321
20
-0.172130026268064
30
0
41
1
10
4.89171298378329
20
-0.172552851782029
30
0
41
1
10
4.89171298378338
20
-0.173053988590254
30
0
41
1
10
4.89171298378346
20
-0.173633925981221
30
0
41
1
10
4.89171298378352
20
-0.174290336127172
30
0
41
1
10
4.89171298378355
20
-0.175073511431407
30
0
41
1
10
4.89171298378358
20
-0.175801999919798
30
0
41
1
10
4.89171298378361
20
-0.176673357210547
30
0
41
1
10
4.89171298378363
20
-0.178171563432017
30
0
41
1
10
4.89171298378361
20
-0.181272371689914
30
0
41
1
10
4.89171298378349
20
-0.186283370145816
30
0
41
1
10
4.89171298378352
20
-0.192788932844707
30
0
41
1
10
4.89171298378355
20
-0.200543899906421
30
0
41
1
10
4.89171298378352
20
-0.209029884986904
30
0
41
1
10
4.89171298378352
20
-0.217203163736343
30
0
41
1
10
4.89171298378352
20
-0.224613337223218
30
0
41
1
10
4.89171298378352
20
-0.231680834790495
30
0
41
1
10
4.89171298378349
20
-0.238926831150422
30
0
41
1
10
4.89171298378352
20
-0.247597557267397
30
0
41
1
10
4.89171298378349
20
-0.257622540970715
30
0
41
1
10
4.89171298378352
20
-0.268917736575503
30
0
41
1
10
4.89171298378358
20
-0.281403081533256
30
0
41
1
10
4.89171298378352
20
-0.295130180646026
30
0
41
1
10
4.89171298378352
20
-0.310018264273367
30
0
41
1
10
4.89171298378352
20
-0.32598468346859
30
0
41
1
10
4.89171298378352
20
-0.34316448701486
30
0
41
1
10
4.89171298378352
20
-0.36159971421759
30
0
41
1
10
4.89171298378352
20
-0.38122171661982
30
0
41
1
10
4.89171298378352
20
-0.399987828041077
30
0
41
1
10
4.89171298378355
20
-0.415336369935062
30
0
41
1
10
4.89171298378355
20
-0.426689953195364
30
0
41
1
10
4.89171298378352
20
-0.433649574961635
30
0
41
1
10
4.89171298378352
20
-0.436006939151184
30
0
0
SPLINE
5
C4
100
AcDbEntity
8
1
62
256
6
ByLayer
370
18
48
1
60
0
100
AcDbSpline
70
4
71
3
72
94
73
90
40
0
40
0
40
0
40
0
40
0.12499999999999
40
0.12499999999999
40
0.187499999999986
40
0.187499999999986
40
0.249999999999981
40
0.249999999999981
40
0.281249999999979
40
0.281249999999979
40
0.312499999999976
40
0.312499999999976
40
0.343749999999973
40
0.343749999999973
40
0.37499999999997
40
0.37499999999997
40
0.390624999999969
40
0.390624999999969
40
0.406249999999969
40
0.406249999999969
40
0.437499999999968
40
0.437499999999968
40
0.453124999999968
40
0.453124999999968
40
0.468749999999968
40
0.468749999999968
40
0.476562499999968
40
0.476562499999968
40
0.484374999999967
40
0.484374999999967
40
0.499999999999967
40
0.499999999999967
40
0.503906249999967
40
0.503906249999967
40
0.507812499999966
40
0.507812499999966
40
0.515624999999966
40
0.523437499999966
40
0.523437499999966
40
0.527343749999966
40
0.527343749999966
40
0.531249999999966
40
0.539062499999966
40
0.539062499999966
40
0.546874999999966
40
0.546874999999966
40
0.562499999999967
40
0.562499999999967
40
0.570312499999967
40
0.570312499999967
40
0.578124999999968
40
0.578124999999968
40
0.593749999999968
40
0.593749999999968
40
0.609374999999968
40
0.609374999999968
40
0.624999999999968
40
0.624999999999968
40
0.656249999999968
40
0.656249999999968
40
0.687499999999968
40
0.687499999999968
40
0.695312499999969
40
0.695312499999969
40
0.699218749999969
40
0.699218749999969
40
0.70312499999997
40
0.70312499999997
40
0.710937499999972
40
0.710937499999972
40
0.714843749999973
40
0.714843749999973
40
0.718749999999975
40
0.718749999999975
40
0.726562499999976
40
0.726562499999976
40
0.734374999999977
40
0.734374999999977
40
0.749999999999977
40
0.749999999999977
40
0.812499999999984
40
0.812499999999984
40
0.843749999999987
40
0.843749999999987
40
0.87499999999999
40
0.87499999999999
40
0.937499999999995
40
0.937499999999995
40
1
40
1
40
1
40
1
41
1
10
4.89171298378352
20
-0.967624129431982
30
0
41
1
10
4.62429509826185
20
-1.02056574795512
30
0
41
1
10
4.36057392841459
20
-1.06549365188502
30
0
41
1
10
3.96931599482215
20
-1.11302108734026
30
0
41
1
10
3.83961681645721
20
-1.12555133630852
30
0
41
1
10
3.58149568299726
20
-1.14237168116014
30
0
41
1
10
3.45307119878052
20
-1.14668301122586
30
0
41
1
10
3.26133346593227
20
-1.14527042250583
30
0
41
1
10
3.19750476842452
20
-1.14347019718866
30
0
41
1
10
3.07115571539691
20
-1.13687333359681
30
0
41
1
10
3.00852462157454
20
-1.13208096906649
30
0
41
1
10
2.88447418967022
20
-1.11905319294723
30
0
41
1
10
2.82305311933422
20
-1.11082222120666
30
0
41
1
10
2.70163448726035
20
-1.09024760147466
30
0
41
1
10
2.64163294104645
20
-1.07791404585316
30
0
41
1
10
2.55298246144849
20
-1.05551266298855
30
0
41
1
10
2.52365920352503
20
-1.04739134894518
30
0
41
1
10
2.46554535039235
20
-1.02962510125602
30
0
41
1
10
2.43678881222371
20
-1.01998610198112
30
0
41
1
10
2.35232597717191
20
-0.988689384324573
30
0
41
1
10
2.29811670971839
20
-0.964654105451814
30
0
41
1
10
2.2215421647266
20
-0.921647051713251
30
0
41
1
10
2.1968169373429
20
-0.906139320597816
30
0
41
1
10
2.14949372651907
20
-0.872063602196704
30
0
41
1
10
2.12681578624631
20
-0.853403466309715
30
0
41
1
10
2.09583664066321
20
-0.82301737551893
30
0
41
1
10
2.08598990404423
20
-0.812469430928729
30
0
41
1
10
2.06742248278104
20
-0.790400241502425
30
0
41
1
10
2.05867934518977
20
-0.77884677564731
30
0
41
1
10
2.0346239396292
20
-0.742669189750785
30
0
41
1
10
2.02171005855044
20
-0.716948493348696
30
0
41
1
10
2.01064995378255
20
-0.68226849589476
30
0
41
1
10
2.00869464587618
20
-0.675204886730199
30
0
41
1
10
2.00533920408694
20
-0.66080384846822
30
0
41
1
10
2.00393566546921
20
-0.65344202785073
30
0
41
1
10
2.0006545607292
20
-0.631083711972224
30
0
41
1
10
1.99879060294407
20
-0.600884213039109
30
0
41
1
10
2.00205222946408
20
-0.569923908748365
30
0
41
1
10
2.00647545110053
20
-0.546422665632775
30
0
41
1
10
2.00828446544529
20
-0.538535399254357
30
0
41
1
10
2.01249060285096
20
-0.522927186259665
30
0
41
1
10
2.01969782595421
20
-0.499666481007893
30
0
41
1
10
2.02945291208965
20
-0.476843366902869
30
0
41
1
10
2.04451329834862
20
-0.446776888452462
30
0
41
1
10
2.05311066304293
20
-0.43188241443994
30
0
41
1
10
2.08100432294333
20
-0.388727504285782
30
0
41
1
10
2.10252956111816
20
-0.361608010589265
30
0
41
1
10
2.1379981677764
20
-0.322754562454492
30
0
41
1
10
2.15038621953232
20
-0.310085670494459
30
0
41
1
10
2.17598259417227
20
-0.285409613563644
30
0
41
1
10
2.18911616135816
20
-0.273470172094136
30
0
41
1
10
2.22936280007531
20
-0.238660693663974
30
0
41
1
10
2.25731390458142
20
-0.21679028682874
30
0
41
1
10
2.31489363323604
20
-0.17506425090636
30
0
41
1
10
2.34452695871298
20
-0.155214088697647
30
0
41
1
10
2.40512982956457
20
-0.117129312902165
30
0
41
1
10
2.43616102018683
20
-0.0988656255487967
30
0
41
1
10
2.53033571170152
20
-0.0464008711948622
30
0
41
1
10
2.59460258381057
20
-0.0144359149474269
30
0
41
1
10
2.72521593320928
20
0.0452678668341377
30
0
41
1
10
2.79164927547316
20
0.0729500232443172
30
0
41
1
10
2.87537375207262
20
0.105521318198043
30
0
41
1
10
2.89214417371181
20
0.111964603366573
30
0
41
1
10
2.91732145764269
20
0.121566496780616
30
0
41
1
10
2.92571236648439
20
0.124769853862745
30
0
41
1
10
2.94259999837834
20
0.130900730211408
30
0
41
1
10
2.95110702924165
20
0.133801570771823
30
0
41
1
10
2.97717225730216
20
0.141095763160848
30
0
41
1
10
2.99476156380996
20
0.143813245459285
30
0
41
1
10
3.02131213167877
20
0.145162772551686
30
0
41
1
10
3.03019560553196
20
0.14516926263434
30
0
41
1
10
3.04802646978598
20
0.144330880272378
30
0
41
1
10
3.05701594206062
20
0.143473061432843
30
0
41
1
10
3.0836375186484
20
0.139707560165874
30
0
41
1
10
3.10097636220294
20
0.135555269147545
30
0
41
1
10
3.13553475409489
20
0.126766306706429
30
0
41
1
10
3.15277236923927
20
0.122202463296134
30
0
41
1
10
3.20455082042076
20
0.108767481151688
30
0
41
1
10
3.23910191143585
20
0.0999307670794849
30
0
41
1
10
3.41185757399364
20
0.0557032319720179
30
0
41
1
10
3.55007260133073
20
0.0202238588965145
30
0
41
1
10
3.75726893591599
20
-0.0327505289232022
30
0
41
1
10
3.82639062586142
20
-0.0501750253209821
30
0
41
1
10
3.96353248098754
20
-0.0881391212564324
30
0
41
1
10
4.03159169113269
20
-0.108557794524302
30
0
41
1
10
4.23439047637177
20
-0.173547604640476
30
0
41
1
10
4.36773021722379
20
-0.2219127990613
30
0
41
1
10
4.63154566051008
20
-0.325600359107028
30
0
41
1
10
4.76202556987295
20
-0.380905807020269
30
0
41
1
10
4.89171298378352
20
-0.437564188572537
30
0
0
LINE
5
7D
100
AcDbEntity
8
80
62
256
6
ByLayer
370
18
48
1
60
0
100
AcDbLine
10
0
20
0
30
0
11
-5
21
0
31
0
39
0
210
0
220
0
230
1
0
LINE
5
7E
100
AcDbEntity
8
4
62
256
6
ByLayer
370
18
48
0.05
60
0
100
AcDbLine
10
-5
20
0
30
0
11
20
21
0
31
0
39
0
210
0
220
0
230
1
0
LINE
5
80
100
AcDbEntity
8
81
62
256
6
ByLayer
370
18
48
1
60
0
100
AcDbLine
10
15
20
0
30
0
11
20
21
0
31
0
39
0
210
0
220
0
230
1
0
LINE
5
81
100
AcDbEntity
8
SK4
62
256
6
ByLayer
370
18
48
0.05
60
0
100
AcDbLine
10
-30
20
0
30
0
11
20
21
0
31
0
39
0
210
0
220
0
230
1
0
LINE
5
83
100
AcDbEntity
8
1
62
256
6
ByLayer
370
18
48
1
60
0
100
AcDbLine
10
0
20
1.15
30
0
11
0
21
-1.15
31
0
39
0
210
0
220
0
230
1
0
LINE
5
84
100
AcDbEntity
8
1
62
256
6
ByLayer
370
18
48
1
60
0
100
AcDbLine
10
14.378109
20
-1.15
30
0
11
14.378109
21
-0.475527
31
0
39
0
210
0
220
0
230
1
0
LINE
5
85
100
AcDbEntity
8
1
62
256
6
ByLayer
370
18
48
1
60
0
100
AcDbLine
10
14.378109
20
1.15
30
0
11
14.378109
21
1.113555
31
0
39
0
210
0
220
0
230
1
0
LINE
5
86
100
AcDbEntity
8
1
62
256
6
ByLayer
370
18
48
1
60
0
100
AcDbLine
10
0.1
20
-1.144646
30
0
11
0.1
21
1.144646
31
0
39
0
210
0
220
0
230
1
0
LINE
5
87
100
AcDbEntity
8
SK1
62
256
6
ByLayer
370
18
48
1
60
0
100
AcDbLine
10
-25
20
-0.85
30
0
11
-25
21
0.85
31
0
39
0
210
0
220
0
230
1
0
LINE
5
89
100
AcDbEntity
8
SK1
62
256
6
ByLayer
370
18
48
1
60
0
100
AcDbLine
10
0
20
1.15
30
0
11
0
21
-1.15
31
0
39
0
210
0
220
0
230
1
0
LINE
5
8A
100
AcDbEntity
8
SK1
62
256
6
ByLayer
370
18
48
1
60
0
100
AcDbLine
10
-24.7
20
-1.15
30
0
11
-24.7
21
1.15
31
0
39
0
210
0
220
0
230
1
0
LINE
5
8B
100
AcDbEntity
8
1
62
256
6
ByLayer
370
18
48
1
60
0
100
AcDbLine
10
15
20
0
30
0
11
14.378109
21
1.15
31
0
39
0
210
0
220
0
230
1
0
LINE
5
8C
100
AcDbEntity
8
1
62
256
6
ByLayer
370
18
48
1
60
0
100
AcDbLine
10
14.378109
20
-1.15
30
0
11
15
21
0
31
0
39
0
210
0
220
0
230
1
0
LINE
5
8D
100
AcDbEntity
8
1
62
256
6
ByLayer
370
18
48
1
60
0
100
AcDbLine
10
0.1
20
1.144646
30
0
11
0
21
1.15
31
0
39
0
210
0
220
0
230
1
0
LINE
5
8E
100
AcDbEntity
8
1
62
256
6
ByLayer
370
18
48
1
60
0
100
AcDbLine
10
0
20
-1.15
30
0
11
0.1
21
-1.144646
31
0
39
0
210
0
220
0
230
1
0
LINE
5
8F
100
AcDbEntity
8
1
62
256
6
ByLayer
370
18
48
1
60
0
100
AcDbLine
10
0.1
20
-1.144646
30
0
11
3.366869
21
-1.145871
31
0
39
0
210
0
220
0
230
1
0
LINE
5
90
100
AcDbEntity
8
1
62
256
6
ByLayer
370
18
48
1
60
0
100
AcDbLine
10
7.337682
20
-1.14736
30
0
11
10.234231
21
-1.148446
31
0
39
0
210
0
220
0
230
1
0
LINE
5
91
100
AcDbEntity
8
1
62
256
6
ByLayer
370
18
48
1
60
0
100
AcDbLine
10
13.853058
20
-1.149803
30
0
11
14.378109
21
-1.15
31
0
39
0
210
0
220
0
230
1
0
LINE
5
92
100
AcDbEntity
8
1
62
256
6
ByLayer
370
18
48
1
60
0
100
AcDbLine
10
14.378109
20
1.15
30
0
11
13.853058
21
1.149803
31
0
39
0
210
0
220
0
230
1
0
LINE
5
93
100
AcDbEntity
8
1
62
256
6
ByLayer
370
18
48
1
60
0
100
AcDbLine
10
10.234231
20
1.148446
30
0
11
7.337682
21
1.14736
31
0
39
0
210
0
220
0
230
1
0
LINE
5
94
100
AcDbEntity
8
1
62
256
6
ByLayer
370
18
48
1
60
0
100
AcDbLine
10
3.366869
20
1.145871
30
0
11
0.1
21
1.144646
31
0
39
0
210
0
220
0
230
1
0
LINE
5
95
100
AcDbEntity
8
SK1
62
256
6
ByLayer
370
18
48
1
60
0
100
AcDbLine
10
-25
20
-0.85
30
0
11
-24.7
21
-1.15
31
0
39
0
210
0
220
0
230
1
0
LINE
5
96
100
AcDbEntity
8
SK1
62
256
6
ByLayer
370
18
48
1
60
0
100
AcDbLine
10
-24.7
20
1.15
30
0
11
-25
21
0.85
31
0
39
0
210
0
220
0
230
1
0
LINE
5
97
100
AcDbEntity
8
SK1
62
256
6
ByLayer
370
18
48
1
60
0
100
AcDbLine
10
-24.7
20
-1.15
30
0
11
0
21
-1.15
31
0
39
0
210
0
220
0
230
1
0
LINE
5
98
100
AcDbEntity
8
SK1
62
256
6
ByLayer
370
18
48
1
60
0
100
AcDbLine
10
0
20
1.15
30
0
11
-24.7
21
1.15
31
0
39
0
210
0
220
0
230
1
0
LINE
5
99
100
AcDbEntity
8
SK2
62
256
6
ByLayer
370
13
48
1
60
0
100
AcDbLine
10
-31.5
20
27.932741
30
0
11
-31.5
21
-8.65
31
0
39
0
210
0
220
0
230
1
0
LINE
5
9B
100
AcDbEntity
8
SK2
62
256
6
ByLayer
370
13
48
1
60
0
100
AcDbLine
10
-26.5875
20
1.15
30
0
11
-33.5
21
1.15
31
0
39
0
210
0
220
0
230
1
0
LINE
5
9C
100
AcDbEntity
8
SK2
62
256
6
ByLayer
370
13
48
1
60
0
100
AcDbLine
10
-26.5875
20
-1.15
30
0
11
-33.5
21
-1.15
31
0
39
0
210
0
220
0
230
1
0
LINE
5
9D
100
AcDbEntity
8
1
62
256
6
ByLayer
370
18
48
1
60
1
100
AcDbLine
10
-31.5
20
1.15
30
0
11
-31.960784
21
4.649998
31
0
39
0
210
0
220
0
230
1
0
LINE
5
9E
100
AcDbEntity
8
1
62
256
6
ByLayer
370
18
48
1
60
1
100
AcDbLine
10
-31.960784
20
4.649998
30
0
11
-31.039216
21
4.650002
31
0
39
0
210
0
220
0
230
1
0
LINE
5
9F
100
AcDbEntity
8
1
62
256
6
ByLayer
370
18
48
1
60
1
100
AcDbLine
10
-31.039216
20
4.650002
30
0
11
-31.5
21
1.15
31
0
39
0
210
0
220
0
230
1
0
LINE
5
A0
100
AcDbEntity
8
1
62
256
6
ByLayer
370
18
48
1
60
1
100
AcDbLine
10
-31.5
20
-1.15
30
0
11
-31.039216
21
-4.649998
31
0
39
0
210
0
220
0
230
1
0
LINE
5
A1
100
AcDbEntity
8
1
62
256
6
ByLayer
370
18
48
1
60
1
100
AcDbLine
10
-31.039216
20
-4.649998
30
0
11
-31.960784
21
-4.650002
31
0
39
0
210
0
220
0
230
1
0
LINE
5
A2
100
AcDbEntity
8
1
62
256
6
ByLayer
370
18
48
1
60
1
100
AcDbLine
10
-31.960784
20
-4.650002
30
0
11
-31.5
21
-1.15
31
0
39
0
210
0
220
0
230
1
0
LINE
5
A3
100
AcDbEntity
8
2
62
256
6
ByLayer
370
13
48
1
60
0
100
AcDbLine
10
23.878109
20
27.932741
30
0
11
23.878109
21
-8.65
31
0
39
0
210
0
220
0
230
1
0
LINE
5
A5
100
AcDbEntity
8
2
62
256
6
ByLayer
370
13
48
1
60
0
100
AcDbLine
10
15.965609
20
1.15
30
0
11
25.878109
21
1.15
31
0
39
0
210
0
220
0
230
1
0
LINE
5
A6
100
AcDbEntity
8
2
62
256
6
ByLayer
370
13
48
1
60
0
100
AcDbLine
10
15.965609
20
-1.15
30
0
11
25.878109
21
-1.15
31
0
39
0
210
0
220
0
230
1
0
LINE
5
A7
100
AcDbEntity
8
1
62
256
6
ByLayer
370
18
48
1
60
1
100
AcDbLine
10
23.878109
20
1.15
30
0
11
23.417326
21
4.649998
31
0
39
0
210
0
220
0
230
1
0
LINE
5
A8
100
AcDbEntity
8
1
62
256
6
ByLayer
370
18
48
1
60
1
100
AcDbLine
10
23.417326
20
4.649998
30
0
11
24.338893
21
4.650002
31
0
39
0
210
0
220
0
230
1
0
LINE
5
A9
100
AcDbEntity
8
1
62
256
6
ByLayer
370
18
48
1
60
1
100
AcDbLine
10
24.338893
20
4.650002
30
0
11
23.878109
21
1.15
31
0
39
0
210
0
220
0
230
1
0
LINE
5
AA
100
AcDbEntity
8
1
62
256
6
ByLayer
370
18
48
1
60
1
100
AcDbLine
10
23.878109
20
-1.15
30
0
11
24.338893
21
-4.649998
31
0
39
0
210
0
220
0
230
1
0
LINE
5
AB
100
AcDbEntity
8
1
62
256
6
ByLayer
370
18
48
1
60
1
100
AcDbLine
10
24.338893
20
-4.649998
30
0
11
23.417326
21
-4.650002
31
0
39
0
210
0
220
0
230
1
0
LINE
5
AC
100
AcDbEntity
8
1
62
256
6
ByLayer
370
18
48
1
60
1
100
AcDbLine
10
23.417326
20
-4.650002
30
0
11
23.878109
21
-1.15
31
0
39
0
210
0
220
0
230
1
0
LINE
5
AD
100
AcDbEntity
8
2
62
256
6
ByLayer
370
13
48
1
60
0
100
AcDbLine
10
15.755136
20
-1.396397
30
0
11
26.416232
21
-21.110889
31
0
39
0
210
0
220
0
230
1
0
LINE
5
AE
100
AcDbEntity
8
2
62
256
6
ByLayer
370
13
48
1
60
0
100
AcDbLine
10
15.755136
20
1.396397
30
0
11
26.416232
21
21.110889
31
0
39
0
210
0
220
0
230
1
0
LINE
5
AF
100
AcDbEntity
8
1
62
256
6
ByLayer
370
18
48
1
60
1
100
AcDbLine
10
25.464879
20
-19.351649
30
0
11
28.239971
21
-17.169637
31
0
39
0
210
0
220
0
230
1
0
LINE
5
B0
100
AcDbEntity
8
1
62
256
6
ByLayer
370
18
48
1
60
1
100
AcDbLine
10
28.239971
20
-17.169637
30
0
11
28.710161
21
-17.962233
31
0
39
0
210
0
220
0
230
1
0
LINE
5
B1
100
AcDbEntity
8
1
62
256
6
ByLayer
370
18
48
1
60
1
100
AcDbLine
10
28.710161
20
-17.962233
30
0
11
25.464879
21
-19.351649
31
0
39
0
210
0
220
0
230
1
0
LINE
5
B2
100
AcDbEntity
8
1
62
256
6
ByLayer
370
18
48
1
60
1
100
AcDbLine
10
25.464879
20
19.351649
30
0
11
28.710158
21
17.962234
31
0
39
0
210
0
220
0
230
1
0
LINE
5
B3
100
AcDbEntity
8
1
62
256
6
ByLayer
370
18
48
1
60
1
100
AcDbLine
10
28.710158
20
17.962234
30
0
11
28.239974
21
17.169635
31
0
39
0
210
0
220
0
230
1
0
LINE
5
B4
100
AcDbEntity
8
1
62
256
6
ByLayer
370
18
48
1
60
1
100
AcDbLine
10
28.239974
20
17.169635
30
0
11
25.464879
21
19.351649
31
0
39
0
210
0
220
0
230
1
0
LINE
5
C9
100
AcDbEntity
8
1
62
256
6
ByLayer
370
18
48
1
60
1
100
AcDbLine
10
-31.5
20
1.15
30
0
11
-31.960784
21
4.649998
31
0
39
0
210
0
220
0
230
1
0
LINE
5
CA
100
AcDbEntity
8
1
62
256
6
ByLayer
370
18
48
1
60
1
100
AcDbLine
10
-31.960784
20
4.649998
30
0
11
-31.039216
21
4.650002
31
0
39
0
210
0
220
0
230
1
0
LINE
5
CB
100
AcDbEntity
8
1
62
256
6
ByLayer
370
18
48
1
60
1
100
AcDbLine
10
-31.039216
20
4.650002
30
0
11
-31.5
21
1.15
31
0
39
0
210
0
220
0
230
1
0
LINE
5
CD
100
AcDbEntity
8
1
62
256
6
ByLayer
370
18
48
1
60
1
100
AcDbLine
10
-31.5
20
-1.15
30
0
11
-31.039216
21
-4.649998
31
0
39
0
210
0
220
0
230
1
0
LINE
5
CE
100
AcDbEntity
8
1
62
256
6
ByLayer
370
18
48
1
60
1
100
AcDbLine
10
-31.039216
20
-4.649998
30
0
11
-31.960784
21
-4.650002
31
0
39
0
210
0
220
0
230
1
0
LINE
5
CF
100
AcDbEntity
8
1
62
256
6
ByLayer
370
18
48
1
60
1
100
AcDbLine
10
-31.960784
20
-4.650002
30
0
11
-31.5
21
-1.15
31
0
39
0
210
0
220
0
230
1
0
LINE
5
D3
100
AcDbEntity
8
1
62
256
6
ByLayer
370
18
48
1
60
1
100
AcDbLine
10
23.878109
20
1.15
30
0
11
23.417326
21
4.649998
31
0
39
0
210
0
220
0
230
1
0
LINE
5
D4
100
AcDbEntity
8
1
62
256
6
ByLayer
370
18
48
1
60
1
100
AcDbLine
10
23.417326
20
4.649998
30
0
11
24.338893
21
4.650002
31
0
39
0
210
0
220
0
230
1
0
LINE
5
D5
100
AcDbEntity
8
1
62
256
6
ByLayer
370
18
48
1
60
1
100
AcDbLine
10
24.338893
20
4.650002
30
0
11
23.878109
21
1.15
31
0
39
0
210
0
220
0
230
1
0
LINE
5
D7
100
AcDbEntity
8
1
62
256
6
ByLayer
370
18
48
1
60
1
100
AcDbLine
10
23.878109
20
-1.15
30
0
11
24.338893
21
-4.649998
31
0
39
0
210
0
220
0
230
1
0
LINE
5
D8
100
AcDbEntity
8
1
62
256
6
ByLayer
370
18
48
1
60
1
100
AcDbLine
10
24.338893
20
-4.649998
30
0
11
23.417326
21
-4.650002
31
0
39
0
210
0
220
0
230
1
0
LINE
5
D9
100
AcDbEntity
8
1
62
256
6
ByLayer
370
18
48
1
60
1
100
AcDbLine
10
23.417326
20
-4.650002
30
0
11
23.878109
21
-1.15
31
0
39
0
210
0
220
0
230
1
0
LINE
5
DC
100
AcDbEntity
8
1
62
256
6
ByLayer
370
18
48
1
60
1
100
AcDbLine
10
25.464879
20
-19.351649
30
0
11
28.239971
21
-17.169637
31
0
39
0
210
0
220
0
230
1
0
LINE
5
DD
100
AcDbEntity
8
1
62
256
6
ByLayer
370
18
48
1
60
1
100
AcDbLine
10
28.239971
20
-17.169637
30
0
11
28.710161
21
-17.962233
31
0
39
0
210
0
220
0
230
1
0
LINE
5
DE
100
AcDbEntity
8
1
62
256
6
ByLayer
370
18
48
1
60
1
100
AcDbLine
10
28.710161
20
-17.962233
30
0
11
25.464879
21
-19.351649
31
0
39
0
210
0
220
0
230
1
0
LINE
5
E0
100
AcDbEntity
8
1
62
256
6
ByLayer
370
18
48
1
60
1
100
AcDbLine
10
25.464879
20
19.351649
30
0
11
28.710158
21
17.962234
31
0
39
0
210
0
220
0
230
1
0
LINE
5
E1
100
AcDbEntity
8
1
62
256
6
ByLayer
370
18
48
1
60
1
100
AcDbLine
10
28.710158
20
17.962234
30
0
11
28.239974
21
17.169635
31
0
39
0
210
0
220
0
230
1
0
LINE
5
E2
100
AcDbEntity
8
1
62
256
6
ByLayer
370
18
48
1
60
1
100
AcDbLine
10
28.239974
20
17.169635
30
0
11
25.464879
21
19.351649
31
0
39
0
210
0
220
0
230
1
0
MTEXT
5
C5
100
AcDbEntity
8
SK2
62
256
6
ByLayer
370
18
48
1
60
0
100
AcDbMText
10
-32.841114
20
12.808437
30
0
210
0
220
0
230
1
1
%%c
40
3
41
0
44
1.084337
50
90
71
7
72
5
7
iso_b_vert
0
MTEXT
5
C8
100
AcDbEntity
8
SK2
62
256
6
ByLayer
370
18
48
1
60
0
100
AcDbMText
10
-32.841114
20
18.785
30
0
210
0
220
0
230
1
1
\W0.7468;2.300
40
3
41
0
44
1.084337
50
90
71
7
72
5
7
iso_b_vert
0
MTEXT
5
D1
100
AcDbEntity
8
2
62
256
6
ByLayer
370
18
48
1
60
0
100
AcDbMText
10
22.536995
20
12.808437
30
0
210
0
220
0
230
1
1
%%c
40
3
41
0
44
1.084337
50
90
71
7
72
5
7
iso_b_vert
0
MTEXT
5
D2
100
AcDbEntity
8
2
62
256
6
ByLayer
370
18
48
1
60
0
100
AcDbMText
10
22.536995
20
18.785
30
0
210
0
220
0
230
1
1
\W0.7468;2.300
40
3
41
0
44
1.084337
50
90
71
7
72
5
7
iso_b_vert
0
MTEXT
5
DB
100
AcDbEntity
8
2
62
256
6
ByLayer
370
18
48
1
60
0
100
AcDbMText
10
34.092229
20
-2.114886
30
0
210
0
220
0
230
1
1
\W0.6008;118%%d
40
3
41
0
44
1.084337
50
0
71
7
72
5
7
iso_b_vert
0
MTEXT
5
E4
100
AcDbEntity
8
SK6
62
256
6
ByLayer
370
18
48
1
60
0
100
AcDbMText
10
-11.882141
20
-67.114886
30
0
210
0
220
0
230
1
1
\W0.7690;R0232.3
40
3
41
0
44
1.084337
50
0
71
7
72
5
7
iso_b_vert
0
HATCH
5
CC
100
AcDbEntity
8
SK2
62
256
6
ByLayer
370
13
48
1
60
0
100
AcDbHatch
10
0
20
0
30
0
210
0
220
0
230
1
2
ANSI31
70
0
71
0
91
1
92
5
93
3
72
1
10
-31.5
20
1.14999999999998
11
-31.9607837415528
21
4.64999830744679
72
1
10
-31.9607837415528
20
4.64999830744679
11
-31.0392162584472
21
4.65000169255316
72
1
10
-31.0392162584472
20
4.65000169255316
11
-31.5
21
1.14999999999998
97
0
75
0
76
1
52
0
41
0.0062
77
0
78
1
53
45
43
0
44
0
45
-0.0139193969876572
46
0.0139193969876572
79
0
47
0
98
1
10
0
20
0
0
HATCH
5
D0
100
AcDbEntity
8
SK2
62
256
6
ByLayer
370
13
48
1
60
0
100
AcDbHatch
10
0
20
0
30
0
210
0
220
0
230
1
2
ANSI31
70
0
71
0
91
1
92
5
93
3
72
1
10
-31.5
20
-1.15000000000001
11
-31.0392162584472
21
-4.64999830744682
72
1
10
-31.0392162584472
20
-4.64999830744682
11
-31.9607837415528
21
-4.65000169255319
72
1
10
-31.9607837415528
20
-4.65000169255319
11
-31.5
21
-1.15000000000001
97
0
75
0
76
1
52
0
41
0.0062
77
0
78
1
53
45
43
0
44
0
45
-0.0139193969876572
46
0.0139193969876572
79
0
47
0
98
1
10
0
20
0
0
HATCH
5
D6
100
AcDbEntity
8
2
62
256
6
ByLayer
370
13
48
1
60
0
100
AcDbHatch
10
0
20
0
30
0
210
0
220
0
230
1
2
ANSI31
70
0
71
0
91
1
92
5
93
3
72
1
10
23.8781092593065
20
1.14999999999998
11
23.4173255177537
21
4.64999830744679
72
1
10
23.4173255177537
20
4.64999830744679
11
24.3388930008593
21
4.65000169255316
72
1
10
24.3388930008593
20
4.65000169255316
11
23.8781092593065
21
1.14999999999998
97
0
75
0
76
1
52
0
41
0.0062
77
0
78
1
53
45
43
0
44
0
45
-0.0139193969876572
46
0.0139193969876572
79
0
47
0
98
1
10
0
20
0
0
HATCH
5
DA
100
AcDbEntity
8
2
62
256
6
ByLayer
370
13
48
1
60
0
100
AcDbHatch
10
0
20
0
30
0
210
0
220
0
230
1
2
ANSI31
70
0
71
0
91
1
92
5
93
3
72
1
10
23.8781092593065
20
-1.15000000000001
11
24.3388930008593
21
-4.64999830744682
72
1
10
24.3388930008593
20
-4.64999830744682
11
23.4173255177537
21
-4.65000169255319
72
1
10
23.4173255177537
20
-4.65000169255319
11
23.8781092593065
21
-1.15000000000001
97
0
75
0
76
1
52
0
41
0.0062
77
0
78
1
53
45
43
0
44
0
45
-0.0139193969876572
46
0.0139193969876572
79
0
47
0
98
1
10
0
20
0
0
HATCH
5
DF
100
AcDbEntity
8
2
62
256
6
ByLayer
370
13
48
1
60
0
100
AcDbHatch
10
0
20
0
30
0
210
0
220
0
230
1
2
ANSI31
70
0
71
0
91
1
92
5
93
3
72
1
10
25.464879198752
20
-19.3516485952884
11
28.2399711078382
21
-17.1696369764526
72
1
10
28.2399711078382
20
-17.1696369764526
11
28.710161392925
21
-17.9622325364572
72
1
10
28.710161392925
20
-17.9622325364572
11
25.464879198752
21
-19.3516485952884
97
0
75
0
76
1
52
0
41
0.0062
77
0
78
1
53
45
43
0
44
0
45
-0.0139193969876572
46
0.0139193969876572
79
0
47
0
98
1
10
0
20
0
0
HATCH
5
E3
100
AcDbEntity
8
2
62
256
6
ByLayer
370
13
48
1
60
0
100
AcDbHatch
10
0
20
0
30
0
210
0
220
0
230
1
2
ANSI31
70
0
71
0
91
1
92
5
93
3
72
1
10
25.4648791987518
20
19.3516485952885
11
28.7101584815524
21
17.962234263552
72
1
10
28.7101584815524
20
17.962234263552
11
28.2399740192104
21
17.1696352493582
72
1
10
28.2399740192104
20
17.1696352493582
11
25.4648791987518
21
19.3516485952885
97
0
75
0
76
1
52
0
41
0.0062
77
0
78
1
53
45
43
0
44
0
45
-0.0139193969876572
46
0.0139193969876572
79
0
47
0
98
1
10
0
20
0
0
DIMENSION
5
E7
100
AcDbEntity
8
SK2
62
256
6
ByLayer
370
18
48
1
60
0
100
AcDbDimension
2
_U0
10
15
20
-49.672382
30
0
11
-5
21
-49.672382
31
0
70
32
71
1
72
1
41
1
210
0
220
0
230
1
3
Standard
100
AcDbAlignedDimension
13
-25
23
-1.15
33
0
14
15
24
0
34
0
50
0
100
AcDbRotatedDimension
1001
ACAD
1000
DSTYLE
1002
{
1070
   371
1070
    13
1070
   372
1070
    13
1070
     3
1000

1070
   170
1070
     0
1070
   144
1040
1.0
1070
   277
1070
     2
1070
   284
1070
     8
1070
   278
1070
    46
1070
   146
1040
1.166667
1070
   345
1005
16
1070
   347
1005
16
1070
   346
1005
16
1070
   344
1005
0
1070
   343
1005
0
1070
   172
1070
     1
1070
    76
1070
     0
1070
    75
1070
     0
1070
   282
1070
     0
1070
   281
1070
     0
1070
    71
1070
     0
1070
    74
1070
     0
1070
   279
1070
     0
1070
   173
1070
     1
1070
   340
1005
C6
1070
   271
1070
     2
1070
   272
1070
     3
1070
    77
1070
     1
1070
    73
1070
     1
1070
   171
1070
     3
1070
   274
1070
     4
1070
   177
1070
     2
1070
   176
1070
     2
1070
   178
1070
     2
1070
    78
1070
     8
1070
    48
1040
-0.1
1070
    41
1040
3.5
1070
   147
1040
1.5
1070
    42
1040
1.5875
1070
    44
1040
2.0
1070
   140
1040
3.0
1002
}
1001
ACAD_DSTYLE_DIM_LINETYPE
1070
   380
1005
16
1001
ACAD_DSTYLE_DIM_EXT1_LINETYPE
1070
   381
1005
16
1001
ACAD_DSTYLE_DIM_EXT2_LINETYPE
1070
   382
1005
16
0
DIMENSION
5
100
100
AcDbEntity
8
2
62
256
6
ByLayer
370
18
48
1
60
0
100
AcDbDimension
2
_U1
10
2
20
-39.672382
30
0
11
8.5
21
-39.672382
31
0
70
32
71
1
72
1
41
1
210
0
220
0
230
1
3
Standard
100
AcDbAlignedDimension
13
15
23
0
33
0
14
2
24
-1.15
34
0
50
0
100
AcDbRotatedDimension
1001
ACAD
1000
DSTYLE
1002
{
1070
   371
1070
    13
1070
   372
1070
    13
1070
     3
1000

1070
   170
1070
     0
1070
   144
1040
1.0
1070
   277
1070
     2
1070
   284
1070
     8
1070
   278
1070
    46
1070
   146
1040
1.166667
1070
   345
1005
16
1070
   347
1005
16
1070
   346
1005
16
1070
   344
1005
0
1070
   343
1005
0
1070
   172
1070
     1
1070
    76
1070
     0
1070
    75
1070
     0
1070
   282
1070
     0
1070
   281
1070
     0
1070
    71
1070
     0
1070
    74
1070
     0
1070
   279
1070
     0
1070
   173
1070
     1
1070
   340
1005
C6
1070
   271
1070
     2
1070
   272
1070
     3
1070
    77
1070
     1
1070
    73
1070
     1
1070
   171
1070
     3
1070
   274
1070
     4
1070
   177
1070
     2
1070
   176
1070
     2
1070
   178
1070
     2
1070
    78
1070
     8
1070
    48
1040
-0.1
1070
    41
1040
3.5
1070
   147
1040
1.5
1070
    42
1040
1.5875
1070
    44
1040
2.0
1070
   140
1040
3.0
1002
}
1001
ACAD_DSTYLE_DIM_LINETYPE
1070
   380
1005
16
1001
ACAD_DSTYLE_DIM_EXT1_LINETYPE
1070
   381
1005
16
1001
ACAD_DSTYLE_DIM_EXT2_LINETYPE
1070
   382
1005
16
0
DIMENSION
5
119
100
AcDbEntity
8
SK2
62
256
6
ByLayer
370
18
48
1
60
0
100
AcDbDimension
2
_U2
10
0
20
-34.672382
30
0
11
-12.5
21
-34.672382
31
0
70
32
71
1
72
1
41
1
210
0
220
0
230
1
3
Standard
100
AcDbAlignedDimension
13
-25
23
-1.15
33
0
14
0
24
-1.15
34
0
50
0
100
AcDbRotatedDimension
1001
ACAD
1000
DSTYLE
1002
{
1070
   371
1070
    13
1070
   372
1070
    13
1070
     3
1000

1070
   170
1070
     0
1070
   144
1040
1.0
1070
   277
1070
     2
1070
   284
1070
     8
1070
   278
1070
    46
1070
   146
1040
1.166667
1070
   345
1005
16
1070
   347
1005
16
1070
   346
1005
16
1070
   344
1005
0
1070
   343
1005
0
1070
   172
1070
     1
1070
    76
1070
     0
1070
    75
1070
     0
1070
   282
1070
     0
1070
   281
1070
     0
1070
    71
1070
     0
1070
    74
1070
     0
1070
   279
1070
     0
1070
   173
1070
     1
1070
   340
1005
C6
1070
   271
1070
     2
1070
   272
1070
     3
1070
    77
1070
     1
1070
    73
1070
     1
1070
   171
1070
     3
1070
   274
1070
     4
1070
   177
1070
     2
1070
   176
1070
     2
1070
   178
1070
     2
1070
    78
1070
     8
1070
    48
1040
-0.1
1070
    41
1040
3.5
1070
   147
1040
1.5
1070
    42
1040
1.5875
1070
    44
1040
2.0
1070
   140
1040
3.0
1002
}
1001
ACAD_DSTYLE_DIM_LINETYPE
1070
   380
1005
16
1001
ACAD_DSTYLE_DIM_EXT1_LINETYPE
1070
   381
1005
16
1001
ACAD_DSTYLE_DIM_EXT2_LINETYPE
1070
   382
1005
16
0
DIMENSION
5
131
100
AcDbEntity
8
2
62
256
6
ByLayer
370
18
48
1
60
0
100
AcDbDimension
2
_U3
10
5.25
20
-32.672382
30
0
11
10.125
21
-32.672382
31
0
70
32
71
1
72
1
41
1
210
0
220
0
230
1
3
Standard
100
AcDbAlignedDimension
13
15
23
0
33
0
14
5.25
24
-1.15
34
0
50
0
100
AcDbRotatedDimension
1001
ACAD
1000
DSTYLE
1002
{
1070
   371
1070
    13
1070
   372
1070
    13
1070
     3
1000

1070
   170
1070
     0
1070
   144
1040
1.0
1070
   277
1070
     2
1070
   284
1070
     8
1070
   278
1070
    46
1070
   146
1040
1.166667
1070
   345
1005
16
1070
   347
1005
16
1070
   346
1005
16
1070
   344
1005
0
1070
   343
1005
0
1070
   172
1070
     1
1070
    76
1070
     0
1070
    75
1070
     0
1070
   282
1070
     0
1070
   281
1070
     0
1070
    71
1070
     0
1070
    74
1070
     0
1070
   279
1070
     0
1070
   173
1070
     1
1070
   340
1005
C6
1070
   271
1070
     2
1070
   272
1070
     3
1070
    77
1070
     1
1070
    73
1070
     1
1070
   171
1070
     3
1070
   274
1070
     4
1070
   177
1070
     2
1070
   176
1070
     2
1070
   178
1070
     2
1070
    78
1070
     8
1070
    48
1040
-0.1
1070
    41
1040
3.5
1070
   147
1040
1.5
1070
    42
1040
1.5875
1070
    44
1040
2.0
1070
   140
1040
3.0
1002
}
1001
ACAD_DSTYLE_DIM_LINETYPE
1070
   380
1005
16
1001
ACAD_DSTYLE_DIM_EXT1_LINETYPE
1070
   381
1005
16
1001
ACAD_DSTYLE_DIM_EXT2_LINETYPE
1070
   382
1005
16
0
ENDSEC
0
SECTION
2
OBJECTS
0
DICTIONARY
5
1bc
330
0
100
AcDbDictionary
280
0
281
1
3
ACAD_GROUP
350
1bd
3
ACAD_MLINESTYLE
350
1be
0
DICTIONARY
5
1bd
330
0
100
AcDbDictionary
280
0
281
1
0
DICTIONARY
5
1be
330
0
100
AcDbDictionary
280
0
281
1
3
Standard
350
18
0
MLINESTYLE
5
18
330
1be
100
AcDbMlineStyle
2
Standard
70
0
3

62
256
51
90
52
90
71
2
49
-0.5
62
256
6
ByLayer
49
0.5
62
256
6
ByLayer
0
RASTERVARIABLES
5
1a8
330

100
AcDbRasterVariables
90
0
70
1
71
1
72
1
0
ENDSEC
0
EOF
