0
SECTION
2
HEADER
9
$ACADVER
1
AC1015
9
$DWGCODEPAGE
3
ANSI_1252
9
$HANDSEED
5
1c9
9
$ANGBASE
50
0
9
$ANGDIR
70
0
9
$ATTMODE
70
1
9
$AUNITS
70
0
9
$AUPREC
70
0
9
$CECOLOR
62
256
9
$CELTSCALE
40
1
9
$CELTYPE
6
ByLayer
9
$CELWEIGHT
370
18
9
$CLAYER
8
0
9
$CMLJUST
70
0
9
$CMLSCALE
40
1
9
$CMLSTYLE
2
Standard
9
$DIMSTYLE
2
Standard
9
$TEXTSIZE
40
0.2
9
$TEXTSTYLE
7
Standard
9
$LUNITS
70
2
9
$LUPREC
70
4
9
$EXTNAMES
290
1
9
$INSUNITS
70
4
9
$LTSCALE
40
1
9
$LWDISPLAY
290
1
9
$PDMODE
70
0
9
$PDSIZE
40
0
9
$PLINEGEN
70
0
0
ENDSEC
0
SECTION
2
CLASSES
0
CLASS
1
RASTERVARIABLES
2
AcDbRasterVariables
3
ISM
90
0
280
0
281
0
0
ENDSEC
0
SECTION
2
TABLES
0
TABLE
2
VPORT
5
1bf
100
AcDbSymbolTable
0
VPORT
5
1
100
AcDbSymbolTableRecord
100
AcDbViewportTableRecord
2
*Active
70
0
10
0
20
0
11
1
21
1
12
-1
22
1
13
0
23
0
14
0.5
24
0.5
15
10
25
10
16
0
26
0
36
1
17
0
27
0
37
0
0
ENDTAB
0
TABLE
2
LTYPE
5
1c0
100
AcDbSymbolTable
0
LTYPE
5
14
100
AcDbSymbolTableRecord
100
AcDbLinetypeTableRecord
70
0
2
ByBlock
3

72
65
73
0
40
0
0
LTYPE
5
15
100
AcDbSymbolTableRecord
100
AcDbLinetypeTableRecord
70
0
2
ByLayer
3

72
65
73
0
40
0
0
LTYPE
5
16
100
AcDbSymbolTableRecord
100
AcDbLinetypeTableRecord
70
0
2
Continuous
3
Solid line
72
65
73
0
40
0
0
LTYPE
5
6E
100
AcDbSymbolTableRecord
100
AcDbLinetypeTableRecord
70
0
2
CENTER
3
____ _ ____ _ ____ _ ____
72
65
73
4
40
47.5
49
22
74
0
49
-8.5
74
0
49
8.5
74
0
49
-8.5
74
0
0
LTYPE
5
6F
100
AcDbSymbolTableRecord
100
AcDbLinetypeTableRecord
70
0
2
DASHED
3
__ __ __ __ __ __ __ __ __
72
65
73
2
40
25.72
49
12.86
74
0
49
-12.86
74
0
0
ENDTAB
0
TABLE
2
LAYER
5
1c1
100
AcDbSymbolTable
0
LAYER
5
10
100
AcDbSymbolTableRecord
100
AcDbLayerTableRecord
2
0
70
0
62
7
6
Continuous
290
1
370
-3
390
0
0
LAYER
5
71
100
AcDbSymbolTableRecord
100
AcDbLayerTableRecord
2
81
70
0
62
-3
6
Continuous
290
1
370
-3
390
0
0
LAYER
5
73
100
AcDbSymbolTableRecord
100
AcDbLayerTableRecord
2
80
70
0
62
-6
6
Continuous
290
1
370
-3
390
0
0
LAYER
5
75
100
AcDbSymbolTableRecord
100
AcDbLayerTableRecord
2
1
70
0
62
4
6
Continuous
290
1
370
-3
390
0
0
LAYER
5
7F
100
AcDbSymbolTableRecord
100
AcDbLayerTableRecord
2
4
70
0
62
-2
6
CENTER
290
1
370
-3
390
0
0
LAYER
5
A4
100
AcDbSymbolTableRecord
100
AcDbLayerTableRecord
2
2
70
0
62
7
6
Continuous
290
1
370
-3
390
0
0
LAYER
5
EA
100
AcDbSymbolTableRecord
100
AcDbLayerTableRecord
2
Defpoints
70
0
62
7
6
Continuous
290
0
370
-3
390
0
0
LAYER
5
1a9
100
AcDbSymbolTableRecord
100
AcDbLayerTableRecord
2
SK4
70
0
62
2
6
CENTER
290
1
370
-3
390
0
0
LAYER
5
1aa
100
AcDbSymbolTableRecord
100
AcDbLayerTableRecord
2
SK1
70
0
62
4
6
Continuous
290
1
370
-3
390
0
0
LAYER
5
1ab
100
AcDbSymbolTableRecord
100
AcDbLayerTableRecord
2
SK2
70
0
62
7
6
Continuous
290
1
370
-3
390
0
0
LAYER
5
1ac
100
AcDbSymbolTableRecord
100
AcDbLayerTableRecord
2
CUT
70
0
62
-1
6
Continuous
290
1
370
-3
390
0
0
LAYER
5
1ad
100
AcDbSymbolTableRecord
100
AcDbLayerTableRecord
2
NOCUT
70
0
62
-7
6
Continuous
290
1
370
-3
390
0
0
LAYER
5
1ae
100
AcDbSymbolTableRecord
100
AcDbLayerTableRecord
2
SK6
70
0
62
5
6
Continuous
290
1
370
-3
390
0
0
ENDTAB
0
TABLE
2
STYLE
5
1c2
100
AcDbSymbolTable
0
STYLE
5
11
100
AcDbSymbolTableRecord
100
AcDbTextStyleTableRecord
2
Standard
3
txt
70
0
71
0
40
0
41
1
42
0
50
0
0
STYLE
5
C6
100
AcDbSymbolTableRecord
100
AcDbTextStyleTableRecord
2
iso_b_vert
3
simplex.shx
70
0
71
0
40
0
41
1
42
0
50
0
0
STYLE
5
C7
100
AcDbSymbolTableRecord
100
AcDbTextStyleTableRecord
2
DWGDirectTextStyle
3
simplex
70
0
71
0
40
0
41
1
42
0
50
0
0
ENDTAB
0
TABLE
2
DIMSTYLE
5
1c3
100
AcDbSymbolTable
100
AcDbDimStyleTable
0
DIMSTYLE
105
27
100
AcDbSymbolTableRecord
100
AcDbDimStyleTableRecord
2
Standard
70
0
3
<>
41
0.18
42
0.0625
44
0.18
140
0.18
147
0.09
73
0
74
0
77
1
271
2
275
0
278
52
280
0
340
11
0
ENDTAB
0
TABLE
2
VIEW
5
1c4
100
AcDbSymbolTable
0
ENDTAB
0
TABLE
2
UCS
5
1c5
100
AcDbSymbolTable
0
ENDTAB
0
TABLE
2
APPID
5
1c6
100
AcDbSymbolTable
0
APPID
5
12
100
AcDbSymbolTableRecord
100
AcDbRegAppTableRecord
2
ACAD
70
0
0
APPID
5
E6
100
AcDbSymbolTableRecord
100
AcDbRegAppTableRecord
2
ACAD_DSTYLE_DIMBREAK
70
0
0
APPID
5
168
100
AcDbSymbolTableRecord
100
AcDbRegAppTableRecord
2
ACAD_DSTYLE_DIM_LINETYPE
70
0
0
APPID
5
169
100
AcDbSymbolTableRecord
100
AcDbRegAppTableRecord
2
ACAD_DSTYLE_DIM_EXT1_LINETYPE
70
0
0
APPID
5
16A
100
AcDbSymbolTableRecord
100
AcDbRegAppTableRecord
2
ACAD_DSTYLE_DIM_EXT2_LINETYPE
70
0
0
APPID
5
1A5
100
AcDbSymbolTableRecord
100
AcDbRegAppTableRecord
2
ACAD_MLEADERVER
70
0
0
ENDTAB
0
TABLE
2
BLOCK_RECORD
5
1c7
100
AcDbSymbolTable
0
BLOCK_RECORD
5
1F
100
AcDbSymbolTableRecord
100
AcDbBlockTableRecord
2
*Model_Space
340
0
70
0
0
BLOCK_RECORD
5
1B
100
AcDbSymbolTableRecord
100
AcDbBlockTableRecord
2
*Paper_Space
340
0
70
0
0
BLOCK_RECORD
5
23
100
AcDbSymbolTableRecord
100
AcDbBlockTableRecord
2
*Paper_Space0
340
0
70
0
0
BLOCK_RECORD
5
EB
100
AcDbSymbolTableRecord
100
AcDbBlockTableRecord
2
*D1
340
0
70
0
0
BLOCK_RECORD
5
F7
100
AcDbSymbolTableRecord
100
AcDbBlockTableRecord
2
_U0
340
0
70
0
0
BLOCK_RECORD
5
103
100
AcDbSymbolTableRecord
100
AcDbBlockTableRecord
2
*D3
340
0
70
0
0
BLOCK_RECORD
5
110
100
AcDbSymbolTableRecord
100
AcDbBlockTableRecord
2
_U1
340
0
70
0
0
BLOCK_RECORD
5
11C
100
AcDbSymbolTableRecord
100
AcDbBlockTableRecord
2
*D5
340
0
70
0
0
BLOCK_RECORD
5
128
100
AcDbSymbolTableRecord
100
AcDbBlockTableRecord
2
_U2
340
0
70
0
0
BLOCK_RECORD
5
134
100
AcDbSymbolTableRecord
100
AcDbBlockTableRecord
2
*D7
340
0
70
0
0
BLOCK_RECORD
5
141
100
AcDbSymbolTableRecord
100
AcDbBlockTableRecord
2
_U3
340
0
70
0
0
ENDTAB
0
ENDSEC
0
SECTION
2
BLOCKS
0
BLOCK
5
20
100
AcDbEntity
8
0
100
AcDbBlockBegin
2
*Model_Space
70
0
10
0
20
0
30
0
3
*Model_Space
0
ENDBLK
5
21
100
AcDbEntity
8
0
100
AcDbBlockEnd
0
BLOCK
5
1C
100
AcDbEntity
8
0
100
AcDbBlockBegin
2
*Paper_Space
70
0
10
0
20
0
30
0
3
*Paper_Space
0
ENDBLK
5
1D
100
AcDbEntity
8
0
100
AcDbBlockEnd
0
BLOCK
5
24
100
AcDbEntity
8
0
100
AcDbBlockBegin
2
*Paper_Space0
70
0
10
0
20
0
30
0
3
*Paper_Space0
0
ENDBLK
5
25
100
AcDbEntity
8
0
100
AcDbBlockEnd
0
BLOCK
5
EC
100
AcDbEntity
8
0
100
AcDbBlockBegin
2
*D1
70
1
10
0
20
0
30
0
3
*D1
0
LINE
5
EE
100
AcDbEntity
8
0
62
256
6
ByLayer
370
-2
48
1
60
0
100
AcDbLine
10
-21
20
-2.3375
30
0
11
-21
21
-52.858006
31
0
39
0
210
0
220
0
230
1
0
LINE
5
EF
100
AcDbEntity
8
0
62
256
6
ByLayer
370
-2
48
1
60
0
100
AcDbLine
10
11
20
-1.5875
30
0
11
11
21
-52.858006
31
0
39
0
210
0
220
0
230
1
0
LINE
5
F0
100
AcDbEntity
8
0
62
256
6
ByLayer
370
-2
48
1
60
0
100
AcDbLine
10
-17.5
20
-50.858006
30
0
11
7.5
21
-50.858006
31
0
39
0
210
0
220
0
230
1
0
SOLID
5
F1
100
AcDbEntity
8
0
62
256
6
ByLayer
370
-1
48
1
60
0
100
AcDbTrace
10
-17.5
20
-50.274673
30
0
11
-17.5
21
-51.44134
31
0
12
-21
22
-50.858006
32
0
13
-21
23
-50.858006
33
0
39
0
210
0
220
0
230
1
0
SOLID
5
F2
100
AcDbEntity
8
0
62
256
6
ByLayer
370
-1
48
1
60
0
100
AcDbTrace
10
7.5
20
-51.44134
30
0
11
7.5
21
-50.274673
31
0
12
11
22
-50.858006
32
0
13
11
23
-50.858006
33
0
39
0
210
0
220
0
230
1
0
MTEXT
5
F3
100
AcDbEntity
8
0
62
256
6
ByLayer
370
18
48
1
60
0
100
AcDbMText
10
-5
20
-44.858006
30
0
210
0
220
0
230
1
1
\A1;32
40
3
41
0
44
1
50
0
71
5
72
5
7
iso_b_vert
0
POINT
5
F4
100
AcDbEntity
8
Defpoints
62
0
6
ByLayer
370
-1
48
1
60
0
100
AcDbPoint
10
-21
20
-0.75
30
0
39
0
210
0
220
0
230
1
50
360
0
POINT
5
F5
100
AcDbEntity
8
Defpoints
62
0
6
ByLayer
370
-1
48
1
60
0
100
AcDbPoint
10
11
20
0
30
0
39
0
210
0
220
0
230
1
50
360
0
POINT
5
F6
100
AcDbEntity
8
Defpoints
62
0
6
ByLayer
370
-1
48
1
60
0
100
AcDbPoint
10
11
20
-50.858006
30
0
39
0
210
0
220
0
230
1
50
360
0
ENDBLK
5
ED
100
AcDbEntity
8
0
100
AcDbBlockEnd
0
BLOCK
5
FE
100
AcDbEntity
8
0
100
AcDbBlockBegin
2
_U0
70
0
10
0
20
0
30
0
3
_U0
0
MTEXT
5
F8
100
AcDbEntity
8
SK2
62
256
6
ByLayer
370
18
48
1
60
0
100
AcDbMText
10
-9.48237
20
-49.972892
30
0
210
0
220
0
230
1
1
\W0.7468;32.00
40
3
41
0
44
1.084337
50
0
71
7
72
5
7
iso_b_vert
0
LINE
5
F9
100
AcDbEntity
8
SK2
62
256
6
ByLayer
370
13
48
1
60
0
100
AcDbLine
10
-21
20
-2.3375
30
0
11
-21
21
-52.858006
31
0
39
0
210
0
220
0
230
1
0
LINE
5
FA
100
AcDbEntity
8
SK2
62
256
6
ByLayer
370
13
48
1
60
0
100
AcDbLine
10
11
20
-1.5875
30
0
11
11
21
-52.858006
31
0
39
0
210
0
220
0
230
1
0
LINE
5
FB
100
AcDbEntity
8
SK2
62
256
6
ByLayer
370
13
48
1
60
0
100
AcDbLine
10
-21
20
-50.858006
30
0
11
11
21
-50.858006
31
0
39
0
210
0
220
0
230
1
0
SOLID
5
FC
100
AcDbEntity
8
SK2
62
256
6
ByLayer
370
18
48
1
60
0
100
AcDbTrace
10
-21
20
-50.858006
30
0
11
-17.500002
21
-50.397222
31
0
12
-17.499998
22
-51.31879
32
0
13
-17.499998
23
-51.31879
33
0
39
0
210
0
220
0
230
1
0
SOLID
5
FD
100
AcDbEntity
8
SK2
62
256
6
ByLayer
370
18
48
1
60
0
100
AcDbTrace
10
11
20
-50.858006
30
0
11
7.500002
21
-51.31879
31
0
12
7.499998
22
-50.397222
32
0
13
7.499998
23
-50.397222
33
0
39
0
210
0
220
0
230
1
0
ENDBLK
5
FF
100
AcDbEntity
8
0
100
AcDbBlockEnd
0
BLOCK
5
104
100
AcDbEntity
8
0
100
AcDbBlockBegin
2
*D3
70
1
10
0
20
0
30
0
3
*D3
0
LINE
5
106
100
AcDbEntity
8
0
62
256
6
ByLayer
370
-2
48
1
60
0
100
AcDbLine
10
11
20
-1.5875
30
0
11
11
21
-42.858006
31
0
39
0
210
0
220
0
230
1
0
LINE
5
107
100
AcDbEntity
8
0
62
256
6
ByLayer
370
-2
48
1
60
0
100
AcDbLine
10
2
20
-2.3375
30
0
11
2
21
-42.858006
31
0
39
0
210
0
220
0
230
1
0
LINE
5
108
100
AcDbEntity
8
0
62
256
6
ByLayer
370
-2
48
1
60
0
100
AcDbLine
10
14.5
20
-40.858006
30
0
11
18
21
-40.858006
31
0
39
0
210
0
220
0
230
1
0
LINE
5
109
100
AcDbEntity
8
0
62
256
6
ByLayer
370
-2
48
1
60
0
100
AcDbLine
10
-1.5
20
-40.858006
30
0
11
-5
21
-40.858006
31
0
39
0
210
0
220
0
230
1
0
SOLID
5
10A
100
AcDbEntity
8
0
62
256
6
ByLayer
370
-1
48
1
60
0
100
AcDbTrace
10
14.5
20
-40.274673
30
0
11
14.5
21
-41.44134
31
0
12
11
22
-40.858006
32
0
13
11
23
-40.858006
33
0
39
0
210
0
220
0
230
1
0
SOLID
5
10B
100
AcDbEntity
8
0
62
256
6
ByLayer
370
-1
48
1
60
0
100
AcDbTrace
10
-1.5
20
-41.44134
30
0
11
-1.5
21
-40.274673
31
0
12
2
22
-40.858006
32
0
13
2
23
-40.858006
33
0
39
0
210
0
220
0
230
1
0
MTEXT
5
10C
100
AcDbEntity
8
0
62
256
6
ByLayer
370
18
48
1
60
0
100
AcDbMText
10
6.5
20
-34.858006
30
0
210
0
220
0
230
1
1
\A1;9
40
3
41
0
44
1
50
0
71
5
72
5
7
iso_b_vert
0
POINT
5
10D
100
AcDbEntity
8
Defpoints
62
0
6
ByLayer
370
-1
48
1
60
0
100
AcDbPoint
10
11
20
0
30
0
39
0
210
0
220
0
230
1
50
360
0
POINT
5
10E
100
AcDbEntity
8
Defpoints
62
0
6
ByLayer
370
-1
48
1
60
0
100
AcDbPoint
10
2
20
-0.75
30
0
39
0
210
0
220
0
230
1
50
360
0
POINT
5
10F
100
AcDbEntity
8
Defpoints
62
0
6
ByLayer
370
-1
48
1
60
0
100
AcDbPoint
10
2
20
-40.858006
30
0
39
0
210
0
220
0
230
1
50
360
0
ENDBLK
5
105
100
AcDbEntity
8
0
100
AcDbBlockEnd
0
BLOCK
5
117
100
AcDbEntity
8
0
100
AcDbBlockBegin
2
_U1
70
0
10
0
20
0
30
0
3
_U1
0
MTEXT
5
111
100
AcDbEntity
8
2
62
256
6
ByLayer
370
18
48
1
60
0
100
AcDbMText
10
3.138544
20
-39.972892
30
0
210
0
220
0
230
1
1
\W0.7346;9.00
40
3
41
0
44
1.084337
50
0
71
7
72
5
7
iso_b_vert
0
LINE
5
112
100
AcDbEntity
8
2
62
256
6
ByLayer
370
13
48
1
60
0
100
AcDbLine
10
11
20
-1.5875
30
0
11
11
21
-42.858006
31
0
39
0
210
0
220
0
230
1
0
LINE
5
113
100
AcDbEntity
8
2
62
256
6
ByLayer
370
13
48
1
60
0
100
AcDbLine
10
2
20
-2.3375
30
0
11
2
21
-42.858006
31
0
39
0
210
0
220
0
230
1
0
LINE
5
114
100
AcDbEntity
8
2
62
256
6
ByLayer
370
13
48
1
60
0
100
AcDbLine
10
11
20
-40.858006
30
0
11
2
21
-40.858006
31
0
39
0
210
0
220
0
230
1
0
SOLID
5
115
100
AcDbEntity
8
2
62
256
6
ByLayer
370
18
48
1
60
0
100
AcDbTrace
10
11
20
-40.858006
30
0
11
7.500002
21
-41.31879
31
0
12
7.499998
22
-40.397222
32
0
13
7.499998
23
-40.397222
33
0
39
0
210
0
220
0
230
1
0
SOLID
5
116
100
AcDbEntity
8
2
62
256
6
ByLayer
370
18
48
1
60
0
100
AcDbTrace
10
2
20
-40.858006
30
0
11
5.499998
21
-40.397222
31
0
12
5.500002
22
-41.31879
32
0
13
5.500002
23
-41.31879
33
0
39
0
210
0
220
0
230
1
0
ENDBLK
5
118
100
AcDbEntity
8
0
100
AcDbBlockEnd
0
BLOCK
5
11D
100
AcDbEntity
8
0
100
AcDbBlockBegin
2
*D5
70
1
10
0
20
0
30
0
3
*D5
0
LINE
5
11F
100
AcDbEntity
8
0
62
256
6
ByLayer
370
-2
48
1
60
0
100
AcDbLine
10
-21
20
-2.3375
30
0
11
-21
21
-37.858006
31
0
39
0
210
0
220
0
230
1
0
LINE
5
120
100
AcDbEntity
8
0
62
256
6
ByLayer
370
-2
48
1
60
0
100
AcDbLine
10
0
20
-2.3375
30
0
11
0
21
-37.858006
31
0
39
0
210
0
220
0
230
1
0
LINE
5
121
100
AcDbEntity
8
0
62
256
6
ByLayer
370
-2
48
1
60
0
100
AcDbLine
10
-17.5
20
-35.858006
30
0
11
-3.5
21
-35.858006
31
0
39
0
210
0
220
0
230
1
0
SOLID
5
122
100
AcDbEntity
8
0
62
256
6
ByLayer
370
-1
48
1
60
0
100
AcDbTrace
10
-17.5
20
-35.274673
30
0
11
-17.5
21
-36.44134
31
0
12
-21
22
-35.858006
32
0
13
-21
23
-35.858006
33
0
39
0
210
0
220
0
230
1
0
SOLID
5
123
100
AcDbEntity
8
0
62
256
6
ByLayer
370
-1
48
1
60
0
100
AcDbTrace
10
-3.5
20
-36.44134
30
0
11
-3.5
21
-35.274673
31
0
12
0
22
-35.858006
32
0
13
0
23
-35.858006
33
0
39
0
210
0
220
0
230
1
0
MTEXT
5
124
100
AcDbEntity
8
0
62
256
6
ByLayer
370
18
48
1
60
0
100
AcDbMText
10
-10.5
20
-29.858006
30
0
210
0
220
0
230
1
1
\A1;21
40
3
41
0
44
1
50
0
71
5
72
5
7
iso_b_vert
0
POINT
5
125
100
AcDbEntity
8
Defpoints
62
0
6
ByLayer
370
-1
48
1
60
0
100
AcDbPoint
10
-21
20
-0.75
30
0
39
0
210
0
220
0
230
1
50
360
0
POINT
5
126
100
AcDbEntity
8
Defpoints
62
0
6
ByLayer
370
-1
48
1
60
0
100
AcDbPoint
10
0
20
-0.75
30
0
39
0
210
0
220
0
230
1
50
360
0
POINT
5
127
100
AcDbEntity
8
Defpoints
62
0
6
ByLayer
370
-1
48
1
60
0
100
AcDbPoint
10
0
20
-35.858006
30
0
39
0
210
0
220
0
230
1
50
360
0
ENDBLK
5
11E
100
AcDbEntity
8
0
100
AcDbBlockEnd
0
BLOCK
5
12F
100
AcDbEntity
8
0
100
AcDbBlockBegin
2
_U2
70
0
10
0
20
0
30
0
3
_U2
0
MTEXT
5
129
100
AcDbEntity
8
SK2
62
256
6
ByLayer
370
18
48
1
60
0
100
AcDbMText
10
-14.607428
20
-34.972892
30
0
210
0
220
0
230
1
1
\W0.6864;21.00
40
3
41
0
44
1.084337
50
0
71
7
72
5
7
iso_b_vert
0
LINE
5
12A
100
AcDbEntity
8
SK2
62
256
6
ByLayer
370
13
48
1
60
0
100
AcDbLine
10
-21
20
-2.3375
30
0
11
-21
21
-37.858006
31
0
39
0
210
0
220
0
230
1
0
LINE
5
12B
100
AcDbEntity
8
SK2
62
256
6
ByLayer
370
13
48
1
60
0
100
AcDbLine
10
0
20
-2.3375
30
0
11
0
21
-37.858006
31
0
39
0
210
0
220
0
230
1
0
LINE
5
12C
100
AcDbEntity
8
SK2
62
256
6
ByLayer
370
13
48
1
60
0
100
AcDbLine
10
-21
20
-35.858006
30
0
11
0
21
-35.858006
31
0
39
0
210
0
220
0
230
1
0
SOLID
5
12D
100
AcDbEntity
8
SK2
62
256
6
ByLayer
370
18
48
1
60
0
100
AcDbTrace
10
-21
20
-35.858006
30
0
11
-17.500002
21
-35.397222
31
0
12
-17.499998
22
-36.31879
32
0
13
-17.499998
23
-36.31879
33
0
39
0
210
0
220
0
230
1
0
SOLID
5
12E
100
AcDbEntity
8
SK2
62
256
6
ByLayer
370
18
48
1
60
0
100
AcDbTrace
10
0
20
-35.858006
30
0
11
-3.499998
21
-36.31879
31
0
12
-3.500002
22
-35.397222
32
0
13
-3.500002
23
-35.397222
33
0
39
0
210
0
220
0
230
1
0
ENDBLK
5
130
100
AcDbEntity
8
0
100
AcDbBlockEnd
0
BLOCK
5
135
100
AcDbEntity
8
0
100
AcDbBlockBegin
2
*D7
70
1
10
0
20
0
30
0
3
*D7
0
LINE
5
137
100
AcDbEntity
8
0
62
256
6
ByLayer
370
-2
48
1
60
0
100
AcDbLine
10
11
20
-1.5875
30
0
11
11
21
-35.858006
31
0
39
0
210
0
220
0
230
1
0
LINE
5
138
100
AcDbEntity
8
0
62
256
6
ByLayer
370
-2
48
1
60
0
100
AcDbLine
10
4.25
20
-2.3375
30
0
11
4.25
21
-35.858006
31
0
39
0
210
0
220
0
230
1
0
LINE
5
139
100
AcDbEntity
8
0
62
256
6
ByLayer
370
-2
48
1
60
0
100
AcDbLine
10
14.5
20
-33.858006
30
0
11
18
21
-33.858006
31
0
39
0
210
0
220
0
230
1
0
LINE
5
13A
100
AcDbEntity
8
0
62
256
6
ByLayer
370
-2
48
1
60
0
100
AcDbLine
10
0.75
20
-33.858006
30
0
11
-2.75
21
-33.858006
31
0
39
0
210
0
220
0
230
1
0
SOLID
5
13B
100
AcDbEntity
8
0
62
256
6
ByLayer
370
-1
48
1
60
0
100
AcDbTrace
10
14.5
20
-33.274673
30
0
11
14.5
21
-34.44134
31
0
12
11
22
-33.858006
32
0
13
11
23
-33.858006
33
0
39
0
210
0
220
0
230
1
0
SOLID
5
13C
100
AcDbEntity
8
0
62
256
6
ByLayer
370
-1
48
1
60
0
100
AcDbTrace
10
0.75
20
-34.44134
30
0
11
0.75
21
-33.274673
31
0
12
4.25
22
-33.858006
32
0
13
4.25
23
-33.858006
33
0
39
0
210
0
220
0
230
1
0
MTEXT
5
13D
100
AcDbEntity
8
0
62
256
6
ByLayer
370
18
48
1
60
0
100
AcDbMText
10
7.625
20
-27.858006
30
0
210
0
220
0
230
1
1
\A1;6.75
40
3
41
0
44
1
50
0
71
5
72
5
7
iso_b_vert
0
POINT
5
13E
100
AcDbEntity
8
Defpoints
62
0
6
ByLayer
370
-1
48
1
60
0
100
AcDbPoint
10
11
20
0
30
0
39
0
210
0
220
0
230
1
50
360
0
POINT
5
13F
100
AcDbEntity
8
Defpoints
62
0
6
ByLayer
370
-1
48
1
60
0
100
AcDbPoint
10
4.25
20
-0.75
30
0
39
0
210
0
220
0
230
1
50
360
0
POINT
5
140
100
AcDbEntity
8
Defpoints
62
0
6
ByLayer
370
-1
48
1
60
0
100
AcDbPoint
10
4.25
20
-33.858006
30
0
39
0
210
0
220
0
230
1
50
360
0
ENDBLK
5
136
100
AcDbEntity
8
0
100
AcDbBlockEnd
0
BLOCK
5
148
100
AcDbEntity
8
0
100
AcDbBlockBegin
2
_U3
70
0
10
0
20
0
30
0
3
_U3
0
MTEXT
5
142
100
AcDbEntity
8
2
62
256
6
ByLayer
370
18
48
1
60
0
100
AcDbMText
10
4.263544
20
-32.972892
30
0
210
0
220
0
230
1
1
\W0.7346;6.75
40
3
41
0
44
1.084337
50
0
71
7
72
5
7
iso_b_vert
0
LINE
5
143
100
AcDbEntity
8
2
62
256
6
ByLayer
370
13
48
1
60
0
100
AcDbLine
10
11
20
-1.5875
30
0
11
11
21
-35.858006
31
0
39
0
210
0
220
0
230
1
0
LINE
5
144
100
AcDbEntity
8
2
62
256
6
ByLayer
370
13
48
1
60
0
100
AcDbLine
10
4.25
20
-2.3375
30
0
11
4.25
21
-35.858006
31
0
39
0
210
0
220
0
230
1
0
LINE
5
145
100
AcDbEntity
8
2
62
256
6
ByLayer
370
13
48
1
60
0
100
AcDbLine
10
18.5
20
-33.858006
30
0
11
-3.25
21
-33.858006
31
0
39
0
210
0
220
0
230
1
0
SOLID
5
146
100
AcDbEntity
8
2
62
256
6
ByLayer
370
18
48
1
60
0
100
AcDbTrace
10
11
20
-33.858006
30
0
11
14.499998
21
-33.397222
31
0
12
14.500002
22
-34.31879
32
0
13
14.500002
23
-34.31879
33
0
39
0
210
0
220
0
230
1
0
SOLID
5
147
100
AcDbEntity
8
2
62
256
6
ByLayer
370
18
48
1
60
0
100
AcDbTrace
10
4.25
20
-33.858006
30
0
11
0.750002
21
-34.31879
31
0
12
0.749998
22
-33.397222
32
0
13
0.749998
23
-33.397222
33
0
39
0
210
0
220
0
230
1
0
ENDBLK
5
149
100
AcDbEntity
8
0
100
AcDbBlockEnd
0
ENDSEC
0
SECTION
2
ENTITIES
0
ARC
5
B5
100
AcDbEntity
8
2
62
256
6
ByLayer
370
13
48
1
60
0
100
AcDbCircle
39
0
10
11
20
0
30
0
40
22
210
0
220
0
230
1
100
AcDbArc
50
7.83748
51
61.596605
0
ARC
5
B6
100
AcDbEntity
8
2
62
256
6
ByLayer
370
13
48
1
60
0
100
AcDbCircle
39
0
10
11
20
0
30
0
40
22
210
0
220
0
230
1
100
AcDbArc
50
298.403395
51
352.16252
0
POINT
5
70
100
AcDbEntity
8
81
62
256
6
ByLayer
370
18
48
1
60
0
100
AcDbPoint
10
11
20
0
30
0
39
0
210
0
220
0
230
1
50
360
0
POINT
5
72
100
AcDbEntity
8
80
62
256
6
ByLayer
370
18
48
1
60
0
100
AcDbPoint
10
0
20
0
30
0
39
0
210
0
220
0
230
1
50
360
0
POINT
5
74
100
AcDbEntity
8
1
62
256
6
ByLayer
370
18
48
1
60
1
100
AcDbPoint
10
-21
20
-0.75
30
0
39
0
210
0
220
0
230
1
50
360
0
POINT
5
76
100
AcDbEntity
8
1
62
256
6
ByLayer
370
18
48
1
60
1
100
AcDbPoint
10
11
20
0
30
0
39
0
210
0
220
0
230
1
50
360
0
POINT
5
77
100
AcDbEntity
8
1
62
256
6
ByLayer
370
18
48
1
60
1
100
AcDbPoint
10
11
20
0
30
0
39
0
210
0
220
0
230
1
50
360
0
POINT
5
78
100
AcDbEntity
8
1
62
256
6
ByLayer
370
18
48
1
60
1
100
AcDbPoint
10
2
20
-0.75
30
0
39
0
210
0
220
0
230
1
50
360
0
POINT
5
79
100
AcDbEntity
8
1
62
256
6
ByLayer
370
18
48
1
60
1
100
AcDbPoint
10
-21
20
-0.75
30
0
39
0
210
0
220
0
230
1
50
360
0
POINT
5
7A
100
AcDbEntity
8
1
62
256
6
ByLayer
370
18
48
1
60
1
100
AcDbPoint
10
0
20
-0.75
30
0
39
0
210
0
220
0
230
1
50
360
0
POINT
5
7B
100
AcDbEntity
8
1
62
256
6
ByLayer
370
18
48
1
60
1
100
AcDbPoint
10
11
20
0
30
0
39
0
210
0
220
0
230
1
50
360
0
POINT
5
7C
100
AcDbEntity
8
1
62
256
6
ByLayer
370
18
48
1
60
1
100
AcDbPoint
10
4.25
20
-0.75
30
0
39
0
210
0
220
0
230
1
50
360
0
SPLINE
5
B7
100
AcDbEntity
8
CUT
62
256
6
ByLayer
370
18
48
1
60
0
100
AcDbSpline
70
2053
71
3
72
17
73
13
40
0
40
0
40
0
40
0
40
0.459349886081535
40
0.459349886081535
40
0.459349886081535
40
0.510226856307222
40
0.510226856307222
40
0.510226856307222
40
0.94197624705912
40
0.94197624705912
40
0.94197624705912
40
1
40
1
40
1
40
1
41
1
10
11
20
0
30
0
41
1
10
8.75
20
0
30
0
41
1
10
6.5
20
0
30
0
41
1
10
4.25
20
0
30
0
41
1
10
4.25
20
0.249206947636338
30
0
41
1
10
4.25
20
0.498413895272677
30
0
41
1
10
4.24999999999989
20
0.747620842909015
30
0
41
1
10
6.36480636070692
20
0.748413895294391
30
0
41
1
10
8.47961272141404
20
0.749206947679767
30
0
41
1
10
10.5944190821212
20
0.750000000065143
30
0
41
1
10
10.7296127214141
20
0.500000000043428
30
0
41
1
10
10.8648063607071
20
0.250000000021714
30
0
41
1
10
11
20
0
30
0
0
SPLINE
5
B9
100
AcDbEntity
8
NOCUT
62
256
6
ByLayer
370
18
48
1
60
0
100
AcDbSpline
70
2053
71
3
72
26
73
22
40
0
40
0
40
0
40
0
40
0.399444539673721
40
0.399444539673721
40
0.399444539673721
40
0.407631494534725
40
0.407631494534725
40
0.407631494534725
40
0.416315071484196
40
0.416315071484196
40
0.416315071484196
40
0.903560222535898
40
0.903560222535898
40
0.903560222535898
40
0.917986940576676
40
0.917986940576676
40
0.917986940576676
40
0.998068822517349
40
0.998068822517349
40
0.998068822517349
40
1
40
1
40
1
40
1
41
1
10
0
20
0.75
30
0
41
1
10
-6.90000000000001
20
0.75
30
0
41
1
10
-13.8
20
0.75
30
0
41
1
10
-20.7
20
0.75
30
0
41
1
10
-20.8
20
0.650000000000006
30
0
41
1
10
-20.9
20
0.550000000000011
30
0
41
1
10
-21
20
0.449999999999989
30
0
41
1
10
-21
20
0.300000000000011
30
0
41
1
10
-21
20
0.150000000000006
30
0
41
1
10
-21
20
0
30
0
41
1
10
-12.5833333333334
20
0
30
0
41
1
10
-4.16666666666674
20
0
30
0
41
1
10
4.24999999999994
20
0
30
0
41
1
10
4.25
20
0.249206947636338
30
0
41
1
10
4.25
20
0.498413895272677
30
0
41
1
10
4.25
20
0.747620842909015
30
0
41
1
10
2.86666666666665
20
0.747102092908932
30
0
41
1
10
1.48333333333329
20
0.746583342908849
30
0
41
1
10
0.100000000077728
20
0.746064592905725
30
0
41
1
10
0.0666666667703453
20
0.747376395268446
30
0
41
1
10
0.0333333333851726
20
0.748688197634209
30
0
41
1
10
0
20
0.75
30
0
0
SPLINE
5
BB
100
AcDbEntity
8
1
62
256
6
ByLayer
370
18
48
1
60
0
100
AcDbSpline
70
4
71
3
72
56
73
52
40
0
40
0
40
0
40
0
40
0.125000000000012
40
0.125000000000012
40
0.187500000000018
40
0.187500000000018
40
0.250000000000023
40
0.250000000000023
40
0.281250000000029
40
0.281250000000029
40
0.312500000000035
40
0.312500000000035
40
0.375000000000042
40
0.375000000000042
40
0.437500000000048
40
0.437500000000048
40
0.468750000000051
40
0.468750000000051
40
0.476562500000053
40
0.476562500000053
40
0.484375000000055
40
0.484375000000055
40
0.492187500000057
40
0.492187500000057
40
0.500000000000059
40
0.500000000000059
40
0.507812500000061
40
0.507812500000061
40
0.515625000000062
40
0.515625000000062
40
0.523437500000064
40
0.523437500000064
40
0.531250000000066
40
0.531250000000066
40
0.562500000000066
40
0.562500000000066
40
0.593750000000065
40
0.593750000000065
40
0.625000000000064
40
0.625000000000064
40
0.687500000000057
40
0.687500000000057
40
0.750000000000049
40
0.750000000000049
40
0.781250000000043
40
0.781250000000043
40
0.812500000000036
40
0.812500000000036
40
0.875000000000022
40
0.875000000000022
40
1
40
1
40
1
40
1
41
1
10
10.5944190821211
20
0.726178730100287
30
0
41
1
10
10.6252495318899
20
0.668899851089662
30
0
41
1
10
10.6558937488452
20
0.611394882595448
30
0
41
1
10
10.7014253748247
20
0.524810680545357
30
0
41
1
10
10.7165287250145
20
0.495893881519294
30
0
41
1
10
10.7465112156256
20
0.437918062040438
30
0
41
1
10
10.7613831136423
20
0.408855450698581
30
0
41
1
10
10.7834201402086
20
0.365124096306459
30
0
41
1
10
10.7907233330054
20
0.350526408476696
30
0
41
1
10
10.805277916708
20
0.321323961449735
30
0
41
1
10
10.8125309828878
20
0.306720373375896
30
0
41
1
10
10.8342287128113
20
0.262918579281404
30
0
41
1
10
10.8486053008942
20
0.233759615650683
30
0
41
1
10
10.8767935499341
20
0.175469918455377
30
0
41
1
10
10.8906567742319
20
0.146314890442653
30
0
41
1
10
10.9101454865161
20
0.102371962303323
30
0
41
1
10
10.9164369790358
20
0.0876853923282965
30
0
41
1
10
10.92372015055
20
0.069196380835848
30
0
41
1
10
10.9251460863499
20
0.0654909497366134
30
0
41
1
10
10.9278811296455
20
0.0580179007610298
30
0
41
1
10
10.9291936241231
20
0.0542412981293694
30
0
41
1
10
10.9315440832591
20
0.046577540891974
30
0
41
1
10
10.9325806539615
20
0.0426875123160357
30
0
41
1
10
10.934175942349
20
0.0347003184366201
30
0
41
1
10
10.9347263245653
20
0.0305930245962713
30
0
41
1
10
10.9351666591455
20
0.0225481781463657
30
0
41
1
10
10.9350608198162
20
0.0185157949588586
30
0
41
1
10
10.9342426587987
20
0.0107675219639702
30
0
41
1
10
10.9335466395583
20
0.0070832476304759
30
0
41
1
10
10.9317960421531
20
-6.81410281231E-05
30
0
41
1
10
10.9307418650606
20
-0.0035473779519464
30
0
41
1
10
10.9284687756303
20
-0.0103659679120653
30
0
41
1
10
10.9272469458389
20
-0.01371245018953
30
0
41
1
10
10.9208634893659
20
-0.0303036140257973
30
0
41
1
10
10.9148998038437
20
-0.0431292456758001
30
0
41
1
10
10.9021351436544
20
-0.0681184870437335
30
0
41
1
10
10.895298509813
20
-0.0802919139346727
30
0
41
1
10
10.8812443314584
20
-0.103888315540388
30
0
41
1
10
10.8740284481626
20
-0.115306969425348
30
0
41
1
10
10.8520967435822
20
-0.148592970189412
30
0
41
1
10
10.8371095301277
20
-0.169500622666305
30
0
41
1
10
10.8069033356093
20
-0.209078732863304
30
0
41
1
10
10.79166707183
20
-0.227739667404023
30
0
41
1
10
10.7686907463078
20
-0.254087543055249
30
0
41
1
10
10.7610100798752
20
-0.262594795113245
30
0
41
1
10
10.7456051656659
20
-0.279053206458372
30
0
41
1
10
10.7378761154622
20
-0.28700736170569
30
0
41
1
10
10.7148358002599
20
-0.309813753564356
30
0
41
1
10
10.6995995262952
20
-0.323691509804149
30
0
41
1
10
10.65417072645
20
-0.361461979307961
30
0
41
1
10
10.6242586137525
20
-0.381507165587038
30
0
41
1
10
10.5944190821212
20
-0.39652374621059
30
0
0
SPLINE
5
BC
100
AcDbEntity
8
1
62
256
6
ByLayer
370
18
48
1
60
0
100
AcDbSpline
70
4
71
3
72
48
73
44
40
0
40
0
40
0
40
0
40
0.0349308347267299
40
0.0349308347267299
40
0.0698616694534597
40
0.0698616694534597
40
0.10479250418019
40
0.10479250418019
40
0.139723338906919
40
0.139723338906919
40
0.209585008360379
40
0.209585008360379
40
0.244515843087108
40
0.244515843087108
40
0.279446677813836
40
0.279446677813836
40
0.314377512540565
40
0.314377512540565
40
0.349308347267293
40
0.349308347267293
40
0.384239181994022
40
0.384239181994022
40
0.41917001672075
40
0.41917001672075
40
0.489031686174207
40
0.489031686174207
40
0.558893355627664
40
0.558893355627664
40
0.628755025081121
40
0.628755025081121
40
0.663685859807849
40
0.663685859807849
40
0.698616694534576
40
0.698616694534576
40
0.768478363988033
40
0.768478363988033
40
0.83834003344149
40
0.83834003344149
40
0.908201702894947
40
0.908201702894947
40
0.978063372348404
40
0.978063372348404
40
1
40
1
40
1
40
1
41
1
10
10.5944190821211
20
-0.396523746210562
30
0
41
1
10
10.5606067369459
20
-0.38057329917342
30
0
41
1
10
10.5268585367135
20
-0.364362283373794
30
0
41
1
10
10.4595248796736
20
-0.331369418021012
30
0
41
1
10
10.4259489956885
20
-0.314570801024445
30
0
41
1
10
10.3589138834037
20
-0.280483249668123
30
0
41
1
10
10.3254506549846
20
-0.263201526488189
30
0
41
1
10
10.2586315972446
20
-0.228165537311583
30
0
41
1
10
10.2252867815111
20
-0.210391303273013
30
0
41
1
10
10.125240498053
20
-0.156664908972573
30
0
41
1
10
10.0584841719249
20
-0.120390952604907
30
0
41
1
10
9.95828730940988
20
-0.0652532212263566
30
0
41
1
10
9.92485803008483
20
-0.0467888124618128
30
0
41
1
10
9.85793300659637
20
-0.0096974413614248
30
0
41
1
10
9.82444982930295
20
0.0089535651435995
30
0
41
1
10
9.75731550830739
20
0.0462323174489256
30
0
41
1
10
9.72364348707765
20
0.0648197942251443
30
0
41
1
10
9.65610047723362
20
0.101912025686858
30
0
41
1
10
9.6222165698716
20
0.120461904899145
30
0
41
1
10
9.55476380877928
20
0.157150945850248
30
0
41
1
10
9.52112325766035
20
0.175311612782224
30
0
41
1
10
9.45400400861251
20
0.211254223654493
30
0
41
1
10
9.42053868845812
20
0.229059421819102
30
0
41
1
10
9.32024979692841
20
0.281665635742655
30
0
41
1
10
9.25344768289972
20
0.315517928105265
30
0
41
1
10
9.11999704249754
20
0.380898114307371
30
0
41
1
10
9.05330490295006
20
0.412347496951327
30
0
41
1
10
8.91968838275159
20
0.47225554087683
30
0
41
1
10
8.85259835127488
20
0.500472530806746
30
0
41
1
10
8.75155726829811
20
0.540192601415811
30
0
41
1
10
8.71775125006062
20
0.552988336250365
30
0
41
1
10
8.65013117094634
20
0.577553254580664
30
0
41
1
10
8.61644455779953
20
0.589298678731097
30
0
41
1
10
8.51561611617626
20
0.622773010306275
30
0
41
1
10
8.44858403187709
20
0.642621655257898
30
0
41
1
10
8.31490485670219
20
0.677551670806395
30
0
41
1
10
8.24821096696482
20
0.692580221083006
30
0
41
1
10
8.11487331059095
20
0.717556047458402
30
0
41
1
10
8.04805170548156
20
0.727402735234193
30
0
41
1
10
7.91410277805326
20
0.741814574633281
30
0
41
1
10
7.84693058601084
20
0.746354280620892
30
0
41
1
10
7.75825110451709
20
0.748653619187991
30
0
41
1
10
7.73701385161496
20
0.748924619197481
30
0
41
1
10
7.71579106898938
20
0.748919741151468
30
0
0
SPLINE
5
BD
100
AcDbEntity
8
1
62
256
6
ByLayer
370
18
48
1
60
0
100
AcDbSpline
70
4
71
3
72
14
73
10
40
0
40
0
40
0
40
0
40
0.292160991416041
40
0.292160991416041
40
0.469120743562031
40
0.469120743562031
40
0.646080495708021
40
0.646080495708021
40
1
40
1
40
1
40
1
41
1
10
4.72572820109079
20
-0.445847863934574
30
0
41
1
10
4.67013595068914
20
-0.470459123777971
30
0
41
1
10
4.61467260241383
20
-0.493904730759255
30
0
41
1
10
4.52571825770164
20
-0.529533285369666
30
0
41
1
10
4.49219272575743
20
-0.542517286921793
30
0
41
1
10
4.42505443199278
20
-0.56738949107455
30
0
41
1
10
4.39144330742516
20
-0.579282044218019
30
0
41
1
10
4.29048205559056
20
-0.613336512229296
30
0
41
1
10
4.2229818245375
20
-0.633868804970632
30
0
41
1
10
4.15542715061042
20
-0.652268701275631
30
0
0
SPLINE
5
BE
100
AcDbEntity
8
1
62
256
6
ByLayer
370
18
48
1
60
0
100
AcDbSpline
70
4
71
3
72
42
73
38
40
0
40
0
40
0
40
0
40
0.108879114890851
40
0.108879114890851
40
0.163318672336278
40
0.163318672336278
40
0.217758229781706
40
0.217758229781706
40
0.272197787227133
40
0.272197787227133
40
0.326637344672561
40
0.326637344672561
40
0.381076902117988
40
0.381076902117988
40
0.435516459563416
40
0.435516459563416
40
0.489956017008843
40
0.489956017008843
40
0.54439557445427
40
0.54439557445427
40
0.598835131899698
40
0.598835131899698
40
0.653274689345125
40
0.653274689345125
40
0.707714246790553
40
0.707714246790553
40
0.76215380423598
40
0.76215380423598
40
0.816593361681408
40
0.816593361681408
40
0.871032919126835
40
0.871032919126835
40
0.925472476572263
40
0.925472476572263
40
0.97991203401769
40
0.97991203401769
40
1
40
1
40
1
40
1
41
1
10
4.15542715061042
20
-0.15271609212914
30
0
41
1
10
4.22286193842439
20
-0.189868361997355
30
0
41
1
10
4.29034231883128
20
-0.22534529098499
30
0
41
1
10
4.39110557219652
20
-0.277213592797352
30
0
41
1
10
4.42461347403668
20
-0.294278568398113
30
0
41
1
10
4.49145445805559
20
-0.32797529948138
30
0
41
1
10
4.52478417278852
20
-0.344610369903052
30
0
41
1
10
4.59144367805962
20
-0.377148038037887
30
0
41
1
10
4.62477567878784
20
-0.393047651023437
30
0
41
1
10
4.69157864504615
20
-0.423913501778372
30
0
41
1
10
4.7250570217023
20
-0.438871602366476
30
0
41
1
10
4.7920228657357
20
-0.468064766779378
30
0
41
1
10
4.8255053716282
20
-0.482305551937003
30
0
41
1
10
4.89246247956348
20
-0.51006313743892
30
0
41
1
10
4.92592922810917
20
-0.523588593410722
30
0
41
1
10
4.99302151534482
20
-0.549664078380459
30
0
41
1
10
5.02665104283628
20
-0.562209237216223
30
0
41
1
10
5.09421770781591
20
-0.586139289823734
30
0
41
1
10
5.12818571715465
20
-0.597516969934674
30
0
41
1
10
5.19578408913523
20
-0.619093054697572
30
0
41
1
10
5.22947218242257
20
-0.629322247706625
30
0
41
1
10
5.29661352060876
20
-0.648663182419568
30
0
41
1
10
5.33005719351223
20
-0.65778015290303
30
0
41
1
10
5.39686324849697
20
-0.674739081389134
30
0
41
1
10
5.43023072815572
20
-0.682577495056762
30
0
41
1
10
5.49703783303988
20
-0.696895316415777
30
0
41
1
10
5.53049282979472
20
-0.703369537241286
30
0
41
1
10
5.59737857481554
20
-0.715059496461237
30
0
41
1
10
5.63079773657108
20
-0.720279688492894
30
0
41
1
10
5.69757088307605
20
-0.729449530460812
30
0
41
1
10
5.73091395086431
20
-0.733400247310158
30
0
41
1
10
5.79767741234915
20
-0.739936323239448
30
0
41
1
10
5.83110497651469
20
-0.742519641074864
30
0
41
1
10
5.89819760714167
20
-0.746292001635027
30
0
41
1
10
5.93188030667497
20
-0.747483505677224
30
0
41
1
10
5.9781029428448
20
-0.748181940815243
30
0
41
1
10
5.99057799712017
20
-0.7482770599253
30
0
41
1
10
6.00305973218295
20
-0.748277998437885
30
0
0
SPLINE
5
BF
100
AcDbEntity
8
1
62
256
6
ByLayer
370
18
48
1
60
0
100
AcDbSpline
70
4
71
3
72
38
73
34
40
0
40
0
40
0
40
0
40
0.0021828670041932
40
0.0021828670041932
40
0.0645464378164316
40
0.0645464378164316
40
0.12691000862867
40
0.12691000862867
40
0.189273579440909
40
0.189273579440909
40
0.251637150253147
40
0.251637150253147
40
0.314000721065386
40
0.314000721065386
40
0.376364291877624
40
0.376364291877624
40
0.438727862689863
40
0.438727862689863
40
0.501091433502101
40
0.501091433502101
40
0.56345500431434
40
0.56345500431434
40
0.625818575126578
40
0.625818575126578
40
0.688182145938817
40
0.688182145938817
40
0.750545716751055
40
0.750545716751055
40
0.875272858375532
40
0.875272858375532
40
0.937636429187766
40
0.937636429187766
40
1
40
1
40
1
40
1
41
1
10
8.9801155482273
20
0.441688547240943
30
0
41
1
10
8.98129338099326
20
0.442219521229532
30
0
41
1
10
8.98247098585827
20
0.442749987921985
30
0
41
1
10
9.01728525813863
20
0.458420465464883
30
0
41
1
10
9.050808056996
20
0.473144940418479
30
0
41
1
10
9.11780322724206
20
0.50151640641829
30
0
41
1
10
9.1512836229715
20
0.515154258308684
30
0
41
1
10
9.21827017883038
20
0.541296553048483
30
0
41
1
10
9.25174982506508
20
0.553839013185126
30
0
41
1
10
9.31857166008041
20
0.578005626638827
30
0
41
1
10
9.35191819750739
20
0.589621889113943
30
0
41
1
10
9.41851664643249
20
0.611853241562585
30
0
41
1
10
9.45178359214941
20
0.622449152306956
30
0
41
1
10
9.51843116878516
20
0.642413868862377
30
0
41
1
10
9.55181659835699
20
0.651779654995693
30
0
41
1
10
9.61879217282569
20
0.669228843739489
30
0
41
1
10
9.65235773125457
20
0.677337712104674
30
0
41
1
10
9.71952323548322
20
0.692409870084845
30
0
41
1
10
9.75312931199602
20
0.699365826399088
30
0
41
1
10
9.82041360594437
20
0.712052020686002
30
0
41
1
10
9.85416341336597
20
0.717777829114198
30
0
41
1
10
9.92164839606517
20
0.72780496542012
30
0
41
1
10
9.9553532342357
20
0.73210435551519
30
0
41
1
10
10.0227907277441
20
0.739290174250073
30
0
41
1
10
10.0565003147864
20
0.742190129105012
30
0
41
1
10
10.1237699064982
20
0.746650477159818
30
0
41
1
10
10.1573366042088
20
0.748206081146719
30
0
41
1
10
10.2578515898268
20
0.750796823780746
30
0
41
1
10
10.3247021509462
20
0.74970615587651
30
0
41
1
10
10.4256492526626
20
0.743982502956072
30
0
41
1
10
10.459379914592
20
0.741401739717048
30
0
41
1
10
10.5268670684834
20
0.734848604904528
30
0
41
1
10
10.5606304853524
20
0.730875253535658
30
0
41
1
10
10.5944190821211
20
0.726178730100287
30
0
0
SPLINE
5
C0
100
AcDbEntity
8
1
62
256
6
ByLayer
370
18
48
1
60
0
100
AcDbSpline
70
4
71
3
72
72
73
68
40
0
40
0
40
0
40
0
40
0.040467338919211
40
0.040467338919211
40
0.0613267445948802
40
0.0613267445948802
40
0.0821861502705494
40
0.0821861502705494
40
0.123904961621888
40
0.123904961621888
40
0.165623772973226
40
0.165623772973226
40
0.207342584324565
40
0.207342584324565
40
0.249061395675903
40
0.249061395675903
40
0.269920801351573
40
0.269920801351573
40
0.290780207027243
40
0.290780207027243
40
0.332499018378585
40
0.332499018378585
40
0.353358424054255
40
0.353358424054255
40
0.374217829729925
40
0.374217829729925
40
0.415936641081265
40
0.415936641081265
40
0.436796046756934
40
0.436796046756934
40
0.457655452432604
40
0.457655452432604
40
0.499374263783944
40
0.499374263783944
40
0.582811886486622
40
0.582811886486622
40
0.603671292162292
40
0.603671292162292
40
0.624530697837962
40
0.624530697837962
40
0.645390103513631
40
0.645390103513631
40
0.666249509189301
40
0.666249509189301
40
0.687108914864971
40
0.687108914864971
40
0.70796832054064
40
0.70796832054064
40
0.749687131891979
40
0.749687131891979
40
0.770546537567649
40
0.770546537567649
40
0.791405943243319
40
0.791405943243319
40
0.833124754594656
40
0.833124754594656
40
0.853984160270325
40
0.853984160270325
40
0.874843565945994
40
0.874843565945994
40
0.91656237729733
40
0.91656237729733
40
0.937421782972998
40
0.937421782972998
40
0.958281188648666
40
0.958281188648666
40
1
40
1
40
1
40
1
41
1
10
8.98048358061487
20
-0.444992493625335
30
0
41
1
10
8.91566303288207
20
-0.473946872927087
30
0
41
1
10
8.85057767801405
20
-0.501266873882201
30
0
41
1
10
8.75155726829811
20
-0.540192601415811
30
0
41
1
10
8.71775125006062
20
-0.552988336250365
30
0
41
1
10
8.65013117094634
20
-0.577553254580664
30
0
41
1
10
8.61644455779955
20
-0.589298678731097
30
0
41
1
10
8.51561611617629
20
-0.622773010306275
30
0
41
1
10
8.44858403187709
20
-0.642621655257898
30
0
41
1
10
8.31490485670219
20
-0.677551670806395
30
0
41
1
10
8.24821096696485
20
-0.692580221083006
30
0
41
1
10
8.11487331059098
20
-0.717556047458402
30
0
41
1
10
8.04805170548156
20
-0.727402735234193
30
0
41
1
10
7.91410277805329
20
-0.741814574633281
30
0
41
1
10
7.84693058601084
20
-0.746354280620892
30
0
41
1
10
7.7456983711638
20
-0.748979094522667
30
0
41
1
10
7.71183787906915
20
-0.749147966796698
30
0
41
1
10
7.6443716674718
20
-0.748094450570051
30
0
41
1
10
7.61071986566247
20
-0.746875324018163
30
0
41
1
10
7.51000313138817
20
-0.741164316906804
30
0
41
1
10
7.44312190078622
20
-0.734631381646381
30
0
41
1
10
7.34303994832905
20
-0.720815539682121
30
0
41
1
10
7.30969295982274
20
-0.715550541186758
30
0
41
1
10
7.24293691898768
20
-0.703767103118651
30
0
41
1
10
7.20954994172334
20
-0.697237811518079
30
0
41
1
10
7.10937774234839
20
-0.675721234963675
30
0
41
1
10
7.04251651125361
20
-0.658853544636401
30
0
41
1
10
6.94196007436935
20
-0.629791822747279
30
0
41
1
10
6.90837576946669
20
-0.619495699926517
30
0
41
1
10
6.84096856738381
20
-0.597797118867447
30
0
41
1
10
6.80711262652602
20
-0.58635426961294
30
0
41
1
10
6.70566464220141
20
-0.550375326366549
30
0
41
1
10
6.63842083795279
20
-0.524391388848841
30
0
41
1
10
6.43755962751615
20
-0.440910009145938
30
0
41
1
10
6.30420039778815
20
-0.378785797972455
30
0
41
1
10
6.13726669288758
20
-0.294533486912172
30
0
41
1
10
6.1038560050543
20
-0.277369259171508
30
0
41
1
10
6.03685219641977
20
-0.242646872223503
30
0
41
1
10
6.00327618921375
20
-0.225060693574107
30
0
41
1
10
5.93601360839304
20
-0.189363646202509
30
0
41
1
10
5.90231561351652
20
-0.171272527779109
30
0
41
1
10
5.83472665098037
20
-0.134704010593538
30
0
41
1
10
5.80086176608233
20
-0.11622250028617
30
0
41
1
10
5.73348358261728
20
-0.0791616720696879
30
0
41
1
10
5.69989173948463
20
-0.0605686509393308
30
0
41
1
10
5.63275733060743
20
-0.0235283351972271
30
0
41
1
10
5.59922937758438
20
-0.0050526576325467
30
0
41
1
10
5.4988267082733
20
0.0503643154809481
30
0
41
1
10
5.43205895824045
20
0.0871567151120303
30
0
41
1
10
5.33201748854691
20
0.141855619662238
30
0
41
1
10
5.29868621038395
20
0.160001760648299
30
0
41
1
10
5.23190358893982
20
0.195846970919973
30
0
41
1
10
5.19846253395733
20
0.213565316209269
30
0
41
1
10
5.09806635146759
20
0.266243052031257
30
0
41
1
10
5.03097164971166
20
0.300606589429606
30
0
41
1
10
4.92991628609803
20
0.350702961981767
30
0
41
1
10
4.89611039424796
20
0.367189134681155
30
0
41
1
10
4.82848055963211
20
0.399282122756887
30
0
41
1
10
4.7947068122225
20
0.4148822165578
30
0
41
1
10
4.69358707304519
20
0.460490860338098
30
0
41
1
10
4.62638320809194
20
0.489214325189152
30
0
41
1
10
4.52571825770164
20
0.529533285369666
30
0
41
1
10
4.49219272575743
20
0.542517286921793
30
0
41
1
10
4.42505443199278
20
0.56738949107455
30
0
41
1
10
4.39144330742516
20
0.579282044218019
30
0
41
1
10
4.29048205559053
20
0.613336512229296
30
0
41
1
10
4.22298182453747
20
0.633868804970632
30
0
41
1
10
4.15542715061042
20
0.652268701275631
30
0
0
SPLINE
5
C1
100
AcDbEntity
8
1
62
256
6
ByLayer
370
18
48
1
60
0
100
AcDbSpline
70
4
71
3
72
12
73
8
40
0
40
0
40
0
40
0
40
0.586553326030208
40
0.586553326030208
40
0.879829989045316
40
0.879829989045316
40
1
40
1
40
1
40
1
41
1
10
4.15542715061042
20
0.652268701275631
30
0
41
1
10
3.95708956245426
20
0.683569209102529
30
0
41
1
10
3.76170134607273
20
0.710629912800101
30
0
41
1
10
3.47156388456673
20
0.736371466446542
30
0
41
1
10
3.37533556508362
20
0.742482311740105
30
0
41
1
10
3.24016106238307
20
0.746541697536429
30
0
41
1
10
3.20096749441598
20
0.747175056928768
30
0
41
1
10
3.16198248411939
20
0.747209716707999
30
0
0
SPLINE
5
C2
100
AcDbEntity
8
1
62
256
6
ByLayer
370
18
48
1
60
0
100
AcDbSpline
70
4
71
3
72
118
73
114
40
0
40
0
40
0
40
0
40
0.0061146386348311
40
0.0061146386348311
40
0.0243130009946345
40
0.0243130009946345
40
0.042511363354438
40
0.042511363354438
40
0.0607097257142415
40
0.0607097257142415
40
0.078908088074045
40
0.078908088074045
40
0.0971064504338485
40
0.0971064504338485
40
0.115304812793652
40
0.115304812793652
40
0.133503175153455
40
0.133503175153455
40
0.151701537513259
40
0.151701537513259
40
0.169899899873062
40
0.169899899873062
40
0.188098262232866
40
0.188098262232866
40
0.206296624592669
40
0.206296624592669
40
0.224494986952473
40
0.224494986952473
40
0.242693349312276
40
0.242693349312276
40
0.26089171167208
40
0.26089171167208
40
0.279090074031883
40
0.279090074031883
40
0.297288436391687
40
0.297288436391687
40
0.31548679875149
40
0.31548679875149
40
0.333685161111294
40
0.333685161111294
40
0.351883523471097
40
0.351883523471097
40
0.370081885830901
40
0.370081885830901
40
0.388280248190704
40
0.388280248190704
40
0.406478610550508
40
0.406478610550508
40
0.424676972910311
40
0.424676972910311
40
0.442875335270115
40
0.442875335270115
40
0.461073697629918
40
0.461073697629918
40
0.479272059989722
40
0.479272059989722
40
0.497470422349525
40
0.497470422349525
40
0.515668784709328
40
0.515668784709328
40
0.533867147069132
40
0.533867147069132
40
0.552065509428935
40
0.552065509428935
40
0.570263871788739
40
0.570263871788739
40
0.588462234148542
40
0.588462234148542
40
0.606660596508346
40
0.606660596508346
40
0.624858958868149
40
0.624858958868149
40
0.643057321227952
40
0.643057321227952
40
0.661255683587756
40
0.661255683587756
40
0.679454045947559
40
0.679454045947559
40
0.697652408307363
40
0.697652408307363
40
0.715850770667166
40
0.715850770667166
40
0.73404913302697
40
0.73404913302697
40
0.752247495386773
40
0.752247495386773
40
0.770445857746577
40
0.770445857746577
40
0.788644220106381
40
0.788644220106381
40
0.806842582466184
40
0.806842582466184
40
0.825040944825988
40
0.825040944825988
40
0.843239307185791
40
0.843239307185791
40
0.861437669545595
40
0.861437669545595
40
0.879636031905398
40
0.879636031905398
40
0.897834394265202
40
0.897834394265202
40
0.916032756625005
40
0.916032756625005
40
0.934231118984809
40
0.934231118984809
40
0.952429481344613
40
0.952429481344613
40
0.970627843704416
40
0.970627843704416
40
0.98882620606422
40
0.98882620606422
40
1
40
1
40
1
40
1
41
1
10
4.72479350351969
20
0.43862811693441
30
0
41
1
10
4.73603997418692
20
0.443618485334611
30
0
41
1
10
4.74728970237737
20
0.448563741869151
30
0
41
1
10
4.7920228657357
20
0.468064766779378
30
0
41
1
10
4.8255053716282
20
0.482305551937003
30
0
41
1
10
4.89246247956348
20
0.51006313743892
30
0
41
1
10
4.92592922810917
20
0.523588593410722
30
0
41
1
10
4.99302151534482
20
0.549664078380459
30
0
41
1
10
5.02665104283628
20
0.562209237216223
30
0
41
1
10
5.09421770781591
20
0.586139289823734
30
0
41
1
10
5.12818571715465
20
0.597516969934674
30
0
41
1
10
5.1957840891352
20
0.619093054697572
30
0
41
1
10
5.22947218242257
20
0.629322247706625
30
0
41
1
10
5.29661352060876
20
0.648663182419568
30
0
41
1
10
5.33005719351223
20
0.65778015290303
30
0
41
1
10
5.39686324849697
20
0.674739081389163
30
0
41
1
10
5.43023072815572
20
0.682577495056762
30
0
41
1
10
5.49703783303985
20
0.696895316415777
30
0
41
1
10
5.53049282979467
20
0.703369537241258
30
0
41
1
10
5.59737857481551
20
0.715059496461208
30
0
41
1
10
5.63079773657108
20
0.720279688492894
30
0
41
1
10
5.69757088307605
20
0.729449530460812
30
0
41
1
10
5.73091395086431
20
0.733400247310158
30
0
41
1
10
5.79767741234917
20
0.739936323239419
30
0
41
1
10
5.83110497651467
20
0.742519641074864
30
0
41
1
10
5.89819760714167
20
0.746292001635027
30
0
41
1
10
5.93188030667497
20
0.747483505677224
30
0
41
1
10
5.99940810691066
20
0.748503866963063
30
0
41
1
10
6.03329185484282
20
0.748330022632814
30
0
41
1
10
6.10091540325729
20
0.74657267663784
30
0
41
1
10
6.13456749943146
20
0.744988319106085
30
0
41
1
10
6.20170437756261
20
0.740426379359548
30
0
41
1
10
6.23519768978943
20
0.737451049556228
30
0
41
1
10
6.30218483849211
20
0.730195849931135
30
0
41
1
10
6.33569748179934
20
0.725928288860558
30
0
41
1
10
6.40266510887631
20
0.716111636715596
30
0
41
1
10
6.43610238255906
20
0.71055227186892
30
0
41
1
10
6.50285051724327
20
0.69809324305217
30
0
41
1
10
6.53615092268413
20
0.691183413245454
30
0
41
1
10
6.60274483545112
20
0.676072011111643
30
0
41
1
10
6.63604867006143
20
0.667877911787485
30
0
41
1
10
6.70282307507807
20
0.650352559472623
30
0
41
1
10
6.73631241496832
20
0.641042618637442
30
0
41
1
10
6.80342146173268
20
0.6212824770694
30
0
41
1
10
6.83701995145481
20
0.610810372254235
30
0
41
1
10
6.90426232812308
20
0.588599459342845
30
0
41
1
10
6.93789783647389
20
0.576847333875804
30
0
41
1
10
7.0053255063749
20
0.552152098501267
30
0
41
1
10
7.03912771487509
20
0.539221946837898
30
0
41
1
10
7.10651872660475
20
0.512630304997543
30
0
41
1
10
7.14019518702364
20
0.498971986912721
30
0
41
1
10
7.20745816351666
20
0.470883988131106
30
0
41
1
10
7.24102169612485
20
0.456421052999701
30
0
41
1
10
7.30796002025949
20
0.426574975752089
30
0
41
1
10
7.34132736746312
20
0.411178851255244
30
0
41
1
10
7.40797038409204
20
0.379600928047069
30
0
41
1
10
7.44125917411515
20
0.363439246901947
30
0
41
1
10
7.50793235560852
20
0.330637238258902
30
0
41
1
10
7.5413335135554
20
0.31402631766187
30
0
41
1
10
7.60823356752354
20
0.280349151624023
30
0
41
1
10
7.6417072324785
20
0.263240477087208
30
0
41
1
10
7.70863572567291
20
0.228356523302352
30
0
41
1
10
7.74208622705356
20
0.210571956480948
30
0
41
1
10
7.80905441838868
20
0.174464850208437
30
0
41
1
10
7.84258662900521
20
0.156167962670793
30
0
41
1
10
7.90991209999078
20
0.119391239301592
30
0
41
1
10
7.94377890934467
20
0.100908484275067
30
0
41
1
10
8.01150068553847
20
0.0639700912011278
30
0
41
1
10
8.04527400754131
20
0.0454931228523208
30
0
41
1
10
8.11257080984004
20
0.0083791135413378
30
0
41
1
10
8.14609141217517
20
-0.0102625588836247
30
0
41
1
10
8.21295765477166
20
-0.0475579946645723
30
0
41
1
10
8.24631837176167
20
-0.0661830348782075
30
0
41
1
10
8.31306431880751
20
-0.103077617139974
30
0
41
1
10
8.34646238985451
20
-0.121324276219838
30
0
41
1
10
8.41332288182466
20
-0.157400740723688
30
0
41
1
10
8.44675816854939
20
-0.175280277831291
30
0
41
1
10
8.51354980292172
20
-0.210879079337957
30
0
41
1
10
8.54690645227387
20
-0.2285970537624
30
0
41
1
10
8.61360412726063
20
-0.263749954242712
30
0
41
1
10
8.64696076768618
20
-0.281156922163745
30
0
41
1
10
8.71386162130219
20
-0.315332228405197
30
0
41
1
10
8.74741544922168
20
-0.332084685046368
30
0
41
1
10
8.81476913551751
20
-0.364858263573552
30
0
41
1
10
8.84854169335782
20
-0.380926311852932
30
0
41
1
10
8.9161814122678
20
-0.41257947880689
30
0
41
1
10
8.95001145006859
20
-0.428139416069513
30
0
41
1
10
9.01728525813863
20
-0.458420465464883
30
0
41
1
10
9.050808056996
20
-0.473144940418479
30
0
41
1
10
9.11780322724206
20
-0.50151640641829
30
0
41
1
10
9.1512836229715
20
-0.515154258308684
30
0
41
1
10
9.21827017883041
20
-0.541296553048483
30
0
41
1
10
9.25174982506508
20
-0.553839013185126
30
0
41
1
10
9.31857166008041
20
-0.578005626638827
30
0
41
1
10
9.35191819750739
20
-0.589621889113943
30
0
41
1
10
9.41851664643249
20
-0.611853241562585
30
0
41
1
10
9.45178359214938
20
-0.622449152306956
30
0
41
1
10
9.51843116878513
20
-0.642413868862349
30
0
41
1
10
9.55181659835699
20
-0.651779654995693
30
0
41
1
10
9.61879217282566
20
-0.669228843739489
30
0
41
1
10
9.65235773125457
20
-0.677337712104674
30
0
41
1
10
9.71952323548322
20
-0.692409870084845
30
0
41
1
10
9.75312931199602
20
-0.699365826399088
30
0
41
1
10
9.8204136059444
20
-0.712052020686031
30
0
41
1
10
9.85416341336597
20
-0.717777829114198
30
0
41
1
10
9.92164839606517
20
-0.72780496542012
30
0
41
1
10
9.9553532342357
20
-0.73210435551519
30
0
41
1
10
10.0227907277441
20
-0.739290174250073
30
0
41
1
10
10.0565003147864
20
-0.742190129105012
30
0
41
1
10
10.1237699064982
20
-0.746650477159818
30
0
41
1
10
10.1573366042088
20
-0.748206081146719
30
0
41
1
10
10.2114136654529
20
-0.749599900657586
30
0
41
1
10
10.2319707054411
20
-0.749864561689066
30
0
41
1
10
10.2525302807314
20
-0.749866328179337
30
0
0
SPLINE
5
C3
100
AcDbEntity
8
1
62
256
6
ByLayer
370
18
48
1
60
0
100
AcDbSpline
70
4
71
5
72
25
73
19
40
0
40
0
40
0
40
0
40
0
40
0
40
0.0519593053439838
40
0.144089352856074
40
0.2364305029377
40
0.328959650540458
40
0.421642435884743
40
0.513627241683526
40
0.598329047339955
40
0.675313791479027
40
0.761057347236998
40
0.848775993361257
40
0.927894503439368
40
0.990578633516955
40
0.997210856080411
40
1
40
1
40
1
40
1
40
1
40
1
41
1
10
4.15542715061042
20
-0.652268701275631
30
0
41
1
10
4.15542715061042
20
-0.646634296789443
30
0
41
1
10
4.15542715061042
20
-0.631040786669388
30
0
41
1
10
4.15542715061042
20
-0.605596335909325
30
0
41
1
10
4.15542715061045
20
-0.570516140985319
30
0
41
1
10
4.15542715061042
20
-0.526124229896453
30
0
41
1
10
4.15542715061042
20
-0.478214874737461
30
0
41
1
10
4.15542715061042
20
-0.43175893614179
30
0
41
1
10
4.15542715061042
20
-0.387516719587495
30
0
41
1
10
4.15542715061045
20
-0.34455781693211
30
0
41
1
10
4.15542715061042
20
-0.302673390030122
30
0
41
1
10
4.15542715061039
20
-0.262758282544013
30
0
41
1
10
4.15542715061042
20
-0.225628317591571
30
0
41
1
10
4.15542715061042
20
-0.195676676210724
30
0
41
1
10
4.15542715061042
20
-0.173770014511234
30
0
41
1
10
4.15542715061039
20
-0.159995285543602
30
0
41
1
10
4.15542715061042
20
-0.153437082916326
30
0
41
1
10
4.15542715061045
20
-0.152580327055517
30
0
41
1
10
4.15542715061045
20
-0.152326701275626
30
0
0
SPLINE
5
C4
100
AcDbEntity
8
1
62
256
6
ByLayer
370
18
48
1
60
0
100
AcDbSpline
70
4
71
3
72
93
73
89
40
0
40
0
40
0
40
0
40
0.12499999999997
40
0.12499999999997
40
0.187499999999954
40
0.187499999999954
40
0.218749999999947
40
0.218749999999947
40
0.24999999999994
40
0.24999999999994
40
0.312499999999926
40
0.312499999999926
40
0.34374999999992
40
0.34374999999992
40
0.374999999999914
40
0.374999999999914
40
0.406249999999908
40
0.406249999999908
40
0.437499999999902
40
0.437499999999902
40
0.453124999999898
40
0.453124999999898
40
0.468749999999894
40
0.468749999999894
40
0.48437499999989
40
0.48437499999989
40
0.492187499999888
40
0.492187499999888
40
0.499999999999885
40
0.499999999999885
40
0.507812499999883
40
0.507812499999883
40
0.515624999999881
40
0.515624999999881
40
0.523437499999878
40
0.523437499999878
40
0.531249999999876
40
0.531249999999876
40
0.539062499999873
40
0.539062499999873
40
0.546874999999871
40
0.546874999999871
40
0.562499999999865
40
0.562499999999865
40
0.570312499999863
40
0.570312499999863
40
0.578124999999861
40
0.578124999999861
40
0.593749999999854
40
0.593749999999854
40
0.624999999999844
40
0.624999999999844
40
0.640624999999839
40
0.640624999999839
40
0.656249999999835
40
0.656249999999835
40
0.687499999999828
40
0.687499999999828
40
0.703124999999826
40
0.703124999999826
40
0.718749999999823
40
0.718749999999823
40
0.726562499999823
40
0.726562499999823
40
0.734374999999823
40
0.734374999999823
40
0.738281249999824
40
0.738281249999824
40
0.742187499999825
40
0.742187499999825
40
0.749999999999829
40
0.749999999999829
40
0.757812499999833
40
0.757812499999833
40
0.765624999999836
40
0.765624999999836
40
0.781249999999846
40
0.812499999999868
40
0.812499999999868
40
0.84374999999989
40
0.84374999999989
40
0.874999999999912
40
0.874999999999912
40
0.906249999999934
40
0.906249999999934
40
0.937499999999956
40
0.937499999999956
40
1
40
1
40
1
40
1
41
1
10
4.15542715061042
20
-0.652268701275631
30
0
41
1
10
3.95708956270488
20
-0.683569209062995
30
0
41
1
10
3.76170134656698
20
-0.710629912731577
30
0
41
1
10
3.471563885422
20
-0.736371466382963
30
0
41
1
10
3.37533556605848
20
-0.742482311686246
30
0
41
1
10
3.2315073669584
20
-0.746801574134849
30
0
41
1
10
3.18370678924359
20
-0.74742754757969
30
0
41
1
10
3.08880090968009
20
-0.746862305840551
30
0
41
1
10
3.04163460314879
20
-0.745673838077266
30
0
41
1
10
2.90099188303509
20
-0.739090094956168
30
0
41
1
10
2.80835764401203
20
-0.730722684144155
30
0
41
1
10
2.67125697609995
20
-0.71046064302044
30
0
41
1
10
2.625867743859
20
-0.702413500765857
30
0
41
1
10
2.53579908858453
20
-0.683232370455869
30
0
41
1
10
2.49111746091523
20
-0.672106455342856
30
0
41
1
10
2.40263910433828
20
-0.645955973752166
30
0
41
1
10
2.35867920711632
20
-0.630870640011551
30
0
41
1
10
2.27349926028128
20
-0.59594447680405
30
0
41
1
10
2.2321271244121
20
-0.576125461714071
30
0
41
1
10
2.1729362304323
20
-0.541046077966712
30
0
41
1
10
2.15370306919763
20
-0.528442127468651
30
0
41
1
10
2.11709985428038
20
-0.501245923625333
30
0
41
1
10
2.09965962362037
20
-0.48662770535347
30
0
41
1
10
2.0672102380675
20
-0.454583031846084
30
0
41
1
10
2.05211443856746
20
-0.437025091510719
30
0
41
1
10
2.03295750711089
20
-0.408503021623062
30
0
41
1
10
2.02713202333334
20
-0.39860954103662
30
0
41
1
10
2.01686417251372
20
-0.377883763391907
30
0
41
1
10
2.01240986112455
20
-0.366983167830966
30
0
41
1
10
2.00544200464071
20
-0.344674541304471
30
0
41
1
10
2.00289245839764
20
-0.333215346651656
30
0
41
1
10
1.9999493174661
20
-0.309610452105716
30
0
41
1
10
1.999582756812
20
-0.297359081109136
30
0
41
1
10
2.00124073765514
20
-0.273136590643134
30
0
41
1
10
2.00323461605856
20
-0.261067131733085
30
0
41
1
10
2.00950023122471
20
-0.237024053331453
30
0
41
1
10
2.013824521553
20
-0.224967995102674
30
0
41
1
10
2.0242930693606
20
-0.201775864073852
30
0
41
1
10
2.03044496407381
20
-0.190547070250176
30
0
41
1
10
2.04431301492093
20
-0.168723882677142
30
0
41
1
10
2.05203544886507
20
-0.158141707919526
30
0
41
1
10
2.07658910275373
20
-0.127936382699062
30
0
41
1
10
2.09496441052622
20
-0.109525730783815
30
0
41
1
10
2.12456181978035
20
-0.0836777266854938
30
0
41
1
10
2.13480838729637
20
-0.0753380971403885
30
0
41
1
10
2.15563636158299
20
-0.0593666613432333
30
0
41
1
10
2.16623632705927
20
-0.0517152672929342
30
0
41
1
10
2.19849831780692
20
-0.0295917972756001
30
0
41
1
10
2.22061764734457
20
-0.015941824110115
30
0
41
1
10
2.28832114981088
20
0.0225890778924054
30
0
41
1
10
2.33522820728538
20
0.045091663089039
30
0
41
1
10
2.40727926847671
20
0.0758058928902869
30
0
41
1
10
2.431590431991
20
0.0855212565467411
30
0
41
1
10
2.48042394615783
20
0.103972872968996
30
0
41
1
10
2.50498471004894
20
0.112725199855618
30
0
41
1
10
2.57903477223365
20
0.137782469612006
30
0
41
1
10
2.62888759097459
20
0.152901825313563
30
0
41
1
10
2.70423763388402
20
0.173750185275054
30
0
41
1
10
2.72945161851473
20
0.18038759238857
30
0
41
1
10
2.78005507852237
20
0.193104163507741
30
0
41
1
10
2.80542872407327
20
0.199170925230476
30
0
41
1
10
2.84352962630601
20
0.208030398853083
30
0
41
1
10
2.85623416456355
20
0.210959797002204
30
0
41
1
10
2.88166721322602
20
0.216704159270904
30
0
41
1
10
2.89437513628496
20
0.21960787644997
30
0
41
1
10
2.91377998246662
20
0.222468939609598
30
0
41
1
10
2.92031131836853
20
0.223148170468477
30
0
41
1
10
2.93354227781157
20
0.223776040222788
30
0
41
1
10
2.94007751453645
20
0.223722999863981
30
0
41
1
10
2.95945722815398
20
0.222559794912456
30
0
41
1
10
2.97206230998816
20
0.220371614993837
30
0
41
1
10
2.99698796644495
20
0.214705299954375
30
0
41
1
10
3.00934543285376
20
0.211392581754581
30
0
41
1
10
3.03410202175698
20
0.204941248917123
30
0
41
1
10
3.04648415830951
20
0.201726630606032
30
0
41
1
10
3.08364781866919
20
0.192142572827493
30
0
41
1
10
3.15802488776703
20
0.173114278939664
30
0
41
1
10
3.23240002319324
20
0.153982949950574
30
0
41
1
10
3.33156581105064
20
0.128387616100639
30
0
41
1
10
3.38116209848769
20
0.115594876491372
30
0
41
1
10
3.48034118180485
20
0.0898803086850819
30
0
41
1
10
3.52988372424289
20
0.0768203648933934
30
0
41
1
10
3.628285544177
20
0.0482070487166766
30
0
41
1
10
3.67718707292261
20
0.0327994066068982
30
0
41
1
10
3.77447515188564
20
3.13456997389E-05
30
0
41
1
10
3.82289995989677
20
-0.0173419181157328
30
0
41
1
10
3.96701833909168
20
-0.0718345621472167
30
0
41
1
10
4.06167312312866
20
-0.111381073089547
30
0
41
1
10
4.15542715061042
20
-0.15271609212914
30
0
0
LINE
5
7D
100
AcDbEntity
8
80
62
256
6
ByLayer
370
18
48
1
60
0
100
AcDbLine
10
0
20
0
30
0
11
-5
21
0
31
0
39
0
210
0
220
0
230
1
0
LINE
5
7E
100
AcDbEntity
8
4
62
256
6
ByLayer
370
18
48
0.05
60
0
100
AcDbLine
10
-5
20
0
30
0
11
16
21
0
31
0
39
0
210
0
220
0
230
1
0
LINE
5
80
100
AcDbEntity
8
81
62
256
6
ByLayer
370
18
48
1
60
0
100
AcDbLine
10
11
20
0
30
0
11
16
21
0
31
0
39
0
210
0
220
0
230
1
0
LINE
5
81
100
AcDbEntity
8
SK4
62
256
6
ByLayer
370
18
48
0.05
60
0
100
AcDbLine
10
-26
20
0
30
0
11
16
21
0
31
0
39
0
210
0
220
0
230
1
0
LINE
5
83
100
AcDbEntity
8
1
62
256
6
ByLayer
370
18
48
1
60
0
100
AcDbLine
10
0
20
0.75
30
0
11
0
21
-0.75
31
0
39
0
210
0
220
0
230
1
0
LINE
5
84
100
AcDbEntity
8
1
62
256
6
ByLayer
370
18
48
1
60
0
100
AcDbLine
10
10.594419
20
-0.75
30
0
11
10.594419
21
-0.396524
31
0
39
0
210
0
220
0
230
1
0
LINE
5
85
100
AcDbEntity
8
1
62
256
6
ByLayer
370
18
48
1
60
0
100
AcDbLine
10
10.594419
20
0.75
30
0
11
10.594419
21
0.726179
31
0
39
0
210
0
220
0
230
1
0
LINE
5
86
100
AcDbEntity
8
1
62
256
6
ByLayer
370
18
48
1
60
0
100
AcDbLine
10
0.1
20
-0.746065
30
0
11
0.1
21
0.746065
31
0
39
0
210
0
220
0
230
1
0
LINE
5
87
100
AcDbEntity
8
SK1
62
256
6
ByLayer
370
18
48
1
60
0
100
AcDbLine
10
-21
20
-0.45
30
0
11
-21
21
0.45
31
0
39
0
210
0
220
0
230
1
0
LINE
5
89
100
AcDbEntity
8
SK1
62
256
6
ByLayer
370
18
48
1
60
0
100
AcDbLine
10
0
20
0.75
30
0
11
0
21
-0.75
31
0
39
0
210
0
220
0
230
1
0
LINE
5
8A
100
AcDbEntity
8
SK1
62
256
6
ByLayer
370
18
48
1
60
0
100
AcDbLine
10
-20.7
20
-0.75
30
0
11
-20.7
21
0.75
31
0
39
0
210
0
220
0
230
1
0
LINE
5
8B
100
AcDbEntity
8
1
62
256
6
ByLayer
370
18
48
1
60
0
100
AcDbLine
10
11
20
0
30
0
11
10.594419
21
0.75
31
0
39
0
210
0
220
0
230
1
0
LINE
5
8C
100
AcDbEntity
8
1
62
256
6
ByLayer
370
18
48
1
60
0
100
AcDbLine
10
10.594419
20
-0.75
30
0
11
11
21
0
31
0
39
0
210
0
220
0
230
1
0
LINE
5
8D
100
AcDbEntity
8
1
62
256
6
ByLayer
370
18
48
1
60
0
100
AcDbLine
10
0.1
20
0.746065
30
0
11
0
21
0.75
31
0
39
0
210
0
220
0
230
1
0
LINE
5
8E
100
AcDbEntity
8
1
62
256
6
ByLayer
370
18
48
1
60
0
100
AcDbLine
10
0
20
-0.75
30
0
11
0.1
21
-0.746065
31
0
39
0
210
0
220
0
230
1
0
LINE
5
8F
100
AcDbEntity
8
1
62
256
6
ByLayer
370
18
48
1
60
0
100
AcDbLine
10
0.1
20
-0.746065
30
0
11
3.162819
21
-0.747213
31
0
39
0
210
0
220
0
230
1
0
LINE
5
90
100
AcDbEntity
8
1
62
256
6
ByLayer
370
18
48
1
60
0
100
AcDbLine
10
6.002861
20
-0.748278
30
0
11
7.715683
21
-0.74892
31
0
39
0
210
0
220
0
230
1
0
LINE
5
91
100
AcDbEntity
8
1
62
256
6
ByLayer
370
18
48
1
60
0
100
AcDbLine
10
10.252447
20
-0.749872
30
0
11
10.594419
21
-0.75
31
0
39
0
210
0
220
0
230
1
0
LINE
5
92
100
AcDbEntity
8
1
62
256
6
ByLayer
370
18
48
1
60
0
100
AcDbLine
10
10.594419
20
0.75
30
0
11
10.252447
21
0.749872
31
0
39
0
210
0
220
0
230
1
0
LINE
5
93
100
AcDbEntity
8
1
62
256
6
ByLayer
370
18
48
1
60
0
100
AcDbLine
10
7.715683
20
0.74892
30
0
11
6.002861
21
0.748278
31
0
39
0
210
0
220
0
230
1
0
LINE
5
94
100
AcDbEntity
8
1
62
256
6
ByLayer
370
18
48
1
60
0
100
AcDbLine
10
3.162819
20
0.747213
30
0
11
0.1
21
0.746065
31
0
39
0
210
0
220
0
230
1
0
LINE
5
95
100
AcDbEntity
8
SK1
62
256
6
ByLayer
370
18
48
1
60
0
100
AcDbLine
10
-21
20
-0.45
30
0
11
-20.7
21
-0.75
31
0
39
0
210
0
220
0
230
1
0
LINE
5
96
100
AcDbEntity
8
SK1
62
256
6
ByLayer
370
18
48
1
60
0
100
AcDbLine
10
-20.7
20
0.75
30
0
11
-21
21
0.45
31
0
39
0
210
0
220
0
230
1
0
LINE
5
97
100
AcDbEntity
8
SK1
62
256
6
ByLayer
370
18
48
1
60
0
100
AcDbLine
10
-20.7
20
-0.75
30
0
11
0
21
-0.75
31
0
39
0
210
0
220
0
230
1
0
LINE
5
98
100
AcDbEntity
8
SK1
62
256
6
ByLayer
370
18
48
1
60
0
100
AcDbLine
10
0
20
0.75
30
0
11
-20.7
21
0.75
31
0
39
0
210
0
220
0
230
1
0
LINE
5
99
100
AcDbEntity
8
SK2
62
256
6
ByLayer
370
13
48
1
60
0
100
AcDbLine
10
-27.5
20
26.782855
30
0
11
-27.5
21
-8.25
31
0
39
0
210
0
220
0
230
1
0
LINE
5
9B
100
AcDbEntity
8
SK2
62
256
6
ByLayer
370
13
48
1
60
0
100
AcDbLine
10
-22.5875
20
0.75
30
0
11
-29.5
21
0.75
31
0
39
0
210
0
220
0
230
1
0
LINE
5
9C
100
AcDbEntity
8
SK2
62
256
6
ByLayer
370
13
48
1
60
0
100
AcDbLine
10
-22.5875
20
-0.75
30
0
11
-29.5
21
-0.75
31
0
39
0
210
0
220
0
230
1
0
LINE
5
9D
100
AcDbEntity
8
1
62
256
6
ByLayer
370
18
48
1
60
1
100
AcDbLine
10
-27.5
20
0.75
30
0
11
-27.960784
21
4.249998
31
0
39
0
210
0
220
0
230
1
0
LINE
5
9E
100
AcDbEntity
8
1
62
256
6
ByLayer
370
18
48
1
60
1
100
AcDbLine
10
-27.960784
20
4.249998
30
0
11
-27.039216
21
4.250002
31
0
39
0
210
0
220
0
230
1
0
LINE
5
9F
100
AcDbEntity
8
1
62
256
6
ByLayer
370
18
48
1
60
1
100
AcDbLine
10
-27.039216
20
4.250002
30
0
11
-27.5
21
0.75
31
0
39
0
210
0
220
0
230
1
0
LINE
5
A0
100
AcDbEntity
8
1
62
256
6
ByLayer
370
18
48
1
60
1
100
AcDbLine
10
-27.5
20
-0.75
30
0
11
-27.039216
21
-4.249998
31
0
39
0
210
0
220
0
230
1
0
LINE
5
A1
100
AcDbEntity
8
1
62
256
6
ByLayer
370
18
48
1
60
1
100
AcDbLine
10
-27.039216
20
-4.249998
30
0
11
-27.960784
21
-4.250002
31
0
39
0
210
0
220
0
230
1
0
LINE
5
A2
100
AcDbEntity
8
1
62
256
6
ByLayer
370
18
48
1
60
1
100
AcDbLine
10
-27.960784
20
-4.250002
30
0
11
-27.5
21
-0.75
31
0
39
0
210
0
220
0
230
1
0
LINE
5
A3
100
AcDbEntity
8
2
62
256
6
ByLayer
370
13
48
1
60
0
100
AcDbLine
10
20.094419
20
26.782855
30
0
11
20.094419
21
-8.25
31
0
39
0
210
0
220
0
230
1
0
LINE
5
A5
100
AcDbEntity
8
2
62
256
6
ByLayer
370
13
48
1
60
0
100
AcDbLine
10
12.181919
20
0.75
30
0
11
22.094419
21
0.75
31
0
39
0
210
0
220
0
230
1
0
LINE
5
A6
100
AcDbEntity
8
2
62
256
6
ByLayer
370
13
48
1
60
0
100
AcDbLine
10
12.181919
20
-0.75
30
0
11
22.094419
21
-0.75
31
0
39
0
210
0
220
0
230
1
0
LINE
5
A7
100
AcDbEntity
8
1
62
256
6
ByLayer
370
18
48
1
60
1
100
AcDbLine
10
20.094419
20
0.75
30
0
11
19.633635
21
4.249998
31
0
39
0
210
0
220
0
230
1
0
LINE
5
A8
100
AcDbEntity
8
1
62
256
6
ByLayer
370
18
48
1
60
1
100
AcDbLine
10
19.633635
20
4.249998
30
0
11
20.555203
21
4.250002
31
0
39
0
210
0
220
0
230
1
0
LINE
5
A9
100
AcDbEntity
8
1
62
256
6
ByLayer
370
18
48
1
60
1
100
AcDbLine
10
20.555203
20
4.250002
30
0
11
20.094419
21
0.75
31
0
39
0
210
0
220
0
230
1
0
LINE
5
AA
100
AcDbEntity
8
1
62
256
6
ByLayer
370
18
48
1
60
1
100
AcDbLine
10
20.094419
20
-0.75
30
0
11
20.555203
21
-4.249998
31
0
39
0
210
0
220
0
230
1
0
LINE
5
AB
100
AcDbEntity
8
1
62
256
6
ByLayer
370
18
48
1
60
1
100
AcDbLine
10
20.555203
20
-4.249998
30
0
11
19.633635
21
-4.250002
31
0
39
0
210
0
220
0
230
1
0
LINE
5
AC
100
AcDbEntity
8
1
62
256
6
ByLayer
370
18
48
1
60
1
100
AcDbLine
10
19.633635
20
-4.250002
30
0
11
20.094419
21
-0.75
31
0
39
0
210
0
220
0
230
1
0
LINE
5
AD
100
AcDbEntity
8
2
62
256
6
ByLayer
370
13
48
1
60
0
100
AcDbLine
10
11.755136
20
-1.396397
30
0
11
22.416232
21
-21.110889
31
0
39
0
210
0
220
0
230
1
0
LINE
5
AE
100
AcDbEntity
8
2
62
256
6
ByLayer
370
13
48
1
60
0
100
AcDbLine
10
11.755136
20
1.396397
30
0
11
22.416232
21
21.110889
31
0
39
0
210
0
220
0
230
1
0
LINE
5
AF
100
AcDbEntity
8
1
62
256
6
ByLayer
370
18
48
1
60
1
100
AcDbLine
10
21.464879
20
-19.351649
30
0
11
24.239971
21
-17.169637
31
0
39
0
210
0
220
0
230
1
0
LINE
5
B0
100
AcDbEntity
8
1
62
256
6
ByLayer
370
18
48
1
60
1
100
AcDbLine
10
24.239971
20
-17.169637
30
0
11
24.710161
21
-17.962233
31
0
39
0
210
0
220
0
230
1
0
LINE
5
B1
100
AcDbEntity
8
1
62
256
6
ByLayer
370
18
48
1
60
1
100
AcDbLine
10
24.710161
20
-17.962233
30
0
11
21.464879
21
-19.351649
31
0
39
0
210
0
220
0
230
1
0
LINE
5
B2
100
AcDbEntity
8
1
62
256
6
ByLayer
370
18
48
1
60
1
100
AcDbLine
10
21.464879
20
19.351649
30
0
11
24.710158
21
17.962234
31
0
39
0
210
0
220
0
230
1
0
LINE
5
B3
100
AcDbEntity
8
1
62
256
6
ByLayer
370
18
48
1
60
1
100
AcDbLine
10
24.710158
20
17.962234
30
0
11
24.239974
21
17.169635
31
0
39
0
210
0
220
0
230
1
0
LINE
5
B4
100
AcDbEntity
8
1
62
256
6
ByLayer
370
18
48
1
60
1
100
AcDbLine
10
24.239974
20
17.169635
30
0
11
21.464879
21
19.351649
31
0
39
0
210
0
220
0
230
1
0
LINE
5
C9
100
AcDbEntity
8
1
62
256
6
ByLayer
370
18
48
1
60
1
100
AcDbLine
10
-27.5
20
0.75
30
0
11
-27.960784
21
4.249998
31
0
39
0
210
0
220
0
230
1
0
LINE
5
CA
100
AcDbEntity
8
1
62
256
6
ByLayer
370
18
48
1
60
1
100
AcDbLine
10
-27.960784
20
4.249998
30
0
11
-27.039216
21
4.250002
31
0
39
0
210
0
220
0
230
1
0
LINE
5
CB
100
AcDbEntity
8
1
62
256
6
ByLayer
370
18
48
1
60
1
100
AcDbLine
10
-27.039216
20
4.250002
30
0
11
-27.5
21
0.75
31
0
39
0
210
0
220
0
230
1
0
LINE
5
CD
100
AcDbEntity
8
1
62
256
6
ByLayer
370
18
48
1
60
1
100
AcDbLine
10
-27.5
20
-0.75
30
0
11
-27.039216
21
-4.249998
31
0
39
0
210
0
220
0
230
1
0
LINE
5
CE
100
AcDbEntity
8
1
62
256
6
ByLayer
370
18
48
1
60
1
100
AcDbLine
10
-27.039216
20
-4.249998
30
0
11
-27.960784
21
-4.250002
31
0
39
0
210
0
220
0
230
1
0
LINE
5
CF
100
AcDbEntity
8
1
62
256
6
ByLayer
370
18
48
1
60
1
100
AcDbLine
10
-27.960784
20
-4.250002
30
0
11
-27.5
21
-0.75
31
0
39
0
210
0
220
0
230
1
0
LINE
5
D3
100
AcDbEntity
8
1
62
256
6
ByLayer
370
18
48
1
60
1
100
AcDbLine
10
20.094419
20
0.75
30
0
11
19.633635
21
4.249998
31
0
39
0
210
0
220
0
230
1
0
LINE
5
D4
100
AcDbEntity
8
1
62
256
6
ByLayer
370
18
48
1
60
1
100
AcDbLine
10
19.633635
20
4.249998
30
0
11
20.555203
21
4.250002
31
0
39
0
210
0
220
0
230
1
0
LINE
5
D5
100
AcDbEntity
8
1
62
256
6
ByLayer
370
18
48
1
60
1
100
AcDbLine
10
20.555203
20
4.250002
30
0
11
20.094419
21
0.75
31
0
39
0
210
0
220
0
230
1
0
LINE
5
D7
100
AcDbEntity
8
1
62
256
6
ByLayer
370
18
48
1
60
1
100
AcDbLine
10
20.094419
20
-0.75
30
0
11
20.555203
21
-4.249998
31
0
39
0
210
0
220
0
230
1
0
LINE
5
D8
100
AcDbEntity
8
1
62
256
6
ByLayer
370
18
48
1
60
1
100
AcDbLine
10
20.555203
20
-4.249998
30
0
11
19.633635
21
-4.250002
31
0
39
0
210
0
220
0
230
1
0
LINE
5
D9
100
AcDbEntity
8
1
62
256
6
ByLayer
370
18
48
1
60
1
100
AcDbLine
10
19.633635
20
-4.250002
30
0
11
20.094419
21
-0.75
31
0
39
0
210
0
220
0
230
1
0
LINE
5
DC
100
AcDbEntity
8
1
62
256
6
ByLayer
370
18
48
1
60
1
100
AcDbLine
10
21.464879
20
-19.351649
30
0
11
24.239971
21
-17.169637
31
0
39
0
210
0
220
0
230
1
0
LINE
5
DD
100
AcDbEntity
8
1
62
256
6
ByLayer
370
18
48
1
60
1
100
AcDbLine
10
24.239971
20
-17.169637
30
0
11
24.710161
21
-17.962233
31
0
39
0
210
0
220
0
230
1
0
LINE
5
DE
100
AcDbEntity
8
1
62
256
6
ByLayer
370
18
48
1
60
1
100
AcDbLine
10
24.710161
20
-17.962233
30
0
11
21.464879
21
-19.351649
31
0
39
0
210
0
220
0
230
1
0
LINE
5
E0
100
AcDbEntity
8
1
62
256
6
ByLayer
370
18
48
1
60
1
100
AcDbLine
10
21.464879
20
19.351649
30
0
11
24.710158
21
17.962234
31
0
39
0
210
0
220
0
230
1
0
LINE
5
E1
100
AcDbEntity
8
1
62
256
6
ByLayer
370
18
48
1
60
1
100
AcDbLine
10
24.710158
20
17.962234
30
0
11
24.239974
21
17.169635
31
0
39
0
210
0
220
0
230
1
0
LINE
5
E2
100
AcDbEntity
8
1
62
256
6
ByLayer
370
18
48
1
60
1
100
AcDbLine
10
24.239974
20
17.169635
30
0
11
21.464879
21
19.351649
31
0
39
0
210
0
220
0
230
1
0
MTEXT
5
C5
100
AcDbEntity
8
SK2
62
256
6
ByLayer
370
18
48
1
60
0
100
AcDbMText
10
-28.841114
20
12.408437
30
0
210
0
220
0
230
1
1
%%c
40
3
41
0
44
1.084337
50
90
71
7
72
5
7
iso_b_vert
0
MTEXT
5
C8
100
AcDbEntity
8
SK2
62
256
6
ByLayer
370
18
48
1
60
0
100
AcDbMText
10
-28.841114
20
18.385
30
0
210
0
220
0
230
1
1
\W0.6864;1.500
40
3
41
0
44
1.084337
50
90
71
7
72
5
7
iso_b_vert
0
MTEXT
5
D1
100
AcDbEntity
8
2
62
256
6
ByLayer
370
18
48
1
60
0
100
AcDbMText
10
18.753305
20
12.408437
30
0
210
0
220
0
230
1
1
%%c
40
3
41
0
44
1.084337
50
90
71
7
72
5
7
iso_b_vert
0
MTEXT
5
D2
100
AcDbEntity
8
2
62
256
6
ByLayer
370
18
48
1
60
0
100
AcDbMText
10
18.753305
20
18.385
30
0
210
0
220
0
230
1
1
\W0.6864;1.500
40
3
41
0
44
1.084337
50
90
71
7
72
5
7
iso_b_vert
0
MTEXT
5
DB
100
AcDbEntity
8
2
62
256
6
ByLayer
370
18
48
1
60
0
100
AcDbMText
10
30.092229
20
-2.114886
30
0
210
0
220
0
230
1
1
\W0.6008;118%%d
40
3
41
0
44
1.084337
50
0
71
7
72
5
7
iso_b_vert
0
MTEXT
5
E4
100
AcDbEntity
8
SK6
62
256
6
ByLayer
370
18
48
1
60
0
100
AcDbMText
10
-10.761985
20
-67.114886
30
0
210
0
220
0
230
1
1
\W0.7280;R0231.5
40
3
41
0
44
1.084337
50
0
71
7
72
5
7
iso_b_vert
0
HATCH
5
CC
100
AcDbEntity
8
SK2
62
256
6
ByLayer
370
13
48
1
60
0
100
AcDbHatch
10
0
20
0
30
0
210
0
220
0
230
1
2
ANSI31
70
0
71
0
91
1
92
5
93
3
72
1
10
-27.5
20
0.75
11
-27.9607837415528
21
4.24999830744682
72
1
10
-27.9607837415528
20
4.24999830744682
11
-27.0392162584472
21
4.25000169255318
72
1
10
-27.0392162584472
20
4.25000169255318
11
-27.5
21
0.75
97
0
75
0
76
1
52
0
41
0.0062
77
0
78
1
53
45
43
0
44
0
45
-0.0139193969876572
46
0.0139193969876572
79
0
47
0
98
1
10
0
20
0
0
HATCH
5
D0
100
AcDbEntity
8
SK2
62
256
6
ByLayer
370
13
48
1
60
0
100
AcDbHatch
10
0
20
0
30
0
210
0
220
0
230
1
2
ANSI31
70
0
71
0
91
1
92
5
93
3
72
1
10
-27.5
20
-0.75
11
-27.0392162584472
21
-4.24999830744682
72
1
10
-27.0392162584472
20
-4.24999830744682
11
-27.9607837415528
21
-4.25000169255318
72
1
10
-27.9607837415528
20
-4.25000169255318
11
-27.5
21
-0.75
97
0
75
0
76
1
52
0
41
0.0062
77
0
78
1
53
45
43
0
44
0
45
-0.0139193969876572
46
0.0139193969876572
79
0
47
0
98
1
10
0
20
0
0
HATCH
5
D6
100
AcDbEntity
8
2
62
256
6
ByLayer
370
13
48
1
60
0
100
AcDbHatch
10
0
20
0
30
0
210
0
220
0
230
1
2
ANSI31
70
0
71
0
91
1
92
5
93
3
72
1
10
20.0944190821564
20
0.75
11
19.6336353406036
21
4.24999830744682
72
1
10
19.6336353406036
20
4.24999830744682
11
20.5552028237092
21
4.25000169255318
72
1
10
20.5552028237092
20
4.25000169255318
11
20.0944190821564
21
0.75
97
0
75
0
76
1
52
0
41
0.0062
77
0
78
1
53
45
43
0
44
0
45
-0.0139193969876572
46
0.0139193969876572
79
0
47
0
98
1
10
0
20
0
0
HATCH
5
DA
100
AcDbEntity
8
2
62
256
6
ByLayer
370
13
48
1
60
0
100
AcDbHatch
10
0
20
0
30
0
210
0
220
0
230
1
2
ANSI31
70
0
71
0
91
1
92
5
93
3
72
1
10
20.0944190821564
20
-0.75
11
20.5552028237092
21
-4.24999830744682
72
1
10
20.5552028237092
20
-4.24999830744682
11
19.6336353406036
21
-4.25000169255318
72
1
10
19.6336353406036
20
-4.25000169255318
11
20.0944190821564
21
-0.75
97
0
75
0
76
1
52
0
41
0.0062
77
0
78
1
53
45
43
0
44
0
45
-0.0139193969876572
46
0.0139193969876572
79
0
47
0
98
1
10
0
20
0
0
HATCH
5
DF
100
AcDbEntity
8
2
62
256
6
ByLayer
370
13
48
1
60
0
100
AcDbHatch
10
0
20
0
30
0
210
0
220
0
230
1
2
ANSI31
70
0
71
0
91
1
92
5
93
3
72
1
10
21.4648791987518
20
-19.3516485952885
11
24.239971107838
21
-17.1696369764528
72
1
10
24.239971107838
20
-17.1696369764528
11
24.7101613929248
21
-17.9622325364574
72
1
10
24.7101613929248
20
-17.9622325364574
11
21.4648791987518
21
-19.3516485952885
97
0
75
0
76
1
52
0
41
0.0062
77
0
78
1
53
45
43
0
44
0
45
-0.0139193969876572
46
0.0139193969876572
79
0
47
0
98
1
10
0
20
0
0
HATCH
5
E3
100
AcDbEntity
8
2
62
256
6
ByLayer
370
13
48
1
60
0
100
AcDbHatch
10
0
20
0
30
0
210
0
220
0
230
1
2
ANSI31
70
0
71
0
91
1
92
5
93
3
72
1
10
21.4648791987518
20
19.3516485952885
11
24.7101584815524
21
17.962234263552
72
1
10
24.7101584815524
20
17.962234263552
11
24.2399740192104
21
17.1696352493582
72
1
10
24.2399740192104
20
17.1696352493582
11
21.4648791987518
21
19.3516485952885
97
0
75
0
76
1
52
0
41
0.0062
77
0
78
1
53
45
43
0
44
0
45
-0.0139193969876572
46
0.0139193969876572
79
0
47
0
98
1
10
0
20
0
0
DIMENSION
5
E7
100
AcDbEntity
8
SK2
62
256
6
ByLayer
370
18
48
1
60
0
100
AcDbDimension
2
_U0
10
11
20
-50.858006
30
0
11
-5
21
-50.858006
31
0
70
32
71
1
72
1
41
1
210
0
220
0
230
1
3
Standard
100
AcDbAlignedDimension
13
-21
23
-0.75
33
0
14
11
24
0
34
0
50
0
100
AcDbRotatedDimension
1001
ACAD
1000
DSTYLE
1002
{
1070
   371
1070
    13
1070
   372
1070
    13
1070
     3
1000

1070
   170
1070
     0
1070
   144
1040
1.0
1070
   277
1070
     2
1070
   284
1070
     8
1070
   278
1070
    46
1070
   146
1040
1.166667
1070
   345
1005
16
1070
   347
1005
16
1070
   346
1005
16
1070
   344
1005
0
1070
   343
1005
0
1070
   172
1070
     1
1070
    76
1070
     0
1070
    75
1070
     0
1070
   282
1070
     0
1070
   281
1070
     0
1070
    71
1070
     0
1070
    74
1070
     0
1070
   279
1070
     0
1070
   173
1070
     1
1070
   340
1005
C6
1070
   271
1070
     2
1070
   272
1070
     3
1070
    77
1070
     1
1070
    73
1070
     1
1070
   171
1070
     3
1070
   274
1070
     4
1070
   177
1070
     2
1070
   176
1070
     2
1070
   178
1070
     2
1070
    78
1070
     8
1070
    48
1040
-0.1
1070
    41
1040
3.5
1070
   147
1040
1.5
1070
    42
1040
1.5875
1070
    44
1040
2.0
1070
   140
1040
3.0
1002
}
1001
ACAD_DSTYLE_DIM_LINETYPE
1070
   380
1005
16
1001
ACAD_DSTYLE_DIM_EXT1_LINETYPE
1070
   381
1005
16
1001
ACAD_DSTYLE_DIM_EXT2_LINETYPE
1070
   382
1005
16
0
DIMENSION
5
100
100
AcDbEntity
8
2
62
256
6
ByLayer
370
18
48
1
60
0
100
AcDbDimension
2
_U1
10
2
20
-40.858006
30
0
11
6.5
21
-40.858006
31
0
70
32
71
1
72
1
41
1
210
0
220
0
230
1
3
Standard
100
AcDbAlignedDimension
13
11
23
0
33
0
14
2
24
-0.75
34
0
50
0
100
AcDbRotatedDimension
1001
ACAD
1000
DSTYLE
1002
{
1070
   371
1070
    13
1070
   372
1070
    13
1070
     3
1000

1070
   170
1070
     0
1070
   144
1040
1.0
1070
   277
1070
     2
1070
   284
1070
     8
1070
   278
1070
    46
1070
   146
1040
1.166667
1070
   345
1005
16
1070
   347
1005
16
1070
   346
1005
16
1070
   344
1005
0
1070
   343
1005
0
1070
   172
1070
     1
1070
    76
1070
     0
1070
    75
1070
     0
1070
   282
1070
     0
1070
   281
1070
     0
1070
    71
1070
     0
1070
    74
1070
     0
1070
   279
1070
     0
1070
   173
1070
     1
1070
   340
1005
C6
1070
   271
1070
     2
1070
   272
1070
     3
1070
    77
1070
     1
1070
    73
1070
     1
1070
   171
1070
     3
1070
   274
1070
     4
1070
   177
1070
     2
1070
   176
1070
     2
1070
   178
1070
     2
1070
    78
1070
     8
1070
    48
1040
-0.1
1070
    41
1040
3.5
1070
   147
1040
1.5
1070
    42
1040
1.5875
1070
    44
1040
2.0
1070
   140
1040
3.0
1002
}
1001
ACAD_DSTYLE_DIM_LINETYPE
1070
   380
1005
16
1001
ACAD_DSTYLE_DIM_EXT1_LINETYPE
1070
   381
1005
16
1001
ACAD_DSTYLE_DIM_EXT2_LINETYPE
1070
   382
1005
16
0
DIMENSION
5
119
100
AcDbEntity
8
SK2
62
256
6
ByLayer
370
18
48
1
60
0
100
AcDbDimension
2
_U2
10
0
20
-35.858006
30
0
11
-10.5
21
-35.858006
31
0
70
32
71
1
72
1
41
1
210
0
220
0
230
1
3
Standard
100
AcDbAlignedDimension
13
-21
23
-0.75
33
0
14
0
24
-0.75
34
0
50
0
100
AcDbRotatedDimension
1001
ACAD
1000
DSTYLE
1002
{
1070
   371
1070
    13
1070
   372
1070
    13
1070
     3
1000

1070
   170
1070
     0
1070
   144
1040
1.0
1070
   277
1070
     2
1070
   284
1070
     8
1070
   278
1070
    46
1070
   146
1040
1.166667
1070
   345
1005
16
1070
   347
1005
16
1070
   346
1005
16
1070
   344
1005
0
1070
   343
1005
0
1070
   172
1070
     1
1070
    76
1070
     0
1070
    75
1070
     0
1070
   282
1070
     0
1070
   281
1070
     0
1070
    71
1070
     0
1070
    74
1070
     0
1070
   279
1070
     0
1070
   173
1070
     1
1070
   340
1005
C6
1070
   271
1070
     2
1070
   272
1070
     3
1070
    77
1070
     1
1070
    73
1070
     1
1070
   171
1070
     3
1070
   274
1070
     4
1070
   177
1070
     2
1070
   176
1070
     2
1070
   178
1070
     2
1070
    78
1070
     8
1070
    48
1040
-0.1
1070
    41
1040
3.5
1070
   147
1040
1.5
1070
    42
1040
1.5875
1070
    44
1040
2.0
1070
   140
1040
3.0
1002
}
1001
ACAD_DSTYLE_DIM_LINETYPE
1070
   380
1005
16
1001
ACAD_DSTYLE_DIM_EXT1_LINETYPE
1070
   381
1005
16
1001
ACAD_DSTYLE_DIM_EXT2_LINETYPE
1070
   382
1005
16
0
DIMENSION
5
131
100
AcDbEntity
8
2
62
256
6
ByLayer
370
18
48
1
60
0
100
AcDbDimension
2
_U3
10
4.25
20
-33.858006
30
0
11
7.625
21
-33.858006
31
0
70
32
71
1
72
1
41
1
210
0
220
0
230
1
3
Standard
100
AcDbAlignedDimension
13
11
23
0
33
0
14
4.25
24
-0.75
34
0
50
0
100
AcDbRotatedDimension
1001
ACAD
1000
DSTYLE
1002
{
1070
   371
1070
    13
1070
   372
1070
    13
1070
     3
1000

1070
   170
1070
     0
1070
   144
1040
1.0
1070
   277
1070
     2
1070
   284
1070
     8
1070
   278
1070
    46
1070
   146
1040
1.166667
1070
   345
1005
16
1070
   347
1005
16
1070
   346
1005
16
1070
   344
1005
0
1070
   343
1005
0
1070
   172
1070
     1
1070
    76
1070
     0
1070
    75
1070
     0
1070
   282
1070
     0
1070
   281
1070
     0
1070
    71
1070
     0
1070
    74
1070
     0
1070
   279
1070
     0
1070
   173
1070
     1
1070
   340
1005
C6
1070
   271
1070
     2
1070
   272
1070
     3
1070
    77
1070
     1
1070
    73
1070
     1
1070
   171
1070
     3
1070
   274
1070
     4
1070
   177
1070
     2
1070
   176
1070
     2
1070
   178
1070
     2
1070
    78
1070
     8
1070
    48
1040
-0.1
1070
    41
1040
3.5
1070
   147
1040
1.5
1070
    42
1040
1.5875
1070
    44
1040
2.0
1070
   140
1040
3.0
1002
}
1001
ACAD_DSTYLE_DIM_LINETYPE
1070
   380
1005
16
1001
ACAD_DSTYLE_DIM_EXT1_LINETYPE
1070
   381
1005
16
1001
ACAD_DSTYLE_DIM_EXT2_LINETYPE
1070
   382
1005
16
0
ENDSEC
0
SECTION
2
OBJECTS
0
DICTIONARY
5
1bc
330
0
100
AcDbDictionary
280
0
281
1
3
ACAD_GROUP
350
1bd
3
ACAD_MLINESTYLE
350
1be
0
DICTIONARY
5
1bd
330
0
100
AcDbDictionary
280
0
281
1
0
DICTIONARY
5
1be
330
0
100
AcDbDictionary
280
0
281
1
3
Standard
350
18
0
MLINESTYLE
5
18
330
1be
100
AcDbMlineStyle
2
Standard
70
0
3

62
256
51
90
52
90
71
2
49
-0.5
62
256
6
ByLayer
49
0.5
62
256
6
ByLayer
0
RASTERVARIABLES
5
1a8
330

100
AcDbRasterVariables
90
0
70
1
71
1
72
1
0
ENDSEC
0
EOF
