0
SECTION
2
HEADER
9
$ACADVER
1
AC1015
9
$DWGCODEPAGE
3
ANSI_1252
9
$HANDSEED
5
1c9
9
$ANGBASE
50
0
9
$ANGDIR
70
0
9
$ATTMODE
70
1
9
$AUNITS
70
0
9
$AUPREC
70
0
9
$CECOLOR
62
256
9
$CELTSCALE
40
1
9
$CELTYPE
6
ByLayer
9
$CELWEIGHT
370
18
9
$CLAYER
8
0
9
$CMLJUST
70
0
9
$CMLSCALE
40
1
9
$CMLSTYLE
2
Standard
9
$DIMSTYLE
2
Standard
9
$TEXTSIZE
40
0.2
9
$TEXTSTYLE
7
Standard
9
$LUNITS
70
2
9
$LUPREC
70
4
9
$EXTNAMES
290
1
9
$INSUNITS
70
4
9
$LTSCALE
40
1
9
$LWDISPLAY
290
1
9
$PDMODE
70
0
9
$PDSIZE
40
0
9
$PLINEGEN
70
0
0
ENDSEC
0
SECTION
2
CLASSES
0
CLASS
1
RASTERVARIABLES
2
AcDbRasterVariables
3
ISM
90
0
280
0
281
0
0
ENDSEC
0
SECTION
2
TABLES
0
TABLE
2
VPORT
5
1bf
100
AcDbSymbolTable
0
VPORT
5
1
100
AcDbSymbolTableRecord
100
AcDbViewportTableRecord
2
*Active
70
0
10
0
20
0
11
1
21
1
12
-1
22
1
13
0
23
0
14
0.5
24
0.5
15
10
25
10
16
0
26
0
36
1
17
0
27
0
37
0
0
ENDTAB
0
TABLE
2
LTYPE
5
1c0
100
AcDbSymbolTable
0
LTYPE
5
14
100
AcDbSymbolTableRecord
100
AcDbLinetypeTableRecord
70
0
2
ByBlock
3

72
65
73
0
40
0
0
LTYPE
5
15
100
AcDbSymbolTableRecord
100
AcDbLinetypeTableRecord
70
0
2
ByLayer
3

72
65
73
0
40
0
0
LTYPE
5
16
100
AcDbSymbolTableRecord
100
AcDbLinetypeTableRecord
70
0
2
Continuous
3
Solid line
72
65
73
0
40
0
0
LTYPE
5
6E
100
AcDbSymbolTableRecord
100
AcDbLinetypeTableRecord
70
0
2
CENTER
3
____ _ ____ _ ____ _ ____
72
65
73
4
40
47.5
49
22
74
0
49
-8.5
74
0
49
8.5
74
0
49
-8.5
74
0
0
LTYPE
5
6F
100
AcDbSymbolTableRecord
100
AcDbLinetypeTableRecord
70
0
2
DASHED
3
__ __ __ __ __ __ __ __ __
72
65
73
2
40
25.72
49
12.86
74
0
49
-12.86
74
0
0
ENDTAB
0
TABLE
2
LAYER
5
1c1
100
AcDbSymbolTable
0
LAYER
5
10
100
AcDbSymbolTableRecord
100
AcDbLayerTableRecord
2
0
70
0
62
7
6
Continuous
290
1
370
-3
390
0
0
LAYER
5
71
100
AcDbSymbolTableRecord
100
AcDbLayerTableRecord
2
81
70
0
62
-3
6
Continuous
290
1
370
-3
390
0
0
LAYER
5
73
100
AcDbSymbolTableRecord
100
AcDbLayerTableRecord
2
80
70
0
62
-6
6
Continuous
290
1
370
-3
390
0
0
LAYER
5
75
100
AcDbSymbolTableRecord
100
AcDbLayerTableRecord
2
1
70
0
62
4
6
Continuous
290
1
370
-3
390
0
0
LAYER
5
7F
100
AcDbSymbolTableRecord
100
AcDbLayerTableRecord
2
4
70
0
62
-2
6
CENTER
290
1
370
-3
390
0
0
LAYER
5
A4
100
AcDbSymbolTableRecord
100
AcDbLayerTableRecord
2
2
70
0
62
7
6
Continuous
290
1
370
-3
390
0
0
LAYER
5
EA
100
AcDbSymbolTableRecord
100
AcDbLayerTableRecord
2
Defpoints
70
0
62
7
6
Continuous
290
0
370
-3
390
0
0
LAYER
5
1a9
100
AcDbSymbolTableRecord
100
AcDbLayerTableRecord
2
SK4
70
0
62
2
6
CENTER
290
1
370
-3
390
0
0
LAYER
5
1aa
100
AcDbSymbolTableRecord
100
AcDbLayerTableRecord
2
SK1
70
0
62
4
6
Continuous
290
1
370
-3
390
0
0
LAYER
5
1ab
100
AcDbSymbolTableRecord
100
AcDbLayerTableRecord
2
SK2
70
0
62
7
6
Continuous
290
1
370
-3
390
0
0
LAYER
5
1ac
100
AcDbSymbolTableRecord
100
AcDbLayerTableRecord
2
CUT
70
0
62
-1
6
Continuous
290
1
370
-3
390
0
0
LAYER
5
1ad
100
AcDbSymbolTableRecord
100
AcDbLayerTableRecord
2
NOCUT
70
0
62
-7
6
Continuous
290
1
370
-3
390
0
0
LAYER
5
1ae
100
AcDbSymbolTableRecord
100
AcDbLayerTableRecord
2
SK6
70
0
62
5
6
Continuous
290
1
370
-3
390
0
0
ENDTAB
0
TABLE
2
STYLE
5
1c2
100
AcDbSymbolTable
0
STYLE
5
11
100
AcDbSymbolTableRecord
100
AcDbTextStyleTableRecord
2
Standard
3
txt
70
0
71
0
40
0
41
1
42
0
50
0
0
STYLE
5
C6
100
AcDbSymbolTableRecord
100
AcDbTextStyleTableRecord
2
iso_b_vert
3
simplex.shx
70
0
71
0
40
0
41
1
42
0
50
0
0
STYLE
5
C7
100
AcDbSymbolTableRecord
100
AcDbTextStyleTableRecord
2
DWGDirectTextStyle
3
simplex
70
0
71
0
40
0
41
1
42
0
50
0
0
ENDTAB
0
TABLE
2
DIMSTYLE
5
1c3
100
AcDbSymbolTable
100
AcDbDimStyleTable
0
DIMSTYLE
105
27
100
AcDbSymbolTableRecord
100
AcDbDimStyleTableRecord
2
Standard
70
0
3
<>
41
0.18
42
0.0625
44
0.18
140
0.18
147
0.09
73
0
74
0
77
1
271
2
275
0
278
52
280
0
340
11
0
ENDTAB
0
TABLE
2
VIEW
5
1c4
100
AcDbSymbolTable
0
ENDTAB
0
TABLE
2
UCS
5
1c5
100
AcDbSymbolTable
0
ENDTAB
0
TABLE
2
APPID
5
1c6
100
AcDbSymbolTable
0
APPID
5
12
100
AcDbSymbolTableRecord
100
AcDbRegAppTableRecord
2
ACAD
70
0
0
APPID
5
E6
100
AcDbSymbolTableRecord
100
AcDbRegAppTableRecord
2
ACAD_DSTYLE_DIMBREAK
70
0
0
APPID
5
168
100
AcDbSymbolTableRecord
100
AcDbRegAppTableRecord
2
ACAD_DSTYLE_DIM_LINETYPE
70
0
0
APPID
5
169
100
AcDbSymbolTableRecord
100
AcDbRegAppTableRecord
2
ACAD_DSTYLE_DIM_EXT1_LINETYPE
70
0
0
APPID
5
16A
100
AcDbSymbolTableRecord
100
AcDbRegAppTableRecord
2
ACAD_DSTYLE_DIM_EXT2_LINETYPE
70
0
0
APPID
5
1A5
100
AcDbSymbolTableRecord
100
AcDbRegAppTableRecord
2
ACAD_MLEADERVER
70
0
0
ENDTAB
0
TABLE
2
BLOCK_RECORD
5
1c7
100
AcDbSymbolTable
0
BLOCK_RECORD
5
1F
100
AcDbSymbolTableRecord
100
AcDbBlockTableRecord
2
*Model_Space
340
0
70
0
0
BLOCK_RECORD
5
1B
100
AcDbSymbolTableRecord
100
AcDbBlockTableRecord
2
*Paper_Space
340
0
70
0
0
BLOCK_RECORD
5
23
100
AcDbSymbolTableRecord
100
AcDbBlockTableRecord
2
*Paper_Space0
340
0
70
0
0
BLOCK_RECORD
5
EB
100
AcDbSymbolTableRecord
100
AcDbBlockTableRecord
2
*D1
340
0
70
0
0
BLOCK_RECORD
5
F7
100
AcDbSymbolTableRecord
100
AcDbBlockTableRecord
2
_U0
340
0
70
0
0
BLOCK_RECORD
5
103
100
AcDbSymbolTableRecord
100
AcDbBlockTableRecord
2
*D3
340
0
70
0
0
BLOCK_RECORD
5
110
100
AcDbSymbolTableRecord
100
AcDbBlockTableRecord
2
_U1
340
0
70
0
0
BLOCK_RECORD
5
11C
100
AcDbSymbolTableRecord
100
AcDbBlockTableRecord
2
*D5
340
0
70
0
0
BLOCK_RECORD
5
128
100
AcDbSymbolTableRecord
100
AcDbBlockTableRecord
2
_U2
340
0
70
0
0
BLOCK_RECORD
5
134
100
AcDbSymbolTableRecord
100
AcDbBlockTableRecord
2
*D7
340
0
70
0
0
BLOCK_RECORD
5
141
100
AcDbSymbolTableRecord
100
AcDbBlockTableRecord
2
_U3
340
0
70
0
0
ENDTAB
0
ENDSEC
0
SECTION
2
BLOCKS
0
BLOCK
5
20
100
AcDbEntity
8
0
100
AcDbBlockBegin
2
*Model_Space
70
0
10
0
20
0
30
0
3
*Model_Space
0
ENDBLK
5
21
100
AcDbEntity
8
0
100
AcDbBlockEnd
0
BLOCK
5
1C
100
AcDbEntity
8
0
100
AcDbBlockBegin
2
*Paper_Space
70
0
10
0
20
0
30
0
3
*Paper_Space
0
ENDBLK
5
1D
100
AcDbEntity
8
0
100
AcDbBlockEnd
0
BLOCK
5
24
100
AcDbEntity
8
0
100
AcDbBlockBegin
2
*Paper_Space0
70
0
10
0
20
0
30
0
3
*Paper_Space0
0
ENDBLK
5
25
100
AcDbEntity
8
0
100
AcDbBlockEnd
0
BLOCK
5
EC
100
AcDbEntity
8
0
100
AcDbBlockBegin
2
*D1
70
1
10
0
20
0
30
0
3
*D1
0
LINE
5
EE
100
AcDbEntity
8
0
62
256
6
ByLayer
370
-2
48
1
60
0
100
AcDbLine
10
-20
20
-2.2375
30
0
11
-20
21
-52.944383
31
0
39
0
210
0
220
0
230
1
0
LINE
5
EF
100
AcDbEntity
8
0
62
256
6
ByLayer
370
-2
48
1
60
0
100
AcDbLine
10
10
20
-1.5875
30
0
11
10
21
-52.944383
31
0
39
0
210
0
220
0
230
1
0
LINE
5
F0
100
AcDbEntity
8
0
62
256
6
ByLayer
370
-2
48
1
60
0
100
AcDbLine
10
-16.5
20
-50.944383
30
0
11
6.5
21
-50.944383
31
0
39
0
210
0
220
0
230
1
0
SOLID
5
F1
100
AcDbEntity
8
0
62
256
6
ByLayer
370
-1
48
1
60
0
100
AcDbTrace
10
-16.5
20
-50.36105
30
0
11
-16.5
21
-51.527717
31
0
12
-20
22
-50.944383
32
0
13
-20
23
-50.944383
33
0
39
0
210
0
220
0
230
1
0
SOLID
5
F2
100
AcDbEntity
8
0
62
256
6
ByLayer
370
-1
48
1
60
0
100
AcDbTrace
10
6.5
20
-51.527717
30
0
11
6.5
21
-50.36105
31
0
12
10
22
-50.944383
32
0
13
10
23
-50.944383
33
0
39
0
210
0
220
0
230
1
0
MTEXT
5
F3
100
AcDbEntity
8
0
62
256
6
ByLayer
370
18
48
1
60
0
100
AcDbMText
10
-5
20
-44.944383
30
0
210
0
220
0
230
1
1
\A1;30
40
3
41
0
44
1
50
0
71
5
72
5
7
iso_b_vert
0
POINT
5
F4
100
AcDbEntity
8
Defpoints
62
0
6
ByLayer
370
-1
48
1
60
0
100
AcDbPoint
10
-20
20
-0.65
30
0
39
0
210
0
220
0
230
1
50
360
0
POINT
5
F5
100
AcDbEntity
8
Defpoints
62
0
6
ByLayer
370
-1
48
1
60
0
100
AcDbPoint
10
10
20
0
30
0
39
0
210
0
220
0
230
1
50
360
0
POINT
5
F6
100
AcDbEntity
8
Defpoints
62
0
6
ByLayer
370
-1
48
1
60
0
100
AcDbPoint
10
10
20
-50.944383
30
0
39
0
210
0
220
0
230
1
50
360
0
ENDBLK
5
ED
100
AcDbEntity
8
0
100
AcDbBlockEnd
0
BLOCK
5
FE
100
AcDbEntity
8
0
100
AcDbBlockBegin
2
_U0
70
0
10
0
20
0
30
0
3
_U0
0
MTEXT
5
F8
100
AcDbEntity
8
SK2
62
256
6
ByLayer
370
18
48
1
60
0
100
AcDbMText
10
-9.48237
20
-50.059269
30
0
210
0
220
0
230
1
1
\W0.7468;30.00
40
3
41
0
44
1.084337
50
0
71
7
72
5
7
iso_b_vert
0
LINE
5
F9
100
AcDbEntity
8
SK2
62
256
6
ByLayer
370
13
48
1
60
0
100
AcDbLine
10
-20
20
-2.2375
30
0
11
-20
21
-52.944383
31
0
39
0
210
0
220
0
230
1
0
LINE
5
FA
100
AcDbEntity
8
SK2
62
256
6
ByLayer
370
13
48
1
60
0
100
AcDbLine
10
10
20
-1.5875
30
0
11
10
21
-52.944383
31
0
39
0
210
0
220
0
230
1
0
LINE
5
FB
100
AcDbEntity
8
SK2
62
256
6
ByLayer
370
13
48
1
60
0
100
AcDbLine
10
-20
20
-50.944383
30
0
11
10
21
-50.944383
31
0
39
0
210
0
220
0
230
1
0
SOLID
5
FC
100
AcDbEntity
8
SK2
62
256
6
ByLayer
370
18
48
1
60
0
100
AcDbTrace
10
-20
20
-50.944383
30
0
11
-16.500002
21
-50.4836
31
0
12
-16.499998
22
-51.405167
32
0
13
-16.499998
23
-51.405167
33
0
39
0
210
0
220
0
230
1
0
SOLID
5
FD
100
AcDbEntity
8
SK2
62
256
6
ByLayer
370
18
48
1
60
0
100
AcDbTrace
10
10
20
-50.944383
30
0
11
6.500002
21
-51.405167
31
0
12
6.499998
22
-50.4836
32
0
13
6.499998
23
-50.4836
33
0
39
0
210
0
220
0
230
1
0
ENDBLK
5
FF
100
AcDbEntity
8
0
100
AcDbBlockEnd
0
BLOCK
5
104
100
AcDbEntity
8
0
100
AcDbBlockBegin
2
*D3
70
1
10
0
20
0
30
0
3
*D3
0
LINE
5
106
100
AcDbEntity
8
0
62
256
6
ByLayer
370
-2
48
1
60
0
100
AcDbLine
10
10
20
-1.5875
30
0
11
10
21
-42.944383
31
0
39
0
210
0
220
0
230
1
0
LINE
5
107
100
AcDbEntity
8
0
62
256
6
ByLayer
370
-2
48
1
60
0
100
AcDbLine
10
2
20
-2.2375
30
0
11
2
21
-42.944383
31
0
39
0
210
0
220
0
230
1
0
LINE
5
108
100
AcDbEntity
8
0
62
256
6
ByLayer
370
-2
48
1
60
0
100
AcDbLine
10
13.5
20
-40.944383
30
0
11
17
21
-40.944383
31
0
39
0
210
0
220
0
230
1
0
LINE
5
109
100
AcDbEntity
8
0
62
256
6
ByLayer
370
-2
48
1
60
0
100
AcDbLine
10
-1.5
20
-40.944383
30
0
11
-5
21
-40.944383
31
0
39
0
210
0
220
0
230
1
0
SOLID
5
10A
100
AcDbEntity
8
0
62
256
6
ByLayer
370
-1
48
1
60
0
100
AcDbTrace
10
13.5
20
-40.36105
30
0
11
13.5
21
-41.527717
31
0
12
10
22
-40.944383
32
0
13
10
23
-40.944383
33
0
39
0
210
0
220
0
230
1
0
SOLID
5
10B
100
AcDbEntity
8
0
62
256
6
ByLayer
370
-1
48
1
60
0
100
AcDbTrace
10
-1.5
20
-41.527717
30
0
11
-1.5
21
-40.36105
31
0
12
2
22
-40.944383
32
0
13
2
23
-40.944383
33
0
39
0
210
0
220
0
230
1
0
MTEXT
5
10C
100
AcDbEntity
8
0
62
256
6
ByLayer
370
18
48
1
60
0
100
AcDbMText
10
6
20
-34.944383
30
0
210
0
220
0
230
1
1
\A1;8
40
3
41
0
44
1
50
0
71
5
72
5
7
iso_b_vert
0
POINT
5
10D
100
AcDbEntity
8
Defpoints
62
0
6
ByLayer
370
-1
48
1
60
0
100
AcDbPoint
10
10
20
0
30
0
39
0
210
0
220
0
230
1
50
360
0
POINT
5
10E
100
AcDbEntity
8
Defpoints
62
0
6
ByLayer
370
-1
48
1
60
0
100
AcDbPoint
10
2
20
-0.65
30
0
39
0
210
0
220
0
230
1
50
360
0
POINT
5
10F
100
AcDbEntity
8
Defpoints
62
0
6
ByLayer
370
-1
48
1
60
0
100
AcDbPoint
10
2
20
-40.944383
30
0
39
0
210
0
220
0
230
1
50
360
0
ENDBLK
5
105
100
AcDbEntity
8
0
100
AcDbBlockEnd
0
BLOCK
5
117
100
AcDbEntity
8
0
100
AcDbBlockBegin
2
_U1
70
0
10
0
20
0
30
0
3
_U1
0
MTEXT
5
111
100
AcDbEntity
8
2
62
256
6
ByLayer
370
18
48
1
60
0
100
AcDbMText
10
2.638544
20
-40.059269
30
0
210
0
220
0
230
1
1
\W0.7346;8.00
40
3
41
0
44
1.084337
50
0
71
7
72
5
7
iso_b_vert
0
LINE
5
112
100
AcDbEntity
8
2
62
256
6
ByLayer
370
13
48
1
60
0
100
AcDbLine
10
10
20
-1.5875
30
0
11
10
21
-42.944383
31
0
39
0
210
0
220
0
230
1
0
LINE
5
113
100
AcDbEntity
8
2
62
256
6
ByLayer
370
13
48
1
60
0
100
AcDbLine
10
2
20
-2.2375
30
0
11
2
21
-42.944383
31
0
39
0
210
0
220
0
230
1
0
LINE
5
114
100
AcDbEntity
8
2
62
256
6
ByLayer
370
13
48
1
60
0
100
AcDbLine
10
10
20
-40.944383
30
0
11
2
21
-40.944383
31
0
39
0
210
0
220
0
230
1
0
SOLID
5
115
100
AcDbEntity
8
2
62
256
6
ByLayer
370
18
48
1
60
0
100
AcDbTrace
10
10
20
-40.944383
30
0
11
6.500002
21
-41.405167
31
0
12
6.499998
22
-40.4836
32
0
13
6.499998
23
-40.4836
33
0
39
0
210
0
220
0
230
1
0
SOLID
5
116
100
AcDbEntity
8
2
62
256
6
ByLayer
370
18
48
1
60
0
100
AcDbTrace
10
2
20
-40.944383
30
0
11
5.499998
21
-40.4836
31
0
12
5.500002
22
-41.405167
32
0
13
5.500002
23
-41.405167
33
0
39
0
210
0
220
0
230
1
0
ENDBLK
5
118
100
AcDbEntity
8
0
100
AcDbBlockEnd
0
BLOCK
5
11D
100
AcDbEntity
8
0
100
AcDbBlockBegin
2
*D5
70
1
10
0
20
0
30
0
3
*D5
0
LINE
5
11F
100
AcDbEntity
8
0
62
256
6
ByLayer
370
-2
48
1
60
0
100
AcDbLine
10
-20
20
-2.2375
30
0
11
-20
21
-37.944383
31
0
39
0
210
0
220
0
230
1
0
LINE
5
120
100
AcDbEntity
8
0
62
256
6
ByLayer
370
-2
48
1
60
0
100
AcDbLine
10
0
20
-2.2375
30
0
11
0
21
-37.944383
31
0
39
0
210
0
220
0
230
1
0
LINE
5
121
100
AcDbEntity
8
0
62
256
6
ByLayer
370
-2
48
1
60
0
100
AcDbLine
10
-16.5
20
-35.944383
30
0
11
-3.5
21
-35.944383
31
0
39
0
210
0
220
0
230
1
0
SOLID
5
122
100
AcDbEntity
8
0
62
256
6
ByLayer
370
-1
48
1
60
0
100
AcDbTrace
10
-16.5
20
-35.36105
30
0
11
-16.5
21
-36.527717
31
0
12
-20
22
-35.944383
32
0
13
-20
23
-35.944383
33
0
39
0
210
0
220
0
230
1
0
SOLID
5
123
100
AcDbEntity
8
0
62
256
6
ByLayer
370
-1
48
1
60
0
100
AcDbTrace
10
-3.5
20
-36.527717
30
0
11
-3.5
21
-35.36105
31
0
12
0
22
-35.944383
32
0
13
0
23
-35.944383
33
0
39
0
210
0
220
0
230
1
0
MTEXT
5
124
100
AcDbEntity
8
0
62
256
6
ByLayer
370
18
48
1
60
0
100
AcDbMText
10
-10
20
-29.944383
30
0
210
0
220
0
230
1
1
\A1;20
40
3
41
0
44
1
50
0
71
5
72
5
7
iso_b_vert
0
POINT
5
125
100
AcDbEntity
8
Defpoints
62
0
6
ByLayer
370
-1
48
1
60
0
100
AcDbPoint
10
-20
20
-0.65
30
0
39
0
210
0
220
0
230
1
50
360
0
POINT
5
126
100
AcDbEntity
8
Defpoints
62
0
6
ByLayer
370
-1
48
1
60
0
100
AcDbPoint
10
0
20
-0.65
30
0
39
0
210
0
220
0
230
1
50
360
0
POINT
5
127
100
AcDbEntity
8
Defpoints
62
0
6
ByLayer
370
-1
48
1
60
0
100
AcDbPoint
10
0
20
-35.944383
30
0
39
0
210
0
220
0
230
1
50
360
0
ENDBLK
5
11E
100
AcDbEntity
8
0
100
AcDbBlockEnd
0
BLOCK
5
12F
100
AcDbEntity
8
0
100
AcDbBlockBegin
2
_U2
70
0
10
0
20
0
30
0
3
_U2
0
MTEXT
5
129
100
AcDbEntity
8
SK2
62
256
6
ByLayer
370
18
48
1
60
0
100
AcDbMText
10
-14.48237
20
-35.059269
30
0
210
0
220
0
230
1
1
\W0.7468;20.00
40
3
41
0
44
1.084337
50
0
71
7
72
5
7
iso_b_vert
0
LINE
5
12A
100
AcDbEntity
8
SK2
62
256
6
ByLayer
370
13
48
1
60
0
100
AcDbLine
10
-20
20
-2.2375
30
0
11
-20
21
-37.944383
31
0
39
0
210
0
220
0
230
1
0
LINE
5
12B
100
AcDbEntity
8
SK2
62
256
6
ByLayer
370
13
48
1
60
0
100
AcDbLine
10
0
20
-2.2375
30
0
11
0
21
-37.944383
31
0
39
0
210
0
220
0
230
1
0
LINE
5
12C
100
AcDbEntity
8
SK2
62
256
6
ByLayer
370
13
48
1
60
0
100
AcDbLine
10
-20
20
-35.944383
30
0
11
0
21
-35.944383
31
0
39
0
210
0
220
0
230
1
0
SOLID
5
12D
100
AcDbEntity
8
SK2
62
256
6
ByLayer
370
18
48
1
60
0
100
AcDbTrace
10
-20
20
-35.944383
30
0
11
-16.500002
21
-35.4836
31
0
12
-16.499998
22
-36.405167
32
0
13
-16.499998
23
-36.405167
33
0
39
0
210
0
220
0
230
1
0
SOLID
5
12E
100
AcDbEntity
8
SK2
62
256
6
ByLayer
370
18
48
1
60
0
100
AcDbTrace
10
0
20
-35.944383
30
0
11
-3.499998
21
-36.405167
31
0
12
-3.500002
22
-35.4836
32
0
13
-3.500002
23
-35.4836
33
0
39
0
210
0
220
0
230
1
0
ENDBLK
5
130
100
AcDbEntity
8
0
100
AcDbBlockEnd
0
BLOCK
5
135
100
AcDbEntity
8
0
100
AcDbBlockBegin
2
*D7
70
1
10
0
20
0
30
0
3
*D7
0
LINE
5
137
100
AcDbEntity
8
0
62
256
6
ByLayer
370
-2
48
1
60
0
100
AcDbLine
10
10
20
-1.5875
30
0
11
10
21
-35.944383
31
0
39
0
210
0
220
0
230
1
0
LINE
5
138
100
AcDbEntity
8
0
62
256
6
ByLayer
370
-2
48
1
60
0
100
AcDbLine
10
4
20
-2.2375
30
0
11
4
21
-35.944383
31
0
39
0
210
0
220
0
230
1
0
LINE
5
139
100
AcDbEntity
8
0
62
256
6
ByLayer
370
-2
48
1
60
0
100
AcDbLine
10
13.5
20
-33.944383
30
0
11
17
21
-33.944383
31
0
39
0
210
0
220
0
230
1
0
LINE
5
13A
100
AcDbEntity
8
0
62
256
6
ByLayer
370
-2
48
1
60
0
100
AcDbLine
10
0.5
20
-33.944383
30
0
11
-3
21
-33.944383
31
0
39
0
210
0
220
0
230
1
0
SOLID
5
13B
100
AcDbEntity
8
0
62
256
6
ByLayer
370
-1
48
1
60
0
100
AcDbTrace
10
13.5
20
-33.36105
30
0
11
13.5
21
-34.527717
31
0
12
10
22
-33.944383
32
0
13
10
23
-33.944383
33
0
39
0
210
0
220
0
230
1
0
SOLID
5
13C
100
AcDbEntity
8
0
62
256
6
ByLayer
370
-1
48
1
60
0
100
AcDbTrace
10
0.5
20
-34.527717
30
0
11
0.5
21
-33.36105
31
0
12
4
22
-33.944383
32
0
13
4
23
-33.944383
33
0
39
0
210
0
220
0
230
1
0
MTEXT
5
13D
100
AcDbEntity
8
0
62
256
6
ByLayer
370
18
48
1
60
0
100
AcDbMText
10
7
20
-27.944383
30
0
210
0
220
0
230
1
1
\A1;6
40
3
41
0
44
1
50
0
71
5
72
5
7
iso_b_vert
0
POINT
5
13E
100
AcDbEntity
8
Defpoints
62
0
6
ByLayer
370
-1
48
1
60
0
100
AcDbPoint
10
10
20
0
30
0
39
0
210
0
220
0
230
1
50
360
0
POINT
5
13F
100
AcDbEntity
8
Defpoints
62
0
6
ByLayer
370
-1
48
1
60
0
100
AcDbPoint
10
4
20
-0.65
30
0
39
0
210
0
220
0
230
1
50
360
0
POINT
5
140
100
AcDbEntity
8
Defpoints
62
0
6
ByLayer
370
-1
48
1
60
0
100
AcDbPoint
10
4
20
-33.944383
30
0
39
0
210
0
220
0
230
1
50
360
0
ENDBLK
5
136
100
AcDbEntity
8
0
100
AcDbBlockEnd
0
BLOCK
5
148
100
AcDbEntity
8
0
100
AcDbBlockBegin
2
_U3
70
0
10
0
20
0
30
0
3
_U3
0
MTEXT
5
142
100
AcDbEntity
8
2
62
256
6
ByLayer
370
18
48
1
60
0
100
AcDbMText
10
3.638544
20
-33.059269
30
0
210
0
220
0
230
1
1
\W0.7346;6.00
40
3
41
0
44
1.084337
50
0
71
7
72
5
7
iso_b_vert
0
LINE
5
143
100
AcDbEntity
8
2
62
256
6
ByLayer
370
13
48
1
60
0
100
AcDbLine
10
10
20
-1.5875
30
0
11
10
21
-35.944383
31
0
39
0
210
0
220
0
230
1
0
LINE
5
144
100
AcDbEntity
8
2
62
256
6
ByLayer
370
13
48
1
60
0
100
AcDbLine
10
4
20
-2.2375
30
0
11
4
21
-35.944383
31
0
39
0
210
0
220
0
230
1
0
LINE
5
145
100
AcDbEntity
8
2
62
256
6
ByLayer
370
13
48
1
60
0
100
AcDbLine
10
17.5
20
-33.944383
30
0
11
-3.5
21
-33.944383
31
0
39
0
210
0
220
0
230
1
0
SOLID
5
146
100
AcDbEntity
8
2
62
256
6
ByLayer
370
18
48
1
60
0
100
AcDbTrace
10
10
20
-33.944383
30
0
11
13.499998
21
-33.4836
31
0
12
13.500002
22
-34.405167
32
0
13
13.500002
23
-34.405167
33
0
39
0
210
0
220
0
230
1
0
SOLID
5
147
100
AcDbEntity
8
2
62
256
6
ByLayer
370
18
48
1
60
0
100
AcDbTrace
10
4
20
-33.944383
30
0
11
0.500002
21
-34.405167
31
0
12
0.499998
22
-33.4836
32
0
13
0.499998
23
-33.4836
33
0
39
0
210
0
220
0
230
1
0
ENDBLK
5
149
100
AcDbEntity
8
0
100
AcDbBlockEnd
0
ENDSEC
0
SECTION
2
ENTITIES
0
ARC
5
B5
100
AcDbEntity
8
2
62
256
6
ByLayer
370
13
48
1
60
0
100
AcDbCircle
39
0
10
10
20
0
30
0
40
22
210
0
220
0
230
1
100
AcDbArc
50
7.83748
51
61.596605
0
ARC
5
B6
100
AcDbEntity
8
2
62
256
6
ByLayer
370
13
48
1
60
0
100
AcDbCircle
39
0
10
10
20
0
30
0
40
22
210
0
220
0
230
1
100
AcDbArc
50
298.403395
51
352.16252
0
POINT
5
70
100
AcDbEntity
8
81
62
256
6
ByLayer
370
18
48
1
60
0
100
AcDbPoint
10
10
20
0
30
0
39
0
210
0
220
0
230
1
50
360
0
POINT
5
72
100
AcDbEntity
8
80
62
256
6
ByLayer
370
18
48
1
60
0
100
AcDbPoint
10
0
20
0
30
0
39
0
210
0
220
0
230
1
50
360
0
POINT
5
74
100
AcDbEntity
8
1
62
256
6
ByLayer
370
18
48
1
60
1
100
AcDbPoint
10
-20
20
-0.65
30
0
39
0
210
0
220
0
230
1
50
360
0
POINT
5
76
100
AcDbEntity
8
1
62
256
6
ByLayer
370
18
48
1
60
1
100
AcDbPoint
10
10
20
0
30
0
39
0
210
0
220
0
230
1
50
360
0
POINT
5
77
100
AcDbEntity
8
1
62
256
6
ByLayer
370
18
48
1
60
1
100
AcDbPoint
10
10
20
0
30
0
39
0
210
0
220
0
230
1
50
360
0
POINT
5
78
100
AcDbEntity
8
1
62
256
6
ByLayer
370
18
48
1
60
1
100
AcDbPoint
10
2
20
-0.65
30
0
39
0
210
0
220
0
230
1
50
360
0
POINT
5
79
100
AcDbEntity
8
1
62
256
6
ByLayer
370
18
48
1
60
1
100
AcDbPoint
10
-20
20
-0.65
30
0
39
0
210
0
220
0
230
1
50
360
0
POINT
5
7A
100
AcDbEntity
8
1
62
256
6
ByLayer
370
18
48
1
60
1
100
AcDbPoint
10
0
20
-0.65
30
0
39
0
210
0
220
0
230
1
50
360
0
POINT
5
7B
100
AcDbEntity
8
1
62
256
6
ByLayer
370
18
48
1
60
1
100
AcDbPoint
10
10
20
0
30
0
39
0
210
0
220
0
230
1
50
360
0
POINT
5
7C
100
AcDbEntity
8
1
62
256
6
ByLayer
370
18
48
1
60
1
100
AcDbPoint
10
4
20
-0.65
30
0
39
0
210
0
220
0
230
1
50
360
0
SPLINE
5
B7
100
AcDbEntity
8
CUT
62
256
6
ByLayer
370
18
48
1
60
0
100
AcDbSpline
70
2053
71
3
72
17
73
13
40
0
40
0
40
0
40
0
40
0.460287404678004
40
0.460287404678004
40
0.460287404678004
40
0.509989377772346
40
0.509989377772346
40
0.509989377772346
40
0.943311376862815
40
0.943311376862815
40
0.943311376862815
40
1
40
1
40
1
40
1
41
1
10
10
20
0
30
0
41
1
10
8
20
0
30
0
41
1
10
6
20
0
30
0
41
1
10
4
20
0
30
0
41
1
10
4
20
0.215960604589696
30
0
41
1
10
4
20
0.431921209179421
30
0
41
1
10
4.00000000000006
20
0.647881813769118
30
0
41
1
10
5.88283217929498
20
0.648587875836313
30
0
41
1
10
7.76566435858985
20
0.649293937903508
30
0
41
1
10
9.64849653788471
20
0.649999999970703
30
0
41
1
10
9.76566435858982
20
0.433333333313811
30
0
41
1
10
9.88283217929492
20
0.216666666656891
30
0
41
1
10
10
20
0
30
0
0
SPLINE
5
B9
100
AcDbEntity
8
NOCUT
62
256
6
ByLayer
370
18
48
1
60
0
100
AcDbSpline
70
2053
71
3
72
26
73
22
40
0
40
0
40
0
40
0
40
0.487414871554276
40
0.487414871554276
40
0.487414871554276
40
0.500572672846232
40
0.500572672846232
40
0.500572672846232
40
0.579777595042516
40
0.579777595042516
40
0.579777595042516
40
0.58180979186022
40
0.58180979186022
40
0.58180979186022
40
0.98595795618861
40
0.98595795618861
40
0.98595795618861
40
0.988830075862245
40
0.988830075862245
40
0.988830075862245
40
1
40
1
40
1
40
1
41
1
10
-20
20
0
30
0
41
1
10
-12
20
0
30
0
41
1
10
-4
20
0
30
0
41
1
10
4
20
0
30
0
41
1
10
4
20
0.215960604589696
30
0
41
1
10
4
20
0.431921209179421
30
0
41
1
10
4
20
0.647881813769118
30
0
41
1
10
2.70000000000002
20
0.647394313769155
30
0
41
1
10
1.40000000000006
20
0.646906813769192
30
0
41
1
10
0.10000000000548
20
0.64641931376903
30
0
41
1
10
0.0666666666739104
20
0.64761287584588
30
0
41
1
10
0.033333333336941
20
0.648806437922957
30
0
41
1
10
0
20
0.650000000000006
30
0
41
1
10
-6.63333333333333
20
0.650000000000006
30
0
41
1
10
-13.2666666666666
20
0.650000000000006
30
0
41
1
10
-19.9
20
0.650000000000006
30
0
41
1
10
-19.9333333333333
20
0.616666666666674
30
0
41
1
10
-19.9666666666667
20
0.583333333333343
30
0
41
1
10
-20
20
0.550000000000011
30
0
41
1
10
-20
20
0.366666666666674
30
0
41
1
10
-20
20
0.183333333333337
30
0
41
1
10
-20
20
0
30
0
0
SPLINE
5
BB
100
AcDbEntity
8
1
62
256
6
ByLayer
370
18
48
1
60
0
100
AcDbSpline
70
4
71
3
72
48
73
44
40
0
40
0
40
0
40
0
40
0.12500000000001
40
0.12500000000001
40
0.25000000000002
40
0.25000000000002
40
0.312500000000025
40
0.312500000000025
40
0.37500000000003
40
0.37500000000003
40
0.437500000000035
40
0.437500000000035
40
0.468750000000039
40
0.468750000000039
40
0.484375000000041
40
0.484375000000041
40
0.492187500000041
40
0.492187500000041
40
0.500000000000041
40
0.500000000000041
40
0.507812500000041
40
0.507812500000041
40
0.51562500000004
40
0.51562500000004
40
0.531250000000039
40
0.531250000000039
40
0.562500000000038
40
0.562500000000038
40
0.593750000000037
40
0.593750000000037
40
0.625000000000035
40
0.625000000000035
40
0.687500000000033
40
0.687500000000033
40
0.71875000000003
40
0.71875000000003
40
0.750000000000027
40
0.750000000000027
40
0.812500000000021
40
0.812500000000021
40
0.875000000000015
40
0.875000000000015
40
1
40
1
40
1
40
1
41
1
10
9.64849653788471
20
0.629492178764338
30
0
41
1
10
9.67533422861206
20
0.57996940153825
30
0
41
1
10
9.70200997001365
20
0.530191131818668
30
0
41
1
10
9.75487493961703
20
0.430189009738171
30
0
41
1
10
9.78109605311153
20
0.379969666100891
30
0
41
1
10
9.81949675110573
20
0.304138033068767
30
0
41
1
10
9.83212599230882
20
0.278767764533654
30
0
41
1
10
9.85720143650684
20
0.228019442279759
30
0
41
1
10
9.8696578331255
20
0.202664520170686
30
0
41
1
10
9.89407632280535
20
0.151974639247271
30
0
41
1
10
9.90608276435717
20
0.126609353799665
30
0
41
1
10
9.92294334223081
20
0.0883604060122423
30
0
41
1
10
9.92839521046528
20
0.0755895475233217
30
0
41
1
10
9.93590563796917
20
0.0562556205619842
30
0
41
1
10
9.93833352503185
20
0.049764586246198
30
0
41
1
10
9.94122189310337
20
0.0396465401311161
30
0
41
1
10
9.9420369982688
20
0.0362349284359027
30
0
41
1
10
9.94320670778043
20
0.0292892890377914
30
0
41
1
10
9.94355969795961
20
0.0257020179655854
30
0
41
1
10
9.94369469578461
20
0.0187671024088445
30
0
41
1
10
9.94348807154037
20
0.0153971684368912
30
0
41
1
10
9.94263203969933
20
0.0088055277956869
30
0
41
1
10
9.94198329659471
20
0.0055802288041207
30
0
41
1
10
9.93970350880548
20
-0.0037609574771125
30
0
41
1
10
9.93776811694772
20
-0.0097202867134172
30
0
41
1
10
9.93142885451672
20
-0.0274480918543816
30
0
41
1
10
9.92638089786442
20
-0.0389641214951553
30
0
41
1
10
9.91553270377796
20
-0.0613226693421893
30
0
41
1
10
9.90973709890275
20
-0.0721408572891846
30
0
41
1
10
9.89777746257161
20
-0.0932078438459598
30
0
41
1
10
9.8916080452521
20
-0.103455598870681
30
0
41
1
10
9.87279109397028
20
-0.133472382035308
30
0
41
1
10
9.85984758196045
20
-0.152524918323508
30
0
41
1
10
9.84019542444344
20
-0.179850723208546
30
0
41
1
10
9.83359972365616
20
-0.18874710050477
30
0
41
1
10
9.8203379280755
20
-0.206121250799157
30
0
41
1
10
9.81366212017775
20
-0.214610091116214
30
0
41
1
10
9.79366555767845
20
-0.239295705403805
30
0
41
1
10
9.78034766682575
20
-0.254754904072513
30
0
41
1
10
9.75374011718074
20
-0.283722189743827
30
0
41
1
10
9.7404247560836
20
-0.297252990526857
30
0
41
1
10
9.70063017530913
20
-0.334782496295503
30
0
41
1
10
9.67448755155885
20
-0.355590919317962
30
0
41
1
10
9.64849653788474
20
-0.372352632803114
30
0
0
SPLINE
5
BC
100
AcDbEntity
8
1
62
256
6
ByLayer
370
18
48
1
60
0
100
AcDbSpline
70
4
71
3
72
60
73
56
40
0
40
0
40
0
40
0
40
0.0682011985936826
40
0.0682011985936826
40
0.136402397187365
40
0.136402397187365
40
0.204603595781048
40
0.204603595781048
40
0.238704195077889
40
0.238704195077889
40
0.27280479437473
40
0.27280479437473
40
0.306905393671571
40
0.306905393671571
40
0.341005992968413
40
0.341005992968413
40
0.375106592265254
40
0.375106592265254
40
0.409207191562095
40
0.409207191562095
40
0.443307790858937
40
0.443307790858937
40
0.477408390155778
40
0.477408390155778
40
0.511508989452619
40
0.511508989452619
40
0.545609588749461
40
0.545609588749461
40
0.579710188046302
40
0.579710188046302
40
0.613810787343143
40
0.613810787343143
40
0.647911386639984
40
0.647911386639984
40
0.682011985936826
40
0.682011985936826
40
0.716112585233667
40
0.716112585233667
40
0.750213184530508
40
0.750213184530508
40
0.78431378382735
40
0.78431378382735
40
0.818414383124191
40
0.818414383124191
40
0.852514982421032
40
0.852514982421032
40
0.886615581717873
40
0.886615581717873
40
0.920716181014715
40
0.920716181014715
40
0.954816780311556
40
0.954816780311556
40
0.988917379608397
40
0.988917379608397
40
1
40
1
40
1
40
1
41
1
10
9.64849653788471
20
-0.372352632803114
30
0
41
1
10
9.58981627824772
20
-0.345731904873361
30
0
41
1
10
9.53149760880814
20
-0.317865488705934
30
0
41
1
10
9.41527617063952
20
-0.260179556533984
30
0
41
1
10
9.35745143155071
20
-0.230224148914346
30
0
41
1
10
9.24169972211985
20
-0.169267618962778
30
0
41
1
10
9.18387426655718
20
-0.138093110665551
30
0
41
1
10
9.09701649497578
20
-0.0906323017880197
30
0
41
1
10
9.06804439827067
20
-0.0746948392306592
30
0
41
1
10
9.01005221224673
20
-0.0425975725300702
30
0
41
1
10
8.98102143390159
20
-0.0264569834451436
30
0
41
1
10
8.92277079957833
20
0.0057836423008837
30
0
41
1
10
8.89356439787409
20
0.0219082163310134
30
0
41
1
10
8.83502807473249
20
0.0542444119251684
30
0
41
1
10
8.80566257713861
20
0.0704510446075517
30
0
41
1
10
8.74718747129992
20
0.102536527628018
30
0
41
1
10
8.71802816691044
20
0.118457804275522
30
0
41
1
10
8.65986536610876
20
0.150059748420944
30
0
41
1
10
8.63085512618855
20
0.165726595930494
30
0
41
1
10
8.57284718171402
20
0.19656444454867
30
0
41
1
10
8.54385795314457
20
0.211752411509735
30
0
41
1
10
8.48595717223122
20
0.241755820843878
30
0
41
1
10
8.45703916135074
20
0.256558903224999
30
0
41
1
10
8.39919822126004
20
0.285649235380134
30
0
41
1
10
8.3702784958262
20
0.299942597668945
30
0
41
1
10
8.3124472219036
20
0.328032961884276
30
0
41
1
10
8.28353435929785
20
0.341826460730601
30
0
41
1
10
8.22558036640191
20
0.368697127896382
30
0
41
1
10
8.19653934890147
20
0.381776311502733
30
0
41
1
10
8.13838063039802
20
0.407299110296975
30
0
41
1
10
8.1092624107452
20
0.419740687383069
30
0
41
1
10
8.05087367117085
20
0.443866383433431
30
0
41
1
10
8.02157007379816
20
0.455564703005081
30
0
41
1
10
7.96296281723374
20
0.478144091408552
30
0
41
1
10
7.93376736727507
20
0.488988191500766
30
0
41
1
10
7.87546021019563
20
0.509634026989858
30
0
41
1
10
7.84634153281527
20
0.51943129669624
30
0
41
1
10
7.78822176643138
20
0.538051643288725
30
0
41
1
10
7.75922493191285
20
0.546876697123622
30
0
41
1
10
7.70128454235117
20
0.563486105227554
30
0
41
1
10
7.67233875509743
20
0.57126995181082
30
0
41
1
10
7.61450131867934
20
0.585801425014438
30
0
41
1
10
7.58561738955831
20
0.592552851864639
30
0
41
1
10
7.52779591372956
20
0.604930692819948
30
0
41
1
10
7.49884513630738
20
0.610551006905894
30
0
41
1
10
7.44090147660776
20
0.620686350370846
30
0
41
1
10
7.41191830607121
20
0.625204959023392
30
0
41
1
10
7.35386381573366
20
0.633096717859758
30
0
41
1
10
7.32478711475315
20
0.636468770501637
30
0
41
1
10
7.26653337406353
20
0.642049778695736
30
0
41
1
10
7.23736687063672
20
0.644259789451013
30
0
41
1
10
7.17884306732307
20
0.647468318051608
30
0
41
1
10
7.14946206227043
20
0.648463552966518
30
0
41
1
10
7.11070895423808
20
0.648979091641138
30
0
41
1
10
7.10121281051508
20
0.649041829329889
30
0
41
1
10
7.09172498004585
20
0.64904104890752
30
0
0
SPLINE
5
BD
100
AcDbEntity
8
1
62
256
6
ByLayer
370
18
48
1
60
0
100
AcDbSpline
70
4
71
3
72
14
73
10
40
0
40
0
40
0
40
0
40
0.243569894393175
40
0.243569894393175
40
0.43267742079488
40
0.43267742079488
40
0.621784947196587
40
0.621784947196587
40
1
40
1
40
1
40
1
41
1
10
4.52892420741816
20
-0.37344300851143
30
0
41
1
10
4.49136582372685
20
-0.39038367306037
30
0
41
1
10
4.45386646555994
20
-0.406736954710993
30
0
41
1
10
4.38730704059981
20
-0.434670832057066
30
0
41
1
10
4.35823978076104
20
-0.446505976777217
30
0
41
1
10
4.30003022197999
20
-0.469267252131658
30
0
41
1
10
4.27089065271039
20
-0.480198790649126
30
0
41
1
10
4.18336745231721
20
-0.511652388605881
30
0
41
1
10
4.12485885905059
20
-0.53082191644603
30
0
41
1
10
4.06627709304726
20
-0.548207691709393
30
0
0
SPLINE
5
BE
100
AcDbEntity
8
1
62
256
6
ByLayer
370
18
48
1
60
0
100
AcDbSpline
70
4
71
3
72
42
73
38
40
0
40
0
40
0
40
0
40
0.108754754017867
40
0.108754754017867
40
0.1631321310268
40
0.1631321310268
40
0.217509508035733
40
0.217509508035733
40
0.271886885044667
40
0.271886885044667
40
0.3262642620536
40
0.3262642620536
40
0.380641639062533
40
0.380641639062533
40
0.435019016071466
40
0.435019016071466
40
0.4893963930804
40
0.4893963930804
40
0.543773770089333
40
0.543773770089333
40
0.598151147098266
40
0.598151147098266
40
0.6525285241072
40
0.6525285241072
40
0.706905901116133
40
0.706905901116133
40
0.761283278125066
40
0.761283278125066
40
0.815660655133999
40
0.815660655133999
40
0.870038032142933
40
0.870038032142933
40
0.924415409151866
40
0.924415409151866
40
0.978792786160799
40
0.978792786160799
40
1
40
1
40
1
40
1
41
1
10
4.06627709304726
20
-0.131063731623186
30
0
41
1
10
4.12472892683314
20
-0.16330307092889
30
0
41
1
10
4.18323219674568
20
-0.194070198260164
30
0
41
1
10
4.27059556922916
20
-0.239052551955922
30
0
41
1
10
4.29964789599347
20
-0.253852649041249
30
0
41
1
10
4.35759697493205
20
-0.283086519148242
30
0
41
1
10
4.38648875147089
20
-0.297526511448012
30
0
41
1
10
4.44427131515297
20
-0.32577447895693
30
0
41
1
10
4.47316508711879
20
-0.339578242817112
30
0
41
1
10
4.53107206217322
20
-0.366379447637399
30
0
41
1
10
4.56009496601135
20
-0.37936466404858
30
0
41
1
10
4.61815865392532
20
-0.404695867478779
30
0
41
1
10
4.64719261806061
20
-0.417050701201987
30
0
41
1
10
4.70525022136451
20
-0.441140484374301
30
0
41
1
10
4.73426422544139
20
-0.452886821023668
30
0
41
1
10
4.7924216188039
20
-0.475545898125574
30
0
41
1
10
4.82157088962566
20
-0.48645118424912
30
0
41
1
10
4.88013355286216
20
-0.50725919150841
30
0
41
1
10
4.90957644405177
20
-0.517150538318646
30
0
41
1
10
4.96818781302102
20
-0.535891277073944
30
0
41
1
10
4.99740237120432
20
-0.544772894748405
30
0
41
1
10
5.05562538847593
20
-0.561573959906241
30
0
41
1
10
5.08462309035988
20
-0.569500273953565
30
0
41
1
10
5.14253251144882
20
-0.584261011826527
30
0
41
1
10
5.17145225513275
20
-0.591089015726681
30
0
41
1
10
5.22934960806006
20
-0.603567781921157
30
0
41
1
10
5.25834315927583
20
-0.609211617731177
30
0
41
1
10
5.31633740670154
20
-0.619392057984413
30
0
41
1
10
5.34532268732343
20
-0.623936740190601
30
0
41
1
10
5.40323415146344
20
-0.631930246189626
30
0
41
1
10
5.43215053748153
20
-0.635380212673425
30
0
41
1
10
5.49002659122118
20
-0.641104761455637
30
0
41
1
10
5.51899723857466
20
-0.643375340446852
30
0
41
1
10
5.57713859753571
20
-0.64670468256827
30
0
41
1
10
5.60632439853555
20
-0.64776473607796
30
0
41
1
10
5.64701649245575
20
-0.648414645430648
30
0
41
1
10
5.65845163743035
20
-0.648506828788868
30
0
41
1
10
5.66989366159757
20
-0.648507916371301
30
0
0
SPLINE
5
BF
100
AcDbEntity
8
1
62
256
6
ByLayer
370
18
48
1
60
0
100
AcDbSpline
70
4
71
3
72
28
73
24
40
0
40
0
40
0
40
0
40
0.0240334683830664
40
0.0240334683830664
40
0.146029284835183
40
0.146029284835183
40
0.207027193061244
40
0.207027193061244
40
0.268025101287305
40
0.268025101287305
40
0.390020917739427
40
0.390020917739427
40
0.51201673419155
40
0.51201673419155
40
0.573014642417608
40
0.573014642417608
40
0.634012550643666
40
0.634012550643666
40
0.756008367095778
40
0.756008367095778
40
0.878004183547889
40
0.878004183547889
40
1
40
1
40
1
40
1
41
1
10
8.21753412571405
20
0.367915877118975
30
0
41
1
10
8.22907681496477
20
0.373174132858964
30
0
41
1
10
8.24060381903161
20
0.378384695046463
30
0
41
1
10
8.31047732456381
20
0.409724417242302
30
0
41
1
10
8.36836497088726
20
0.434598612141684
30
0
41
1
10
8.45535641955777
20
0.468771746391752
30
0
41
1
10
8.48438130595298
20
0.479649644943294
30
0
41
1
10
8.5423625697583
20
0.500556887367765
30
0
41
1
10
8.57131363838863
20
0.510590640074639
30
0
41
1
10
8.65802620943799
20
0.539426345890348
30
0
41
1
10
8.71562561166809
20
0.556950203853688
30
0
41
1
10
8.83158663346197
20
0.587408907843297
30
0
41
1
10
8.88994500785037
20
0.600414612252422
30
0
41
1
10
8.97757315645734
20
0.616882296168455
30
0
41
1
10
9.0068529881068
20
0.621858555781927
30
0
41
1
10
9.06531682188478
20
0.630601631284861
30
0
41
1
10
9.09448909623129
20
0.634364224272616
30
0
41
1
10
9.18202550392425
20
0.643796849901577
30
0
41
1
10
9.24046056012702
20
0.647646447959545
30
0
41
1
10
9.35681678472619
20
0.650685523247546
30
0
41
1
10
9.41472697977659
20
0.649791856606782
30
0
41
1
10
9.53119616476803
20
0.643182551578377
30
0
41
1
10
9.58981648943904
20
0.637563327488351
30
0
41
1
10
9.64849653788471
20
0.629492178764338
30
0
0
SPLINE
5
C0
100
AcDbEntity
8
1
62
256
6
ByLayer
370
18
48
1
60
0
100
AcDbSpline
70
4
71
3
72
78
73
74
40
0
40
0
40
0
40
0
40
0.0121070405966576
40
0.0121070405966576
40
0.0331260397328978
40
0.0331260397328978
40
0.054145038869138
40
0.054145038869138
40
0.0751640380053782
40
0.0751640380053782
40
0.0961830371416184
40
0.0961830371416184
40
0.117202036277859
40
0.117202036277859
40
0.138221035414099
40
0.138221035414099
40
0.159240034550339
40
0.159240034550339
40
0.180259033686579
40
0.180259033686579
40
0.20127803282282
40
0.20127803282282
40
0.22229703195906
40
0.22229703195906
40
0.2433160310953
40
0.2433160310953
40
0.26433503023154
40
0.26433503023154
40
0.28535402936778
40
0.28535402936778
40
0.327392027640263
40
0.327392027640263
40
0.369430025912745
40
0.369430025912745
40
0.411468024185227
40
0.411468024185227
40
0.432487023321469
40
0.432487023321469
40
0.45350602245771
40
0.45350602245771
40
0.495544020730194
40
0.495544020730194
40
0.537582019002678
40
0.537582019002678
40
0.579620017275162
40
0.579620017275162
40
0.600639016411404
40
0.600639016411404
40
0.621658015547646
40
0.621658015547646
40
0.642677014683889
40
0.642677014683889
40
0.663696013820131
40
0.663696013820131
40
0.684715012956373
40
0.684715012956373
40
0.705734012092615
40
0.705734012092615
40
0.747772010365099
40
0.747772010365099
40
0.831848006910069
40
0.831848006910069
40
0.852867006046312
40
0.852867006046312
40
0.873886005182554
40
0.873886005182554
40
0.915924003455038
40
0.915924003455038
40
0.936943002591278
40
0.936943002591278
40
0.957962001727519
40
0.957962001727519
40
1
40
1
40
1
40
1
41
1
10
8.21766645468057
20
-0.372162199310026
30
0
41
1
10
8.20094695908648
20
-0.379731026030669
30
0
41
1
10
8.18420983490657
20
-0.387187085897693
30
0
41
1
10
8.13838063039802
20
-0.407299110296975
30
0
41
1
10
8.1092624107452
20
-0.41974068738304
30
0
41
1
10
8.05087367117085
20
-0.443866383433431
30
0
41
1
10
8.02157007379819
20
-0.455564703005081
30
0
41
1
10
7.96296281723377
20
-0.478144091408552
30
0
41
1
10
7.93376736727504
20
-0.488988191500766
30
0
41
1
10
7.87546021019563
20
-0.509634026989858
30
0
41
1
10
7.84634153281527
20
-0.51943129669624
30
0
41
1
10
7.78822176643141
20
-0.538051643288725
30
0
41
1
10
7.75922493191285
20
-0.546876697123622
30
0
41
1
10
7.70128454235117
20
-0.563486105227554
30
0
41
1
10
7.67233875509743
20
-0.57126995181082
30
0
41
1
10
7.61450131867934
20
-0.585801425014438
30
0
41
1
10
7.58561738955831
20
-0.592552851864639
30
0
41
1
10
7.52779591372956
20
-0.604930692819948
30
0
41
1
10
7.49884513630738
20
-0.610551006905894
30
0
41
1
10
7.44090147660776
20
-0.620686350370846
30
0
41
1
10
7.41191830607121
20
-0.625204959023392
30
0
41
1
10
7.35386381573363
20
-0.633096717859758
30
0
41
1
10
7.32478711475315
20
-0.636468770501637
30
0
41
1
10
7.26653337406356
20
-0.642049778695736
30
0
41
1
10
7.23736687063672
20
-0.644259789451013
30
0
41
1
10
7.17884306732304
20
-0.647468318051608
30
0
41
1
10
7.14946206227043
20
-0.648463552966518
30
0
41
1
10
7.0909667085692
20
-0.649241725831843
30
0
41
1
10
7.06180696150221
20
-0.649027589462975
30
0
41
1
10
6.97450637031741
20
-0.646592679743492
30
0
41
1
10
6.91654615148309
20
-0.642582052253488
30
0
41
1
10
6.80083732894443
20
-0.629890296993153
30
0
41
1
10
6.74295741681735
20
-0.621270541893864
30
0
41
1
10
6.62718827688835
20
-0.599499149306411
30
0
41
1
10
6.56923922126711
20
-0.586373919260012
30
0
41
1
10
6.48205361305591
20
-0.563376085716811
30
0
41
1
10
6.45291694969336
20
-0.555185727662916
30
0
41
1
10
6.39446741284507
20
-0.537781731135965
30
0
41
1
10
6.36512676679016
20
-0.528532282874437
30
0
41
1
10
6.27719341199327
20
-0.499307361952418
30
0
41
1
10
6.21890859990381
20
-0.4780019362573
30
0
41
1
10
6.10281177180809
20
-0.43205410456153
30
0
41
1
10
6.04484936728471
20
-0.407618557702222
30
0
41
1
10
5.92910801170672
20
-0.355862573767354
30
0
41
1
10
5.87126938095949
20
-0.328626687583835
30
0
41
1
10
5.7844364238162
20
-0.285906347788142
30
0
41
1
10
5.75545799228908
20
-0.271389402240544
30
0
41
1
10
5.69735711455326
20
-0.241932608379244
30
0
41
1
10
5.66825438646839
20
-0.226959930323545
30
0
41
1
10
5.60995397898947
20
-0.196499377562731
30
0
41
1
10
5.58074295933628
20
-0.181034791604873
30
0
41
1
10
5.52215181452121
20
-0.149713693518351
30
0
41
1
10
5.49279668896003
20
-0.133844931695506
30
0
41
1
10
5.43438205109734
20
-0.101978353027135
30
0
41
1
10
5.40524870551394
20
-0.0859790036994923
30
0
41
1
10
5.3470326305164
20
-0.0540286810301325
30
0
41
1
10
5.31796788091245
20
-0.0380435202350213
30
0
41
1
10
5.23093778946179
20
0.0100079173167842
30
0
41
1
10
5.17305702228438
20
0.0420216435429666
30
0
41
1
10
4.99959516731107
20
0.137561353476571
30
0
41
1
10
4.88373917850242
20
0.199756830670481
30
0
41
1
10
4.73772109557629
20
0.273913002513836
30
0
41
1
10
4.70840817140814
20
0.288582958520664
30
0
41
1
10
4.64976793634736
20
0.317210772433299
30
0
41
1
10
4.6204875215324
20
0.331169869834269
30
0
41
1
10
4.53283438865216
20
0.37211152729725
30
0
41
1
10
4.47457913482975
20
0.398044193869964
30
0
41
1
10
4.38730704059981
20
0.434670832057066
30
0
41
1
10
4.35823978076101
20
0.446505976777217
30
0
41
1
10
4.30003022197999
20
0.469267252131658
30
0
41
1
10
4.27089065271039
20
0.480198790649126
30
0
41
1
10
4.18336745231724
20
0.511652388605881
30
0
41
1
10
4.12485885905059
20
0.53082191644603
30
0
41
1
10
4.06627709304726
20
0.548207691709393
30
0
0
SPLINE
5
C1
100
AcDbEntity
8
1
62
256
6
ByLayer
370
18
48
1
60
0
100
AcDbSpline
70
4
71
3
72
14
73
10
40
0
40
0
40
0
40
0
40
0.52641951267511
40
0.52641951267511
40
0.789629269012669
40
0.789629269012669
40
0.921234147181448
40
0.921234147181448
40
1
40
1
40
1
40
1
41
1
10
4.06627709304766
20
0.548207691709337
30
0
41
1
10
3.8771650723711
20
0.575837542737276
30
0
41
1
10
3.69049860442357
20
0.601504936628203
30
0
41
1
10
3.41322990418414
20
0.629125474788225
30
0
41
1
10
3.32125616060264
20
0.636514187483016
30
0
41
1
10
3.18381359670059
20
0.643743049942913
30
0
41
1
10
3.13811194465166
20
0.645505103034566
30
0
41
1
10
3.06556047816608
20
0.647119988754866
30
0
41
1
10
3.03848872420014
20
0.647456678995724
30
0
41
1
10
3.0115097226448
20
0.647503096541982
30
0
0
SPLINE
5
C2
100
AcDbEntity
8
1
62
256
6
ByLayer
370
18
48
1
60
0
100
AcDbSpline
70
4
71
3
72
104
73
100
40
0
40
0
40
0
40
0
40
0.0126518558638506
40
0.0126518558638506
40
0.0307258860629221
40
0.0307258860629221
40
0.0487999162619935
40
0.0487999162619935
40
0.0668739464610649
40
0.0668739464610649
40
0.0849479766601364
40
0.0849479766601364
40
0.103022006859208
40
0.103022006859208
40
0.121096037058279
40
0.121096037058279
40
0.139170067257351
40
0.139170067257351
40
0.157244097456422
40
0.157244097456422
40
0.175318127655494
40
0.175318127655494
40
0.193392157854565
40
0.193392157854565
40
0.211466188053637
40
0.211466188053637
40
0.229540218252708
40
0.229540218252708
40
0.247614248451779
40
0.247614248451779
40
0.265688278650851
40
0.265688278650851
40
0.283762308849922
40
0.283762308849922
40
0.301836339048994
40
0.301836339048994
40
0.319910369248065
40
0.319910369248065
40
0.337984399447137
40
0.337984399447137
40
0.356058429646208
40
0.356058429646208
40
0.374132459845279
40
0.374132459845279
40
0.392206490044351
40
0.392206490044351
40
0.410280520243422
40
0.410280520243422
40
0.428354550442494
40
0.428354550442494
40
0.446428580641565
40
0.446428580641565
40
0.464502610840637
40
0.464502610840637
40
0.482576641039708
40
0.482576641039708
40
0.518724701437851
40
0.518724701437851
40
0.536798731636922
40
0.536798731636922
40
0.554872761835992
40
0.554872761835992
40
0.572946792035063
40
0.572946792035063
40
0.591020822234133
40
0.591020822234133
40
0.609094852433204
40
0.609094852433204
40
0.627168882632274
40
0.627168882632274
40
0.663316943030417
40
0.663316943030417
40
0.681390973229489
40
0.681390973229489
40
0.69946500342856
40
0.69946500342856
40
0.735613063826705
40
0.735613063826705
40
0.753687094025778
40
0.753687094025778
40
0.771761124224851
40
0.771761124224851
40
0.807909184622999
40
0.807909184622999
40
0.825983214822074
40
0.825983214822074
40
0.844057245021148
40
0.844057245021148
40
0.880205305419298
40
0.880205305419298
40
0.916353365817447
40
0.916353365817447
40
0.934427396016521
40
0.934427396016521
40
0.952501426215595
40
0.952501426215595
40
0.988649486613741
40
0.988649486613741
40
1
40
1
40
1
40
1
41
1
10
4.52819365587899
20
0.364929743151407
30
0
41
1
10
4.5484864975567
20
0.374141762634508
30
0
41
1
10
4.56880446342134
20
0.383164320229469
30
0
41
1
10
4.61815865392532
20
0.404695867478779
30
0
41
1
10
4.64719261806061
20
0.417050701201987
30
0
41
1
10
4.70525022136448
20
0.441140484374301
30
0
41
1
10
4.73426422544139
20
0.452886821023668
30
0
41
1
10
4.7924216188039
20
0.475545898125574
30
0
41
1
10
4.82157088962566
20
0.48645118424912
30
0
41
1
10
4.88013355286216
20
0.507259191508382
30
0
41
1
10
4.90957644405174
20
0.517150538318646
30
0
41
1
10
4.96818781302102
20
0.535891277073944
30
0
41
1
10
4.99740237120432
20
0.544772894748405
30
0
41
1
10
5.05562538847593
20
0.561573959906241
30
0
41
1
10
5.08462309035988
20
0.569500273953565
30
0
41
1
10
5.14253251144882
20
0.584261011826527
30
0
41
1
10
5.17145225513278
20
0.591089015726709
30
0
41
1
10
5.22934960806006
20
0.603567781921157
30
0
41
1
10
5.25834315927577
20
0.609211617731148
30
0
41
1
10
5.31633740670148
20
0.619392057984385
30
0
41
1
10
5.34532268732343
20
0.623936740190601
30
0
41
1
10
5.40323415146344
20
0.631930246189626
30
0
41
1
10
5.43215053748153
20
0.635380212673425
30
0
41
1
10
5.49002659122115
20
0.641104761455637
30
0
41
1
10
5.51899723857468
20
0.643375340446852
30
0
41
1
10
5.57713859753571
20
0.64670468256827
30
0
41
1
10
5.60632439853555
20
0.64776473607796
30
0
41
1
10
5.66487414544963
20
0.648699856993375
30
0
41
1
10
5.69426686538432
20
0.648574615190967
30
0
41
1
10
5.75291559606544
20
0.647107163278775
30
0
41
1
10
5.78210275761143
20
0.645764408800943
30
0
41
1
10
5.84030160888801
20
0.64186460589471
30
0
41
1
10
5.86932606803674
20
0.639309711540051
30
0
41
1
10
5.9273670431196
20
0.633060233509809
30
0
41
1
10
5.95639715983378
20
0.629374283733995
30
0
41
1
10
6.01445338459285
20
0.620910817867156
30
0
41
1
10
6.04345807279566
20
0.616123429857282
30
0
41
1
10
6.10135660252541
20
0.605390621979097
30
0
41
1
10
6.13024619416447
20
0.599439641568807
30
0
41
1
10
6.18798168106858
20
0.586390576076013
30
0
41
1
10
6.21684206299921
20
0.579301767531234
30
0
41
1
10
6.27469709510783
20
0.564122388307737
30
0
41
1
10
6.30370150494502
20
0.556043265692722
30
0
41
1
10
6.36187606868515
20
0.538943699434213
30
0
41
1
10
6.39102307852571
20
0.529902075895023
30
0
41
1
10
6.44935656767387
20
0.5107258505343
30
0
41
1
10
6.47854296684247
20
0.500588278441001
30
0
41
1
10
6.53700997547347
20
0.479229368902907
30
0
41
1
10
6.56630102653651
20
0.468024632705067
30
0
41
1
10
6.62468429465901
20
0.44495685648431
30
0
41
1
10
6.65384341253207
20
0.433083444504575
30
0
41
1
10
6.71214019772756
20
0.408744660778325
30
0
41
1
10
6.74125519094446
20
0.396248058815615
30
0
41
1
10
6.79932474123436
20
0.370463914135854
30
0
41
1
10
6.82828175822931
20
0.357178723666038
30
0
41
1
10
6.91496506195173
20
0.316194708296905
30
0
41
1
10
6.97260434819833
20
0.287511008614757
30
0
41
1
10
7.05956382135543
20
0.24368240891593
30
0
41
1
10
7.08860101879344
20
0.228888670324039
30
0
41
1
10
7.14666700374403
20
0.198738992220598
30
0
41
1
10
7.17570104289462
20
0.183391054190224
30
0
41
1
10
7.23378308244224
20
0.152148931216686
30
0
41
1
10
7.26284351131631
20
0.136275651889349
30
0
41
1
10
7.32117003288681
20
0.104325519763449
30
0
41
1
10
7.35048869729078
20
0.0882220421445652
30
0
41
1
10
7.4091645985126
20
0.0561417243366691
30
0
41
1
10
7.43845968545986
20
0.0401579496654279
30
0
41
1
10
7.49684810700799
20
0.0080753704249901
30
0
41
1
10
7.5259468332109
20
-0.0080125020450907
30
0
41
1
10
7.61295247521684
20
-0.0564165856161196
30
0
41
1
10
7.67063590412229
20
-0.088738354041368
30
0
41
1
10
7.75751351032872
20
-0.135790640076408
30
0
41
1
10
7.78651406494976
20
-0.151270766428553
30
0
41
1
10
7.84447089216107
20
-0.182053338216008
30
0
41
1
10
7.87343101005726
20
-0.197348350597423
30
0
41
1
10
7.96024147776922
20
-0.242959036501219
30
0
41
1
10
8.01806095907997
20
-0.272922087721156
30
0
41
1
10
8.10556615559162
20
-0.31572100715087
30
0
41
1
10
8.13485657707241
20
-0.329645222077147
30
0
41
1
10
8.19355439216119
20
-0.357021412915998
30
0
41
1
10
8.22291671610026
20
-0.370451661086122
30
0
41
1
10
8.31047732456381
20
-0.409724417242302
30
0
41
1
10
8.36836497088726
20
-0.434598612141684
30
0
41
1
10
8.45535641955777
20
-0.468771746391752
30
0
41
1
10
8.48438130595298
20
-0.479649644943294
30
0
41
1
10
8.5423625697583
20
-0.500556887367765
30
0
41
1
10
8.57131363838863
20
-0.510590640074639
30
0
41
1
10
8.65802620943799
20
-0.539426345890348
30
0
41
1
10
8.71562561166809
20
-0.55695020385366
30
0
41
1
10
8.83158663346197
20
-0.587408907843297
30
0
41
1
10
8.8899450078504
20
-0.600414612252422
30
0
41
1
10
8.97757315645731
20
-0.616882296168455
30
0
41
1
10
9.00685298810677
20
-0.621858555781927
30
0
41
1
10
9.06531682188478
20
-0.630601631284861
30
0
41
1
10
9.09448909623129
20
-0.634364224272616
30
0
41
1
10
9.18202550392425
20
-0.643796849901577
30
0
41
1
10
9.24046056012702
20
-0.647646447959545
30
0
41
1
10
9.31690663577433
20
-0.649643121366267
30
0
41
1
10
9.33514818344855
20
-0.649882323899334
30
0
41
1
10
9.3533816531139
20
-0.649883661883251
30
0
0
SPLINE
5
C3
100
AcDbEntity
8
1
62
256
6
ByLayer
370
18
48
1
60
0
100
AcDbSpline
70
4
71
5
72
23
73
17
40
0
40
0
40
0
40
0
40
0
40
0
40
0.0343751373605923
40
0.128456898137981
40
0.216070439765147
40
0.321956833902165
40
0.43428018072685
40
0.54598871860295
40
0.648362734324085
40
0.744024177667542
40
0.847141013615028
40
0.940319701260599
40
0.995260864751686
40
1
40
1
40
1
40
1
40
1
40
1
41
1
10
4.06627709304726
20
-0.548207691709393
30
0
41
1
10
4.06627709304726
20
-0.545186145157345
30
0
41
1
10
4.06627709304726
20
-0.53390642042018
30
0
41
1
10
4.06627709304726
20
-0.515005863084212
30
0
41
1
10
4.06627709304726
20
-0.487025852849797
30
0
41
1
10
4.06627709304726
20
-0.449688038008759
30
0
41
1
10
4.06627709304729
20
-0.406460573681812
30
0
41
1
10
4.06627709304726
20
-0.363296281165873
30
0
41
1
10
4.06627709304729
20
-0.320269598136122
30
0
41
1
10
4.06627709304723
20
-0.278234389352633
30
0
41
1
10
4.06627709304726
20
-0.238460076857109
30
0
41
1
10
4.06627709304732
20
-0.203821040250631
30
0
41
1
10
4.06627709304729
20
-0.177173242500487
30
0
41
1
10
4.06627709304726
20
-0.158044834859254
30
0
41
1
10
4.06627709304726
20
-0.146702593040146
30
0
41
1
10
4.06627709304726
20
-0.142284466270127
30
0
41
1
10
4.06627709304726
20
-0.141933691709539
30
0
0
SPLINE
5
C4
100
AcDbEntity
8
1
62
256
6
ByLayer
370
18
48
1
60
0
100
AcDbSpline
70
4
71
3
72
92
73
88
40
0
40
0
40
0
40
0
40
0.12499999999998
40
0.12499999999998
40
0.187499999999969
40
0.187499999999969
40
0.218749999999964
40
0.218749999999964
40
0.249999999999958
40
0.249999999999958
40
0.312499999999949
40
0.312499999999949
40
0.343749999999944
40
0.343749999999944
40
0.374999999999938
40
0.374999999999938
40
0.390624999999936
40
0.390624999999936
40
0.406249999999935
40
0.406249999999935
40
0.437499999999933
40
0.437499999999933
40
0.453124999999933
40
0.453124999999933
40
0.468749999999933
40
0.468749999999933
40
0.476562499999932
40
0.476562499999932
40
0.484374999999931
40
0.484374999999931
40
0.492187499999931
40
0.492187499999931
40
0.496093749999931
40
0.496093749999931
40
0.499999999999931
40
0.499999999999931
40
0.507812499999931
40
0.507812499999931
40
0.511718749999931
40
0.511718749999931
40
0.515624999999931
40
0.515624999999931
40
0.523437499999931
40
0.523437499999931
40
0.531249999999931
40
0.531249999999931
40
0.539062499999932
40
0.539062499999932
40
0.546874999999932
40
0.546874999999932
40
0.562499999999934
40
0.562499999999934
40
0.570312499999935
40
0.570312499999935
40
0.578124999999937
40
0.578124999999937
40
0.593749999999941
40
0.593749999999941
40
0.624999999999948
40
0.624999999999948
40
0.656249999999955
40
0.656249999999955
40
0.687499999999962
40
0.687499999999962
40
0.718749999999969
40
0.718749999999969
40
0.749999999999976
40
0.749999999999976
40
0.757812499999979
40
0.757812499999979
40
0.76171874999998
40
0.76171874999998
40
0.76562499999998
40
0.76562499999998
40
0.773437499999981
40
0.773437499999981
40
0.781249999999981
40
0.781249999999981
40
0.812499999999984
40
0.812499999999984
40
0.843749999999987
40
0.843749999999987
40
0.874999999999989
40
0.874999999999989
40
0.937499999999995
40
0.937499999999995
40
1
40
1
40
1
40
1
41
1
10
4.06627709304766
20
-0.548207691709337
30
0
41
1
10
3.87716507237357
20
-0.575837542736906
30
0
41
1
10
3.69049860442848
20
-0.601504936627521
30
0
41
1
10
3.41322990419263
20
-0.629125474787458
30
0
41
1
10
3.32125616061234
20
-0.636514187482305
30
0
41
1
10
3.18381359671207
20
-0.643743049942401
30
0
41
1
10
3.13811194466368
20
-0.645505103034168
30
0
41
1
10
3.04733765431564
20
-0.647525601204279
30
0
41
1
10
3.00220892896408
20
-0.647787825598442
30
0
41
1
10
2.86760060207166
20
-0.646018003839998
30
0
41
1
10
2.77888804529712
20
-0.641470481583099
30
0
41
1
10
2.647497993532
20
-0.627867989322368
30
0
41
1
10
2.60398298623238
20
-0.622196593895922
30
0
41
1
10
2.51758789834739
20
-0.608103533239472
30
0
41
1
10
2.47470596900638
20
-0.599689237660385
30
0
41
1
10
2.41096633810454
20
-0.584437806500688
30
0
41
1
10
2.38981770232701
20
-0.578912903636336
30
0
41
1
10
2.34774839351911
20
-0.566829814144654
30
0
41
1
10
2.32686832143557
20
-0.560281422688519
30
0
41
1
10
2.26516593615483
20
-0.53897582631285
30
0
41
1
10
2.2251042708732
20
-0.522589175173948
30
0
41
1
10
2.1675580905073
20
-0.492953109800823
30
0
41
1
10
2.14897545262218
20
-0.48230019843902
30
0
41
1
10
2.11345239057428
20
-0.459056174683326
30
0
41
1
10
2.09649219597119
20
-0.446468570387054
30
0
41
1
10
2.07276903231031
20
-0.425563803747878
30
0
41
1
10
2.06515037281741
20
-0.418255173955402
30
0
41
1
10
2.05063982008039
20
-0.40279287237297
30
0
41
1
10
2.04371593985621
20
-0.394598960073836
30
0
41
1
10
2.03096640386679
20
-0.377308305827029
30
0
41
1
10
2.02519067847288
20
-0.368287995735983
30
0
41
1
10
2.01763506825262
20
-0.354075181595022
30
0
41
1
10
2.01530198830375
20
-0.349223403616321
30
0
41
1
10
2.0110544516281
20
-0.3392643010813
30
0
41
1
10
2.00913430485926
20
-0.334134828120796
30
0
41
1
10
2.00416594553815
20
-0.318572990200892
30
0
41
1
10
2.00187958222608
20
-0.307923659472578
30
0
41
1
10
2.00019021940335
20
-0.291497587194471
30
0
41
1
10
1.99991773703343
20
-0.285946758996857
30
0
41
1
10
1.99999637661529
20
-0.274685725666302
30
0
41
1
10
2.00035419197198
20
-0.268946190094141
30
0
41
1
10
2.00236597436529
20
-0.2519131236308
30
0
41
1
10
2.00494476251103
20
-0.240690898519176
30
0
41
1
10
2.01239463621855
20
-0.218508717153497
30
0
41
1
10
2.01732697007003
20
-0.207467882619255
30
0
41
1
10
2.02884413623951
20
-0.186441567662797
30
0
41
1
10
2.03544380916884
20
-0.176358761690182
30
0
41
1
10
2.05000485112674
20
-0.156898226383561
30
0
41
1
10
2.05801979339049
20
-0.147469578941582
30
0
41
1
10
2.08331962702101
20
-0.12054792250774
30
0
41
1
10
2.10180852783873
20
-0.104345239091742
30
0
41
1
10
2.13109648919962
20
-0.0817291098865951
30
0
41
1
10
2.1411257198757
20
-0.0744796042663154
30
0
41
1
10
2.16163224030004
20
-0.0604688595286405
30
0
41
1
10
2.17211333881787
20
-0.0537079791529607
30
0
41
1
10
2.20379424757039
20
-0.0342541121022748
30
0
41
1
10
2.22534782506739
20
-0.0222960174836544
30
0
41
1
10
2.29094871181854
20
0.0113858402328333
30
0
41
1
10
2.33591970562225
20
0.0309557603276573
30
0
41
1
10
2.4274147557361
20
0.0664849086191737
30
0
41
1
10
2.47395532670726
20
0.0824054005293817
30
0
41
1
10
2.56818374728166
20
0.111586397206679
30
0
41
1
10
2.61569882852891
20
0.124780446116148
30
0
41
1
10
2.7111809463301
20
0.148991857368714
30
0
41
1
10
2.75918057091513
20
0.16001671103686
30
0
41
1
10
2.85561957506306
20
0.180268588090968
30
0
41
1
10
2.90406556360952
20
0.189464496893493
30
0
41
1
10
2.96468174269313
20
0.200381376188631
30
0
41
1
10
2.97679184232967
20
0.202634754960144
30
0
41
1
10
2.99520802417217
20
0.204591518143587
30
0
41
1
10
3.00139371424598
20
0.204977791468508
30
0
41
1
10
3.01389241922303
20
0.205030471652009
30
0
41
1
10
3.02013799457407
20
0.204695638653391
30
0
41
1
10
3.03849063533031
20
0.202707823509883
30
0
41
1
10
3.05035922058579
20
0.200018689532328
30
0
41
1
10
3.0739584059346
20
0.194114690448828
30
0
41
1
10
3.08570785016923
20
0.190970524546941
30
0
41
1
10
3.14455580103237
20
0.175598387151013
30
0
41
1
10
3.19173169805185
20
0.163582526694455
30
0
41
1
10
3.28605278101389
20
0.139278004055029
30
0
41
1
10
3.3332220424866
20
0.127078541048121
30
0
41
1
10
3.4275966814246
20
0.102660072448629
30
0
41
1
10
3.47481613846912
20
0.0904566800269322
30
0
41
1
10
3.61550906555348
20
0.0500990327555826
30
0
41
1
10
3.70748790313226
20
0.0184752787565117
30
0
41
1
10
3.88866191100891
20
-0.0518363409475739
30
0
41
1
10
3.97785460679572
20
-0.0905295427356236
30
0
41
1
10
4.06627709304769
20
-0.1310637316233
30
0
0
LINE
5
7D
100
AcDbEntity
8
80
62
256
6
ByLayer
370
18
48
1
60
0
100
AcDbLine
10
0
20
0
30
0
11
-5
21
0
31
0
39
0
210
0
220
0
230
1
0
LINE
5
7E
100
AcDbEntity
8
4
62
256
6
ByLayer
370
18
48
0.05
60
0
100
AcDbLine
10
-5
20
0
30
0
11
15
21
0
31
0
39
0
210
0
220
0
230
1
0
LINE
5
80
100
AcDbEntity
8
81
62
256
6
ByLayer
370
18
48
1
60
0
100
AcDbLine
10
10
20
0
30
0
11
15
21
0
31
0
39
0
210
0
220
0
230
1
0
LINE
5
81
100
AcDbEntity
8
SK4
62
256
6
ByLayer
370
18
48
0.05
60
0
100
AcDbLine
10
-25
20
0
30
0
11
15
21
0
31
0
39
0
210
0
220
0
230
1
0
LINE
5
83
100
AcDbEntity
8
1
62
256
6
ByLayer
370
18
48
1
60
0
100
AcDbLine
10
0
20
0.65
30
0
11
0
21
-0.65
31
0
39
0
210
0
220
0
230
1
0
LINE
5
84
100
AcDbEntity
8
1
62
256
6
ByLayer
370
18
48
1
60
0
100
AcDbLine
10
9.648497
20
-0.65
30
0
11
9.648497
21
-0.372353
31
0
39
0
210
0
220
0
230
1
0
LINE
5
85
100
AcDbEntity
8
1
62
256
6
ByLayer
370
18
48
1
60
0
100
AcDbLine
10
9.648497
20
0.65
30
0
11
9.648497
21
0.629492
31
0
39
0
210
0
220
0
230
1
0
LINE
5
86
100
AcDbEntity
8
1
62
256
6
ByLayer
370
18
48
1
60
0
100
AcDbLine
10
0.1
20
-0.646419
30
0
11
0.1
21
0.646419
31
0
39
0
210
0
220
0
230
1
0
LINE
5
87
100
AcDbEntity
8
SK1
62
256
6
ByLayer
370
18
48
1
60
0
100
AcDbLine
10
-20
20
-0.55
30
0
11
-20
21
0.55
31
0
39
0
210
0
220
0
230
1
0
LINE
5
89
100
AcDbEntity
8
SK1
62
256
6
ByLayer
370
18
48
1
60
0
100
AcDbLine
10
0
20
0.65
30
0
11
0
21
-0.65
31
0
39
0
210
0
220
0
230
1
0
LINE
5
8A
100
AcDbEntity
8
SK1
62
256
6
ByLayer
370
18
48
1
60
0
100
AcDbLine
10
-19.9
20
-0.65
30
0
11
-19.9
21
0.65
31
0
39
0
210
0
220
0
230
1
0
LINE
5
8B
100
AcDbEntity
8
1
62
256
6
ByLayer
370
18
48
1
60
0
100
AcDbLine
10
10
20
0
30
0
11
9.648497
21
0.65
31
0
39
0
210
0
220
0
230
1
0
LINE
5
8C
100
AcDbEntity
8
1
62
256
6
ByLayer
370
18
48
1
60
0
100
AcDbLine
10
9.648497
20
-0.65
30
0
11
10
21
0
31
0
39
0
210
0
220
0
230
1
0
LINE
5
8D
100
AcDbEntity
8
1
62
256
6
ByLayer
370
18
48
1
60
0
100
AcDbLine
10
0.1
20
0.646419
30
0
11
0
21
0.65
31
0
39
0
210
0
220
0
230
1
0
LINE
5
8E
100
AcDbEntity
8
1
62
256
6
ByLayer
370
18
48
1
60
0
100
AcDbLine
10
0
20
-0.65
30
0
11
0.1
21
-0.646419
31
0
39
0
210
0
220
0
230
1
0
LINE
5
8F
100
AcDbEntity
8
1
62
256
6
ByLayer
370
18
48
1
60
0
100
AcDbLine
10
0.1
20
-0.646419
30
0
11
3.012864
21
-0.647512
31
0
39
0
210
0
220
0
230
1
0
LINE
5
90
100
AcDbEntity
8
1
62
256
6
ByLayer
370
18
48
1
60
0
100
AcDbLine
10
5.669794
20
-0.648508
30
0
11
7.091628
21
-0.649041
31
0
39
0
210
0
220
0
230
1
0
LINE
5
91
100
AcDbEntity
8
1
62
256
6
ByLayer
370
18
48
1
60
0
100
AcDbLine
10
9.353257
20
-0.649889
30
0
11
9.648497
21
-0.65
31
0
39
0
210
0
220
0
230
1
0
LINE
5
92
100
AcDbEntity
8
1
62
256
6
ByLayer
370
18
48
1
60
0
100
AcDbLine
10
9.648497
20
0.65
30
0
11
9.353257
21
0.649889
31
0
39
0
210
0
220
0
230
1
0
LINE
5
93
100
AcDbEntity
8
1
62
256
6
ByLayer
370
18
48
1
60
0
100
AcDbLine
10
7.091628
20
0.649041
30
0
11
5.669794
21
0.648508
31
0
39
0
210
0
220
0
230
1
0
LINE
5
94
100
AcDbEntity
8
1
62
256
6
ByLayer
370
18
48
1
60
0
100
AcDbLine
10
3.012864
20
0.647512
30
0
11
0.1
21
0.646419
31
0
39
0
210
0
220
0
230
1
0
LINE
5
95
100
AcDbEntity
8
SK1
62
256
6
ByLayer
370
18
48
1
60
0
100
AcDbLine
10
-20
20
-0.55
30
0
11
-19.9
21
-0.65
31
0
39
0
210
0
220
0
230
1
0
LINE
5
96
100
AcDbEntity
8
SK1
62
256
6
ByLayer
370
18
48
1
60
0
100
AcDbLine
10
-19.9
20
0.65
30
0
11
-20
21
0.55
31
0
39
0
210
0
220
0
230
1
0
LINE
5
97
100
AcDbEntity
8
SK1
62
256
6
ByLayer
370
18
48
1
60
0
100
AcDbLine
10
-19.9
20
-0.65
30
0
11
0
21
-0.65
31
0
39
0
210
0
220
0
230
1
0
LINE
5
98
100
AcDbEntity
8
SK1
62
256
6
ByLayer
370
18
48
1
60
0
100
AcDbLine
10
0
20
0.65
30
0
11
-19.9
21
0.65
31
0
39
0
210
0
220
0
230
1
0
LINE
5
99
100
AcDbEntity
8
SK2
62
256
6
ByLayer
370
13
48
1
60
0
100
AcDbLine
10
-26.5
20
26.682855
30
0
11
-26.5
21
-8.15
31
0
39
0
210
0
220
0
230
1
0
LINE
5
9B
100
AcDbEntity
8
SK2
62
256
6
ByLayer
370
13
48
1
60
0
100
AcDbLine
10
-21.5875
20
0.65
30
0
11
-28.5
21
0.65
31
0
39
0
210
0
220
0
230
1
0
LINE
5
9C
100
AcDbEntity
8
SK2
62
256
6
ByLayer
370
13
48
1
60
0
100
AcDbLine
10
-21.5875
20
-0.65
30
0
11
-28.5
21
-0.65
31
0
39
0
210
0
220
0
230
1
0
LINE
5
9D
100
AcDbEntity
8
1
62
256
6
ByLayer
370
18
48
1
60
1
100
AcDbLine
10
-26.5
20
0.65
30
0
11
-26.960784
21
4.149998
31
0
39
0
210
0
220
0
230
1
0
LINE
5
9E
100
AcDbEntity
8
1
62
256
6
ByLayer
370
18
48
1
60
1
100
AcDbLine
10
-26.960784
20
4.149998
30
0
11
-26.039216
21
4.150002
31
0
39
0
210
0
220
0
230
1
0
LINE
5
9F
100
AcDbEntity
8
1
62
256
6
ByLayer
370
18
48
1
60
1
100
AcDbLine
10
-26.039216
20
4.150002
30
0
11
-26.5
21
0.65
31
0
39
0
210
0
220
0
230
1
0
LINE
5
A0
100
AcDbEntity
8
1
62
256
6
ByLayer
370
18
48
1
60
1
100
AcDbLine
10
-26.5
20
-0.65
30
0
11
-26.039216
21
-4.149998
31
0
39
0
210
0
220
0
230
1
0
LINE
5
A1
100
AcDbEntity
8
1
62
256
6
ByLayer
370
18
48
1
60
1
100
AcDbLine
10
-26.039216
20
-4.149998
30
0
11
-26.960784
21
-4.150002
31
0
39
0
210
0
220
0
230
1
0
LINE
5
A2
100
AcDbEntity
8
1
62
256
6
ByLayer
370
18
48
1
60
1
100
AcDbLine
10
-26.960784
20
-4.150002
30
0
11
-26.5
21
-0.65
31
0
39
0
210
0
220
0
230
1
0
LINE
5
A3
100
AcDbEntity
8
2
62
256
6
ByLayer
370
13
48
1
60
0
100
AcDbLine
10
19.148497
20
26.682855
30
0
11
19.148497
21
-8.15
31
0
39
0
210
0
220
0
230
1
0
LINE
5
A5
100
AcDbEntity
8
2
62
256
6
ByLayer
370
13
48
1
60
0
100
AcDbLine
10
11.235997
20
0.65
30
0
11
21.148497
21
0.65
31
0
39
0
210
0
220
0
230
1
0
LINE
5
A6
100
AcDbEntity
8
2
62
256
6
ByLayer
370
13
48
1
60
0
100
AcDbLine
10
11.235997
20
-0.65
30
0
11
21.148497
21
-0.65
31
0
39
0
210
0
220
0
230
1
0
LINE
5
A7
100
AcDbEntity
8
1
62
256
6
ByLayer
370
18
48
1
60
1
100
AcDbLine
10
19.148497
20
0.65
30
0
11
18.687713
21
4.149998
31
0
39
0
210
0
220
0
230
1
0
LINE
5
A8
100
AcDbEntity
8
1
62
256
6
ByLayer
370
18
48
1
60
1
100
AcDbLine
10
18.687713
20
4.149998
30
0
11
19.60928
21
4.150002
31
0
39
0
210
0
220
0
230
1
0
LINE
5
A9
100
AcDbEntity
8
1
62
256
6
ByLayer
370
18
48
1
60
1
100
AcDbLine
10
19.60928
20
4.150002
30
0
11
19.148497
21
0.65
31
0
39
0
210
0
220
0
230
1
0
LINE
5
AA
100
AcDbEntity
8
1
62
256
6
ByLayer
370
18
48
1
60
1
100
AcDbLine
10
19.148497
20
-0.65
30
0
11
19.60928
21
-4.149998
31
0
39
0
210
0
220
0
230
1
0
LINE
5
AB
100
AcDbEntity
8
1
62
256
6
ByLayer
370
18
48
1
60
1
100
AcDbLine
10
19.60928
20
-4.149998
30
0
11
18.687713
21
-4.150002
31
0
39
0
210
0
220
0
230
1
0
LINE
5
AC
100
AcDbEntity
8
1
62
256
6
ByLayer
370
18
48
1
60
1
100
AcDbLine
10
18.687713
20
-4.150002
30
0
11
19.148497
21
-0.65
31
0
39
0
210
0
220
0
230
1
0
LINE
5
AD
100
AcDbEntity
8
2
62
256
6
ByLayer
370
13
48
1
60
0
100
AcDbLine
10
10.755136
20
-1.396397
30
0
11
21.416232
21
-21.110889
31
0
39
0
210
0
220
0
230
1
0
LINE
5
AE
100
AcDbEntity
8
2
62
256
6
ByLayer
370
13
48
1
60
0
100
AcDbLine
10
10.755136
20
1.396397
30
0
11
21.416232
21
21.110889
31
0
39
0
210
0
220
0
230
1
0
LINE
5
AF
100
AcDbEntity
8
1
62
256
6
ByLayer
370
18
48
1
60
1
100
AcDbLine
10
20.464879
20
-19.351649
30
0
11
23.239971
21
-17.169637
31
0
39
0
210
0
220
0
230
1
0
LINE
5
B0
100
AcDbEntity
8
1
62
256
6
ByLayer
370
18
48
1
60
1
100
AcDbLine
10
23.239971
20
-17.169637
30
0
11
23.710161
21
-17.962233
31
0
39
0
210
0
220
0
230
1
0
LINE
5
B1
100
AcDbEntity
8
1
62
256
6
ByLayer
370
18
48
1
60
1
100
AcDbLine
10
23.710161
20
-17.962233
30
0
11
20.464879
21
-19.351649
31
0
39
0
210
0
220
0
230
1
0
LINE
5
B2
100
AcDbEntity
8
1
62
256
6
ByLayer
370
18
48
1
60
1
100
AcDbLine
10
20.464879
20
19.351649
30
0
11
23.710158
21
17.962234
31
0
39
0
210
0
220
0
230
1
0
LINE
5
B3
100
AcDbEntity
8
1
62
256
6
ByLayer
370
18
48
1
60
1
100
AcDbLine
10
23.710158
20
17.962234
30
0
11
23.239974
21
17.169635
31
0
39
0
210
0
220
0
230
1
0
LINE
5
B4
100
AcDbEntity
8
1
62
256
6
ByLayer
370
18
48
1
60
1
100
AcDbLine
10
23.239974
20
17.169635
30
0
11
20.464879
21
19.351649
31
0
39
0
210
0
220
0
230
1
0
LINE
5
C9
100
AcDbEntity
8
1
62
256
6
ByLayer
370
18
48
1
60
1
100
AcDbLine
10
-26.5
20
0.65
30
0
11
-26.960784
21
4.149998
31
0
39
0
210
0
220
0
230
1
0
LINE
5
CA
100
AcDbEntity
8
1
62
256
6
ByLayer
370
18
48
1
60
1
100
AcDbLine
10
-26.960784
20
4.149998
30
0
11
-26.039216
21
4.150002
31
0
39
0
210
0
220
0
230
1
0
LINE
5
CB
100
AcDbEntity
8
1
62
256
6
ByLayer
370
18
48
1
60
1
100
AcDbLine
10
-26.039216
20
4.150002
30
0
11
-26.5
21
0.65
31
0
39
0
210
0
220
0
230
1
0
LINE
5
CD
100
AcDbEntity
8
1
62
256
6
ByLayer
370
18
48
1
60
1
100
AcDbLine
10
-26.5
20
-0.65
30
0
11
-26.039216
21
-4.149998
31
0
39
0
210
0
220
0
230
1
0
LINE
5
CE
100
AcDbEntity
8
1
62
256
6
ByLayer
370
18
48
1
60
1
100
AcDbLine
10
-26.039216
20
-4.149998
30
0
11
-26.960784
21
-4.150002
31
0
39
0
210
0
220
0
230
1
0
LINE
5
CF
100
AcDbEntity
8
1
62
256
6
ByLayer
370
18
48
1
60
1
100
AcDbLine
10
-26.960784
20
-4.150002
30
0
11
-26.5
21
-0.65
31
0
39
0
210
0
220
0
230
1
0
LINE
5
D3
100
AcDbEntity
8
1
62
256
6
ByLayer
370
18
48
1
60
1
100
AcDbLine
10
19.148497
20
0.65
30
0
11
18.687713
21
4.149998
31
0
39
0
210
0
220
0
230
1
0
LINE
5
D4
100
AcDbEntity
8
1
62
256
6
ByLayer
370
18
48
1
60
1
100
AcDbLine
10
18.687713
20
4.149998
30
0
11
19.60928
21
4.150002
31
0
39
0
210
0
220
0
230
1
0
LINE
5
D5
100
AcDbEntity
8
1
62
256
6
ByLayer
370
18
48
1
60
1
100
AcDbLine
10
19.60928
20
4.150002
30
0
11
19.148497
21
0.65
31
0
39
0
210
0
220
0
230
1
0
LINE
5
D7
100
AcDbEntity
8
1
62
256
6
ByLayer
370
18
48
1
60
1
100
AcDbLine
10
19.148497
20
-0.65
30
0
11
19.60928
21
-4.149998
31
0
39
0
210
0
220
0
230
1
0
LINE
5
D8
100
AcDbEntity
8
1
62
256
6
ByLayer
370
18
48
1
60
1
100
AcDbLine
10
19.60928
20
-4.149998
30
0
11
18.687713
21
-4.150002
31
0
39
0
210
0
220
0
230
1
0
LINE
5
D9
100
AcDbEntity
8
1
62
256
6
ByLayer
370
18
48
1
60
1
100
AcDbLine
10
18.687713
20
-4.150002
30
0
11
19.148497
21
-0.65
31
0
39
0
210
0
220
0
230
1
0
LINE
5
DC
100
AcDbEntity
8
1
62
256
6
ByLayer
370
18
48
1
60
1
100
AcDbLine
10
20.464879
20
-19.351649
30
0
11
23.239971
21
-17.169637
31
0
39
0
210
0
220
0
230
1
0
LINE
5
DD
100
AcDbEntity
8
1
62
256
6
ByLayer
370
18
48
1
60
1
100
AcDbLine
10
23.239971
20
-17.169637
30
0
11
23.710161
21
-17.962233
31
0
39
0
210
0
220
0
230
1
0
LINE
5
DE
100
AcDbEntity
8
1
62
256
6
ByLayer
370
18
48
1
60
1
100
AcDbLine
10
23.710161
20
-17.962233
30
0
11
20.464879
21
-19.351649
31
0
39
0
210
0
220
0
230
1
0
LINE
5
E0
100
AcDbEntity
8
1
62
256
6
ByLayer
370
18
48
1
60
1
100
AcDbLine
10
20.464879
20
19.351649
30
0
11
23.710158
21
17.962234
31
0
39
0
210
0
220
0
230
1
0
LINE
5
E1
100
AcDbEntity
8
1
62
256
6
ByLayer
370
18
48
1
60
1
100
AcDbLine
10
23.710158
20
17.962234
30
0
11
23.239974
21
17.169635
31
0
39
0
210
0
220
0
230
1
0
LINE
5
E2
100
AcDbEntity
8
1
62
256
6
ByLayer
370
18
48
1
60
1
100
AcDbLine
10
23.239974
20
17.169635
30
0
11
20.464879
21
19.351649
31
0
39
0
210
0
220
0
230
1
0
MTEXT
5
C5
100
AcDbEntity
8
SK2
62
256
6
ByLayer
370
18
48
1
60
0
100
AcDbMText
10
-27.841114
20
12.308437
30
0
210
0
220
0
230
1
1
%%c
40
3
41
0
44
1.084337
50
90
71
7
72
5
7
iso_b_vert
0
MTEXT
5
C8
100
AcDbEntity
8
SK2
62
256
6
ByLayer
370
18
48
1
60
0
100
AcDbMText
10
-27.841114
20
18.285
30
0
210
0
220
0
230
1
1
\W0.6864;1.300
40
3
41
0
44
1.084337
50
90
71
7
72
5
7
iso_b_vert
0
MTEXT
5
D1
100
AcDbEntity
8
2
62
256
6
ByLayer
370
18
48
1
60
0
100
AcDbMText
10
17.807382
20
12.308437
30
0
210
0
220
0
230
1
1
%%c
40
3
41
0
44
1.084337
50
90
71
7
72
5
7
iso_b_vert
0
MTEXT
5
D2
100
AcDbEntity
8
2
62
256
6
ByLayer
370
18
48
1
60
0
100
AcDbMText
10
17.807382
20
18.285
30
0
210
0
220
0
230
1
1
\W0.6864;1.300
40
3
41
0
44
1.084337
50
90
71
7
72
5
7
iso_b_vert
0
MTEXT
5
DB
100
AcDbEntity
8
2
62
256
6
ByLayer
370
18
48
1
60
0
100
AcDbMText
10
29.092229
20
-2.114886
30
0
210
0
220
0
230
1
1
\W0.6008;118%%d
40
3
41
0
44
1.084337
50
0
71
7
72
5
7
iso_b_vert
0
MTEXT
5
E4
100
AcDbEntity
8
SK6
62
256
6
ByLayer
370
18
48
1
60
0
100
AcDbMText
10
-10.30656
20
-67.114886
30
0
210
0
220
0
230
1
1
\W0.7280;R0231.3
40
3
41
0
44
1.084337
50
0
71
7
72
5
7
iso_b_vert
0
HATCH
5
CC
100
AcDbEntity
8
SK2
62
256
6
ByLayer
370
13
48
1
60
0
100
AcDbHatch
10
0
20
0
30
0
210
0
220
0
230
1
2
ANSI31
70
0
71
0
91
1
92
5
93
3
72
1
10
-26.5
20
0.649999999999977
11
-26.9607837415528
21
4.14999830744679
72
1
10
-26.9607837415528
20
4.14999830744679
11
-26.0392162584472
21
4.15000169255316
72
1
10
-26.0392162584472
20
4.15000169255316
11
-26.5
21
0.649999999999977
97
0
75
0
76
1
52
0
41
0.0062
77
0
78
1
53
45
43
0
44
0
45
-0.0139193969876572
46
0.0139193969876572
79
0
47
0
98
1
10
0
20
0
0
HATCH
5
D0
100
AcDbEntity
8
SK2
62
256
6
ByLayer
370
13
48
1
60
0
100
AcDbHatch
10
0
20
0
30
0
210
0
220
0
230
1
2
ANSI31
70
0
71
0
91
1
92
5
93
3
72
1
10
-26.5
20
-0.650000000000006
11
-26.0392162584472
21
-4.14999830744682
72
1
10
-26.0392162584472
20
-4.14999830744682
11
-26.9607837415528
21
-4.15000169255319
72
1
10
-26.9607837415528
20
-4.15000169255319
11
-26.5
21
-0.650000000000006
97
0
75
0
76
1
52
0
41
0.0062
77
0
78
1
53
45
43
0
44
0
45
-0.0139193969876572
46
0.0139193969876572
79
0
47
0
98
1
10
0
20
0
0
HATCH
5
D6
100
AcDbEntity
8
2
62
256
6
ByLayer
370
13
48
1
60
0
100
AcDbHatch
10
0
20
0
30
0
210
0
220
0
230
1
2
ANSI31
70
0
71
0
91
1
92
5
93
3
72
1
10
19.1484965378689
20
0.649999999999977
11
18.6877127963161
21
4.14999830744679
72
1
10
18.6877127963161
20
4.14999830744679
11
19.6092802794217
21
4.15000169255316
72
1
10
19.6092802794217
20
4.15000169255316
11
19.1484965378689
21
0.649999999999977
97
0
75
0
76
1
52
0
41
0.0062
77
0
78
1
53
45
43
0
44
0
45
-0.0139193969876572
46
0.0139193969876572
79
0
47
0
98
1
10
0
20
0
0
HATCH
5
DA
100
AcDbEntity
8
2
62
256
6
ByLayer
370
13
48
1
60
0
100
AcDbHatch
10
0
20
0
30
0
210
0
220
0
230
1
2
ANSI31
70
0
71
0
91
1
92
5
93
3
72
1
10
19.1484965378689
20
-0.650000000000006
11
19.6092802794217
21
-4.14999830744682
72
1
10
19.6092802794217
20
-4.14999830744682
11
18.6877127963161
21
-4.15000169255319
72
1
10
18.6877127963161
20
-4.15000169255319
11
19.1484965378689
21
-0.650000000000006
97
0
75
0
76
1
52
0
41
0.0062
77
0
78
1
53
45
43
0
44
0
45
-0.0139193969876572
46
0.0139193969876572
79
0
47
0
98
1
10
0
20
0
0
HATCH
5
DF
100
AcDbEntity
8
2
62
256
6
ByLayer
370
13
48
1
60
0
100
AcDbHatch
10
0
20
0
30
0
210
0
220
0
230
1
2
ANSI31
70
0
71
0
91
1
92
5
93
3
72
1
10
20.4648791987522
20
-19.3516485952883
11
23.2399711078383
21
-17.1696369764526
72
1
10
23.2399711078383
20
-17.1696369764526
11
23.7101613929252
21
-17.9622325364571
72
1
10
23.7101613929252
20
-17.9622325364571
11
20.4648791987522
21
-19.3516485952883
97
0
75
0
76
1
52
0
41
0.0062
77
0
78
1
53
45
43
0
44
0
45
-0.0139193969876572
46
0.0139193969876572
79
0
47
0
98
1
10
0
20
0
0
HATCH
5
E3
100
AcDbEntity
8
2
62
256
6
ByLayer
370
13
48
1
60
0
100
AcDbHatch
10
0
20
0
30
0
210
0
220
0
230
1
2
ANSI31
70
0
71
0
91
1
92
5
93
3
72
1
10
20.4648791987518
20
19.3516485952885
11
23.7101584815525
21
17.962234263552
72
1
10
23.7101584815525
20
17.962234263552
11
23.2399740192104
21
17.1696352493581
72
1
10
23.2399740192104
20
17.1696352493581
11
20.4648791987518
21
19.3516485952885
97
0
75
0
76
1
52
0
41
0.0062
77
0
78
1
53
45
43
0
44
0
45
-0.0139193969876572
46
0.0139193969876572
79
0
47
0
98
1
10
0
20
0
0
DIMENSION
5
E7
100
AcDbEntity
8
SK2
62
256
6
ByLayer
370
18
48
1
60
0
100
AcDbDimension
2
_U0
10
10
20
-50.944383
30
0
11
-5
21
-50.944383
31
0
70
32
71
1
72
1
41
1
210
0
220
0
230
1
3
Standard
100
AcDbAlignedDimension
13
-20
23
-0.65
33
0
14
10
24
0
34
0
50
0
100
AcDbRotatedDimension
1001
ACAD
1000
DSTYLE
1002
{
1070
   371
1070
    13
1070
   372
1070
    13
1070
     3
1000

1070
   170
1070
     0
1070
   144
1040
1.0
1070
   277
1070
     2
1070
   284
1070
     8
1070
   278
1070
    46
1070
   146
1040
1.166667
1070
   345
1005
16
1070
   347
1005
16
1070
   346
1005
16
1070
   344
1005
0
1070
   343
1005
0
1070
   172
1070
     1
1070
    76
1070
     0
1070
    75
1070
     0
1070
   282
1070
     0
1070
   281
1070
     0
1070
    71
1070
     0
1070
    74
1070
     0
1070
   279
1070
     0
1070
   173
1070
     1
1070
   340
1005
C6
1070
   271
1070
     2
1070
   272
1070
     3
1070
    77
1070
     1
1070
    73
1070
     1
1070
   171
1070
     3
1070
   274
1070
     4
1070
   177
1070
     2
1070
   176
1070
     2
1070
   178
1070
     2
1070
    78
1070
     8
1070
    48
1040
-0.1
1070
    41
1040
3.5
1070
   147
1040
1.5
1070
    42
1040
1.5875
1070
    44
1040
2.0
1070
   140
1040
3.0
1002
}
1001
ACAD_DSTYLE_DIM_LINETYPE
1070
   380
1005
16
1001
ACAD_DSTYLE_DIM_EXT1_LINETYPE
1070
   381
1005
16
1001
ACAD_DSTYLE_DIM_EXT2_LINETYPE
1070
   382
1005
16
0
DIMENSION
5
100
100
AcDbEntity
8
2
62
256
6
ByLayer
370
18
48
1
60
0
100
AcDbDimension
2
_U1
10
2
20
-40.944383
30
0
11
6
21
-40.944383
31
0
70
32
71
1
72
1
41
1
210
0
220
0
230
1
3
Standard
100
AcDbAlignedDimension
13
10
23
0
33
0
14
2
24
-0.65
34
0
50
0
100
AcDbRotatedDimension
1001
ACAD
1000
DSTYLE
1002
{
1070
   371
1070
    13
1070
   372
1070
    13
1070
     3
1000

1070
   170
1070
     0
1070
   144
1040
1.0
1070
   277
1070
     2
1070
   284
1070
     8
1070
   278
1070
    46
1070
   146
1040
1.166667
1070
   345
1005
16
1070
   347
1005
16
1070
   346
1005
16
1070
   344
1005
0
1070
   343
1005
0
1070
   172
1070
     1
1070
    76
1070
     0
1070
    75
1070
     0
1070
   282
1070
     0
1070
   281
1070
     0
1070
    71
1070
     0
1070
    74
1070
     0
1070
   279
1070
     0
1070
   173
1070
     1
1070
   340
1005
C6
1070
   271
1070
     2
1070
   272
1070
     3
1070
    77
1070
     1
1070
    73
1070
     1
1070
   171
1070
     3
1070
   274
1070
     4
1070
   177
1070
     2
1070
   176
1070
     2
1070
   178
1070
     2
1070
    78
1070
     8
1070
    48
1040
-0.1
1070
    41
1040
3.5
1070
   147
1040
1.5
1070
    42
1040
1.5875
1070
    44
1040
2.0
1070
   140
1040
3.0
1002
}
1001
ACAD_DSTYLE_DIM_LINETYPE
1070
   380
1005
16
1001
ACAD_DSTYLE_DIM_EXT1_LINETYPE
1070
   381
1005
16
1001
ACAD_DSTYLE_DIM_EXT2_LINETYPE
1070
   382
1005
16
0
DIMENSION
5
119
100
AcDbEntity
8
SK2
62
256
6
ByLayer
370
18
48
1
60
0
100
AcDbDimension
2
_U2
10
0
20
-35.944383
30
0
11
-10
21
-35.944383
31
0
70
32
71
1
72
1
41
1
210
0
220
0
230
1
3
Standard
100
AcDbAlignedDimension
13
-20
23
-0.65
33
0
14
0
24
-0.65
34
0
50
0
100
AcDbRotatedDimension
1001
ACAD
1000
DSTYLE
1002
{
1070
   371
1070
    13
1070
   372
1070
    13
1070
     3
1000

1070
   170
1070
     0
1070
   144
1040
1.0
1070
   277
1070
     2
1070
   284
1070
     8
1070
   278
1070
    46
1070
   146
1040
1.166667
1070
   345
1005
16
1070
   347
1005
16
1070
   346
1005
16
1070
   344
1005
0
1070
   343
1005
0
1070
   172
1070
     1
1070
    76
1070
     0
1070
    75
1070
     0
1070
   282
1070
     0
1070
   281
1070
     0
1070
    71
1070
     0
1070
    74
1070
     0
1070
   279
1070
     0
1070
   173
1070
     1
1070
   340
1005
C6
1070
   271
1070
     2
1070
   272
1070
     3
1070
    77
1070
     1
1070
    73
1070
     1
1070
   171
1070
     3
1070
   274
1070
     4
1070
   177
1070
     2
1070
   176
1070
     2
1070
   178
1070
     2
1070
    78
1070
     8
1070
    48
1040
-0.1
1070
    41
1040
3.5
1070
   147
1040
1.5
1070
    42
1040
1.5875
1070
    44
1040
2.0
1070
   140
1040
3.0
1002
}
1001
ACAD_DSTYLE_DIM_LINETYPE
1070
   380
1005
16
1001
ACAD_DSTYLE_DIM_EXT1_LINETYPE
1070
   381
1005
16
1001
ACAD_DSTYLE_DIM_EXT2_LINETYPE
1070
   382
1005
16
0
DIMENSION
5
131
100
AcDbEntity
8
2
62
256
6
ByLayer
370
18
48
1
60
0
100
AcDbDimension
2
_U3
10
4
20
-33.944383
30
0
11
7
21
-33.944383
31
0
70
32
71
1
72
1
41
1
210
0
220
0
230
1
3
Standard
100
AcDbAlignedDimension
13
10
23
0
33
0
14
4
24
-0.65
34
0
50
0
100
AcDbRotatedDimension
1001
ACAD
1000
DSTYLE
1002
{
1070
   371
1070
    13
1070
   372
1070
    13
1070
     3
1000

1070
   170
1070
     0
1070
   144
1040
1.0
1070
   277
1070
     2
1070
   284
1070
     8
1070
   278
1070
    46
1070
   146
1040
1.166667
1070
   345
1005
16
1070
   347
1005
16
1070
   346
1005
16
1070
   344
1005
0
1070
   343
1005
0
1070
   172
1070
     1
1070
    76
1070
     0
1070
    75
1070
     0
1070
   282
1070
     0
1070
   281
1070
     0
1070
    71
1070
     0
1070
    74
1070
     0
1070
   279
1070
     0
1070
   173
1070
     1
1070
   340
1005
C6
1070
   271
1070
     2
1070
   272
1070
     3
1070
    77
1070
     1
1070
    73
1070
     1
1070
   171
1070
     3
1070
   274
1070
     4
1070
   177
1070
     2
1070
   176
1070
     2
1070
   178
1070
     2
1070
    78
1070
     8
1070
    48
1040
-0.1
1070
    41
1040
3.5
1070
   147
1040
1.5
1070
    42
1040
1.5875
1070
    44
1040
2.0
1070
   140
1040
3.0
1002
}
1001
ACAD_DSTYLE_DIM_LINETYPE
1070
   380
1005
16
1001
ACAD_DSTYLE_DIM_EXT1_LINETYPE
1070
   381
1005
16
1001
ACAD_DSTYLE_DIM_EXT2_LINETYPE
1070
   382
1005
16
0
ENDSEC
0
SECTION
2
OBJECTS
0
DICTIONARY
5
1bc
330
0
100
AcDbDictionary
280
0
281
1
3
ACAD_GROUP
350
1bd
3
ACAD_MLINESTYLE
350
1be
0
DICTIONARY
5
1bd
330
0
100
AcDbDictionary
280
0
281
1
0
DICTIONARY
5
1be
330
0
100
AcDbDictionary
280
0
281
1
3
Standard
350
18
0
MLINESTYLE
5
18
330
1be
100
AcDbMlineStyle
2
Standard
70
0
3

62
256
51
90
52
90
71
2
49
-0.5
62
256
6
ByLayer
49
0.5
62
256
6
ByLayer
0
RASTERVARIABLES
5
1a8
330

100
AcDbRasterVariables
90
0
70
1
71
1
72
1
0
ENDSEC
0
EOF
