0
SECTION
2
HEADER
9
$ACADVER
1
AC1015
9
$DWGCODEPAGE
3
ANSI_1252
9
$HANDSEED
5
1ce
9
$ANGBASE
50
0
9
$ANGDIR
70
0
9
$ATTMODE
70
1
9
$AUNITS
70
0
9
$AUPREC
70
0
9
$CECOLOR
62
256
9
$CELTSCALE
40
1
9
$CELTYPE
6
ByLayer
9
$CELWEIGHT
370
18
9
$CLAYER
8
0
9
$CMLJUST
70
0
9
$CMLSCALE
40
1
9
$CMLSTYLE
2
Standard
9
$DIMSTYLE
2
Standard
9
$TEXTSIZE
40
0.2
9
$TEXTSTYLE
7
Standard
9
$LUNITS
70
2
9
$LUPREC
70
4
9
$EXTNAMES
290
1
9
$INSUNITS
70
4
9
$LTSCALE
40
1
9
$LWDISPLAY
290
1
9
$PDMODE
70
0
9
$PDSIZE
40
0
9
$PLINEGEN
70
0
0
ENDSEC
0
SECTION
2
CLASSES
0
CLASS
1
RASTERVARIABLES
2
AcDbRasterVariables
3
ISM
90
0
280
0
281
0
0
ENDSEC
0
SECTION
2
TABLES
0
TABLE
2
VPORT
5
1c4
100
AcDbSymbolTable
0
VPORT
5
1
100
AcDbSymbolTableRecord
100
AcDbViewportTableRecord
2
*Active
70
0
10
0
20
0
11
1
21
1
12
-1
22
1
13
0
23
0
14
0.5
24
0.5
15
10
25
10
16
0
26
0
36
1
17
0
27
0
37
0
0
ENDTAB
0
TABLE
2
LTYPE
5
1c5
100
AcDbSymbolTable
0
LTYPE
5
14
100
AcDbSymbolTableRecord
100
AcDbLinetypeTableRecord
70
0
2
ByBlock
3

72
65
73
0
40
0
0
LTYPE
5
15
100
AcDbSymbolTableRecord
100
AcDbLinetypeTableRecord
70
0
2
ByLayer
3

72
65
73
0
40
0
0
LTYPE
5
16
100
AcDbSymbolTableRecord
100
AcDbLinetypeTableRecord
70
0
2
Continuous
3
Solid line
72
65
73
0
40
0
0
LTYPE
5
6E
100
AcDbSymbolTableRecord
100
AcDbLinetypeTableRecord
70
0
2
CENTER
3
____ _ ____ _ ____ _ ____
72
65
73
4
40
47.5
49
22
74
0
49
-8.5
74
0
49
8.5
74
0
49
-8.5
74
0
0
LTYPE
5
6F
100
AcDbSymbolTableRecord
100
AcDbLinetypeTableRecord
70
0
2
DASHED
3
__ __ __ __ __ __ __ __ __
72
65
73
2
40
25.72
49
12.86
74
0
49
-12.86
74
0
0
ENDTAB
0
TABLE
2
LAYER
5
1c6
100
AcDbSymbolTable
0
LAYER
5
10
100
AcDbSymbolTableRecord
100
AcDbLayerTableRecord
2
0
70
0
62
7
6
Continuous
290
1
370
-3
390
0
0
LAYER
5
71
100
AcDbSymbolTableRecord
100
AcDbLayerTableRecord
2
81
70
0
62
-3
6
Continuous
290
1
370
-3
390
0
0
LAYER
5
73
100
AcDbSymbolTableRecord
100
AcDbLayerTableRecord
2
80
70
0
62
-6
6
Continuous
290
1
370
-3
390
0
0
LAYER
5
75
100
AcDbSymbolTableRecord
100
AcDbLayerTableRecord
2
1
70
0
62
4
6
Continuous
290
1
370
-3
390
0
0
LAYER
5
7F
100
AcDbSymbolTableRecord
100
AcDbLayerTableRecord
2
4
70
0
62
-2
6
CENTER
290
1
370
-3
390
0
0
LAYER
5
A6
100
AcDbSymbolTableRecord
100
AcDbLayerTableRecord
2
2
70
0
62
7
6
Continuous
290
1
370
-3
390
0
0
LAYER
5
F1
100
AcDbSymbolTableRecord
100
AcDbLayerTableRecord
2
Defpoints
70
0
62
7
6
Continuous
290
0
370
-3
390
0
0
LAYER
5
1ae
100
AcDbSymbolTableRecord
100
AcDbLayerTableRecord
2
SK4
70
0
62
2
6
CENTER
290
1
370
-3
390
0
0
LAYER
5
1af
100
AcDbSymbolTableRecord
100
AcDbLayerTableRecord
2
SK1
70
0
62
4
6
Continuous
290
1
370
-3
390
0
0
LAYER
5
1b0
100
AcDbSymbolTableRecord
100
AcDbLayerTableRecord
2
SK2
70
0
62
7
6
Continuous
290
1
370
-3
390
0
0
LAYER
5
1b1
100
AcDbSymbolTableRecord
100
AcDbLayerTableRecord
2
CUT
70
0
62
-1
6
Continuous
290
1
370
-3
390
0
0
LAYER
5
1b2
100
AcDbSymbolTableRecord
100
AcDbLayerTableRecord
2
NOCUT
70
0
62
-7
6
Continuous
290
1
370
-3
390
0
0
LAYER
5
1b3
100
AcDbSymbolTableRecord
100
AcDbLayerTableRecord
2
SK6
70
0
62
5
6
Continuous
290
1
370
-3
390
0
0
ENDTAB
0
TABLE
2
STYLE
5
1c7
100
AcDbSymbolTable
0
STYLE
5
11
100
AcDbSymbolTableRecord
100
AcDbTextStyleTableRecord
2
Standard
3
txt
70
0
71
0
40
0
41
1
42
0
50
0
0
STYLE
5
CD
100
AcDbSymbolTableRecord
100
AcDbTextStyleTableRecord
2
iso_b_vert
3
simplex.shx
70
0
71
0
40
0
41
1
42
0
50
0
0
STYLE
5
CE
100
AcDbSymbolTableRecord
100
AcDbTextStyleTableRecord
2
DWGDirectTextStyle
3
simplex
70
0
71
0
40
0
41
1
42
0
50
0
0
ENDTAB
0
TABLE
2
DIMSTYLE
5
1c8
100
AcDbSymbolTable
100
AcDbDimStyleTable
0
DIMSTYLE
105
27
100
AcDbSymbolTableRecord
100
AcDbDimStyleTableRecord
2
Standard
70
0
3
<>
41
0.18
42
0.0625
44
0.18
140
0.18
147
0.09
73
0
74
0
77
1
271
2
275
0
278
52
280
0
340
11
0
ENDTAB
0
TABLE
2
VIEW
5
1c9
100
AcDbSymbolTable
0
ENDTAB
0
TABLE
2
UCS
5
1ca
100
AcDbSymbolTable
0
ENDTAB
0
TABLE
2
APPID
5
1cb
100
AcDbSymbolTable
0
APPID
5
12
100
AcDbSymbolTableRecord
100
AcDbRegAppTableRecord
2
ACAD
70
0
0
APPID
5
ED
100
AcDbSymbolTableRecord
100
AcDbRegAppTableRecord
2
ACAD_DSTYLE_DIMBREAK
70
0
0
APPID
5
16D
100
AcDbSymbolTableRecord
100
AcDbRegAppTableRecord
2
ACAD_DSTYLE_DIM_LINETYPE
70
0
0
APPID
5
16E
100
AcDbSymbolTableRecord
100
AcDbRegAppTableRecord
2
ACAD_DSTYLE_DIM_EXT1_LINETYPE
70
0
0
APPID
5
16F
100
AcDbSymbolTableRecord
100
AcDbRegAppTableRecord
2
ACAD_DSTYLE_DIM_EXT2_LINETYPE
70
0
0
APPID
5
1AA
100
AcDbSymbolTableRecord
100
AcDbRegAppTableRecord
2
ACAD_MLEADERVER
70
0
0
ENDTAB
0
TABLE
2
BLOCK_RECORD
5
1cc
100
AcDbSymbolTable
0
BLOCK_RECORD
5
1F
100
AcDbSymbolTableRecord
100
AcDbBlockTableRecord
2
*Model_Space
340
0
70
0
0
BLOCK_RECORD
5
1B
100
AcDbSymbolTableRecord
100
AcDbBlockTableRecord
2
*Paper_Space
340
0
70
0
0
BLOCK_RECORD
5
23
100
AcDbSymbolTableRecord
100
AcDbBlockTableRecord
2
*Paper_Space0
340
0
70
0
0
BLOCK_RECORD
5
F2
100
AcDbSymbolTableRecord
100
AcDbBlockTableRecord
2
*D1
340
0
70
0
0
BLOCK_RECORD
5
FE
100
AcDbSymbolTableRecord
100
AcDbBlockTableRecord
2
_U0
340
0
70
0
0
BLOCK_RECORD
5
10A
100
AcDbSymbolTableRecord
100
AcDbBlockTableRecord
2
*D3
340
0
70
0
0
BLOCK_RECORD
5
116
100
AcDbSymbolTableRecord
100
AcDbBlockTableRecord
2
_U1
340
0
70
0
0
BLOCK_RECORD
5
122
100
AcDbSymbolTableRecord
100
AcDbBlockTableRecord
2
*D5
340
0
70
0
0
BLOCK_RECORD
5
12E
100
AcDbSymbolTableRecord
100
AcDbBlockTableRecord
2
_U2
340
0
70
0
0
BLOCK_RECORD
5
13A
100
AcDbSymbolTableRecord
100
AcDbBlockTableRecord
2
*D7
340
0
70
0
0
BLOCK_RECORD
5
146
100
AcDbSymbolTableRecord
100
AcDbBlockTableRecord
2
_U3
340
0
70
0
0
ENDTAB
0
ENDSEC
0
SECTION
2
BLOCKS
0
BLOCK
5
20
100
AcDbEntity
8
0
100
AcDbBlockBegin
2
*Model_Space
70
0
10
0
20
0
30
0
3
*Model_Space
0
ENDBLK
5
21
100
AcDbEntity
8
0
100
AcDbBlockEnd
0
BLOCK
5
1C
100
AcDbEntity
8
0
100
AcDbBlockBegin
2
*Paper_Space
70
0
10
0
20
0
30
0
3
*Paper_Space
0
ENDBLK
5
1D
100
AcDbEntity
8
0
100
AcDbBlockEnd
0
BLOCK
5
24
100
AcDbEntity
8
0
100
AcDbBlockBegin
2
*Paper_Space0
70
0
10
0
20
0
30
0
3
*Paper_Space0
0
ENDBLK
5
25
100
AcDbEntity
8
0
100
AcDbBlockEnd
0
BLOCK
5
F3
100
AcDbEntity
8
0
100
AcDbBlockBegin
2
*D1
70
1
10
0
20
0
30
0
3
*D1
0
LINE
5
F5
100
AcDbEntity
8
0
62
256
6
ByLayer
370
-2
48
1
60
0
100
AcDbLine
10
-44
20
-6.3875
30
0
11
-44
21
-53.092645
31
0
39
0
210
0
220
0
230
1
0
LINE
5
F6
100
AcDbEntity
8
0
62
256
6
ByLayer
370
-2
48
1
60
0
100
AcDbLine
10
89
20
-1.5875
30
0
11
89
21
-53.092645
31
0
39
0
210
0
220
0
230
1
0
LINE
5
F7
100
AcDbEntity
8
0
62
256
6
ByLayer
370
-2
48
1
60
0
100
AcDbLine
10
-40.5
20
-51.092645
30
0
11
85.5
21
-51.092645
31
0
39
0
210
0
220
0
230
1
0
SOLID
5
F8
100
AcDbEntity
8
0
62
256
6
ByLayer
370
-1
48
1
60
0
100
AcDbTrace
10
-40.5
20
-50.509312
30
0
11
-40.5
21
-51.675978
31
0
12
-44
22
-51.092645
32
0
13
-44
23
-51.092645
33
0
39
0
210
0
220
0
230
1
0
SOLID
5
F9
100
AcDbEntity
8
0
62
256
6
ByLayer
370
-1
48
1
60
0
100
AcDbTrace
10
85.5
20
-51.675978
30
0
11
85.5
21
-50.509312
31
0
12
89
22
-51.092645
32
0
13
89
23
-51.092645
33
0
39
0
210
0
220
0
230
1
0
MTEXT
5
FA
100
AcDbEntity
8
0
62
256
6
ByLayer
370
18
48
1
60
0
100
AcDbMText
10
22.5
20
-45.092645
30
0
210
0
220
0
230
1
1
\A1;133
40
3
41
0
44
1
50
0
71
5
72
5
7
iso_b_vert
0
POINT
5
FB
100
AcDbEntity
8
Defpoints
62
0
6
ByLayer
370
-1
48
1
60
0
100
AcDbPoint
10
-44
20
-4.8
30
0
39
0
210
0
220
0
230
1
50
360
0
POINT
5
FC
100
AcDbEntity
8
Defpoints
62
0
6
ByLayer
370
-1
48
1
60
0
100
AcDbPoint
10
89
20
0
30
0
39
0
210
0
220
0
230
1
50
360
0
POINT
5
FD
100
AcDbEntity
8
Defpoints
62
0
6
ByLayer
370
-1
48
1
60
0
100
AcDbPoint
10
89
20
-51.092645
30
0
39
0
210
0
220
0
230
1
50
360
0
ENDBLK
5
F4
100
AcDbEntity
8
0
100
AcDbBlockEnd
0
BLOCK
5
105
100
AcDbEntity
8
0
100
AcDbBlockBegin
2
_U0
70
0
10
0
20
0
30
0
3
_U0
0
MTEXT
5
FF
100
AcDbEntity
8
SK2
62
256
6
ByLayer
370
18
48
1
60
0
100
AcDbMText
10
17.271658
20
-50.207531
30
0
210
0
220
0
230
1
1
\W0.7022;133.00
40
3
41
0
44
1.084337
50
0
71
7
72
5
7
iso_b_vert
0
LINE
5
100
100
AcDbEntity
8
SK2
62
256
6
ByLayer
370
13
48
1
60
0
100
AcDbLine
10
-44
20
-6.3875
30
0
11
-44
21
-53.092645
31
0
39
0
210
0
220
0
230
1
0
LINE
5
101
100
AcDbEntity
8
SK2
62
256
6
ByLayer
370
13
48
1
60
0
100
AcDbLine
10
89
20
-1.5875
30
0
11
89
21
-53.092645
31
0
39
0
210
0
220
0
230
1
0
LINE
5
102
100
AcDbEntity
8
SK2
62
256
6
ByLayer
370
13
48
1
60
0
100
AcDbLine
10
-44
20
-51.092645
30
0
11
89
21
-51.092645
31
0
39
0
210
0
220
0
230
1
0
SOLID
5
103
100
AcDbEntity
8
SK2
62
256
6
ByLayer
370
18
48
1
60
0
100
AcDbTrace
10
-44
20
-51.092645
30
0
11
-40.500002
21
-50.631861
31
0
12
-40.499998
22
-51.553429
32
0
13
-40.499998
23
-51.553429
33
0
39
0
210
0
220
0
230
1
0
SOLID
5
104
100
AcDbEntity
8
SK2
62
256
6
ByLayer
370
18
48
1
60
0
100
AcDbTrace
10
89
20
-51.092645
30
0
11
85.500002
21
-51.553429
31
0
12
85.499998
22
-50.631861
32
0
13
85.499998
23
-50.631861
33
0
39
0
210
0
220
0
230
1
0
ENDBLK
5
106
100
AcDbEntity
8
0
100
AcDbBlockEnd
0
BLOCK
5
10B
100
AcDbEntity
8
0
100
AcDbBlockBegin
2
*D3
70
1
10
0
20
0
30
0
3
*D3
0
LINE
5
10D
100
AcDbEntity
8
0
62
256
6
ByLayer
370
-2
48
1
60
0
100
AcDbLine
10
89
20
-1.5875
30
0
11
89
21
-43.092645
31
0
39
0
210
0
220
0
230
1
0
LINE
5
10E
100
AcDbEntity
8
0
62
256
6
ByLayer
370
-2
48
1
60
0
100
AcDbLine
10
2
20
-6.3875
30
0
11
2
21
-43.092645
31
0
39
0
210
0
220
0
230
1
0
LINE
5
10F
100
AcDbEntity
8
0
62
256
6
ByLayer
370
-2
48
1
60
0
100
AcDbLine
10
85.5
20
-41.092645
30
0
11
5.5
21
-41.092645
31
0
39
0
210
0
220
0
230
1
0
SOLID
5
110
100
AcDbEntity
8
0
62
256
6
ByLayer
370
-1
48
1
60
0
100
AcDbTrace
10
85.5
20
-41.675978
30
0
11
85.5
21
-40.509312
31
0
12
89
22
-41.092645
32
0
13
89
23
-41.092645
33
0
39
0
210
0
220
0
230
1
0
SOLID
5
111
100
AcDbEntity
8
0
62
256
6
ByLayer
370
-1
48
1
60
0
100
AcDbTrace
10
5.5
20
-40.509312
30
0
11
5.5
21
-41.675978
31
0
12
2
22
-41.092645
32
0
13
2
23
-41.092645
33
0
39
0
210
0
220
0
230
1
0
MTEXT
5
112
100
AcDbEntity
8
0
62
256
6
ByLayer
370
18
48
1
60
0
100
AcDbMText
10
45.5
20
-35.092645
30
0
210
0
220
0
230
1
1
\A1;87
40
3
41
0
44
1
50
0
71
5
72
5
7
iso_b_vert
0
POINT
5
113
100
AcDbEntity
8
Defpoints
62
0
6
ByLayer
370
-1
48
1
60
0
100
AcDbPoint
10
89
20
0
30
0
39
0
210
0
220
0
230
1
50
360
0
POINT
5
114
100
AcDbEntity
8
Defpoints
62
0
6
ByLayer
370
-1
48
1
60
0
100
AcDbPoint
10
2
20
-4.8
30
0
39
0
210
0
220
0
230
1
50
360
0
POINT
5
115
100
AcDbEntity
8
Defpoints
62
0
6
ByLayer
370
-1
48
1
60
0
100
AcDbPoint
10
2
20
-41.092645
30
0
39
0
210
0
220
0
230
1
50
360
0
ENDBLK
5
10C
100
AcDbEntity
8
0
100
AcDbBlockEnd
0
BLOCK
5
11D
100
AcDbEntity
8
0
100
AcDbBlockBegin
2
_U1
70
0
10
0
20
0
30
0
3
_U1
0
MTEXT
5
117
100
AcDbEntity
8
2
62
256
6
ByLayer
370
18
48
1
60
0
100
AcDbMText
10
41.01763
20
-40.207531
30
0
210
0
220
0
230
1
1
\W0.7468;87.00
40
3
41
0
44
1.084337
50
0
71
7
72
5
7
iso_b_vert
0
LINE
5
118
100
AcDbEntity
8
2
62
256
6
ByLayer
370
13
48
1
60
0
100
AcDbLine
10
89
20
-1.5875
30
0
11
89
21
-43.092645
31
0
39
0
210
0
220
0
230
1
0
LINE
5
119
100
AcDbEntity
8
2
62
256
6
ByLayer
370
13
48
1
60
0
100
AcDbLine
10
2
20
-6.3875
30
0
11
2
21
-43.092645
31
0
39
0
210
0
220
0
230
1
0
LINE
5
11A
100
AcDbEntity
8
2
62
256
6
ByLayer
370
13
48
1
60
0
100
AcDbLine
10
89
20
-41.092645
30
0
11
2
21
-41.092645
31
0
39
0
210
0
220
0
230
1
0
SOLID
5
11B
100
AcDbEntity
8
2
62
256
6
ByLayer
370
18
48
1
60
0
100
AcDbTrace
10
89
20
-41.092645
30
0
11
85.500002
21
-41.553429
31
0
12
85.499998
22
-40.631861
32
0
13
85.499998
23
-40.631861
33
0
39
0
210
0
220
0
230
1
0
SOLID
5
11C
100
AcDbEntity
8
2
62
256
6
ByLayer
370
18
48
1
60
0
100
AcDbTrace
10
2
20
-41.092645
30
0
11
5.499998
21
-40.631861
31
0
12
5.500002
22
-41.553429
32
0
13
5.500002
23
-41.553429
33
0
39
0
210
0
220
0
230
1
0
ENDBLK
5
11E
100
AcDbEntity
8
0
100
AcDbBlockEnd
0
BLOCK
5
123
100
AcDbEntity
8
0
100
AcDbBlockBegin
2
*D5
70
1
10
0
20
0
30
0
3
*D5
0
LINE
5
125
100
AcDbEntity
8
0
62
256
6
ByLayer
370
-2
48
1
60
0
100
AcDbLine
10
-44
20
-6.3875
30
0
11
-44
21
-38.092645
31
0
39
0
210
0
220
0
230
1
0
LINE
5
126
100
AcDbEntity
8
0
62
256
6
ByLayer
370
-2
48
1
60
0
100
AcDbLine
10
0
20
-6.3875
30
0
11
0
21
-38.092645
31
0
39
0
210
0
220
0
230
1
0
LINE
5
127
100
AcDbEntity
8
0
62
256
6
ByLayer
370
-2
48
1
60
0
100
AcDbLine
10
-40.5
20
-36.092645
30
0
11
-3.5
21
-36.092645
31
0
39
0
210
0
220
0
230
1
0
SOLID
5
128
100
AcDbEntity
8
0
62
256
6
ByLayer
370
-1
48
1
60
0
100
AcDbTrace
10
-40.5
20
-35.509312
30
0
11
-40.5
21
-36.675978
31
0
12
-44
22
-36.092645
32
0
13
-44
23
-36.092645
33
0
39
0
210
0
220
0
230
1
0
SOLID
5
129
100
AcDbEntity
8
0
62
256
6
ByLayer
370
-1
48
1
60
0
100
AcDbTrace
10
-3.5
20
-36.675978
30
0
11
-3.5
21
-35.509312
31
0
12
0
22
-36.092645
32
0
13
0
23
-36.092645
33
0
39
0
210
0
220
0
230
1
0
MTEXT
5
12A
100
AcDbEntity
8
0
62
256
6
ByLayer
370
18
48
1
60
0
100
AcDbMText
10
-22
20
-30.092645
30
0
210
0
220
0
230
1
1
\A1;44
40
3
41
0
44
1
50
0
71
5
72
5
7
iso_b_vert
0
POINT
5
12B
100
AcDbEntity
8
Defpoints
62
0
6
ByLayer
370
-1
48
1
60
0
100
AcDbPoint
10
-44
20
-4.8
30
0
39
0
210
0
220
0
230
1
50
360
0
POINT
5
12C
100
AcDbEntity
8
Defpoints
62
0
6
ByLayer
370
-1
48
1
60
0
100
AcDbPoint
10
0
20
-4.8
30
0
39
0
210
0
220
0
230
1
50
360
0
POINT
5
12D
100
AcDbEntity
8
Defpoints
62
0
6
ByLayer
370
-1
48
1
60
0
100
AcDbPoint
10
0
20
-36.092645
30
0
39
0
210
0
220
0
230
1
50
360
0
ENDBLK
5
124
100
AcDbEntity
8
0
100
AcDbBlockEnd
0
BLOCK
5
135
100
AcDbEntity
8
0
100
AcDbBlockBegin
2
_U2
70
0
10
0
20
0
30
0
3
_U2
0
MTEXT
5
12F
100
AcDbEntity
8
SK2
62
256
6
ByLayer
370
18
48
1
60
0
100
AcDbMText
10
-26.798256
20
-35.207531
30
0
210
0
220
0
230
1
1
\W0.7958;44.00
40
3
41
0
44
1.084337
50
0
71
7
72
5
7
iso_b_vert
0
LINE
5
130
100
AcDbEntity
8
SK2
62
256
6
ByLayer
370
13
48
1
60
0
100
AcDbLine
10
-44
20
-6.3875
30
0
11
-44
21
-38.092645
31
0
39
0
210
0
220
0
230
1
0
LINE
5
131
100
AcDbEntity
8
SK2
62
256
6
ByLayer
370
13
48
1
60
0
100
AcDbLine
10
0
20
-6.3875
30
0
11
0
21
-38.092645
31
0
39
0
210
0
220
0
230
1
0
LINE
5
132
100
AcDbEntity
8
SK2
62
256
6
ByLayer
370
13
48
1
60
0
100
AcDbLine
10
-44
20
-36.092645
30
0
11
0
21
-36.092645
31
0
39
0
210
0
220
0
230
1
0
SOLID
5
133
100
AcDbEntity
8
SK2
62
256
6
ByLayer
370
18
48
1
60
0
100
AcDbTrace
10
-44
20
-36.092645
30
0
11
-40.500002
21
-35.631861
31
0
12
-40.499998
22
-36.553429
32
0
13
-40.499998
23
-36.553429
33
0
39
0
210
0
220
0
230
1
0
SOLID
5
134
100
AcDbEntity
8
SK2
62
256
6
ByLayer
370
18
48
1
60
0
100
AcDbTrace
10
0
20
-36.092645
30
0
11
-3.499998
21
-36.553429
31
0
12
-3.500002
22
-35.631861
32
0
13
-3.500002
23
-35.631861
33
0
39
0
210
0
220
0
230
1
0
ENDBLK
5
136
100
AcDbEntity
8
0
100
AcDbBlockEnd
0
BLOCK
5
13B
100
AcDbEntity
8
0
100
AcDbBlockBegin
2
*D7
70
1
10
0
20
0
30
0
3
*D7
0
LINE
5
13D
100
AcDbEntity
8
0
62
256
6
ByLayer
370
-2
48
1
60
0
100
AcDbLine
10
89
20
-1.5875
30
0
11
89
21
-36.092645
31
0
39
0
210
0
220
0
230
1
0
LINE
5
13E
100
AcDbEntity
8
0
62
256
6
ByLayer
370
-2
48
1
60
0
100
AcDbLine
10
23.75
20
-6.3875
30
0
11
23.75
21
-36.092645
31
0
39
0
210
0
220
0
230
1
0
LINE
5
13F
100
AcDbEntity
8
0
62
256
6
ByLayer
370
-2
48
1
60
0
100
AcDbLine
10
85.5
20
-34.092645
30
0
11
27.25
21
-34.092645
31
0
39
0
210
0
220
0
230
1
0
SOLID
5
140
100
AcDbEntity
8
0
62
256
6
ByLayer
370
-1
48
1
60
0
100
AcDbTrace
10
85.5
20
-34.675978
30
0
11
85.5
21
-33.509312
31
0
12
89
22
-34.092645
32
0
13
89
23
-34.092645
33
0
39
0
210
0
220
0
230
1
0
SOLID
5
141
100
AcDbEntity
8
0
62
256
6
ByLayer
370
-1
48
1
60
0
100
AcDbTrace
10
27.25
20
-33.509312
30
0
11
27.25
21
-34.675978
31
0
12
23.75
22
-34.092645
32
0
13
23.75
23
-34.092645
33
0
39
0
210
0
220
0
230
1
0
MTEXT
5
142
100
AcDbEntity
8
0
62
256
6
ByLayer
370
18
48
1
60
0
100
AcDbMText
10
56.375
20
-28.092645
30
0
210
0
220
0
230
1
1
\A1;65.25
40
3
41
0
44
1
50
0
71
5
72
5
7
iso_b_vert
0
POINT
5
143
100
AcDbEntity
8
Defpoints
62
0
6
ByLayer
370
-1
48
1
60
0
100
AcDbPoint
10
89
20
0
30
0
39
0
210
0
220
0
230
1
50
360
0
POINT
5
144
100
AcDbEntity
8
Defpoints
62
0
6
ByLayer
370
-1
48
1
60
0
100
AcDbPoint
10
23.75
20
-4.8
30
0
39
0
210
0
220
0
230
1
50
360
0
POINT
5
145
100
AcDbEntity
8
Defpoints
62
0
6
ByLayer
370
-1
48
1
60
0
100
AcDbPoint
10
23.75
20
-34.092645
30
0
39
0
210
0
220
0
230
1
50
360
0
ENDBLK
5
13C
100
AcDbEntity
8
0
100
AcDbBlockEnd
0
BLOCK
5
14D
100
AcDbEntity
8
0
100
AcDbBlockBegin
2
_U3
70
0
10
0
20
0
30
0
3
_U3
0
MTEXT
5
147
100
AcDbEntity
8
2
62
256
6
ByLayer
370
18
48
1
60
0
100
AcDbMText
10
51.89263
20
-33.207531
30
0
210
0
220
0
230
1
1
\W0.7468;65.25
40
3
41
0
44
1.084337
50
0
71
7
72
5
7
iso_b_vert
0
LINE
5
148
100
AcDbEntity
8
2
62
256
6
ByLayer
370
13
48
1
60
0
100
AcDbLine
10
89
20
-1.5875
30
0
11
89
21
-36.092645
31
0
39
0
210
0
220
0
230
1
0
LINE
5
149
100
AcDbEntity
8
2
62
256
6
ByLayer
370
13
48
1
60
0
100
AcDbLine
10
23.75
20
-6.3875
30
0
11
23.75
21
-36.092645
31
0
39
0
210
0
220
0
230
1
0
LINE
5
14A
100
AcDbEntity
8
2
62
256
6
ByLayer
370
13
48
1
60
0
100
AcDbLine
10
89
20
-34.092645
30
0
11
23.75
21
-34.092645
31
0
39
0
210
0
220
0
230
1
0
SOLID
5
14B
100
AcDbEntity
8
2
62
256
6
ByLayer
370
18
48
1
60
0
100
AcDbTrace
10
89
20
-34.092645
30
0
11
85.500002
21
-34.553429
31
0
12
85.499998
22
-33.631861
32
0
13
85.499998
23
-33.631861
33
0
39
0
210
0
220
0
230
1
0
SOLID
5
14C
100
AcDbEntity
8
2
62
256
6
ByLayer
370
18
48
1
60
0
100
AcDbTrace
10
23.75
20
-34.092645
30
0
11
27.249998
21
-33.631861
31
0
12
27.250002
22
-34.553429
32
0
13
27.250002
23
-34.553429
33
0
39
0
210
0
220
0
230
1
0
ENDBLK
5
14E
100
AcDbEntity
8
0
100
AcDbBlockEnd
0
ENDSEC
0
SECTION
2
ENTITIES
0
ARC
5
B7
100
AcDbEntity
8
2
62
256
6
ByLayer
370
13
48
1
60
0
100
AcDbCircle
39
0
10
89
20
0
30
0
40
22.0000000000001
210
0
220
0
230
1
100
AcDbArc
50
7.83748
51
61.596605
0
ARC
5
B8
100
AcDbEntity
8
2
62
256
6
ByLayer
370
13
48
1
60
0
100
AcDbCircle
39
0
10
89
20
0
30
0
40
22.0000000000001
210
0
220
0
230
1
100
AcDbArc
50
298.403395
51
352.16252
0
POINT
5
70
100
AcDbEntity
8
81
62
256
6
ByLayer
370
18
48
1
60
0
100
AcDbPoint
10
89
20
0
30
0
39
0
210
0
220
0
230
1
50
360
0
POINT
5
72
100
AcDbEntity
8
80
62
256
6
ByLayer
370
18
48
1
60
0
100
AcDbPoint
10
0
20
0
30
0
39
0
210
0
220
0
230
1
50
360
0
POINT
5
74
100
AcDbEntity
8
1
62
256
6
ByLayer
370
18
48
1
60
1
100
AcDbPoint
10
-44
20
-4.8
30
0
39
0
210
0
220
0
230
1
50
360
0
POINT
5
76
100
AcDbEntity
8
1
62
256
6
ByLayer
370
18
48
1
60
1
100
AcDbPoint
10
89
20
0
30
0
39
0
210
0
220
0
230
1
50
360
0
POINT
5
77
100
AcDbEntity
8
1
62
256
6
ByLayer
370
18
48
1
60
1
100
AcDbPoint
10
89
20
0
30
0
39
0
210
0
220
0
230
1
50
360
0
POINT
5
78
100
AcDbEntity
8
1
62
256
6
ByLayer
370
18
48
1
60
1
100
AcDbPoint
10
2
20
-4.8
30
0
39
0
210
0
220
0
230
1
50
360
0
POINT
5
79
100
AcDbEntity
8
1
62
256
6
ByLayer
370
18
48
1
60
1
100
AcDbPoint
10
-44
20
-4.8
30
0
39
0
210
0
220
0
230
1
50
360
0
POINT
5
7A
100
AcDbEntity
8
1
62
256
6
ByLayer
370
18
48
1
60
1
100
AcDbPoint
10
0
20
-4.8
30
0
39
0
210
0
220
0
230
1
50
360
0
POINT
5
7B
100
AcDbEntity
8
1
62
256
6
ByLayer
370
18
48
1
60
1
100
AcDbPoint
10
89
20
0
30
0
39
0
210
0
220
0
230
1
50
360
0
POINT
5
7C
100
AcDbEntity
8
1
62
256
6
ByLayer
370
18
48
1
60
1
100
AcDbPoint
10
23.75
20
-4.8
30
0
39
0
210
0
220
0
230
1
50
360
0
SPLINE
5
B9
100
AcDbEntity
8
CUT
62
256
6
ByLayer
370
18
48
1
60
0
100
AcDbSpline
70
2053
71
3
72
17
73
13
40
0
40
0
40
0
40
0
40
0.472354791213844
40
0.472354791213844
40
0.472354791213844
40
0.511858125869837
40
0.511858125869837
40
0.511858125869837
40
0.96542214783229
40
0.96542214783229
40
0.96542214783229
40
1
40
1
40
1
40
1
41
1
10
23.75
20
0
30
0
41
1
10
45.5
20
0
30
0
41
1
10
67.25
20
0
30
0
41
1
10
89
20
0
30
0
41
1
10
88.1347607085939
20
1.60000000001182
30
0
41
1
10
87.2695214171878
20
3.20000000002366
30
0
41
1
10
86.4042821257817
20
4.80000000003548
30
0
41
1
10
65.5195214171872
20
4.79216821477024
30
0
41
1
10
44.6347607085927
20
4.784336429505
30
0
41
1
10
23.7499999999991
20
4.77650464423976
30
0
41
1
10
23.75
20
3.18433642949316
30
0
41
1
10
23.75
20
1.59216821474658
30
0
41
1
10
23.75
20
0
30
0
0
SPLINE
5
BB
100
AcDbEntity
8
NOCUT
62
256
6
ByLayer
370
18
48
1
60
0
100
AcDbSpline
70
2053
71
3
72
26
73
22
40
0
40
0
40
0
40
0
40
0.299021426505033
40
0.299021426505033
40
0.299021426505033
40
0.306354608414387
40
0.306354608414387
40
0.306354608414387
40
0.334355458757006
40
0.334355458757006
40
0.334355458757006
40
0.802764745363549
40
0.802764745363549
40
0.802764745363549
40
0.835788496402159
40
0.835788496402159
40
0.835788496402159
40
0.99722550911527
40
0.99722550911527
40
0.99722550911527
40
1
40
1
40
1
40
1
41
1
10
0
20
4.80000000000001
30
0
41
1
10
-14.4166666666667
20
4.80000000000001
30
0
41
1
10
-28.8333333333333
20
4.80000000000001
30
0
41
1
10
-43.25
20
4.80000000000001
30
0
41
1
10
-43.5
20
4.55000000000001
30
0
41
1
10
-43.75
20
4.30000000000001
30
0
41
1
10
-44
20
4.05000000000001
30
0
41
1
10
-44
20
2.69999999999999
30
0
41
1
10
-44
20
1.34999999999999
30
0
41
1
10
-44
20
0
30
0
41
1
10
-21.4166666666669
20
0
30
0
41
1
10
1.16666666666615
20
0
30
0
41
1
10
23.7499999999996
20
0
30
0
41
1
10
23.75
20
1.59216821474658
30
0
41
1
10
23.75
20
3.18433642949316
30
0
41
1
10
23.75
20
4.77650464423976
30
0
41
1
10
15.9666666666655
20
4.77358589423994
30
0
41
1
10
8.18333333333101
20
4.77066714424012
30
0
41
1
10
0.400000000127733
20
4.76774839422987
30
0
41
1
10
0.266666666839313
20
4.77849892947961
30
0
41
1
10
0.133333333419671
20
4.78924946473981
30
0
41
1
10
0
20
4.80000000000001
30
0
0
SPLINE
5
BD
100
AcDbEntity
8
1
62
256
6
ByLayer
370
18
48
1
60
0
100
AcDbSpline
70
4
71
3
72
114
73
110
40
0
40
0
40
0
40
0
40
0.0625000000000379
40
0.0625000000000379
40
0.125000000000076
40
0.125000000000076
40
0.156250000000095
40
0.156250000000095
40
0.187500000000114
40
0.187500000000114
40
0.218750000000133
40
0.218750000000133
40
0.23437500000014
40
0.23437500000014
40
0.250000000000148
40
0.250000000000148
40
0.265625000000155
40
0.265625000000155
40
0.273437500000157
40
0.273437500000157
40
0.281250000000159
40
0.281250000000159
40
0.289062500000161
40
0.289062500000161
40
0.296875000000163
40
0.296875000000163
40
0.312500000000167
40
0.312500000000167
40
0.320312500000168
40
0.320312500000168
40
0.328125000000168
40
0.328125000000168
40
0.335937500000168
40
0.335937500000168
40
0.343750000000168
40
0.343750000000168
40
0.359375000000168
40
0.359375000000168
40
0.375000000000168
40
0.375000000000168
40
0.406250000000169
40
0.406250000000169
40
0.421875000000167
40
0.421875000000167
40
0.437500000000166
40
0.437500000000166
40
0.453125000000164
40
0.453125000000164
40
0.460937500000163
40
0.460937500000163
40
0.468750000000163
40
0.468750000000163
40
0.484375000000159
40
0.484375000000159
40
0.492187500000157
40
0.492187500000157
40
0.496093750000156
40
0.496093750000156
40
0.500000000000155
40
0.500000000000155
40
0.515625000000151
40
0.515625000000151
40
0.523437500000149
40
0.523437500000149
40
0.527343750000148
40
0.527343750000148
40
0.531250000000146
40
0.531250000000146
40
0.546875000000138
40
0.546875000000138
40
0.56250000000013
40
0.56250000000013
40
0.578125000000123
40
0.578125000000123
40
0.593750000000115
40
0.593750000000115
40
0.609375000000107
40
0.609375000000107
40
0.617187500000103
40
0.617187500000103
40
0.625000000000099
40
0.625000000000099
40
0.656250000000091
40
0.656250000000091
40
0.671875000000087
40
0.671875000000087
40
0.687500000000083
40
0.687500000000083
40
0.703125000000079
40
0.703125000000079
40
0.718750000000075
40
0.718750000000075
40
0.734375000000071
40
0.734375000000071
40
0.750000000000067
40
0.750000000000067
40
0.781250000000059
40
0.781250000000059
40
0.812500000000051
40
0.812500000000051
40
0.843750000000044
40
0.843750000000044
40
0.875000000000036
40
0.875000000000036
40
0.906250000000028
40
0.906250000000028
40
0.93750000000002
40
0.93750000000002
40
1
40
1
40
1
40
1
41
1
10
86.4042821257818
20
4.64768867647325
30
0
41
1
10
86.5015314875077
20
4.45937646936341
30
0
41
1
10
86.5991678457013
20
4.27143483133383
30
0
41
1
10
86.7944147507833
20
3.89567780357422
30
0
41
1
10
86.8919385418893
20
3.7078037903573
30
0
41
1
10
87.0376654286471
20
3.42574294770915
30
0
41
1
10
87.086132113902
20
3.33167076132583
30
0
41
1
10
87.1827798740617
20
3.14338631554295
30
0
41
1
10
87.2309745337566
20
3.04918322874954
30
0
41
1
10
87.3271080974681
20
2.86066659666363
30
0
41
1
10
87.3750136615881
20
2.76633115314817
30
0
41
1
10
87.446592845921
20
2.62469773279736
30
0
41
1
10
87.4704083820321
20
2.57746642999592
30
0
41
1
10
87.5179738442841
20
2.48297954101719
30
0
41
1
10
87.5417289561175
20
2.43572712520819
30
0
41
1
10
87.5890640390427
20
2.34113048579528
30
0
41
1
10
87.6126316145559
20
2.29378146738506
30
0
41
1
10
87.6478394745773
20
2.22266450247122
30
0
41
1
10
87.6595497120068
20
2.19893908222039
30
0
41
1
10
87.6829310117769
20
2.1515003844344
30
0
41
1
10
87.6946044476662
20
2.12779586229277
30
0
41
1
10
87.7179668456921
20
2.0805728492825
30
0
41
1
10
87.7296568835253
20
2.05705777448577
30
0
41
1
10
87.7531160984728
20
2.01038546271073
30
0
41
1
10
87.7648845788211
20
1.98722555021351
30
0
41
1
10
87.8003781395058
20
1.91843198443968
30
0
41
1
10
87.8242798213061
20
1.87345099301564
30
0
41
1
10
87.8607633269918
20
1.80784342226107
30
0
41
1
10
87.8730379725528
20
1.7863071160001
30
0
41
1
10
87.8977890278194
20
1.74380090180796
30
0
41
1
10
87.9102676570999
20
1.72283662459998
30
0
41
1
10
87.9352408791046
20
1.68095701193147
30
0
41
1
10
87.9477217717348
20
1.660005043111
30
0
41
1
10
87.9725790377502
20
1.61783138062222
30
0
41
1
10
87.984968908937
20
1.59664651220095
30
0
41
1
10
88.0220544175991
20
1.53289609854446
30
0
41
1
10
88.0466573096035
20
1.49010920726471
30
0
41
1
10
88.0955359811794
20
1.40383047632159
30
0
41
1
10
88.1198226433099
20
1.36032075837622
30
0
41
1
10
88.1919773275048
20
1.22883883304974
30
0
41
1
10
88.2391763217985
20
1.13991788700832
30
0
41
1
10
88.3077113505627
20
1.00420226695513
30
0
41
1
10
88.3301702175092
20
0.958568522873151
30
0
41
1
10
88.3740358294429
20
0.866384757460935
30
0
41
1
10
88.3954468741719
20
0.819836763850219
30
0
41
1
10
88.4366904751417
20
0.72550990190939
30
0
41
1
10
88.45652565045
20
0.677729948093599
30
0
41
1
10
88.4844463488
20
0.604769671049866
30
0
41
1
10
88.4934561873763
20
0.580197723387982
30
0
41
1
10
88.5105790928347
20
0.530907028373093
30
0
41
1
10
88.518705922998
20
0.506154144881748
30
0
41
1
10
88.5415193932185
20
0.431506270065029
30
0
41
1
10
88.5546456680484
20
0.381223786864297
30
0
41
1
10
88.5699892413255
20
0.304713783494833
30
0
41
1
10
88.5743794980662
20
0.279029366602572
30
0
41
1
10
88.579672376089
20
0.24017953790883
30
0
41
1
10
88.5812226409682
20
0.227152904486331
30
0
41
1
10
88.5838386163747
20
0.201192679794445
30
0
41
1
10
88.5849076420599
20
0.188240346831179
30
0
41
1
10
88.5890211960033
20
0.123623376798861
30
0
41
1
10
88.5883181016744
20
0.0723950314506396
30
0
41
1
10
88.5811415082904
20
-0.0036521628746584
30
0
41
1
10
88.5777411339006
20
-0.0288694551722983
30
0
41
1
10
88.5712132281496
20
-0.0664941531614147
30
0
41
1
10
88.5687972364137
20
-0.0790084819653316
30
0
41
1
10
88.5635648387009
20
-0.103731238781791
30
0
41
1
10
88.5607435799951
20
-0.115970715259863
30
0
41
1
10
88.5456994252909
20
-0.176591136747788
30
0
41
1
10
88.5306914100987
20
-0.223256597036681
30
0
41
1
10
88.4965642636043
20
-0.313544235314168
30
0
41
1
10
88.4774368020122
20
-0.357155785832305
30
0
41
1
10
88.4363254951639
20
-0.441761825183846
30
0
41
1
10
88.4146734281341
20
-0.482034772876034
30
0
41
1
10
88.3700296622789
20
-0.559030732163194
30
0
41
1
10
88.3470292547006
20
-0.595778171892192
30
0
41
1
10
88.3001381859535
20
-0.666242101593298
30
0
41
1
10
88.2762425771663
20
-0.699954086768798
30
0
41
1
10
88.2398951379349
20
-0.74838951922456
30
0
41
1
10
88.2276938196806
20
-0.764176909470024
30
0
41
1
10
88.2031410069671
20
-0.795072135987709
30
0
41
1
10
88.1908172088463
20
-0.810144547520451
30
0
41
1
10
88.1293262245362
20
-0.883370267559229
30
0
41
1
10
88.0802437207098
20
-0.93537748605354
30
0
41
1
10
88.0068420228698
20
-1.00484524685319
30
0
41
1
10
87.9824071754398
20
-1.02657670148824
30
0
41
1
10
87.9335775458222
20
-1.06736187246204
30
0
41
1
10
87.9091832168987
20
-1.08641362360186
30
0
41
1
10
87.8604091196822
20
-1.12128675332977
30
0
41
1
10
87.8360068687956
20
-1.13714102528104
30
0
41
1
10
87.7872999019478
20
-1.16734710752584
30
0
41
1
10
87.762968412972
20
-1.18183040429625
30
0
41
1
10
87.7142033592748
20
-1.21138243952532
30
0
41
1
10
87.6897828933935
20
-1.22630757890647
30
0
41
1
10
87.6408617685457
20
-1.25670354431713
30
0
41
1
10
87.6163604354201
20
-1.2721874453693
30
0
41
1
10
87.542766464901
20
-1.31930650334624
30
0
41
1
10
87.493590719119
20
-1.35151542825989
30
0
41
1
10
87.3950716482
20
-1.41756539141937
30
0
41
1
10
87.3457270868871
20
-1.4514184339979
30
0
41
1
10
87.2468930066011
20
-1.52103637974574
30
0
41
1
10
87.1974026200609
20
-1.55681384801278
30
0
41
1
10
87.0982827055924
20
-1.63065873734703
30
0
41
1
10
87.0486864577356
20
-1.66868731339227
30
0
41
1
10
86.949523969867
20
-1.74694419496012
30
0
41
1
10
86.8999442571596
20
-1.78719005125183
30
0
41
1
10
86.8007932979848
20
-1.86978978517183
30
0
41
1
10
86.7512217036214
20
-1.91207801766927
30
0
41
1
10
86.6025201297856
20
-2.04249315438733
30
0
41
1
10
86.5034102321238
20
-2.13446950653682
30
0
41
1
10
86.4042821257818
20
-2.23384772898598
30
0
0
SPLINE
5
BE
100
AcDbEntity
8
1
62
256
6
ByLayer
370
18
48
1
60
0
100
AcDbSpline
70
4
71
3
72
86
73
82
40
0
40
0
40
0
40
0
40
0.0171397230215378
40
0.0171397230215378
40
0.0342794460430755
40
0.0342794460430755
40
0.068558892086151
40
0.068558892086151
40
0.102838338129227
40
0.102838338129227
40
0.137117784172302
40
0.137117784172302
40
0.171397230215378
40
0.171397230215378
40
0.188536953236913
40
0.188536953236913
40
0.205676676258449
40
0.205676676258449
40
0.239956122301521
40
0.239956122301521
40
0.274235568344593
40
0.274235568344593
40
0.308515014387665
40
0.308515014387665
40
0.3256547374092
40
0.3256547374092
40
0.334224598919969
40
0.334224598919969
40
0.342794460430737
40
0.342794460430737
40
0.359934183452274
40
0.359934183452274
40
0.377073906473811
40
0.377073906473811
40
0.411353352516884
40
0.411353352516884
40
0.445632798559958
40
0.445632798559958
40
0.479912244603032
40
0.479912244603032
40
0.514191690646106
40
0.514191690646106
40
0.531331413667642
40
0.531331413667642
40
0.548471136689178
40
0.548471136689178
40
0.582750582732248
40
0.582750582732248
40
0.617030028775318
40
0.617030028775318
40
0.651309474818388
40
0.651309474818388
40
0.668449197839923
40
0.668449197839923
40
0.677019059350689
40
0.677019059350689
40
0.685588920861456
40
0.685588920861456
40
0.702728643882991
40
0.702728643882991
40
0.719868366904526
40
0.719868366904526
40
0.754147812947596
40
0.754147812947596
40
0.788427258990666
40
0.788427258990666
40
0.822706705033736
40
0.822706705033736
40
0.856986151076807
40
0.856986151076807
40
0.874125874098343
40
0.874125874098343
40
0.891265597119879
40
0.891265597119879
40
0.925545043162952
40
0.925545043162952
40
0.959824489206026
40
0.959824489206026
40
0.9941039352491
40
0.9941039352491
40
1
40
1
40
1
40
1
41
1
10
86.4042821257827
20
-2.23384772898646
30
0
41
1
10
86.3017234128064
20
-2.18339947950582
30
0
41
1
10
86.1993064259339
20
-2.13256077942666
30
0
41
1
10
85.9946556732569
20
-2.0302804872554
30
0
41
1
10
85.8924264748883
20
-1.97883111814707
30
0
41
1
10
85.5860560769581
20
-1.82351015178469
30
0
41
1
10
85.3822544540919
20
-1.71862715893931
30
0
41
1
10
84.9756489196325
20
-1.5060063183829
30
0
41
1
10
84.772793220353
20
-1.3983577073127
30
0
41
1
10
84.3672292598825
20
-1.18172614006002
30
0
41
1
10
84.1645225297655
20
-1.07274326084132
30
0
41
1
10
83.7594739384616
20
-0.853066968764438
30
0
41
1
10
83.5572058847802
20
-0.742238059071099
30
0
41
1
10
83.2538183258054
20
-0.575175380892603
30
0
41
1
10
83.1526852234183
20
-0.519362923934722
30
0
41
1
10
82.9503108077904
20
-0.407672798411142
30
0
41
1
10
82.849070811244
20
-0.351792890617133
30
0
41
1
10
82.545224717246
20
-0.183990710024119
30
0
41
1
10
82.3425078669595
20
-0.0718785241439548
30
0
41
1
10
81.9369235609797
20
0.153133154215709
30
0
41
1
10
81.7340069063598
20
0.265943768920835
30
0
41
1
10
81.3271876930584
20
0.490805293136305
30
0
41
1
10
81.1232662994046
20
0.60281799073104
30
0
41
1
10
80.8167676066382
20
0.770501030121949
30
0
41
1
10
80.7145074515814
20
0.826356455671942
30
0
41
1
10
80.560964650598
20
0.910061771365548
30
0
41
1
10
80.5097564324907
20
0.937947045923522
30
0
41
1
10
80.4072756265322
20
0.993666321393874
30
0
41
1
10
80.3559786865975
20
1.02151375506435
30
0
41
1
10
80.2021994947302
20
1.10482766262317
30
0
41
1
10
80.0998235900324
20
1.16006830772346
30
0
41
1
10
79.8952562638291
20
1.26976512621778
30
0
41
1
10
79.7930633178654
20
1.32421922486682
30
0
41
1
10
79.4867843511853
20
1.48647042271588
30
0
41
1
10
79.2830103482615
20
1.59318228472461
30
0
41
1
10
78.8764513110445
20
1.80401480304315
30
0
41
1
10
78.6736200080078
20
1.90804329978539
30
0
41
1
10
78.2681208778581
20
2.11210116609152
30
0
41
1
10
78.0654260714937
20
2.21209598458435
30
0
41
1
10
77.6603484132297
20
2.40839368065034
30
0
41
1
10
77.4580429768507
20
2.50481451666701
30
0
41
1
10
77.1546179798795
20
2.64632956526876
30
0
41
1
10
77.0534739994183
20
2.69296989788302
30
0
41
1
10
76.8510819286407
20
2.78503823188524
30
0
41
1
10
76.7498286669305
20
2.83045908253928
30
0
41
1
10
76.4459245762987
20
2.96492882263141
30
0
41
1
10
76.2431373547328
20
3.05220057263256
30
0
41
1
10
75.8373979587207
20
3.22224289401814
30
0
41
1
10
75.6344041839212
20
3.30494393671526
30
0
41
1
10
75.2274486430572
20
3.46467763333612
30
0
41
1
10
75.0234423367311
20
3.54166162063999
30
0
41
1
10
74.7167749626805
20
3.65296780581323
30
0
41
1
10
74.6144499457711
20
3.68938281025359
30
0
41
1
10
74.460811411577
20
3.74296724203882
30
0
41
1
10
74.4095713038296
20
3.76065306476576
30
0
41
1
10
74.3070268127758
20
3.79565975033472
30
0
41
1
10
74.2557252695771
20
3.81297944932311
30
0
41
1
10
74.1020031065312
20
3.86427397002092
30
0
41
1
10
73.9996671193671
20
3.89761708768452
30
0
41
1
10
73.7951849823387
20
3.96250335905705
30
0
41
1
10
73.6930320397819
20
3.994040289054
30
0
41
1
10
73.3868559278851
20
4.08598980418029
30
0
41
1
10
73.1831225513868
20
4.14375616012103
30
0
41
1
10
72.7766336414874
20
4.25247470638084
30
0
41
1
10
72.5738403624989
20
4.30337278824194
30
0
41
1
10
72.168442256227
20
4.39770068009773
30
0
41
1
10
71.9657864228254
20
4.44110926669978
30
0
41
1
10
71.5607371072587
20
4.52062389538264
30
0
41
1
10
71.3584231826761
20
4.5567713493397
30
0
41
1
10
71.0550081760366
20
4.60538014091875
30
0
41
1
10
70.9538698130569
20
4.6206425965654
30
0
41
1
10
70.7514949083281
20
4.64924027417945
30
0
41
1
10
70.6502497203938
20
4.66257249074488
30
0
41
1
10
70.3463508288885
20
4.69968541928134
30
0
41
1
10
70.1435411603294
20
4.7205937129408
30
0
41
1
10
69.7377401421334
20
4.75475022112164
30
0
41
1
10
69.534719211054
20
4.76797019487827
30
0
41
1
10
69.1277340690341
20
4.7864553680368
30
0
41
1
10
68.9237065144796
20
4.79172884668847
30
0
41
1
10
68.684041765596
20
4.79323973366539
30
0
41
1
10
68.6488560719494
20
4.79334343860688
30
0
41
1
10
68.6136577429633
20
4.79332858989252
30
0
0
SPLINE
5
BF
100
AcDbEntity
8
1
62
256
6
ByLayer
370
18
48
1
60
0
100
AcDbSpline
70
4
71
3
72
154
73
150
40
0
40
0
40
0
40
0
40
0.0005929877069644
40
0.0005929877069644
40
0.0180340370795691
40
0.0180340370795691
40
0.0354750864521736
40
0.0354750864521736
40
0.0529161358247782
40
0.0529161358247782
40
0.0616366605110805
40
0.0616366605110805
40
0.0703571851973828
40
0.0703571851973828
40
0.0877982345699884
40
0.0877982345699884
40
0.105239283942594
40
0.105239283942594
40
0.122680333315199
40
0.122680333315199
40
0.131400858001502
40
0.131400858001502
40
0.140121382687805
40
0.148841907374108
40
0.148841907374108
40
0.157562432060411
40
0.157562432060411
40
0.175003481433016
40
0.175003481433016
40
0.192444530805622
40
0.192444530805622
40
0.209885580178227
40
0.209885580178227
40
0.21860610486453
40
0.21860610486453
40
0.227326629550834
40
0.227326629550834
40
0.24476767892344
40
0.24476767892344
40
0.262208728296047
40
0.262208728296047
40
0.279649777668653
40
0.279649777668653
40
0.29709082704126
40
0.29709082704126
40
0.305811351727563
40
0.305811351727563
40
0.314531876413866
40
0.32325240110017
40
0.32325240110017
40
0.331972925786473
40
0.331972925786473
40
0.349413975159079
40
0.349413975159079
40
0.366855024531686
40
0.366855024531686
40
0.384296073904292
40
0.384296073904292
40
0.393016598590596
40
0.393016598590596
40
0.401737123276899
40
0.401737123276899
40
0.419178172649506
40
0.419178172649506
40
0.436619222022113
40
0.436619222022113
40
0.45406027139472
40
0.45406027139472
40
0.471501320767327
40
0.471501320767327
40
0.480221845453631
40
0.480221845453631
40
0.488942370139935
40
0.488942370139935
40
0.497662894826238
40
0.497662894826238
40
0.506383419512542
40
0.506383419512542
40
0.523824468885149
40
0.523824468885149
40
0.541265518257756
40
0.541265518257756
40
0.558706567630363
40
0.558706567630363
40
0.567427092316667
40
0.567427092316667
40
0.57614761700297
40
0.57614761700297
40
0.593588666375576
40
0.593588666375576
40
0.611029715748183
40
0.611029715748183
40
0.628470765120789
40
0.628470765120789
40
0.645911814493396
40
0.645911814493396
40
0.654632339179699
40
0.654632339179699
40
0.663352863866002
40
0.663352863866002
40
0.672073388552305
40
0.672073388552305
40
0.680793913238608
40
0.680793913238608
40
0.698234962611214
40
0.698234962611214
40
0.715676011983821
40
0.715676011983821
40
0.733117061356427
40
0.733117061356427
40
0.74183758604273
40
0.74183758604273
40
0.750558110729033
40
0.750558110729033
40
0.76799916010164
40
0.76799916010164
40
0.785440209474246
40
0.785440209474246
40
0.802881258846852
40
0.802881258846852
40
0.820322308219459
40
0.820322308219459
40
0.829042832905762
40
0.829042832905762
40
0.837763357592065
40
0.846483882278368
40
0.846483882278368
40
0.85520440696467
40
0.85520440696467
40
0.872645456337277
40
0.872645456337277
40
0.890086505709883
40
0.890086505709883
40
0.90752755508249
40
0.90752755508249
40
0.916248079768794
40
0.916248079768794
40
0.924968604455097
40
0.924968604455097
40
0.942409653827703
40
0.942409653827703
40
0.95985070320031
40
0.95985070320031
40
0.977291752572916
40
0.977291752572916
40
0.986012277259219
40
0.986012277259219
40
0.994732801945522
40
1
40
1
40
1
40
1
41
1
10
49.208413314386
20
-2.97545397793996
30
0
41
1
10
49.2014732865353
20
-2.97845592796676
30
0
41
1
10
49.1945335837759
20
-2.98145450586855
30
0
41
1
10
48.9834917059267
20
-3.07254462371307
30
0
41
1
10
48.7797068088848
20
-3.15779579028521
30
0
41
1
10
48.3730140347599
20
-3.32303094298169
30
0
41
1
10
48.1701440992387
20
-3.40305133126535
30
0
41
1
10
47.7647163666177
20
-3.55705791560447
30
0
41
1
10
47.5620707447585
20
-3.63094230865406
30
0
41
1
10
47.2581603611232
20
-3.73709935154639
30
0
41
1
10
47.1568754153152
20
-3.77171697421963
30
0
41
1
10
46.954380632878
20
-3.8394568055235
30
0
41
1
10
46.8531774236006
20
-3.87258552261431
30
0
41
1
10
46.5495992750917
20
-3.96962465294612
30
0
41
1
10
46.3472529566703
20
-4.03117799891703
30
0
41
1
10
45.9419358940464
20
-4.14730770395653
30
0
41
1
10
45.739007337045
20
-4.20194127049385
30
0
41
1
10
45.3328497470486
20
-4.30453164036172
30
0
41
1
10
45.1296715201023
20
-4.3525167855307
30
0
41
1
10
44.8242897443999
20
-4.41907862566921
30
0
41
1
10
44.722385906121
20
-4.44035893674226
30
0
41
1
10
44.5182809793384
20
-4.48104915304518
30
0
41
1
10
44.3138964962107
20
-4.51988292460103
30
0
41
1
10
44.1089959823931
20
-4.55502251240407
30
0
41
1
10
43.9038721693817
20
-4.58831906750066
30
0
41
1
10
43.801134235874
20
-4.60405836326925
30
0
41
1
10
43.4936223710018
20
-4.64828094422055
30
0
41
1
10
43.2892468377522
20
-4.67381117786223
30
0
41
1
10
42.8810360269958
20
-4.71681313146979
30
0
41
1
10
42.677237309921
20
-4.73432025136754
30
0
41
1
10
42.270483109782
20
-4.7615147191903
30
0
41
1
10
42.067582491472
20
-4.7711956673985
30
0
41
1
10
41.7634919777231
20
-4.77977513913555
30
0
41
1
10
41.6621646805413
20
-4.78164547655399
30
0
41
1
10
41.4595009709574
20
-4.78341769836808
30
0
41
1
10
41.3581731126498
20
-4.78332097085698
30
0
41
1
10
41.0542350538743
20
-4.78009823923577
30
0
41
1
10
40.8517068695666
20
-4.77404174866587
30
0
41
1
10
40.4468769486056
20
-4.75405623164468
30
0
41
1
10
40.2445172977792
20
-4.74012027586195
30
0
41
1
10
39.8391814766252
20
-4.70453856275341
30
0
41
1
10
39.6362328264327
20
-4.68290553859779
30
0
41
1
10
39.2300029324693
20
-4.63184310827734
30
0
41
1
10
39.0267853098128
20
-4.60236911308735
30
0
41
1
10
38.7213722589217
20
-4.5523560135114
30
0
41
1
10
38.6194637204749
20
-4.53472274356648
30
0
41
1
10
38.4153468348644
20
-4.49758416774199
30
0
41
1
10
38.2109451378691
20
-4.45856654311507
30
0
41
1
10
38.0060143415137
20
-4.41575401273465
30
0
41
1
10
37.8008525309578
20
-4.37099986175647
30
0
41
1
10
37.6980950734809
20
-4.34762617078835
30
0
41
1
10
37.3905434499782
20
-4.27485625120855
30
0
41
1
10
37.1861564926657
20
-4.22274586346873
30
0
41
1
10
36.7779341246805
20
-4.11209986509215
30
0
41
1
10
36.5741196348655
20
-4.05356053489848
30
0
41
1
10
36.1673024271027
20
-3.92991188607834
30
0
41
1
10
35.9643663080739
20
-3.86472080184706
30
0
41
1
10
35.6602508535464
20
-3.76234081618159
30
0
41
1
10
35.5589209065001
20
-3.72745648898797
30
0
41
1
10
35.3562505357494
20
-3.65629191335768
30
0
41
1
10
35.2549166739191
20
-3.62000482799675
30
0
41
1
10
34.9509518230127
20
-3.50900239286693
30
0
41
1
10
34.7483838868607
20
-3.43211695423793
30
0
41
1
10
34.3434935319172
20
-3.27242281543474
30
0
41
1
10
34.1411174759329
20
-3.18967197764627
30
0
41
1
10
33.7357671114099
20
-3.01936889701483
30
0
41
1
10
33.5328013227941
20
-2.93181949663759
30
0
41
1
10
33.1265073207451
20
-2.75159150314457
30
0
41
1
10
32.9232509648043
20
-2.65879319000712
30
0
41
1
10
32.6178090424231
20
-2.51610543348176
30
0
41
1
10
32.5158959229761
20
-2.46797170995734
30
0
41
1
10
32.3117716871105
20
-2.37072191967857
30
0
41
1
10
32.2095643620108
20
-2.32160059708352
30
0
41
1
10
32.0048801881245
20
-2.22232699074669
30
0
41
1
10
31.9024027418725
20
-2.1721758465246
30
0
41
1
10
31.697209516656
20
-2.07077595765224
30
0
41
1
10
31.5944319892658
20
-2.01947554792017
30
0
41
1
10
31.2868320528666
20
-1.8645034063355
30
0
41
1
10
31.082425642036
20
-1.75962887803439
30
0
41
1
10
30.6741857819945
20
-1.54811215439719
30
0
41
1
10
30.470353417983
20
-1.44146998912476
30
0
41
1
10
30.0634713293104
20
-1.226054365328
30
0
41
1
10
29.8604955445919
20
-1.11714559873221
30
0
41
1
10
29.5563500763485
20
-0.952670407386847
30
0
41
1
10
29.4550149908045
20
-0.897671547770869
30
0
41
1
10
29.2523375087554
20
-0.787511378106899
30
0
41
1
10
29.150997625872
20
-0.732345591706292
30
0
41
1
10
28.8470065519088
20
-0.5665342543858
30
0
41
1
10
28.6444008902171
20
-0.455544158007342
30
0
41
1
10
28.2394488423441
20
-0.232387287153756
30
0
41
1
10
28.0370531672527
20
-0.120309771982591
30
0
41
1
10
27.6316922788237
20
0.103492375090468
30
0
41
1
10
27.4287121713673
20
0.215187525258443
30
0
41
1
10
27.0223619865192
20
0.438556931685866
30
0
41
1
10
26.8190681704609
20
0.550375002675395
30
0
41
1
10
26.5135999356275
20
0.717656679024088
30
0
41
1
10
26.4116820526066
20
0.773329381087763
30
0
41
1
10
26.2075549279703
20
0.884309059179316
30
0
41
1
10
26.1053438250457
20
0.939612397008204
30
0
41
1
10
25.9006468599868
20
1.04988476572953
30
0
41
1
10
25.7981603740373
20
1.10485260147439
30
0
41
1
10
25.5929421928952
20
1.21451147451782
30
0
41
1
10
25.4901445353933
20
1.26925503850859
30
0
41
1
10
25.1824878536673
20
1.43248603575134
30
0
41
1
10
24.9780538863733
20
1.54009550076418
30
0
41
1
10
24.5697903760915
20
1.75161200756537
30
0
41
1
10
24.3659379487274
20
1.85549047957974
30
0
41
1
10
23.9589888544493
20
2.05990980586287
30
0
41
1
10
23.7559698325346
20
2.16057565300673
30
0
41
1
10
23.4517894328039
20
2.30869233206769
30
0
41
1
10
23.3504465431423
20
2.35757223630614
30
0
41
1
10
23.1477611293834
20
2.45419068798731
30
0
41
1
10
23.0464152844607
20
2.50192466688861
30
0
41
1
10
22.7423983929937
20
2.64346056538744
30
0
41
1
10
22.5397572246879
20
2.73561491522415
30
0
41
1
10
22.1347423120235
20
2.91579300100594
30
0
41
1
10
21.9323248402109
20
3.00374009937605
30
0
41
1
10
21.5269550057099
20
3.17430014500943
30
0
41
1
10
21.3239642948519
20
3.25687020666899
30
0
41
1
10
20.9175655252835
20
3.41685708677616
30
0
41
1
10
20.7142360269509
20
3.49437176523369
30
0
41
1
10
20.4087441216626
20
3.60646864010153
30
0
41
1
10
20.3068219668221
20
3.64312764247052
30
0
41
1
10
20.1026945589303
20
3.71490457138259
30
0
41
1
10
19.8982709195135
20
3.78512581086804
30
0
41
1
10
19.693285659343
20
3.85227064720928
30
0
41
1
10
19.4880488026124
20
3.91790234341866
30
0
41
1
10
19.3852317713336
20
3.94999061976091
30
0
41
1
10
19.0775100787678
20
4.04365450438166
30
0
41
1
10
18.8730421148262
20
4.10268679450692
30
0
41
1
10
18.4647454644148
20
4.21331933813855
30
0
41
1
10
18.2608721882476
20
4.26489798665048
30
0
41
1
10
17.8538537240834
20
4.36087027541089
30
0
41
1
10
17.6507884150587
20
4.40531590750962
30
0
41
1
10
17.3465682942911
20
4.46645301531484
30
0
41
1
10
17.2452158005556
20
4.48590431798618
30
0
41
1
10
17.0425196053114
20
4.5228972775198
30
0
41
1
10
16.9411685666433
20
4.5404356065651
30
0
41
1
10
16.6371260620354
20
4.59020879731122
30
0
41
1
10
16.4344517196485
20
4.61961317843512
30
0
41
1
10
16.0293727662792
20
4.67094923001804
30
0
41
1
10
15.8269328889096
20
4.69284636511773
30
0
41
1
10
15.4215525461721
20
4.72881825848162
30
0
41
1
10
15.2185558257093
20
4.74289440744448
30
0
41
1
10
14.9137256585036
20
4.75817745602745
30
0
41
1
10
14.8120659432818
20
4.76229944011919
30
0
41
1
10
14.6086646302292
20
4.76858267388499
30
0
41
1
10
14.4454580159827
20
4.77204645596754
30
0
41
1
10
14.2820252387934
20
4.77295304106943
30
0
41
1
10
14.2204402314965
20
4.77293092557929
30
0
0
SPLINE
5
C0
100
AcDbEntity
8
1
62
256
6
ByLayer
370
18
48
1
60
0
100
AcDbSpline
70
4
71
3
72
168
73
164
40
0
40
0
40
0
40
0
40
0.0118586912333093
40
0.0118586912333093
40
0.0272196745605322
40
0.0272196745605322
40
0.0425806578877551
40
0.0425806578877551
40
0.0502611495513671
40
0.0502611495513671
40
0.057941641214979
40
0.057941641214979
40
0.0733026245422028
40
0.0733026245422028
40
0.0809831162058148
40
0.0809831162058148
40
0.0886636078694267
40
0.0886636078694267
40
0.104024591196651
40
0.104024591196651
40
0.119385574523874
40
0.119385574523874
40
0.127066066187487
40
0.127066066187487
40
0.134746557851099
40
0.134746557851099
40
0.150107541178323
40
0.150107541178323
40
0.165468524505547
40
0.165468524505547
40
0.180829507832771
40
0.180829507832771
40
0.196190491159995
40
0.196190491159995
40
0.211551474487218
40
0.211551474487218
40
0.219231966150831
40
0.219231966150831
40
0.226912457814443
40
0.226912457814443
40
0.234592949478056
40
0.234592949478056
40
0.242273441141668
40
0.242273441141668
40
0.257634424468893
40
0.257634424468893
40
0.272995407796117
40
0.272995407796117
40
0.28067589945973
40
0.28067589945973
40
0.288356391123343
40
0.288356391123343
40
0.303717374450569
40
0.303717374450569
40
0.319078357777794
40
0.319078357777794
40
0.33443934110502
40
0.33443934110502
40
0.349800324432246
40
0.349800324432246
40
0.365161307759471
40
0.365161307759471
40
0.380522291086697
40
0.380522291086697
40
0.38820278275031
40
0.38820278275031
40
0.395883274413923
40
0.395883274413923
40
0.411244257741148
40
0.411244257741148
40
0.426605241068372
40
0.426605241068372
40
0.441966224395597
40
0.441966224395597
40
0.457327207722822
40
0.457327207722822
40
0.472688191050047
40
0.472688191050047
40
0.488049174377272
40
0.488049174377272
40
0.503410157704496
40
0.503410157704496
40
0.518771141031721
40
0.518771141031721
40
0.534132124358946
40
0.534132124358946
40
0.541812616022558
40
0.541812616022558
40
0.54949310768617
40
0.54949310768617
40
0.564854091013395
40
0.564854091013395
40
0.572534582677008
40
0.572534582677008
40
0.58021507434062
40
0.58021507434062
40
0.587895566004232
40
0.587895566004232
40
0.595576057667845
40
0.595576057667845
40
0.61093704099507
40
0.61093704099507
40
0.626298024322296
40
0.626298024322296
40
0.641659007649522
40
0.641659007649522
40
0.657019990976747
40
0.657019990976747
40
0.672380974303973
40
0.672380974303973
40
0.687741957631199
40
0.687741957631199
40
0.695422449294812
40
0.695422449294812
40
0.703102940958425
40
0.703102940958425
40
0.718463924285651
40
0.718463924285651
40
0.733824907612877
40
0.733824907612877
40
0.741505399276489
40
0.741505399276489
40
0.749185890940101
40
0.749185890940101
40
0.764546874267326
40
0.764546874267326
40
0.779907857594551
40
0.779907857594551
40
0.795268840921776
40
0.795268840921776
40
0.810629824249001
40
0.810629824249001
40
0.825990807576225
40
0.825990807576225
40
0.84135179090345
40
0.84135179090345
40
0.849032282567063
40
0.849032282567063
40
0.856712774230676
40
0.856712774230676
40
0.872073757557901
40
0.872073757557901
40
0.887434740885126
40
0.887434740885126
40
0.895115232548738
40
0.895115232548738
40
0.90279572421235
40
0.90279572421235
40
0.910476215875963
40
0.910476215875963
40
0.918156707539575
40
0.918156707539575
40
0.933517690866801
40
0.933517690866801
40
0.948878674194026
40
0.948878674194026
40
0.964239657521252
40
0.964239657521252
40
0.979600640848478
40
0.979600640848478
40
0.994961624175704
40
0.994961624175704
40
1
40
1
40
1
40
1
41
1
10
22.0033612491648
20
2.96423583694838
30
0
41
1
10
22.1414591711522
20
3.02414262419001
30
0
41
1
10
22.2796470123574
20
3.08301382983299
30
0
41
1
10
22.5973787322593
20
3.21526451938695
30
0
41
1
10
22.7771358602632
20
3.28772775365113
30
0
41
1
10
23.1372934338446
20
3.42867000596093
30
0
41
1
10
23.3176397442036
20
3.49722027430164
30
0
41
1
10
23.5885916434443
20
3.59706143181356
30
0
41
1
10
23.6790638832879
20
3.62984431113421
30
0
41
1
10
23.8597323417996
20
3.69405526753869
30
0
41
1
10
23.949971784506
20
3.72550317504661
30
0
41
1
10
24.220504358635
20
3.81778263114899
30
0
41
1
10
24.4006539695102
20
3.87651168820943
30
0
41
1
10
24.670288982267
20
3.96081882852542
30
0
41
1
10
24.7600714872741
20
3.9882853139888
30
0
41
1
10
24.9394240870726
20
4.04196574075243
30
0
41
1
10
25.0289901954258
20
4.06818274225643
30
0
41
1
10
25.2974912433696
20
4.14482769218469
30
0
41
1
10
25.4762465952258
20
4.19322807422299
30
0
41
1
10
25.8338074658794
20
4.28423176753927
30
0
41
1
10
26.0125862328219
20
4.32687457899004
30
0
41
1
10
26.2804670378707
20
4.38680199261538
30
0
41
1
10
26.3697161178185
20
4.40610033933419
30
0
41
1
10
26.5481152387293
20
4.44333963825849
30
0
41
1
10
26.6372724096542
20
4.46127470691923
30
0
41
1
10
26.9047547950338
20
4.51292618395831
30
0
41
1
10
27.08311177279
20
4.54447268193576
30
0
41
1
10
27.4403472063766
20
4.60158045177039
30
0
41
1
10
27.6191539884225
20
4.62719417096369
30
0
41
1
10
27.9768181472293
20
4.67266431565258
30
0
41
1
10
28.155630909654
20
4.69252360835551
30
0
41
1
10
28.5137933609294
20
4.72618272101855
30
0
41
1
10
28.6931945104099
20
4.7399710949737
30
0
41
1
10
29.0529298633064
20
4.76140626425047
30
0
41
1
10
29.2331739261355
20
4.76908246572128
30
0
41
1
10
29.5039134599538
20
4.77598028325068
30
0
41
1
10
29.5942181167783
20
4.77750785043824
30
0
41
1
10
29.775022553816
20
4.77899324927267
30
0
41
1
10
29.8653747136034
20
4.77894900275334
30
0
41
1
10
30.0458379051488
20
4.77729784099162
30
0
41
1
10
30.1359826252966
20
4.7756913961689
30
0
41
1
10
30.3161641597645
20
4.77094162602589
30
0
41
1
10
30.4062045385033
20
4.76779979441741
30
0
41
1
10
30.6760960112209
20
4.75609049116014
30
0
41
1
10
30.8556962558577
20
4.74523984785537
30
0
41
1
10
31.2140411143514
20
4.71740868108952
30
0
41
1
10
31.3928176565243
20
4.70042038759163
30
0
41
1
10
31.660892788938
20
4.67051683699884
30
0
41
1
10
31.7502344039271
20
4.6598135790409
30
0
41
1
10
31.928932163948
20
4.63697065048922
30
0
41
1
10
32.0182803218092
20
4.62482845218256
30
0
41
1
10
32.2862394460159
20
4.58621241528584
30
0
41
1
10
32.4647414203291
20
4.55753938659825
30
0
41
1
10
32.8213727088836
20
4.49422484169875
30
0
41
1
10
32.9995715057776
20
4.45961156179948
30
0
41
1
10
33.3563688574251
20
4.38489258586998
30
0
41
1
10
33.5350198813466
20
4.3448404587715
30
0
41
1
10
33.8925332246979
20
4.25916047221719
30
0
41
1
10
34.0713460901957
20
4.21348644352813
30
0
41
1
10
34.4291353847522
20
4.11640665886031
30
0
41
1
10
34.6081947604607
20
4.06506731363316
30
0
41
1
10
34.9672243495389
20
3.9573408438039
30
0
41
1
10
35.147221336388
20
3.90099989042201
30
0
41
1
10
35.4176533547363
20
3.81243191136227
30
0
41
1
10
35.5078731047523
20
3.78223437336894
30
0
41
1
10
35.6884455676358
20
3.72044678891987
30
0
41
1
10
35.7788621223969
20
3.68882793820447
30
0
41
1
10
36.0499437862646
20
3.59218802910007
30
0
41
1
10
36.2302044793285
20
3.52549824530718
30
0
41
1
10
36.590354253357
20
3.38838176290159
30
0
41
1
10
36.770207462184
20
3.31791672438621
30
0
41
1
10
37.1291069880218
20
3.17271604428035
30
0
41
1
10
37.3081077587078
20
3.09790872027662
30
0
41
1
10
37.6656593512584
20
2.94450857526422
30
0
41
1
10
37.8442719152317
20
2.86600581105978
30
0
41
1
10
38.20158695049
20
2.70606451968322
30
0
41
1
10
38.3802122544151
20
2.62451645012916
30
0
41
1
10
38.7370840819539
20
2.45778086061486
30
0
41
1
10
38.9152865025511
20
2.37251540858313
30
0
41
1
10
39.2718316721999
20
2.19913261241072
30
0
41
1
10
39.4502232508735
20
2.11109784617136
30
0
41
1
10
39.8075110683363
20
1.93281376831632
30
0
41
1
10
39.9863156289804
20
1.84241531999535
30
0
41
1
10
40.3439897078408
20
1.65863195136518
30
0
41
1
10
40.522839294129
20
1.56520311144038
30
0
41
1
10
40.7916476248848
20
1.42363484425931
30
0
41
1
10
40.8813368143653
20
1.37620436827859
30
0
41
1
10
41.0609507817677
20
1.28097665987042
30
0
41
1
10
41.1508786197735
20
1.23318562717569
30
0
41
1
10
41.4209437719285
20
1.08913174056749
30
0
41
1
10
41.601340997012
20
0.992149911194218
30
0
41
1
10
41.8723296884138
20
0.844940584889912
30
0
41
1
10
41.962783088395
20
0.795565005507171
30
0
41
1
10
42.1433453998847
20
0.696750865600535
30
0
41
1
10
42.2335186360354
20
0.647282779454201
30
0
41
1
10
42.4137209256384
20
0.548359701886881
30
0
41
1
10
42.5037521528114
20
0.498908834386412
30
0
41
1
10
42.6837198990298
20
0.400110823137368
30
0
41
1
10
42.7736479364742
20
0.350747299174912
30
0
41
1
10
43.0431827159101
20
0.20260372395839
30
0
41
1
10
43.2225155175205
20
0.103723696014129
30
0
41
1
10
43.5803976369648
20
-0.09439935359282
30
0
41
1
10
43.7590199653012
20
-0.193502884044847
30
0
41
1
10
44.116246240737
20
-0.390648123863684
30
0
41
1
10
44.294899720941
20
-0.488601061392814
30
0
41
1
10
44.6519672720354
20
-0.683871450889654
30
0
41
1
10
44.8303351281178
20
-0.781272414729386
30
0
41
1
10
45.1868202416848
20
-0.975444849047506
30
0
41
1
10
45.3650210984445
20
-1.0720627789924
30
0
41
1
10
45.7219184549949
20
-1.2633213456414
30
0
41
1
10
45.9006363924089
20
-1.35792678937912
30
0
41
1
10
46.168819294363
20
-1.49883197980549
30
0
41
1
10
46.2582348832298
20
-1.54562638245992
30
0
41
1
10
46.4370885910432
20
-1.63889999834069
30
0
41
1
10
46.5265246814696
20
-1.68538259883607
30
0
41
1
10
46.7949977398414
20
-1.82412266878879
30
0
41
1
10
46.974216663969
20
-1.91564144614335
30
0
41
1
10
47.333654505305
20
-2.09581202779822
30
0
41
1
10
47.513835220178
20
-2.184533304274
30
0
41
1
10
47.7845290057605
20
-2.31602442361429
30
0
41
1
10
47.8748330923489
20
-2.35958515876715
30
0
41
1
10
48.0555884487227
20
-2.44616031517117
30
0
41
1
10
48.1459510062827
20
-2.48911364873322
30
0
41
1
10
48.4165657950497
20
-2.61647418064865
30
0
41
1
10
48.5965961829943
20
-2.69944952950203
30
0
41
1
10
48.9563140732992
20
-2.86099384867595
30
0
41
1
10
49.1359210246007
20
-2.93969920325759
30
0
41
1
10
49.4943305579608
20
-3.09346123035439
30
0
41
1
10
49.6730918262054
20
-3.16856409392503
30
0
41
1
10
50.0303509339065
20
-3.31432670620271
30
0
41
1
10
50.2088959929194
20
-3.38492777243439
30
0
41
1
10
50.5660465007313
20
-3.52134629017866
30
0
41
1
10
50.7445614478987
20
-3.58728674244429
30
0
41
1
10
51.1012217699961
20
-3.71491399035165
30
0
41
1
10
51.2793537327966
20
-3.77660293819395
30
0
41
1
10
51.5467764310633
20
-3.8653292933528
30
0
41
1
10
51.6359516019526
20
-3.89427542492137
30
0
41
1
10
51.8144342789303
20
-3.95084649308276
30
0
41
1
10
51.9037428622336
20
-3.97847116930964
30
0
41
1
10
52.1717866521571
20
-4.05945571508076
30
0
41
1
10
52.3506189575092
20
-4.11095038244707
30
0
41
1
10
52.7083682157972
20
-4.20905739064455
30
0
41
1
10
52.8873240499735
20
-4.25562061174367
30
0
41
1
10
53.1563814153149
20
-4.32125259124845
30
0
41
1
10
53.2461698860224
20
-4.3424306096023
30
0
41
1
10
53.4259946269033
20
-4.38335668379085
30
0
41
1
10
53.5160224135166
20
-4.40311220191643
30
0
41
1
10
53.696254021554
20
-4.44124622300904
30
0
41
1
10
53.7864559307212
20
-4.45962589100819
30
0
41
1
10
53.9670108367821
20
-4.49501174676536
30
0
41
1
10
54.0574114576195
20
-4.51203085674783
30
0
41
1
10
54.3284976776713
20
-4.56091743087245
30
0
41
1
10
54.5086828386629
20
-4.59050158504408
30
0
41
1
10
54.8686058616054
20
-4.64340628955944
30
0
41
1
10
55.0483923019264
20
-4.66672198432087
30
0
41
1
10
55.4072904961005
20
-4.70734503086413
30
0
41
1
10
55.5863568484584
20
-4.72466078849402
30
0
41
1
10
55.9438336700861
20
-4.75323742393144
30
0
41
1
10
56.1223264786623
20
-4.76446750441781
30
0
41
1
10
56.4793882002639
20
-4.78076963354624
30
0
41
1
10
56.657969755436
20
-4.7858582259027
30
0
41
1
10
56.8949283972612
20
-4.78860232540208
30
0
41
1
10
56.9534399022528
20
-4.78895390638448
30
0
41
1
10
57.0119342537514
20
-4.78897791753101
30
0
0
SPLINE
5
C1
100
AcDbEntity
8
1
62
256
6
ByLayer
370
18
48
1
60
0
100
AcDbSpline
70
4
71
3
72
52
73
48
40
0
40
0
40
0
40
0
40
0.0300679343579988
40
0.0300679343579988
40
0.083953049115889
40
0.083953049115889
40
0.13783816387378
40
0.13783816387378
40
0.191723278631671
40
0.191723278631671
40
0.218665836010618
40
0.218665836010618
40
0.245608393389564
40
0.245608393389564
40
0.299493508147458
40
0.299493508147458
40
0.353378622905351
40
0.353378622905351
40
0.407263737663245
40
0.407263737663245
40
0.461148852421139
40
0.461148852421139
40
0.515033967179033
40
0.515033967179033
40
0.568919081936926
40
0.568919081936926
40
0.595861639315873
40
0.595861639315873
40
0.62280419669482
40
0.62280419669482
40
0.676689311452708
40
0.676689311452708
40
0.730574426210595
40
0.730574426210595
40
0.757516983589535
40
0.757516983589535
40
0.784459540968477
40
0.784459540968477
40
0.811402098347417
40
0.811402098347417
40
0.838344655726358
40
0.838344655726358
40
0.892229770484239
40
0.892229770484239
40
0.946114885242119
40
0.946114885242119
40
1
40
1
40
1
40
1
41
1
10
76.4141049119336
20
2.97781631659203
30
0
41
1
10
76.5137648095915
20
3.02101322550305
30
0
41
1
10
76.6134953188705
20
3.06360223123238
30
0
41
1
10
76.8920688977472
20
3.18093991050958
30
0
41
1
10
77.0709588161118
20
3.2544986393527
30
0
41
1
10
77.4290297194965
20
3.39788107898707
30
0
41
1
10
77.6082936415048
20
3.46758726667218
30
0
41
1
10
77.9678450313876
20
3.60226713065944
30
0
41
1
10
78.1481421859126
20
3.66723873927373
30
0
41
1
10
78.4190791211487
20
3.76148737564213
30
0
41
1
10
78.5095500979983
20
3.79238590180233
30
0
41
1
10
78.6901277378139
20
3.85293541695421
30
0
41
1
10
78.7802672428221
20
3.8825942994371
30
0
41
1
10
79.0503764414891
20
3.96956894657788
30
0
41
1
10
79.2300547432424
20
4.0248588251257
30
0
41
1
10
79.5891387922833
20
4.12964382689728
30
0
41
1
10
79.7684905653456
20
4.17920929931972
30
0
41
1
10
80.1264660883459
20
4.27306698079335
30
0
41
1
10
80.3050433070244
20
4.31738432112533
30
0
41
1
10
80.6618820721242
20
4.40035543714944
30
0
41
1
10
80.8402006899304
20
4.43896766594787
30
0
41
1
10
81.1970059789039
20
4.51027225229686
30
0
41
1
10
81.3754086640877
20
4.54303246343892
30
0
41
1
10
81.7319175271572
20
4.60293286014408
30
0
41
1
10
81.9099841579925
20
4.63007815972136
30
0
41
1
10
82.1772850152978
20
4.66630601919078
30
0
41
1
10
82.266420029412
20
4.67763487233429
30
0
41
1
10
82.4448232477931
20
4.69877733246582
30
0
41
1
10
82.5340999777571
20
4.70858848744936
30
0
41
1
10
82.8021013473463
20
4.73577174849882
30
0
41
1
10
82.9809641039375
20
4.75091019331887
30
0
41
1
10
83.3388419263333
20
4.77520500881735
30
0
41
1
10
83.5178497694138
20
4.78434549892833
30
0
41
1
10
83.7869867165399
20
4.79339416766953
30
0
41
1
10
83.8767996676319
20
4.79563591292111
30
0
41
1
10
84.0566895500292
20
4.79856726504048
30
0
41
1
10
84.146764898466
20
4.79925812432245
30
0
41
1
10
84.3271215848309
20
4.79908936293086
30
0
41
1
10
84.4174003945639
20
4.79822951730293
30
0
41
1
10
84.5981283956692
20
4.79494203150674
30
0
41
1
10
84.6885597776318
20
4.79251341695988
30
0
41
1
10
84.9594954209466
20
4.78286665671124
30
0
41
1
10
85.1398775505729
20
4.7732785456754
30
0
41
1
10
85.5008548333004
20
4.74792419146547
30
0
41
1
10
85.6815077163329
20
4.73218844015278
30
0
41
1
10
86.0429162415668
20
4.69459431375319
30
0
41
1
10
86.2236080688771
20
4.67271020855742
30
0
41
1
10
86.4042821257827
20
4.64768867647314
30
0
0
SPLINE
5
C2
100
AcDbEntity
8
1
62
256
6
ByLayer
370
18
48
1
60
0
100
AcDbSpline
70
4
71
3
72
153
73
149
40
0
40
0
40
0
40
0
40
0.0107061812922592
40
0.0107061812922592
40
0.0281429731201937
40
0.0281429731201937
40
0.0455797649481282
40
0.0455797649481282
40
0.0542981608620954
40
0.0542981608620954
40
0.0586573588190795
40
0.0586573588190795
40
0.0630165567760636
40
0.0630165567760636
40
0.0717349526900326
40
0.0717349526900326
40
0.0804533486040016
40
0.0804533486040016
40
0.0978901404319406
40
0.0978901404319406
40
0.11532693225988
40
0.11532693225988
40
0.132763724087819
40
0.132763724087819
40
0.150200515915758
40
0.150200515915758
40
0.158918911829727
40
0.158918911829727
40
0.167637307743697
40
0.167637307743697
40
0.185074099571637
40
0.185074099571637
40
0.202510891399576
40
0.202510891399576
40
0.219947683227516
40
0.219947683227516
40
0.228666079141486
40
0.228666079141486
40
0.237384475055456
40
0.237384475055456
40
0.246102870969426
40
0.246102870969426
40
0.254821266883396
40
0.254821266883396
40
0.272258058711337
40
0.272258058711337
40
0.289694850539278
40
0.289694850539278
40
0.307131642367218
40
0.307131642367218
40
0.315850038281189
40
0.315850038281189
40
0.324568434195159
40
0.324568434195159
40
0.342005226023099
40
0.342005226023099
40
0.359442017851039
40
0.359442017851039
40
0.376878809678979
40
0.376878809678979
40
0.394315601506919
40
0.394315601506919
40
0.403033997420889
40
0.403033997420889
40
0.411752393334859
40
0.411752393334859
40
0.4291891851628
40
0.4291891851628
40
0.44662597699074
40
0.44662597699074
40
0.464062768818681
40
0.464062768818681
40
0.481499560646622
40
0.481499560646622
40
0.490217956560592
40
0.490217956560592
40
0.498936352474563
40
0.498936352474563
40
0.516373144302503
40
0.516373144302503
40
0.533809936130442
40
0.533809936130442
40
0.551246727958382
40
0.551246727958382
40
0.568683519786322
40
0.568683519786322
40
0.577401915700292
40
0.577401915700292
40
0.586120311614262
40
0.586120311614262
40
0.603557103442202
40
0.603557103442202
40
0.620993895270142
40
0.620993895270142
40
0.638430687098082
40
0.638430687098082
40
0.655867478926022
40
0.655867478926022
40
0.664585874839992
40
0.664585874839992
40
0.673304270753962
40
0.673304270753962
40
0.690741062581902
40
0.690741062581902
40
0.708177854409842
40
0.708177854409842
40
0.725614646237782
40
0.725614646237782
40
0.743051438065722
40
0.743051438065722
40
0.751769833979692
40
0.751769833979692
40
0.760488229893662
40
0.760488229893662
40
0.777925021721604
40
0.777925021721604
40
0.795361813549546
40
0.795361813549546
40
0.812798605377487
40
0.812798605377487
40
0.830235397205429
40
0.830235397205429
40
0.838953793119401
40
0.838953793119401
40
0.847672189033372
40
0.847672189033372
40
0.865108980861314
40
0.865108980861314
40
0.882545772689255
40
0.882545772689255
40
0.899982564517197
40
0.899982564517197
40
0.908700960431168
40
0.908700960431168
40
0.91741935634514
40
0.926137752259111
40
0.926137752259111
40
0.934856148173082
40
0.934856148173082
40
0.952292940001025
40
0.952292940001025
40
0.969729731828967
40
0.969729731828967
40
0.98716652365691
40
0.98716652365691
40
0.995884919570882
40
0.995884919570882
40
1
40
1
40
1
40
1
41
1
10
76.4138364358253
20
-2.9780387615362
30
0
41
1
10
76.2893603457769
20
-3.03196737293231
30
0
41
1
10
76.16482954787
20
-3.08501878400773
30
0
41
1
10
75.8373979587208
20
-3.22224289401811
30
0
41
1
10
75.6344041839212
20
-3.30494393671523
30
0
41
1
10
75.2274486430572
20
-3.4646776333361
30
0
41
1
10
75.0234423367312
20
-3.54166162063996
30
0
41
1
10
74.7167749626806
20
-3.6529678058132
30
0
41
1
10
74.6144499457712
20
-3.68938281025356
30
0
41
1
10
74.4608114115771
20
-3.74296724203879
30
0
41
1
10
74.4095713038296
20
-3.76065306476576
30
0
41
1
10
74.3070268127759
20
-3.79565975033469
30
0
41
1
10
74.2557252695773
20
-3.81297944932308
30
0
41
1
10
74.1020031065312
20
-3.86427397002089
30
0
41
1
10
73.9996671193672
20
-3.8976170876845
30
0
41
1
10
73.7951849823388
20
-3.96250335905702
30
0
41
1
10
73.6930320397819
20
-3.99404028905397
30
0
41
1
10
73.3868559278851
20
-4.08598980418026
30
0
41
1
10
73.1831225513869
20
-4.143756160121
30
0
41
1
10
72.7766336414874
20
-4.25247470638081
30
0
41
1
10
72.5738403624989
20
-4.30337278824192
30
0
41
1
10
72.1684422562271
20
-4.3977006800977
30
0
41
1
10
71.9657864228254
20
-4.44110926669975
30
0
41
1
10
71.5607371072586
20
-4.52062389538264
30
0
41
1
10
71.3584231826761
20
-4.5567713493397
30
0
41
1
10
71.0550081760366
20
-4.60538014091873
30
0
41
1
10
70.9538698130569
20
-4.6206425965654
30
0
41
1
10
70.7514949083281
20
-4.64924027417942
30
0
41
1
10
70.6502497203938
20
-4.66257249074488
30
0
41
1
10
70.3463508288885
20
-4.69968541928134
30
0
41
1
10
70.1435411603293
20
-4.7205937129408
30
0
41
1
10
69.7377401421334
20
-4.75475022112164
30
0
41
1
10
69.5347192110542
20
-4.76797019487827
30
0
41
1
10
69.1277340690342
20
-4.7864553680368
30
0
41
1
10
68.9237065144796
20
-4.79172884668847
30
0
41
1
10
68.6169683548863
20
-4.79366257575296
30
0
41
1
10
68.5146120126926
20
-4.7933097436734
30
0
41
1
10
68.3096991798851
20
-4.79058350183911
30
0
41
1
10
68.207039652291
20
-4.78820524586951
30
0
41
1
10
68.0020803757914
20
-4.7814328013695
30
0
41
1
10
67.8997491582212
20
-4.77704008528124
30
0
41
1
10
67.6952839619275
20
-4.76627592220262
30
0
41
1
10
67.5931407240182
20
-4.75990725280039
30
0
41
1
10
67.2869767404301
20
-4.73787916024258
30
0
41
1
10
67.083229792563
20
-4.71930435976384
30
0
41
1
10
66.6767013183375
20
-4.67435531955149
30
0
41
1
10
66.4738949744934
20
-4.64797089820934
30
0
41
1
10
66.0685023324575
20
-4.587729835804
30
0
41
1
10
65.8658478107685
20
-4.55392392865909
30
0
41
1
10
65.5620283925874
20
-4.49769541194354
30
0
41
1
10
65.4607878268726
20
-4.47802799043814
30
0
41
1
10
65.2584008929502
20
-4.43681817276908
30
0
41
1
10
65.1572475725555
20
-4.41527944582685
30
0
41
1
10
64.8537948548434
20
-4.34793125942534
30
0
41
1
10
64.6514719103
20
-4.29940793817789
30
0
41
1
10
64.2462377293807
20
-4.19558437950332
30
0
41
1
10
64.0433907331623
20
-4.140245344584
30
0
41
1
10
63.6374956271046
20
-4.0224104039423
30
0
41
1
10
63.4344346221487
20
-3.959907908243
30
0
41
1
10
63.027399614906
20
-3.8283551408426
30
0
41
1
10
62.8233497316937
20
-3.7594046073053
30
0
41
1
10
62.5165427860476
20
-3.65111294331598
30
0
41
1
10
62.4141573041074
20
-3.61419694486943
30
0
41
1
10
62.2091852771994
20
-3.53866334540777
30
0
41
1
10
62.1065037545086
20
-3.50001621382637
30
0
41
1
10
61.7990594314029
20
-3.38205903305851
30
0
41
1
10
61.5946721843
20
-3.30069817062994
30
0
41
1
10
61.1864629278773
20
-3.13342668598537
30
0
41
1
10
60.9827023971818
20
-3.04743762565747
30
0
41
1
10
60.5761252776994
20
-2.87041333532488
30
0
41
1
10
60.373301397701
20
-2.77937932864683
30
0
41
1
10
59.9679045546364
20
-2.59330849128389
30
0
41
1
10
59.7652522869594
20
-2.49840132599019
30
0
41
1
10
59.4614010229404
20
-2.35317531407125
30
0
41
1
10
59.3601440221621
20
-2.30427977451816
30
0
41
1
10
59.1577214259094
20
-2.20545087643842
30
0
41
1
10
59.0565523056458
20
-2.1555227067912
30
0
41
1
10
58.7530591752141
20
-2.00437558670924
30
0
41
1
10
58.5507310040776
20
-1.90182162755903
30
0
41
1
10
58.14546468285
20
-1.69418168563189
30
0
41
1
10
57.9425857725354
20
-1.58900265755687
30
0
41
1
10
57.5365978627751
20
-1.37544250289849
30
0
41
1
10
57.3334975575291
20
-1.2670366461129
30
0
41
1
10
56.92641353186
20
-1.04813534465393
30
0
41
1
10
56.7223467634317
20
-0.937799571723758
30
0
41
1
10
56.4154791432845
20
-0.770919660951307
30
0
41
1
10
56.3130684388132
20
-0.715051156324165
30
0
41
1
10
56.1080405303111
20
-0.60274945794859
30
0
41
1
10
56.0053397166126
20
-0.546270823607898
30
0
41
1
10
55.6978814799848
20
-0.376788959593966
30
0
41
1
10
55.4935054993904
20
-0.263634272141502
30
0
41
1
10
55.0853009256062
20
-0.0381938932019352
30
0
41
1
10
54.8815281030114
20
0.0742032049383852
30
0
41
1
10
54.4748954664294
20
0.298851167222864
30
0
41
1
10
54.2720507063675
20
0.411125533235634
30
0
41
1
10
53.8666420939904
20
0.634346170932588
30
0
41
1
10
53.6639930447765
20
0.745138330653674
30
0
41
1
10
53.3601115223831
20
0.910133807792164
30
0
41
1
10
53.2588399982309
20
0.964946060764987
30
0
41
1
10
53.0563807481103
20
1.07426786699139
30
0
41
1
10
52.9551952626686
20
1.12878118058842
30
0
41
1
10
52.6516602621052
20
1.29167557252578
30
0
41
1
10
52.4493243712961
20
1.39939534377092
30
0
41
1
10
52.0440304377519
20
1.61191060074844
30
0
41
1
10
51.8411250451808
20
1.71680332717636
30
0
41
1
10
51.435048167934
20
1.9242846536734
30
0
41
1
10
51.2319092761459
20
2.02692500500606
30
0
41
1
10
50.8247781724727
20
2.22885974658632
30
0
41
1
10
50.6206995742207
20
2.3280106621767
30
0
41
1
10
50.3137796784521
20
2.47395232423605
30
0
41
1
10
50.2113476485752
20
2.52214913007558
30
0
41
1
10
50.0062684827682
20
2.61769578333386
30
0
41
1
10
49.9035493716771
20
2.66508765139844
30
0
41
1
10
49.5960686396725
20
2.80532676825052
30
0
41
1
10
49.3916966791133
20
2.89635476276581
30
0
41
1
10
48.9834917059267
20
3.07254462371304
30
0
41
1
10
48.7797068088848
20
3.15779579028518
30
0
41
1
10
48.3730140347599
20
3.32303094298163
30
0
41
1
10
48.1701440992387
20
3.40305133126532
30
0
41
1
10
47.7647163666177
20
3.55705791560447
30
0
41
1
10
47.5620707447585
20
3.63094230865406
30
0
41
1
10
47.2581603611232
20
3.73709935154639
30
0
41
1
10
47.1568754153152
20
3.77171697421963
30
0
41
1
10
46.954380632878
20
3.83945680552347
30
0
41
1
10
46.8531774236007
20
3.87258552261431
30
0
41
1
10
46.5495992750918
20
3.9696246529461
30
0
41
1
10
46.3472529566703
20
4.031177998917
30
0
41
1
10
45.9419358940464
20
4.14730770395653
30
0
41
1
10
45.7390073370451
20
4.20194127049382
30
0
41
1
10
45.3328497470487
20
4.30453164036169
30
0
41
1
10
45.1296715201024
20
4.35251678553067
30
0
41
1
10
44.8242897443999
20
4.41907862566919
30
0
41
1
10
44.722385906121
20
4.44035893674223
30
0
41
1
10
44.5182809793384
20
4.48104915304515
30
0
41
1
10
44.3138964962107
20
4.51988292460103
30
0
41
1
10
44.1089959823933
20
4.55502251240407
30
0
41
1
10
43.9038721693818
20
4.58831906750063
30
0
41
1
10
43.8011342358741
20
4.60405836326925
30
0
41
1
10
43.4936223710018
20
4.64828094422052
30
0
41
1
10
43.2892468377522
20
4.67381117786223
30
0
41
1
10
42.8810360269959
20
4.71681313146979
30
0
41
1
10
42.677237309921
20
4.73432025136754
30
0
41
1
10
42.270483109782
20
4.7615147191903
30
0
41
1
10
42.067582491472
20
4.7711956673985
30
0
41
1
10
41.7634919777231
20
4.77977513913555
30
0
41
1
10
41.6621646805413
20
4.78164547655399
30
0
41
1
10
41.5130042186735
20
4.78294983156093
30
0
41
1
10
41.4651765019494
20
4.78314911524657
30
0
41
1
10
41.4173508507309
20
4.7831299981527
30
0
0
SPLINE
5
C3
100
AcDbEntity
8
1
62
256
6
ByLayer
370
18
48
1
60
0
100
AcDbSpline
70
4
71
3
72
65
73
61
40
0
40
0
40
0
40
0
40
0.0201318595802949
40
0.0201318595802949
40
0.0646713205084627
40
0.0646713205084627
40
0.109210781436631
40
0.109210781436631
40
0.131480511900714
40
0.131480511900714
40
0.153750242364799
40
0.176019972828883
40
0.176019972828883
40
0.198289703292967
40
0.198289703292967
40
0.242829164221133
40
0.242829164221133
40
0.287368625149299
40
0.287368625149299
40
0.331908086077465
40
0.331908086077465
40
0.354177816541548
40
0.354177816541548
40
0.376447547005632
40
0.376447547005632
40
0.4209870079338
40
0.4209870079338
40
0.465526468861967
40
0.465526468861967
40
0.510065929790135
40
0.510065929790135
40
0.53233566025422
40
0.53233566025422
40
0.554605390718305
40
0.576875121182389
40
0.576875121182389
40
0.599144851646474
40
0.599144851646474
40
0.621414582110559
40
0.621414582110559
40
0.643684312574644
40
0.643684312574644
40
0.688223773502814
40
0.688223773502814
40
0.732763234430984
40
0.732763234430984
40
0.755032964895069
40
0.755032964895069
40
0.777302695359154
40
0.799572425823239
40
0.799572425823239
40
0.821842156287324
40
0.821842156287324
40
0.866381617215493
40
0.866381617215493
40
0.910921078143661
40
0.910921078143661
40
0.95546053907183
40
0.95546053907183
40
1
40
1
40
1
40
1
41
1
10
22.0043500742689
20
-2.97179408497706
30
0
41
1
10
21.9128126593786
20
-3.01138199710596
30
0
41
1
10
21.8212536113189
20
-3.0504735073803
30
0
41
1
10
21.5269550057098
20
-3.1743001450094
30
0
41
1
10
21.3239642948519
20
-3.25687020666896
30
0
41
1
10
20.9175655252835
20
-3.41685708677616
30
0
41
1
10
20.714236026951
20
-3.49437176523369
30
0
41
1
10
20.4087441216626
20
-3.6064686401015
30
0
41
1
10
20.3068219668221
20
-3.64312764247052
30
0
41
1
10
20.1026945589303
20
-3.71490457138256
30
0
41
1
10
19.8982711362502
20
-3.78512618321861
30
0
41
1
10
19.693285659343
20
-3.85227064720928
30
0
41
1
10
19.4880488026125
20
-3.91790234341863
30
0
41
1
10
19.3852317713336
20
-3.94999061976088
30
0
41
1
10
19.0775100787677
20
-4.04365450438166
30
0
41
1
10
18.8730421148262
20
-4.10268679450692
30
0
41
1
10
18.4647454644149
20
-4.21331933813852
30
0
41
1
10
18.2608721882476
20
-4.26489798665048
30
0
41
1
10
17.8538537240835
20
-4.36087027541086
30
0
41
1
10
17.6507884150587
20
-4.40531590750962
30
0
41
1
10
17.3465682942911
20
-4.46645301531484
30
0
41
1
10
17.2452158005556
20
-4.48590431798618
30
0
41
1
10
17.0425196053114
20
-4.5228972775198
30
0
41
1
10
16.9411685666433
20
-4.5404356065651
30
0
41
1
10
16.6371260620354
20
-4.59020879731122
30
0
41
1
10
16.4344517196485
20
-4.61961317843509
30
0
41
1
10
16.0293727662792
20
-4.67094923001804
30
0
41
1
10
15.8269328889096
20
-4.69284636511773
30
0
41
1
10
15.4215525461721
20
-4.72881825848162
30
0
41
1
10
15.2185558257093
20
-4.74289440744448
30
0
41
1
10
14.9137256585036
20
-4.75817745602745
30
0
41
1
10
14.8120659432818
20
-4.76229944011919
30
0
41
1
10
14.6086646302292
20
-4.76858267388499
30
0
41
1
10
14.4051651568794
20
-4.77290134663394
30
0
41
1
10
14.2013140062469
20
-4.77324481753402
30
0
41
1
10
13.9971880364397
20
-4.77159203535513
30
0
41
1
10
13.8949787598889
20
-4.76976903702973
30
0
41
1
10
13.6902715661888
20
-4.76412798276391
30
0
41
1
10
13.5877755283275
20
-4.76031004739451
30
0
41
1
10
13.3825259835524
20
-4.75066216447337
30
0
41
1
10
13.2796984443689
20
-4.74482521210709
30
0
41
1
10
12.9718372372832
20
-4.72431783549095
30
0
41
1
10
12.7671883120607
20
-4.70663941467615
30
0
41
1
10
12.3583600171075
20
-4.66355837066695
30
0
41
1
10
12.154118951671
20
-4.63819606639461
30
0
41
1
10
11.8481341179284
20
-4.59445422444219
30
0
41
1
10
11.746208509581
20
-4.57891921127995
30
0
41
1
10
11.5425160299247
20
-4.54592562507122
30
0
41
1
10
11.3389657981088
20
-4.51101566227055
30
0
41
1
10
11.1355445298521
20
-4.4723545849196
30
0
41
1
10
10.9320872666485
20
-4.43188746920828
30
0
41
1
10
10.8303313516317
20
-4.41075807567464
30
0
41
1
10
10.5249865831551
20
-4.34469606459248
30
0
41
1
10
10.3213291909783
20
-4.2970917400732
30
0
41
1
10
9.91407531187633
20
-4.19451825139566
30
0
41
1
10
9.71045161063751
20
-4.1395530198464
30
0
41
1
10
9.30251341356075
20
-4.02284045371596
30
0
41
1
10
9.09813530809407
20
-3.96117129445344
30
0
41
1
10
8.68869403618288
20
-3.8310549040726
30
0
41
1
10
8.48363309611895
20
-3.76260781282841
30
0
41
1
10
8.27834060829798
20
-3.6905436062404
30
0
0
SPLINE
5
C4
100
AcDbEntity
8
1
62
256
6
ByLayer
370
18
48
1
60
0
100
AcDbSpline
70
4
71
3
72
64
73
60
40
0
40
0
40
0
40
0
40
0.0440024631177267
40
0.0440024631177267
40
0.0880049262354533
40
0.0880049262354533
40
0.132007389353179
40
0.132007389353179
40
0.154008620912041
40
0.154008620912041
40
0.176009852470904
40
0.176009852470904
40
0.220012315588629
40
0.220012315588629
40
0.264014778706355
40
0.264014778706355
40
0.286016010265219
40
0.286016010265219
40
0.308017241824083
40
0.308017241824083
40
0.352019704941811
40
0.352019704941811
40
0.396022168059538
40
0.396022168059538
40
0.440024631177266
40
0.440024631177266
40
0.484027094294994
40
0.484027094294994
40
0.50602832585386
40
0.50602832585386
40
0.528029557412725
40
0.528029557412725
40
0.572032020530456
40
0.572032020530456
40
0.594033252089321
40
0.594033252089321
40
0.616034483648186
40
0.616034483648186
40
0.660036946765916
40
0.660036946765916
40
0.704039409883647
40
0.704039409883647
40
0.726040641442511
40
0.726040641442511
40
0.748041873001375
40
0.748041873001375
40
0.792044336119105
40
0.792044336119105
40
0.836046799236836
40
0.836046799236836
40
0.880049262354566
40
0.880049262354566
40
0.924051725472297
40
0.924051725472297
40
0.968054188590028
40
0.968054188590028
40
0.990055420148894
40
0.990055420148894
40
1
40
1
40
1
40
1
41
1
10
17.58246472397
20
-0.756311962541815
30
0
41
1
10
17.7631902420125
20
-0.85538280829067
30
0
41
1
10
17.9437444927566
20
-0.953152438909626
30
0
41
1
10
18.3042628876328
20
-1.14667403718633
30
0
41
1
10
18.4842260294818
20
-1.24242764336091
30
0
41
1
10
18.8432929355433
20
-1.43243677067164
30
0
41
1
10
19.0223485989022
20
-1.52677048333118
30
0
41
1
10
19.290735943559
20
-1.66633570497029
30
0
41
1
10
19.3801638219457
20
-1.71253930627717
30
0
41
1
10
19.559012384691
20
-1.80420899132369
30
0
41
1
10
19.6484384408056
20
-1.84966628005893
30
0
41
1
10
19.9166466549763
20
-1.98504449800404
30
0
41
1
10
20.0953361765801
20
-2.07401263719603
30
0
41
1
10
20.4522648673172
20
-2.24972920759535
30
0
41
1
10
20.6305231108975
20
-2.33643770288916
30
0
41
1
10
20.8981187215811
20
-2.46393082105322
30
0
41
1
10
20.9873489439145
20
-2.50600615281914
30
0
41
1
10
21.1659291592616
20
-2.58922791829545
30
0
41
1
10
21.2552725894569
20
-2.63038516335354
30
0
41
1
10
21.5233787178675
20
-2.75262948595585
30
0
41
1
10
21.7021943758332
20
-2.83252564501825
30
0
41
1
10
22.0598563125927
20
-2.98925973188509
30
0
41
1
10
22.2387652123886
20
-3.0659974418005
30
0
41
1
10
22.5973787322593
20
-3.21526451938695
30
0
41
1
10
22.7771358602631
20
-3.28772775365113
30
0
41
1
10
23.1372934338446
20
-3.42867000596093
30
0
41
1
10
23.3176397442036
20
-3.49722027430164
30
0
41
1
10
23.5885916434443
20
-3.59706143181356
30
0
41
1
10
23.6790638832879
20
-3.62984431113421
30
0
41
1
10
23.8597323417996
20
-3.69405526753866
30
0
41
1
10
23.949971784506
20
-3.72550317504661
30
0
41
1
10
24.220504358635
20
-3.81778263114902
30
0
41
1
10
24.4006539695102
20
-3.87651168820943
30
0
41
1
10
24.6702889822669
20
-3.96081882852542
30
0
41
1
10
24.760071487274
20
-3.9882853139888
30
0
41
1
10
24.9394240870725
20
-4.04196574075243
30
0
41
1
10
25.0289901954258
20
-4.06818274225643
30
0
41
1
10
25.2974912433697
20
-4.14482769218469
30
0
41
1
10
25.4762465952258
20
-4.19322807422299
30
0
41
1
10
25.8338074658794
20
-4.28423176753927
30
0
41
1
10
26.0125862328219
20
-4.32687457899004
30
0
41
1
10
26.2804670378707
20
-4.38680199261538
30
0
41
1
10
26.3697161178185
20
-4.40610033933419
30
0
41
1
10
26.5481152387293
20
-4.44333963825849
30
0
41
1
10
26.6372724096542
20
-4.46127470691923
30
0
41
1
10
26.9047547950338
20
-4.51292618395831
30
0
41
1
10
27.08311177279
20
-4.54447268193579
30
0
41
1
10
27.4403472063766
20
-4.60158045177039
30
0
41
1
10
27.6191539884225
20
-4.62719417096369
30
0
41
1
10
27.9768181472292
20
-4.67266431565258
30
0
41
1
10
28.155630909654
20
-4.69252360835551
30
0
41
1
10
28.5137933609294
20
-4.72618272101855
30
0
41
1
10
28.6931945104099
20
-4.7399710949737
30
0
41
1
10
29.0529298633063
20
-4.76140626425047
30
0
41
1
10
29.2331739261355
20
-4.76908246572128
30
0
41
1
10
29.5039134599537
20
-4.77598028325068
30
0
41
1
10
29.5942181167783
20
-4.77750785043824
30
0
41
1
10
29.7254822333401
20
-4.77858625077477
30
0
41
1
10
29.7663339041363
20
-4.7787611747417
30
0
41
1
10
29.8071688368011
20
-4.77877583996312
30
0
0
SPLINE
5
C5
100
AcDbEntity
8
1
62
256
6
ByLayer
370
18
48
1
60
0
100
AcDbSpline
70
4
71
3
72
168
73
164
40
0
40
0
40
0
40
0
40
0.0030079849145746
40
0.0030079849145746
40
0.0183548236236403
40
0.0183548236236403
40
0.033701662332706
40
0.033701662332706
40
0.0490485010417717
40
0.0490485010417717
40
0.0643953397508374
40
0.0643953397508374
40
0.0720687591053707
40
0.0720687591053707
40
0.079742178459904
40
0.079742178459904
40
0.0950890171689697
40
0.0950890171689697
40
0.110435855878035
40
0.110435855878035
40
0.118109275232568
40
0.118109275232568
40
0.125782694587101
40
0.125782694587101
40
0.133456113941634
40
0.133456113941634
40
0.141129533296167
40
0.141129533296167
40
0.156476372005232
40
0.156476372005232
40
0.171823210714296
40
0.171823210714296
40
0.187170049423361
40
0.187170049423361
40
0.202516888132426
40
0.202516888132426
40
0.217863726841491
40
0.217863726841491
40
0.225537146196023
40
0.225537146196023
40
0.233210565550556
40
0.233210565550556
40
0.248557404259622
40
0.248557404259622
40
0.263904242968687
40
0.263904242968687
40
0.279251081677753
40
0.279251081677753
40
0.294597920386819
40
0.294597920386819
40
0.309944759095884
40
0.309944759095884
40
0.317618178450417
40
0.317618178450417
40
0.32529159780495
40
0.32529159780495
40
0.332965017159483
40
0.332965017159483
40
0.340638436514016
40
0.340638436514016
40
0.355985275223082
40
0.355985275223082
40
0.371332113932147
40
0.371332113932147
40
0.37900553328668
40
0.37900553328668
40
0.386678952641212
40
0.386678952641212
40
0.402025791350276
40
0.402025791350276
40
0.41737263005934
40
0.41737263005934
40
0.432719468768404
40
0.432719468768404
40
0.448066307477468
40
0.448066307477468
40
0.463413146186532
40
0.463413146186532
40
0.478759984895596
40
0.478759984895596
40
0.486433404250128
40
0.486433404250128
40
0.49410682360466
40
0.49410682360466
40
0.509453662313724
40
0.509453662313724
40
0.524800501022788
40
0.524800501022788
40
0.53247392037732
40
0.53247392037732
40
0.540147339731852
40
0.540147339731852
40
0.555494178440916
40
0.555494178440916
40
0.57084101714998
40
0.57084101714998
40
0.586187855859044
40
0.586187855859044
40
0.601534694568108
40
0.601534694568108
40
0.616881533277172
40
0.616881533277172
40
0.632228371986236
40
0.632228371986236
40
0.639901791340767
40
0.639901791340767
40
0.647575210695299
40
0.647575210695299
40
0.65524863004983
40
0.65524863004983
40
0.662922049404362
40
0.662922049404362
40
0.678268888113425
40
0.678268888113425
40
0.685942307467956
40
0.685942307467956
40
0.693615726822489
40
0.693615726822489
40
0.708962565531553
40
0.708962565531553
40
0.724309404240617
40
0.724309404240617
40
0.73965624294968
40
0.73965624294968
40
0.755003081658745
40
0.755003081658745
40
0.770349920367808
40
0.770349920367808
40
0.785696759076872
40
0.785696759076872
40
0.801043597785936
40
0.801043597785936
40
0.816390436495
40
0.816390436495
40
0.831737275204064
40
0.831737275204064
40
0.839410694558596
40
0.839410694558596
40
0.847084113913127
40
0.847084113913127
40
0.86243095262219
40
0.86243095262219
40
0.877777791331254
40
0.877777791331254
40
0.893124630040317
40
0.893124630040317
40
0.90847146874938
40
0.90847146874938
40
0.923818307458444
40
0.923818307458444
40
0.939165146167508
40
0.939165146167508
40
0.94683856552204
40
0.94683856552204
40
0.954511984876573
40
0.954511984876573
40
0.969858823585641
40
0.969858823585641
40
0.985205662294709
40
0.985205662294709
40
0.992879081649242
40
0.992879081649242
40
1
40
1
40
1
40
1
41
1
10
49.2097080096259
20
2.97116203485783
30
0
41
1
10
49.2448619666339
20
2.98637273003629
30
0
41
1
10
49.2800016041427
20
3.00151151546919
30
0
41
1
10
49.4943305579607
20
3.09346123035439
30
0
41
1
10
49.6730918262053
20
3.16856409392503
30
0
41
1
10
50.0303509339064
20
3.31432670620268
30
0
41
1
10
50.2088959929193
20
3.38492777243439
30
0
41
1
10
50.5660465007313
20
3.52134629017868
30
0
41
1
10
50.7445614478987
20
3.58728674244429
30
0
41
1
10
51.1012217699961
20
3.71491399035165
30
0
41
1
10
51.2793537327966
20
3.77660293819395
30
0
41
1
10
51.5467764310632
20
3.8653292933528
30
0
41
1
10
51.6359516019526
20
3.89427542492137
30
0
41
1
10
51.8144342789303
20
3.95084649308276
30
0
41
1
10
51.9037428622336
20
3.97847116930964
30
0
41
1
10
52.171786652157
20
4.05945571508073
30
0
41
1
10
52.3506189575091
20
4.11095038244707
30
0
41
1
10
52.7083682157972
20
4.20905739064455
30
0
41
1
10
52.8873240499736
20
4.25562061174367
30
0
41
1
10
53.1563814153148
20
4.32125259124845
30
0
41
1
10
53.2461698860224
20
4.3424306096023
30
0
41
1
10
53.4259946269032
20
4.38335668379085
30
0
41
1
10
53.5160224135165
20
4.40311220191643
30
0
41
1
10
53.696254021554
20
4.44124622300904
30
0
41
1
10
53.7864559307212
20
4.45962589100816
30
0
41
1
10
53.9670108367821
20
4.49501174676533
30
0
41
1
10
54.0574114576194
20
4.51203085674783
30
0
41
1
10
54.3284976776713
20
4.56091743087245
30
0
41
1
10
54.5086828386629
20
4.59050158504408
30
0
41
1
10
54.8686058616053
20
4.64340628955944
30
0
41
1
10
55.0483923019264
20
4.66672198432087
30
0
41
1
10
55.4072904961005
20
4.7073450308641
30
0
41
1
10
55.5863568484583
20
4.72466078849402
30
0
41
1
10
55.9438336700861
20
4.75323742393144
30
0
41
1
10
56.1223264786623
20
4.76446750441781
30
0
41
1
10
56.4793882002638
20
4.78076963354624
30
0
41
1
10
56.6579697554361
20
4.7858582259027
30
0
41
1
10
56.9256191741714
20
4.7889577399373
30
0
41
1
10
57.0148026701524
20
4.78923294707474
30
0
41
1
10
57.1930827197606
20
4.78825755671247
30
0
41
1
10
57.282179780396
20
4.7870058955734
30
0
41
1
10
57.5494802170411
20
4.78095343336838
30
0
41
1
10
57.7277097764228
20
4.77385217156044
30
0
41
1
10
58.0847497624763
20
4.75363353998347
30
0
41
1
10
58.2635159574703
20
4.74052473235278
30
0
41
1
10
58.6211758808757
20
4.7081902574208
30
0
41
1
10
58.8000247740023
20
4.68893478615115
30
0
41
1
10
59.1582301758189
20
4.6443049272938
30
0
41
1
10
59.3376475545843
20
4.61895751135501
30
0
41
1
10
59.6975094048524
20
4.56240083815629
30
0
41
1
10
59.8778730744727
20
4.53116197212304
30
0
41
1
10
60.1488486504208
20
4.47964761893252
30
0
41
1
10
60.239306570043
20
4.46168087549771
30
0
41
1
10
60.4198561316724
20
4.42431501320408
30
0
41
1
10
60.510001956458
20
4.4049119105897
30
0
41
1
10
60.690126456856
20
4.36474202291683
30
0
41
1
10
60.7801034645759
20
4.34397415562316
30
0
41
1
10
60.9599525206213
20
4.30113990329804
30
0
41
1
10
61.049833102747
20
4.27908134873206
30
0
41
1
10
61.319291063085
20
4.21095996076991
30
0
41
1
10
61.4986525763643
20
4.1629275907695
30
0
41
1
10
61.8565827981332
20
4.06141554192911
30
0
41
1
10
62.0351452257071
20
4.00791606612347
30
0
41
1
10
62.3029034376488
20
3.92408184092128
30
0
41
1
10
62.3921383957044
20
3.8955375264807
30
0
41
1
10
62.5706359012584
20
3.83732818389052
30
0
41
1
10
62.6598968004215
20
3.80766220114035
30
0
41
1
10
62.9276328658013
20
3.71689866711287
30
0
41
1
10
63.1060406647326
20
3.65401454234552
30
0
41
1
10
63.4625107102942
20
3.52324119783359
30
0
41
1
10
63.6406184543015
20
3.45539552437805
30
0
41
1
10
63.9972464714276
20
3.31562131211751
30
0
41
1
10
64.1758207723339
20
3.24377551632969
30
0
41
1
10
64.5333168525619
20
3.09596247155844
30
0
41
1
10
64.7121750019053
20
3.01990494598798
30
0
41
1
10
65.0700554800433
20
2.86331965988708
30
0
41
1
10
65.249152765933
20
2.78289295073415
30
0
41
1
10
65.6082781334378
20
2.61868418835613
30
0
41
1
10
65.7883527955982
20
2.53498988289599
30
0
41
1
10
66.0589891564766
20
2.40665298247876
30
0
41
1
10
66.149286981006
20
2.36340372690449
30
0
41
1
10
66.3300356165666
20
2.27591733632835
30
0
41
1
10
66.4204174716459
20
2.23169476970415
30
0
41
1
10
66.6909914481251
20
2.09811925183072
30
0
41
1
10
66.8709085829974
20
2.00777546816329
30
0
41
1
10
67.2303932218593
20
1.82553310965946
30
0
41
1
10
67.4099690695417
20
1.73365204509872
30
0
41
1
10
67.6787895949507
20
1.5941836994995
30
0
41
1
10
67.7683101882132
20
1.54742703677675
30
0
41
1
10
67.9471587757771
20
1.45334291904558
30
0
41
1
10
68.03648921528
20
1.40601965149088
30
0
41
1
10
68.3043357001287
20
1.26344940012751
30
0
41
1
10
68.4827244616547
20
1.16763275096676
30
0
41
1
10
68.8396558626786
20
0.975379700302568
30
0
41
1
10
69.0181476216742
20
0.878853944175262
30
0
41
1
10
69.3748261928906
20
0.68435873563655
30
0
41
1
10
69.5529662851507
20
0.586301897182466
30
0
41
1
10
69.9093402451641
20
0.389459679687036
30
0
41
1
10
70.0876329950159
20
0.290782719649315
30
0
41
1
10
70.4448207102309
20
0.0936458588120956
30
0
41
1
10
70.6236327532149
20
-0.0049657752921064
30
0
41
1
10
70.9813928900108
20
-0.202843139036361
30
0
41
1
10
71.1603012077683
20
-0.302185927983402
30
0
41
1
10
71.4291798437476
20
-0.450927303067289
30
0
41
1
10
71.5188938829246
20
-0.500458616548997
30
0
41
1
10
71.6985604910227
20
-0.599303890039039
30
0
41
1
10
71.7885215492036
20
-0.648601601141507
30
0
41
1
10
71.9686652343325
20
-0.747011458504801
30
0
41
1
10
72.0588435254953
20
-0.796131846326119
30
0
41
1
10
72.2393669716453
20
-0.894293306350193
30
0
41
1
10
72.3297522126845
20
-0.943349821691612
30
0
41
1
10
72.6008947265501
20
-1.09031097032877
30
0
41
1
10
72.7810318395358
20
-1.18771396077003
30
0
41
1
10
73.0508270938469
20
-1.33199442248673
30
0
41
1
10
73.1406870818934
20
-1.37979139838328
30
0
41
1
10
73.3203283313112
20
-1.47468462807097
30
0
41
1
10
73.4101068613046
20
-1.52178648387903
30
0
41
1
10
73.6792345151139
20
-1.66221743145363
30
0
41
1
10
73.8583544990597
20
-1.75471149810056
30
0
41
1
10
74.2158316164394
20
-1.93773004799851
30
0
41
1
10
74.3942388605389
20
-2.02815974194695
30
0
41
1
10
74.7510461187622
20
-2.20576913058656
30
0
41
1
10
74.9295002894403
20
-2.29286747468208
30
0
41
1
10
75.2863130734333
20
-2.46401435699872
30
0
41
1
10
75.4646111386153
20
-2.54815831888226
30
0
41
1
10
75.820945504256
20
-2.71361956642499
30
0
41
1
10
75.9990589096922
20
-2.79481133296468
30
0
41
1
10
76.3557950823661
20
-2.95318860608395
30
0
41
1
10
76.5344649887916
20
-3.03031395040779
30
0
41
1
10
76.8920688977472
20
-3.18093991050958
30
0
41
1
10
77.0709588161118
20
-3.25449863935268
30
0
41
1
10
77.4290297194965
20
-3.39788107898707
30
0
41
1
10
77.6082936415048
20
-3.46758726667216
30
0
41
1
10
77.9678450313876
20
-3.60226713065941
30
0
41
1
10
78.1481421859126
20
-3.66723873927373
30
0
41
1
10
78.4190791211487
20
-3.76148737564213
30
0
41
1
10
78.5095500979983
20
-3.79238590180233
30
0
41
1
10
78.6901277378139
20
-3.85293541695421
30
0
41
1
10
78.7802672428221
20
-3.8825942994371
30
0
41
1
10
79.0503764414891
20
-3.96956894657788
30
0
41
1
10
79.2300547432424
20
-4.0248588251257
30
0
41
1
10
79.5891387922833
20
-4.12964382689728
30
0
41
1
10
79.7684905653456
20
-4.17920929931972
30
0
41
1
10
80.1264660883458
20
-4.27306698079335
30
0
41
1
10
80.3050433070243
20
-4.31738432112533
30
0
41
1
10
80.6618820721241
20
-4.40035543714944
30
0
41
1
10
80.8402006899304
20
-4.43896766594787
30
0
41
1
10
81.1970059789039
20
-4.51027225229683
30
0
41
1
10
81.3754086640877
20
-4.54303246343892
30
0
41
1
10
81.7319175271571
20
-4.60293286014408
30
0
41
1
10
81.9099841579925
20
-4.63007815972136
30
0
41
1
10
82.1772850152977
20
-4.66630601919081
30
0
41
1
10
82.266420029412
20
-4.67763487233427
30
0
41
1
10
82.4448232477931
20
-4.69877733246582
30
0
41
1
10
82.5340999777571
20
-4.70858848744933
30
0
41
1
10
82.8021013473463
20
-4.73577174849882
30
0
41
1
10
82.9809641039375
20
-4.75091019331887
30
0
41
1
10
83.3388419263334
20
-4.77520500881735
30
0
41
1
10
83.5178497694136
20
-4.78434549892833
30
0
41
1
10
83.7869867165398
20
-4.79339416766953
30
0
41
1
10
83.8767996676319
20
-4.79563591292111
30
0
41
1
10
84.0502133406627
20
-4.79846173353531
30
0
41
1
10
84.1337943766547
20
-4.7991546210535
30
0
41
1
10
84.2174658094617
20
-4.79917991332496
30
0
0
SPLINE
5
C6
100
AcDbEntity
8
1
62
256
6
ByLayer
370
18
48
1
60
0
100
AcDbSpline
70
4
71
3
72
170
73
166
40
0
40
0
40
0
40
0
40
0.0312499999999996
40
0.0312499999999996
40
0.0624999999999992
40
0.0624999999999992
40
0.0937499999999988
40
0.0937499999999988
40
0.124999999999998
40
0.124999999999998
40
0.140624999999998
40
0.140624999999998
40
0.156249999999998
40
0.156249999999998
40
0.187499999999997
40
0.187499999999997
40
0.203124999999996
40
0.203124999999996
40
0.218749999999996
40
0.218749999999996
40
0.234374999999995
40
0.234374999999995
40
0.249999999999995
40
0.249999999999995
40
0.265624999999994
40
0.265624999999994
40
0.273437499999994
40
0.273437499999994
40
0.281249999999994
40
0.281249999999994
40
0.289062499999994
40
0.289062499999994
40
0.296874999999995
40
0.296874999999995
40
0.304687499999995
40
0.304687499999995
40
0.312499999999995
40
0.312499999999995
40
0.320312499999995
40
0.320312499999995
40
0.324218749999995
40
0.324218749999995
40
0.328124999999994
40
0.328124999999994
40
0.332031249999994
40
0.332031249999994
40
0.335937499999994
40
0.335937499999994
40
0.343749999999994
40
0.343749999999994
40
0.359374999999994
40
0.359374999999994
40
0.374999999999994
40
0.374999999999994
40
0.382812499999994
40
0.382812499999994
40
0.386718749999995
40
0.386718749999995
40
0.390624999999995
40
0.406249999999998
40
0.406249999999998
40
0.437500000000002
40
0.437500000000002
40
0.468750000000006
40
0.468750000000006
40
0.484375000000008
40
0.484375000000008
40
0.500000000000009
40
0.500000000000009
40
0.50781250000001
40
0.50781250000001
40
0.515625000000011
40
0.515625000000011
40
0.531250000000013
40
0.531250000000013
40
0.546875000000014
40
0.546875000000014
40
0.562500000000016
40
0.562500000000016
40
0.570312500000017
40
0.570312500000017
40
0.578125000000017
40
0.578125000000017
40
0.593750000000018
40
0.593750000000018
40
0.597656250000018
40
0.597656250000018
40
0.601562500000017
40
0.601562500000017
40
0.609375000000017
40
0.609375000000017
40
0.617187500000016
40
0.617187500000016
40
0.621093750000016
40
0.621093750000016
40
0.623046875000016
40
0.623046875000016
40
0.625000000000016
40
0.625000000000016
40
0.632812500000014
40
0.632812500000014
40
0.634765625000014
40
0.634765625000014
40
0.636718750000014
40
0.636718750000014
40
0.640625000000015
40
0.640625000000015
40
0.644531250000015
40
0.644531250000015
40
0.646484375000015
40
0.646484375000015
40
0.647460937500015
40
0.647460937500015
40
0.648437500000015
40
0.648437500000015
40
0.652343750000015
40
0.652343750000015
40
0.656250000000015
40
0.656250000000015
40
0.660156250000015
40
0.660156250000015
40
0.664062500000015
40
0.664062500000015
40
0.671875000000015
40
0.671875000000015
40
0.687500000000014
40
0.687500000000014
40
0.695312500000014
40
0.699218750000014
40
0.699218750000014
40
0.703125000000014
40
0.703125000000014
40
0.718750000000013
40
0.718750000000013
40
0.734375000000012
40
0.734375000000012
40
0.750000000000011
40
0.750000000000011
40
0.757812500000011
40
0.757812500000011
40
0.76562500000001
40
0.76562500000001
40
0.78125000000001
40
0.78125000000001
40
0.79687500000001
40
0.79687500000001
40
0.81250000000001
40
0.81250000000001
40
0.82812500000001
40
0.82812500000001
40
0.83593750000001
40
0.83593750000001
40
0.84375000000001
40
0.84375000000001
40
0.875000000000008
40
0.875000000000008
40
0.906250000000006
40
0.906250000000006
40
0.937500000000004
40
0.937500000000004
40
0.968750000000002
40
0.968750000000002
40
0.984375000000001
40
0.984375000000001
40
1
40
1
40
1
40
1
41
1
10
17.5824907427053
20
-0.756301938509012
30
0
41
1
10
17.3425339561444
20
-0.620054574670661
30
0
41
1
10
17.1027161056351
20
-0.483794519669288
30
0
41
1
10
16.6230989372058
20
-0.211703991226131
30
0
41
1
10
16.383309356604
20
-0.0758561046984312
30
0
41
1
10
15.9032980617634
20
0.194605343654359
30
0
41
1
10
15.6630816146249
20
0.329227849747184
30
0
41
1
10
15.1811998824725
20
0.59541771758893
30
0
41
1
10
14.9395000603104
20
0.726922729362485
30
0
41
1
10
14.5749667789039
20
0.920295160411484
30
0
41
1
10
14.4531293126802
20
0.984112849211613
30
0
41
1
10
14.2086791656145
20
1.110253195018
30
0
41
1
10
14.0860413499436
20
1.17258991202579
30
0
41
1
10
13.7178809742619
20
1.35634820894575
30
0
41
1
10
13.4717104823361
20
1.47463404960126
30
0
41
1
10
13.1004607578356
20
1.64415107347423
30
0
41
1
10
12.9763888486194
20
1.69936510278418
30
0
41
1
10
12.727517370739
20
1.80711843043116
30
0
41
1
10
12.6027215120879
20
1.85966564114597
30
0
41
1
10
12.3522280128983
20
1.96179527460063
30
0
41
1
10
12.2265191440353
20
2.01135245719587
30
0
41
1
10
11.9740273274999
20
2.10723778075857
30
0
41
1
10
11.8472516646004
20
2.15358351210614
30
0
41
1
10
11.5927009050233
20
2.24333203776922
30
0
41
1
10
11.4649493161901
20
2.28678446043824
30
0
41
1
10
11.2724097442444
20
2.34948622665297
30
0
41
1
10
11.208070716746
20
2.36995877632177
30
0
41
1
10
11.0790241885857
20
2.40995733750157
30
0
41
1
10
11.0143139655962
20
2.42947773264672
30
0
41
1
10
10.8845458929384
20
2.46763439409099
30
0
41
1
10
10.8194849985333
20
2.48626461154623
30
0
41
1
10
10.689200085112
20
2.52304448874392
30
0
41
1
10
10.6239799490794
20
2.5412027664394
30
0
41
1
10
10.4937427467705
20
2.57780792618127
30
0
41
1
10
10.4287313351405
20
2.59626674836403
30
0
41
1
10
10.2992972037599
20
2.63425774000069
30
0
41
1
10
10.2348765413244
20
2.65379393865908
30
0
41
1
10
10.106871700066
20
2.6944142115714
30
0
41
1
10
10.0432644087113
20
2.71545151248478
30
0
41
1
10
9.948796407695
20
2.74877222497742
30
0
41
1
10
9.91747719308492
20
2.76019934899841
30
0
41
1
10
9.85520210174761
20
2.78372997294994
30
0
41
1
10
9.82425378548754
20
2.79584820528896
30
0
41
1
10
9.762420603218
20
2.82014476053447
30
0
41
1
10
9.73151079563354
20
2.83227276817866
30
0
41
1
10
9.66944198425244
20
2.85596239887661
30
0
41
1
10
9.63828835513232
20
2.86753525665429
30
0
41
1
10
9.54442069273077
20
2.90135146924641
30
0
41
1
10
9.48133015886938
20
2.92275398438923
30
0
41
1
10
9.29080964090781
20
2.98418983153982
30
0
41
1
10
9.16209434765273
20
3.02137833804812
30
0
41
1
10
8.90122561050384
20
3.08850775023149
30
0
41
1
10
8.76909781113687
20
3.11850053118934
30
0
41
1
10
8.56866560646387
20
3.15892047480628
30
0
41
1
10
8.50147990793664
20
3.1716284625947
30
0
41
1
10
8.40015867720959
20
3.18960128733909
30
0
41
1
10
8.36629877508429
20
3.19540929170489
30
0
41
1
10
8.29861075600229
20
3.20663640974109
30
0
41
1
10
8.1293381763505
20
3.2337552565665
30
0
41
1
10
7.95980885202499
20
3.25629605051668
30
0
41
1
10
7.55249835680021
20
3.30282659915915
30
0
41
1
10
7.28037799412704
20
3.32389545131949
30
0
41
1
10
6.73513870782497
20
3.34973688943813
30
0
41
1
10
6.46202226008714
20
3.35453790340085
30
0
41
1
10
6.05166459041658
20
3.35072019204102
30
0
41
1
10
5.9147643084375
20
3.34759706664045
30
0
41
1
10
5.64073859712892
20
3.33767971750061
30
0
41
1
10
5.5036134657984
20
3.33089055475983
30
0
41
1
10
5.29774886944961
20
3.3177746984108
30
0
41
1
10
5.22909769056315
20
3.31291110365129
30
0
41
1
10
5.09173330500803
20
3.30214385530698
30
0
41
1
10
5.02295897622275
20
3.29623373712374
30
0
41
1
10
4.81714619712204
20
3.27691100013703
30
0
41
1
10
4.68055711110367
20
3.26191005331123
30
0
41
1
10
4.40867840350438
20
3.2273177668072
30
0
41
1
10
4.27338388437232
20
3.2077442408781
30
0
41
1
10
4.00426793878586
20
3.16321119630035
30
0
41
1
10
3.87044942457061
20
3.13824411487658
30
0
41
1
10
3.6710652744639
20
3.09570058529289
30
0
41
1
10
3.60482819708963
20
3.08066828073402
30
0
41
1
10
3.47285800838372
20
3.048654092102
30
0
41
1
10
3.40704531597072
20
3.03165126080745
30
0
41
1
10
3.21118270383414
20
2.97738685193554
30
0
41
1
10
3.08270872346864
20
2.93695680350964
30
0
41
1
10
2.92578386810703
20
2.87871698934771
30
0
41
1
10
2.89458462780863
20
2.86667830868123
30
0
41
1
10
2.83259657929736
20
2.8417296931479
30
0
41
1
10
2.80177358729105
20
2.82880428953888
30
0
41
1
10
2.71038564016368
20
2.7887302296179
30
0
41
1
10
2.65081919970078
20
2.76027368531251
30
0
41
1
10
2.53509053961614
20
2.69893008348586
30
0
41
1
10
2.47892860074126
20
2.66604445176384
30
0
41
1
10
2.39800130137809
20
2.61232930081172
30
0
41
1
10
2.37157954451863
20
2.59369069998465
30
0
41
1
10
2.33290918028442
20
2.56444708519092
30
0
41
1
10
2.32017981271355
20
2.55448440477036
30
0
41
1
10
2.29507188642194
20
2.53408851312753
30
0
41
1
10
2.2826703833594
20
2.52363504492911
30
0
41
1
10
2.22194505173493
20
2.47033802542177
30
0
41
1
10
2.17754948632589
20
2.42458381916461
30
0
41
1
10
2.12940559035951
20
2.36185333742378
30
0
41
1
10
2.12014543619245
20
2.34902903085168
30
0
41
1
10
2.10241020589848
20
2.3227838692614
30
0
41
1
10
2.09392202597923
20
2.30933571968933
30
0
41
1
10
2.07000281433892
20
2.26856801150885
30
0
41
1
10
2.05598905856249
20
2.24068484743737
30
0
41
1
10
2.03212552929142
20
2.18338444644286
30
0
41
1
10
2.02228810855115
20
2.15396389769524
30
0
41
1
10
2.01134323914039
20
2.10844486719597
30
0
41
1
10
2.00833280744882
20
2.09303958141828
30
0
41
1
10
2.00483553094782
20
2.06955980691504
30
0
41
1
10
2.00383785607786
20
2.06165346609944
30
0
41
1
10
2.0021982484933
20
2.0458695251539
30
0
41
1
10
2.00155350827083
20
2.03797854447674
30
0
41
1
10
1.99915793251503
20
1.998526119209
30
0
41
1
10
1.99995011739131
20
1.96697590997616
30
0
41
1
10
2.00477721620484
20
1.90377373668233
30
0
41
1
10
2.00871718942796
20
1.87211587233341
30
0
41
1
10
2.01802796170401
20
1.80859011595149
30
0
41
1
10
2.02342433364396
20
1.77669105388429
30
0
41
1
10
2.03501930860341
20
1.71279387944998
30
0
41
1
10
2.04121729406165
20
1.68085946065733
30
0
41
1
10
2.06082675722792
20
1.58505378650483
30
0
41
1
10
2.07529961773855
20
1.52119283910892
30
0
41
1
10
2.12364342193172
20
1.32990083370109
30
0
41
1
10
2.16253500643995
20
1.20279107790142
30
0
41
1
10
2.23087773249506
20
1.01295589052009
30
0
41
1
10
2.26751078671418
20
0.918233333937366
30
0
41
1
10
2.30770078248886
20
0.823792824304888
30
0
41
1
10
2.33527416970901
20
0.760894813656279
30
0
41
1
10
2.34946901783294
20
0.729439891420952
30
0
41
1
10
2.42192550693167
20
0.573271400996617
30
0
41
1
10
2.48486863538676
20
0.451223486168089
30
0
41
1
10
2.61971657843958
20
0.212341626618695
30
0
41
1
10
2.69163500191436
20
0.0955158261098461
30
0
41
1
10
2.84392323980268
20
-0.13319686215641
30
0
41
1
10
2.92430357128103
20
-0.245077356113256
30
0
41
1
10
3.05091194699409
20
-0.409355551169256
30
0
41
1
10
3.09418117904198
20
-0.463591030335323
30
0
41
1
10
3.18190938461862
20
-0.570013916340798
30
0
41
1
10
3.22645033982241
20
-0.622313130211808
30
0
41
1
10
3.36197472144181
20
-0.776662043376575
30
0
41
1
10
3.45485567710091
20
-0.876169254643429
30
0
41
1
10
3.6450744979656
20
-1.06925587057822
30
0
41
1
10
3.74241048455687
20
-1.16283631044453
30
0
41
1
10
3.94108863432058
20
-1.34470650168558
30
0
41
1
10
4.0424326659973
20
-1.43299377520546
30
0
41
1
10
4.24883557320334
20
-1.60471569764968
30
0
41
1
10
4.35389655430285
20
-1.6881479248967
30
0
41
1
10
4.51412226420067
20
-1.80989936512742
30
0
41
1
10
4.5680264058546
20
-1.84995588293827
30
0
41
1
10
4.6762315071735
20
-1.92864071305706
30
0
41
1
10
4.73057036120241
20
-1.96729971072477
30
0
41
1
10
5.00340429434738
20
-2.15734959062323
30
0
41
1
10
5.22531388932785
20
-2.29904901872365
30
0
41
1
10
5.67544454962291
20
-2.56536111874436
30
0
41
1
10
5.90366259736442
20
-2.68996622662468
30
0
41
1
10
6.36560354732734
20
-2.92467981028327
30
0
41
1
10
6.59932867386942
20
-3.03477850595823
30
0
41
1
10
7.07165631837492
20
-3.24235686962476
30
0
41
1
10
7.31026023481951
20
-3.33983090902507
30
0
41
1
10
7.67143943904986
20
-3.47762978943982
30
0
41
1
10
7.79241965413593
20
-3.52217054612703
30
0
41
1
10
8.03491033918604
20
-3.60841241843789
30
0
41
1
10
8.15647782193048
20
-3.65013631240157
30
0
41
1
10
8.27834510051392
20
-3.6905425019927
30
0
0
SPLINE
5
C7
100
AcDbEntity
8
1
62
256
6
ByLayer
370
18
48
1
60
0
100
AcDbSpline
70
4
71
3
72
51
73
47
40
0
40
0
40
0
40
0
40
0.0103463487679473
40
0.0293808110310313
40
0.0484152732941153
40
0.0674497355571991
40
0.0864841978202831
40
0.105518660083367
40
0.115035891214909
40
0.124553122346451
40
0.134070353477993
40
0.143587584609535
40
0.153104815741077
40
0.157863431306848
40
0.162622046872619
40
0.16738066243839
40
0.172139278004161
40
0.181656509135703
40
0.200690971398787
40
0.238759895924955
40
0.257794358188038
40
0.276828820451122
40
0.31489774497729
40
0.352966669503458
40
0.391035594029626
40
0.429104518555794
40
0.467173443081962
40
0.50524236760813
40
0.543311292134298
40
0.581380216660465
40
0.619449141186633
40
0.638483603449717
40
0.657518065712801
40
0.676552527975885
40
0.695586990238969
40
0.705104221370511
40
0.714621452502053
40
0.733655914765137
40
0.752690377028221
40
0.771724839291305
40
0.809793763817473
40
0.84786268834364
40
0.885931612869808
40
0.924000537395976
40
0.962069461922144
40
1
40
1
40
1
40
1
41
1
10
16.7868349622242
20
-0.288797980620501
30
0
41
1
10
16.7631859774885
20
-0.281007727936924
30
0
41
1
10
16.6949405404742
20
-0.259572470698146
30
0
41
1
10
16.5774174891419
20
-0.227431117956627
30
0
41
1
10
16.4320183144089
20
-0.195396928607465
30
0
41
1
10
16.2809887327291
20
-0.169021293076554
30
0
41
1
10
16.1249486503193
20
-0.147226958115311
30
0
41
1
10
15.9893075023743
20
-0.134252013937726
30
0
41
1
10
15.8780774676393
20
-0.126506106676629
30
0
41
1
10
15.7945663454288
20
-0.120757522374163
30
0
41
1
10
15.7124645030896
20
-0.113586923378108
30
0
41
1
10
15.6328650096362
20
-0.103904102589809
30
0
41
1
10
15.5693383516752
20
-0.0930219636402114
30
0
41
1
10
15.5214819872381
20
-0.0817978655219633
30
0
41
1
10
15.4870318478609
20
-0.0722069850276625
30
0
41
1
10
15.4534308660076
20
-0.0619258182174178
30
0
41
1
10
15.4079419993515
20
-0.0487249272437111
30
0
41
1
10
15.3236889573386
20
-0.0293163911497345
30
0
41
1
10
15.1445013855769
20
-0.0016334076284465
30
0
41
1
10
14.9147759063393
20
0.0063862513570143
30
0
41
1
10
14.6725003062973
20
-0.0039950371442785
30
0
41
1
10
14.4244450259603
20
-0.0252663132632449
30
0
41
1
10
14.1025619296224
20
-0.0700964089629963
30
0
41
1
10
13.703199842784
20
-0.148773222959335
30
0
41
1
10
13.3037546481681
20
-0.246637188582127
30
0
41
1
10
12.9012280611272
20
-0.362102095751283
30
0
41
1
10
12.4968253191891
20
-0.494979154577806
30
0
41
1
10
12.0907160468034
20
-0.645918499220244
30
0
41
1
10
11.6938668692095
20
-0.81201504530307
30
0
41
1
10
11.3062734142054
20
-0.995286316232523
30
0
41
1
10
10.9912706076806
20
-1.16619983616909
30
0
41
1
10
10.7548403159751
20
-1.31099499445258
30
0
41
1
10
10.58501589769
20
-1.42430259761579
30
0
41
1
10
10.4240091330841
20
-1.54310571736625
30
0
41
1
10
10.3005941209272
20
-1.64522763792155
30
0
41
1
10
10.2093673083424
20
-1.72845488761962
30
0
41
1
10
10.124548694994
20
-1.8129219416893
30
0
41
1
10
10.0304395287022
20
-1.91933879087173
30
0
41
1
10
9.91648554488194
20
-2.04693527442771
30
0
41
1
10
9.76053004459058
20
-2.21688650974284
30
0
41
1
10
9.56178796112118
20
-2.42902486870997
30
0
41
1
10
9.31724705060708
20
-2.68309409014262
30
0
41
1
10
9.06584972595977
20
-2.93634491465099
30
0
41
1
10
8.80869330444602
20
-3.1886844408821
30
0
41
1
10
8.54740696958842
20
-3.4404041008415
30
0
41
1
10
8.36882184190154
20
-3.60738678176759
30
0
41
1
10
8.27834060777073
20
-3.69054360672499
30
0
0
SPLINE
5
C8
100
AcDbEntity
8
1
62
256
6
ByLayer
370
18
48
1
60
0
100
AcDbSpline
70
4
71
3
72
21
73
17
40
0
40
0
40
0
40
0
40
0.0010906252235612
40
0.0129493862526185
40
0.0450097140517083
40
0.0892748427580528
40
0.184545378811299
40
0.266132700682527
40
0.335660331650035
40
0.39713342691229
40
0.475895034974262
40
0.551504146557126
40
0.627452174483592
40
0.730056470611092
40
0.865168147933846
40
1
40
1
40
1
40
1
41
1
10
82.905090266806
20
0.0180594628126016
30
0
41
1
10
82.905097954003
20
0.0181089598759172
30
0
41
1
10
82.9048920033208
20
0.018793320734062
30
0
41
1
10
82.8928843124711
20
0.0249876437486591
30
0
41
1
10
82.8403042935153
20
0.052145986311217
30
0
41
1
10
82.7008811218383
20
0.11713342770858
30
0
41
1
10
82.4833924849998
20
0.200072960943174
30
0
41
1
10
82.2084974353521
20
0.301700307350842
30
0
41
1
10
81.9315871895882
20
0.404593890630849
30
0
41
1
10
81.6244808433391
20
0.52372127406565
30
0
41
1
10
81.3145283278583
20
0.649409345421134
30
0
41
1
10
80.9821527163237
20
0.790128830242793
30
0
41
1
10
80.6165858108168
20
0.951146882979003
30
0
41
1
10
80.1610211127177
20
1.16099155405001
30
0
41
1
10
79.6186404480079
20
1.42348398588786
30
0
41
1
10
79.224456852825
20
1.62430797994821
30
0
41
1
10
79.0272843997856
20
1.72729002004488
30
0
0
SPLINE
5
C9
100
AcDbEntity
8
1
62
256
6
ByLayer
370
18
48
1
60
0
100
AcDbSpline
70
4
71
3
72
18
73
14
40
0
40
0
40
0
40
0
40
0.0108858747332752
40
0.0531147964606967
40
0.157389417606355
40
0.268189496438592
40
0.378591491415282
40
0.448781618608689
40
0.519917048763911
40
0.613064105990355
40
0.732045155632491
40
0.877498703181796
40
1
40
1
40
1
40
1
41
1
10
28.7959672205709
20
-0.0481992370957585
30
0
41
1
10
28.7960718514054
20
-0.0472803254513963
30
0
41
1
10
28.7861457798494
20
-0.039409466682315
30
0
41
1
10
28.6626151577952
20
0.0105352156755316
30
0
41
1
10
28.3726357250846
20
0.101942480552594
30
0
41
1
10
27.9047616927765
20
0.262127468637487
30
0
41
1
10
27.4851171536982
20
0.418701574966974
30
0
41
1
10
27.1272458927668
20
0.559545111588108
30
0
41
1
10
26.7965454562098
20
0.694628066063842
30
0
41
1
10
26.383012413418
20
0.871444412763537
30
0
41
1
10
25.8567148810752
20
1.11035111792228
30
0
41
1
10
25.2835085186254
20
1.38700211288077
30
0
41
1
10
24.885177162364
20
1.58961500927151
30
0
41
1
10
24.7026928831478
20
1.68467383681332
30
0
0
SPLINE
5
CA
100
AcDbEntity
8
1
62
256
6
ByLayer
370
18
48
1
60
0
100
AcDbSpline
70
4
71
3
72
19
73
15
40
0
40
0
40
0
40
0
40
0.0052988450512789
40
0.0170554907896778
40
0.0428705606508105
40
0.0868851846692579
40
0.139630013845447
40
0.190958736216315
40
0.288691616490301
40
0.379864235442547
40
0.487305322514815
40
0.63286374627985
40
0.817335698459823
40
1
40
1
40
1
40
1
41
1
10
55.8284205985142
20
0.0178863623073084
30
0
41
1
10
55.8285470986602
20
0.0182989121028356
30
0
41
1
10
55.8275987648423
20
0.0199306031814501
30
0
41
1
10
55.8139652453997
20
0.0265945313048235
30
0
41
1
10
55.7469110079096
20
0.049212871549031
30
0
41
1
10
55.5947855482312
20
0.0980895944202587
30
0
41
1
10
55.3967813875191
20
0.164114077709854
30
0
41
1
10
55.1296046479
20
0.256697569476842
30
0
41
1
10
54.807087902373
20
0.374180902995278
30
0
41
1
10
54.4041908630845
20
0.529610366024713
30
0
41
1
10
53.9310648977482
20
0.722645696953833
30
0
41
1
10
53.3280716161742
20
0.986030876651427
30
0
41
1
10
52.621077068272
20
1.32049097044512
30
0
41
1
10
52.1134459557692
20
1.57666434262896
30
0
41
1
10
51.8606354141594
20
1.70856730057491
30
0
0
SPLINE
5
CB
100
AcDbEntity
8
1
62
256
6
ByLayer
370
18
48
1
60
0
100
AcDbSpline
70
4
71
3
72
11
73
7
40
0
40
0
40
0
40
0
40
0.173868225633243
40
0.38598630115552
40
0.613976764713139
40
1
40
1
40
1
40
1
41
1
10
71.2697082657447
20
-0.376806804923234
30
0
41
1
10
71.2687689784148
20
-0.381582965971148
30
0
41
1
10
71.2708096330772
20
-0.393393146026767
30
0
41
1
10
71.2879596760092
20
-0.413140869064819
30
0
41
1
10
71.3387568798515
20
-0.432714537445349
30
0
41
1
10
71.3922495169905
20
-0.443902689580398
30
0
41
1
10
71.4287515641753
20
-0.450717183715312
30
0
0
LINE
5
7D
100
AcDbEntity
8
80
62
256
6
ByLayer
370
18
48
1
60
0
100
AcDbLine
10
0
20
0
30
0
11
-5
21
0
31
0
39
0
210
0
220
0
230
1
0
LINE
5
7E
100
AcDbEntity
8
4
62
256
6
ByLayer
370
18
48
0.05
60
0
100
AcDbLine
10
-5
20
0
30
0
11
94
21
0
31
0
39
0
210
0
220
0
230
1
0
LINE
5
80
100
AcDbEntity
8
SK4
62
256
6
ByLayer
370
18
48
0.05
60
0
100
AcDbLine
10
-49
20
0
30
0
11
94
21
0
31
0
39
0
210
0
220
0
230
1
0
LINE
5
82
100
AcDbEntity
8
81
62
256
6
ByLayer
370
18
48
1
60
0
100
AcDbLine
10
89
20
0
30
0
11
94
21
0
31
0
39
0
210
0
220
0
230
1
0
LINE
5
83
100
AcDbEntity
8
1
62
256
6
ByLayer
370
18
48
1
60
0
100
AcDbLine
10
0
20
4.8
30
0
11
0
21
-4.8
31
0
39
0
210
0
220
0
230
1
0
LINE
5
84
100
AcDbEntity
8
1
62
256
6
ByLayer
370
18
48
1
60
0
100
AcDbLine
10
86.404282
20
-4.8
30
0
11
86.404282
21
-2.233848
31
0
39
0
210
0
220
0
230
1
0
LINE
5
85
100
AcDbEntity
8
1
62
256
6
ByLayer
370
18
48
1
60
0
100
AcDbLine
10
86.404282
20
4.8
30
0
11
86.404282
21
4.647689
31
0
39
0
210
0
220
0
230
1
0
LINE
5
86
100
AcDbEntity
8
1
62
256
6
ByLayer
370
18
48
1
60
0
100
AcDbLine
10
0.4
20
-4.767748
30
0
11
0.4
21
4.767748
31
0
39
0
210
0
220
0
230
1
0
LINE
5
87
100
AcDbEntity
8
SK1
62
256
6
ByLayer
370
18
48
1
60
0
100
AcDbLine
10
0
20
4.8
30
0
11
0
21
-4.8
31
0
39
0
210
0
220
0
230
1
0
LINE
5
89
100
AcDbEntity
8
SK1
62
256
6
ByLayer
370
18
48
1
60
0
100
AcDbLine
10
-44
20
-4.05
30
0
11
-44
21
4.05
31
0
39
0
210
0
220
0
230
1
0
LINE
5
8A
100
AcDbEntity
8
SK1
62
256
6
ByLayer
370
18
48
1
60
0
100
AcDbLine
10
-43.25
20
-4.8
30
0
11
-43.25
21
4.8
31
0
39
0
210
0
220
0
230
1
0
LINE
5
8B
100
AcDbEntity
8
1
62
256
6
ByLayer
370
18
48
1
60
0
100
AcDbLine
10
89
20
0
30
0
11
86.404282
21
4.8
31
0
39
0
210
0
220
0
230
1
0
LINE
5
8C
100
AcDbEntity
8
1
62
256
6
ByLayer
370
18
48
1
60
0
100
AcDbLine
10
86.404282
20
-4.8
30
0
11
89
21
0
31
0
39
0
210
0
220
0
230
1
0
LINE
5
8D
100
AcDbEntity
8
1
62
256
6
ByLayer
370
18
48
1
60
0
100
AcDbLine
10
0.4
20
4.767748
30
0
11
0
21
4.8
31
0
39
0
210
0
220
0
230
1
0
LINE
5
8E
100
AcDbEntity
8
1
62
256
6
ByLayer
370
18
48
1
60
0
100
AcDbLine
10
0
20
-4.8
30
0
11
0.4
21
-4.767748
31
0
39
0
210
0
220
0
230
1
0
LINE
5
8F
100
AcDbEntity
8
1
62
256
6
ByLayer
370
18
48
1
60
0
100
AcDbLine
10
0.4
20
-4.767748
30
0
11
14.219558
21
-4.772931
31
0
39
0
210
0
220
0
230
1
0
LINE
5
90
100
AcDbEntity
8
1
62
256
6
ByLayer
370
18
48
1
60
0
100
AcDbLine
10
29.807026
20
-4.778776
30
0
11
41.416576
21
-4.78313
31
0
39
0
210
0
220
0
230
1
0
LINE
5
91
100
AcDbEntity
8
1
62
256
6
ByLayer
370
18
48
1
60
0
100
AcDbLine
10
57.012667
20
-4.788978
30
0
11
68.614028
21
-4.793329
31
0
39
0
210
0
220
0
230
1
0
LINE
5
92
100
AcDbEntity
8
1
62
256
6
ByLayer
370
18
48
1
60
0
100
AcDbLine
10
84.217563
20
-4.79918
30
0
11
86.404282
21
-4.8
31
0
39
0
210
0
220
0
230
1
0
LINE
5
93
100
AcDbEntity
8
1
62
256
6
ByLayer
370
18
48
1
60
0
100
AcDbLine
10
86.404282
20
4.8
30
0
11
84.217563
21
4.79918
31
0
39
0
210
0
220
0
230
1
0
LINE
5
94
100
AcDbEntity
8
1
62
256
6
ByLayer
370
18
48
1
60
0
100
AcDbLine
10
68.614028
20
4.793329
30
0
11
57.012667
21
4.788978
31
0
39
0
210
0
220
0
230
1
0
LINE
5
95
100
AcDbEntity
8
1
62
256
6
ByLayer
370
18
48
1
60
0
100
AcDbLine
10
41.416576
20
4.78313
30
0
11
29.807026
21
4.778776
31
0
39
0
210
0
220
0
230
1
0
LINE
5
96
100
AcDbEntity
8
1
62
256
6
ByLayer
370
18
48
1
60
0
100
AcDbLine
10
14.219558
20
4.772931
30
0
11
0.4
21
4.767748
31
0
39
0
210
0
220
0
230
1
0
LINE
5
97
100
AcDbEntity
8
SK1
62
256
6
ByLayer
370
18
48
1
60
0
100
AcDbLine
10
-43.25
20
-4.8
30
0
11
0
21
-4.8
31
0
39
0
210
0
220
0
230
1
0
LINE
5
98
100
AcDbEntity
8
SK1
62
256
6
ByLayer
370
18
48
1
60
0
100
AcDbLine
10
0
20
4.8
30
0
11
-43.25
21
4.8
31
0
39
0
210
0
220
0
230
1
0
LINE
5
99
100
AcDbEntity
8
SK1
62
256
6
ByLayer
370
18
48
1
60
0
100
AcDbLine
10
-44
20
-4.05
30
0
11
-43.25
21
-4.8
31
0
39
0
210
0
220
0
230
1
0
LINE
5
9A
100
AcDbEntity
8
SK1
62
256
6
ByLayer
370
18
48
1
60
0
100
AcDbLine
10
-43.25
20
4.8
30
0
11
-44
21
4.05
31
0
39
0
210
0
220
0
230
1
0
LINE
5
9B
100
AcDbEntity
8
SK2
62
256
6
ByLayer
370
13
48
1
60
0
100
AcDbLine
10
-50.5
20
-4.8
30
0
11
-50.5
21
31.582741
31
0
39
0
210
0
220
0
230
1
0
LINE
5
9D
100
AcDbEntity
8
SK2
62
256
6
ByLayer
370
13
48
1
60
0
100
AcDbLine
10
-45.5875
20
4.8
30
0
11
-52.5
21
4.8
31
0
39
0
210
0
220
0
230
1
0
LINE
5
9E
100
AcDbEntity
8
SK2
62
256
6
ByLayer
370
13
48
1
60
0
100
AcDbLine
10
-45.5875
20
-4.8
30
0
11
-52.5
21
-4.8
31
0
39
0
210
0
220
0
230
1
0
LINE
5
9F
100
AcDbEntity
8
1
62
256
6
ByLayer
370
18
48
1
60
1
100
AcDbLine
10
-50.5
20
4.8
30
0
11
-50.039216
21
1.300002
31
0
39
0
210
0
220
0
230
1
0
LINE
5
A0
100
AcDbEntity
8
1
62
256
6
ByLayer
370
18
48
1
60
1
100
AcDbLine
10
-50.039216
20
1.300002
30
0
11
-50.960784
21
1.299998
31
0
39
0
210
0
220
0
230
1
0
LINE
5
A1
100
AcDbEntity
8
1
62
256
6
ByLayer
370
18
48
1
60
1
100
AcDbLine
10
-50.960784
20
1.299998
30
0
11
-50.5
21
4.8
31
0
39
0
210
0
220
0
230
1
0
LINE
5
A2
100
AcDbEntity
8
1
62
256
6
ByLayer
370
18
48
1
60
1
100
AcDbLine
10
-50.5
20
-4.8
30
0
11
-50.960784
21
-1.300002
31
0
39
0
210
0
220
0
230
1
0
LINE
5
A3
100
AcDbEntity
8
1
62
256
6
ByLayer
370
18
48
1
60
1
100
AcDbLine
10
-50.960784
20
-1.300002
30
0
11
-50.039216
21
-1.299998
31
0
39
0
210
0
220
0
230
1
0
LINE
5
A4
100
AcDbEntity
8
1
62
256
6
ByLayer
370
18
48
1
60
1
100
AcDbLine
10
-50.039216
20
-1.299998
30
0
11
-50.5
21
-4.8
31
0
39
0
210
0
220
0
230
1
0
LINE
5
A5
100
AcDbEntity
8
2
62
256
6
ByLayer
370
13
48
1
60
0
100
AcDbLine
10
95.904282
20
-4.8
30
0
11
95.904282
21
31.582741
31
0
39
0
210
0
220
0
230
1
0
LINE
5
A7
100
AcDbEntity
8
2
62
256
6
ByLayer
370
13
48
1
60
0
100
AcDbLine
10
87.991782
20
4.8
30
0
11
97.904282
21
4.8
31
0
39
0
210
0
220
0
230
1
0
LINE
5
A8
100
AcDbEntity
8
2
62
256
6
ByLayer
370
13
48
1
60
0
100
AcDbLine
10
87.991782
20
-4.8
30
0
11
97.904282
21
-4.8
31
0
39
0
210
0
220
0
230
1
0
LINE
5
A9
100
AcDbEntity
8
1
62
256
6
ByLayer
370
18
48
1
60
1
100
AcDbLine
10
95.904282
20
4.8
30
0
11
96.365066
21
1.300002
31
0
39
0
210
0
220
0
230
1
0
LINE
5
AA
100
AcDbEntity
8
1
62
256
6
ByLayer
370
18
48
1
60
1
100
AcDbLine
10
96.365066
20
1.300002
30
0
11
95.443498
21
1.299998
31
0
39
0
210
0
220
0
230
1
0
LINE
5
AB
100
AcDbEntity
8
1
62
256
6
ByLayer
370
18
48
1
60
1
100
AcDbLine
10
95.443498
20
1.299998
30
0
11
95.904282
21
4.8
31
0
39
0
210
0
220
0
230
1
0
LINE
5
AC
100
AcDbEntity
8
1
62
256
6
ByLayer
370
18
48
1
60
1
100
AcDbLine
10
95.904282
20
-4.8
30
0
11
95.443498
21
-1.300002
31
0
39
0
210
0
220
0
230
1
0
LINE
5
AD
100
AcDbEntity
8
1
62
256
6
ByLayer
370
18
48
1
60
1
100
AcDbLine
10
95.443498
20
-1.300002
30
0
11
96.365066
21
-1.299998
31
0
39
0
210
0
220
0
230
1
0
LINE
5
AE
100
AcDbEntity
8
1
62
256
6
ByLayer
370
18
48
1
60
1
100
AcDbLine
10
96.365066
20
-1.299998
30
0
11
95.904282
21
-4.8
31
0
39
0
210
0
220
0
230
1
0
LINE
5
AF
100
AcDbEntity
8
2
62
256
6
ByLayer
370
13
48
1
60
0
100
AcDbLine
10
89.755136
20
-1.396397
30
0
11
100.416232
21
-21.110889
31
0
39
0
210
0
220
0
230
1
0
LINE
5
B0
100
AcDbEntity
8
2
62
256
6
ByLayer
370
13
48
1
60
0
100
AcDbLine
10
89.755136
20
1.396397
30
0
11
100.416232
21
21.110889
31
0
39
0
210
0
220
0
230
1
0
LINE
5
B1
100
AcDbEntity
8
1
62
256
6
ByLayer
370
18
48
1
60
1
100
AcDbLine
10
99.464879
20
-19.351649
30
0
11
102.239971
21
-17.169637
31
0
39
0
210
0
220
0
230
1
0
LINE
5
B2
100
AcDbEntity
8
1
62
256
6
ByLayer
370
18
48
1
60
1
100
AcDbLine
10
102.239971
20
-17.169637
30
0
11
102.710161
21
-17.962233
31
0
39
0
210
0
220
0
230
1
0
LINE
5
B3
100
AcDbEntity
8
1
62
256
6
ByLayer
370
18
48
1
60
1
100
AcDbLine
10
102.710161
20
-17.962233
30
0
11
99.464879
21
-19.351649
31
0
39
0
210
0
220
0
230
1
0
LINE
5
B4
100
AcDbEntity
8
1
62
256
6
ByLayer
370
18
48
1
60
1
100
AcDbLine
10
99.464879
20
19.351649
30
0
11
102.710158
21
17.962234
31
0
39
0
210
0
220
0
230
1
0
LINE
5
B5
100
AcDbEntity
8
1
62
256
6
ByLayer
370
18
48
1
60
1
100
AcDbLine
10
102.710158
20
17.962234
30
0
11
102.239974
21
17.169635
31
0
39
0
210
0
220
0
230
1
0
LINE
5
B6
100
AcDbEntity
8
1
62
256
6
ByLayer
370
18
48
1
60
1
100
AcDbLine
10
102.239974
20
17.169635
30
0
11
99.464879
21
19.351649
31
0
39
0
210
0
220
0
230
1
0
LINE
5
D0
100
AcDbEntity
8
1
62
256
6
ByLayer
370
18
48
1
60
1
100
AcDbLine
10
-50.5
20
4.8
30
0
11
-50.039216
21
1.300002
31
0
39
0
210
0
220
0
230
1
0
LINE
5
D1
100
AcDbEntity
8
1
62
256
6
ByLayer
370
18
48
1
60
1
100
AcDbLine
10
-50.039216
20
1.300002
30
0
11
-50.960784
21
1.299998
31
0
39
0
210
0
220
0
230
1
0
LINE
5
D2
100
AcDbEntity
8
1
62
256
6
ByLayer
370
18
48
1
60
1
100
AcDbLine
10
-50.960784
20
1.299998
30
0
11
-50.5
21
4.8
31
0
39
0
210
0
220
0
230
1
0
LINE
5
D4
100
AcDbEntity
8
1
62
256
6
ByLayer
370
18
48
1
60
1
100
AcDbLine
10
-50.5
20
-4.8
30
0
11
-50.960784
21
-1.300002
31
0
39
0
210
0
220
0
230
1
0
LINE
5
D5
100
AcDbEntity
8
1
62
256
6
ByLayer
370
18
48
1
60
1
100
AcDbLine
10
-50.960784
20
-1.300002
30
0
11
-50.039216
21
-1.299998
31
0
39
0
210
0
220
0
230
1
0
LINE
5
D6
100
AcDbEntity
8
1
62
256
6
ByLayer
370
18
48
1
60
1
100
AcDbLine
10
-50.039216
20
-1.299998
30
0
11
-50.5
21
-4.8
31
0
39
0
210
0
220
0
230
1
0
LINE
5
DA
100
AcDbEntity
8
1
62
256
6
ByLayer
370
18
48
1
60
1
100
AcDbLine
10
95.904282
20
4.8
30
0
11
96.365066
21
1.300002
31
0
39
0
210
0
220
0
230
1
0
LINE
5
DB
100
AcDbEntity
8
1
62
256
6
ByLayer
370
18
48
1
60
1
100
AcDbLine
10
96.365066
20
1.300002
30
0
11
95.443498
21
1.299998
31
0
39
0
210
0
220
0
230
1
0
LINE
5
DC
100
AcDbEntity
8
1
62
256
6
ByLayer
370
18
48
1
60
1
100
AcDbLine
10
95.443498
20
1.299998
30
0
11
95.904282
21
4.8
31
0
39
0
210
0
220
0
230
1
0
LINE
5
DE
100
AcDbEntity
8
1
62
256
6
ByLayer
370
18
48
1
60
1
100
AcDbLine
10
95.904282
20
-4.8
30
0
11
95.443498
21
-1.300002
31
0
39
0
210
0
220
0
230
1
0
LINE
5
DF
100
AcDbEntity
8
1
62
256
6
ByLayer
370
18
48
1
60
1
100
AcDbLine
10
95.443498
20
-1.300002
30
0
11
96.365066
21
-1.299998
31
0
39
0
210
0
220
0
230
1
0
LINE
5
E0
100
AcDbEntity
8
1
62
256
6
ByLayer
370
18
48
1
60
1
100
AcDbLine
10
96.365066
20
-1.299998
30
0
11
95.904282
21
-4.8
31
0
39
0
210
0
220
0
230
1
0
LINE
5
E3
100
AcDbEntity
8
1
62
256
6
ByLayer
370
18
48
1
60
1
100
AcDbLine
10
99.464879
20
-19.351649
30
0
11
102.239971
21
-17.169637
31
0
39
0
210
0
220
0
230
1
0
LINE
5
E4
100
AcDbEntity
8
1
62
256
6
ByLayer
370
18
48
1
60
1
100
AcDbLine
10
102.239971
20
-17.169637
30
0
11
102.710161
21
-17.962233
31
0
39
0
210
0
220
0
230
1
0
LINE
5
E5
100
AcDbEntity
8
1
62
256
6
ByLayer
370
18
48
1
60
1
100
AcDbLine
10
102.710161
20
-17.962233
30
0
11
99.464879
21
-19.351649
31
0
39
0
210
0
220
0
230
1
0
LINE
5
E7
100
AcDbEntity
8
1
62
256
6
ByLayer
370
18
48
1
60
1
100
AcDbLine
10
99.464879
20
19.351649
30
0
11
102.710158
21
17.962234
31
0
39
0
210
0
220
0
230
1
0
LINE
5
E8
100
AcDbEntity
8
1
62
256
6
ByLayer
370
18
48
1
60
1
100
AcDbLine
10
102.710158
20
17.962234
30
0
11
102.239974
21
17.169635
31
0
39
0
210
0
220
0
230
1
0
LINE
5
E9
100
AcDbEntity
8
1
62
256
6
ByLayer
370
18
48
1
60
1
100
AcDbLine
10
102.239974
20
17.169635
30
0
11
99.464879
21
19.351649
31
0
39
0
210
0
220
0
230
1
0
MTEXT
5
CC
100
AcDbEntity
8
SK2
62
256
6
ByLayer
370
18
48
1
60
0
100
AcDbMText
10
-51.841114
20
16.458438
30
0
210
0
220
0
230
1
1
%%c
40
3
41
0
44
1.084337
50
90
71
7
72
5
7
iso_b_vert
0
MTEXT
5
CF
100
AcDbEntity
8
SK2
62
256
6
ByLayer
370
18
48
1
60
0
100
AcDbMText
10
-51.841114
20
22.435
30
0
210
0
220
0
230
1
1
\W0.7468;9.600
40
3
41
0
44
1.084337
50
90
71
7
72
5
7
iso_b_vert
0
MTEXT
5
D8
100
AcDbEntity
8
2
62
256
6
ByLayer
370
18
48
1
60
0
100
AcDbMText
10
94.563168
20
16.458438
30
0
210
0
220
0
230
1
1
%%c
40
3
41
0
44
1.084337
50
90
71
7
72
5
7
iso_b_vert
0
MTEXT
5
D9
100
AcDbEntity
8
2
62
256
6
ByLayer
370
18
48
1
60
0
100
AcDbMText
10
94.563168
20
22.435
30
0
210
0
220
0
230
1
1
\W0.7468;9.600
40
3
41
0
44
1.084337
50
90
71
7
72
5
7
iso_b_vert
0
MTEXT
5
E2
100
AcDbEntity
8
2
62
256
6
ByLayer
370
18
48
1
60
0
100
AcDbMText
10
108.092229
20
-2.114886
30
0
210
0
220
0
230
1
1
\W0.6008;118%%d
40
3
41
0
44
1.084337
50
0
71
7
72
5
7
iso_b_vert
0
MTEXT
5
EB
100
AcDbEntity
8
SK6
62
256
6
ByLayer
370
18
48
1
60
0
100
AcDbMText
10
16.738789
20
-67.114886
30
0
210
0
220
0
230
1
1
\W0.7690;R0039.6
40
3
41
0
44
1.084337
50
0
71
7
72
5
7
iso_b_vert
0
HATCH
5
D3
100
AcDbEntity
8
SK2
62
256
6
ByLayer
370
13
48
1
60
0
100
AcDbHatch
10
0
20
0
30
0
210
0
220
0
230
1
2
ANSI31
70
0
71
0
91
1
92
5
93
3
72
1
10
-50.5
20
4.80000000000001
11
-50.0392162584472
21
1.30000169255319
72
1
10
-50.0392162584472
20
1.30000169255319
11
-50.9607837415528
21
1.29999830744683
72
1
10
-50.9607837415528
20
1.29999830744683
11
-50.5
21
4.80000000000001
97
0
75
0
76
1
52
0
41
0.0062
77
0
78
1
53
45
43
0
44
0
45
-0.0139193969876572
46
0.0139193969876572
79
0
47
0
98
1
10
0
20
0
0
HATCH
5
D7
100
AcDbEntity
8
SK2
62
256
6
ByLayer
370
13
48
1
60
0
100
AcDbHatch
10
0
20
0
30
0
210
0
220
0
230
1
2
ANSI31
70
0
71
0
91
1
92
5
93
3
72
1
10
-50.5
20
-4.79999999999998
11
-50.9607837415528
21
-1.30000169255317
72
1
10
-50.9607837415528
20
-1.30000169255317
11
-50.0392162584472
21
-1.2999983074468
72
1
10
-50.0392162584472
20
-1.2999983074468
11
-50.5
21
-4.79999999999998
97
0
75
0
76
1
52
0
41
0.0062
77
0
78
1
53
45
43
0
44
0
45
-0.0139193969876572
46
0.0139193969876572
79
0
47
0
98
1
10
0
20
0
0
HATCH
5
DD
100
AcDbEntity
8
2
62
256
6
ByLayer
370
13
48
1
60
0
100
AcDbHatch
10
0
20
0
30
0
210
0
220
0
230
1
2
ANSI31
70
0
71
0
91
1
92
5
93
3
72
1
10
95.9042821258009
20
4.80000000000001
11
96.3650658673537
21
1.30000169255319
72
1
10
96.3650658673537
20
1.30000169255319
11
95.4434983842481
21
1.29999830744683
72
1
10
95.4434983842481
20
1.29999830744683
11
95.9042821258009
21
4.80000000000001
97
0
75
0
76
1
52
0
41
0.0062
77
0
78
1
53
45
43
0
44
0
45
-0.0139193969876572
46
0.0139193969876572
79
0
47
0
98
1
10
0
20
0
0
HATCH
5
E1
100
AcDbEntity
8
2
62
256
6
ByLayer
370
13
48
1
60
0
100
AcDbHatch
10
0
20
0
30
0
210
0
220
0
230
1
2
ANSI31
70
0
71
0
91
1
92
5
93
3
72
1
10
95.9042821258009
20
-4.79999999999998
11
95.4434983842481
21
-1.30000169255317
72
1
10
95.4434983842481
20
-1.30000169255317
11
96.3650658673537
21
-1.2999983074468
72
1
10
96.3650658673537
20
-1.2999983074468
11
95.9042821258009
21
-4.79999999999998
97
0
75
0
76
1
52
0
41
0.0062
77
0
78
1
53
45
43
0
44
0
45
-0.0139193969876572
46
0.0139193969876572
79
0
47
0
98
1
10
0
20
0
0
HATCH
5
E6
100
AcDbEntity
8
2
62
256
6
ByLayer
370
13
48
1
60
0
100
AcDbHatch
10
0
20
0
30
0
210
0
220
0
230
1
2
ANSI31
70
0
71
0
91
1
92
5
93
3
72
1
10
99.4648791987519
20
-19.3516485952885
11
102.239971107838
21
-17.1696369764528
72
1
10
102.239971107838
20
-17.1696369764528
11
102.710161392925
21
-17.9622325364573
72
1
10
102.710161392925
20
-17.9622325364573
11
99.4648791987519
21
-19.3516485952885
97
0
75
0
76
1
52
0
41
0.0062
77
0
78
1
53
45
43
0
44
0
45
-0.0139193969876572
46
0.0139193969876572
79
0
47
0
98
1
10
0
20
0
0
HATCH
5
EA
100
AcDbEntity
8
2
62
256
6
ByLayer
370
13
48
1
60
0
100
AcDbHatch
10
0
20
0
30
0
210
0
220
0
230
1
2
ANSI31
70
0
71
0
91
1
92
5
93
3
72
1
10
99.4648791987519
20
19.3516485952885
11
102.710158481552
21
17.9622342635519
72
1
10
102.710158481552
20
17.9622342635519
11
102.239974019211
21
17.1696352493581
72
1
10
102.239974019211
20
17.1696352493581
11
99.4648791987519
21
19.3516485952885
97
0
75
0
76
1
52
0
41
0.0062
77
0
78
1
53
45
43
0
44
0
45
-0.0139193969876572
46
0.0139193969876572
79
0
47
0
98
1
10
0
20
0
0
DIMENSION
5
EE
100
AcDbEntity
8
SK2
62
256
6
ByLayer
370
18
48
1
60
0
100
AcDbDimension
2
_U0
10
89
20
-51.092645
30
0
11
22.5
21
-51.092645
31
0
70
32
71
1
72
1
41
1
210
0
220
0
230
1
3
Standard
100
AcDbAlignedDimension
13
-44
23
-4.8
33
0
14
89
24
0
34
0
50
0
100
AcDbRotatedDimension
1001
ACAD
1000
DSTYLE
1002
{
1070
   371
1070
    13
1070
   372
1070
    13
1070
     3
1000

1070
   170
1070
     0
1070
   144
1040
1.0
1070
   277
1070
     2
1070
   284
1070
     8
1070
   278
1070
    46
1070
   146
1040
1.166667
1070
   345
1005
16
1070
   347
1005
16
1070
   346
1005
16
1070
   344
1005
0
1070
   343
1005
0
1070
   172
1070
     1
1070
    76
1070
     0
1070
    75
1070
     0
1070
   282
1070
     0
1070
   281
1070
     0
1070
    71
1070
     0
1070
    74
1070
     0
1070
   279
1070
     0
1070
   173
1070
     1
1070
   340
1005
CD
1070
   271
1070
     2
1070
   272
1070
     3
1070
    77
1070
     1
1070
    73
1070
     1
1070
   171
1070
     3
1070
   274
1070
     4
1070
   177
1070
     2
1070
   176
1070
     2
1070
   178
1070
     2
1070
    78
1070
     8
1070
    48
1040
-0.1
1070
    41
1040
3.5
1070
   147
1040
1.5
1070
    42
1040
1.5875
1070
    44
1040
2.0
1070
   140
1040
3.0
1002
}
1001
ACAD_DSTYLE_DIM_LINETYPE
1070
   380
1005
16
1001
ACAD_DSTYLE_DIM_EXT1_LINETYPE
1070
   381
1005
16
1001
ACAD_DSTYLE_DIM_EXT2_LINETYPE
1070
   382
1005
16
0
DIMENSION
5
107
100
AcDbEntity
8
2
62
256
6
ByLayer
370
18
48
1
60
0
100
AcDbDimension
2
_U1
10
2
20
-41.092645
30
0
11
45.5
21
-41.092645
31
0
70
32
71
1
72
1
41
1
210
0
220
0
230
1
3
Standard
100
AcDbAlignedDimension
13
89
23
0
33
0
14
2
24
-4.8
34
0
50
0
100
AcDbRotatedDimension
1001
ACAD
1000
DSTYLE
1002
{
1070
   371
1070
    13
1070
   372
1070
    13
1070
     3
1000

1070
   170
1070
     0
1070
   144
1040
1.0
1070
   277
1070
     2
1070
   284
1070
     8
1070
   278
1070
    46
1070
   146
1040
1.166667
1070
   345
1005
16
1070
   347
1005
16
1070
   346
1005
16
1070
   344
1005
0
1070
   343
1005
0
1070
   172
1070
     1
1070
    76
1070
     0
1070
    75
1070
     0
1070
   282
1070
     0
1070
   281
1070
     0
1070
    71
1070
     0
1070
    74
1070
     0
1070
   279
1070
     0
1070
   173
1070
     1
1070
   340
1005
CD
1070
   271
1070
     2
1070
   272
1070
     3
1070
    77
1070
     1
1070
    73
1070
     1
1070
   171
1070
     3
1070
   274
1070
     4
1070
   177
1070
     2
1070
   176
1070
     2
1070
   178
1070
     2
1070
    78
1070
     8
1070
    48
1040
-0.1
1070
    41
1040
3.5
1070
   147
1040
1.5
1070
    42
1040
1.5875
1070
    44
1040
2.0
1070
   140
1040
3.0
1002
}
1001
ACAD_DSTYLE_DIM_LINETYPE
1070
   380
1005
16
1001
ACAD_DSTYLE_DIM_EXT1_LINETYPE
1070
   381
1005
16
1001
ACAD_DSTYLE_DIM_EXT2_LINETYPE
1070
   382
1005
16
0
DIMENSION
5
11F
100
AcDbEntity
8
SK2
62
256
6
ByLayer
370
18
48
1
60
0
100
AcDbDimension
2
_U2
10
0
20
-36.092645
30
0
11
-22
21
-36.092645
31
0
70
32
71
1
72
1
41
1
210
0
220
0
230
1
3
Standard
100
AcDbAlignedDimension
13
-44
23
-4.8
33
0
14
0
24
-4.8
34
0
50
0
100
AcDbRotatedDimension
1001
ACAD
1000
DSTYLE
1002
{
1070
   371
1070
    13
1070
   372
1070
    13
1070
     3
1000

1070
   170
1070
     0
1070
   144
1040
1.0
1070
   277
1070
     2
1070
   284
1070
     8
1070
   278
1070
    46
1070
   146
1040
1.166667
1070
   345
1005
16
1070
   347
1005
16
1070
   346
1005
16
1070
   344
1005
0
1070
   343
1005
0
1070
   172
1070
     1
1070
    76
1070
     0
1070
    75
1070
     0
1070
   282
1070
     0
1070
   281
1070
     0
1070
    71
1070
     0
1070
    74
1070
     0
1070
   279
1070
     0
1070
   173
1070
     1
1070
   340
1005
CD
1070
   271
1070
     2
1070
   272
1070
     3
1070
    77
1070
     1
1070
    73
1070
     1
1070
   171
1070
     3
1070
   274
1070
     4
1070
   177
1070
     2
1070
   176
1070
     2
1070
   178
1070
     2
1070
    78
1070
     8
1070
    48
1040
-0.1
1070
    41
1040
3.5
1070
   147
1040
1.5
1070
    42
1040
1.5875
1070
    44
1040
2.0
1070
   140
1040
3.0
1002
}
1001
ACAD_DSTYLE_DIM_LINETYPE
1070
   380
1005
16
1001
ACAD_DSTYLE_DIM_EXT1_LINETYPE
1070
   381
1005
16
1001
ACAD_DSTYLE_DIM_EXT2_LINETYPE
1070
   382
1005
16
0
DIMENSION
5
137
100
AcDbEntity
8
2
62
256
6
ByLayer
370
18
48
1
60
0
100
AcDbDimension
2
_U3
10
23.75
20
-34.092645
30
0
11
56.375
21
-34.092645
31
0
70
32
71
1
72
1
41
1
210
0
220
0
230
1
3
Standard
100
AcDbAlignedDimension
13
89
23
0
33
0
14
23.75
24
-4.8
34
0
50
0
100
AcDbRotatedDimension
1001
ACAD
1000
DSTYLE
1002
{
1070
   371
1070
    13
1070
   372
1070
    13
1070
     3
1000

1070
   170
1070
     0
1070
   144
1040
1.0
1070
   277
1070
     2
1070
   284
1070
     8
1070
   278
1070
    46
1070
   146
1040
1.166667
1070
   345
1005
16
1070
   347
1005
16
1070
   346
1005
16
1070
   344
1005
0
1070
   343
1005
0
1070
   172
1070
     1
1070
    76
1070
     0
1070
    75
1070
     0
1070
   282
1070
     0
1070
   281
1070
     0
1070
    71
1070
     0
1070
    74
1070
     0
1070
   279
1070
     0
1070
   173
1070
     1
1070
   340
1005
CD
1070
   271
1070
     2
1070
   272
1070
     3
1070
    77
1070
     1
1070
    73
1070
     1
1070
   171
1070
     3
1070
   274
1070
     4
1070
   177
1070
     2
1070
   176
1070
     2
1070
   178
1070
     2
1070
    78
1070
     8
1070
    48
1040
-0.1
1070
    41
1040
3.5
1070
   147
1040
1.5
1070
    42
1040
1.5875
1070
    44
1040
2.0
1070
   140
1040
3.0
1002
}
1001
ACAD_DSTYLE_DIM_LINETYPE
1070
   380
1005
16
1001
ACAD_DSTYLE_DIM_EXT1_LINETYPE
1070
   381
1005
16
1001
ACAD_DSTYLE_DIM_EXT2_LINETYPE
1070
   382
1005
16
0
ENDSEC
0
SECTION
2
OBJECTS
0
DICTIONARY
5
1c1
330
0
100
AcDbDictionary
280
0
281
1
3
ACAD_GROUP
350
1c2
3
ACAD_MLINESTYLE
350
1c3
0
DICTIONARY
5
1c2
330
0
100
AcDbDictionary
280
0
281
1
0
DICTIONARY
5
1c3
330
0
100
AcDbDictionary
280
0
281
1
3
Standard
350
18
0
MLINESTYLE
5
18
330
1c3
100
AcDbMlineStyle
2
Standard
70
0
3

62
256
51
90
52
90
71
2
49
-0.5
62
256
6
ByLayer
49
0.5
62
256
6
ByLayer
0
RASTERVARIABLES
5
1ad
330

100
AcDbRasterVariables
90
0
70
1
71
1
72
1
0
ENDSEC
0
EOF
