0
SECTION
2
HEADER
9
$ACADVER
1
AC1015
9
$DWGCODEPAGE
3
ANSI_1252
9
$HANDSEED
5
1cd
9
$ANGBASE
50
0
9
$ANGDIR
70
0
9
$ATTMODE
70
1
9
$AUNITS
70
0
9
$AUPREC
70
0
9
$CECOLOR
62
256
9
$CELTSCALE
40
1
9
$CELTYPE
6
ByLayer
9
$CELWEIGHT
370
18
9
$CLAYER
8
0
9
$CMLJUST
70
0
9
$CMLSCALE
40
1
9
$CMLSTYLE
2
Standard
9
$DIMSTYLE
2
Standard
9
$TEXTSIZE
40
0.2
9
$TEXTSTYLE
7
Standard
9
$LUNITS
70
2
9
$LUPREC
70
4
9
$EXTNAMES
290
1
9
$INSUNITS
70
4
9
$LTSCALE
40
1
9
$LWDISPLAY
290
1
9
$PDMODE
70
0
9
$PDSIZE
40
0
9
$PLINEGEN
70
0
0
ENDSEC
0
SECTION
2
CLASSES
0
CLASS
1
RASTERVARIABLES
2
AcDbRasterVariables
3
ISM
90
0
280
0
281
0
0
ENDSEC
0
SECTION
2
TABLES
0
TABLE
2
VPORT
5
1c3
100
AcDbSymbolTable
0
VPORT
5
1
100
AcDbSymbolTableRecord
100
AcDbViewportTableRecord
2
*Active
70
0
10
0
20
0
11
1
21
1
12
-1
22
1
13
0
23
0
14
0.5
24
0.5
15
10
25
10
16
0
26
0
36
1
17
0
27
0
37
0
0
ENDTAB
0
TABLE
2
LTYPE
5
1c4
100
AcDbSymbolTable
0
LTYPE
5
14
100
AcDbSymbolTableRecord
100
AcDbLinetypeTableRecord
70
0
2
ByBlock
3

72
65
73
0
40
0
0
LTYPE
5
15
100
AcDbSymbolTableRecord
100
AcDbLinetypeTableRecord
70
0
2
ByLayer
3

72
65
73
0
40
0
0
LTYPE
5
16
100
AcDbSymbolTableRecord
100
AcDbLinetypeTableRecord
70
0
2
Continuous
3
Solid line
72
65
73
0
40
0
0
LTYPE
5
6E
100
AcDbSymbolTableRecord
100
AcDbLinetypeTableRecord
70
0
2
CENTER
3
____ _ ____ _ ____ _ ____
72
65
73
4
40
47.5
49
22
74
0
49
-8.5
74
0
49
8.5
74
0
49
-8.5
74
0
0
LTYPE
5
6F
100
AcDbSymbolTableRecord
100
AcDbLinetypeTableRecord
70
0
2
DASHED
3
__ __ __ __ __ __ __ __ __
72
65
73
2
40
25.72
49
12.86
74
0
49
-12.86
74
0
0
ENDTAB
0
TABLE
2
LAYER
5
1c5
100
AcDbSymbolTable
0
LAYER
5
10
100
AcDbSymbolTableRecord
100
AcDbLayerTableRecord
2
0
70
0
62
7
6
Continuous
290
1
370
-3
390
0
0
LAYER
5
71
100
AcDbSymbolTableRecord
100
AcDbLayerTableRecord
2
81
70
0
62
-3
6
Continuous
290
1
370
-3
390
0
0
LAYER
5
73
100
AcDbSymbolTableRecord
100
AcDbLayerTableRecord
2
80
70
0
62
-6
6
Continuous
290
1
370
-3
390
0
0
LAYER
5
75
100
AcDbSymbolTableRecord
100
AcDbLayerTableRecord
2
1
70
0
62
4
6
Continuous
290
1
370
-3
390
0
0
LAYER
5
7F
100
AcDbSymbolTableRecord
100
AcDbLayerTableRecord
2
4
70
0
62
-2
6
CENTER
290
1
370
-3
390
0
0
LAYER
5
A6
100
AcDbSymbolTableRecord
100
AcDbLayerTableRecord
2
2
70
0
62
7
6
Continuous
290
1
370
-3
390
0
0
LAYER
5
F0
100
AcDbSymbolTableRecord
100
AcDbLayerTableRecord
2
Defpoints
70
0
62
7
6
Continuous
290
0
370
-3
390
0
0
LAYER
5
1ad
100
AcDbSymbolTableRecord
100
AcDbLayerTableRecord
2
SK4
70
0
62
2
6
CENTER
290
1
370
-3
390
0
0
LAYER
5
1ae
100
AcDbSymbolTableRecord
100
AcDbLayerTableRecord
2
SK1
70
0
62
4
6
Continuous
290
1
370
-3
390
0
0
LAYER
5
1af
100
AcDbSymbolTableRecord
100
AcDbLayerTableRecord
2
SK2
70
0
62
7
6
Continuous
290
1
370
-3
390
0
0
LAYER
5
1b0
100
AcDbSymbolTableRecord
100
AcDbLayerTableRecord
2
CUT
70
0
62
-1
6
Continuous
290
1
370
-3
390
0
0
LAYER
5
1b1
100
AcDbSymbolTableRecord
100
AcDbLayerTableRecord
2
NOCUT
70
0
62
-7
6
Continuous
290
1
370
-3
390
0
0
LAYER
5
1b2
100
AcDbSymbolTableRecord
100
AcDbLayerTableRecord
2
SK6
70
0
62
5
6
Continuous
290
1
370
-3
390
0
0
ENDTAB
0
TABLE
2
STYLE
5
1c6
100
AcDbSymbolTable
0
STYLE
5
11
100
AcDbSymbolTableRecord
100
AcDbTextStyleTableRecord
2
Standard
3
txt
70
0
71
0
40
0
41
1
42
0
50
0
0
STYLE
5
CC
100
AcDbSymbolTableRecord
100
AcDbTextStyleTableRecord
2
iso_b_vert
3
simplex.shx
70
0
71
0
40
0
41
1
42
0
50
0
0
STYLE
5
CD
100
AcDbSymbolTableRecord
100
AcDbTextStyleTableRecord
2
DWGDirectTextStyle
3
simplex
70
0
71
0
40
0
41
1
42
0
50
0
0
ENDTAB
0
TABLE
2
DIMSTYLE
5
1c7
100
AcDbSymbolTable
100
AcDbDimStyleTable
0
DIMSTYLE
105
27
100
AcDbSymbolTableRecord
100
AcDbDimStyleTableRecord
2
Standard
70
0
3
<>
41
0.18
42
0.0625
44
0.18
140
0.18
147
0.09
73
0
74
0
77
1
271
2
275
0
278
52
280
0
340
11
0
ENDTAB
0
TABLE
2
VIEW
5
1c8
100
AcDbSymbolTable
0
ENDTAB
0
TABLE
2
UCS
5
1c9
100
AcDbSymbolTable
0
ENDTAB
0
TABLE
2
APPID
5
1ca
100
AcDbSymbolTable
0
APPID
5
12
100
AcDbSymbolTableRecord
100
AcDbRegAppTableRecord
2
ACAD
70
0
0
APPID
5
EC
100
AcDbSymbolTableRecord
100
AcDbRegAppTableRecord
2
ACAD_DSTYLE_DIMBREAK
70
0
0
APPID
5
16C
100
AcDbSymbolTableRecord
100
AcDbRegAppTableRecord
2
ACAD_DSTYLE_DIM_LINETYPE
70
0
0
APPID
5
16D
100
AcDbSymbolTableRecord
100
AcDbRegAppTableRecord
2
ACAD_DSTYLE_DIM_EXT1_LINETYPE
70
0
0
APPID
5
16E
100
AcDbSymbolTableRecord
100
AcDbRegAppTableRecord
2
ACAD_DSTYLE_DIM_EXT2_LINETYPE
70
0
0
APPID
5
1A9
100
AcDbSymbolTableRecord
100
AcDbRegAppTableRecord
2
ACAD_MLEADERVER
70
0
0
ENDTAB
0
TABLE
2
BLOCK_RECORD
5
1cb
100
AcDbSymbolTable
0
BLOCK_RECORD
5
1F
100
AcDbSymbolTableRecord
100
AcDbBlockTableRecord
2
*Model_Space
340
0
70
0
0
BLOCK_RECORD
5
1B
100
AcDbSymbolTableRecord
100
AcDbBlockTableRecord
2
*Paper_Space
340
0
70
0
0
BLOCK_RECORD
5
23
100
AcDbSymbolTableRecord
100
AcDbBlockTableRecord
2
*Paper_Space0
340
0
70
0
0
BLOCK_RECORD
5
F1
100
AcDbSymbolTableRecord
100
AcDbBlockTableRecord
2
*D1
340
0
70
0
0
BLOCK_RECORD
5
FD
100
AcDbSymbolTableRecord
100
AcDbBlockTableRecord
2
_U0
340
0
70
0
0
BLOCK_RECORD
5
109
100
AcDbSymbolTableRecord
100
AcDbBlockTableRecord
2
*D3
340
0
70
0
0
BLOCK_RECORD
5
115
100
AcDbSymbolTableRecord
100
AcDbBlockTableRecord
2
_U1
340
0
70
0
0
BLOCK_RECORD
5
121
100
AcDbSymbolTableRecord
100
AcDbBlockTableRecord
2
*D5
340
0
70
0
0
BLOCK_RECORD
5
12D
100
AcDbSymbolTableRecord
100
AcDbBlockTableRecord
2
_U2
340
0
70
0
0
BLOCK_RECORD
5
139
100
AcDbSymbolTableRecord
100
AcDbBlockTableRecord
2
*D7
340
0
70
0
0
BLOCK_RECORD
5
145
100
AcDbSymbolTableRecord
100
AcDbBlockTableRecord
2
_U3
340
0
70
0
0
ENDTAB
0
ENDSEC
0
SECTION
2
BLOCKS
0
BLOCK
5
20
100
AcDbEntity
8
0
100
AcDbBlockBegin
2
*Model_Space
70
0
10
0
20
0
30
0
3
*Model_Space
0
ENDBLK
5
21
100
AcDbEntity
8
0
100
AcDbBlockEnd
0
BLOCK
5
1C
100
AcDbEntity
8
0
100
AcDbBlockBegin
2
*Paper_Space
70
0
10
0
20
0
30
0
3
*Paper_Space
0
ENDBLK
5
1D
100
AcDbEntity
8
0
100
AcDbBlockEnd
0
BLOCK
5
24
100
AcDbEntity
8
0
100
AcDbBlockBegin
2
*Paper_Space0
70
0
10
0
20
0
30
0
3
*Paper_Space0
0
ENDBLK
5
25
100
AcDbEntity
8
0
100
AcDbBlockEnd
0
BLOCK
5
F2
100
AcDbEntity
8
0
100
AcDbBlockBegin
2
*D1
70
1
10
0
20
0
30
0
3
*D1
0
LINE
5
F4
100
AcDbEntity
8
0
62
256
6
ByLayer
370
-2
48
1
60
0
100
AcDbLine
10
-40
20
-5.5875
30
0
11
-40
21
-50.712731
31
0
39
0
210
0
220
0
230
1
0
LINE
5
F5
100
AcDbEntity
8
0
62
256
6
ByLayer
370
-2
48
1
60
0
100
AcDbLine
10
77
20
-1.5875
30
0
11
77
21
-50.712731
31
0
39
0
210
0
220
0
230
1
0
LINE
5
F6
100
AcDbEntity
8
0
62
256
6
ByLayer
370
-2
48
1
60
0
100
AcDbLine
10
-36.5
20
-48.712731
30
0
11
73.5
21
-48.712731
31
0
39
0
210
0
220
0
230
1
0
SOLID
5
F7
100
AcDbEntity
8
0
62
256
6
ByLayer
370
-1
48
1
60
0
100
AcDbTrace
10
-36.5
20
-48.129398
30
0
11
-36.5
21
-49.296064
31
0
12
-40
22
-48.712731
32
0
13
-40
23
-48.712731
33
0
39
0
210
0
220
0
230
1
0
SOLID
5
F8
100
AcDbEntity
8
0
62
256
6
ByLayer
370
-1
48
1
60
0
100
AcDbTrace
10
73.5
20
-49.296064
30
0
11
73.5
21
-48.129398
31
0
12
77
22
-48.712731
32
0
13
77
23
-48.712731
33
0
39
0
210
0
220
0
230
1
0
MTEXT
5
F9
100
AcDbEntity
8
0
62
256
6
ByLayer
370
18
48
1
60
0
100
AcDbMText
10
18.5
20
-42.712731
30
0
210
0
220
0
230
1
1
\A1;117
40
3
41
0
44
1
50
0
71
5
72
5
7
iso_b_vert
0
POINT
5
FA
100
AcDbEntity
8
Defpoints
62
0
6
ByLayer
370
-1
48
1
60
0
100
AcDbPoint
10
-40
20
-4
30
0
39
0
210
0
220
0
230
1
50
360
0
POINT
5
FB
100
AcDbEntity
8
Defpoints
62
0
6
ByLayer
370
-1
48
1
60
0
100
AcDbPoint
10
77
20
0
30
0
39
0
210
0
220
0
230
1
50
360
0
POINT
5
FC
100
AcDbEntity
8
Defpoints
62
0
6
ByLayer
370
-1
48
1
60
0
100
AcDbPoint
10
77
20
-48.712731
30
0
39
0
210
0
220
0
230
1
50
360
0
ENDBLK
5
F3
100
AcDbEntity
8
0
100
AcDbBlockEnd
0
BLOCK
5
104
100
AcDbEntity
8
0
100
AcDbBlockBegin
2
_U0
70
0
10
0
20
0
30
0
3
_U0
0
MTEXT
5
FE
100
AcDbEntity
8
SK2
62
256
6
ByLayer
370
18
48
1
60
0
100
AcDbMText
10
13.646601
20
-47.827617
30
0
210
0
220
0
230
1
1
\W0.6532;117.00
40
3
41
0
44
1.084337
50
0
71
7
72
5
7
iso_b_vert
0
LINE
5
FF
100
AcDbEntity
8
SK2
62
256
6
ByLayer
370
13
48
1
60
0
100
AcDbLine
10
-40
20
-5.5875
30
0
11
-40
21
-50.712731
31
0
39
0
210
0
220
0
230
1
0
LINE
5
100
100
AcDbEntity
8
SK2
62
256
6
ByLayer
370
13
48
1
60
0
100
AcDbLine
10
77
20
-1.5875
30
0
11
77
21
-50.712731
31
0
39
0
210
0
220
0
230
1
0
LINE
5
101
100
AcDbEntity
8
SK2
62
256
6
ByLayer
370
13
48
1
60
0
100
AcDbLine
10
-40
20
-48.712731
30
0
11
77
21
-48.712731
31
0
39
0
210
0
220
0
230
1
0
SOLID
5
102
100
AcDbEntity
8
SK2
62
256
6
ByLayer
370
18
48
1
60
0
100
AcDbTrace
10
-40
20
-48.712731
30
0
11
-36.500002
21
-48.251947
31
0
12
-36.499998
22
-49.173515
32
0
13
-36.499998
23
-49.173515
33
0
39
0
210
0
220
0
230
1
0
SOLID
5
103
100
AcDbEntity
8
SK2
62
256
6
ByLayer
370
18
48
1
60
0
100
AcDbTrace
10
77
20
-48.712731
30
0
11
73.500002
21
-49.173515
31
0
12
73.499998
22
-48.251947
32
0
13
73.499998
23
-48.251947
33
0
39
0
210
0
220
0
230
1
0
ENDBLK
5
105
100
AcDbEntity
8
0
100
AcDbBlockEnd
0
BLOCK
5
10A
100
AcDbEntity
8
0
100
AcDbBlockBegin
2
*D3
70
1
10
0
20
0
30
0
3
*D3
0
LINE
5
10C
100
AcDbEntity
8
0
62
256
6
ByLayer
370
-2
48
1
60
0
100
AcDbLine
10
77
20
-1.5875
30
0
11
77
21
-40.712731
31
0
39
0
210
0
220
0
230
1
0
LINE
5
10D
100
AcDbEntity
8
0
62
256
6
ByLayer
370
-2
48
1
60
0
100
AcDbLine
10
2
20
-5.5875
30
0
11
2
21
-40.712731
31
0
39
0
210
0
220
0
230
1
0
LINE
5
10E
100
AcDbEntity
8
0
62
256
6
ByLayer
370
-2
48
1
60
0
100
AcDbLine
10
73.5
20
-38.712731
30
0
11
5.5
21
-38.712731
31
0
39
0
210
0
220
0
230
1
0
SOLID
5
10F
100
AcDbEntity
8
0
62
256
6
ByLayer
370
-1
48
1
60
0
100
AcDbTrace
10
73.5
20
-39.296064
30
0
11
73.5
21
-38.129398
31
0
12
77
22
-38.712731
32
0
13
77
23
-38.712731
33
0
39
0
210
0
220
0
230
1
0
SOLID
5
110
100
AcDbEntity
8
0
62
256
6
ByLayer
370
-1
48
1
60
0
100
AcDbTrace
10
5.5
20
-38.129398
30
0
11
5.5
21
-39.296064
31
0
12
2
22
-38.712731
32
0
13
2
23
-38.712731
33
0
39
0
210
0
220
0
230
1
0
MTEXT
5
111
100
AcDbEntity
8
0
62
256
6
ByLayer
370
18
48
1
60
0
100
AcDbMText
10
39.5
20
-32.712731
30
0
210
0
220
0
230
1
1
\A1;75
40
3
41
0
44
1
50
0
71
5
72
5
7
iso_b_vert
0
POINT
5
112
100
AcDbEntity
8
Defpoints
62
0
6
ByLayer
370
-1
48
1
60
0
100
AcDbPoint
10
77
20
0
30
0
39
0
210
0
220
0
230
1
50
360
0
POINT
5
113
100
AcDbEntity
8
Defpoints
62
0
6
ByLayer
370
-1
48
1
60
0
100
AcDbPoint
10
2
20
-4
30
0
39
0
210
0
220
0
230
1
50
360
0
POINT
5
114
100
AcDbEntity
8
Defpoints
62
0
6
ByLayer
370
-1
48
1
60
0
100
AcDbPoint
10
2
20
-38.712731
30
0
39
0
210
0
220
0
230
1
50
360
0
ENDBLK
5
10B
100
AcDbEntity
8
0
100
AcDbBlockEnd
0
BLOCK
5
11C
100
AcDbEntity
8
0
100
AcDbBlockBegin
2
_U1
70
0
10
0
20
0
30
0
3
_U1
0
MTEXT
5
116
100
AcDbEntity
8
2
62
256
6
ByLayer
370
18
48
1
60
0
100
AcDbMText
10
35.01763
20
-37.827617
30
0
210
0
220
0
230
1
1
\W0.7468;75.00
40
3
41
0
44
1.084337
50
0
71
7
72
5
7
iso_b_vert
0
LINE
5
117
100
AcDbEntity
8
2
62
256
6
ByLayer
370
13
48
1
60
0
100
AcDbLine
10
77
20
-1.5875
30
0
11
77
21
-40.712731
31
0
39
0
210
0
220
0
230
1
0
LINE
5
118
100
AcDbEntity
8
2
62
256
6
ByLayer
370
13
48
1
60
0
100
AcDbLine
10
2
20
-5.5875
30
0
11
2
21
-40.712731
31
0
39
0
210
0
220
0
230
1
0
LINE
5
119
100
AcDbEntity
8
2
62
256
6
ByLayer
370
13
48
1
60
0
100
AcDbLine
10
77
20
-38.712731
30
0
11
2
21
-38.712731
31
0
39
0
210
0
220
0
230
1
0
SOLID
5
11A
100
AcDbEntity
8
2
62
256
6
ByLayer
370
18
48
1
60
0
100
AcDbTrace
10
77
20
-38.712731
30
0
11
73.500002
21
-39.173515
31
0
12
73.499998
22
-38.251947
32
0
13
73.499998
23
-38.251947
33
0
39
0
210
0
220
0
230
1
0
SOLID
5
11B
100
AcDbEntity
8
2
62
256
6
ByLayer
370
18
48
1
60
0
100
AcDbTrace
10
2
20
-38.712731
30
0
11
5.499998
21
-38.251947
31
0
12
5.500002
22
-39.173515
32
0
13
5.500002
23
-39.173515
33
0
39
0
210
0
220
0
230
1
0
ENDBLK
5
11D
100
AcDbEntity
8
0
100
AcDbBlockEnd
0
BLOCK
5
122
100
AcDbEntity
8
0
100
AcDbBlockBegin
2
*D5
70
1
10
0
20
0
30
0
3
*D5
0
LINE
5
124
100
AcDbEntity
8
0
62
256
6
ByLayer
370
-2
48
1
60
0
100
AcDbLine
10
-40
20
-5.5875
30
0
11
-40
21
-35.712731
31
0
39
0
210
0
220
0
230
1
0
LINE
5
125
100
AcDbEntity
8
0
62
256
6
ByLayer
370
-2
48
1
60
0
100
AcDbLine
10
0
20
-5.5875
30
0
11
0
21
-35.712731
31
0
39
0
210
0
220
0
230
1
0
LINE
5
126
100
AcDbEntity
8
0
62
256
6
ByLayer
370
-2
48
1
60
0
100
AcDbLine
10
-36.5
20
-33.712731
30
0
11
-3.5
21
-33.712731
31
0
39
0
210
0
220
0
230
1
0
SOLID
5
127
100
AcDbEntity
8
0
62
256
6
ByLayer
370
-1
48
1
60
0
100
AcDbTrace
10
-36.5
20
-33.129398
30
0
11
-36.5
21
-34.296064
31
0
12
-40
22
-33.712731
32
0
13
-40
23
-33.712731
33
0
39
0
210
0
220
0
230
1
0
SOLID
5
128
100
AcDbEntity
8
0
62
256
6
ByLayer
370
-1
48
1
60
0
100
AcDbTrace
10
-3.5
20
-34.296064
30
0
11
-3.5
21
-33.129398
31
0
12
0
22
-33.712731
32
0
13
0
23
-33.712731
33
0
39
0
210
0
220
0
230
1
0
MTEXT
5
129
100
AcDbEntity
8
0
62
256
6
ByLayer
370
18
48
1
60
0
100
AcDbMText
10
-20
20
-27.712731
30
0
210
0
220
0
230
1
1
\A1;40
40
3
41
0
44
1
50
0
71
5
72
5
7
iso_b_vert
0
POINT
5
12A
100
AcDbEntity
8
Defpoints
62
0
6
ByLayer
370
-1
48
1
60
0
100
AcDbPoint
10
-40
20
-4
30
0
39
0
210
0
220
0
230
1
50
360
0
POINT
5
12B
100
AcDbEntity
8
Defpoints
62
0
6
ByLayer
370
-1
48
1
60
0
100
AcDbPoint
10
0
20
-4
30
0
39
0
210
0
220
0
230
1
50
360
0
POINT
5
12C
100
AcDbEntity
8
Defpoints
62
0
6
ByLayer
370
-1
48
1
60
0
100
AcDbPoint
10
0
20
-33.712731
30
0
39
0
210
0
220
0
230
1
50
360
0
ENDBLK
5
123
100
AcDbEntity
8
0
100
AcDbBlockEnd
0
BLOCK
5
134
100
AcDbEntity
8
0
100
AcDbBlockBegin
2
_U2
70
0
10
0
20
0
30
0
3
_U2
0
MTEXT
5
12E
100
AcDbEntity
8
SK2
62
256
6
ByLayer
370
18
48
1
60
0
100
AcDbMText
10
-24.640313
20
-32.827617
30
0
210
0
220
0
230
1
1
\W0.7694;40.00
40
3
41
0
44
1.084337
50
0
71
7
72
5
7
iso_b_vert
0
LINE
5
12F
100
AcDbEntity
8
SK2
62
256
6
ByLayer
370
13
48
1
60
0
100
AcDbLine
10
-40
20
-5.5875
30
0
11
-40
21
-35.712731
31
0
39
0
210
0
220
0
230
1
0
LINE
5
130
100
AcDbEntity
8
SK2
62
256
6
ByLayer
370
13
48
1
60
0
100
AcDbLine
10
0
20
-5.5875
30
0
11
0
21
-35.712731
31
0
39
0
210
0
220
0
230
1
0
LINE
5
131
100
AcDbEntity
8
SK2
62
256
6
ByLayer
370
13
48
1
60
0
100
AcDbLine
10
-40
20
-33.712731
30
0
11
0
21
-33.712731
31
0
39
0
210
0
220
0
230
1
0
SOLID
5
132
100
AcDbEntity
8
SK2
62
256
6
ByLayer
370
18
48
1
60
0
100
AcDbTrace
10
-40
20
-33.712731
30
0
11
-36.500002
21
-33.251947
31
0
12
-36.499998
22
-34.173515
32
0
13
-36.499998
23
-34.173515
33
0
39
0
210
0
220
0
230
1
0
SOLID
5
133
100
AcDbEntity
8
SK2
62
256
6
ByLayer
370
18
48
1
60
0
100
AcDbTrace
10
0
20
-33.712731
30
0
11
-3.499998
21
-34.173515
31
0
12
-3.500002
22
-33.251947
32
0
13
-3.500002
23
-33.251947
33
0
39
0
210
0
220
0
230
1
0
ENDBLK
5
135
100
AcDbEntity
8
0
100
AcDbBlockEnd
0
BLOCK
5
13A
100
AcDbEntity
8
0
100
AcDbBlockBegin
2
*D7
70
1
10
0
20
0
30
0
3
*D7
0
LINE
5
13C
100
AcDbEntity
8
0
62
256
6
ByLayer
370
-2
48
1
60
0
100
AcDbLine
10
77
20
-1.5875
30
0
11
77
21
-33.712731
31
0
39
0
210
0
220
0
230
1
0
LINE
5
13D
100
AcDbEntity
8
0
62
256
6
ByLayer
370
-2
48
1
60
0
100
AcDbLine
10
20.75
20
-5.5875
30
0
11
20.75
21
-33.712731
31
0
39
0
210
0
220
0
230
1
0
LINE
5
13E
100
AcDbEntity
8
0
62
256
6
ByLayer
370
-2
48
1
60
0
100
AcDbLine
10
73.5
20
-31.712731
30
0
11
24.25
21
-31.712731
31
0
39
0
210
0
220
0
230
1
0
SOLID
5
13F
100
AcDbEntity
8
0
62
256
6
ByLayer
370
-1
48
1
60
0
100
AcDbTrace
10
73.5
20
-32.296064
30
0
11
73.5
21
-31.129398
31
0
12
77
22
-31.712731
32
0
13
77
23
-31.712731
33
0
39
0
210
0
220
0
230
1
0
SOLID
5
140
100
AcDbEntity
8
0
62
256
6
ByLayer
370
-1
48
1
60
0
100
AcDbTrace
10
24.25
20
-31.129398
30
0
11
24.25
21
-32.296064
31
0
12
20.75
22
-31.712731
32
0
13
20.75
23
-31.712731
33
0
39
0
210
0
220
0
230
1
0
MTEXT
5
141
100
AcDbEntity
8
0
62
256
6
ByLayer
370
18
48
1
60
0
100
AcDbMText
10
48.875
20
-25.712731
30
0
210
0
220
0
230
1
1
\A1;56.25
40
3
41
0
44
1
50
0
71
5
72
5
7
iso_b_vert
0
POINT
5
142
100
AcDbEntity
8
Defpoints
62
0
6
ByLayer
370
-1
48
1
60
0
100
AcDbPoint
10
77
20
0
30
0
39
0
210
0
220
0
230
1
50
360
0
POINT
5
143
100
AcDbEntity
8
Defpoints
62
0
6
ByLayer
370
-1
48
1
60
0
100
AcDbPoint
10
20.75
20
-4
30
0
39
0
210
0
220
0
230
1
50
360
0
POINT
5
144
100
AcDbEntity
8
Defpoints
62
0
6
ByLayer
370
-1
48
1
60
0
100
AcDbPoint
10
20.75
20
-31.712731
30
0
39
0
210
0
220
0
230
1
50
360
0
ENDBLK
5
13B
100
AcDbEntity
8
0
100
AcDbBlockEnd
0
BLOCK
5
14C
100
AcDbEntity
8
0
100
AcDbBlockBegin
2
_U3
70
0
10
0
20
0
30
0
3
_U3
0
MTEXT
5
146
100
AcDbEntity
8
2
62
256
6
ByLayer
370
18
48
1
60
0
100
AcDbMText
10
44.39263
20
-30.827617
30
0
210
0
220
0
230
1
1
\W0.7468;56.25
40
3
41
0
44
1.084337
50
0
71
7
72
5
7
iso_b_vert
0
LINE
5
147
100
AcDbEntity
8
2
62
256
6
ByLayer
370
13
48
1
60
0
100
AcDbLine
10
77
20
-1.5875
30
0
11
77
21
-33.712731
31
0
39
0
210
0
220
0
230
1
0
LINE
5
148
100
AcDbEntity
8
2
62
256
6
ByLayer
370
13
48
1
60
0
100
AcDbLine
10
20.75
20
-5.5875
30
0
11
20.75
21
-33.712731
31
0
39
0
210
0
220
0
230
1
0
LINE
5
149
100
AcDbEntity
8
2
62
256
6
ByLayer
370
13
48
1
60
0
100
AcDbLine
10
77
20
-31.712731
30
0
11
20.75
21
-31.712731
31
0
39
0
210
0
220
0
230
1
0
SOLID
5
14A
100
AcDbEntity
8
2
62
256
6
ByLayer
370
18
48
1
60
0
100
AcDbTrace
10
77
20
-31.712731
30
0
11
73.500002
21
-32.173515
31
0
12
73.499998
22
-31.251947
32
0
13
73.499998
23
-31.251947
33
0
39
0
210
0
220
0
230
1
0
SOLID
5
14B
100
AcDbEntity
8
2
62
256
6
ByLayer
370
18
48
1
60
0
100
AcDbTrace
10
20.75
20
-31.712731
30
0
11
24.249998
21
-31.251947
31
0
12
24.250002
22
-32.173515
32
0
13
24.250002
23
-32.173515
33
0
39
0
210
0
220
0
230
1
0
ENDBLK
5
14D
100
AcDbEntity
8
0
100
AcDbBlockEnd
0
ENDSEC
0
SECTION
2
ENTITIES
0
ARC
5
B7
100
AcDbEntity
8
2
62
256
6
ByLayer
370
13
48
1
60
0
100
AcDbCircle
39
0
10
77
20
0
30
0
40
21.9999999999999
210
0
220
0
230
1
100
AcDbArc
50
7.83748
51
61.596605
0
ARC
5
B8
100
AcDbEntity
8
2
62
256
6
ByLayer
370
13
48
1
60
0
100
AcDbCircle
39
0
10
77
20
0
30
0
40
21.9999999999999
210
0
220
0
230
1
100
AcDbArc
50
298.403395
51
352.16252
0
POINT
5
70
100
AcDbEntity
8
81
62
256
6
ByLayer
370
18
48
1
60
0
100
AcDbPoint
10
77
20
0
30
0
39
0
210
0
220
0
230
1
50
360
0
POINT
5
72
100
AcDbEntity
8
80
62
256
6
ByLayer
370
18
48
1
60
0
100
AcDbPoint
10
0
20
0
30
0
39
0
210
0
220
0
230
1
50
360
0
POINT
5
74
100
AcDbEntity
8
1
62
256
6
ByLayer
370
18
48
1
60
1
100
AcDbPoint
10
-40
20
-4
30
0
39
0
210
0
220
0
230
1
50
360
0
POINT
5
76
100
AcDbEntity
8
1
62
256
6
ByLayer
370
18
48
1
60
1
100
AcDbPoint
10
77
20
0
30
0
39
0
210
0
220
0
230
1
50
360
0
POINT
5
77
100
AcDbEntity
8
1
62
256
6
ByLayer
370
18
48
1
60
1
100
AcDbPoint
10
77
20
0
30
0
39
0
210
0
220
0
230
1
50
360
0
POINT
5
78
100
AcDbEntity
8
1
62
256
6
ByLayer
370
18
48
1
60
1
100
AcDbPoint
10
2
20
-4
30
0
39
0
210
0
220
0
230
1
50
360
0
POINT
5
79
100
AcDbEntity
8
1
62
256
6
ByLayer
370
18
48
1
60
1
100
AcDbPoint
10
-40
20
-4
30
0
39
0
210
0
220
0
230
1
50
360
0
POINT
5
7A
100
AcDbEntity
8
1
62
256
6
ByLayer
370
18
48
1
60
1
100
AcDbPoint
10
0
20
-4
30
0
39
0
210
0
220
0
230
1
50
360
0
POINT
5
7B
100
AcDbEntity
8
1
62
256
6
ByLayer
370
18
48
1
60
1
100
AcDbPoint
10
77
20
0
30
0
39
0
210
0
220
0
230
1
50
360
0
POINT
5
7C
100
AcDbEntity
8
1
62
256
6
ByLayer
370
18
48
1
60
1
100
AcDbPoint
10
20.75
20
-4
30
0
39
0
210
0
220
0
230
1
50
360
0
SPLINE
5
B9
100
AcDbEntity
8
CUT
62
256
6
ByLayer
370
18
48
1
60
0
100
AcDbSpline
70
2053
71
3
72
17
73
13
40
0
40
0
40
0
40
0
40
0.473229753867719
40
0.473229753867719
40
0.473229753867719
40
0.51148704526775
40
0.51148704526775
40
0.51148704526775
40
0.966518743266681
40
0.966518743266681
40
0.966518743266681
40
1
40
1
40
1
40
1
41
1
10
20.75
20
0
30
0
41
1
10
39.5
20
0
30
0
41
1
10
58.25
20
0
30
0
41
1
10
77
20
0
30
0
41
1
10
76.2789672571628
20
1.33333333334096
30
0
41
1
10
75.5579345143256
20
2.66666666668192
30
0
41
1
10
74.8369017714884
20
4.00000000002288
30
0
41
1
10
56.8079345143249
20
3.99323913730186
30
0
41
1
10
38.7789672571614
20
3.98647827458083
30
0
41
1
10
20.749999999999
20
3.97971741185981
30
0
41
1
10
20.75
20
2.65314494123987
30
0
41
1
10
20.75
20
1.32657247061994
30
0
41
1
10
20.75
20
0
30
0
0
SPLINE
5
BB
100
AcDbEntity
8
NOCUT
62
256
6
ByLayer
370
18
48
1
60
0
100
AcDbSpline
70
2053
71
3
72
26
73
22
40
0
40
0
40
0
40
0
40
0.470779321110008
40
0.470779321110008
40
0.470779321110008
40
0.501619957510666
40
0.501619957510666
40
0.501619957510666
40
0.65932135435339
40
0.65932135435339
40
0.65932135435339
40
0.662428674523072
40
0.662428674523072
40
0.662428674523072
40
0.966594737956788
40
0.966594737956788
40
0.966594737956788
40
0.974814275003079
40
0.974814275003079
40
0.974814275003079
40
1
40
1
40
1
40
1
41
1
10
-40
20
0
30
0
41
1
10
-19.7500000000002
20
0
30
0
41
1
10
0.499999999999574
20
0
30
0
41
1
10
20.7499999999997
20
0
30
0
41
1
10
20.75
20
1.32657247061994
30
0
41
1
10
20.75
20
2.65314494123987
30
0
41
1
10
20.75
20
3.97971741185981
30
0
41
1
10
13.9666666666666
20
3.97717366185998
30
0
41
1
10
7.18333333333314
20
3.97462991186012
30
0
41
1
10
0.400000000119178
20
3.97208616185196
30
0
41
1
10
0.266666666825756
20
3.98139077456241
30
0
41
1
10
0.133333333412878
20
3.99069538728122
30
0
41
1
10
2.84E-14
20
4
30
0
41
1
10
-13.0833333333333
20
4
30
0
41
1
10
-26.1666666666667
20
4
30
0
41
1
10
-39.25
20
4
30
0
41
1
10
-39.5
20
3.75
30
0
41
1
10
-39.75
20
3.5
30
0
41
1
10
-40
20
3.25
30
0
41
1
10
-40
20
2.16666666666666
30
0
41
1
10
-40
20
1.08333333333334
30
0
41
1
10
-40
20
0
30
0
0
SPLINE
5
BD
100
AcDbEntity
8
1
62
256
6
ByLayer
370
18
48
1
60
0
100
AcDbSpline
70
4
71
3
72
124
73
120
40
0
40
0
40
0
40
0
40
0.0156250000000009
40
0.0156250000000009
40
0.0312500000000019
40
0.0312500000000019
40
0.062500000000006
40
0.062500000000006
40
0.0937500000000101
40
0.0937500000000101
40
0.125000000000014
40
0.125000000000014
40
0.187500000000023
40
0.187500000000023
40
0.218750000000026
40
0.218750000000026
40
0.234375000000026
40
0.234375000000026
40
0.250000000000027
40
0.250000000000027
40
0.265625000000027
40
0.265625000000027
40
0.281250000000028
40
0.281250000000028
40
0.296875000000028
40
0.296875000000028
40
0.304687500000028
40
0.304687500000028
40
0.312500000000029
40
0.312500000000029
40
0.320312500000029
40
0.320312500000029
40
0.328125000000029
40
0.328125000000029
40
0.33593750000003
40
0.33593750000003
40
0.34375000000003
40
0.34375000000003
40
0.359375000000031
40
0.359375000000031
40
0.375000000000031
40
0.375000000000031
40
0.390625000000032
40
0.390625000000032
40
0.406250000000033
40
0.406250000000033
40
0.437500000000034
40
0.437500000000034
40
0.445312500000034
40
0.445312500000034
40
0.453125000000035
40
0.453125000000035
40
0.468750000000034
40
0.468750000000034
40
0.484375000000033
40
0.484375000000033
40
0.492187500000032
40
0.492187500000032
40
0.500000000000032
40
0.500000000000032
40
0.515625000000031
40
0.515625000000031
40
0.523437500000031
40
0.523437500000031
40
0.53125000000003
40
0.53125000000003
40
0.54687500000003
40
0.54687500000003
40
0.554687500000029
40
0.554687500000029
40
0.562500000000028
40
0.562500000000028
40
0.578125000000024
40
0.578125000000024
40
0.59375000000002
40
0.59375000000002
40
0.609375000000016
40
0.609375000000016
40
0.617187500000015
40
0.617187500000015
40
0.625000000000014
40
0.625000000000014
40
0.656250000000011
40
0.656250000000011
40
0.671875000000009
40
0.671875000000009
40
0.679687500000008
40
0.679687500000008
40
0.687500000000007
40
0.687500000000007
40
0.718750000000006
40
0.718750000000006
40
0.750000000000004
40
0.750000000000004
40
0.757812500000005
40
0.757812500000005
40
0.765625000000006
40
0.765625000000006
40
0.781250000000009
40
0.781250000000009
40
0.78906250000001
40
0.78906250000001
40
0.796875000000011
40
0.796875000000011
40
0.81250000000001
40
0.81250000000001
40
0.843750000000008
40
0.843750000000008
40
0.875000000000007
40
0.875000000000007
40
0.890625000000005
40
0.890625000000005
40
0.906250000000003
40
0.906250000000003
40
0.937500000000002
40
0.937500000000002
40
0.968750000000001
40
0.968750000000001
40
1
40
1
40
1
40
1
41
1
10
74.8369017714884
20
3.87297773710003
30
0
41
1
10
74.8572820713996
20
3.8331953919494
30
0
41
1
10
74.8776905753775
20
3.79343166168431
30
0
41
1
10
74.9185326315397
20
3.7139226258395
30
0
41
1
10
74.9389672057485
20
3.67417792958869
30
0
41
1
10
75.0003022505518
20
3.55496747344432
30
0
41
1
10
75.0412357945765
20
3.47552630014297
30
0
41
1
10
75.1231135308903
20
3.316663642246
30
0
41
1
10
75.1640577532516
20
3.23724216335336
30
0
41
1
10
75.2458481525285
20
3.07835699766525
30
0
41
1
10
75.2866890668865
20
2.9988903609032
30
0
41
1
10
75.4089909030569
20
2.76038770024695
30
0
41
1
10
75.4902407175778
20
2.60125408701512
30
0
41
1
10
75.6114337922023
20
2.36222724995128
30
0
41
1
10
75.651728036827
20
2.28250298705052
30
0
41
1
10
75.7119588380067
20
2.16281525519111
30
0
41
1
10
75.7320048409252
20
2.12290477504848
30
0
41
1
10
75.7720238295178
20
2.043048966892
30
0
41
1
10
75.7919903442243
20
2.00310003521742
30
0
41
1
10
75.8317468216981
20
1.9231109492535
30
0
41
1
10
75.8515415349173
20
1.88306490736457
30
0
41
1
10
75.8909707113296
20
1.80291024547194
30
0
41
1
10
75.9106081673051
20
1.76283252237229
30
0
41
1
10
75.9499762063873
20
1.68345126585825
30
0
41
1
10
75.9697155185015
20
1.64417696042347
30
0
41
1
10
75.9997350996905
20
1.58669585914916
30
0
41
1
10
76.009809896367
20
1.56777111058696
30
0
41
1
10
76.0301553524511
20
1.53052390242072
30
0
41
1
10
76.0404266713738
20
1.51220270890298
30
0
41
1
10
76.0611907970521
20
1.47619899749481
30
0
41
1
10
76.0716986256655
20
1.45855771238092
30
0
41
1
10
76.0927921897794
20
1.42349499468989
30
0
41
1
10
76.1033649680529
20
1.40603824004802
30
0
41
1
10
76.1244404203751
20
1.37093732930069
30
0
41
1
10
76.1349462577242
20
1.35330223736707
30
0
41
1
10
76.1558757653844
20
1.31782013217301
30
0
41
1
10
76.1663042128693
20
1.29998637812724
30
0
41
1
10
76.1975104476214
20
1.24630044420357
30
0
41
1
10
76.2182183361102
20
1.21028598096271
30
0
41
1
10
76.2593711993827
20
1.13770371583672
30
0
41
1
10
76.2797989549436
20
1.10108115075553
30
0
41
1
10
76.3201824466043
20
1.02721114620533
30
0
41
1
10
76.3401598161397
20
0.989973912971408
30
0
41
1
10
76.3795978579931
20
0.914885505092059
30
0
41
1
10
76.3990610432272
20
0.877036544484696
30
0
41
1
10
76.4563754756032
20
0.762379530320658
30
0
41
1
10
76.493237032926
20
0.684493793977566
30
0
41
1
10
76.5356703812066
20
0.58429229072101
30
0
41
1
10
76.5439668129734
20
0.564105280238408
30
0
41
1
10
76.5600847816357
20
0.523383970991347
30
0
41
1
10
76.5679200698306
20
0.502811723400441
30
0
41
1
10
76.5904108861401
20
0.440793669197916
30
0
41
1
10
76.60405145447
20
0.399079406396083
30
0
41
1
10
76.6274913880752
20
0.314611949748183
30
0
41
1
10
76.6373132088514
20
0.271865207478811
30
0
41
1
10
76.6479416551058
20
0.206638458144368
30
0
41
1
10
76.6507955981808
20
0.184640880496914
30
0
41
1
10
76.6548414914909
20
0.140934635725671
30
0
41
1
10
76.6560481786063
20
0.119157890065793
30
0
41
1
10
76.6570857093105
20
0.0540791200404556
30
0
41
1
10
76.6542930605379
20
0.0110311152649274
30
0
41
1
10
76.6450803833493
20
-0.0529911033597443
30
0
41
1
10
76.641165566398
20
-0.0742797312431662
30
0
41
1
10
76.6320049261979
20
-0.115880705840226
30
0
41
1
10
76.626749358884
20
-0.136297888271969
30
0
41
1
10
76.6092933050657
20
-0.19651860180835
30
0
41
1
10
76.5954191512007
20
-0.23529554002846
30
0
41
1
10
76.5723123452716
20
-0.291768547066624
30
0
41
1
10
76.5642229379606
20
-0.310309043108276
30
0
41
1
10
76.5473840298012
20
-0.346846562030038
30
0
41
1
10
76.538646075808
20
-0.36481343123566
30
0
41
1
10
76.5118989736571
20
-0.417375581583514
30
0
41
1
10
76.4932792715416
20
-0.450862250152596
30
0
41
1
10
76.455019203784
20
-0.515075636354027
30
0
41
1
10
76.4353724554365
20
-0.545792148711598
30
0
41
1
10
76.3953635839727
20
-0.604714496950834
30
0
41
1
10
76.3749999473176
20
-0.632925017526645
30
0
41
1
10
76.3440284676632
20
-0.67343413103157
30
0
41
1
10
76.33363321363
20
-0.68663344589234
30
0
41
1
10
76.312895747876
20
-0.712232331226659
30
0
41
1
10
76.3025301115927
20
-0.724662451036181
30
0
41
1
10
76.2507306013427
20
-0.785028915800439
30
0
41
1
10
76.2093988449595
20
-0.82770042769414
30
0
41
1
10
76.1475440379376
20
-0.883986851361783
30
0
41
1
10
76.1269460299085
20
-0.901465676188053
30
0
41
1
10
76.0960569060654
20
-0.925797948735408
30
0
41
1
10
76.085761762826
20
-0.933593332412812
30
0
41
1
10
76.0651692044808
20
-0.948561824798759
30
0
41
1
10
76.054859055208
20
-0.955742460155506
30
0
41
1
10
76.0036362548165
20
-0.989902926834702
30
0
41
1
10
75.9634644210326
20
-1.01185378550633
30
0
41
1
10
75.8842386436027
20
-1.04602910226521
30
0
41
1
10
75.8451651191779
20
-1.05838192302289
30
0
41
1
10
75.7967612517904
20
-1.06813907265021
30
0
41
1
10
75.7871027289256
20
-1.06980397070066
30
0
41
1
10
75.7678281037589
20
-1.07253668286256
30
0
41
1
10
75.7582151376339
20
-1.07357962989633
30
0
41
1
10
75.7294024832681
20
-1.07604007394795
30
0
41
1
10
75.710220220686
20
-1.07682696607489
30
0
41
1
10
75.681254583596
20
-1.07868837418053
30
0
41
1
10
75.6715644573294
20
-1.07945648186711
30
0
41
1
10
75.6521045658688
20
-1.08143592513406
30
0
41
1
10
75.6423378822488
20
-1.08262081870242
30
0
41
1
10
75.6129483050485
20
-1.08665335614541
30
0
41
1
10
75.593236662854
20
-1.08997500197901
30
0
41
1
10
75.5338412602499
20
-1.10141743642742
30
0
41
1
10
75.493912337855
20
-1.1108548258122
30
0
41
1
10
75.4134709140203
20
-1.13446593134188
30
0
41
1
10
75.3729650026979
20
-1.14860171696557
30
0
41
1
10
75.3119915733943
20
-1.17173468785879
30
0
41
1
10
75.2916278193751
20
-1.17979788910293
30
0
41
1
10
75.2508316253697
20
-1.19659944683238
30
0
41
1
10
75.2303972663847
20
-1.20536003138179
30
0
41
1
10
75.1689544795199
20
-1.23324813566782
30
0
41
1
10
75.1277990368369
20
-1.25409560134312
30
0
41
1
10
75.0451185646254
20
-1.3006305615171
30
0
41
1
10
75.0035815662944
20
-1.32633383529259
30
0
41
1
10
74.9201886347345
20
-1.38263034122474
30
0
41
1
10
74.8785314922792
20
-1.41311748814425
30
0
41
1
10
74.836901771488
20
-1.44558035235721
30
0
0
SPLINE
5
BE
100
AcDbEntity
8
1
62
256
6
ByLayer
370
18
48
1
60
0
100
AcDbSpline
70
4
71
3
72
76
73
72
40
0
40
0
40
0
40
0
40
0.0373496664183958
40
0.0373496664183958
40
0.0746993328367915
40
0.0746993328367915
40
0.112048999255187
40
0.112048999255187
40
0.149398665673583
40
0.149398665673583
40
0.168073498882781
40
0.168073498882781
40
0.186748332091979
40
0.186748332091979
40
0.224097998510372
40
0.224097998510372
40
0.261447664928766
40
0.261447664928766
40
0.298797331347159
40
0.298797331347159
40
0.317472164556355
40
0.317472164556355
40
0.336146997765551
40
0.336146997765551
40
0.354821830974746
40
0.354821830974746
40
0.373496664183942
40
0.373496664183942
40
0.410846330602333
40
0.410846330602333
40
0.448195997020724
40
0.448195997020724
40
0.485545663439115
40
0.485545663439115
40
0.522895329857507
40
0.522895329857507
40
0.541570163066701
40
0.541570163066701
40
0.560244996275896
40
0.560244996275896
40
0.597594662694283
40
0.597594662694283
40
0.634944329112669
40
0.634944329112669
40
0.644281745717264
40
0.644281745717264
40
0.653619162321859
40
0.653619162321859
40
0.672293995531052
40
0.672293995531052
40
0.709643661949436
40
0.709643661949436
40
0.728318495158627
40
0.728318495158627
40
0.746993328367818
40
0.746993328367818
40
0.7843429947862
40
0.7843429947862
40
0.821692661204583
40
0.821692661204583
40
0.859042327622965
40
0.859042327622965
40
0.896391994041347
40
0.896391994041347
40
0.915066827250538
40
0.915066827250538
40
0.933741660459729
40
0.933741660459729
40
0.971091326878114
40
0.971091326878114
40
1
40
1
40
1
40
1
41
1
10
74.8369017714899
20
-1.44558035235821
30
0
41
1
10
74.6610737038746
20
-1.35481847787594
30
0
41
1
10
74.4856579394097
20
-1.26311395440933
30
0
41
1
10
74.1358419896063
20
-1.07747851172491
30
0
41
1
10
73.9614034843679
20
-0.983615741812656
30
0
41
1
10
73.6127847456168
20
-0.795037024573986
30
0
41
1
10
73.4385726983817
20
-0.700379886095362
30
0
41
1
10
73.0905363967156
20
-0.509983519611012
30
0
41
1
10
72.9167877369563
20
-0.41410582955038
30
0
41
1
10
72.6562673307529
20
-0.269819040999693
30
0
41
1
10
72.5694367720726
20
-0.221658843560959
30
0
41
1
10
72.3956995548884
20
-0.125384032311899
30
0
41
1
10
72.3087904343046
20
-0.0772739994256995
30
0
41
1
10
72.0479713620825
20
0.0670280010390059
30
0
41
1
10
71.8739810846718
20
0.163212426781143
30
0
41
1
10
71.5259543801706
20
0.355874565488051
30
0
41
1
10
71.3518742637511
20
0.452272778307219
30
0
41
1
10
71.0028939832681
20
0.64393790244452
30
0
41
1
10
70.8279753283206
20
0.739169490803818
30
0
41
1
10
70.5651044290758
20
0.881395228713615
30
0
41
1
10
70.4774080078608
20
0.928717728308982
30
0
41
1
10
70.3018503584189
20
1.02315613090653
30
0
41
1
10
70.2139605319822
20
1.0702723722064
30
0
41
1
10
70.0385480452977
20
1.16380343112544
30
0
41
1
10
69.9509481399572
20
1.21025715029785
30
0
41
1
10
69.7758642309542
20
1.30237632824154
30
0
41
1
10
69.6883824852793
20
1.34804660308612
30
0
41
1
10
69.4261461456608
20
1.48395657654032
30
0
41
1
10
69.2516191663272
20
1.57313145725797
30
0
41
1
10
68.9032904769816
20
1.74885173246804
30
0
41
1
10
68.7294410802004
20
1.83530650334924
30
0
41
1
10
68.3816772100851
20
2.00428903583304
30
0
41
1
10
68.2077647441152
20
2.08683104079463
30
0
41
1
10
67.8600931591619
20
2.24837686375892
30
0
41
1
10
67.6864037080634
20
2.32747969303213
30
0
41
1
10
67.4257253029106
20
2.44305234486072
30
0
41
1
10
67.3388020239431
20
2.48105393465494
30
0
41
1
10
67.1648023293237
20
2.55588069449683
30
0
41
1
10
67.0777307811689
20
2.5927135278161
30
0
41
1
10
66.8163323287578
20
2.70151725779911
30
0
41
1
10
66.6418459831879
20
2.77183015786562
30
0
41
1
10
66.2925302041217
20
2.9080800597944
30
0
41
1
10
66.1176488190712
20
2.9739382466922
30
0
41
1
10
65.8983322706698
20
3.05284548280145
30
0
41
1
10
65.8544346178328
20
3.06845830657096
30
0
41
1
10
65.7665730243939
20
3.09934948387769
30
0
41
1
10
65.7225914052777
20
3.11463381035543
30
0
41
1
10
65.5907723405458
20
3.15991345564498
30
0
41
1
10
65.5030105357896
20
3.18935317523869
30
0
41
1
10
65.240129131525
20
3.2755098369133
30
0
41
1
10
65.0654680660049
20
3.33011661508829
30
0
41
1
10
64.8039720945252
20
3.40738474178065
30
0
41
1
10
64.7168824524318
20
3.43236129579969
30
0
41
1
10
64.5427708118174
20
3.48069226222924
30
0
41
1
10
64.4557560957304
20
3.50405467496981
30
0
41
1
10
64.1948652427681
20
3.57178227268301
30
0
41
1
10
64.0211746000211
20
3.61381955824695
30
0
41
1
10
63.6743207531965
20
3.69169746405112
30
0
41
1
10
63.5011036020903
20
3.72748219884926
30
0
41
1
10
63.1544116950871
20
3.79232242572266
30
0
41
1
10
62.9809625797676
20
3.82141284103224
30
0
41
1
10
62.6340849128723
20
3.8730694331334
30
0
41
1
10
62.4607144090004
20
3.89564850375163
30
0
41
1
10
62.2003551755739
20
3.92440665220738
30
0
41
1
10
62.1135112335839
20
3.93313956994399
30
0
41
1
10
61.939629340745
20
3.94887574691546
30
0
41
1
10
61.8525992000626
20
3.9558824827927
30
0
41
1
10
61.5912725243787
20
3.97432647008068
30
0
41
1
10
61.4167756833989
20
3.98319952361734
30
0
41
1
10
61.1067429592651
20
3.99274991422774
30
0
41
1
10
60.9712799800142
20
3.99481290269478
30
0
41
1
10
60.8354660482461
20
3.99474838878265
30
0
0
SPLINE
5
BF
100
AcDbEntity
8
1
62
256
6
ByLayer
370
18
48
1
60
0
100
AcDbSpline
70
4
71
3
72
151
73
147
40
0
40
0
40
0
40
0
40
0.0092356953143684
40
0.0092356953143684
40
0.0274161912861988
40
0.0274161912861988
40
0.0455966872580293
40
0.0455966872580293
40
0.0637771832298597
40
0.0637771832298597
40
0.0819576792016902
40
0.0819576792016902
40
0.10013817517352
40
0.10013817517352
40
0.118318671145351
40
0.118318671145351
40
0.127408919131266
40
0.127408919131266
40
0.13649916711718
40
0.13649916711718
40
0.145589415103095
40
0.145589415103095
40
0.15467966308901
40
0.15467966308901
40
0.172860159060839
40
0.172860159060839
40
0.191040655032669
40
0.191040655032669
40
0.209221151004498
40
0.209221151004498
40
0.227401646976328
40
0.227401646976328
40
0.236491894962242
40
0.236491894962242
40
0.245582142948158
40
0.245582142948158
40
0.263762638919989
40
0.263762638919989
40
0.281943134891821
40
0.281943134891821
40
0.300123630863652
40
0.300123630863652
40
0.309213878849568
40
0.309213878849568
40
0.318304126835484
40
0.318304126835484
40
0.327394374821399
40
0.327394374821399
40
0.336484622807315
40
0.336484622807315
40
0.354665118779146
40
0.354665118779146
40
0.372845614750976
40
0.372845614750976
40
0.391026110722806
40
0.391026110722806
40
0.409206606694637
40
0.409206606694637
40
0.418296854680552
40
0.418296854680552
40
0.427387102666467
40
0.427387102666467
40
0.445567598638298
40
0.445567598638298
40
0.463748094610128
40
0.463748094610128
40
0.481928590581959
40
0.481928590581959
40
0.486473714574917
40
0.486473714574917
40
0.491018838567875
40
0.491018838567875
40
0.500109086553791
40
0.500109086553791
40
0.509199334539707
40
0.509199334539707
40
0.518289582525623
40
0.518289582525623
40
0.536470078497453
40
0.536470078497453
40
0.554650574469283
40
0.554650574469283
40
0.572831070441114
40
0.572831070441114
40
0.591011566412944
40
0.591011566412944
40
0.60010181439886
40
0.60010181439886
40
0.609192062384775
40
0.609192062384775
40
0.627372558356605
40
0.627372558356605
40
0.645553054328436
40
0.645553054328436
40
0.663733550300266
40
0.663733550300266
40
0.668278674293223
40
0.668278674293223
40
0.672823798286181
40
0.681914046272095
40
0.681914046272095
40
0.69100429425801
40
0.69100429425801
40
0.700094542243925
40
0.700094542243925
40
0.718275038215754
40
0.718275038215754
40
0.736455534187584
40
0.736455534187584
40
0.754636030159413
40
0.754636030159413
40
0.772816526131242
40
0.772816526131242
40
0.790997022103071
40
0.790997022103071
40
0.8091775180749
40
0.8091775180749
40
0.827358014046728
40
0.827358014046728
40
0.836448262032643
40
0.836448262032643
40
0.8409933860256
40
0.8409933860256
40
0.845538510018557
40
0.845538510018557
40
0.863719005990385
40
0.863719005990385
40
0.881899501962213
40
0.881899501962213
40
0.890989749948128
40
0.890989749948128
40
0.900079997934042
40
0.900079997934042
40
0.918260493905871
40
0.918260493905871
40
0.9364409898777
40
0.9364409898777
40
0.954621485849528
40
0.954621485849528
40
0.972801981821357
40
0.972801981821357
40
0.981892229807272
40
0.981892229807272
40
0.990982477793187
40
0.990982477793187
40
1
40
1
40
1
40
1
41
1
10
44.2552881527791
20
-2.65243775793863
30
0
41
1
10
44.1668865000123
20
-2.68899340902305
30
0
41
1
10
44.0785610055555
20
-2.72492809749812
30
0
41
1
10
43.8164670907233
20
-2.82958865386058
30
0
41
1
10
43.6427313319474
20
-2.8962928813807
30
0
41
1
10
43.2955223082359
20
-3.02454593135624
30
0
41
1
10
43.1221278393634
20
-3.0861855478974
30
0
41
1
10
42.7754973110177
20
-3.2041397192389
30
0
41
1
10
42.6021852718727
20
-3.26036430347025
30
0
41
1
10
42.2550977755982
20
-3.36683814043428
30
0
41
1
10
42.0813848911303
20
-3.41716451167187
30
0
41
1
10
41.7338632597305
20
-3.51218186316376
30
0
41
1
10
41.5600301661176
20
-3.55683434040995
30
0
41
1
10
41.2115684930119
20
-3.63980228748216
30
0
41
1
10
41.0368806199557
20
-3.67808406901938
30
0
41
1
10
40.7742696658495
20
-3.73076429523945
30
0
41
1
10
40.6866426209682
20
-3.74753728193858
30
0
41
1
10
40.5112247549491
20
-3.77950079680232
30
0
41
1
10
40.4233917408751
20
-3.79469116148627
30
0
41
1
10
40.2476215340006
20
-3.82339133123179
30
0
41
1
10
40.1598704841657
20
-3.83687096662311
30
0
41
1
10
39.9845423988741
20
-3.86205886587246
30
0
41
1
10
39.8969578494726
20
-3.8737645936817
30
0
41
1
10
39.6344535439424
20
-3.90625987642773
30
0
41
1
10
39.4597902094151
20
-3.92443889089787
30
0
41
1
10
39.1113571490956
20
-3.9539535792704
30
0
41
1
10
38.9375543141654
20
-3.96525922260591
30
0
41
1
10
38.5901116218783
20
-3.98087515698964
30
0
41
1
10
38.4164257583926
20
-3.98519743474142
30
0
41
1
10
38.0693006810973
20
-3.98696519065908
30
0
41
1
10
37.8959376769099
20
-3.98440045169085
30
0
41
1
10
37.6359353413704
20
-3.97535047875294
30
0
41
1
10
37.5492665361525
20
-3.97146766959006
30
0
41
1
10
37.3758335391764
20
-3.96198746444475
30
0
41
1
10
37.2890632564412
20
-3.95639236422593
30
0
41
1
10
37.0286131302744
20
-3.93704863749392
30
0
41
1
10
36.8548015394197
20
-3.92074721909071
30
0
41
1
10
36.5070290679907
20
-3.88118679785913
30
0
41
1
10
36.3330305152014
20
-3.85792220605734
30
0
41
1
10
35.9841375856767
20
-3.80465848850372
30
0
41
1
10
35.8092052679091
20
-3.77469915519595
30
0
41
1
10
35.546213679605
20
-3.72465066447703
30
0
41
1
10
35.4584589322496
20
-3.70710890384797
30
0
41
1
10
35.2827635752705
20
-3.6702840658308
30
0
41
1
10
35.1948016312696
20
-3.65100024300372
30
0
41
1
10
35.0192946311068
20
-3.61090072760234
30
0
41
1
10
34.9316629993829
20
-3.59006814894931
30
0
41
1
10
34.7565480872911
20
-3.54693245449752
30
0
41
1
10
34.6690621263702
20
-3.52463264828145
30
0
41
1
10
34.4068445387677
20
-3.45553957040269
30
0
41
1
10
34.2323643248705
20
-3.40654733887294
30
0
41
1
10
33.8842361782704
20
-3.30256242007132
30
0
41
1
10
33.7105454906888
20
-3.24759881699171
30
0
41
1
10
33.3632264240246
20
-3.13250239748174
30
0
41
1
10
33.1895793296856
20
-3.07240498220472
30
0
41
1
10
32.8425119993736
20
-2.94692200127395
30
0
41
1
10
32.6691645471709
20
-2.88143807591689
30
0
41
1
10
32.4091070538136
20
-2.77946347600147
30
0
41
1
10
32.3224083405726
20
-2.74485642607055
30
0
41
1
10
32.1488912775022
20
-2.67454013196584
30
0
41
1
10
32.062072983009
20
-2.63883173970081
30
0
41
1
10
31.8014691544312
20
-2.53002003657971
30
0
41
1
10
31.6275492011343
20
-2.45521424654146
30
0
41
1
10
31.2794951472183
20
-2.30077841248715
30
0
41
1
10
31.1053150339335
20
-2.22120345843266
30
0
41
1
10
30.755957833725
20
-2.05836886505517
30
0
41
1
10
30.580772666034
20
-1.9751376781459
30
0
41
1
10
30.3612822138531
20
-1.86859294826778
30
0
41
1
10
30.3173593207391
20
-1.84715718183651
30
0
41
1
10
30.2294680032442
20
-1.80402245967969
30
0
41
1
10
30.1854778802274
20
-1.78231414152043
30
0
41
1
10
30.0536380461465
20
-1.71692353225083
30
0
41
1
10
29.9658935956775
20
-1.67296195575361
30
0
41
1
10
29.7906261566611
20
-1.58443886964085
30
0
41
1
10
29.7031016162985
20
-1.53988009003348
30
0
41
1
10
29.5281776460156
20
-1.4503361868399
30
0
41
1
10
29.4407824016438
20
-1.40534376177351
30
0
41
1
10
29.1788248252369
20
-1.26965864127015
30
0
41
1
10
29.0045131839693
20
-1.17821836528592
30
0
41
1
10
28.6566509901853
20
-0.993179343983627
30
0
41
1
10
28.483050811621
20
-0.899668089640073
30
0
41
1
10
28.135820125898
20
-0.711923335640108
30
0
41
1
10
27.9621994474831
20
-0.617674225278819
30
0
41
1
10
27.6151640217938
20
-0.428031748779972
30
0
41
1
10
27.4418154585556
20
-0.332515243975792
30
0
41
1
10
27.1816776508557
20
-0.188871297010024
30
0
41
1
10
27.0949395351635
20
-0.140940295605645
30
0
41
1
10
26.9213240824439
20
-0.0451429615868051
30
0
41
1
10
26.8344525411492
20
0.0027339942004119
30
0
41
1
10
26.5736775529024
20
0.146356952934127
30
0
41
1
10
26.3996403790587
20
0.242144177402878
30
0
41
1
10
26.0512768937518
20
0.433967738476554
30
0
41
1
10
25.8768977407986
20
0.529906801654079
30
0
41
1
10
25.5270536494766
20
0.720542083077333
30
0
41
1
10
25.3516074365201
20
0.815271350593918
30
0
41
1
10
25.1317760861353
20
0.933204364486301
30
0
41
1
10
25.0877671977516
20
0.956778900258598
30
0
41
1
10
24.9998575332657
20
1.00379984469373
30
0
41
1
10
24.8681085010805
20
1.07415605751785
30
0
41
1
10
24.7366711574131
20
1.14392143309877
30
0
41
1
10
24.5616185855272
20
1.23627438880106
30
0
41
1
10
24.474187334715
20
1.2821105201235
30
0
41
1
10
24.2994345598298
20
1.37296837377036
30
0
41
1
10
24.2121206735166
20
1.41800452492009
30
0
41
1
10
23.9503957754994
20
1.55200190182734
30
0
41
1
10
23.7762372471867
20
1.63991681886014
30
0
41
1
10
23.4286015618661
20
1.8129703173754
30
0
41
1
10
23.255068345189
20
1.89800548885736
30
0
41
1
10
22.9078959306089
20
2.06401958953938
30
0
41
1
10
22.7342878835237
20
2.14505997066357
30
0
41
1
10
22.3872600770143
20
2.30358589642907
30
0
41
1
10
22.2138934257113
20
2.38114324238373
30
0
41
1
10
21.8669041087663
20
2.53198760726539
30
0
41
1
10
21.6931966683952
20
2.6051563383462
30
0
41
1
10
21.3452482942027
20
2.74685040114343
30
0
41
1
10
21.1710860549985
20
2.81548628427802
30
0
41
1
10
20.8223887227971
20
2.94827034967895
30
0
41
1
10
20.6477942882893
20
3.01233205727993
30
0
41
1
10
20.3850344657101
20
3.10427348775332
30
0
41
1
10
20.2973145238845
20
3.13424457840816
30
0
41
1
10
20.1655499576365
20
3.17820268676357
30
0
41
1
10
20.1215977525679
20
3.19268902405599
30
0
41
1
10
20.0336361155542
20
3.22133261493892
30
0
41
1
10
19.9896127108187
20
3.23549417354363
30
0
41
1
10
19.7697774700611
20
3.30535797881421
30
0
41
1
10
19.5945577315853
20
3.35835298277769
30
0
41
1
10
19.2448323297168
20
3.45799444356891
30
0
41
1
10
19.070242509596
20
3.50456997958881
30
0
41
1
10
18.808723443915
20
3.56963570188094
30
0
41
1
10
18.7216197464522
20
3.59053164183982
30
0
41
1
10
18.5475889743933
20
3.63077143099687
30
0
41
1
10
18.4606666446117
20
3.65011787381991
30
0
41
1
10
18.2000803004718
20
3.70575672176096
30
0
41
1
10
18.0265912412431
20
3.73963698317323
30
0
41
1
10
17.6794479258577
20
3.80062572601594
30
0
41
1
10
17.5058393721795
20
3.82778021652263
30
0
41
1
10
17.15879628102
20
3.87554576271208
30
0
41
1
10
16.9853939525121
20
3.89615378803708
30
0
41
1
10
16.638235035426
20
3.93052642086548
30
0
41
1
10
16.4643965423987
20
3.94427591716732
30
0
41
1
10
16.2032358175423
20
3.95975680300231
30
0
41
1
10
16.1161227045398
20
3.96406114744207
30
0
41
1
10
15.9418150816972
20
3.97095061759677
30
0
41
1
10
15.8546237382743
20
3.97353499367159
30
0
41
1
10
15.6807951037073
20
3.97694306198679
30
0
41
1
10
15.5941566925557
20
3.97777864401181
30
0
41
1
10
15.5074074037433
20
3.97774963105758
30
0
0
SPLINE
5
C0
100
AcDbEntity
8
1
62
256
6
ByLayer
370
18
48
1
60
0
100
AcDbSpline
70
4
71
3
72
164
73
160
40
0
40
0
40
0
40
0
40
0.0040836302516884
40
0.0040836302516884
40
0.0121860448139493
40
0.0121860448139493
40
0.0202884593762101
40
0.0202884593762101
40
0.0364932885007313
40
0.0364932885007313
40
0.052698117625252
40
0.052698117625252
40
0.0608005321875128
40
0.0608005321875128
40
0.0689029467497737
40
0.0689029467497737
40
0.0851077758742965
40
0.0851077758742965
40
0.101312604998819
40
0.101312604998819
40
0.117517434123342
40
0.117517434123342
40
0.125619848685604
40
0.125619848685604
40
0.133722263247865
40
0.133722263247865
40
0.149927092372388
40
0.149927092372388
40
0.166131921496911
40
0.166131921496911
40
0.182336750621434
40
0.182336750621434
40
0.198541579745956
40
0.198541579745956
40
0.214746408870479
40
0.214746408870479
40
0.230951237995002
40
0.230951237995002
40
0.239053652557264
40
0.239053652557264
40
0.247156067119525
40
0.247156067119525
40
0.263360896244048
40
0.263360896244048
40
0.279565725368571
40
0.279565725368571
40
0.295770554493094
40
0.295770554493094
40
0.303872969055355
40
0.303872969055355
40
0.311975383617617
40
0.311975383617617
40
0.328180212742139
40
0.328180212742139
40
0.344385041866662
40
0.344385041866662
40
0.352487456428923
40
0.352487456428923
40
0.360589870991184
40
0.360589870991184
40
0.376794700115706
40
0.376794700115706
40
0.392999529240227
40
0.392999529240227
40
0.409204358364749
40
0.409204358364749
40
0.425409187489271
40
0.425409187489271
40
0.441614016613793
40
0.441614016613793
40
0.457818845738314
40
0.457818845738314
40
0.465921260300575
40
0.465921260300575
40
0.474023674862836
40
0.474023674862836
40
0.482126089425097
40
0.482126089425097
40
0.490228503987358
40
0.490228503987358
40
0.506433333111878
40
0.506433333111878
40
0.522638162236399
40
0.522638162236399
40
0.538842991360919
40
0.538842991360919
40
0.55504782048544
40
0.55504782048544
40
0.57125264960996
40
0.57125264960996
40
0.57935506417222
40
0.57935506417222
40
0.58745747873448
40
0.58745747873448
40
0.603662307858999
40
0.603662307858999
40
0.619867136983519
40
0.619867136983519
40
0.636071966108038
40
0.636071966108038
40
0.644174380670299
40
0.644174380670299
40
0.652276795232559
40
0.652276795232559
40
0.660379209794819
40
0.660379209794819
40
0.66848162435708
40
0.66848162435708
40
0.684686453481601
40
0.684686453481601
40
0.692788868043862
40
0.692788868043862
40
0.700891282606123
40
0.700891282606123
40
0.717096111730646
40
0.717096111730646
40
0.733300940855169
40
0.733300940855169
40
0.749505769979691
40
0.749505769979691
40
0.757608184541953
40
0.757608184541953
40
0.765710599104214
40
0.765710599104214
40
0.781915428228738
40
0.781915428228738
40
0.798120257353262
40
0.798120257353262
40
0.814325086477786
40
0.814325086477786
40
0.83052991560231
40
0.83052991560231
40
0.838632330164573
40
0.838632330164573
40
0.846734744726835
40
0.846734744726835
40
0.86293957385136
40
0.86293957385136
40
0.871041988413622
40
0.871041988413622
40
0.879144402975884
40
0.879144402975884
40
0.895349232100409
40
0.895349232100409
40
0.911554061224935
40
0.911554061224935
40
0.92775889034946
40
0.92775889034946
40
0.943963719473985
40
0.943963719473985
40
0.96016854859851
40
0.96016854859851
40
0.976373377723035
40
0.976373377723035
40
0.984475792285298
40
0.984475792285298
40
0.992578206847562
40
0.992578206847562
40
1
40
1
40
1
40
1
41
1
10
21.5846743368145
20
2.6464563025765
30
0
41
1
10
21.6237537207356
20
2.66261174836936
30
0
41
1
10
21.6628208390571
20
2.6786461743913
30
0
41
1
10
21.7793790534986
20
2.72611397927156
30
0
41
1
10
21.8568495563252
20
2.75717146351931
30
0
41
1
10
22.0117928810979
20
2.81820950074757
30
0
41
1
10
22.0892731761263
20
2.84818087158621
30
0
41
1
10
22.321683865385
20
2.93653976024319
30
0
41
1
10
22.4765561828592
20
2.99341155576874
30
0
41
1
10
22.7859502455651
20
3.10332303036597
30
0
41
1
10
22.9404837706853
20
3.15633550239653
30
0
41
1
10
23.172522150558
20
3.23237498035829
30
0
41
1
10
23.2499054889021
20
3.25714599763594
30
0
41
1
10
23.4047958695445
20
3.30549117527113
30
0
41
1
10
23.482296100611
20
3.32907327937477
30
0
41
1
10
23.7148836702244
20
3.39813104015252
30
0
41
1
10
23.8700334299151
20
3.44194402276747
30
0
41
1
10
24.1804442316851
20
3.52510642984157
30
0
41
1
10
24.3357738819136
20
3.564382972289
30
0
41
1
10
24.6472575099437
20
3.6378039128935
30
0
41
1
10
24.8034514933178
20
3.67193037029105
30
0
41
1
10
25.0381865250284
20
3.71940691430615
30
0
41
1
10
25.1165051843606
20
3.73461222550571
30
0
41
1
10
25.273272839606
20
3.76377813291418
30
0
41
1
10
25.3516981650542
20
3.77773691525866
30
0
41
1
10
25.5864541091752
20
3.81752347136458
30
0
41
1
10
25.742554201431
20
3.84129547095955
30
0
41
1
10
26.0544664693293
20
3.88319297213275
30
0
41
1
10
26.2102492181195
20
3.90135026638424
30
0
41
1
10
26.5211293412073
20
3.93228331089756
30
0
41
1
10
26.6761838216376
20
3.94505724835696
30
0
41
1
10
26.9859636975917
20
3.96507824991571
30
0
41
1
10
27.1407483510503
20
3.97231489054991
30
0
41
1
10
27.4504419235074
20
3.98128321042117
30
0
41
1
10
27.6052711671112
20
3.9830343345711
30
0
41
1
10
27.9146293237887
20
3.98106118271849
30
0
41
1
10
28.069129310107
20
3.97731861498966
30
0
41
1
10
28.3010797896137
20
3.96757691913626
30
0
41
1
10
28.378428987097
20
3.96364354395624
30
0
41
1
10
28.5332512327641
20
3.95442176489812
30
0
41
1
10
28.6107287067531
20
3.94913533676561
30
0
41
1
10
28.8432865662219
20
3.93124037425457
30
0
41
1
10
28.9984703250213
20
3.91659438423983
30
0
41
1
10
29.3089479396401
20
3.881717910432
30
0
41
1
10
29.4642785109339
20
3.86148492395776
30
0
41
1
10
29.7757448902658
20
3.81564732826013
30
0
41
1
10
29.931929045564
20
3.7900842723551
30
0
41
1
10
30.1667473658698
20
3.7476867341569
30
0
41
1
10
30.245101575707
20
3.73287168271878
30
0
41
1
10
30.4019556221322
20
3.70184606457062
30
0
41
1
10
30.4803315000263
20
3.685652085589
30
0
41
1
10
30.7149839097408
20
3.63514998834447
30
0
41
1
10
30.8709833125544
20
3.59891297540673
30
0
41
1
10
31.1826721338792
20
3.52183835986477
30
0
41
1
10
31.3383851518584
20
3.48103555900411
30
0
41
1
10
31.5714922485946
20
3.41624232791034
30
0
41
1
10
31.649120545755
20
3.39404758495297
30
0
41
1
10
31.8042097533873
20
3.34844181094522
30
0
41
1
10
31.8816711012382
20
3.32503042005547
30
0
41
1
10
32.1139332896654
20
3.25309831631265
30
0
41
1
10
32.2686303035964
20
3.20289583394273
30
0
41
1
10
32.5781972067878
20
3.09856143475579
30
0
41
1
10
32.7330140343496
20
3.04438089279398
30
0
41
1
10
33.0423941648977
20
2.93161693921078
30
0
41
1
10
33.1969143039722
20
2.87296832253247
30
0
41
1
10
33.506131210853
20
2.75174631897531
30
0
41
1
10
33.6608814475622
20
2.68924672644323
30
0
41
1
10
33.9709363479895
20
2.56087489572903
30
0
41
1
10
34.1261558870359
20
2.49489103632743
30
0
41
1
10
34.436742132379
20
2.35892704117453
30
0
41
1
10
34.5920958584899
20
2.28891389412638
30
0
41
1
10
34.8257004081687
20
2.18154401029798
30
0
41
1
10
34.9036613038624
20
2.14535929364644
30
0
41
1
10
35.0598261845281
20
2.07229493116424
30
0
41
1
10
35.1380278140622
20
2.03541231958064
30
0
41
1
10
35.2946185017484
20
1.96085944804111
30
0
41
1
10
35.3730200017871
20
1.92317765399133
30
0
41
1
10
35.5299185491902
20
1.84699129366638
30
0
41
1
10
35.6082388367449
20
1.80856852358744
30
0
41
1
10
35.8428149946021
20
1.69231508832129
30
0
41
1
10
35.9987281992651
20
1.61357111579571
30
0
41
1
10
36.3102170870739
20
1.45467132635522
30
0
41
1
10
36.4658409199926
20
1.37460299836266
30
0
41
1
10
36.7765782949868
20
1.21276796073275
30
0
41
1
10
36.931642989573
20
1.13091319128233
30
0
41
1
10
37.2412587849691
20
0.965493182815834
30
0
41
1
10
37.3958874767571
20
0.882066196414883
30
0
41
1
10
37.7053111068507
20
0.714734884988786
30
0
41
1
10
37.8601070352151
20
0.630834846244568
30
0
41
1
10
38.0921525209504
20
0.504135382881117
30
0
41
1
10
38.1694800187283
20
0.461767193724938
30
0
41
1
10
38.3240785425558
20
0.376732571788608
30
0
41
1
10
38.4013547245197
20
0.334075481701632
30
0
41
1
10
38.6332434903549
20
0.205921973410341
30
0
41
1
10
38.7879372300973
20
0.120281604316375
30
0
41
1
10
39.0979457832993
20
-0.0506256297383629
30
0
41
1
10
39.2531922298612
20
-0.136017940082184
30
0
41
1
10
39.563875538766
20
-0.30723840191763
30
0
41
1
10
39.7192742234838
20
-0.393140922785506
30
0
41
1
10
39.9528890731348
20
-0.521628934074897
30
0
41
1
10
40.0308491745582
20
-0.564392597129995
30
0
41
1
10
40.1870046886434
20
-0.649677502935276
30
0
41
1
10
40.2652076702563
20
-0.692184151246323
30
0
41
1
10
40.4218287529796
20
-0.776993405546705
30
0
41
1
10
40.5002976651982
20
-0.81933285002944
30
0
41
1
10
40.6571432580874
20
-0.903760166406926
30
0
41
1
10
40.7354468281562
20
-0.945803026494616
30
0
41
1
10
40.9699715925496
20
-1.07147278623506
30
0
41
1
10
41.1258128780813
20
-1.15462285134436
30
0
41
1
10
41.3592960756477
20
-1.27753295124219
30
0
41
1
10
41.4370755461891
20
-1.3182050291507
30
0
41
1
10
41.5925849436944
20
-1.3988791652591
30
0
41
1
10
41.6703075077687
20
-1.43889485556454
30
0
41
1
10
41.9033019041532
20
-1.55812209518049
30
0
41
1
10
42.0583756750757
20
-1.63655765041813
30
0
41
1
10
42.3679531927721
20
-1.79141324362524
30
0
41
1
10
42.5225272361451
20
-1.86770849595234
30
0
41
1
10
42.8318150418373
20
-2.01711887134232
30
0
41
1
10
42.9865684196237
20
-2.09017947821334
30
0
41
1
10
43.2186177890981
20
-2.19770958963764
30
0
41
1
10
43.2959540964793
20
-2.2332085010687
30
0
41
1
10
43.4505805119213
20
-2.30354177336142
30
0
41
1
10
43.5278646143304
20
-2.33838474757894
30
0
41
1
10
43.7597479825636
20
-2.44175584603195
30
0
41
1
10
43.9143989496504
20
-2.50909274380049
30
0
41
1
10
44.2243377024334
20
-2.63987862805237
30
0
41
1
10
44.3796016119005
20
-2.70337097081594
30
0
41
1
10
44.6903693848633
20
-2.82702321139746
30
0
41
1
10
44.8458320568733
20
-2.88723063801137
30
0
41
1
10
45.1573436956097
20
-3.00377383460028
30
0
41
1
10
45.3134542089187
20
-3.06003082590166
30
0
41
1
10
45.548411418387
20
-3.14106684921987
30
0
41
1
10
45.6269154691257
20
-3.16756276047519
30
0
41
1
10
45.7837058943163
20
-3.21940013676172
30
0
41
1
10
45.8619885859515
20
-3.2447395012768
30
0
41
1
10
46.0964711659922
20
-3.31905418826969
30
0
41
1
10
46.2522627562916
20
-3.36636204563027
30
0
41
1
10
46.4856268394606
20
-3.43350045694717
30
0
41
1
10
46.5633598414693
20
-3.45524588304861
30
0
41
1
10
46.7187763300432
20
-3.49742723273556
30
0
41
1
10
46.796463259854
20
-3.51786105073754
30
0
41
1
10
47.0293860955731
20
-3.57727925795461
30
0
41
1
10
47.184463046211
20
-3.61440209062329
30
0
41
1
10
47.4940301374703
20
-3.68379230738887
30
0
41
1
10
47.648560297205
20
-3.71601450120087
30
0
41
1
10
47.9577292881003
20
-3.7751037453437
30
0
41
1
10
48.1124177165744
20
-3.80195449265418
30
0
41
1
10
48.4218127388093
20
-3.8504364986878
30
0
41
1
10
48.5764607358632
20
-3.87209489648737
30
0
41
1
10
48.8856573609281
20
-3.91016765437854
30
0
41
1
10
49.0402823688088
20
-3.92654001464581
30
0
41
1
10
49.3501429788224
20
-3.95376262517075
30
0
41
1
10
49.5054068295911
20
-3.96462214590721
30
0
41
1
10
49.7385379317175
20
-3.97683984474639
30
0
41
1
10
49.8162899827043
20
-3.98023131550229
30
0
41
1
10
49.9718596004027
20
-3.98563841603067
30
0
41
1
10
50.0496753062483
20
-3.98765321760692
30
0
41
1
10
50.1989116753992
20
-3.99017173237345
30
0
41
1
10
50.27032425899
20
-3.99078708055006
30
0
41
1
10
50.3418253951244
20
-3.99081307306068
30
0
0
SPLINE
5
C1
100
AcDbEntity
8
1
62
256
6
ByLayer
370
18
48
1
60
0
100
AcDbSpline
70
4
71
3
72
48
73
44
40
0
40
0
40
0
40
0
40
0.0560471677888866
40
0.0560471677888866
40
0.11504421980208
40
0.11504421980208
40
0.144542745808677
40
0.144542745808677
40
0.174041271815274
40
0.174041271815274
40
0.233038323828468
40
0.233038323828468
40
0.292035375841662
40
0.292035375841662
40
0.351032427854855
40
0.351032427854855
40
0.410029479868048
40
0.410029479868048
40
0.469026531881242
40
0.469026531881242
40
0.498525057887841
40
0.498525057887841
40
0.528023583894441
40
0.528023583894441
40
0.55752210990104
40
0.55752210990104
40
0.58702063590764
40
0.58702063590764
40
0.646017687920833
40
0.646017687920833
40
0.705014739934027
40
0.705014739934027
40
0.764011791947221
40
0.764011791947221
40
0.823008843960414
40
0.823008843960414
40
0.882005895973607
40
0.882005895973607
40
0.941002947986801
40
0.941002947986801
40
0.970501473993401
40
0.970501473993401
40
1
40
1
40
1
40
1
41
1
10
66.9309081996882
20
2.65919891338797
30
0
41
1
10
67.0784564734307
20
2.72041469105838
30
0
41
1
10
67.2257250659744
20
2.77992139195277
30
0
41
1
10
67.5279353309726
20
2.89793774421665
30
0
41
1
10
67.6829029935195
20
2.95620555808659
30
0
41
1
10
67.9150729058032
20
3.04060066212591
30
0
41
1
10
67.9924181256018
20
3.06822688332096
30
0
41
1
10
68.1469997597151
20
3.12248561788329
30
0
41
1
10
68.2242336216385
20
3.14912027871574
30
0
41
1
10
68.4558910659891
20
3.22738732762383
30
0
41
1
10
68.6102878925647
20
3.27736003126861
30
0
41
1
10
68.9194808405303
20
3.37242314519295
30
0
41
1
10
69.0742343060104
20
3.41757029115732
30
0
41
1
10
69.3837222716552
20
3.5034073845377
30
0
41
1
10
69.5384135972063
20
3.54412427573439
30
0
41
1
10
69.8481728976866
20
3.62065763212436
30
0
41
1
10
70.0032980544395
20
3.65642934665337
30
0
41
1
10
70.3143477855509
20
3.72276242584181
30
0
41
1
10
70.470188787015
20
3.75339430704179
30
0
41
1
10
70.7042422810941
20
3.79560271441741
30
0
41
1
10
70.7823052500748
20
3.80904894391375
30
0
41
1
10
70.9385950475413
20
3.83463423887591
30
0
41
1
10
71.0168603766792
20
3.84677643092343
30
0
41
1
10
71.1734829081155
20
3.86967744371665
30
0
41
1
10
71.2517354088549
20
3.88042309614662
30
0
41
1
10
71.4081843861248
20
3.90049470995945
30
0
41
1
10
71.4863806432647
20
3.90982193598006
30
0
41
1
10
71.7208066791317
20
3.93573047339061
30
0
41
1
10
71.876851795927
20
3.95024981478028
30
0
41
1
10
72.1883136160434
20
3.97380539839088
30
0
41
1
10
72.3437848985899
20
3.98281264429969
30
0
41
1
10
72.6548315526614
20
3.99519814777207
30
0
41
1
10
72.8104576488547
20
3.99858722823183
30
0
41
1
10
73.1216583162321
20
3.99983624534912
30
0
41
1
10
73.2771794890445
20
3.99769043232678
30
0
41
1
10
73.5881322140903
20
3.98778049530387
30
0
41
1
10
73.7436440414633
20
3.98001542844509
30
0
41
1
10
74.0552827345937
20
3.95896987816155
30
0
41
1
10
74.2114165196989
20
3.94570938376117
30
0
41
1
10
74.4458089910559
20
3.92161640070171
30
0
41
1
10
74.5239755926695
20
3.91288406233056
30
0
41
1
10
74.6803659457222
20
3.89399300386924
30
0
41
1
10
74.7585946803445
20
3.88383523341844
30
0
41
1
10
74.8369017714899
20
3.8729777370998
30
0
0
SPLINE
5
C2
100
AcDbEntity
8
1
62
256
6
ByLayer
370
18
48
1
60
0
100
AcDbSpline
70
4
71
3
72
150
73
146
40
0
40
0
40
0
40
0
40
0.0161020498903077
40
0.0161020498903077
40
0.0342759378688932
40
0.0342759378688932
40
0.0388194098635394
40
0.0388194098635394
40
0.0433628818581856
40
0.0433628818581856
40
0.0524498258474778
40
0.0524498258474778
40
0.0706237138260611
40
0.0706237138260611
40
0.0797106578153523
40
0.0797106578153523
40
0.0887976018046434
40
0.0887976018046434
40
0.106971489783225
40
0.106971489783225
40
0.125145377761806
40
0.125145377761806
40
0.143319265740387
40
0.143319265740387
40
0.161493153718968
40
0.161493153718968
40
0.170580097708259
40
0.170580097708259
40
0.179667041697549
40
0.179667041697549
40
0.197840929676132
40
0.197840929676132
40
0.216014817654714
40
0.216014817654714
40
0.225101761644005
40
0.225101761644005
40
0.234188705633296
40
0.234188705633296
40
0.252362593611879
40
0.252362593611879
40
0.270536481590463
40
0.270536481590463
40
0.279623425579754
40
0.279623425579754
40
0.288710369569046
40
0.288710369569046
40
0.306884257547631
40
0.306884257547631
40
0.325058145526215
40
0.325058145526215
40
0.343232033504799
40
0.343232033504799
40
0.361405921483384
40
0.361405921483384
40
0.370492865472676
40
0.370492865472676
40
0.379579809461967
40
0.379579809461967
40
0.388666753451259
40
0.388666753451259
40
0.397753697440551
40
0.397753697440551
40
0.415927585419133
40
0.415927585419133
40
0.434101473397715
40
0.434101473397715
40
0.452275361376297
40
0.452275361376297
40
0.461362305365588
40
0.461362305365588
40
0.470449249354879
40
0.470449249354879
40
0.488623137333463
40
0.488623137333463
40
0.506797025312046
40
0.506797025312046
40
0.52497091329063
40
0.52497091329063
40
0.543144801269213
40
0.543144801269213
40
0.552231745258504
40
0.552231745258504
40
0.561318689247795
40
0.561318689247795
40
0.570405633237087
40
0.570405633237087
40
0.579492577226378
40
0.579492577226378
40
0.59766646520496
40
0.59766646520496
40
0.615840353183542
40
0.615840353183542
40
0.634014241162124
40
0.634014241162124
40
0.643101185151416
40
0.643101185151416
40
0.652188129140707
40
0.652188129140707
40
0.670362017119289
40
0.670362017119289
40
0.688535905097871
40
0.688535905097871
40
0.706709793076454
40
0.706709793076454
40
0.724883681055036
40
0.724883681055036
40
0.733970625044326
40
0.733970625044326
40
0.743057569033617
40
0.743057569033617
40
0.752144513022907
40
0.752144513022907
40
0.761231457012198
40
0.761231457012198
40
0.779405344990779
40
0.779405344990779
40
0.797579232969361
40
0.797579232969361
40
0.815753120947942
40
0.815753120947942
40
0.833927008926523
40
0.833927008926523
40
0.852100896905104
40
0.852100896905104
40
0.870274784883686
40
0.870274784883686
40
0.888448672862267
40
0.888448672862267
40
0.906622560840848
40
0.906622560840848
40
0.915709504830138
40
0.915709504830138
40
0.924796448819428
40
0.924796448819428
40
0.933883392808718
40
0.933883392808718
40
0.942970336798008
40
0.942970336798008
40
0.961144224776589
40
0.961144224776589
40
0.97931811275517
40
0.97931811275517
40
0.997492000733751
40
0.997492000733751
40
1
40
1
40
1
40
1
41
1
10
66.9309901567706
20
-2.65370224952685
30
0
41
1
10
66.7765469272339
20
-2.71752027899419
30
0
41
1
10
66.6219348409817
20
-2.77959645797421
30
0
41
1
10
66.2925302041199
20
-2.90808005979511
30
0
41
1
10
66.1176488190691
20
-2.97393824669297
30
0
41
1
10
65.8983322706675
20
-3.05284548280224
30
0
41
1
10
65.8544346178304
20
-3.06845830657179
30
0
41
1
10
65.7665730243914
20
-3.09934948387854
30
0
41
1
10
65.7225914052753
20
-3.11463381035625
30
0
41
1
10
65.5907723405436
20
-3.15991345564575
30
0
41
1
10
65.5030105357874
20
-3.1893531752394
30
0
41
1
10
65.2401291315232
20
-3.2755098369139
30
0
41
1
10
65.0654680660033
20
-3.33011661508877
30
0
41
1
10
64.8039720945238
20
-3.40738474178104
30
0
41
1
10
64.7168824524304
20
-3.43236129580006
30
0
41
1
10
64.5427708118162
20
-3.48069226222958
30
0
41
1
10
64.4557560957292
20
-3.50405467497012
30
0
41
1
10
64.1948652427672
20
-3.57178227268324
30
0
41
1
10
64.0211746000202
20
-3.61381955824714
30
0
41
1
10
63.6743207531958
20
-3.69169746405129
30
0
41
1
10
63.5011036020897
20
-3.7274821988494
30
0
41
1
10
63.1544116950865
20
-3.79232242572277
30
0
41
1
10
62.9809625797669
20
-3.82141284103235
30
0
41
1
10
62.6340849128715
20
-3.87306943313348
30
0
41
1
10
62.4607144089995
20
-3.89564850375172
30
0
41
1
10
62.2003551755729
20
-3.9244066522075
30
0
41
1
10
62.1135112335829
20
-3.93313956994408
30
0
41
1
10
61.9396293407438
20
-3.94887574691558
30
0
41
1
10
61.8525992000615
20
-3.95588248279279
30
0
41
1
10
61.5912725243774
20
-3.97432647008077
30
0
41
1
10
61.4167756833973
20
-3.9831995236174
30
0
41
1
10
61.0672462836106
20
-3.9939665879881
30
0
41
1
10
60.8921561582483
20
-3.99583826958994
30
0
41
1
10
60.6285281885733
20
-3.99330156652337
30
0
41
1
10
60.5406120638312
20
-3.99156796095812
30
0
41
1
10
60.3651305799199
20
-3.986348412589
30
0
41
1
10
60.2775028890585
20
-3.98286216191013
30
0
41
1
10
60.0150128407394
20
-3.96977925433987
30
0
41
1
10
59.8405841131672
20
-3.95754044028001
30
0
41
1
10
59.4922818215945
20
-3.92620402589412
30
0
41
1
10
59.3183231440839
20
-3.90714325414049
30
0
41
1
10
59.0576110101785
20
-3.87357831099956
30
0
41
1
10
58.9707536672992
20
-3.86155708099869
30
0
41
1
10
58.7971698545982
20
-3.8358317913067
30
0
41
1
10
58.7104497244714
20
-3.82212356019215
30
0
41
1
10
58.4504128694929
20
-3.77850137810168
30
0
41
1
10
58.2772160859995
20
-3.74608424188025
30
0
41
1
10
57.9304957447132
20
-3.6750261795957
30
0
41
1
10
57.7570126286169
20
-3.63637598209797
30
0
41
1
10
57.4100406579105
20
-3.55264543750243
30
0
41
1
10
57.2365939276709
20
-3.5075141581975
30
0
41
1
10
56.8891940726632
20
-3.41114878327767
30
0
41
1
10
56.715157434463
20
-3.36000340216938
30
0
41
1
10
56.4535537957226
20
-3.27888720188514
30
0
41
1
10
56.3662696567069
20
-3.25110634054181
30
0
41
1
10
56.1915719167206
20
-3.19400547377776
30
0
41
1
10
56.1041635185466
20
-3.1646784914185
30
0
41
1
10
55.9291614937486
20
-3.10452642211143
30
0
41
1
10
55.8415685077409
20
-3.07370032833791
30
0
41
1
10
55.6661129356623
20
-3.01063901611434
30
0
41
1
10
55.5781601164355
20
-2.97838067802664
30
0
41
1
10
55.3146600672392
20
-2.87994144514465
30
0
41
1
10
55.1393793672959
20
-2.81203794859346
30
0
41
1
10
54.7898247957206
20
-2.67140885181203
30
0
41
1
10
54.6155794537128
20
-2.5986339501678
30
0
41
1
10
54.2675452415539
20
-2.44904831375157
30
0
41
1
10
54.0936744727134
20
-2.37236355967656
30
0
41
1
10
53.8330844887035
20
-2.25454638442599
30
0
41
1
10
53.7462643692502
20
-2.21479784628824
30
0
41
1
10
53.5727492399326
20
-2.13428802637804
30
0
41
1
10
53.4860558697421
20
-2.09352363645633
30
0
41
1
10
53.2260664239279
20
-1.96985728737491
30
0
41
1
10
53.0528513211756
20
-1.88559420511197
30
0
41
1
10
52.7060391338387
20
-1.71443037344187
30
0
41
1
10
52.5324923121738
20
-1.62745580382475
30
0
41
1
10
52.1853709481472
20
-1.45028208063718
30
0
41
1
10
52.0118157237476
20
-1.36004078419089
30
0
41
1
10
51.6641029835953
20
-1.17727881156938
30
0
41
1
10
51.4898655631425
20
-1.08490663557919
30
0
41
1
10
51.2279512496277
20
-0.944835095267905
30
0
41
1
10
51.1405600726297
20
-0.897879935193771
30
0
41
1
10
50.9656419434937
20
-0.803362537922652
30
0
41
1
10
50.8781144115844
20
-0.755800780229407
30
0
41
1
10
50.7028518540482
20
-0.660193520043521
30
0
41
1
10
50.6151179923499
20
-0.612145674181704
30
0
41
1
10
50.4393558831017
20
-0.515726546086825
30
0
41
1
10
50.351527066163
20
-0.46748589626236
30
0
41
1
10
50.0883788083571
20
-0.322885139845965
30
0
41
1
10
49.9133133145269
20
-0.226558641152593
30
0
41
1
10
49.5641638005264
20
-0.033559636538314
30
0
41
1
10
49.3900824116793
20
0.0631134643423934
30
0
41
1
10
49.0422801456767
20
0.25563477448992
30
0
41
1
10
48.8684830076735
20
0.35134356988604
30
0
41
1
10
48.6079942127599
20
0.494190877028217
30
0
41
1
10
48.5212049998297
20
0.541698025862559
30
0
41
1
10
48.3477436898562
20
0.636560895224449
30
0
41
1
10
48.2610674313466
20
0.68390875434622
30
0
41
1
10
48.0010988458695
20
0.825511868508585
30
0
41
1
10
47.8278448595961
20
0.919285796797681
30
0
41
1
10
47.4809095483227
20
1.10460750792851
30
0
41
1
10
47.307285171195
20
1.19626086116114
30
0
41
1
10
46.959981353303
20
1.37800092251916
30
0
41
1
10
46.7862964698496
20
1.46807384360045
30
0
41
1
10
46.4382292674737
20
1.6455069871657
30
0
41
1
10
46.2637740979972
20
1.73274461356343
30
0
41
1
10
46.0015234520944
20
1.86149026642565
30
0
41
1
10
45.9140177632313
20
1.90406341023132
30
0
41
1
10
45.7388597635458
20
1.98857341008568
30
0
41
1
10
45.6512018732773
20
2.03050060008135
30
0
41
1
10
45.475657046066
20
2.11357487340146
30
0
41
1
10
45.3877084295463
20
2.15475108145699
30
0
41
1
10
45.2121456011908
20
2.23587098557488
30
0
41
1
10
45.1244550052861
20
2.27583324934469
30
0
41
1
10
44.8616393522267
20
2.39393285856775
30
0
41
1
10
44.6867800960005
20
2.47030616405954
30
0
41
1
10
44.3380053396505
20
2.61875202731662
30
0
41
1
10
44.1640717096945
20
2.69078156694684
30
0
41
1
10
43.8164670907229
20
2.82958865386072
30
0
41
1
10
43.642731331947
20
2.89629288138082
30
0
41
1
10
43.2955223082358
20
3.02454593135633
30
0
41
1
10
43.1221278393633
20
3.08618554789746
30
0
41
1
10
42.7754973110176
20
3.20413971923895
30
0
41
1
10
42.6021852718726
20
3.26036430347028
30
0
41
1
10
42.255097775598
20
3.36683814043437
30
0
41
1
10
42.08138489113
20
3.41716451167193
30
0
41
1
10
41.7338632597299
20
3.5121818631639
30
0
41
1
10
41.560030166117
20
3.55683434041012
30
0
41
1
10
41.211568493011
20
3.63980228748235
30
0
41
1
10
41.0368806199546
20
3.6780840690196
30
0
41
1
10
40.774269665848
20
3.73076429523974
30
0
41
1
10
40.6866426209666
20
3.74753728193886
30
0
41
1
10
40.5112247549474
20
3.77950079680264
30
0
41
1
10
40.423391740873
20
3.79469116148661
30
0
41
1
10
40.2476215339987
20
3.82339133123207
30
0
41
1
10
40.159870484164
20
3.83687096662337
30
0
41
1
10
39.9845423988727
20
3.86205886587266
30
0
41
1
10
39.8969578494712
20
3.87376459368187
30
0
41
1
10
39.6344535439414
20
3.90625987642781
30
0
41
1
10
39.4597902094143
20
3.92443889089793
30
0
41
1
10
39.1113571490951
20
3.95395357927043
30
0
41
1
10
38.937554314165
20
3.96525922260591
30
0
41
1
10
38.5901116218781
20
3.98087515698964
30
0
41
1
10
38.4164257583925
20
3.98519743474142
30
0
41
1
10
38.2189115633856
20
3.98620328799112
30
0
41
1
10
38.1949637069687
20
3.98625958767849
30
0
41
1
10
38.1710191999872
20
3.98625015930745
30
0
0
SPLINE
5
C3
100
AcDbEntity
8
1
62
256
6
ByLayer
370
18
48
1
60
0
100
AcDbSpline
70
4
71
3
72
77
73
73
40
0
40
0
40
0
40
0
40
0.0048227975806252
40
0.0048227975806252
40
0.0430988438275223
40
0.0430988438275223
40
0.0813748900744194
40
0.0813748900744194
40
0.100512913197867
40
0.100512913197867
40
0.110081924759591
40
0.110081924759591
40
0.119650936321315
40
0.119650936321315
40
0.157926982568211
40
0.157926982568211
40
0.196203028815108
40
0.196203028815108
40
0.215341051938556
40
0.215341051938556
40
0.234479075062005
40
0.234479075062005
40
0.272755121308903
40
0.272755121308903
40
0.311031167555802
40
0.311031167555802
40
0.349307213802701
40
0.349307213802701
40
0.387583260049599
40
0.387583260049599
40
0.406721283173049
40
0.406721283173049
40
0.425859306296499
40
0.425859306296499
40
0.464135352543399
40
0.464135352543399
40
0.483273375666848
40
0.483273375666848
40
0.492842387228574
40
0.492842387228574
40
0.502411398790299
40
0.5406874450372
40
0.5406874450372
40
0.578963491284101
40
0.578963491284101
40
0.598101514407551
40
0.598101514407551
40
0.617239537531001
40
0.617239537531001
40
0.655515583777902
40
0.655515583777902
40
0.693791630024803
40
0.693791630024803
40
0.732067676271704
40
0.732067676271704
40
0.770343722518605
40
0.770343722518605
40
0.789481745642055
40
0.789481745642055
40
0.808619768765505
40
0.808619768765505
40
0.846895815012406
40
0.846895815012406
40
0.866033838135855
40
0.866033838135855
40
0.885171861259304
40
0.885171861259304
40
0.923447907506203
40
0.923447907506203
40
0.961723953753101
40
0.961723953753101
40
1
40
1
40
1
40
1
41
1
10
21.5849723420877
20
-2.64911266228788
30
0
41
1
10
21.5630598847563
20
-2.65811299996932
30
0
41
1
10
21.5411433004771
20
-2.66707661462945
30
0
41
1
10
21.3452482942029
20
-2.74685040114329
30
0
41
1
10
21.1710860549987
20
-2.81548628427797
30
0
41
1
10
20.822388722797
20
-2.94827034967898
30
0
41
1
10
20.647794288289
20
-3.01233205728002
30
0
41
1
10
20.3850344657095
20
-3.10427348775349
30
0
41
1
10
20.2973145238838
20
-3.13424457840836
30
0
41
1
10
20.1655499576356
20
-3.17820268676385
30
0
41
1
10
20.121597752567
20
-3.19268902405628
30
0
41
1
10
20.0336361155532
20
-3.22133261493926
30
0
41
1
10
19.9896127108177
20
-3.23549417354391
30
0
41
1
10
19.7697774700604
20
-3.30535797881441
30
0
41
1
10
19.5945577315848
20
-3.35835298277783
30
0
41
1
10
19.2448323297166
20
-3.45799444356891
30
0
41
1
10
19.0702425095961
20
-3.50456997958878
30
0
41
1
10
18.8087234439153
20
-3.56963570188086
30
0
41
1
10
18.7216197464526
20
-3.59053164183973
30
0
41
1
10
18.5475889743938
20
-3.63077143099676
30
0
41
1
10
18.4606666446123
20
-3.6501178738198
30
0
41
1
10
18.2000803004725
20
-3.70575672176082
30
0
41
1
10
18.0265912412438
20
-3.73963698317309
30
0
41
1
10
17.6794479258585
20
-3.8006257260158
30
0
41
1
10
17.5058393721804
20
-3.82778021652251
30
0
41
1
10
17.1587962810208
20
-3.87554576271196
30
0
41
1
10
16.9853939525129
20
-3.896153788037
30
0
41
1
10
16.6382350354267
20
-3.93052642086542
30
0
41
1
10
16.4643965423994
20
-3.94427591716729
30
0
41
1
10
16.2032358175428
20
-3.95975680300228
30
0
41
1
10
16.1161227045403
20
-3.96406114744204
30
0
41
1
10
15.9418150816975
20
-3.97095061759677
30
0
41
1
10
15.8546237382746
20
-3.97353499367159
30
0
41
1
10
15.592833571106
20
-3.97866762775215
30
0
41
1
10
15.4180093907822
20
-3.97858713603105
30
0
41
1
10
15.1548634349726
20
-3.97317631202713
30
0
41
1
10
15.0670109910288
20
-3.97049299620397
30
0
41
1
10
14.9350430095334
20
-3.96513979437327
30
0
41
1
10
14.8910102131557
20
-3.9631330867029
30
0
41
1
10
14.8030535956324
20
-3.95868279311901
30
0
41
1
10
14.5833369117562
20
-3.94646456381369
30
0
41
1
10
14.3645806877606
20
-3.92874580748099
30
0
41
1
10
14.0151868023913
20
-3.89359037841612
30
0
41
1
10
13.8407183886924
20
-3.87265174187775
30
0
41
1
10
13.5793800412472
20
-3.83628964760223
30
0
41
1
10
13.4923343866277
20
-3.82333958379459
30
0
41
1
10
13.318415897677
20
-3.79576061729313
30
0
41
1
10
13.2315410907791
20
-3.78113166202095
30
0
41
1
10
12.9710665349285
20
-3.73478032151428
30
0
41
1
10
12.7975999387389
20
-3.70059773384307
30
0
41
1
10
12.450457720543
20
-3.62611727936388
30
0
41
1
10
12.2768366072467
20
-3.5857969507255
30
0
41
1
10
11.9297552255824
20
-3.49877989768322
30
0
41
1
10
11.7562989611981
20
-3.45206212294914
30
0
41
1
10
11.4089395437714
20
-3.35271492847687
30
0
41
1
10
11.2349599188384
20
-3.30017300629873
30
0
41
1
10
10.97358700364
20
-3.2170175973622
30
0
41
1
10
10.8864014083384
20
-3.18856819523262
30
0
41
1
10
10.711943768432
20
-3.13015160323346
30
0
41
1
10
10.6246680462349
20
-3.10018751613285
30
0
41
1
10
10.3625939186874
20
-3.00812703635239
30
0
41
1
10
10.1875260773944
20
-2.94388403680497
30
0
41
1
10
9.92398338382981
20
-2.84371232073409
30
0
41
1
10
9.83593705877851
20
-2.80964526692895
30
0
41
1
10
9.65989931190381
20
-2.74028413026267
30
0
41
1
10
9.57193228711699
20
-2.70499760537757
30
0
41
1
10
9.30823896785924
20
-2.59724694024607
30
0
41
1
10
9.1327082456026
20
-2.52290059521783
30
0
41
1
10
8.7815213170914
20
-2.37009417702703
30
0
41
1
10
8.60579464632121
20
-2.29174558017885
30
0
41
1
10
8.25419505792118
20
-2.13100835293602
30
0
41
1
10
8.07832824597602
20
-2.04861221856638
30
0
41
1
10
7.90251359671097
20
-1.96395929070277
30
0
0
SPLINE
5
C4
100
AcDbEntity
8
1
62
256
6
ByLayer
370
18
48
1
60
0
100
AcDbSpline
70
4
71
3
72
70
73
66
40
0
40
0
40
0
40
0
40
0.0372967321077246
40
0.0372967321077246
40
0.0745934642154492
40
0.0745934642154492
40
0.111890196323174
40
0.111890196323174
40
0.130538562377036
40
0.130538562377036
40
0.149186928430897
40
0.149186928430897
40
0.18648366053862
40
0.18648366053862
40
0.223780392646344
40
0.223780392646344
40
0.261077124754067
40
0.261077124754067
40
0.298373856861791
40
0.298373856861791
40
0.335670588969514
40
0.335670588969514
40
0.372967321077237
40
0.372967321077237
40
0.391615687131098
40
0.391615687131098
40
0.410264053184959
40
0.410264053184959
40
0.447560785292681
40
0.447560785292681
40
0.484857517400404
40
0.484857517400404
40
0.522154249508126
40
0.522154249508126
40
0.540802615561987
40
0.540802615561987
40
0.559450981615849
40
0.559450981615849
40
0.596747713723571
40
0.596747713723571
40
0.634044445831293
40
0.634044445831293
40
0.652692811885153
40
0.652692811885153
40
0.671341177939013
40
0.671341177939013
40
0.708637910046733
40
0.708637910046733
40
0.745934642154452
40
0.745934642154452
40
0.783231374262172
40
0.783231374262172
40
0.801879740316032
40
0.801879740316032
40
0.820528106369891
40
0.820528106369891
40
0.857824838477611
40
0.857824838477611
40
0.895121570585331
40
0.895121570585331
40
0.93241830269305
40
0.93241830269305
40
0.96971503480077
40
0.96971503480077
40
1
40
1
40
1
40
1
41
1
10
15.1687185925792
20
0.640330254456842
30
0
41
1
10
15.3254066208596
20
0.554508938973242
30
0
41
1
10
15.4819416682003
20
0.468953878157436
30
0
41
1
10
15.7944743481656
20
0.297889782868026
30
0
41
1
10
15.9504696620705
20
0.21237642853157
30
0
41
1
10
16.2616773929942
20
0.0409215220105352
30
0
41
1
10
16.4168635079573
20
-0.0450663860209488
30
0
41
1
10
16.6495091826287
20
-0.173512516677164
30
0
41
1
10
16.7270320606564
20
-0.216245448905454
30
0
41
1
10
16.8820831539619
20
-0.301443303758674
30
0
41
1
10
16.9596088182732
20
-0.343913175410961
30
0
41
1
10
17.1921096324774
20
-0.471080350522897
30
0
41
1
10
17.3469871134588
20
-0.555575483381602
30
0
41
1
10
17.6563600735555
20
-0.724240278319968
30
0
41
1
10
17.810911974645
20
-0.808304076487246
30
0
41
1
10
18.1203508514558
20
-0.974797837247053
30
0
41
1
10
18.2752866808442
20
-1.05714277910619
30
0
41
1
10
18.5853333955835
20
-1.22049772277595
30
0
41
1
10
18.7403934055842
20
-1.30159726775185
30
0
41
1
10
19.0506569989433
20
-1.46249626027907
30
0
41
1
10
19.2059389161099
20
-1.54215598896568
30
0
41
1
10
19.5173339703968
20
-1.69896529233034
30
0
41
1
10
19.6734542634589
20
-1.77610594846672
30
0
41
1
10
19.9079993296029
20
-1.89037968897264
30
0
41
1
10
19.9862455589111
20
-1.92822449646408
30
0
41
1
10
20.1428538596864
20
-2.00343973757703
30
0
41
1
10
20.2212887403492
20
-2.04083379001457
30
0
41
1
10
20.4562744283879
20
-2.1517510231152
30
0
41
1
10
20.6125592457321
20
-2.22398861223044
30
0
41
1
10
20.9248117492795
20
-2.36447420669884
30
0
41
1
10
21.0807105123429
20
-2.43284200060487
30
0
41
1
10
21.3917652320249
20
-2.56629921270744
30
0
41
1
10
21.5468828691023
20
-2.63143096126888
30
0
41
1
10
21.7793790534987
20
-2.72611397927156
30
0
41
1
10
21.8568495563252
20
-2.75717146351934
30
0
41
1
10
22.011792881098
20
-2.81820950074757
30
0
41
1
10
22.0892731761263
20
-2.84818087158624
30
0
41
1
10
22.321683865385
20
-2.93653976024319
30
0
41
1
10
22.4765561828592
20
-2.99341155576877
30
0
41
1
10
22.7859502455651
20
-3.10332303036597
30
0
41
1
10
22.9404837706854
20
-3.15633550239653
30
0
41
1
10
23.172522150558
20
-3.23237498035829
30
0
41
1
10
23.2499054889021
20
-3.25714599763594
30
0
41
1
10
23.4047958695446
20
-3.30549117527116
30
0
41
1
10
23.482296100611
20
-3.32907327937477
30
0
41
1
10
23.7148836702245
20
-3.39813104015255
30
0
41
1
10
23.8700334299152
20
-3.4419440227675
30
0
41
1
10
24.1804442316851
20
-3.52510642984157
30
0
41
1
10
24.3357738819137
20
-3.56438297228903
30
0
41
1
10
24.6472575099438
20
-3.63780391289353
30
0
41
1
10
24.8034514933178
20
-3.67193037029108
30
0
41
1
10
25.0381865250285
20
-3.71940691430615
30
0
41
1
10
25.1165051843607
20
-3.73461222550571
30
0
41
1
10
25.2732728396061
20
-3.76377813291418
30
0
41
1
10
25.3516981650543
20
-3.77773691525866
30
0
41
1
10
25.5864541091753
20
-3.81752347136458
30
0
41
1
10
25.7425542014311
20
-3.84129547095955
30
0
41
1
10
26.0544664693294
20
-3.88319297213275
30
0
41
1
10
26.2102492181196
20
-3.90135026638424
30
0
41
1
10
26.5211293412073
20
-3.93228331089756
30
0
41
1
10
26.6761838216376
20
-3.94505724835696
30
0
41
1
10
26.9859636975917
20
-3.96507824991571
30
0
41
1
10
27.1407483510504
20
-3.97231489054991
30
0
41
1
10
27.4213308054495
20
-3.9804401906049
30
0
41
1
10
27.5470549069814
20
-3.98227931774849
30
0
41
1
10
27.6726964372619
20
-3.98231393470965
30
0
0
SPLINE
5
C5
100
AcDbEntity
8
1
62
256
6
ByLayer
370
18
48
1
60
0
100
AcDbSpline
70
4
71
3
72
162
73
158
40
0
40
0
40
0
40
0
40
0.0096923610069085
40
0.0096923610069085
40
0.0259003416716196
40
0.0259003416716196
40
0.0421083223363309
40
0.0421083223363309
40
0.0502123126686864
40
0.0502123126686864
40
0.058316303001042
40
0.058316303001042
40
0.0745242836657522
40
0.0745242836657522
40
0.0826282739981065
40
0.0826282739981065
40
0.0907322643304611
40
0.0907322643304611
40
0.106940244995171
40
0.106940244995171
40
0.123148225659881
40
0.123148225659881
40
0.139356206324591
40
0.139356206324591
40
0.155564186989302
40
0.155564186989302
40
0.171772167654012
40
0.171772167654012
40
0.187980148318722
40
0.187980148318722
40
0.196084138651077
40
0.196084138651077
40
0.204188128983432
40
0.204188128983432
40
0.220396109648141
40
0.220396109648141
40
0.228500099980496
40
0.228500099980496
40
0.236604090312851
40
0.236604090312851
40
0.25281207097756
40
0.25281207097756
40
0.26902005164227
40
0.26902005164227
40
0.285228032306978
40
0.285228032306978
40
0.301436012971687
40
0.301436012971687
40
0.309540003304041
40
0.309540003304041
40
0.317643993636395
40
0.317643993636395
40
0.333851974301103
40
0.333851974301103
40
0.350059954965811
40
0.350059954965811
40
0.366267935630519
40
0.366267935630519
40
0.382475916295227
40
0.382475916295227
40
0.398683896959935
40
0.398683896959935
40
0.406787887292288
40
0.406787887292288
40
0.414891877624642
40
0.414891877624642
40
0.422995867956995
40
0.422995867956995
40
0.431099858289349
40
0.431099858289349
40
0.447307838954057
40
0.447307838954057
40
0.463515819618764
40
0.463515819618764
40
0.479723800283472
40
0.479723800283472
40
0.49593178094818
40
0.49593178094818
40
0.512139761612888
40
0.512139761612888
40
0.528347742277596
40
0.528347742277596
40
0.53645173260995
40
0.53645173260995
40
0.544555722942304
40
0.544555722942304
40
0.56076370360701
40
0.56076370360701
40
0.576971684271717
40
0.576971684271717
40
0.58507567460407
40
0.58507567460407
40
0.593179664936424
40
0.593179664936424
40
0.601283655268777
40
0.601283655268777
40
0.60938764560113
40
0.60938764560113
40
0.625595626265838
40
0.625595626265838
40
0.641803606930546
40
0.641803606930546
40
0.658011587595253
40
0.658011587595253
40
0.674219568259961
40
0.674219568259961
40
0.690427548924669
40
0.690427548924669
40
0.706635529589377
40
0.706635529589377
40
0.714739519921731
40
0.714739519921731
40
0.722843510254084
40
0.722843510254084
40
0.739051490918789
40
0.739051490918789
40
0.755259471583495
40
0.755259471583495
40
0.763363461915848
40
0.763363461915848
40
0.7714674522482
40
0.7714674522482
40
0.787675432912906
40
0.787675432912906
40
0.803883413577611
40
0.803883413577611
40
0.820091394242317
40
0.820091394242317
40
0.82819538457467
40
0.82819538457467
40
0.836299374907023
40
0.836299374907023
40
0.852507355571729
40
0.852507355571729
40
0.868715336236436
40
0.868715336236436
40
0.884923316901143
40
0.884923316901143
40
0.90113129756585
40
0.90113129756585
40
0.917339278230556
40
0.917339278230556
40
0.925443268562909
40
0.925443268562909
40
0.933547258895262
40
0.933547258895262
40
0.941651249227614
40
0.941651249227614
40
0.949755239559967
40
0.949755239559967
40
0.965963220224674
40
0.965963220224674
40
0.982171200889381
40
0.982171200889381
40
0.998379181554087
40
0.998379181554087
40
1
40
1
40
1
40
1
41
1
10
44.2563931754538
20
2.65244350220306
30
0
41
1
10
44.3491894934765
20
2.6906572920283
30
0
41
1
10
44.4420660438497
20
2.72822511477537
30
0
41
1
10
44.6903693848633
20
2.82702321139749
30
0
41
1
10
44.8458320568733
20
2.88723063801143
30
0
41
1
10
45.1573436956098
20
3.00377383460031
30
0
41
1
10
45.3134542089188
20
3.06003082590169
30
0
41
1
10
45.548411418387
20
3.1410668492199
30
0
41
1
10
45.6269154691257
20
3.16756276047522
30
0
41
1
10
45.7837058943164
20
3.21940013676175
30
0
41
1
10
45.8619885859516
20
3.24473950127683
30
0
41
1
10
46.0964711659923
20
3.31905418826972
30
0
41
1
10
46.2522627562917
20
3.3663620456303
30
0
41
1
10
46.4856268394606
20
3.43350045694717
30
0
41
1
10
46.5633598414694
20
3.45524588304863
30
0
41
1
10
46.7187763300432
20
3.49742723273559
30
0
41
1
10
46.7964632598541
20
3.51786105073754
30
0
41
1
10
47.029386095573
20
3.57727925795464
30
0
41
1
10
47.1844630462111
20
3.61440209062329
30
0
41
1
10
47.4940301374704
20
3.6837923073889
30
0
41
1
10
47.648560297205
20
3.71601450120087
30
0
41
1
10
47.9577292881003
20
3.77510374534373
30
0
41
1
10
48.1124177165745
20
3.80195449265418
30
0
41
1
10
48.4218127388094
20
3.8504364986878
30
0
41
1
10
48.5764607358632
20
3.87209489648737
30
0
41
1
10
48.8856573609282
20
3.91016765437854
30
0
41
1
10
49.0402823688088
20
3.92654001464581
30
0
41
1
10
49.3501429788225
20
3.95376262517075
30
0
41
1
10
49.5054068295911
20
3.96462214590724
30
0
41
1
10
49.7385379317175
20
3.97683984474639
30
0
41
1
10
49.8162899827043
20
3.98023131550229
30
0
41
1
10
49.9718596004028
20
3.98563841603067
30
0
41
1
10
50.0496753062483
20
3.98765321760692
30
0
41
1
10
50.2833442224692
20
3.99159661705662
30
0
41
1
10
50.4394374409027
20
3.99141904816716
30
0
41
1
10
50.6744025947157
20
3.98693270652544
30
0
41
1
10
50.7529115786449
20
3.98473281159329
30
0
41
1
10
50.9096411293219
20
3.97894015558225
30
0
41
1
10
50.9879012365284
20
3.97534708400795
30
0
41
1
10
51.2223351144875
20
3.96247783823617
30
0
41
1
10
51.3781024927992
20
3.95109090752757
30
0
41
1
10
51.6891124130705
20
3.92284607087689
30
0
41
1
10
51.8444092168191
20
3.90601034473568
30
0
41
1
10
52.1548568244312
20
3.86712950977332
30
0
41
1
10
52.3099227871153
20
3.84505736388004
30
0
41
1
10
52.6195019153175
20
3.79553288486269
30
0
41
1
10
52.7740032489215
20
3.76805802606088
30
0
41
1
10
53.0058037001607
20
3.72305771273207
30
0
41
1
10
53.083075574779
20
3.70742622592175
30
0
41
1
10
53.237687393114
20
3.67494987536628
30
0
41
1
10
53.3150250802198
20
3.65810441788401
30
0
41
1
10
53.5470558045806
20
3.60569853456337
30
0
41
1
10
53.7017449422284
20
3.56825489485888
30
0
41
1
10
54.0109884651153
20
3.48817303233753
30
0
41
1
10
54.1655979188627
20
3.44556886648988
30
0
41
1
10
54.4753979094877
20
3.35577243366976
30
0
41
1
10
54.6306371537229
20
3.30864364311523
30
0
41
1
10
54.9415444436277
20
3.20967505010293
30
0
41
1
10
55.0971608205158
20
3.15777314987881
30
0
41
1
10
55.4087939782158
20
3.04909406069052
30
0
41
1
10
55.5648890988953
20
2.99240198525916
30
0
41
1
10
55.7998498021971
20
2.90431534060696
30
0
41
1
10
55.8783341807842
20
2.87444003361046
30
0
41
1
10
56.0349905181775
20
2.81383198638119
30
0
41
1
10
56.1132255953223
20
2.78307117215769
30
0
41
1
10
56.2694756976295
20
2.72059201117443
30
0
41
1
10
56.3474919644009
20
2.6888753000444
30
0
41
1
10
56.5032923880689
20
2.62446602146522
30
0
41
1
10
56.5810815543797
20
2.59178013293987
30
0
41
1
10
56.8142455253382
20
2.49246701095635
30
0
41
1
10
56.9694380100898
20
2.42461403831695
30
0
41
1
10
57.2797459736721
20
2.28630111268845
30
0
41
1
10
57.4347928584264
20
2.21574382789504
30
0
41
1
10
57.7443782996622
20
2.0713834624579
30
0
41
1
10
57.8988777276004
20
1.99751142806562
30
0
41
1
10
58.2078606818214
20
1.84727992662519
30
0
41
1
10
58.362392071659
20
1.77100130372625
30
0
41
1
10
58.6717258149874
20
1.61646541273691
30
0
41
1
10
58.8264439591414
20
1.538070997489
30
0
41
1
10
59.1357647014929
20
1.37863270539881
30
0
41
1
10
59.2903728212248
20
1.29759067695215
30
0
41
1
10
59.5226934307048
20
1.17487958416751
30
0
41
1
10
59.6001988668586
20
1.13378046639158
30
0
41
1
10
59.7553924291147
20
1.05128757591743
30
0
41
1
10
59.8330744560508
20
1.00988327084716
30
0
41
1
10
60.066298564257
20
0.885055070528779
30
0
41
1
10
60.2219943702935
20
0.800972281134676
30
0
41
1
10
60.533735854476
20
0.630877693545017
30
0
41
1
10
60.6898486948854
20
0.544986308478144
30
0
41
1
10
60.9248178884155
20
0.41569929201998
30
0
41
1
10
61.0032400289008
20
0.372559472326031
30
0
41
1
10
61.1598072961653
20
0.286422695686298
30
0
41
1
10
61.2380111388905
20
0.243378688209759
30
0
41
1
10
61.3942126358374
20
0.157246978656758
30
0
41
1
10
61.4722124566237
20
0.114163524574195
30
0
41
1
10
61.6279912527829
20
0.027925140453533
30
0
41
1
10
61.7057639999592
20
-0.0152414284067959
30
0
41
1
10
61.9388493304975
20
-0.14466011620712
30
0
41
1
10
62.0939497943571
20
-0.230790625065907
30
0
41
1
10
62.404091394238
20
-0.40180204059962
30
0
41
1
10
62.5591091588937
20
-0.48673074272088
30
0
41
1
10
62.8686891535008
20
-0.656090569866279
30
0
41
1
10
63.0232092765584
20
-0.740595207091161
30
0
41
1
10
63.332126586842
20
-0.908484716268276
30
0
41
1
10
63.4865846247215
20
-0.991760020475454
30
0
41
1
10
63.7958583425218
20
-1.15634569210215
30
0
41
1
10
63.9505970472665
20
-1.23779584900615
30
0
41
1
10
64.2600036532929
20
-1.39948518156615
30
0
41
1
10
64.4146384628145
20
-1.47977792749069
30
0
41
1
10
64.6469485358752
20
-1.59857772226209
30
0
41
1
10
64.7244448449162
20
-1.63790494249812
30
0
41
1
10
64.8796158720662
20
-1.71591361042007
30
0
41
1
10
64.9572965310343
20
-1.75458519586255
30
0
41
1
10
65.190555931516
20
-1.86971814109921
30
0
41
1
10
65.3463279193704
20
-1.94533963777622
30
0
41
1
10
65.6582178909605
20
-2.09459629378318
30
0
41
1
10
65.8143664565403
20
-2.16817643823561
30
0
41
1
10
66.0493683804616
20
-2.27617975517012
30
0
41
1
10
66.1276856147209
20
-2.31172054709836
30
0
41
1
10
66.2841447508779
20
-2.38175951748247
30
0
41
1
10
66.3623071871777
20
-2.41628414961971
30
0
41
1
10
66.5965177617882
20
-2.5185064584382
30
0
41
1
10
66.7522627267075
20
-2.58489280749993
30
0
41
1
10
67.0629542361399
20
-2.71414518477471
30
0
41
1
10
67.2179759996182
20
-2.77689529836593
30
0
41
1
10
67.5279353309726
20
-2.89793774421665
30
0
41
1
10
67.6829029935196
20
-2.95620555808659
30
0
41
1
10
67.9150729058033
20
-3.04060066212594
30
0
41
1
10
67.9924181256019
20
-3.06822688332099
30
0
41
1
10
68.1469997597152
20
-3.12248561788331
30
0
41
1
10
68.2242336216385
20
-3.14912027871577
30
0
41
1
10
68.4558910659891
20
-3.22738732762383
30
0
41
1
10
68.6102878925647
20
-3.27736003126864
30
0
41
1
10
68.9194808405304
20
-3.37242314519295
30
0
41
1
10
69.0742343060104
20
-3.41757029115732
30
0
41
1
10
69.3837222716552
20
-3.50340738453772
30
0
41
1
10
69.5384135972064
20
-3.54412427573439
30
0
41
1
10
69.8481728976866
20
-3.62065763212436
30
0
41
1
10
70.0032980544395
20
-3.6564293466534
30
0
41
1
10
70.314347785551
20
-3.72276242584181
30
0
41
1
10
70.470188787015
20
-3.75339430704182
30
0
41
1
10
70.7042422810942
20
-3.79560271441741
30
0
41
1
10
70.7823052500749
20
-3.80904894391375
30
0
41
1
10
70.9385950475414
20
-3.83463423887591
30
0
41
1
10
71.0168603766793
20
-3.84677643092345
30
0
41
1
10
71.1734829081156
20
-3.86967744371668
30
0
41
1
10
71.251735408855
20
-3.88042309614662
30
0
41
1
10
71.4081843861249
20
-3.90049470995945
30
0
41
1
10
71.4863806432648
20
-3.90982193598006
30
0
41
1
10
71.7208066791318
20
-3.93573047339064
30
0
41
1
10
71.876851795927
20
-3.95024981478028
30
0
41
1
10
72.1883136160434
20
-3.97380539839088
30
0
41
1
10
72.3437848985899
20
-3.98281264429969
30
0
41
1
10
72.6548315526614
20
-3.99519814777207
30
0
41
1
10
72.8104576488547
20
-3.99858722823183
30
0
41
1
10
72.9816182115596
20
-3.99927418843157
30
0
41
1
10
72.9971776489472
20
-3.99930893616019
30
0
41
1
10
73.0127363290579
20
-3.99931594114096
30
0
0
SPLINE
5
C6
100
AcDbEntity
8
1
62
256
6
ByLayer
370
18
48
1
60
0
100
AcDbSpline
70
4
71
3
72
172
73
168
40
0
40
0
40
0
40
0
40
0.0312500000000001
40
0.0312500000000001
40
0.0625000000000001
40
0.0625000000000001
40
0.0937500000000002
40
0.0937500000000002
40
0.125
40
0.125
40
0.15625
40
0.15625
40
0.1875
40
0.1875
40
0.21875
40
0.21875
40
0.250000000000001
40
0.250000000000001
40
0.265625
40
0.265625
40
0.2734375
40
0.2734375
40
0.28125
40
0.28125
40
0.2890625
40
0.2890625
40
0.296874999999999
40
0.304687499999999
40
0.304687499999999
40
0.312499999999999
40
0.312499999999999
40
0.316406249999999
40
0.316406249999999
40
0.320312499999999
40
0.320312499999999
40
0.324218749999999
40
0.324218749999999
40
0.328124999999998
40
0.328124999999998
40
0.335937499999998
40
0.335937499999998
40
0.343749999999998
40
0.343749999999998
40
0.351562499999998
40
0.351562499999998
40
0.359374999999998
40
0.359374999999998
40
0.367187499999998
40
0.367187499999998
40
0.374999999999998
40
0.390624999999997
40
0.390624999999997
40
0.406249999999997
40
0.406249999999997
40
0.421874999999997
40
0.421874999999997
40
0.437499999999996
40
0.437499999999996
40
0.453124999999996
40
0.453124999999996
40
0.468749999999996
40
0.468749999999996
40
0.476562499999996
40
0.476562499999996
40
0.484374999999995
40
0.484374999999995
40
0.499999999999996
40
0.499999999999996
40
0.531249999999998
40
0.531249999999998
40
0.546874999999999
40
0.546874999999999
40
0.5625
40
0.5625
40
0.578125000000001
40
0.578125000000001
40
0.582031250000001
40
0.582031250000001
40
0.585937500000001
40
0.585937500000001
40
0.593750000000002
40
0.593750000000002
40
0.601562500000003
40
0.601562500000003
40
0.605468750000004
40
0.605468750000004
40
0.609375000000004
40
0.609375000000004
40
0.617187500000005
40
0.617187500000005
40
0.621093750000006
40
0.621093750000006
40
0.625000000000006
40
0.625000000000006
40
0.628906250000007
40
0.628906250000007
40
0.630859375000007
40
0.630859375000007
40
0.632812500000007
40
0.632812500000007
40
0.640625000000007
40
0.640625000000007
40
0.642578125000006
40
0.642578125000006
40
0.644531250000006
40
0.644531250000006
40
0.648437500000006
40
0.648437500000006
40
0.650390625000006
40
0.650390625000006
40
0.652343750000006
40
0.652343750000006
40
0.656250000000006
40
0.660156250000006
40
0.660156250000006
40
0.662109375000007
40
0.662109375000007
40
0.664062500000007
40
0.664062500000007
40
0.671875000000007
40
0.671875000000007
40
0.675781250000008
40
0.675781250000008
40
0.679687500000008
40
0.679687500000008
40
0.683593750000008
40
0.683593750000008
40
0.687500000000008
40
0.687500000000008
40
0.695312500000007
40
0.695312500000007
40
0.703125000000006
40
0.703125000000006
40
0.710937500000006
40
0.710937500000006
40
0.718750000000005
40
0.718750000000005
40
0.726562500000004
40
0.726562500000004
40
0.734375000000004
40
0.734375000000004
40
0.750000000000003
40
0.750000000000003
40
0.765625000000002
40
0.765625000000002
40
0.781250000000002
40
0.781250000000002
40
0.796875000000001
40
0.796875000000001
40
0.8125
40
0.8125
40
0.8203125
40
0.8203125
40
0.828125000000001
40
0.843750000000001
40
0.843750000000001
40
0.875000000000001
40
0.875000000000001
40
0.906250000000001
40
0.906250000000001
40
0.937500000000001
40
0.937500000000001
40
0.953125000000001
40
0.953125000000001
40
0.968750000000001
40
0.968750000000001
40
1
40
1
40
1
40
1
41
1
10
15.1687097203191
20
0.640326828896093
30
0
41
1
10
14.9638095271875
20
0.754675413869933
30
0
41
1
10
14.7590307858879
20
0.867361513935919
30
0
41
1
10
14.3494135060892
20
1.0889975205333
30
0
41
1
10
14.1445730872145
20
1.19794250594705
30
0
41
1
10
13.734398794532
20
1.41144360187829
30
0
41
1
10
13.5290736028741
20
1.51601251240439
30
0
41
1
10
13.1172815882703
20
1.7197744305719
30
0
41
1
10
12.9108074068647
20
1.81895210530752
30
0
41
1
10
12.4957611022344
20
2.01053310166878
30
0
41
1
10
12.2871827248418
20
2.10292614521839
30
0
41
1
10
11.8670104043009
20
2.27975839043251
30
0
41
1
10
11.6563149916773
20
2.36383105456312
30
0
41
1
10
11.2329476289128
20
2.52243385449785
30
0
41
1
10
11.020252116614
20
2.59695860739925
30
0
41
1
10
10.5917575996597
20
2.73556842929878
30
0
41
1
10
10.375964296812
20
2.79968210002699
30
0
41
1
10
10.0497973792458
20
2.88867567298433
30
0
41
1
10
9.94064764654084
20
2.91711623118832
30
0
41
1
10
9.77604997095293
20
2.9576809098831
30
0
41
1
10
9.72103757615591
20
2.97085213829155
30
0
41
1
10
9.61072763846644
20
2.9965292223045
30
0
41
1
10
9.55542847156133
20
3.00903284935541
30
0
41
1
10
9.44464148488996
20
3.03354716987945
30
0
41
1
10
9.38915401410674
20
3.04555886458411
30
0
41
1
10
9.27820382521435
20
3.06943073220774
30
0
41
1
10
9.16727963619735
20
3.0931538686406
30
0
41
1
10
9.05702703785187
20
3.11750809502999
30
0
41
1
10
8.94750141939838
20
3.14272996944789
30
0
41
1
10
8.89309900245388
20
3.1557707684492
30
0
41
1
10
8.81241967578762
20
3.17648390416554
30
0
41
1
10
8.78568556093697
20
3.18358700730729
30
0
41
1
10
8.73258541658308
20
3.19824749259732
30
0
41
1
10
8.70622657968201
20
3.20581483299915
30
0
41
1
10
8.6537498959548
20
3.22120197051461
30
0
41
1
10
8.62761933005385
20
3.22900280455519
30
0
41
1
10
8.5752435422238
20
3.24434244725862
30
0
41
1
10
8.54899406937182
20
3.25187577788472
30
0
41
1
10
8.46984947665229
20
3.27378171338631
30
0
41
1
10
8.41654831359838
20
3.28744977369922
30
0
41
1
10
8.30913163111575
20
3.31336952364549
30
0
41
1
10
8.2550456255012
20
3.32566071124705
30
0
41
1
10
8.14621719169833
20
3.34910271385081
30
0
41
1
10
8.09146402403431
20
3.36023826867182
30
0
41
1
10
7.98120953782677
20
3.38130427909434
30
0
41
1
10
7.92570503939169
20
3.39123096566976
30
0
41
1
10
7.81395451561804
20
3.40994600973116
30
0
41
1
10
7.75764288423633
20
3.41874791799182
30
0
41
1
10
7.64468241965511
20
3.43529937983601
30
0
41
1
10
7.47493342533014
20
3.45852976718285
30
0
41
1
10
7.30432863780484
20
3.47750940300108
30
0
41
1
10
7.07614300837952
20
3.49956503678956
30
0
41
1
10
6.96169231168219
20
3.50896105953174
30
0
41
1
10
6.73215574181168
20
3.52504429011236
30
0
41
1
10
6.61707314251552
20
3.5317433366304
30
0
41
1
10
6.38633709969236
20
3.5428328576638
30
0
41
1
10
6.27068136512426
20
3.54721372593096
30
0
41
1
10
6.03882123233055
20
3.55384451670179
30
0
41
1
10
5.92261761469908
20
3.55609718950882
30
0
41
1
10
5.68969282514291
20
3.55863643634058
30
0
41
1
10
5.57297195988249
20
3.55892395811313
30
0
41
1
10
5.39750705648768
20
3.55790250559534
30
0
41
1
10
5.338910496643
20
3.55731825433267
30
0
41
1
10
5.22180035166403
20
3.55566002787879
30
0
41
1
10
5.16334212506436
20
3.55458727564505
30
0
41
1
10
4.98825798316403
20
3.55063051971297
30
0
41
1
10
4.87192179280814
20
3.54701134796841
30
0
41
1
10
4.52410464789475
20
3.53302571195667
30
0
41
1
10
4.29380484829417
20
3.51958510032085
30
0
41
1
10
3.95100921803214
20
3.49168354722082
30
0
41
1
10
3.83719037467989
20
3.48107730295084
30
0
41
1
10
3.61059046114482
20
3.45662612126762
30
0
41
1
10
3.49780771955156
20
3.44278811876492
30
0
41
1
10
3.27349045965519
20
3.41093759644607
30
0
41
1
10
3.1619474714698
20
3.39295695965509
30
0
41
1
10
3.02357796526286
20
3.36671348941991
30
0
41
1
10
2.99595795731304
20
3.36127272843535
30
0
41
1
10
2.94083712940531
20
3.34996012147741
30
0
41
1
10
2.91330714713598
20
3.34408151200731
30
0
41
1
10
2.83124189423185
20
3.32578973234837
30
0
41
1
10
2.77717436975482
20
3.31271637531654
30
0
41
1
10
2.67059429138254
20
3.28437248209542
30
0
41
1
10
2.61807682376508
20
3.26910897759876
30
0
41
1
10
2.54077740029919
20
3.24406368137974
30
0
41
1
10
2.51522930829762
20
3.2353423040139
30
0
41
1
10
2.46500951684234
20
3.21716406454655
30
0
41
1
10
2.44030857979178
20
3.20769874722848
30
0
41
1
10
2.3676026424119
20
3.17799859920822
30
0
41
1
10
2.32097102750569
20
3.15648392496399
30
0
41
1
10
2.25473772551126
20
3.1206386396824
30
0
41
1
10
2.23328356068282
20
3.1080899162605
30
0
41
1
10
2.1918969344178
20
3.08151034265748
30
0
41
1
10
2.17190635780614
20
3.06742257875567
30
0
41
1
10
2.13454292660114
20
3.037955285257
30
0
41
1
10
2.11708869793952
20
3.0225314460987
30
0
41
1
10
2.09306222027314
20
2.99816477924824
30
0
41
1
10
2.08541311591458
20
2.98983698947998
30
0
41
1
10
2.07089861607392
20
2.97272999788331
30
0
41
1
10
2.06401921221007
20
2.96393117848584
30
0
41
1
10
2.03192690797079
20
2.91890469897234
30
0
41
1
10
2.01432592148547
20
2.88062055573099
30
0
41
1
10
2.00371964694179
20
2.82942311557056
30
0
41
1
10
2.00216516982945
20
2.81899336039041
30
0
41
1
10
2.00023177265999
20
2.79788501667744
30
0
41
1
10
1.99985937437597
20
2.78731194858918
30
0
41
1
10
2.00042511623471
20
2.75553327603475
30
0
41
1
10
2.0030415423374
20
2.73426798394979
30
0
41
1
10
2.01002746958159
20
2.70224447340581
30
0
41
1
10
2.01286764031548
20
2.69154910450197
30
0
41
1
10
2.01953076427117
20
2.67011594558653
30
0
41
1
10
2.02335559434201
20
2.65938548536764
30
0
41
1
10
2.0360396699335
20
2.62757066887607
30
0
41
1
10
2.05625659101261
20
2.58584098374328
30
0
41
1
10
2.08182766048839
20
2.54518329583246
30
0
41
1
10
2.10266754327782
20
2.51500629843611
30
0
41
1
10
2.10989252927882
20
2.50500041619381
30
0
41
1
10
2.12485801293045
20
2.48508524144921
30
0
41
1
10
2.13261403627712
20
2.47515743993446
30
0
41
1
10
2.17236395551123
20
2.42603560325168
30
0
41
1
10
2.20726481523442
20
2.38832816908476
30
0
41
1
10
2.26287493185569
20
2.33340444695111
30
0
41
1
10
2.2819655915782
20
2.31537572865329
30
0
41
1
10
2.32097431951272
20
2.27970514136584
30
0
41
1
10
2.34089522351135
20
2.26206561998006
30
0
41
1
10
2.3809565092989
20
2.22676083824223
30
0
41
1
10
2.40107259835489
20
2.20907828317172
30
0
41
1
10
2.44102145821537
20
2.17333087911277
30
0
41
1
10
2.46085986511568
20
2.15526961288918
30
0
41
1
10
2.51981588938949
20
2.10040495861082
30
0
41
1
10
2.55837225030928
20
2.06291643012705
30
0
41
1
10
2.63497494423581
20
1.98678517250147
30
0
41
1
10
2.67305428355533
20
1.94816811876601
30
0
41
1
10
2.74913800034747
20
1.8700899614638
30
0
41
1
10
2.78711849640368
20
1.83061187222978
30
0
41
1
10
2.86297901763893
20
1.75078400625995
30
0
41
1
10
2.90085049310196
20
1.71042714133287
30
0
41
1
10
2.97672166463423
20
1.62900888761692
30
0
41
1
10
3.01464706733878
20
1.58804336435381
30
0
41
1
10
3.09072827313042
20
1.50603426660035
30
0
41
1
10
3.12890554773125
20
1.46497978289912
30
0
41
1
10
3.24421750482023
20
1.3420342896801
30
0
41
1
10
3.32217519065463
20
1.26040339067811
30
0
41
1
10
3.48030550218215
20
1.09797955892637
30
0
41
1
10
3.56041123056653
20
1.0171230516998
30
0
41
1
10
3.72258704240184
20
0.856106238220463
30
0
41
1
10
3.80467610660858
20
0.775962942310485
30
0
41
1
10
3.9712634956812
20
0.6168924898451
30
0
41
1
10
4.0557747414752
20
0.537978157863449
30
0
41
1
10
4.22755728866562
20
0.381804642423788
30
0
41
1
10
4.31482460751241
20
0.304541875607413
30
0
41
1
10
4.44788554072761
20
0.190047003740148
30
0
41
1
10
4.49265629712195
20
0.152066050215183
30
0
41
1
10
4.58256878150155
20
0.076880324031805
30
0
41
1
10
4.71800034262947
20
-0.0347461812357608
30
0
41
1
10
4.85513160307636
20
-0.142955513688264
30
0
41
1
10
5.13164061219285
20
-0.354977319412598
30
0
41
1
10
5.31898471823362
20
-0.490454361095516
30
0
41
1
10
5.69926466352615
20
-0.750833190668516
30
0
41
1
10
5.89218852960457
20
-0.875751300225431
30
0
41
1
10
6.28303320829352
20
-1.11627370281329
30
0
41
1
10
6.48095288449778
20
-1.23187837100349
30
0
41
1
10
6.78118257699671
20
-1.39908410724644
30
0
41
1
10
6.88181788405711
20
-1.45378442993223
30
0
41
1
10
7.08414475192566
20
-1.56123007963927
30
0
41
1
10
7.18583257611198
20
-1.61397125764873
30
0
41
1
10
7.49155731101777
20
-1.76900929679485
30
0
41
1
10
7.696542367593
20
-1.86827782377151
30
0
41
1
10
7.90251739071724
20
-1.96395803322525
30
0
0
SPLINE
5
C7
100
AcDbEntity
8
1
62
256
6
ByLayer
370
18
48
1
60
0
100
AcDbSpline
70
4
71
3
72
61
73
57
40
0
40
0
40
0
40
0
40
0.0083520136171432
40
0.0412199758616463
40
0.0740879381061492
40
0.106955900350652
40
0.139823862595155
40
0.172691824839658
40
0.18912580596191
40
0.205559787084161
40
0.221993768206413
40
0.238427749328664
40
0.254861730450915
40
0.263078721012041
40
0.271295711573167
40
0.279512702134293
40
0.283621197414856
40
0.287729692695419
40
0.295946683256544
40
0.30416367381767
40
0.320597654939921
40
0.337031636062173
40
0.353465617184424
40
0.369899598306676
40
0.402767560551179
40
0.435635522795682
40
0.468503485040185
40
0.501371447284688
40
0.534239409529191
40
0.567107371773694
40
0.599975334018197
40
0.6328432962627
40
0.665711258507203
40
0.682145239629454
40
0.698579220751706
40
0.715013201873957
40
0.731447182996209
40
0.74788116411846
40
0.764315145240712
40
0.780749126362963
40
0.797183107485215
40
0.813617088607466
40
0.821834079168592
40
0.830051069729718
40
0.838268060290843
40
0.846485050851969
40
0.854702041413095
40
0.862919031974221
40
0.871136022535346
40
0.879353013096472
40
0.895786994218724
40
0.912220975340975
40
0.928654956463227
40
0.96152291870773
40
0.994390880952232
40
1
40
1
40
1
40
1
41
1
10
15.1687185924404
20
0.64033025447111
30
0
41
1
10
15.1563840120856
20
0.64159753570658
30
0
41
1
10
15.0953255659102
20
0.647757813302491
30
0
41
1
10
14.9811938926266
20
0.656668032899773
30
0
41
1
10
14.8136684052495
20
0.660534598088475
30
0
41
1
10
14.6254720454022
20
0.653979431223604
30
0
41
1
10
14.4165362478509
20
0.636835200043805
30
0
41
1
10
14.2225566375472
20
0.612671769284844
30
0
41
1
10
14.0574267550768
20
0.587693722174407
30
0
41
1
10
13.9300383451281
20
0.566595158022352
30
0
41
1
10
13.7980063794952
20
0.542476152193302
30
0
41
1
10
13.6614879616052
20
0.515602505442246
30
0
41
1
10
13.5489379004988
20
0.493942665595114
30
0
41
1
10
13.4641976286509
20
0.479995576301803
30
0
41
1
10
13.4051757771583
20
0.472289610672448
30
0
41
1
10
13.3610421248531
20
0.468722942100186
30
0
41
1
10
13.3245369413462
20
0.465239478310593
30
0
41
1
10
13.2868016177533
20
0.461074547185689
30
0
41
1
10
13.2371445515412
20
0.454408304263012
30
0
41
1
10
13.1543259390904
20
0.441564409197213
30
0
41
1
10
13.0459458862752
20
0.422191924330178
30
0
41
1
10
12.905999521799
20
0.392822212191334
30
0
41
1
10
12.7599957502809
20
0.358817451889735
30
0
41
1
10
12.5603133044382
20
0.308531447756707
30
0
41
1
10
12.3017532621959
20
0.237118877620702
30
0
41
1
10
11.9788640183285
20
0.140112327681777
30
0
41
1
10
11.6535307585137
20
0.0357069455553471
30
0
41
1
10
11.3273328082807
20
-0.074695194303473
30
0
41
1
10
10.999424776195
20
-0.191216993334678
30
0
41
1
10
10.6692273276908
20
-0.314218250999574
30
0
41
1
10
10.3426347641003
20
-0.441760382925708
30
0
41
1
10
10.0236366048953
20
-0.572704680044211
30
0
41
1
10
9.76345230438179
20
-0.685835006361287
30
0
41
1
10
9.56171881931584
20
-0.778474307426791
30
0
41
1
10
9.4169538831809
20
-0.847782038808617
30
0
41
1
10
9.27828353933745
20
-0.917408880376541
30
0
41
1
10
9.14670338467815
20
-0.987367619981086
30
0
41
1
10
9.02669997052024
20
-1.05590782777239
30
0
41
1
10
8.92073034267676
20
-1.12207299240012
30
0
41
1
10
8.82902600629075
20
-1.18638972403954
30
0
41
1
10
8.75735609687135
20
-1.24550732786193
30
0
41
1
10
8.71378935792845
20
-1.29035493548051
30
0
41
1
10
8.68865921316313
20
-1.32370438401577
30
0
41
1
10
8.6752917220681
20
-1.34711387574165
30
0
41
1
10
8.66210717234529
20
-1.37045926448792
30
0
41
1
10
8.64328470997748
20
-1.39553783325402
30
0
41
1
10
8.62042917148108
20
-1.4218164174836
30
0
41
1
10
8.59447957798898
20
-1.44895820072225
30
0
41
1
10
8.56608191198953
20
-1.47670983452411
30
0
41
1
10
8.52474752561963
20
-1.51457205617254
30
0
41
1
10
8.46688774108478
20
-1.5633983721811
30
0
41
1
10
8.39177309530675
20
-1.62339799198119
30
0
41
1
10
8.28561142695301
20
-1.70492341344462
30
0
41
1
10
8.13668223856953
20
-1.81076170351992
30
0
41
1
10
7.99413050802823
20
-1.90503596795429
30
0
41
1
10
7.91421928637089
20
-1.95645309068109
30
0
41
1
10
7.90251359689293
20
-1.96395929058607
30
0
0
SPLINE
5
C8
100
AcDbEntity
8
1
62
256
6
ByLayer
370
18
48
1
60
0
100
AcDbSpline
70
4
71
3
72
18
73
14
40
0
40
0
40
0
40
0
40
0.0667928627199683
40
0.155683462229254
40
0.234331445519409
40
0.300874345534438
40
0.357268025152369
40
0.405990120740285
40
0.470504384162903
40
0.569128682683527
40
0.702612383280067
40
0.871835168751678
40
1
40
1
40
1
40
1
41
1
10
26.8899965955703
20
-0.0377950178157107
30
0
41
1
10
26.8959327625399
20
-0.0218272318241191
30
0
41
1
10
26.8989074823168
20
0.0294733844577308
30
0
41
1
10
26.8447264461333
20
0.118728273579706
30
0
41
1
10
26.7292663005411
20
0.192308210332328
30
0
41
1
10
26.5929590256843
20
0.258968629480364
30
0
41
1
10
26.4500402641329
20
0.324260123422732
30
0
41
1
10
26.2783812162131
20
0.402251754347588
30
0
41
1
10
26.0553847004113
20
0.505027583017352
30
0
41
1
10
25.7461573191994
20
0.650014810682876
30
0
41
1
10
25.3252941672067
20
0.85247189019185
30
0
41
1
10
24.8733177323062
20
1.07705820450693
30
0
41
1
10
24.5612542621936
20
1.23787540782837
30
0
41
1
10
24.4267455122215
20
1.3082001995343
30
0
0
SPLINE
5
C9
100
AcDbEntity
8
1
62
256
6
ByLayer
370
18
48
1
60
0
100
AcDbSpline
70
4
71
3
72
18
73
14
40
0
40
0
40
0
40
0
40
0.0546161641968676
40
0.14655159376337
40
0.229418682115071
40
0.297511594324998
40
0.352858077757104
40
0.398912826113904
40
0.464121095479945
40
0.561797023876474
40
0.69268241944587
40
0.857613692801159
40
1
40
1
40
1
40
1
41
1
10
72.2967734237302
20
-0.0654489029847127
30
0
41
1
10
72.2993103392901
20
-0.0534704273944158
30
0
41
1
10
72.2882616722546
20
-0.008896641086892
30
0
41
1
10
72.2521428132873
20
0.0874083956287848
30
0
41
1
10
72.1286365846608
20
0.166463087790134
30
0
41
1
10
71.9866199887956
20
0.236203857117232
30
0
41
1
10
71.8410009359715
20
0.301946278962305
30
0
41
1
10
71.6625917661588
20
0.382556710154859
30
0
41
1
10
71.434259949068
20
0.487351446170038
30
0
41
1
10
71.1143114651843
20
0.636883471711087
30
0
41
1
10
70.6840205307469
20
0.843638470740672
30
0
41
1
10
70.2043999245096
20
1.08216187086617
30
0
41
1
10
69.8679397774058
20
1.25536963222169
30
0
41
1
10
69.7120138260688
20
1.33690038830409
30
0
0
SPLINE
5
CA
100
AcDbEntity
8
1
62
256
6
ByLayer
370
18
48
1
60
0
100
AcDbSpline
70
4
71
3
72
19
73
15
40
0
40
0
40
0
40
0
40
0.0005023604295837
40
0.0215701610230925
40
0.0443052115397447
40
0.102543694199507
40
0.173072879164309
40
0.283226170531018
40
0.327919821440819
40
0.401595684868789
40
0.509895763364766
40
0.65412556085005
40
0.835425519715093
40
1
40
1
40
1
40
1
41
1
10
50.706362992209
20
-0.340574479922168
30
0
41
1
10
50.7063878463811
20
-0.340488633610249
30
0
41
1
10
50.7073134989556
20
-0.336772877646354
30
0
41
1
10
50.6965798310686
20
-0.32652064349756
30
0
41
1
10
50.6189714721504
20
-0.292372105747063
30
0
41
1
10
50.4386204591557
20
-0.224151735169528
30
0
41
1
10
50.1401038378839
20
-0.107406116233136
30
0
41
1
10
49.8583003831302
20
0.0064980392348559
30
0
41
1
10
49.5699351340329
20
0.127399861686939
30
0
41
1
10
49.2843179302693
20
0.250417031579701
30
0
41
1
10
48.8729632033993
20
0.435176349981276
30
0
41
1
10
48.3243906752017
20
0.692869201717173
30
0
41
1
10
47.7022986073155
20
0.996533799121153
30
0
41
1
10
47.263210433992
20
1.22151209691586
30
0
41
1
10
47.0541349300246
20
1.3308800590911
30
0
0
LINE
5
7D
100
AcDbEntity
8
80
62
256
6
ByLayer
370
18
48
1
60
0
100
AcDbLine
10
0
20
0
30
0
11
-5
21
0
31
0
39
0
210
0
220
0
230
1
0
LINE
5
7E
100
AcDbEntity
8
4
62
256
6
ByLayer
370
18
48
0.05
60
0
100
AcDbLine
10
-5
20
0
30
0
11
82
21
0
31
0
39
0
210
0
220
0
230
1
0
LINE
5
80
100
AcDbEntity
8
SK4
62
256
6
ByLayer
370
18
48
0.05
60
0
100
AcDbLine
10
-45
20
0
30
0
11
82
21
0
31
0
39
0
210
0
220
0
230
1
0
LINE
5
82
100
AcDbEntity
8
81
62
256
6
ByLayer
370
18
48
1
60
0
100
AcDbLine
10
77
20
0
30
0
11
82
21
0
31
0
39
0
210
0
220
0
230
1
0
LINE
5
83
100
AcDbEntity
8
1
62
256
6
ByLayer
370
18
48
1
60
0
100
AcDbLine
10
0
20
4
30
0
11
0
21
-4
31
0
39
0
210
0
220
0
230
1
0
LINE
5
84
100
AcDbEntity
8
1
62
256
6
ByLayer
370
18
48
1
60
0
100
AcDbLine
10
74.836902
20
-4
30
0
11
74.836902
21
-1.44558
31
0
39
0
210
0
220
0
230
1
0
LINE
5
85
100
AcDbEntity
8
1
62
256
6
ByLayer
370
18
48
1
60
0
100
AcDbLine
10
74.836902
20
4
30
0
11
74.836902
21
3.872978
31
0
39
0
210
0
220
0
230
1
0
LINE
5
86
100
AcDbEntity
8
1
62
256
6
ByLayer
370
18
48
1
60
0
100
AcDbLine
10
0.4
20
-3.972086
30
0
11
0.4
21
3.972086
31
0
39
0
210
0
220
0
230
1
0
LINE
5
87
100
AcDbEntity
8
SK1
62
256
6
ByLayer
370
18
48
1
60
0
100
AcDbLine
10
0
20
4
30
0
11
0
21
-4
31
0
39
0
210
0
220
0
230
1
0
LINE
5
89
100
AcDbEntity
8
SK1
62
256
6
ByLayer
370
18
48
1
60
0
100
AcDbLine
10
-40
20
-3.25
30
0
11
-40
21
3.25
31
0
39
0
210
0
220
0
230
1
0
LINE
5
8A
100
AcDbEntity
8
SK1
62
256
6
ByLayer
370
18
48
1
60
0
100
AcDbLine
10
-39.25
20
-4
30
0
11
-39.25
21
4
31
0
39
0
210
0
220
0
230
1
0
LINE
5
8B
100
AcDbEntity
8
1
62
256
6
ByLayer
370
18
48
1
60
0
100
AcDbLine
10
77
20
0
30
0
11
74.836902
21
4
31
0
39
0
210
0
220
0
230
1
0
LINE
5
8C
100
AcDbEntity
8
1
62
256
6
ByLayer
370
18
48
1
60
0
100
AcDbLine
10
74.836902
20
-4
30
0
11
77
21
0
31
0
39
0
210
0
220
0
230
1
0
LINE
5
8D
100
AcDbEntity
8
1
62
256
6
ByLayer
370
18
48
1
60
0
100
AcDbLine
10
0.4
20
3.972086
30
0
11
0
21
4
31
0
39
0
210
0
220
0
230
1
0
LINE
5
8E
100
AcDbEntity
8
1
62
256
6
ByLayer
370
18
48
1
60
0
100
AcDbLine
10
0
20
-4
30
0
11
0.4
21
-3.972086
31
0
39
0
210
0
220
0
230
1
0
LINE
5
8F
100
AcDbEntity
8
1
62
256
6
ByLayer
370
18
48
1
60
0
100
AcDbLine
10
0.4
20
-3.972086
30
0
11
15.506307
21
-3.977751
31
0
39
0
210
0
220
0
230
1
0
LINE
5
90
100
AcDbEntity
8
1
62
256
6
ByLayer
370
18
48
1
60
0
100
AcDbLine
10
27.671806
20
-3.982313
30
0
11
38.170983
21
-3.98625
31
0
39
0
210
0
220
0
230
1
0
LINE
5
91
100
AcDbEntity
8
1
62
256
6
ByLayer
370
18
48
1
60
0
100
AcDbLine
10
50.342129
20
-3.990814
30
0
11
60.836627
21
-3.99475
31
0
39
0
210
0
220
0
230
1
0
LINE
5
92
100
AcDbEntity
8
1
62
256
6
ByLayer
370
18
48
1
60
0
100
AcDbLine
10
73.013355
20
-3.999316
30
0
11
74.836902
21
-4
31
0
39
0
210
0
220
0
230
1
0
LINE
5
93
100
AcDbEntity
8
1
62
256
6
ByLayer
370
18
48
1
60
0
100
AcDbLine
10
74.836902
20
4
30
0
11
73.013355
21
3.999316
31
0
39
0
210
0
220
0
230
1
0
LINE
5
94
100
AcDbEntity
8
1
62
256
6
ByLayer
370
18
48
1
60
0
100
AcDbLine
10
60.836627
20
3.99475
30
0
11
50.342129
21
3.990814
31
0
39
0
210
0
220
0
230
1
0
LINE
5
95
100
AcDbEntity
8
1
62
256
6
ByLayer
370
18
48
1
60
0
100
AcDbLine
10
38.170983
20
3.98625
30
0
11
27.671806
21
3.982313
31
0
39
0
210
0
220
0
230
1
0
LINE
5
96
100
AcDbEntity
8
1
62
256
6
ByLayer
370
18
48
1
60
0
100
AcDbLine
10
15.506307
20
3.977751
30
0
11
0.4
21
3.972086
31
0
39
0
210
0
220
0
230
1
0
LINE
5
97
100
AcDbEntity
8
SK1
62
256
6
ByLayer
370
18
48
1
60
0
100
AcDbLine
10
-39.25
20
-4
30
0
11
0
21
-4
31
0
39
0
210
0
220
0
230
1
0
LINE
5
98
100
AcDbEntity
8
SK1
62
256
6
ByLayer
370
18
48
1
60
0
100
AcDbLine
10
0
20
4
30
0
11
-39.25
21
4
31
0
39
0
210
0
220
0
230
1
0
LINE
5
99
100
AcDbEntity
8
SK1
62
256
6
ByLayer
370
18
48
1
60
0
100
AcDbLine
10
-40
20
-3.25
30
0
11
-39.25
21
-4
31
0
39
0
210
0
220
0
230
1
0
LINE
5
9A
100
AcDbEntity
8
SK1
62
256
6
ByLayer
370
18
48
1
60
0
100
AcDbLine
10
-39.25
20
4
30
0
11
-40
21
3.25
31
0
39
0
210
0
220
0
230
1
0
LINE
5
9B
100
AcDbEntity
8
SK2
62
256
6
ByLayer
370
13
48
1
60
0
100
AcDbLine
10
-46.5
20
-4
30
0
11
-46.5
21
30.782741
31
0
39
0
210
0
220
0
230
1
0
LINE
5
9D
100
AcDbEntity
8
SK2
62
256
6
ByLayer
370
13
48
1
60
0
100
AcDbLine
10
-41.5875
20
4
30
0
11
-48.5
21
4
31
0
39
0
210
0
220
0
230
1
0
LINE
5
9E
100
AcDbEntity
8
SK2
62
256
6
ByLayer
370
13
48
1
60
0
100
AcDbLine
10
-41.5875
20
-4
30
0
11
-48.5
21
-4
31
0
39
0
210
0
220
0
230
1
0
LINE
5
9F
100
AcDbEntity
8
1
62
256
6
ByLayer
370
18
48
1
60
1
100
AcDbLine
10
-46.5
20
4
30
0
11
-46.039216
21
0.500002
31
0
39
0
210
0
220
0
230
1
0
LINE
5
A0
100
AcDbEntity
8
1
62
256
6
ByLayer
370
18
48
1
60
1
100
AcDbLine
10
-46.039216
20
0.500002
30
0
11
-46.960784
21
0.499998
31
0
39
0
210
0
220
0
230
1
0
LINE
5
A1
100
AcDbEntity
8
1
62
256
6
ByLayer
370
18
48
1
60
1
100
AcDbLine
10
-46.960784
20
0.499998
30
0
11
-46.5
21
4
31
0
39
0
210
0
220
0
230
1
0
LINE
5
A2
100
AcDbEntity
8
1
62
256
6
ByLayer
370
18
48
1
60
1
100
AcDbLine
10
-46.5
20
-4
30
0
11
-46.960784
21
-0.500002
31
0
39
0
210
0
220
0
230
1
0
LINE
5
A3
100
AcDbEntity
8
1
62
256
6
ByLayer
370
18
48
1
60
1
100
AcDbLine
10
-46.960784
20
-0.500002
30
0
11
-46.039216
21
-0.499998
31
0
39
0
210
0
220
0
230
1
0
LINE
5
A4
100
AcDbEntity
8
1
62
256
6
ByLayer
370
18
48
1
60
1
100
AcDbLine
10
-46.039216
20
-0.499998
30
0
11
-46.5
21
-4
31
0
39
0
210
0
220
0
230
1
0
LINE
5
A5
100
AcDbEntity
8
2
62
256
6
ByLayer
370
13
48
1
60
0
100
AcDbLine
10
84.336902
20
-4
30
0
11
84.336902
21
30.782741
31
0
39
0
210
0
220
0
230
1
0
LINE
5
A7
100
AcDbEntity
8
2
62
256
6
ByLayer
370
13
48
1
60
0
100
AcDbLine
10
76.424402
20
4
30
0
11
86.336902
21
4
31
0
39
0
210
0
220
0
230
1
0
LINE
5
A8
100
AcDbEntity
8
2
62
256
6
ByLayer
370
13
48
1
60
0
100
AcDbLine
10
76.424402
20
-4
30
0
11
86.336902
21
-4
31
0
39
0
210
0
220
0
230
1
0
LINE
5
A9
100
AcDbEntity
8
1
62
256
6
ByLayer
370
18
48
1
60
1
100
AcDbLine
10
84.336902
20
4
30
0
11
84.797686
21
0.500002
31
0
39
0
210
0
220
0
230
1
0
LINE
5
AA
100
AcDbEntity
8
1
62
256
6
ByLayer
370
18
48
1
60
1
100
AcDbLine
10
84.797686
20
0.500002
30
0
11
83.876118
21
0.499998
31
0
39
0
210
0
220
0
230
1
0
LINE
5
AB
100
AcDbEntity
8
1
62
256
6
ByLayer
370
18
48
1
60
1
100
AcDbLine
10
83.876118
20
0.499998
30
0
11
84.336902
21
4
31
0
39
0
210
0
220
0
230
1
0
LINE
5
AC
100
AcDbEntity
8
1
62
256
6
ByLayer
370
18
48
1
60
1
100
AcDbLine
10
84.336902
20
-4
30
0
11
83.876118
21
-0.500002
31
0
39
0
210
0
220
0
230
1
0
LINE
5
AD
100
AcDbEntity
8
1
62
256
6
ByLayer
370
18
48
1
60
1
100
AcDbLine
10
83.876118
20
-0.500002
30
0
11
84.797686
21
-0.499998
31
0
39
0
210
0
220
0
230
1
0
LINE
5
AE
100
AcDbEntity
8
1
62
256
6
ByLayer
370
18
48
1
60
1
100
AcDbLine
10
84.797686
20
-0.499998
30
0
11
84.336902
21
-4
31
0
39
0
210
0
220
0
230
1
0
LINE
5
AF
100
AcDbEntity
8
2
62
256
6
ByLayer
370
13
48
1
60
0
100
AcDbLine
10
77.755136
20
-1.396397
30
0
11
88.416232
21
-21.110889
31
0
39
0
210
0
220
0
230
1
0
LINE
5
B0
100
AcDbEntity
8
2
62
256
6
ByLayer
370
13
48
1
60
0
100
AcDbLine
10
77.755136
20
1.396397
30
0
11
88.416232
21
21.110889
31
0
39
0
210
0
220
0
230
1
0
LINE
5
B1
100
AcDbEntity
8
1
62
256
6
ByLayer
370
18
48
1
60
1
100
AcDbLine
10
87.464879
20
-19.351649
30
0
11
90.239971
21
-17.169637
31
0
39
0
210
0
220
0
230
1
0
LINE
5
B2
100
AcDbEntity
8
1
62
256
6
ByLayer
370
18
48
1
60
1
100
AcDbLine
10
90.239971
20
-17.169637
30
0
11
90.710161
21
-17.962233
31
0
39
0
210
0
220
0
230
1
0
LINE
5
B3
100
AcDbEntity
8
1
62
256
6
ByLayer
370
18
48
1
60
1
100
AcDbLine
10
90.710161
20
-17.962233
30
0
11
87.464879
21
-19.351649
31
0
39
0
210
0
220
0
230
1
0
LINE
5
B4
100
AcDbEntity
8
1
62
256
6
ByLayer
370
18
48
1
60
1
100
AcDbLine
10
87.464879
20
19.351649
30
0
11
90.710158
21
17.962234
31
0
39
0
210
0
220
0
230
1
0
LINE
5
B5
100
AcDbEntity
8
1
62
256
6
ByLayer
370
18
48
1
60
1
100
AcDbLine
10
90.710158
20
17.962234
30
0
11
90.239974
21
17.169635
31
0
39
0
210
0
220
0
230
1
0
LINE
5
B6
100
AcDbEntity
8
1
62
256
6
ByLayer
370
18
48
1
60
1
100
AcDbLine
10
90.239974
20
17.169635
30
0
11
87.464879
21
19.351649
31
0
39
0
210
0
220
0
230
1
0
LINE
5
CF
100
AcDbEntity
8
1
62
256
6
ByLayer
370
18
48
1
60
1
100
AcDbLine
10
-46.5
20
4
30
0
11
-46.039216
21
0.500002
31
0
39
0
210
0
220
0
230
1
0
LINE
5
D0
100
AcDbEntity
8
1
62
256
6
ByLayer
370
18
48
1
60
1
100
AcDbLine
10
-46.039216
20
0.500002
30
0
11
-46.960784
21
0.499998
31
0
39
0
210
0
220
0
230
1
0
LINE
5
D1
100
AcDbEntity
8
1
62
256
6
ByLayer
370
18
48
1
60
1
100
AcDbLine
10
-46.960784
20
0.499998
30
0
11
-46.5
21
4
31
0
39
0
210
0
220
0
230
1
0
LINE
5
D3
100
AcDbEntity
8
1
62
256
6
ByLayer
370
18
48
1
60
1
100
AcDbLine
10
-46.5
20
-4
30
0
11
-46.960784
21
-0.500002
31
0
39
0
210
0
220
0
230
1
0
LINE
5
D4
100
AcDbEntity
8
1
62
256
6
ByLayer
370
18
48
1
60
1
100
AcDbLine
10
-46.960784
20
-0.500002
30
0
11
-46.039216
21
-0.499998
31
0
39
0
210
0
220
0
230
1
0
LINE
5
D5
100
AcDbEntity
8
1
62
256
6
ByLayer
370
18
48
1
60
1
100
AcDbLine
10
-46.039216
20
-0.499998
30
0
11
-46.5
21
-4
31
0
39
0
210
0
220
0
230
1
0
LINE
5
D9
100
AcDbEntity
8
1
62
256
6
ByLayer
370
18
48
1
60
1
100
AcDbLine
10
84.336902
20
4
30
0
11
84.797686
21
0.500002
31
0
39
0
210
0
220
0
230
1
0
LINE
5
DA
100
AcDbEntity
8
1
62
256
6
ByLayer
370
18
48
1
60
1
100
AcDbLine
10
84.797686
20
0.500002
30
0
11
83.876118
21
0.499998
31
0
39
0
210
0
220
0
230
1
0
LINE
5
DB
100
AcDbEntity
8
1
62
256
6
ByLayer
370
18
48
1
60
1
100
AcDbLine
10
83.876118
20
0.499998
30
0
11
84.336902
21
4
31
0
39
0
210
0
220
0
230
1
0
LINE
5
DD
100
AcDbEntity
8
1
62
256
6
ByLayer
370
18
48
1
60
1
100
AcDbLine
10
84.336902
20
-4
30
0
11
83.876118
21
-0.500002
31
0
39
0
210
0
220
0
230
1
0
LINE
5
DE
100
AcDbEntity
8
1
62
256
6
ByLayer
370
18
48
1
60
1
100
AcDbLine
10
83.876118
20
-0.500002
30
0
11
84.797686
21
-0.499998
31
0
39
0
210
0
220
0
230
1
0
LINE
5
DF
100
AcDbEntity
8
1
62
256
6
ByLayer
370
18
48
1
60
1
100
AcDbLine
10
84.797686
20
-0.499998
30
0
11
84.336902
21
-4
31
0
39
0
210
0
220
0
230
1
0
LINE
5
E2
100
AcDbEntity
8
1
62
256
6
ByLayer
370
18
48
1
60
1
100
AcDbLine
10
87.464879
20
-19.351649
30
0
11
90.239971
21
-17.169637
31
0
39
0
210
0
220
0
230
1
0
LINE
5
E3
100
AcDbEntity
8
1
62
256
6
ByLayer
370
18
48
1
60
1
100
AcDbLine
10
90.239971
20
-17.169637
30
0
11
90.710161
21
-17.962233
31
0
39
0
210
0
220
0
230
1
0
LINE
5
E4
100
AcDbEntity
8
1
62
256
6
ByLayer
370
18
48
1
60
1
100
AcDbLine
10
90.710161
20
-17.962233
30
0
11
87.464879
21
-19.351649
31
0
39
0
210
0
220
0
230
1
0
LINE
5
E6
100
AcDbEntity
8
1
62
256
6
ByLayer
370
18
48
1
60
1
100
AcDbLine
10
87.464879
20
19.351649
30
0
11
90.710158
21
17.962234
31
0
39
0
210
0
220
0
230
1
0
LINE
5
E7
100
AcDbEntity
8
1
62
256
6
ByLayer
370
18
48
1
60
1
100
AcDbLine
10
90.710158
20
17.962234
30
0
11
90.239974
21
17.169635
31
0
39
0
210
0
220
0
230
1
0
LINE
5
E8
100
AcDbEntity
8
1
62
256
6
ByLayer
370
18
48
1
60
1
100
AcDbLine
10
90.239974
20
17.169635
30
0
11
87.464879
21
19.351649
31
0
39
0
210
0
220
0
230
1
0
MTEXT
5
CB
100
AcDbEntity
8
SK2
62
256
6
ByLayer
370
18
48
1
60
0
100
AcDbMText
10
-47.841114
20
15.658437
30
0
210
0
220
0
230
1
1
%%c
40
3
41
0
44
1.084337
50
90
71
7
72
5
7
iso_b_vert
0
MTEXT
5
CE
100
AcDbEntity
8
SK2
62
256
6
ByLayer
370
18
48
1
60
0
100
AcDbMText
10
-47.841114
20
21.635
30
0
210
0
220
0
230
1
1
\W0.7468;8.000
40
3
41
0
44
1.084337
50
90
71
7
72
5
7
iso_b_vert
0
MTEXT
5
D7
100
AcDbEntity
8
2
62
256
6
ByLayer
370
18
48
1
60
0
100
AcDbMText
10
82.995787
20
15.658437
30
0
210
0
220
0
230
1
1
%%c
40
3
41
0
44
1.084337
50
90
71
7
72
5
7
iso_b_vert
0
MTEXT
5
D8
100
AcDbEntity
8
2
62
256
6
ByLayer
370
18
48
1
60
0
100
AcDbMText
10
82.995787
20
21.635
30
0
210
0
220
0
230
1
1
\W0.7468;8.000
40
3
41
0
44
1.084337
50
90
71
7
72
5
7
iso_b_vert
0
MTEXT
5
E1
100
AcDbEntity
8
2
62
256
6
ByLayer
370
18
48
1
60
0
100
AcDbMText
10
96.092229
20
-2.114886
30
0
210
0
220
0
230
1
1
\W0.6008;118%%d
40
3
41
0
44
1.084337
50
0
71
7
72
5
7
iso_b_vert
0
MTEXT
5
EA
100
AcDbEntity
8
SK6
62
256
6
ByLayer
370
18
48
1
60
0
100
AcDbMText
10
12.007396
20
-67.114886
30
0
210
0
220
0
230
1
1
\W0.7690;R0038.0
40
3
41
0
44
1.084337
50
0
71
7
72
5
7
iso_b_vert
0
HATCH
5
D2
100
AcDbEntity
8
SK2
62
256
6
ByLayer
370
13
48
1
60
0
100
AcDbHatch
10
0
20
0
30
0
210
0
220
0
230
1
2
ANSI31
70
0
71
0
91
1
92
5
93
3
72
1
10
-46.5
20
4
11
-46.0392162584472
21
0.500001692553184
72
1
10
-46.0392162584472
20
0.500001692553184
11
-46.9607837415528
21
0.499998307446816
72
1
10
-46.9607837415528
20
0.499998307446816
11
-46.5
21
4
97
0
75
0
76
1
52
0
41
0.0062
77
0
78
1
53
45
43
0
44
0
45
-0.0139193969876572
46
0.0139193969876572
79
0
47
0
98
1
10
0
20
0
0
HATCH
5
D6
100
AcDbEntity
8
SK2
62
256
6
ByLayer
370
13
48
1
60
0
100
AcDbHatch
10
0
20
0
30
0
210
0
220
0
230
1
2
ANSI31
70
0
71
0
91
1
92
5
93
3
72
1
10
-46.5
20
-4
11
-46.9607837415528
21
-0.500001692553184
72
1
10
-46.9607837415528
20
-0.500001692553184
11
-46.0392162584472
21
-0.499998307446816
72
1
10
-46.0392162584472
20
-0.499998307446816
11
-46.5
21
-4
97
0
75
0
76
1
52
0
41
0.0062
77
0
78
1
53
45
43
0
44
0
45
-0.0139193969876572
46
0.0139193969876572
79
0
47
0
98
1
10
0
20
0
0
HATCH
5
DC
100
AcDbEntity
8
2
62
256
6
ByLayer
370
13
48
1
60
0
100
AcDbHatch
10
0
20
0
30
0
210
0
220
0
230
1
2
ANSI31
70
0
71
0
91
1
92
5
93
3
72
1
10
84.3369017715008
20
4
11
84.7976855130536
21
0.500001692553184
72
1
10
84.7976855130536
20
0.500001692553184
11
83.876118029948
21
0.499998307446816
72
1
10
83.876118029948
20
0.499998307446816
11
84.3369017715008
21
4
97
0
75
0
76
1
52
0
41
0.0062
77
0
78
1
53
45
43
0
44
0
45
-0.0139193969876572
46
0.0139193969876572
79
0
47
0
98
1
10
0
20
0
0
HATCH
5
E0
100
AcDbEntity
8
2
62
256
6
ByLayer
370
13
48
1
60
0
100
AcDbHatch
10
0
20
0
30
0
210
0
220
0
230
1
2
ANSI31
70
0
71
0
91
1
92
5
93
3
72
1
10
84.3369017715008
20
-4
11
83.876118029948
21
-0.500001692553184
72
1
10
83.876118029948
20
-0.500001692553184
11
84.7976855130536
21
-0.499998307446816
72
1
10
84.7976855130536
20
-0.499998307446816
11
84.3369017715008
21
-4
97
0
75
0
76
1
52
0
41
0.0062
77
0
78
1
53
45
43
0
44
0
45
-0.0139193969876572
46
0.0139193969876572
79
0
47
0
98
1
10
0
20
0
0
HATCH
5
E5
100
AcDbEntity
8
2
62
256
6
ByLayer
370
13
48
1
60
0
100
AcDbHatch
10
0
20
0
30
0
210
0
220
0
230
1
2
ANSI31
70
0
71
0
91
1
92
5
93
3
72
1
10
87.4648791987518
20
-19.3516485952884
11
90.2399711078381
21
-17.1696369764527
72
1
10
90.2399711078381
20
-17.1696369764527
11
90.7101613929249
21
-17.9622325364572
72
1
10
90.7101613929249
20
-17.9622325364572
11
87.4648791987518
21
-19.3516485952884
97
0
75
0
76
1
52
0
41
0.0062
77
0
78
1
53
45
43
0
44
0
45
-0.0139193969876572
46
0.0139193969876572
79
0
47
0
98
1
10
0
20
0
0
HATCH
5
E9
100
AcDbEntity
8
2
62
256
6
ByLayer
370
13
48
1
60
0
100
AcDbHatch
10
0
20
0
30
0
210
0
220
0
230
1
2
ANSI31
70
0
71
0
91
1
92
5
93
3
72
1
10
87.4648791987518
20
19.3516485952884
11
90.7101584815525
21
17.9622342635519
72
1
10
90.7101584815525
20
17.9622342635519
11
90.2399740192105
21
17.169635249358
72
1
10
90.2399740192105
20
17.169635249358
11
87.4648791987518
21
19.3516485952884
97
0
75
0
76
1
52
0
41
0.0062
77
0
78
1
53
45
43
0
44
0
45
-0.0139193969876572
46
0.0139193969876572
79
0
47
0
98
1
10
0
20
0
0
DIMENSION
5
ED
100
AcDbEntity
8
SK2
62
256
6
ByLayer
370
18
48
1
60
0
100
AcDbDimension
2
_U0
10
77
20
-48.712731
30
0
11
18.5
21
-48.712731
31
0
70
32
71
1
72
1
41
1
210
0
220
0
230
1
3
Standard
100
AcDbAlignedDimension
13
-40
23
-4
33
0
14
77
24
0
34
0
50
0
100
AcDbRotatedDimension
1001
ACAD
1000
DSTYLE
1002
{
1070
   371
1070
    13
1070
   372
1070
    13
1070
     3
1000

1070
   170
1070
     0
1070
   144
1040
1.0
1070
   277
1070
     2
1070
   284
1070
     8
1070
   278
1070
    46
1070
   146
1040
1.166667
1070
   345
1005
16
1070
   347
1005
16
1070
   346
1005
16
1070
   344
1005
0
1070
   343
1005
0
1070
   172
1070
     1
1070
    76
1070
     0
1070
    75
1070
     0
1070
   282
1070
     0
1070
   281
1070
     0
1070
    71
1070
     0
1070
    74
1070
     0
1070
   279
1070
     0
1070
   173
1070
     1
1070
   340
1005
CC
1070
   271
1070
     2
1070
   272
1070
     3
1070
    77
1070
     1
1070
    73
1070
     1
1070
   171
1070
     3
1070
   274
1070
     4
1070
   177
1070
     2
1070
   176
1070
     2
1070
   178
1070
     2
1070
    78
1070
     8
1070
    48
1040
-0.1
1070
    41
1040
3.5
1070
   147
1040
1.5
1070
    42
1040
1.5875
1070
    44
1040
2.0
1070
   140
1040
3.0
1002
}
1001
ACAD_DSTYLE_DIM_LINETYPE
1070
   380
1005
16
1001
ACAD_DSTYLE_DIM_EXT1_LINETYPE
1070
   381
1005
16
1001
ACAD_DSTYLE_DIM_EXT2_LINETYPE
1070
   382
1005
16
0
DIMENSION
5
106
100
AcDbEntity
8
2
62
256
6
ByLayer
370
18
48
1
60
0
100
AcDbDimension
2
_U1
10
2
20
-38.712731
30
0
11
39.5
21
-38.712731
31
0
70
32
71
1
72
1
41
1
210
0
220
0
230
1
3
Standard
100
AcDbAlignedDimension
13
77
23
0
33
0
14
2
24
-4
34
0
50
0
100
AcDbRotatedDimension
1001
ACAD
1000
DSTYLE
1002
{
1070
   371
1070
    13
1070
   372
1070
    13
1070
     3
1000

1070
   170
1070
     0
1070
   144
1040
1.0
1070
   277
1070
     2
1070
   284
1070
     8
1070
   278
1070
    46
1070
   146
1040
1.166667
1070
   345
1005
16
1070
   347
1005
16
1070
   346
1005
16
1070
   344
1005
0
1070
   343
1005
0
1070
   172
1070
     1
1070
    76
1070
     0
1070
    75
1070
     0
1070
   282
1070
     0
1070
   281
1070
     0
1070
    71
1070
     0
1070
    74
1070
     0
1070
   279
1070
     0
1070
   173
1070
     1
1070
   340
1005
CC
1070
   271
1070
     2
1070
   272
1070
     3
1070
    77
1070
     1
1070
    73
1070
     1
1070
   171
1070
     3
1070
   274
1070
     4
1070
   177
1070
     2
1070
   176
1070
     2
1070
   178
1070
     2
1070
    78
1070
     8
1070
    48
1040
-0.1
1070
    41
1040
3.5
1070
   147
1040
1.5
1070
    42
1040
1.5875
1070
    44
1040
2.0
1070
   140
1040
3.0
1002
}
1001
ACAD_DSTYLE_DIM_LINETYPE
1070
   380
1005
16
1001
ACAD_DSTYLE_DIM_EXT1_LINETYPE
1070
   381
1005
16
1001
ACAD_DSTYLE_DIM_EXT2_LINETYPE
1070
   382
1005
16
0
DIMENSION
5
11E
100
AcDbEntity
8
SK2
62
256
6
ByLayer
370
18
48
1
60
0
100
AcDbDimension
2
_U2
10
0
20
-33.712731
30
0
11
-20
21
-33.712731
31
0
70
32
71
1
72
1
41
1
210
0
220
0
230
1
3
Standard
100
AcDbAlignedDimension
13
-40
23
-4
33
0
14
0
24
-4
34
0
50
0
100
AcDbRotatedDimension
1001
ACAD
1000
DSTYLE
1002
{
1070
   371
1070
    13
1070
   372
1070
    13
1070
     3
1000

1070
   170
1070
     0
1070
   144
1040
1.0
1070
   277
1070
     2
1070
   284
1070
     8
1070
   278
1070
    46
1070
   146
1040
1.166667
1070
   345
1005
16
1070
   347
1005
16
1070
   346
1005
16
1070
   344
1005
0
1070
   343
1005
0
1070
   172
1070
     1
1070
    76
1070
     0
1070
    75
1070
     0
1070
   282
1070
     0
1070
   281
1070
     0
1070
    71
1070
     0
1070
    74
1070
     0
1070
   279
1070
     0
1070
   173
1070
     1
1070
   340
1005
CC
1070
   271
1070
     2
1070
   272
1070
     3
1070
    77
1070
     1
1070
    73
1070
     1
1070
   171
1070
     3
1070
   274
1070
     4
1070
   177
1070
     2
1070
   176
1070
     2
1070
   178
1070
     2
1070
    78
1070
     8
1070
    48
1040
-0.1
1070
    41
1040
3.5
1070
   147
1040
1.5
1070
    42
1040
1.5875
1070
    44
1040
2.0
1070
   140
1040
3.0
1002
}
1001
ACAD_DSTYLE_DIM_LINETYPE
1070
   380
1005
16
1001
ACAD_DSTYLE_DIM_EXT1_LINETYPE
1070
   381
1005
16
1001
ACAD_DSTYLE_DIM_EXT2_LINETYPE
1070
   382
1005
16
0
DIMENSION
5
136
100
AcDbEntity
8
2
62
256
6
ByLayer
370
18
48
1
60
0
100
AcDbDimension
2
_U3
10
20.75
20
-31.712731
30
0
11
48.875
21
-31.712731
31
0
70
32
71
1
72
1
41
1
210
0
220
0
230
1
3
Standard
100
AcDbAlignedDimension
13
77
23
0
33
0
14
20.75
24
-4
34
0
50
0
100
AcDbRotatedDimension
1001
ACAD
1000
DSTYLE
1002
{
1070
   371
1070
    13
1070
   372
1070
    13
1070
     3
1000

1070
   170
1070
     0
1070
   144
1040
1.0
1070
   277
1070
     2
1070
   284
1070
     8
1070
   278
1070
    46
1070
   146
1040
1.166667
1070
   345
1005
16
1070
   347
1005
16
1070
   346
1005
16
1070
   344
1005
0
1070
   343
1005
0
1070
   172
1070
     1
1070
    76
1070
     0
1070
    75
1070
     0
1070
   282
1070
     0
1070
   281
1070
     0
1070
    71
1070
     0
1070
    74
1070
     0
1070
   279
1070
     0
1070
   173
1070
     1
1070
   340
1005
CC
1070
   271
1070
     2
1070
   272
1070
     3
1070
    77
1070
     1
1070
    73
1070
     1
1070
   171
1070
     3
1070
   274
1070
     4
1070
   177
1070
     2
1070
   176
1070
     2
1070
   178
1070
     2
1070
    78
1070
     8
1070
    48
1040
-0.1
1070
    41
1040
3.5
1070
   147
1040
1.5
1070
    42
1040
1.5875
1070
    44
1040
2.0
1070
   140
1040
3.0
1002
}
1001
ACAD_DSTYLE_DIM_LINETYPE
1070
   380
1005
16
1001
ACAD_DSTYLE_DIM_EXT1_LINETYPE
1070
   381
1005
16
1001
ACAD_DSTYLE_DIM_EXT2_LINETYPE
1070
   382
1005
16
0
ENDSEC
0
SECTION
2
OBJECTS
0
DICTIONARY
5
1c0
330
0
100
AcDbDictionary
280
0
281
1
3
ACAD_GROUP
350
1c1
3
ACAD_MLINESTYLE
350
1c2
0
DICTIONARY
5
1c1
330
0
100
AcDbDictionary
280
0
281
1
0
DICTIONARY
5
1c2
330
0
100
AcDbDictionary
280
0
281
1
3
Standard
350
18
0
MLINESTYLE
5
18
330
1c2
100
AcDbMlineStyle
2
Standard
70
0
3

62
256
51
90
52
90
71
2
49
-0.5
62
256
6
ByLayer
49
0.5
62
256
6
ByLayer
0
RASTERVARIABLES
5
1ac
330

100
AcDbRasterVariables
90
0
70
1
71
1
72
1
0
ENDSEC
0
EOF
