0
SECTION
2
HEADER
9
$ACADVER
1
AC1015
9
$DWGCODEPAGE
3
ANSI_1252
9
$HANDSEED
5
1d0
9
$ANGBASE
50
0
9
$ANGDIR
70
0
9
$ATTMODE
70
1
9
$AUNITS
70
0
9
$AUPREC
70
0
9
$CECOLOR
62
256
9
$CELTSCALE
40
1
9
$CELTYPE
6
ByLayer
9
$CELWEIGHT
370
18
9
$CLAYER
8
0
9
$CMLJUST
70
0
9
$CMLSCALE
40
1
9
$CMLSTYLE
2
Standard
9
$DIMSTYLE
2
Standard
9
$TEXTSIZE
40
0.2
9
$TEXTSTYLE
7
Standard
9
$LUNITS
70
2
9
$LUPREC
70
4
9
$EXTNAMES
290
1
9
$INSUNITS
70
4
9
$LTSCALE
40
1
9
$LWDISPLAY
290
1
9
$PDMODE
70
0
9
$PDSIZE
40
0
9
$PLINEGEN
70
0
0
ENDSEC
0
SECTION
2
CLASSES
0
CLASS
1
RASTERVARIABLES
2
AcDbRasterVariables
3
ISM
90
0
280
0
281
0
0
ENDSEC
0
SECTION
2
TABLES
0
TABLE
2
VPORT
5
1c6
100
AcDbSymbolTable
0
VPORT
5
1
100
AcDbSymbolTableRecord
100
AcDbViewportTableRecord
2
*Active
70
0
10
0
20
0
11
1
21
1
12
-1
22
1
13
0
23
0
14
0.5
24
0.5
15
10
25
10
16
0
26
0
36
1
17
0
27
0
37
0
0
ENDTAB
0
TABLE
2
LTYPE
5
1c7
100
AcDbSymbolTable
0
LTYPE
5
14
100
AcDbSymbolTableRecord
100
AcDbLinetypeTableRecord
70
0
2
ByBlock
3

72
65
73
0
40
0
0
LTYPE
5
15
100
AcDbSymbolTableRecord
100
AcDbLinetypeTableRecord
70
0
2
ByLayer
3

72
65
73
0
40
0
0
LTYPE
5
16
100
AcDbSymbolTableRecord
100
AcDbLinetypeTableRecord
70
0
2
Continuous
3
Solid line
72
65
73
0
40
0
0
LTYPE
5
6E
100
AcDbSymbolTableRecord
100
AcDbLinetypeTableRecord
70
0
2
CENTER
3
____ _ ____ _ ____ _ ____
72
65
73
4
40
47.5
49
22
74
0
49
-8.5
74
0
49
8.5
74
0
49
-8.5
74
0
0
LTYPE
5
6F
100
AcDbSymbolTableRecord
100
AcDbLinetypeTableRecord
70
0
2
DASHED
3
__ __ __ __ __ __ __ __ __
72
65
73
2
40
25.72
49
12.86
74
0
49
-12.86
74
0
0
ENDTAB
0
TABLE
2
LAYER
5
1c8
100
AcDbSymbolTable
0
LAYER
5
10
100
AcDbSymbolTableRecord
100
AcDbLayerTableRecord
2
0
70
0
62
7
6
Continuous
290
1
370
-3
390
0
0
LAYER
5
71
100
AcDbSymbolTableRecord
100
AcDbLayerTableRecord
2
81
70
0
62
-3
6
Continuous
290
1
370
-3
390
0
0
LAYER
5
73
100
AcDbSymbolTableRecord
100
AcDbLayerTableRecord
2
80
70
0
62
-6
6
Continuous
290
1
370
-3
390
0
0
LAYER
5
75
100
AcDbSymbolTableRecord
100
AcDbLayerTableRecord
2
1
70
0
62
4
6
Continuous
290
1
370
-3
390
0
0
LAYER
5
7F
100
AcDbSymbolTableRecord
100
AcDbLayerTableRecord
2
4
70
0
62
-2
6
CENTER
290
1
370
-3
390
0
0
LAYER
5
A8
100
AcDbSymbolTableRecord
100
AcDbLayerTableRecord
2
2
70
0
62
7
6
Continuous
290
1
370
-3
390
0
0
LAYER
5
F3
100
AcDbSymbolTableRecord
100
AcDbLayerTableRecord
2
Defpoints
70
0
62
7
6
Continuous
290
0
370
-3
390
0
0
LAYER
5
1b0
100
AcDbSymbolTableRecord
100
AcDbLayerTableRecord
2
SK4
70
0
62
2
6
CENTER
290
1
370
-3
390
0
0
LAYER
5
1b1
100
AcDbSymbolTableRecord
100
AcDbLayerTableRecord
2
SK1
70
0
62
4
6
Continuous
290
1
370
-3
390
0
0
LAYER
5
1b2
100
AcDbSymbolTableRecord
100
AcDbLayerTableRecord
2
SK2
70
0
62
7
6
Continuous
290
1
370
-3
390
0
0
LAYER
5
1b3
100
AcDbSymbolTableRecord
100
AcDbLayerTableRecord
2
CUT
70
0
62
-1
6
Continuous
290
1
370
-3
390
0
0
LAYER
5
1b4
100
AcDbSymbolTableRecord
100
AcDbLayerTableRecord
2
NOCUT
70
0
62
-7
6
Continuous
290
1
370
-3
390
0
0
LAYER
5
1b5
100
AcDbSymbolTableRecord
100
AcDbLayerTableRecord
2
SK6
70
0
62
5
6
Continuous
290
1
370
-3
390
0
0
ENDTAB
0
TABLE
2
STYLE
5
1c9
100
AcDbSymbolTable
0
STYLE
5
11
100
AcDbSymbolTableRecord
100
AcDbTextStyleTableRecord
2
Standard
3
txt
70
0
71
0
40
0
41
1
42
0
50
0
0
STYLE
5
CF
100
AcDbSymbolTableRecord
100
AcDbTextStyleTableRecord
2
iso_b_vert
3
simplex.shx
70
0
71
0
40
0
41
1
42
0
50
0
0
STYLE
5
D0
100
AcDbSymbolTableRecord
100
AcDbTextStyleTableRecord
2
DWGDirectTextStyle
3
simplex
70
0
71
0
40
0
41
1
42
0
50
0
0
ENDTAB
0
TABLE
2
DIMSTYLE
5
1ca
100
AcDbSymbolTable
100
AcDbDimStyleTable
0
DIMSTYLE
105
27
100
AcDbSymbolTableRecord
100
AcDbDimStyleTableRecord
2
Standard
70
0
3
<>
41
0.18
42
0.0625
44
0.18
140
0.18
147
0.09
73
0
74
0
77
1
271
2
275
0
278
52
280
0
340
11
0
ENDTAB
0
TABLE
2
VIEW
5
1cb
100
AcDbSymbolTable
0
ENDTAB
0
TABLE
2
UCS
5
1cc
100
AcDbSymbolTable
0
ENDTAB
0
TABLE
2
APPID
5
1cd
100
AcDbSymbolTable
0
APPID
5
12
100
AcDbSymbolTableRecord
100
AcDbRegAppTableRecord
2
ACAD
70
0
0
APPID
5
EF
100
AcDbSymbolTableRecord
100
AcDbRegAppTableRecord
2
ACAD_DSTYLE_DIMBREAK
70
0
0
APPID
5
16F
100
AcDbSymbolTableRecord
100
AcDbRegAppTableRecord
2
ACAD_DSTYLE_DIM_LINETYPE
70
0
0
APPID
5
170
100
AcDbSymbolTableRecord
100
AcDbRegAppTableRecord
2
ACAD_DSTYLE_DIM_EXT1_LINETYPE
70
0
0
APPID
5
171
100
AcDbSymbolTableRecord
100
AcDbRegAppTableRecord
2
ACAD_DSTYLE_DIM_EXT2_LINETYPE
70
0
0
APPID
5
1AC
100
AcDbSymbolTableRecord
100
AcDbRegAppTableRecord
2
ACAD_MLEADERVER
70
0
0
ENDTAB
0
TABLE
2
BLOCK_RECORD
5
1ce
100
AcDbSymbolTable
0
BLOCK_RECORD
5
1F
100
AcDbSymbolTableRecord
100
AcDbBlockTableRecord
2
*Model_Space
340
0
70
0
0
BLOCK_RECORD
5
1B
100
AcDbSymbolTableRecord
100
AcDbBlockTableRecord
2
*Paper_Space
340
0
70
0
0
BLOCK_RECORD
5
23
100
AcDbSymbolTableRecord
100
AcDbBlockTableRecord
2
*Paper_Space0
340
0
70
0
0
BLOCK_RECORD
5
F4
100
AcDbSymbolTableRecord
100
AcDbBlockTableRecord
2
*D1
340
0
70
0
0
BLOCK_RECORD
5
100
100
AcDbSymbolTableRecord
100
AcDbBlockTableRecord
2
_U0
340
0
70
0
0
BLOCK_RECORD
5
10C
100
AcDbSymbolTableRecord
100
AcDbBlockTableRecord
2
*D3
340
0
70
0
0
BLOCK_RECORD
5
118
100
AcDbSymbolTableRecord
100
AcDbBlockTableRecord
2
_U1
340
0
70
0
0
BLOCK_RECORD
5
124
100
AcDbSymbolTableRecord
100
AcDbBlockTableRecord
2
*D5
340
0
70
0
0
BLOCK_RECORD
5
130
100
AcDbSymbolTableRecord
100
AcDbBlockTableRecord
2
_U2
340
0
70
0
0
BLOCK_RECORD
5
13C
100
AcDbSymbolTableRecord
100
AcDbBlockTableRecord
2
*D7
340
0
70
0
0
BLOCK_RECORD
5
148
100
AcDbSymbolTableRecord
100
AcDbBlockTableRecord
2
_U3
340
0
70
0
0
ENDTAB
0
ENDSEC
0
SECTION
2
BLOCKS
0
BLOCK
5
20
100
AcDbEntity
8
0
100
AcDbBlockBegin
2
*Model_Space
70
0
10
0
20
0
30
0
3
*Model_Space
0
ENDBLK
5
21
100
AcDbEntity
8
0
100
AcDbBlockEnd
0
BLOCK
5
1C
100
AcDbEntity
8
0
100
AcDbBlockBegin
2
*Paper_Space
70
0
10
0
20
0
30
0
3
*Paper_Space
0
ENDBLK
5
1D
100
AcDbEntity
8
0
100
AcDbBlockEnd
0
BLOCK
5
24
100
AcDbEntity
8
0
100
AcDbBlockBegin
2
*Paper_Space0
70
0
10
0
20
0
30
0
3
*Paper_Space0
0
ENDBLK
5
25
100
AcDbEntity
8
0
100
AcDbBlockEnd
0
BLOCK
5
F5
100
AcDbEntity
8
0
100
AcDbBlockBegin
2
*D1
70
1
10
0
20
0
30
0
3
*D1
0
LINE
5
F7
100
AcDbEntity
8
0
62
256
6
ByLayer
370
-2
48
1
60
0
100
AcDbLine
10
-34
20
-4.4875
30
0
11
-34
21
-51.455516
31
0
39
0
210
0
220
0
230
1
0
LINE
5
F8
100
AcDbEntity
8
0
62
256
6
ByLayer
370
-2
48
1
60
0
100
AcDbLine
10
59
20
-1.5875
30
0
11
59
21
-51.455516
31
0
39
0
210
0
220
0
230
1
0
LINE
5
F9
100
AcDbEntity
8
0
62
256
6
ByLayer
370
-2
48
1
60
0
100
AcDbLine
10
-30.5
20
-49.455516
30
0
11
55.5
21
-49.455516
31
0
39
0
210
0
220
0
230
1
0
SOLID
5
FA
100
AcDbEntity
8
0
62
256
6
ByLayer
370
-1
48
1
60
0
100
AcDbTrace
10
-30.5
20
-48.872183
30
0
11
-30.5
21
-50.038849
31
0
12
-34
22
-49.455516
32
0
13
-34
23
-49.455516
33
0
39
0
210
0
220
0
230
1
0
SOLID
5
FB
100
AcDbEntity
8
0
62
256
6
ByLayer
370
-1
48
1
60
0
100
AcDbTrace
10
55.5
20
-50.038849
30
0
11
55.5
21
-48.872183
31
0
12
59
22
-49.455516
32
0
13
59
23
-49.455516
33
0
39
0
210
0
220
0
230
1
0
MTEXT
5
FC
100
AcDbEntity
8
0
62
256
6
ByLayer
370
18
48
1
60
0
100
AcDbMText
10
12.5
20
-43.455516
30
0
210
0
220
0
230
1
1
\A1;93
40
3
41
0
44
1
50
0
71
5
72
5
7
iso_b_vert
0
POINT
5
FD
100
AcDbEntity
8
Defpoints
62
0
6
ByLayer
370
-1
48
1
60
0
100
AcDbPoint
10
-34
20
-2.9
30
0
39
0
210
0
220
0
230
1
50
360
0
POINT
5
FE
100
AcDbEntity
8
Defpoints
62
0
6
ByLayer
370
-1
48
1
60
0
100
AcDbPoint
10
59
20
0
30
0
39
0
210
0
220
0
230
1
50
360
0
POINT
5
FF
100
AcDbEntity
8
Defpoints
62
0
6
ByLayer
370
-1
48
1
60
0
100
AcDbPoint
10
59
20
-49.455516
30
0
39
0
210
0
220
0
230
1
50
360
0
ENDBLK
5
F6
100
AcDbEntity
8
0
100
AcDbBlockEnd
0
BLOCK
5
107
100
AcDbEntity
8
0
100
AcDbBlockBegin
2
_U0
70
0
10
0
20
0
30
0
3
_U0
0
MTEXT
5
101
100
AcDbEntity
8
SK2
62
256
6
ByLayer
370
18
48
1
60
0
100
AcDbMText
10
8.01763
20
-48.570402
30
0
210
0
220
0
230
1
1
\W0.7468;93.00
40
3
41
0
44
1.084337
50
0
71
7
72
5
7
iso_b_vert
0
LINE
5
102
100
AcDbEntity
8
SK2
62
256
6
ByLayer
370
13
48
1
60
0
100
AcDbLine
10
-34
20
-4.4875
30
0
11
-34
21
-51.455516
31
0
39
0
210
0
220
0
230
1
0
LINE
5
103
100
AcDbEntity
8
SK2
62
256
6
ByLayer
370
13
48
1
60
0
100
AcDbLine
10
59
20
-1.5875
30
0
11
59
21
-51.455516
31
0
39
0
210
0
220
0
230
1
0
LINE
5
104
100
AcDbEntity
8
SK2
62
256
6
ByLayer
370
13
48
1
60
0
100
AcDbLine
10
-34
20
-49.455516
30
0
11
59
21
-49.455516
31
0
39
0
210
0
220
0
230
1
0
SOLID
5
105
100
AcDbEntity
8
SK2
62
256
6
ByLayer
370
18
48
1
60
0
100
AcDbTrace
10
-34
20
-49.455516
30
0
11
-30.500002
21
-48.994732
31
0
12
-30.499998
22
-49.9163
32
0
13
-30.499998
23
-49.9163
33
0
39
0
210
0
220
0
230
1
0
SOLID
5
106
100
AcDbEntity
8
SK2
62
256
6
ByLayer
370
18
48
1
60
0
100
AcDbTrace
10
59
20
-49.455516
30
0
11
55.500002
21
-49.9163
31
0
12
55.499998
22
-48.994732
32
0
13
55.499998
23
-48.994732
33
0
39
0
210
0
220
0
230
1
0
ENDBLK
5
108
100
AcDbEntity
8
0
100
AcDbBlockEnd
0
BLOCK
5
10D
100
AcDbEntity
8
0
100
AcDbBlockBegin
2
*D3
70
1
10
0
20
0
30
0
3
*D3
0
LINE
5
10F
100
AcDbEntity
8
0
62
256
6
ByLayer
370
-2
48
1
60
0
100
AcDbLine
10
59
20
-1.5875
30
0
11
59
21
-41.455516
31
0
39
0
210
0
220
0
230
1
0
LINE
5
110
100
AcDbEntity
8
0
62
256
6
ByLayer
370
-2
48
1
60
0
100
AcDbLine
10
2
20
-4.4875
30
0
11
2
21
-41.455516
31
0
39
0
210
0
220
0
230
1
0
LINE
5
111
100
AcDbEntity
8
0
62
256
6
ByLayer
370
-2
48
1
60
0
100
AcDbLine
10
55.5
20
-39.455516
30
0
11
5.5
21
-39.455516
31
0
39
0
210
0
220
0
230
1
0
SOLID
5
112
100
AcDbEntity
8
0
62
256
6
ByLayer
370
-1
48
1
60
0
100
AcDbTrace
10
55.5
20
-40.038849
30
0
11
55.5
21
-38.872183
31
0
12
59
22
-39.455516
32
0
13
59
23
-39.455516
33
0
39
0
210
0
220
0
230
1
0
SOLID
5
113
100
AcDbEntity
8
0
62
256
6
ByLayer
370
-1
48
1
60
0
100
AcDbTrace
10
5.5
20
-38.872183
30
0
11
5.5
21
-40.038849
31
0
12
2
22
-39.455516
32
0
13
2
23
-39.455516
33
0
39
0
210
0
220
0
230
1
0
MTEXT
5
114
100
AcDbEntity
8
0
62
256
6
ByLayer
370
18
48
1
60
0
100
AcDbMText
10
30.5
20
-33.455516
30
0
210
0
220
0
230
1
1
\A1;57
40
3
41
0
44
1
50
0
71
5
72
5
7
iso_b_vert
0
POINT
5
115
100
AcDbEntity
8
Defpoints
62
0
6
ByLayer
370
-1
48
1
60
0
100
AcDbPoint
10
59
20
0
30
0
39
0
210
0
220
0
230
1
50
360
0
POINT
5
116
100
AcDbEntity
8
Defpoints
62
0
6
ByLayer
370
-1
48
1
60
0
100
AcDbPoint
10
2
20
-2.9
30
0
39
0
210
0
220
0
230
1
50
360
0
POINT
5
117
100
AcDbEntity
8
Defpoints
62
0
6
ByLayer
370
-1
48
1
60
0
100
AcDbPoint
10
2
20
-39.455516
30
0
39
0
210
0
220
0
230
1
50
360
0
ENDBLK
5
10E
100
AcDbEntity
8
0
100
AcDbBlockEnd
0
BLOCK
5
11F
100
AcDbEntity
8
0
100
AcDbBlockBegin
2
_U1
70
0
10
0
20
0
30
0
3
_U1
0
MTEXT
5
119
100
AcDbEntity
8
2
62
256
6
ByLayer
370
18
48
1
60
0
100
AcDbMText
10
26.01763
20
-38.570402
30
0
210
0
220
0
230
1
1
\W0.7468;57.00
40
3
41
0
44
1.084337
50
0
71
7
72
5
7
iso_b_vert
0
LINE
5
11A
100
AcDbEntity
8
2
62
256
6
ByLayer
370
13
48
1
60
0
100
AcDbLine
10
59
20
-1.5875
30
0
11
59
21
-41.455516
31
0
39
0
210
0
220
0
230
1
0
LINE
5
11B
100
AcDbEntity
8
2
62
256
6
ByLayer
370
13
48
1
60
0
100
AcDbLine
10
2
20
-4.4875
30
0
11
2
21
-41.455516
31
0
39
0
210
0
220
0
230
1
0
LINE
5
11C
100
AcDbEntity
8
2
62
256
6
ByLayer
370
13
48
1
60
0
100
AcDbLine
10
59
20
-39.455516
30
0
11
2
21
-39.455516
31
0
39
0
210
0
220
0
230
1
0
SOLID
5
11D
100
AcDbEntity
8
2
62
256
6
ByLayer
370
18
48
1
60
0
100
AcDbTrace
10
59
20
-39.455516
30
0
11
55.500002
21
-39.9163
31
0
12
55.499998
22
-38.994732
32
0
13
55.499998
23
-38.994732
33
0
39
0
210
0
220
0
230
1
0
SOLID
5
11E
100
AcDbEntity
8
2
62
256
6
ByLayer
370
18
48
1
60
0
100
AcDbTrace
10
2
20
-39.455516
30
0
11
5.499998
21
-38.994732
31
0
12
5.500002
22
-39.9163
32
0
13
5.500002
23
-39.9163
33
0
39
0
210
0
220
0
230
1
0
ENDBLK
5
120
100
AcDbEntity
8
0
100
AcDbBlockEnd
0
BLOCK
5
125
100
AcDbEntity
8
0
100
AcDbBlockBegin
2
*D5
70
1
10
0
20
0
30
0
3
*D5
0
LINE
5
127
100
AcDbEntity
8
0
62
256
6
ByLayer
370
-2
48
1
60
0
100
AcDbLine
10
-34
20
-4.4875
30
0
11
-34
21
-36.455516
31
0
39
0
210
0
220
0
230
1
0
LINE
5
128
100
AcDbEntity
8
0
62
256
6
ByLayer
370
-2
48
1
60
0
100
AcDbLine
10
0
20
-4.4875
30
0
11
0
21
-36.455516
31
0
39
0
210
0
220
0
230
1
0
LINE
5
129
100
AcDbEntity
8
0
62
256
6
ByLayer
370
-2
48
1
60
0
100
AcDbLine
10
-30.5
20
-34.455516
30
0
11
-3.5
21
-34.455516
31
0
39
0
210
0
220
0
230
1
0
SOLID
5
12A
100
AcDbEntity
8
0
62
256
6
ByLayer
370
-1
48
1
60
0
100
AcDbTrace
10
-30.5
20
-33.872183
30
0
11
-30.5
21
-35.038849
31
0
12
-34
22
-34.455516
32
0
13
-34
23
-34.455516
33
0
39
0
210
0
220
0
230
1
0
SOLID
5
12B
100
AcDbEntity
8
0
62
256
6
ByLayer
370
-1
48
1
60
0
100
AcDbTrace
10
-3.5
20
-35.038849
30
0
11
-3.5
21
-33.872183
31
0
12
0
22
-34.455516
32
0
13
0
23
-34.455516
33
0
39
0
210
0
220
0
230
1
0
MTEXT
5
12C
100
AcDbEntity
8
0
62
256
6
ByLayer
370
18
48
1
60
0
100
AcDbMText
10
-17
20
-28.455516
30
0
210
0
220
0
230
1
1
\A1;34
40
3
41
0
44
1
50
0
71
5
72
5
7
iso_b_vert
0
POINT
5
12D
100
AcDbEntity
8
Defpoints
62
0
6
ByLayer
370
-1
48
1
60
0
100
AcDbPoint
10
-34
20
-2.9
30
0
39
0
210
0
220
0
230
1
50
360
0
POINT
5
12E
100
AcDbEntity
8
Defpoints
62
0
6
ByLayer
370
-1
48
1
60
0
100
AcDbPoint
10
0
20
-2.9
30
0
39
0
210
0
220
0
230
1
50
360
0
POINT
5
12F
100
AcDbEntity
8
Defpoints
62
0
6
ByLayer
370
-1
48
1
60
0
100
AcDbPoint
10
0
20
-34.455516
30
0
39
0
210
0
220
0
230
1
50
360
0
ENDBLK
5
126
100
AcDbEntity
8
0
100
AcDbBlockEnd
0
BLOCK
5
137
100
AcDbEntity
8
0
100
AcDbBlockBegin
2
_U2
70
0
10
0
20
0
30
0
3
_U2
0
MTEXT
5
131
100
AcDbEntity
8
SK2
62
256
6
ByLayer
370
18
48
1
60
0
100
AcDbMText
10
-21.640313
20
-33.570402
30
0
210
0
220
0
230
1
1
\W0.7694;34.00
40
3
41
0
44
1.084337
50
0
71
7
72
5
7
iso_b_vert
0
LINE
5
132
100
AcDbEntity
8
SK2
62
256
6
ByLayer
370
13
48
1
60
0
100
AcDbLine
10
-34
20
-4.4875
30
0
11
-34
21
-36.455516
31
0
39
0
210
0
220
0
230
1
0
LINE
5
133
100
AcDbEntity
8
SK2
62
256
6
ByLayer
370
13
48
1
60
0
100
AcDbLine
10
0
20
-4.4875
30
0
11
0
21
-36.455516
31
0
39
0
210
0
220
0
230
1
0
LINE
5
134
100
AcDbEntity
8
SK2
62
256
6
ByLayer
370
13
48
1
60
0
100
AcDbLine
10
-34
20
-34.455516
30
0
11
0
21
-34.455516
31
0
39
0
210
0
220
0
230
1
0
SOLID
5
135
100
AcDbEntity
8
SK2
62
256
6
ByLayer
370
18
48
1
60
0
100
AcDbTrace
10
-34
20
-34.455516
30
0
11
-30.500002
21
-33.994732
31
0
12
-30.499998
22
-34.9163
32
0
13
-30.499998
23
-34.9163
33
0
39
0
210
0
220
0
230
1
0
SOLID
5
136
100
AcDbEntity
8
SK2
62
256
6
ByLayer
370
18
48
1
60
0
100
AcDbTrace
10
0
20
-34.455516
30
0
11
-3.499998
21
-34.9163
31
0
12
-3.500002
22
-33.994732
32
0
13
-3.500002
23
-33.994732
33
0
39
0
210
0
220
0
230
1
0
ENDBLK
5
138
100
AcDbEntity
8
0
100
AcDbBlockEnd
0
BLOCK
5
13D
100
AcDbEntity
8
0
100
AcDbBlockBegin
2
*D7
70
1
10
0
20
0
30
0
3
*D7
0
LINE
5
13F
100
AcDbEntity
8
0
62
256
6
ByLayer
370
-2
48
1
60
0
100
AcDbLine
10
59
20
-1.5875
30
0
11
59
21
-34.455516
31
0
39
0
210
0
220
0
230
1
0
LINE
5
140
100
AcDbEntity
8
0
62
256
6
ByLayer
370
-2
48
1
60
0
100
AcDbLine
10
16.25
20
-4.4875
30
0
11
16.25
21
-34.455516
31
0
39
0
210
0
220
0
230
1
0
LINE
5
141
100
AcDbEntity
8
0
62
256
6
ByLayer
370
-2
48
1
60
0
100
AcDbLine
10
55.5
20
-32.455516
30
0
11
19.75
21
-32.455516
31
0
39
0
210
0
220
0
230
1
0
SOLID
5
142
100
AcDbEntity
8
0
62
256
6
ByLayer
370
-1
48
1
60
0
100
AcDbTrace
10
55.5
20
-33.038849
30
0
11
55.5
21
-31.872183
31
0
12
59
22
-32.455516
32
0
13
59
23
-32.455516
33
0
39
0
210
0
220
0
230
1
0
SOLID
5
143
100
AcDbEntity
8
0
62
256
6
ByLayer
370
-1
48
1
60
0
100
AcDbTrace
10
19.75
20
-31.872183
30
0
11
19.75
21
-33.038849
31
0
12
16.25
22
-32.455516
32
0
13
16.25
23
-32.455516
33
0
39
0
210
0
220
0
230
1
0
MTEXT
5
144
100
AcDbEntity
8
0
62
256
6
ByLayer
370
18
48
1
60
0
100
AcDbMText
10
37.625
20
-26.455516
30
0
210
0
220
0
230
1
1
\A1;42.75
40
3
41
0
44
1
50
0
71
5
72
5
7
iso_b_vert
0
POINT
5
145
100
AcDbEntity
8
Defpoints
62
0
6
ByLayer
370
-1
48
1
60
0
100
AcDbPoint
10
59
20
0
30
0
39
0
210
0
220
0
230
1
50
360
0
POINT
5
146
100
AcDbEntity
8
Defpoints
62
0
6
ByLayer
370
-1
48
1
60
0
100
AcDbPoint
10
16.25
20
-2.9
30
0
39
0
210
0
220
0
230
1
50
360
0
POINT
5
147
100
AcDbEntity
8
Defpoints
62
0
6
ByLayer
370
-1
48
1
60
0
100
AcDbPoint
10
16.25
20
-32.455516
30
0
39
0
210
0
220
0
230
1
50
360
0
ENDBLK
5
13E
100
AcDbEntity
8
0
100
AcDbBlockEnd
0
BLOCK
5
14F
100
AcDbEntity
8
0
100
AcDbBlockBegin
2
_U3
70
0
10
0
20
0
30
0
3
_U3
0
MTEXT
5
149
100
AcDbEntity
8
2
62
256
6
ByLayer
370
18
48
1
60
0
100
AcDbMText
10
32.984687
20
-31.570402
30
0
210
0
220
0
230
1
1
\W0.7694;42.75
40
3
41
0
44
1.084337
50
0
71
7
72
5
7
iso_b_vert
0
LINE
5
14A
100
AcDbEntity
8
2
62
256
6
ByLayer
370
13
48
1
60
0
100
AcDbLine
10
59
20
-1.5875
30
0
11
59
21
-34.455516
31
0
39
0
210
0
220
0
230
1
0
LINE
5
14B
100
AcDbEntity
8
2
62
256
6
ByLayer
370
13
48
1
60
0
100
AcDbLine
10
16.25
20
-4.4875
30
0
11
16.25
21
-34.455516
31
0
39
0
210
0
220
0
230
1
0
LINE
5
14C
100
AcDbEntity
8
2
62
256
6
ByLayer
370
13
48
1
60
0
100
AcDbLine
10
59
20
-32.455516
30
0
11
16.25
21
-32.455516
31
0
39
0
210
0
220
0
230
1
0
SOLID
5
14D
100
AcDbEntity
8
2
62
256
6
ByLayer
370
18
48
1
60
0
100
AcDbTrace
10
59
20
-32.455516
30
0
11
55.500002
21
-32.9163
31
0
12
55.499998
22
-31.994732
32
0
13
55.499998
23
-31.994732
33
0
39
0
210
0
220
0
230
1
0
SOLID
5
14E
100
AcDbEntity
8
2
62
256
6
ByLayer
370
18
48
1
60
0
100
AcDbTrace
10
16.25
20
-32.455516
30
0
11
19.749998
21
-31.994732
31
0
12
19.750002
22
-32.9163
32
0
13
19.750002
23
-32.9163
33
0
39
0
210
0
220
0
230
1
0
ENDBLK
5
150
100
AcDbEntity
8
0
100
AcDbBlockEnd
0
ENDSEC
0
SECTION
2
ENTITIES
0
ARC
5
B9
100
AcDbEntity
8
2
62
256
6
ByLayer
370
13
48
1
60
0
100
AcDbCircle
39
0
10
59
20
0
30
0
40
21.9999999999999
210
0
220
0
230
1
100
AcDbArc
50
7.83748
51
61.596605
0
ARC
5
BA
100
AcDbEntity
8
2
62
256
6
ByLayer
370
13
48
1
60
0
100
AcDbCircle
39
0
10
59
20
0
30
0
40
21.9999999999999
210
0
220
0
230
1
100
AcDbArc
50
298.403395
51
352.16252
0
POINT
5
70
100
AcDbEntity
8
81
62
256
6
ByLayer
370
18
48
1
60
0
100
AcDbPoint
10
59
20
0
30
0
39
0
210
0
220
0
230
1
50
360
0
POINT
5
72
100
AcDbEntity
8
80
62
256
6
ByLayer
370
18
48
1
60
0
100
AcDbPoint
10
0
20
0
30
0
39
0
210
0
220
0
230
1
50
360
0
POINT
5
74
100
AcDbEntity
8
1
62
256
6
ByLayer
370
18
48
1
60
1
100
AcDbPoint
10
-34
20
-2.9
30
0
39
0
210
0
220
0
230
1
50
360
0
POINT
5
76
100
AcDbEntity
8
1
62
256
6
ByLayer
370
18
48
1
60
1
100
AcDbPoint
10
59
20
0
30
0
39
0
210
0
220
0
230
1
50
360
0
POINT
5
77
100
AcDbEntity
8
1
62
256
6
ByLayer
370
18
48
1
60
1
100
AcDbPoint
10
59
20
0
30
0
39
0
210
0
220
0
230
1
50
360
0
POINT
5
78
100
AcDbEntity
8
1
62
256
6
ByLayer
370
18
48
1
60
1
100
AcDbPoint
10
2
20
-2.9
30
0
39
0
210
0
220
0
230
1
50
360
0
POINT
5
79
100
AcDbEntity
8
1
62
256
6
ByLayer
370
18
48
1
60
1
100
AcDbPoint
10
-34
20
-2.9
30
0
39
0
210
0
220
0
230
1
50
360
0
POINT
5
7A
100
AcDbEntity
8
1
62
256
6
ByLayer
370
18
48
1
60
1
100
AcDbPoint
10
0
20
-2.9
30
0
39
0
210
0
220
0
230
1
50
360
0
POINT
5
7B
100
AcDbEntity
8
1
62
256
6
ByLayer
370
18
48
1
60
1
100
AcDbPoint
10
59
20
0
30
0
39
0
210
0
220
0
230
1
50
360
0
POINT
5
7C
100
AcDbEntity
8
1
62
256
6
ByLayer
370
18
48
1
60
1
100
AcDbPoint
10
16.25
20
-2.9
30
0
39
0
210
0
220
0
230
1
50
360
0
SPLINE
5
BB
100
AcDbEntity
8
CUT
62
256
6
ByLayer
370
18
48
1
60
0
100
AcDbSpline
70
2053
71
3
72
17
73
13
40
0
40
0
40
0
40
0
40
0.474403357365106
40
0.474403357365106
40
0.474403357365106
40
0.506413730476236
40
0.506413730476236
40
0.506413730476236
40
0.963414049334321
40
0.963414049334321
40
0.963414049334321
40
1
40
1
40
1
40
1
41
1
10
59
20
0
30
0
41
1
10
44.75
20
0
30
0
41
1
10
30.5
20
0
30
0
41
1
10
16.25
20
0
30
0
41
1
10
16.25
20
0.961518947445825
30
0
41
1
10
16.25
20
1.92303789489162
30
0
41
1
10
16.2499999999994
20
2.88455684233745
30
0
41
1
10
29.9772512614443
20
2.88970456156017
30
0
41
1
10
43.7045025228896
20
2.89485228078289
30
0
41
1
10
57.4317537843351
20
2.90000000000561
30
0
41
1
10
57.95450252289
20
1.93333333333706
30
0
41
1
10
58.477251261445
20
0.966666666668544
30
0
41
1
10
59
20
0
30
0
0
SPLINE
5
BD
100
AcDbEntity
8
NOCUT
62
256
6
ByLayer
370
18
48
1
60
0
100
AcDbSpline
70
2053
71
3
72
26
73
22
40
0
40
0
40
0
40
0
40
0.474088747932562
40
0.474088747932562
40
0.474088747932562
40
0.501303393538712
40
0.501303393538712
40
0.501303393538712
40
0.652728765465914
40
0.652728765465914
40
0.652728765465914
40
0.654626519020398
40
0.654626519020398
40
0.654626519020398
40
0.970685684308458
40
0.970685684308458
40
0.970685684308458
40
0.977356955323522
40
0.977356955323522
40
0.977356955323522
40
1
40
1
40
1
40
1
41
1
10
-34
20
0
30
0
41
1
10
-17.2500000000001
20
0
30
0
41
1
10
-0.500000000000256
20
0
30
0
41
1
10
16.2499999999998
20
0
30
0
41
1
10
16.25
20
0.961518947445825
30
0
41
1
10
16.25
20
1.92303789489162
30
0
41
1
10
16.25
20
2.88455684233745
30
0
41
1
10
10.8999999999999
20
2.88255059233757
30
0
41
1
10
5.54999999999981
20
2.88054434233769
30
0
41
1
10
0.200000000030684
20
2.87853809233451
30
0
41
1
10
0.133333333374452
20
2.88569206155412
30
0
41
1
10
0.0666666666872402
20
2.89284603077706
30
0
41
1
10
0
20
2.90000000000001
30
0
41
1
10
-11.1666666666667
20
2.90000000000001
30
0
41
1
10
-22.3333333333333
20
2.90000000000001
30
0
41
1
10
-33.5
20
2.90000000000001
30
0
41
1
10
-33.6666666666667
20
2.73333333333332
30
0
41
1
10
-33.8333333333333
20
2.56666666666666
30
0
41
1
10
-34
20
2.40000000000001
30
0
41
1
10
-34
20
1.59999999999999
30
0
41
1
10
-34
20
0.800000000000011
30
0
41
1
10
-34
20
0
30
0
0
SPLINE
5
BF
100
AcDbEntity
8
1
62
256
6
ByLayer
370
18
48
1
60
0
100
AcDbSpline
70
4
71
3
72
104
73
100
40
0
40
0
40
0
40
0
40
0.0312500000000105
40
0.0312500000000105
40
0.0625000000000211
40
0.0625000000000211
40
0.0937500000000316
40
0.0937500000000316
40
0.125000000000042
40
0.125000000000042
40
0.187500000000066
40
0.187500000000066
40
0.25000000000009
40
0.25000000000009
40
0.265625000000095
40
0.265625000000095
40
0.273437500000096
40
0.273437500000096
40
0.281250000000097
40
0.281250000000097
40
0.289062500000097
40
0.289062500000097
40
0.296875000000098
40
0.296875000000098
40
0.304687500000099
40
0.304687500000099
40
0.3125000000001
40
0.3125000000001
40
0.320312500000101
40
0.320312500000101
40
0.328125000000101
40
0.328125000000101
40
0.3437500000001
40
0.3437500000001
40
0.359375000000098
40
0.359375000000098
40
0.375000000000097
40
0.375000000000097
40
0.406250000000094
40
0.406250000000094
40
0.43750000000009
40
0.43750000000009
40
0.453125000000089
40
0.453125000000089
40
0.460937500000088
40
0.460937500000088
40
0.468750000000087
40
0.468750000000087
40
0.484375000000084
40
0.484375000000084
40
0.492187500000082
40
0.492187500000082
40
0.50000000000008
40
0.50000000000008
40
0.515625000000077
40
0.515625000000077
40
0.523437500000076
40
0.523437500000076
40
0.531250000000074
40
0.531250000000074
40
0.546875000000071
40
0.546875000000071
40
0.562500000000068
40
0.562500000000068
40
0.578125000000064
40
0.578125000000064
40
0.593750000000061
40
0.593750000000061
40
0.609375000000058
40
0.609375000000058
40
0.625000000000055
40
0.625000000000055
40
0.656250000000048
40
0.656250000000048
40
0.671875000000043
40
0.671875000000043
40
0.687500000000038
40
0.687500000000038
40
0.703125000000033
40
0.703125000000033
40
0.718750000000028
40
0.718750000000028
40
0.734375000000023
40
0.734375000000023
40
0.742187500000022
40
0.742187500000022
40
0.750000000000021
40
0.750000000000021
40
0.781250000000018
40
0.781250000000018
40
0.812500000000015
40
0.812500000000015
40
0.875000000000011
40
0.875000000000011
40
0.937500000000007
40
0.937500000000007
40
0.968750000000004
40
0.968750000000004
40
1
40
1
40
1
40
1
41
1
10
57.4317537843351
20
2.80781903102661
30
0
41
1
10
57.4616612508218
20
2.75080806579783
30
0
41
1
10
57.4916122266865
20
2.69385733119378
30
0
41
1
10
57.5514669800137
20
2.57994630971851
30
0
41
1
10
57.5813795219873
20
2.52299475239056
30
0
41
1
10
57.6411449150645
20
2.40907513379759
30
0
41
1
10
57.6709982658238
20
2.35210747843638
30
0
41
1
10
57.7306035600963
20
2.23812429851435
30
0
41
1
10
57.760357550205
20
2.18111069550122
30
0
41
1
10
57.8494479372889
20
2.00999374804343
30
0
41
1
10
57.9086114681046
20
1.89581000510063
30
0
41
1
10
58.0260688784726
20
1.66699158425089
30
0
41
1
10
58.0843426728646
20
1.55234290336435
30
0
41
1
10
58.1565291894247
20
1.40875811857143
30
0
41
1
10
58.1709279791996
20
1.38003031718637
30
0
41
1
10
58.1924302964658
20
1.33685617380487
30
0
41
1
10
58.1995821634751
20
1.32245035779997
30
0
41
1
10
58.2138717059444
20
1.2936790690155
30
0
41
1
10
58.2210083984365
20
1.27931088507154
30
0
41
1
10
58.2353195569358
20
1.25079193785228
30
0
41
1
10
58.2424938637544
20
1.2366404247939
30
0
41
1
10
58.2569461010367
20
1.208747273559
30
0
41
1
10
58.2642247554205
20
1.19500716019348
30
0
41
1
10
58.27893631355
20
1.16806128225653
30
0
41
1
10
58.2863784599817
20
1.15488447661576
30
0
41
1
10
58.3013828221797
20
1.12892365478279
30
0
41
1
10
58.3089371606904
20
1.11611472765404
30
0
41
1
10
58.3240592627996
20
1.09054226102523
30
0
41
1
10
58.3316268100872
20
1.07777822165414
30
0
41
1
10
58.3467009876392
20
1.05206288825048
30
0
41
1
10
58.3542104104022
20
1.03912086833048
30
0
41
1
10
58.3766746874409
20
1.00011199963424
30
0
41
1
10
58.3915711643157
20
0.973880360331975
30
0
41
1
10
58.4212677608113
20
0.921209168559216
30
0
41
1
10
58.4360614462452
20
0.894747319891451
30
0
41
1
10
58.4654662295975
20
0.841427841177762
30
0
41
1
10
58.4800904603951
20
0.814554639233393
30
0
41
1
10
58.5234902450216
20
0.73346128878498
30
0
41
1
10
58.5518408749081
20
0.678792618549636
30
0
41
1
10
58.6064537082946
20
0.567752597738263
30
0
41
1
10
58.6327530498702
20
0.511389789699365
30
0
41
1
10
58.6688201809467
20
0.424579398745124
30
0
41
1
10
58.6802533394571
20
0.395248250295509
30
0
41
1
10
58.6961342445645
20
0.350496596149611
30
0
41
1
10
58.7012245629151
20
0.335424100420738
30
0
41
1
10
58.7108469007109
20
0.305176068643504
30
0
41
1
10
58.7153799416202
20
0.290000386776626
30
0
41
1
10
58.7280048101406
20
0.244287968252252
30
0
41
1
10
58.7351420547834
20
0.213568219165353
30
0
41
1
10
58.7432272897182
20
0.166977450572915
30
0
41
1
10
58.745472217507
20
0.151360432580986
30
0
41
1
10
58.7488255399803
20
0.119914298508235
30
0
41
1
10
58.7499271074509
20
0.104000572563962
30
0
41
1
10
58.7510733899547
20
0.0569579784446717
30
0
41
1
10
58.7489852340103
20
0.0263177108465129
30
0
41
1
10
58.7423019385556
20
-0.0187657869714144
30
0
41
1
10
58.7394970888814
20
-0.0336526652454836
30
0
41
1
10
58.7329117013011
20
-0.0631914762885515
30
0
41
1
10
58.7291229567418
20
-0.0778799727700061
30
0
41
1
10
58.7166993495383
20
-0.121067153315721
30
0
41
1
10
58.7070097008834
20
-0.148927844464197
30
0
41
1
10
58.6854534648053
20
-0.202666236386136
30
0
41
1
10
58.6735728293895
20
-0.228513719753209
30
0
41
1
10
58.6482995284178
20
-0.278442441418463
30
0
41
1
10
58.6348735134939
20
-0.302624168669752
30
0
41
1
10
58.6073337965814
20
-0.349102817839594
30
0
41
1
10
58.5932004861565
20
-0.371428705049482
30
0
41
1
10
58.5643606457269
20
-0.414068256503782
30
0
41
1
10
58.5496163219028
20
-0.434479158448255
30
0
41
1
10
58.5200513822724
20
-0.473133060378586
30
0
41
1
10
58.5052091525108
20
-0.491419802206337
30
0
41
1
10
58.4605856118894
20
-0.543328106962576
30
0
41
1
10
58.4307130489664
20
-0.57389462944181
30
0
41
1
10
58.385770215904
20
-0.61455633687072
30
0
41
1
10
58.3707167382876
20
-0.627282372764682
30
0
41
1
10
58.3408729492084
20
-0.650821348210485
30
0
41
1
10
58.3260643286525
20
-0.661656112900261
30
0
41
1
10
58.2966421992345
20
-0.681529652946921
30
0
41
1
10
58.2820280575503
20
-0.690571982635873
30
0
41
1
10
58.2529477759473
20
-0.70704731931599
30
0
41
1
10
58.2384779479574
20
-0.714515628401671
30
0
41
1
10
58.2096842279811
20
-0.727637134171886
30
0
41
1
10
58.1953594708005
20
-0.73327924870452
30
0
41
1
10
58.1738604262591
20
-0.741372520101834
30
0
41
1
10
58.166690451479
20
-0.744027184927546
30
0
41
1
10
58.1523190501902
20
-0.749505845226452
30
0
41
1
10
58.1451189956385
20
-0.752317543177185
30
0
41
1
10
58.1090479146382
20
-0.766795721747826
30
0
41
1
10
58.0799595772015
20
-0.779826124186258
30
0
41
1
10
58.0215572841465
20
-0.807426486240331
30
0
41
1
10
57.9922304218096
20
-0.822032196152918
30
0
41
1
10
57.9040171962041
20
-0.868315834154714
30
0
41
1
10
57.8450588205712
20
-0.902504658289445
30
0
41
1
10
57.7270800101301
20
-0.980776324514864
30
0
41
1
10
57.6680597591936
20
-1.02504078607191
30
0
41
1
10
57.5794999077901
20
-1.09977508499011
30
0
41
1
10
57.5499732482712
20
-1.12606338390327
30
0
41
1
10
57.4908914818054
20
-1.18142879220341
30
0
41
1
10
57.4613363575872
20
-1.21051763656436
30
0
41
1
10
57.4317537843351
20
-1.24112149102365
30
0
0
SPLINE
5
C0
100
AcDbEntity
8
1
62
256
6
ByLayer
370
18
48
1
60
0
100
AcDbSpline
70
4
71
3
72
60
73
56
40
0
40
0
40
0
40
0
40
0.0012832950894844
40
0.018013563662628
40
0.0347438322357715
40
0.0682043693820584
40
0.101664906528346
40
0.135125443674632
40
0.168585980820919
40
0.202046517967206
40
0.21877678654035
40
0.227141920826922
40
0.235507055113494
40
0.243872189400065
40
0.252237323686637
40
0.260602457973209
40
0.264785025116495
40
0.26896759225978
40
0.277332726546352
40
0.285697860832924
40
0.294062995119496
40
0.302428129406067
40
0.319158397979211
40
0.335888666552355
40
0.369349203698641
40
0.402809740844928
40
0.436270277991215
40
0.469730815137502
40
0.486461083710646
40
0.50319135228379
40
0.519921620856933
40
0.536651889430076
40
0.55338215800322
40
0.570112426576364
40
0.586842695149507
40
0.603572963722651
40
0.637033500868938
40
0.653763769442081
40
0.670494038015224
40
0.687224306588368
40
0.703954575161512
40
0.720684843734655
40
0.737415112307799
40
0.754145380880942
40
0.762510515167514
40
0.770875649454085
40
0.779240783740657
40
0.787605918027229
40
0.795971052313801
40
0.804336186600373
40
0.821066455173516
40
0.837796723746659
40
0.904717798039233
40
0.971638872331807
40
1
40
1
40
1
40
1
41
1
10
11.5996378149304
20
1.75342757702282
30
0
41
1
10
11.5985705545173
20
1.75216043055386
30
0
41
1
10
11.5835651397787
20
1.73436928439674
30
0
41
1
10
11.5537750099899
20
1.69990797841498
30
0
41
1
10
11.4916043763289
20
1.6327368947274
30
0
41
1
10
11.4038819469855
20
1.54710924673816
30
0
41
1
10
11.2793599237866
20
1.4410808509212
30
0
41
1
10
11.1355056910278
20
1.33189708231015
30
0
41
1
10
10.9714324085351
20
1.2191368288149
30
0
41
1
10
10.8180621687729
20
1.12270819228343
30
0
41
1
10
10.7053059724545
20
1.05571669983567
30
0
41
1
10
10.6387617403755
20
1.01746113274089
30
0
41
1
10
10.5883998343213
20
0.988738060453585
30
0
41
1
10
10.539213394616
20
0.959927159632429
30
0
41
1
10
10.4935665569147
20
0.931132868457439
30
0
41
1
10
10.4604016531423
20
0.907270694815907
30
0
41
1
10
10.4342222285092
20
0.888195000586563
30
0
41
1
10
10.4074604367212
20
0.869081103909821
30
0
41
1
10
10.3717082849824
20
0.845036853483634
30
0
41
1
10
10.3262178368157
20
0.81606909874472
30
0
41
1
10
10.2789996672611
20
0.787108660413281
30
0
41
1
10
10.2140509589938
20
0.748659462411922
30
0
41
1
10
10.1294666897404
20
0.701230924702912
30
0
41
1
10
9.9872635434765
20
0.626417444303456
30
0
41
1
10
9.79774358261324
20
0.534284641255198
30
0
41
1
10
9.56179857388892
20
0.429136219086843
30
0
41
1
10
9.32162988356373
20
0.330191170082543
30
0
41
1
10
9.11669118410734
20
0.250731812443036
30
0
41
1
10
8.95221508886863
20
0.189403396471221
30
0
41
1
10
8.82899390526762
20
0.144914784421275
30
0
41
1
10
8.7062613086614
20
0.102430001777719
30
0
41
1
10
8.58387666806195
20
0.0617823439291101
30
0
41
1
10
8.46174510897902
20
0.0226971416454944
30
0
41
1
10
8.33983832744173
20
-0.0150206115654612
30
0
41
1
10
8.21804198128882
20
-0.0513978482705681
30
0
41
1
10
8.05662283827047
20
-0.097358468505405
30
0
41
1
10
7.89814692501406
20
-0.138713029802943
30
0
41
1
10
7.74465115686499
20
-0.174869938221065
30
0
41
1
10
7.63143385800748
20
-0.199005732991509
30
0
41
1
10
7.52154428734792
20
-0.219593976809478
30
0
41
1
10
7.41711394617178
20
-0.235942975659242
30
0
41
1
10
7.31906820425456
20
-0.247400013389807
30
0
41
1
10
7.2277745972664
20
-0.25354583209409
30
0
41
1
10
7.1588996146854
20
-0.253730506167642
30
0
41
1
10
7.10950743277047
20
-0.250585908888297
30
0
41
1
10
7.07533936991234
20
-0.24659117014221
30
0
41
1
10
7.04403531018011
20
-0.240983624360354
30
0
41
1
10
7.01649035689081
20
-0.23344886737874
30
0
41
1
10
6.99101594471753
20
-0.224915278005398
30
0
41
1
10
6.95505206809997
20
-0.214518074895324
30
0
41
1
10
6.90600125337187
20
-0.203565706270893
30
0
41
1
10
6.78159605883536
20
-0.180831433234658
30
0
41
1
10
6.57614010525279
20
-0.157337320559264
30
0
41
1
10
6.31851078791971
20
-0.152164655596778
30
0
41
1
10
6.15810783921893
20
-0.154973485233143
30
0
41
1
10
6.10957370225645
20
-0.156295958555773
30
0
0
SPLINE
5
C1
100
AcDbEntity
8
1
62
256
6
ByLayer
370
18
48
1
60
0
100
AcDbSpline
70
4
71
3
72
64
73
60
40
0
40
0
40
0
40
0
40
0.0380488559866313
40
0.0380488559866313
40
0.0760977119732625
40
0.0760977119732625
40
0.114146567959894
40
0.114146567959894
40
0.152195423946525
40
0.152195423946525
40
0.190244279933156
40
0.190244279933156
40
0.228293135919788
40
0.228293135919788
40
0.266341991906419
40
0.266341991906419
40
0.30439084789305
40
0.30439084789305
40
0.342439703879681
40
0.342439703879681
40
0.361464131872995
40
0.361464131872995
40
0.38048855986631
40
0.38048855986631
40
0.418537415852938
40
0.418537415852938
40
0.456586271839566
40
0.456586271839566
40
0.494635127826195
40
0.494635127826195
40
0.532683983812823
40
0.532683983812823
40
0.570732839799451
40
0.570732839799451
40
0.60878169578608
40
0.60878169578608
40
0.646830551772708
40
0.646830551772708
40
0.684879407759336
40
0.684879407759336
40
0.703903835752649
40
0.703903835752649
40
0.722928263745961
40
0.722928263745961
40
0.76097711973259
40
0.76097711973259
40
0.799025975719218
40
0.799025975719218
40
0.837074831705846
40
0.837074831705846
40
0.875123687692475
40
0.875123687692475
40
0.913172543679103
40
0.913172543679103
40
0.951221399665731
40
0.951221399665731
40
0.989270255652359
40
0.989270255652359
40
1
40
1
40
1
40
1
41
1
10
57.4317537843354
20
-1.24112149102385
30
0
41
1
10
57.2968852991561
20
-1.17364136621498
30
0
41
1
10
57.1625228339137
20
-1.10498137688253
30
0
41
1
10
56.8945064762281
20
-0.965845387727427
30
0
41
1
10
56.7607800615478
20
-0.895498990093159
30
0
41
1
10
56.493622734656
20
-0.75374164700392
30
0
41
1
10
56.3602552434258
20
-0.68221735045023
30
0
41
1
10
56.0940275852128
20
-0.537724617462203
30
0
41
1
10
55.9611267207329
20
-0.464828531276879
30
0
41
1
10
55.695187889477
20
-0.318765154045792
30
0
41
1
10
55.5621644371812
20
-0.245572955369028
30
0
41
1
10
55.2961826337392
20
-0.0985515961208989
30
0
41
1
10
55.163268020653
20
-0.0246406539226598
30
0
41
1
10
54.8971314331401
20
0.123138699947418
30
0
41
1
10
54.7638395507999
20
0.196876787164939
30
0
41
1
10
54.4967536324733
20
0.343946773835853
30
0
41
1
10
54.3630288206719
20
0.417407830983109
30
0
41
1
10
54.0951189351472
20
0.564012735214305
30
0
41
1
10
53.9608740538076
20
0.637045127248342
30
0
41
1
10
53.7587180318794
20
0.745525064752854
30
0
41
1
10
53.6912671588017
20
0.781501828449819
30
0
41
1
10
53.5566874107371
20
0.852897943220313
30
0
41
1
10
53.4894979487067
20
0.888353496389584
30
0
41
1
10
53.2882633485982
20
0.994056088193133
30
0
41
1
10
53.1545405829869
20
1.06361195729994
30
0
41
1
10
52.8874280301297
20
1.19998725027216
30
0
41
1
10
52.753991788837
20
1.26673537142932
30
0
41
1
10
52.4874777763088
20
1.39760363355424
30
0
41
1
10
52.3544630712265
20
1.46182192343616
30
0
41
1
10
52.0886126062925
20
1.58732057570634
30
0
41
1
10
51.9557048867119
20
1.64848864492049
30
0
41
1
10
51.6896602957595
20
1.76729111296552
30
0
41
1
10
51.5565867232481
20
1.82502450975167
30
0
41
1
10
51.2904290739716
20
1.93725601715596
30
0
41
1
10
51.1573048021647
20
1.99168869163665
30
0
41
1
10
50.8904048235583
20
2.09640734417016
30
0
41
1
10
50.7566422004916
20
2.14672075986448
30
0
41
1
10
50.4886590243215
20
2.24344064818854
30
0
41
1
10
50.3544818896
20
2.28989205996498
30
0
41
1
10
50.1525813137155
20
2.35622108330708
30
0
41
1
10
50.0851282136494
20
2.37777600803611
30
0
41
1
10
49.9504888034466
20
2.4195318129824
30
0
41
1
10
49.8832471387683
20
2.43976183195807
30
0
41
1
10
49.6817803631688
20
2.49855874934039
30
0
41
1
10
49.5478560572279
20
2.53527552232657
30
0
41
1
10
49.2806735687277
20
2.60366912094344
30
0
41
1
10
49.1473559278894
20
2.63528600965003
30
0
41
1
10
48.8808107329529
20
2.69308718842837
30
0
41
1
10
48.7476313275483
20
2.71932137675773
30
0
41
1
10
48.4816465738829
20
2.76659161666089
30
0
41
1
10
48.3488285062995
20
2.78760376997212
30
0
41
1
10
48.0830092251644
20
2.82409858135938
30
0
41
1
10
47.9499609166709
20
2.83957441649133
30
0
41
1
10
47.6837078863308
20
2.86505379686852
30
0
41
1
10
47.550565724123
20
2.8750680948834
30
0
41
1
10
47.2839511371366
20
2.88948252072888
30
0
41
1
10
47.1504071152832
20
2.89386998304536
30
0
41
1
10
46.9787279907304
20
2.89585520687962
30
0
41
1
10
46.9409396105075
20
2.8960670422382
30
0
41
1
10
46.9031276638604
20
2.89605257420035
30
0
0
SPLINE
5
C2
100
AcDbEntity
8
1
62
256
6
ByLayer
370
18
48
1
60
0
100
AcDbSpline
70
4
71
3
72
124
73
120
40
0
40
0
40
0
40
0
40
0.0040793131887637
40
0.0040793131887637
40
0.0231414556314691
40
0.0231414556314691
40
0.0422035980741744
40
0.0422035980741744
40
0.0612657405168796
40
0.0612657405168796
40
0.0803278829595849
40
0.0803278829595849
40
0.0993900254022902
40
0.0993900254022902
40
0.118452167844996
40
0.118452167844996
40
0.137514310287701
40
0.137514310287701
40
0.156576452730406
40
0.156576452730406
40
0.166107523951758
40
0.166107523951758
40
0.17563859517311
40
0.17563859517311
40
0.194700737615813
40
0.194700737615813
40
0.213762880058517
40
0.213762880058517
40
0.232825022501221
40
0.232825022501221
40
0.251887164943925
40
0.251887164943925
40
0.270949307386628
40
0.270949307386628
40
0.290011449829332
40
0.290011449829332
40
0.309073592272036
40
0.309073592272036
40
0.32813573471474
40
0.32813573471474
40
0.337666805936091
40
0.337666805936091
40
0.347197877157443
40
0.347197877157443
40
0.366260019600146
40
0.366260019600146
40
0.385322162042849
40
0.385322162042849
40
0.404384304485552
40
0.404384304485552
40
0.423446446928255
40
0.423446446928255
40
0.442508589370958
40
0.442508589370958
40
0.46157073181366
40
0.46157073181366
40
0.480632874256364
40
0.480632874256364
40
0.499695016699067
40
0.499695016699067
40
0.509226087920418
40
0.509226087920418
40
0.51875715914177
40
0.51875715914177
40
0.537819301584473
40
0.537819301584473
40
0.556881444027175
40
0.556881444027175
40
0.575943586469879
40
0.575943586469879
40
0.595005728912582
40
0.595005728912582
40
0.614067871355285
40
0.614067871355285
40
0.633130013797987
40
0.633130013797987
40
0.65219215624069
40
0.65219215624069
40
0.671254298683393
40
0.671254298683393
40
0.680785369904745
40
0.680785369904745
40
0.690316441126096
40
0.690316441126096
40
0.709378583568798
40
0.709378583568798
40
0.728440726011501
40
0.728440726011501
40
0.747502868454203
40
0.747502868454203
40
0.766565010896905
40
0.766565010896905
40
0.785627153339607
40
0.785627153339607
40
0.804689295782309
40
0.804689295782309
40
0.823751438225012
40
0.823751438225012
40
0.842813580667714
40
0.842813580667714
40
0.852344651889064
40
0.852344651889064
40
0.861875723110415
40
0.861875723110415
40
0.880937865553116
40
0.880937865553116
40
0.900000007995817
40
0.900000007995817
40
0.919062150438517
40
0.919062150438517
40
0.938124292881218
40
0.938124292881218
40
0.957186435323919
40
0.957186435323919
40
0.97624857776662
40
0.97624857776662
40
0.995310720209321
40
0.995310720209321
40
1
40
1
40
1
40
1
41
1
10
35.0723614859674
20
-1.84334222427185
30
0
41
1
10
35.0436339676826
20
-1.85558383292525
30
0
41
1
10
35.0149253012688
20
-1.86773981081211
30
0
41
1
10
34.8521679119463
20
-1.93620908326213
30
0
41
1
10
34.7184376571264
20
-1.99062605892792
30
0
41
1
10
34.4512029809194
20
-2.09496864569544
30
0
41
1
10
34.3177488372854
20
-2.14497380963837
30
0
41
1
10
34.0513481346529
20
-2.24090394587066
30
0
41
1
10
33.9183848188468
20
-2.28679442654717
30
0
41
1
10
33.6523987941848
20
-2.37382427802299
30
0
41
1
10
33.5193341365061
20
-2.41493075458837
30
0
41
1
10
33.2531940059917
20
-2.4924955820737
30
0
41
1
10
33.1201803541212
20
-2.52900558413387
30
0
41
1
10
32.8539450966023
20
-2.59712541300109
30
0
41
1
10
32.7206510411231
20
-2.62867430666759
30
0
41
1
10
32.4534637767123
20
-2.68656174889051
30
0
41
1
10
32.3196353909302
20
-2.71295491702034
30
0
41
1
10
32.0515773077163
20
-2.76059370332589
30
0
41
1
10
31.9173042572365
20
-2.78179924207637
30
0
41
1
10
31.71510893488
20
-2.80940967005131
30
0
41
1
10
31.6475960747468
20
-2.81791586591794
30
0
41
1
10
31.5128962681401
20
-2.83348409973976
30
0
41
1
10
31.445639366004
20
-2.84055616411601
30
0
41
1
10
31.244187931574
20
-2.85966309348771
30
0
41
1
10
31.110343819982
20
-2.86958869932229
30
0
41
1
10
30.8430829167693
20
-2.88373061274692
30
0
41
1
10
30.7095975846134
20
-2.88794616869203
30
0
41
1
10
30.442900271372
20
-2.89076974936432
30
0
41
1
10
30.3097571715802
20
-2.8893774200412
30
0
41
1
10
30.0437539068275
20
-2.88096510723887
30
0
41
1
10
29.9108326787633
20
-2.87394434636752
30
0
41
1
10
29.6447155792604
20
-2.85439852291211
30
0
41
1
10
29.5115702888721
20
-2.84187555542093
30
0
41
1
10
29.2452901134741
20
-2.81123362172176
30
0
41
1
10
29.1121379988112
20
-2.79310429690898
30
0
41
1
10
28.8452713163061
20
-2.75142651626083
30
0
41
1
10
28.7115151892571
20
-2.7279160475361
30
0
41
1
10
28.4434867401806
20
-2.67544940941994
30
0
41
1
10
28.30927531232
20
-2.64644100126452
30
0
41
1
10
28.1074102834613
20
-2.59884724884054
30
0
41
1
10
28.0399555579687
20
-2.5822901564178
30
0
41
1
10
27.9051501465876
20
-2.54798403271855
30
0
41
1
10
27.8378229020095
20
-2.53024186930375
30
0
41
1
10
27.6360882829975
20
-2.47525012974916
30
0
41
1
10
27.5019485144932
20
-2.43621831188813
30
0
41
1
10
27.2344201312505
20
-2.35338641556984
30
0
41
1
10
27.100987003683
20
-2.3096233647457
30
0
41
1
10
26.8342270674958
20
-2.21807712367377
30
0
41
1
10
26.7009245160702
20
-2.17027776387536
30
0
41
1
10
26.4346531642689
20
-2.07043712461169
30
0
41
1
10
26.3017189468167
20
-2.01834161982629
30
0
41
1
10
26.0357715170046
20
-1.91041390541338
30
0
41
1
10
25.9026907808785
20
-1.85468079827842
30
0
41
1
10
25.636306522555
20
-1.73971519314333
30
0
41
1
10
25.5030718261398
20
-1.68038089338651
30
0
41
1
10
25.2363843863605
20
-1.55814836018038
30
0
41
1
10
25.102869476454
20
-1.49534131017117
30
0
41
1
10
24.8350604767061
20
-1.36703504514963
30
0
41
1
10
24.7008186451379
20
-1.30146015549087
30
0
41
1
10
24.4990768775681
20
-1.20069401499063
30
0
41
1
10
24.4317593970042
20
-1.16671514984674
30
0
41
1
10
24.2969237019697
20
-1.09807130061202
30
0
41
1
10
24.2295298694996
20
-1.06346955732715
30
0
41
1
10
24.0276812569639
20
-0.95922930082088
30
0
41
1
10
23.8933742089839
20
-0.889127575726945
30
0
41
1
10
23.6254076967262
20
-0.747475878526103
30
0
41
1
10
23.4918089656544
20
-0.675814366413732
30
0
41
1
10
23.2250296853632
20
-0.531462763256286
30
0
41
1
10
23.0917756407937
20
-0.458907622109678
30
0
41
1
10
22.8253283860979
20
-0.313429387268627
30
0
41
1
10
22.6922007472388
20
-0.240385886504726
30
0
41
1
10
22.4261895371343
20
-0.0935927764071209
30
0
41
1
10
22.2932608411198
20
-0.0199258664030708
30
0
41
1
10
22.0270097250882
20
0.126934876034426
30
0
41
1
10
21.8937124167286
20
0.200174465598536
30
0
41
1
10
21.6269541820683
20
0.346607181197015
30
0
41
1
10
21.4935271245691
20
0.419864026416633
30
0
41
1
10
21.2260851936085
20
0.565546205899579
30
0
41
1
10
21.0920033240286
20
0.637845951784442
30
0
41
1
10
20.8903337467235
20
0.745474257464025
30
0
41
1
10
20.8230253355592
20
0.781224564846497
30
0
41
1
10
20.6882643834432
20
0.852523800505395
30
0
41
1
10
20.6207570526329
20
0.888095112758663
30
0
41
1
10
20.4187128475186
20
0.993913717590459
30
0
41
1
10
20.2844186065083
20
1.06333243562358
30
0
41
1
10
20.0162122064863
20
1.19924079991512
30
0
41
1
10
19.8823530165785
20
1.26583256615055
30
0
41
1
10
19.6152901669534
20
1.39660255658376
30
0
41
1
10
19.4820634580762
20
1.46073162528336
30
0
41
1
10
19.2156724035925
20
1.58561367487607
30
0
41
1
10
19.0824761185997
20
1.6463263151945
30
0
41
1
10
18.8162295838255
20
1.76455366678553
30
0
41
1
10
18.6832385161816
20
1.82214955878649
30
0
41
1
10
18.4171692486439
20
1.93376363673244
30
0
41
1
10
18.2840182717405
20
1.98768154884149
30
0
41
1
10
18.0172814514474
20
2.09148094156657
30
0
41
1
10
17.8837615867689
20
2.14145322956003
30
0
41
1
10
17.616461414146
20
2.2375390884396
30
0
41
1
10
17.482634118643
20
2.28358578285088
30
0
41
1
10
17.281214147485
20
2.34915021181845
30
0
41
1
10
17.2139692389339
20
2.3704319001171
30
0
41
1
10
17.0792860547796
20
2.41186373062817
30
0
41
1
10
17.011808652203
20
2.43202525471952
30
0
41
1
10
16.8093840534308
20
2.49076316359179
30
0
41
1
10
16.6749627316805
20
2.52746571599346
30
0
41
1
10
16.4066770519563
20
2.59554238485262
30
0
41
1
10
16.2727468989556
20
2.6268714457992
30
0
41
1
10
16.0053259959864
20
2.68424341231628
30
0
41
1
10
15.8719041539461
20
2.710332243035
30
0
41
1
10
15.605465713611
20
2.75719359548378
30
0
41
1
10
15.4723843872004
20
2.77792238386272
30
0
41
1
10
15.2060965062427
20
2.81383534339611
30
0
41
1
10
15.0729445621089
20
2.82905749834268
30
0
41
1
10
14.8067951361873
20
2.85407467818195
30
0
41
1
10
14.6737731370148
20
2.86384546994313
30
0
41
1
10
14.4072915895499
20
2.87775401665749
30
0
41
1
10
14.2738018398171
20
2.88190253319772
30
0
41
1
10
14.1072558617172
20
2.883578132776
30
0
41
1
10
14.0743674068076
20
2.88373867681918
30
0
41
1
10
14.0414691741579
20
2.88372816777462
30
0
0
SPLINE
5
C3
100
AcDbEntity
8
1
62
256
6
ByLayer
370
18
48
1
60
0
100
AcDbSpline
70
4
71
3
72
29
73
25
40
0
40
0
40
0
40
0
40
0.0090438381737833
40
0.0090438381737833
40
0.176519962412898
40
0.176519962412898
40
0.343996086652013
40
0.343996086652013
40
0.42773414877157
40
0.42773414877157
40
0.511472210891127
40
0.595210273010685
40
0.595210273010685
40
0.637079304070464
40
0.637079304070464
40
0.678948335130242
40
0.678948335130242
40
0.762686397249799
40
0.762686397249799
40
0.846424459369357
40
0.846424459369357
40
0.930162521488914
40
0.930162521488914
40
1
40
1
40
1
40
1
41
1
10
6.07229653443963
20
-2.88069180890875
30
0
41
1
10
6.06330515404113
20
-2.88067540704913
30
0
41
1
10
6.05431146117371
20
-2.88065658645291
30
0
41
1
10
5.87872857828472
20
-2.88024596069343
30
0
41
1
10
5.71127439567704
20
-2.87911686829375
30
0
41
1
10
5.37478401490426
20
-2.87694652125396
30
0
41
1
10
5.20573153723277
20
-2.87590790616807
30
0
41
1
10
4.95118044233851
20
-2.87486796625888
30
0
41
1
10
4.86617166259481
20
-2.87459879041316
30
0
41
1
10
4.69588180214083
20
-2.87422283802931
30
0
41
1
10
4.52532273729369
20
-2.87400659388405
30
0
41
1
10
4.35421636369097
20
-2.87413447730114
30
0
41
1
10
4.22561543506723
20
-2.8743892921087
30
0
41
1
10
4.18266461032792
20
-2.8745009421973
30
0
41
1
10
4.09687370797454
20
-2.87477786466562
30
0
41
1
10
4.05404322424104
20
-2.8749431671348
30
0
41
1
10
3.92575369808927
20
-2.87550857697158
30
0
41
1
10
3.84049982058363
20
-2.87597977015142
30
0
41
1
10
3.67043695882722
20
-2.87696526954517
30
0
41
1
10
3.58561587132542
20
-2.87747544978868
30
0
41
1
10
3.41636832328723
20
-2.87840343706003
30
0
41
1
10
3.33194830571611
20
-2.87882786642552
30
0
41
1
10
3.1776740886948
20
-2.87939954046777
30
0
41
1
10
3.10803142886041
20
-2.87958037562481
30
0
41
1
10
3.03904700051709
20
-2.87959539940758
30
0
0
SPLINE
5
C4
100
AcDbEntity
8
1
62
256
6
ByLayer
370
18
48
1
60
0
100
AcDbSpline
70
4
71
3
72
138
73
134
40
0
40
0
40
0
40
0
40
0.0057535952909064
40
0.0057535952909064
40
0.0142648132356888
40
0.0142648132356888
40
0.0227760311804712
40
0.0227760311804712
40
0.0397984670700367
40
0.0397984670700367
40
0.0568209029596022
40
0.0568209029596022
40
0.0738433388491677
40
0.0738433388491677
40
0.0908657747387333
40
0.0908657747387333
40
0.107888210628299
40
0.107888210628299
40
0.124910646517864
40
0.124910646517864
40
0.14193308240743
40
0.14193308240743
40
0.158955518296995
40
0.158955518296995
40
0.175977954186561
40
0.175977954186561
40
0.184489172131344
40
0.184489172131344
40
0.193000390076126
40
0.193000390076126
40
0.210022825965693
40
0.210022825965693
40
0.227045261855259
40
0.227045261855259
40
0.244067697744825
40
0.244067697744825
40
0.261090133634392
40
0.261090133634392
40
0.278112569523958
40
0.278112569523958
40
0.295135005413524
40
0.295135005413524
40
0.31215744130309
40
0.31215744130309
40
0.329179877192657
40
0.329179877192657
40
0.346202313082223
40
0.346202313082223
40
0.363224748971789
40
0.363224748971789
40
0.371735966916572
40
0.371735966916572
40
0.380247184861355
40
0.380247184861355
40
0.397269620750921
40
0.397269620750921
40
0.414292056640486
40
0.414292056640486
40
0.431314492530052
40
0.431314492530052
40
0.448336928419617
40
0.448336928419617
40
0.465359364309183
40
0.465359364309183
40
0.482381800198748
40
0.482381800198748
40
0.499404236088314
40
0.499404236088314
40
0.51642667197788
40
0.51642667197788
40
0.533449107867445
40
0.533449107867445
40
0.541960325812227
40
0.541960325812227
40
0.550471543757009
40
0.550471543757009
40
0.567493979646573
40
0.567493979646573
40
0.584516415536137
40
0.584516415536137
40
0.601538851425702
40
0.601538851425702
40
0.618561287315266
40
0.618561287315266
40
0.63558372320483
40
0.63558372320483
40
0.652606159094394
40
0.652606159094394
40
0.669628594983958
40
0.669628594983958
40
0.686651030873522
40
0.686651030873522
40
0.703673466763086
40
0.703673466763086
40
0.712184684707867
40
0.712184684707867
40
0.720695902652648
40
0.720695902652648
40
0.737718338542213
40
0.737718338542213
40
0.754740774431777
40
0.754740774431777
40
0.771763210321341
40
0.771763210321341
40
0.788785646210905
40
0.788785646210905
40
0.805808082100469
40
0.805808082100469
40
0.822830517990033
40
0.822830517990033
40
0.839852953879597
40
0.839852953879597
40
0.856875389769161
40
0.856875389769161
40
0.865386607713942
40
0.865386607713942
40
0.873897825658724
40
0.873897825658724
40
0.890920261548285
40
0.890920261548285
40
0.907942697437846
40
0.907942697437846
40
0.924965133327406
40
0.924965133327406
40
0.941987569216967
40
0.941987569216967
40
0.959010005106528
40
0.959010005106528
40
0.976032440996089
40
0.976032440996089
40
0.99305487688565
40
0.99305487688565
40
1
40
1
40
1
40
1
41
1
10
18.6407943968171
20
1.84152023421174
30
0
41
1
10
18.6813864333395
20
1.85872512472753
30
0
41
1
10
18.7220192498608
20
1.87576461694036
30
0
41
1
10
18.8228435614596
20
1.91762552285903
30
0
41
1
10
18.8830979197365
20
1.9422753090449
30
0
41
1
10
19.003624161116
20
1.99088280981178
30
0
41
1
10
19.06377901801
20
2.01479964301677
30
0
41
1
10
19.2439399316808
20
2.08535754495691
30
0
41
1
10
19.3636813755211
20
2.13074457694034
30
0
41
1
10
19.6029364922721
20
2.21762808171624
30
0
41
1
10
19.7224774615717
20
2.25910625584749
30
0
41
1
10
19.9610916313709
20
2.33855547376871
30
0
41
1
10
20.0801247316858
20
2.37656139219825
30
0
41
1
10
20.3178882945083
20
2.44884475751007
30
0
41
1
10
20.4366825816146
20
2.48305495358488
30
0
41
1
10
20.6744583863956
20
2.54732732482057
30
0
41
1
10
20.7933797949964
20
2.57745552712007
30
0
41
1
10
21.0310367634252
20
2.63389765421491
30
0
41
1
10
21.1497436234469
20
2.66021985916879
30
0
41
1
10
21.3874408705267
20
2.70863424963372
30
0
41
1
10
21.5064760200208
20
2.73070461532035
30
0
41
1
10
21.7449782975316
20
2.77056635512744
30
0
41
1
10
21.8643739252263
20
2.78840213130005
30
0
41
1
10
22.1033325677988
20
2.81985850773148
30
0
41
1
10
22.2229459941285
20
2.83344354553603
30
0
41
1
10
22.4029539794366
20
2.85042246951858
30
0
41
1
10
22.4630579180776
20
2.85551679455793
30
0
41
1
10
22.5834611942792
20
2.864578221741
30
0
41
1
10
22.643802313267
20
2.86854923124613
30
0
41
1
10
22.8244368998925
20
2.87874677612135
30
0
41
1
10
22.9444465979024
20
2.88327455448285
30
0
41
1
10
23.1838220975123
20
2.88776545058252
30
0
41
1
10
23.3032545591801
20
2.88771968146278
30
0
41
1
10
23.542021483419
20
2.88315024693964
30
0
41
1
10
23.6613063695494
20
2.87863751406266
30
0
41
1
10
23.8994107558419
20
2.86514695509646
30
0
41
1
10
24.0181965762201
20
2.85614675991479
30
0
41
1
10
24.255726783563
20
2.83374324118287
30
0
41
1
10
24.3745177647269
20
2.82036254309233
30
0
41
1
10
24.6122653986752
20
2.78935257423728
30
0
41
1
10
24.7311496565035
20
2.77169705179665
30
0
41
1
10
24.9687775594637
20
2.73194766841942
30
0
41
1
10
25.0875586726451
20
2.70986055163615
30
0
41
1
10
25.3255902158902
20
2.6615743660725
30
0
41
1
10
25.4448822217724
20
2.63541949319478
30
0
41
1
10
25.6838026686725
20
2.57893233530834
30
0
41
1
10
25.8033820708522
20
2.54855353703789
30
0
41
1
10
26.0428910502539
20
2.48350736191964
30
0
41
1
10
26.1628890233342
20
2.44889689591867
30
0
41
1
10
26.3435809736176
20
2.39416761812987
30
0
41
1
10
26.403862870691
20
2.37546961324108
30
0
41
1
10
26.5241789176
20
2.33721715915871
30
0
41
1
10
26.5842562901387
20
2.31764667131449
30
0
41
1
10
26.7642155088679
20
2.25756961443818
30
0
41
1
10
26.8837731151421
20
2.21563200592436
30
0
41
1
10
27.1225090090244
20
2.12853467845491
30
0
41
1
10
27.2417388746172
20
2.08344315472397
30
0
41
1
10
27.4801031670391
20
1.99046962755438
30
0
41
1
10
27.599163456777
20
1.94249371112082
30
0
41
1
10
27.8368551826229
20
1.84330023075339
30
0
41
1
10
27.955508773068
20
1.79210468855536
30
0
41
1
10
28.1929738806634
20
1.68729944483169
30
0
41
1
10
28.3118279792102
20
1.63376141097544
30
0
41
1
10
28.5496108606369
20
1.52418604336339
30
0
41
1
10
28.668485087961
20
1.46806150791016
30
0
41
1
10
28.9062464800779
20
1.35316564909687
30
0
41
1
10
29.0252027924023
20
1.29450141073929
30
0
41
1
10
29.2637295495487
20
1.17551297305121
30
0
41
1
10
29.3832938110108
20
1.11518821559483
30
0
41
1
10
29.6227153708313
20
0.992319735767751
30
0
41
1
10
29.7425364352911
20
0.929702501192764
30
0
41
1
10
29.9227229988415
20
0.834475633478689
30
0
41
1
10
29.9829111398808
20
0.802510253504096
30
0
41
1
10
30.1033116951383
20
0.738375900802879
30
0
41
1
10
30.163460436343
20
0.706257776682492
30
0
41
1
10
30.3437382621698
20
0.609722222797984
30
0
41
1
10
30.4636641272578
20
0.545057382467576
30
0
41
1
10
30.7027963755988
20
0.414732289260456
30
0
41
1
10
30.8220050651069
20
0.349077667570242
30
0
41
1
10
31.0602685303749
20
0.217832513022842
30
0
41
1
10
31.1793666472667
20
0.152321807869811
30
0
41
1
10
31.4173870470354
20
0.0213153569357303
30
0
41
1
10
31.5362488908769
20
-0.0442924943883725
30
0
41
1
10
31.773671373402
20
-0.175722228311003
30
0
41
1
10
31.8922990427201
20
-0.241419461813166
30
0
41
1
10
32.129858400181
20
-0.371912437474464
30
0
41
1
10
32.2488013216822
20
-0.436688785601518
30
0
41
1
10
32.4866983749097
20
-0.565879828804526
30
0
41
1
10
32.6056146815825
20
-0.630362693168365
30
0
41
1
10
32.8437008561002
20
-0.758516462434926
30
0
41
1
10
32.9629321362292
20
-0.8220756382442
30
0
41
1
10
33.202083549613
20
-0.947593162699491
30
0
41
1
10
33.3219338086434
20
-1.00967885132909
30
0
41
1
10
33.501955547291
20
-1.10209134446899
30
0
41
1
10
33.5620010531236
20
-1.13278100527586
30
0
41
1
10
33.6822334240775
20
-1.19381347299111
30
0
41
1
10
33.7424564822731
20
-1.22416682505337
30
0
41
1
10
33.922793276513
20
-1.31419234245126
30
0
41
1
10
34.0428161631216
20
-1.37285332602895
30
0
41
1
10
34.2824299911624
20
-1.48760295425043
30
0
41
1
10
34.4019548976406
20
-1.54380140373877
30
0
41
1
10
34.6403861815111
20
-1.65392437249852
30
0
41
1
10
34.7593555572729
20
-1.70774173134581
30
0
41
1
10
34.9972969153922
20
-1.81217491654124
30
0
41
1
10
35.1162933442525
20
-1.86276660926532
30
0
41
1
10
35.3540331789493
20
-1.96116996081662
30
0
41
1
10
35.4727375695621
20
-2.00902744753731
30
0
41
1
10
35.7100702755763
20
-2.10167368267952
30
0
41
1
10
35.8287619748018
20
-2.14637858242165
30
0
41
1
10
36.0665515731128
20
-2.23213915262491
30
0
41
1
10
36.1855880366122
20
-2.27327819936102
30
0
41
1
10
36.4236955096069
20
-2.35233459320787
30
0
41
1
10
36.5427392877374
20
-2.39027070053288
30
0
41
1
10
36.7216901502408
20
-2.44431755521742
30
0
41
1
10
36.7814042585496
20
-2.46185861572172
30
0
41
1
10
36.9010111986896
20
-2.4959421162022
30
0
41
1
10
36.9609058630713
20
-2.51248351865317
30
0
41
1
10
37.1407960988361
20
-2.56067109066075
30
0
41
1
10
37.2609763896301
20
-2.59090276501917
30
0
41
1
10
37.5017441165441
20
-2.64757483297936
30
0
41
1
10
37.6217661728757
20
-2.6738111368264
30
0
41
1
10
37.8614409001204
20
-2.72174136996367
30
0
41
1
10
37.9811546034186
20
-2.74343533994826
30
0
41
1
10
38.2200656799478
20
-2.78253977488649
30
0
41
1
10
38.3392198715594
20
-2.79996380389576
30
0
41
1
10
38.5771223469779
20
-2.83043368456438
30
0
41
1
10
38.695936675911
20
-2.84344699716971
30
0
41
1
10
38.9336946081355
20
-2.86496056537138
30
0
41
1
10
39.0525867645667
20
-2.87349034447132
30
0
41
1
10
39.2901284594585
20
-2.88616062490297
30
0
41
1
10
39.4087448163175
20
-2.89029108675052
30
0
41
1
10
39.5758868607056
20
-2.89293181757512
30
0
41
1
10
39.6243430375047
20
-2.89332259685958
30
0
41
1
10
39.6728260988308
20
-2.89334044203946
30
0
0
SPLINE
5
C5
100
AcDbEntity
8
1
62
256
6
ByLayer
370
18
48
1
60
0
100
AcDbSpline
70
4
71
3
72
42
73
38
40
0
40
0
40
0
40
0
40
0.031711423582563
40
0.031711423582563
40
0.0922294596086422
40
0.0922294596086422
40
0.122488477621685
40
0.122488477621685
40
0.152747495634728
40
0.152747495634728
40
0.213265531660819
40
0.213265531660819
40
0.27378356768691
40
0.27378356768691
40
0.334301603713001
40
0.334301603713001
40
0.394819639739092
40
0.394819639739092
40
0.455337675765183
40
0.455337675765183
40
0.515855711791274
40
0.515855711791274
40
0.576373747817365
40
0.576373747817365
40
0.636891783843455
40
0.636891783843455
40
0.697409819869547
40
0.697409819869547
40
0.757927855895637
40
0.757927855895637
40
0.818445891921728
40
0.818445891921728
40
0.878963927947819
40
0.878963927947819
40
0.93948196397391
40
0.93948196397391
40
1
40
1
40
1
40
1
41
1
10
51.5046227786807
20
1.84616365487531
30
0
41
1
10
51.567250188462
20
1.87283178877155
30
0
41
1
10
51.6299328059803
20
1.89913778122425
30
0
41
1
10
51.8123478446224
20
1.97466169463547
30
0
41
1
10
51.9321521512495
20
2.02301639800726
30
0
41
1
10
52.1124247822012
20
2.09314817543651
30
0
41
1
10
52.1726390455197
20
2.11613677211153
30
0
41
1
10
52.2928699554251
20
2.16108654046127
30
0
41
1
10
52.3529389843536
20
2.18306685750761
30
0
41
1
10
52.5329415365747
20
2.24763018753617
30
0
41
1
10
52.652649786793
20
2.28886376604368
30
0
41
1
10
52.8913692734904
20
2.36784469395096
30
0
41
1
10
53.0104337276421
20
2.40551964637459
30
0
41
1
10
53.2484822635817
20
2.47674583814049
30
0
41
1
10
53.3675017964316
20
2.51027682962257
30
0
41
1
10
53.6052599527223
20
2.57348892566148
30
0
41
1
10
53.7239556438649
20
2.60319931858979
30
0
41
1
10
53.9611617705521
20
2.65863190504209
30
0
41
1
10
54.0797386453372
20
2.68429832267159
30
0
41
1
10
54.3172516120985
20
2.73128212655877
30
0
41
1
10
54.4361401041879
20
2.75264401993272
30
0
41
1
10
54.6739068208535
20
2.79125159819432
30
0
41
1
10
54.7927509880629
20
2.808501101274
30
0
41
1
10
55.0308460436762
20
2.83858951466382
30
0
41
1
10
55.1501443273107
20
2.85141520833824
30
0
41
1
10
55.3893693741219
20
2.87259950229202
30
0
41
1
10
55.509222909483
20
2.88098649400055
30
0
41
1
10
55.7492590737198
20
2.89328052093285
30
0
41
1
10
55.8696055477572
20
2.89716290325586
30
0
41
1
10
56.110044122494
20
2.90027163138342
30
0
41
1
10
56.2302976631486
20
2.89952382268305
30
0
41
1
10
56.4706384556081
20
2.893482225996
30
0
41
1
10
56.5906743795537
20
2.88817651323865
30
0
41
1
10
56.8306058235586
20
2.87295434886727
30
0
41
1
10
56.9505726644427
20
2.8630460899256
30
0
41
1
10
57.1909576739468
20
2.83879297881401
30
0
41
1
10
57.3113366395052
20
2.82445066186276
30
0
41
1
10
57.4317537843353
20
2.80781903102655
30
0
0
SPLINE
5
C6
100
AcDbEntity
8
1
62
256
6
ByLayer
370
18
48
1
60
0
100
AcDbSpline
70
4
71
3
72
128
73
124
40
0
40
0
40
0
40
0
40
0.0038505708868
40
0.0038505708868
40
0.0229127134697926
40
0.0229127134697926
40
0.0419748560527852
40
0.0419748560527852
40
0.0610369986357778
40
0.0610369986357778
40
0.0705680699272734
40
0.0705680699272734
40
0.0800991412187689
40
0.0800991412187689
40
0.0991612838017615
40
0.0991612838017615
40
0.118223426384754
40
0.118223426384754
40
0.137285568967747
40
0.137285568967747
40
0.156347711550739
40
0.156347711550739
40
0.175409854133732
40
0.175409854133732
40
0.194471996716724
40
0.194471996716724
40
0.213534139299717
40
0.213534139299717
40
0.23259628188271
40
0.23259628188271
40
0.242127353174206
40
0.242127353174206
40
0.251658424465702
40
0.251658424465702
40
0.270720567048693
40
0.270720567048693
40
0.289782709631684
40
0.289782709631684
40
0.308844852214675
40
0.308844852214675
40
0.327906994797666
40
0.327906994797666
40
0.346969137380657
40
0.346969137380657
40
0.366031279963649
40
0.366031279963649
40
0.38509342254664
40
0.38509342254664
40
0.404155565129631
40
0.404155565129631
40
0.413686636421126
40
0.413686636421126
40
0.423217707712622
40
0.423217707712622
40
0.432748779004118
40
0.432748779004118
40
0.442279850295613
40
0.442279850295613
40
0.461341992878606
40
0.461341992878606
40
0.480404135461598
40
0.480404135461598
40
0.499466278044591
40
0.499466278044591
40
0.518528420627583
40
0.518528420627583
40
0.537590563210576
40
0.537590563210576
40
0.556652705793569
40
0.556652705793569
40
0.575714848376561
40
0.575714848376561
40
0.585245919668058
40
0.585245919668058
40
0.594776990959554
40
0.594776990959554
40
0.613839133542546
40
0.613839133542546
40
0.632901276125539
40
0.632901276125539
40
0.651963418708532
40
0.651963418708532
40
0.671025561291524
40
0.671025561291524
40
0.690087703874517
40
0.690087703874517
40
0.709149846457509
40
0.709149846457509
40
0.728211989040502
40
0.728211989040502
40
0.747274131623495
40
0.747274131623495
40
0.756805202914991
40
0.756805202914991
40
0.766336274206487
40
0.766336274206487
40
0.785398416789481
40
0.785398416789481
40
0.804460559372476
40
0.804460559372476
40
0.82352270195547
40
0.82352270195547
40
0.842584844538464
40
0.842584844538464
40
0.861646987121458
40
0.861646987121458
40
0.880709129704452
40
0.880709129704452
40
0.899771272287446
40
0.899771272287446
40
0.91883341487044
40
0.91883341487044
40
0.937895557453434
40
0.937895557453434
40
0.947426628744932
40
0.947426628744932
40
0.95695770003643
40
0.95695770003643
40
0.976019842619425
40
0.976019842619425
40
0.995081985202421
40
0.995081985202421
40
1
40
1
40
1
40
1
41
1
10
51.5041530228218
20
-1.84693552248055
30
0
41
1
10
51.4772717819685
20
-1.85840338555107
30
0
41
1
10
51.4503899474441
20
-1.86980482796665
30
0
41
1
10
51.2904290739716
20
-1.93725601715596
30
0
41
1
10
51.1573048021648
20
-1.99168869163665
30
0
41
1
10
50.8904048235582
20
-2.09640734417016
30
0
41
1
10
50.7566422004916
20
-2.14672075986448
30
0
41
1
10
50.4886590243214
20
-2.24344064818854
30
0
41
1
10
50.3544818896
20
-2.28989205996498
30
0
41
1
10
50.1525813137155
20
-2.35622108330708
30
0
41
1
10
50.0851282136494
20
-2.37777600803611
30
0
41
1
10
49.9504888034466
20
-2.4195318129824
30
0
41
1
10
49.8832471387683
20
-2.43976183195804
30
0
41
1
10
49.6817803631689
20
-2.49855874934036
30
0
41
1
10
49.5478560572279
20
-2.53527552232654
30
0
41
1
10
49.2806735687278
20
-2.60366912094344
30
0
41
1
10
49.1473559278895
20
-2.63528600965
30
0
41
1
10
48.8808107329529
20
-2.69308718842837
30
0
41
1
10
48.7476313275483
20
-2.71932137675773
30
0
41
1
10
48.4816465738829
20
-2.76659161666089
30
0
41
1
10
48.3488285062995
20
-2.78760376997212
30
0
41
1
10
48.0830092251644
20
-2.82409858135938
30
0
41
1
10
47.9499609166708
20
-2.8395744164913
30
0
41
1
10
47.6837078863308
20
-2.86505379686849
30
0
41
1
10
47.5505657241229
20
-2.87506809488343
30
0
41
1
10
47.2839511371366
20
-2.88948252072888
30
0
41
1
10
47.1504071152832
20
-2.89386998304536
30
0
41
1
10
46.882576786358
20
-2.89696705820757
30
0
41
1
10
46.7483545412266
20
-2.89568811880821
30
0
41
1
10
46.54661765534
20
-2.88943133935695
30
0
41
1
10
46.4792364220379
20
-2.88661859096524
30
0
41
1
10
46.344521170887
20
-2.87955301017703
30
0
41
1
10
46.2772608421087
20
-2.87530586243852
30
0
41
1
10
46.0756641415902
20
-2.86047432365959
30
0
41
1
10
45.9415284718229
20
-2.84780603149778
30
0
41
1
10
45.6739463123691
20
-2.81694121470096
30
0
41
1
10
45.5405409790332
20
-2.79871396775184
30
0
41
1
10
45.2740313884865
20
-2.75690466503261
30
0
41
1
10
45.1408577196604
20
-2.73336874084563
30
0
41
1
10
44.8746361602367
20
-2.68113477111115
30
0
41
1
10
44.7416571985765
20
-2.65238995345055
30
0
41
1
10
44.4758588535392
20
-2.58968256789436
30
0
41
1
10
44.3429799995592
20
-2.555759021782
30
0
41
1
10
44.0768032685414
20
-2.48318905168807
30
0
41
1
10
43.9435538474891
20
-2.44451238086393
30
0
41
1
10
43.676920469293
20
-2.36214599380682
30
0
41
1
10
43.54352483394
20
-2.31845282798437
30
0
41
1
10
43.2760441020915
20
-2.22657030024976
30
0
41
1
10
43.141912399432
20
-2.17845003576329
30
0
41
1
10
42.9402132822735
20
-2.10286632861016
30
0
41
1
10
42.8729030199286
20
-2.07709478429129
30
0
41
1
10
42.7381273059203
20
-2.02437842142047
30
0
41
1
10
42.6707408537197
20
-1.99747363560166
30
0
41
1
10
42.5362673966049
20
-1.94280060166585
30
0
41
1
10
42.4691264246453
20
-1.91501204672426
30
0
41
1
10
42.3349568367774
20
-1.85865249020867
30
0
41
1
10
42.2679279858981
20
-1.83008232899442
30
0
41
1
10
42.0670308549259
20
-1.7431803573964
30
0
41
1
10
41.9333692813801
20
-1.68363309452292
30
0
41
1
10
41.6666597496174
20
-1.56120949045822
30
0
41
1
10
41.5335701837456
20
-1.49839131034673
30
0
41
1
10
41.2673639614898
20
-1.37044735084837
30
0
41
1
10
41.1342652488698
20
-1.30529987526029
30
0
41
1
10
40.8682519470365
20
-1.17237720845091
30
0
41
1
10
40.7353784807775
20
-1.10452714913635
30
0
41
1
10
40.4694267667334
20
-0.966830354276652
30
0
41
1
10
40.3362790736066
20
-0.897107692608188
30
0
41
1
10
40.069600836337
20
-0.755992483354873
30
0
41
1
10
39.9361391922501
20
-0.684476399370965
30
0
41
1
10
39.6688658771275
20
-0.539673620139979
30
0
41
1
10
39.5349942486768
20
-0.466493864312241
30
0
41
1
10
39.3334907128394
20
-0.356190597550977
30
0
41
1
10
39.2662196167636
20
-0.319310506315986
30
0
41
1
10
39.1314897366631
20
-0.245285438351601
30
0
41
1
10
39.063974157178
20
-0.208104486509029
30
0
41
1
10
38.8619457665243
20
-0.0965111997571171
30
0
41
1
10
38.7277578049478
20
-0.0219768987305429
30
0
41
1
10
38.459834188745
20
0.126344478127919
30
0
41
1
10
38.3260550653721
20
0.200053185945507
30
0
41
1
10
38.0589851794676
20
0.346827827325171
30
0
41
1
10
37.9257563538581
20
0.420006465118917
30
0
41
1
10
37.6595918755996
20
0.565354158914289
30
0
41
1
10
37.5265839594246
20
0.637391567493779
30
0
41
1
10
37.2604738935552
20
0.77977386489016
30
0
41
1
10
37.1274356534016
20
0.850235223479501
30
0
41
1
10
36.8614714469641
20
0.989825643007606
30
0
41
1
10
36.7285032042681
20
1.05887652821374
30
0
41
1
10
36.4620345154074
20
1.19451784544989
30
0
41
1
10
36.3285517674794
20
1.26114337432983
30
0
41
1
10
36.061261995916
20
1.39228624191921
30
0
41
1
10
35.927495491766
20
1.45686715773292
30
0
41
1
10
35.7263065274072
20
1.5516394913474
30
0
41
1
10
35.6591460151953
20
1.5828683350002
30
0
41
1
10
35.5245839083746
20
1.64452684535013
30
0
41
1
10
35.457156392106
20
1.67498172278388
30
0
41
1
10
35.2547669410529
20
1.76512339085755
30
0
41
1
10
35.1203018261024
20
1.82340969456547
30
0
41
1
10
34.8521679119463
20
1.93620908326213
30
0
41
1
10
34.7184376571264
20
1.99062605892792
30
0
41
1
10
34.4512029809194
20
2.09496864569544
30
0
41
1
10
34.3177488372853
20
2.14497380963837
30
0
41
1
10
34.0513481346529
20
2.24090394587066
30
0
41
1
10
33.9183848188468
20
2.2867944265472
30
0
41
1
10
33.6523987941848
20
2.37382427802299
30
0
41
1
10
33.5193341365061
20
2.41493075458837
30
0
41
1
10
33.2531940059917
20
2.4924955820737
30
0
41
1
10
33.1201803541211
20
2.52900558413387
30
0
41
1
10
32.8539450966023
20
2.59712541300109
30
0
41
1
10
32.7206510411231
20
2.62867430666759
30
0
41
1
10
32.4534637767123
20
2.68656174889051
30
0
41
1
10
32.3196353909301
20
2.71295491702037
30
0
41
1
10
32.0515773077163
20
2.76059370332589
30
0
41
1
10
31.9173042572364
20
2.78179924207637
30
0
41
1
10
31.7151089348799
20
2.80940967005134
30
0
41
1
10
31.6475960747468
20
2.81791586591797
30
0
41
1
10
31.5128962681401
20
2.83348409973976
30
0
41
1
10
31.4456393660039
20
2.84055616411601
30
0
41
1
10
31.244187931574
20
2.85966309348771
30
0
41
1
10
31.1103438199819
20
2.86958869932229
30
0
41
1
10
30.8430829167693
20
2.88373061274692
30
0
41
1
10
30.7095975846134
20
2.88794616869203
30
0
41
1
10
30.541845100425
20
2.8897221996026
30
0
41
1
10
30.5074549554418
20
2.88989978812148
30
0
41
1
10
30.4730773924151
20
2.88989055787619
30
0
0
SPLINE
5
C7
100
AcDbEntity
8
1
62
256
6
ByLayer
370
18
48
1
60
0
100
AcDbSpline
70
4
71
3
72
76
73
72
40
0
40
0
40
0
40
0
40
0.0073011619828905
40
0.0073011619828905
40
0.0393237051447328
40
0.0393237051447328
40
0.071346248306575
40
0.071346248306575
40
0.103368791468417
40
0.103368791468417
40
0.119380063049338
40
0.119380063049338
40
0.13539133463026
40
0.13539133463026
40
0.167413877792102
40
0.167413877792102
40
0.199436420953944
40
0.199436420953944
40
0.231458964115786
40
0.231458964115786
40
0.263481507277628
40
0.263481507277628
40
0.295504050439471
40
0.295504050439471
40
0.327526593601313
40
0.327526593601313
40
0.359549136763155
40
0.359549136763155
40
0.391571679924997
40
0.391571679924997
40
0.42359422308684
40
0.42359422308684
40
0.439605494667761
40
0.439605494667761
40
0.455616766248682
40
0.455616766248682
40
0.487639309410524
40
0.487639309410524
40
0.519661852572366
40
0.519661852572366
40
0.551684395734209
40
0.551684395734209
40
0.583706938896051
40
0.583706938896051
40
0.615729482057893
40
0.615729482057893
40
0.647752025219735
40
0.647752025219735
40
0.679774568381578
40
0.679774568381578
40
0.71179711154342
40
0.71179711154342
40
0.727808383124341
40
0.727808383124341
40
0.743819654705262
40
0.743819654705262
40
0.775842197867104
40
0.775842197867104
40
0.807864741028947
40
0.807864741028947
40
0.839887284190789
40
0.839887284190789
40
0.871909827352631
40
0.871909827352631
40
0.903932370514473
40
0.903932370514473
40
0.935954913676316
40
0.935954913676316
40
0.967977456838158
40
0.967977456838158
40
1
40
1
40
1
40
1
41
1
10
18.6411951368634
20
-1.83950870327635
30
0
41
1
10
18.6108655946298
20
-1.85241551851243
30
0
41
1
10
18.5805358708988
20
-1.86523255428588
30
0
41
1
10
18.4171692486438
20
-1.93376363673244
30
0
41
1
10
18.2840182717404
20
-1.98768154884152
30
0
41
1
10
18.0172814514474
20
-2.09148094156657
30
0
41
1
10
17.8837615867688
20
-2.14145322956003
30
0
41
1
10
17.616461414146
20
-2.2375390884396
30
0
41
1
10
17.4826341186429
20
-2.28358578285088
30
0
41
1
10
17.2812141474849
20
-2.34915021181845
30
0
41
1
10
17.2139692389339
20
-2.37043190011713
30
0
41
1
10
17.0792860547795
20
-2.4118637306282
30
0
41
1
10
17.011808652203
20
-2.43202525471952
30
0
41
1
10
16.8093840534308
20
-2.49076316359179
30
0
41
1
10
16.6749627316805
20
-2.52746571599349
30
0
41
1
10
16.4066770519563
20
-2.59554238485262
30
0
41
1
10
16.2727468989555
20
-2.6268714457992
30
0
41
1
10
16.0053259959864
20
-2.68424341231628
30
0
41
1
10
15.871904153946
20
-2.710332243035
30
0
41
1
10
15.605465713611
20
-2.75719359548378
30
0
41
1
10
15.4723843872004
20
-2.77792238386272
30
0
41
1
10
15.2060965062427
20
-2.81383534339611
30
0
41
1
10
15.0729445621089
20
-2.82905749834271
30
0
41
1
10
14.8067951361873
20
-2.85407467818195
30
0
41
1
10
14.6737731370148
20
-2.86384546994316
30
0
41
1
10
14.4072915895499
20
-2.87775401665749
30
0
41
1
10
14.273801839817
20
-2.88190253319772
30
0
41
1
10
14.0064727403969
20
-2.88459209995497
30
0
41
1
10
13.8726920802109
20
-2.8831232029352
30
0
41
1
10
13.6045289218005
20
-2.87445313263041
30
0
41
1
10
13.4700727850172
20
-2.86726415988105
30
0
41
1
10
13.2676825060833
20
-2.852200263611
30
0
41
1
10
13.2001275449775
20
-2.84646298266176
30
0
41
1
10
13.0653851080947
20
-2.83359527815966
30
0
41
1
10
12.9981353247105
20
-2.82645702241092
30
0
41
1
10
12.7966879860312
20
-2.80295573386431
30
0
41
1
10
12.662784586323
20
-2.78450237232678
30
0
41
1
10
12.395227905863
20
-2.7423745310731
30
0
41
1
10
12.2616062050412
20
-2.71869854872011
30
0
41
1
10
11.9948605391528
20
-2.6660554411647
30
0
41
1
10
11.8617593537915
20
-2.63705850523766
30
0
41
1
10
11.5955967821794
20
-2.57408162619453
30
0
41
1
10
11.4624709572132
20
-2.54016401742299
30
0
41
1
10
11.1961635564521
20
-2.4674908313649
30
0
41
1
10
11.063049819591
20
-2.42866869784479
30
0
41
1
10
10.7967262080857
20
-2.34616472558156
30
0
41
1
10
10.6634514697338
20
-2.30254588351528
30
0
41
1
10
10.3962840006313
20
-2.21101491378533
30
0
41
1
10
10.2624468872025
20
-2.16304975326418
30
0
41
1
10
9.99442460655467
20
-2.06244310648927
30
0
41
1
10
9.8602125657448
20
-2.00982067000166
30
0
41
1
10
9.65817483692919
20
-1.92792115941353
30
0
41
1
10
9.5906384981854
20
-1.9001087048083
30
0
41
1
10
9.45568534786892
20
-1.84363836883546
30
0
41
1
10
9.38829418087798
20
-1.81499293055859
30
0
41
1
10
9.18641254156245
20
-1.72777870206886
30
0
41
1
10
9.05226564838335
20
-1.66785089076575
30
0
41
1
10
8.78446427602876
20
-1.545034561905
30
0
41
1
10
8.65073560993588
20
-1.48226461651848
30
0
41
1
10
8.38346320356959
20
-1.3542951770404
30
0
41
1
10
8.24998767798274
20
-1.28898635058914
30
0
41
1
10
7.98336324481031
20
-1.15570385053221
30
0
41
1
10
7.85016335927372
20
-1.08781087460142
30
0
41
1
10
7.5834545829477
20
-0.950443892561424
30
0
41
1
10
7.44998107701417
20
-0.880915089171282
30
0
41
1
10
7.18298610070562
20
-0.739825174237097
30
0
41
1
10
7.0494828850936
20
-0.668225341777628
30
0
41
1
10
6.78196158863344
20
-0.523800963994944
30
0
41
1
10
6.64788203476894
20
-0.451094294676238
30
0
41
1
10
6.37912369731828
20
-0.304613496376277
30
0
41
1
10
6.24445431921711
20
-0.230823008786871
30
0
41
1
10
6.10957370225103
20
-0.156295958555916
30
0
0
SPLINE
5
C8
100
AcDbEntity
8
1
62
256
6
ByLayer
370
18
48
1
60
0
100
AcDbSpline
70
4
71
3
72
148
73
144
40
0
40
0
40
0
40
0
40
0.0625000000000017
40
0.0625000000000017
40
0.0937500000000019
40
0.0937500000000019
40
0.125000000000002
40
0.125000000000002
40
0.156250000000002
40
0.156250000000002
40
0.187500000000003
40
0.187500000000003
40
0.218750000000003
40
0.218750000000003
40
0.250000000000003
40
0.250000000000003
40
0.265625000000003
40
0.265625000000003
40
0.273437500000003
40
0.273437500000003
40
0.281250000000004
40
0.281250000000004
40
0.289062500000004
40
0.289062500000004
40
0.296875000000004
40
0.296875000000004
40
0.300781250000005
40
0.300781250000005
40
0.304687500000006
40
0.304687500000006
40
0.308593750000007
40
0.308593750000007
40
0.312500000000007
40
0.312500000000007
40
0.320312500000008
40
0.320312500000008
40
0.328125000000008
40
0.328125000000008
40
0.343750000000008
40
0.343750000000008
40
0.359375000000008
40
0.359375000000008
40
0.375000000000007
40
0.375000000000007
40
0.406250000000007
40
0.406250000000007
40
0.437500000000006
40
0.437500000000006
40
0.453125000000006
40
0.453125000000006
40
0.468750000000006
40
0.484375000000005
40
0.484375000000005
40
0.492187500000006
40
0.492187500000006
40
0.500000000000006
40
0.500000000000006
40
0.515625000000008
40
0.515625000000008
40
0.531250000000011
40
0.531250000000011
40
0.546875000000013
40
0.546875000000013
40
0.562500000000015
40
0.562500000000015
40
0.578125000000017
40
0.578125000000017
40
0.593750000000019
40
0.593750000000019
40
0.60156250000002
40
0.60156250000002
40
0.605468750000021
40
0.605468750000021
40
0.609375000000022
40
0.609375000000022
40
0.617187500000022
40
0.617187500000022
40
0.621093750000022
40
0.621093750000022
40
0.625000000000022
40
0.625000000000022
40
0.628906250000022
40
0.628906250000022
40
0.630859375000021
40
0.630859375000021
40
0.632812500000021
40
0.632812500000021
40
0.636718750000021
40
0.63867187500002
40
0.63867187500002
40
0.64062500000002
40
0.64062500000002
40
0.64453125000002
40
0.64453125000002
40
0.64843750000002
40
0.64843750000002
40
0.65039062500002
40
0.65039062500002
40
0.65234375000002
40
0.65234375000002
40
0.656250000000019
40
0.656250000000019
40
0.660156250000019
40
0.660156250000019
40
0.664062500000019
40
0.664062500000019
40
0.671875000000019
40
0.671875000000019
40
0.679687500000019
40
0.679687500000019
40
0.687500000000018
40
0.687500000000018
40
0.703125000000019
40
0.703125000000019
40
0.718750000000019
40
0.718750000000019
40
0.726562500000019
40
0.726562500000019
40
0.734375000000019
40
0.734375000000019
40
0.750000000000018
40
0.750000000000018
40
0.781250000000017
40
0.781250000000017
40
0.796875000000016
40
0.796875000000016
40
0.804687500000015
40
0.804687500000015
40
0.812500000000015
40
0.812500000000015
40
0.843750000000013
40
0.843750000000013
40
0.875000000000012
40
0.875000000000012
40
0.90625000000001
40
0.90625000000001
40
0.921875000000009
40
0.921875000000009
40
0.937500000000007
40
0.937500000000007
40
0.968750000000004
40
0.968750000000004
40
1
40
1
40
1
40
1
41
1
10
11.5996445347851
20
1.75342965474661
30
0
41
1
10
11.3010303258621
20
1.89078148285157
30
0
41
1
10
11.003415724738
20
2.01778981666399
30
0
41
1
10
10.556054500441
20
2.19023926736799
30
0
41
1
10
10.4067706319821
20
2.24470521476385
30
0
41
1
10
10.1072330207041
20
2.34703673117275
30
0
41
1
10
9.9569745861063
20
2.39489347557151
30
0
41
1
10
9.65466271332861
20
2.48345478743278
30
0
41
1
10
9.50326664124046
20
2.52395655809275
30
0
41
1
10
9.19950832422444
20
2.59728880303769
30
0
41
1
10
9.04710663556759
20
2.63013532739356
30
0
41
1
10
8.74056253854044
20
2.68849546157821
30
0
41
1
10
8.58642319771957
20
2.71400789698726
30
0
41
1
10
8.27555197931144
20
2.7581847288707
30
0
41
1
10
8.11879435063986
20
2.77684996118418
30
0
41
1
10
7.88156688244254
20
2.80057425222594
30
0
41
1
10
7.80215238344243
20
2.80777193388818
30
0
41
1
10
7.6823219094141
20
2.8175237975754
30
0
41
1
10
7.64225389016048
20
2.8205979709532
30
0
41
1
10
7.5618824591968
20
2.8264236942718
30
0
41
1
10
7.52157450645683
20
2.8291741902348
30
0
41
1
10
7.44091293321415
20
2.83445060455986
30
0
41
1
10
7.40055638344271
20
2.83697703812138
30
0
41
1
10
7.32030302332515
20
2.84199097750911
30
0
41
1
10
7.28042122329856
20
2.8444854639115
30
0
41
1
10
7.22143158264441
20
2.84831415184774
30
0
41
1
10
7.20190685432578
20
2.84960389849613
30
0
41
1
10
7.16318407223798
20
2.85220892825879
30
0
41
1
10
7.14399159185464
20
2.85352566845799
30
0
41
1
10
7.10588293528068
20
2.85614751423307
30
0
41
1
10
7.08696201044881
20
2.85745031894669
30
0
41
1
10
7.04912229961025
20
2.85995125279609
30
0
41
1
10
7.03019722486724
20
2.86114797374489
30
0
41
1
10
6.97316483156251
20
2.86451949303435
30
0
41
1
10
6.93477288142725
20
2.86647105918834
30
0
41
1
10
6.85722569750504
20
2.8698725747291
30
0
41
1
10
6.81811527147912
20
2.87133366184096
30
0
41
1
10
6.70006357796908
20
2.87515671398157
30
0
41
1
10
6.6204194038105
20
2.87695523084554
30
0
41
1
10
6.4590565406281
20
2.87944944932798
30
0
41
1
10
6.37729269222308
20
2.88014462110087
30
0
41
1
10
6.21171966064406
20
2.88083503198081
30
0
41
1
10
6.12860916097139
20
2.88083034228211
30
0
41
1
10
5.87872857828535
20
2.88024596069343
30
0
41
1
10
5.71127439567761
20
2.87911686829375
30
0
41
1
10
5.37478401490489
20
2.87694652125396
30
0
41
1
10
5.20573153723345
20
2.87590790616807
30
0
41
1
10
4.95118044233919
20
2.87486796625888
30
0
41
1
10
4.86617166259549
20
2.87459879041316
30
0
41
1
10
4.69588180214154
20
2.87422283802931
30
0
41
1
10
4.52532275983583
20
2.87400612496938
30
0
41
1
10
4.35421636369165
20
2.87413447730114
30
0
41
1
10
4.22561543506794
20
2.8743892921087
30
0
41
1
10
4.18266461032869
20
2.8745009421973
30
0
41
1
10
4.0968737079753
20
2.87477786466562
30
0
41
1
10
4.05404322424178
20
2.8749431671348
30
0
41
1
10
3.92575369809003
20
2.87550857697158
30
0
41
1
10
3.84049982058443
20
2.87597977015142
30
0
41
1
10
3.67043695882802
20
2.87696526954517
30
0
41
1
10
3.58561587132624
20
2.87747544978868
30
0
41
1
10
3.41636832328805
20
2.87840343706003
30
0
41
1
10
3.33194830571694
20
2.87882786642552
30
0
41
1
10
3.16371026578787
20
2.87945128440293
30
0
41
1
10
3.08032812133124
20
2.87964922822471
30
0
41
1
10
2.91553989771973
20
2.87951873133093
30
0
41
1
10
2.83404944049903
20
2.87919441226237
30
0
41
1
10
2.67334859177794
20
2.8775657851335
30
0
41
1
10
2.59415382489451
20
2.87627927406089
30
0
41
1
10
2.47814400382239
20
2.87289131157297
30
0
41
1
10
2.43993846734441
20
2.87151433266536
30
0
41
1
10
2.38352043269254
20
2.86890464813666
30
0
41
1
10
2.36486362754022
20
2.86794332382428
30
0
41
1
10
2.32790038564508
20
2.86579431608911
30
0
41
1
10
2.30966578052678
20
2.86461027284355
30
0
41
1
10
2.25616754960319
20
2.86068057786821
30
0
41
1
10
2.22196208069113
20
2.85756066161775
30
0
41
1
10
2.17376460091069
20
2.85171524853408
30
0
41
1
10
2.15817242579135
20
2.84956209634291
30
0
41
1
10
2.12848532023497
20
2.84479262000406
30
0
41
1
10
2.11446634326441
20
2.8421903783767
30
0
41
1
10
2.08829475147561
20
2.83646296653228
30
0
41
1
10
2.07614005105069
20
2.83333829336195
30
0
41
1
10
2.05952556468094
20
2.82817317250044
30
0
41
1
10
2.05425779134765
20
2.82637152328661
30
0
41
1
10
2.04431359338145
20
2.82258968579183
30
0
41
1
10
2.03964236621891
20
2.82060926516269
30
0
41
1
10
2.02679058237482
20
2.81446953808091
30
0
41
1
10
2.0161463136055
20
2.80789157432122
30
0
41
1
10
2.00903994540983
20
2.80057863775278
30
0
41
1
10
2.00510987973649
20
2.79553070913116
30
0
41
1
10
2.00354499894718
20
2.79291135503567
30
0
41
1
10
2.0001077829204
20
2.78484506349474
30
0
41
1
10
1.99949643835288
20
2.77924840159173
30
0
41
1
10
2.00127937574197
20
2.76762229333434
30
0
41
1
10
2.00366910488236
20
2.76159274391978
30
0
41
1
10
2.00944227799806
20
2.75222912310701
30
0
41
1
10
2.01173956052833
20
2.74905464832904
30
0
41
1
10
2.01696609735029
20
2.74269300106099
30
0
41
1
10
2.01990262336915
20
2.73949445662197
30
0
41
1
10
2.02949776472303
20
2.7298348362942
30
0
41
1
10
2.03693758127522
20
2.72331096531013
30
0
41
1
10
2.05230678540519
20
2.70993228411271
30
0
41
1
10
2.06022308194142
20
2.70307455792437
30
0
41
1
10
2.07593922677341
20
2.68895260050792
30
0
41
1
10
2.08375732788744
20
2.68169001766066
30
0
41
1
10
2.10715048730259
20
2.65930364889584
30
0
41
1
10
2.12274902032931
20
2.64359093426771
30
0
41
1
10
2.15498525619978
20
2.61075749432362
30
0
41
1
10
2.17164367401855
20
2.59360113517366
30
0
41
1
10
2.20614050450166
20
2.55816080532617
30
0
41
1
10
2.22394701184186
20
2.53989572717114
30
0
41
1
10
2.27908638455799
20
2.48360250273984
30
0
41
1
10
2.3181332487431
20
2.44408051320772
30
0
41
1
10
2.40053749294043
20
2.3615249986332
30
0
41
1
10
2.44387400246677
20
2.31848203482025
30
0
41
1
10
2.51211949317468
20
2.25160394549252
30
0
41
1
10
2.53541278603345
20
2.22892647461677
30
0
41
1
10
2.58313065181523
20
2.18286428197121
30
0
41
1
10
2.60759085902319
20
2.15944630590977
30
0
41
1
10
2.68250279032355
20
2.08844943061936
30
0
41
1
10
2.73411652784395
20
2.04048575920092
30
0
41
1
10
2.89401988166762
20
1.89547306776532
30
0
41
1
10
3.00739368998211
20
1.79735366203371
30
0
41
1
10
3.18695019805745
20
1.64984401812225
30
0
41
1
10
3.24837784796426
20
1.6006047841874
30
0
41
1
10
3.34276835821345
20
1.52677693213627
30
0
41
1
10
3.37460664334225
20
1.50217233278829
30
0
41
1
10
3.43901355895974
20
1.45299002600996
30
0
41
1
10
3.47149537662256
20
1.42847906692583
30
0
41
1
10
3.63480494823011
20
1.30666327040697
30
0
41
1
10
3.76876724770625
20
1.2112448289256
30
0
41
1
10
4.04227894464563
20
1.02426523107897
30
0
41
1
10
4.18183061194037
20
0.932699630620874
30
0
41
1
10
4.46570470043247
20
0.753077170509471
30
0
41
1
10
4.61002868553078
20
0.665018502574128
30
0
41
1
10
4.82960279730082
20
0.535275279620663
30
0
41
1
10
4.90330999329171
20
0.49241820357912
30
0
41
1
10
5.05168607581564
20
0.407437363347441
30
0
41
1
10
5.12623024109564
20
0.36538544806524
30
0
41
1
10
5.35054933482883
20
0.2406107524302
30
0
41
1
10
5.50114116702821
20
0.159191121224723
30
0
41
1
10
5.80409745948114
20
-0.0006676608703629
30
0
41
1
10
5.95646241746857
20
-0.0791060558513266
30
0
41
1
10
6.10957646153645
20
-0.156294892299798
30
0
0
SPLINE
5
C9
100
AcDbEntity
8
1
62
256
6
ByLayer
370
18
48
1
60
0
100
AcDbSpline
70
4
71
3
72
78
73
74
40
0
40
0
40
0
40
0
40
0.0615649837304492
40
0.0615649837304492
40
0.0923474755956731
40
0.0923474755956731
40
0.123129967460897
40
0.123129967460897
40
0.153912459326121
40
0.153912459326121
40
0.184694951191345
40
0.184694951191345
40
0.215477443056569
40
0.215477443056569
40
0.246259934921792
40
0.246259934921792
40
0.277042426787016
40
0.277042426787016
40
0.30782491865224
40
0.30782491865224
40
0.323216164584853
40
0.323216164584853
40
0.338607410517466
40
0.338607410517466
40
0.369389902382692
40
0.369389902382692
40
0.400172394247919
40
0.400172394247919
40
0.430954886113145
40
0.430954886113145
40
0.461737377978372
40
0.461737377978372
40
0.492519869843599
40
0.492519869843599
40
0.523302361708825
40
0.523302361708825
40
0.554084853574052
40
0.554084853574052
40
0.584867345439279
40
0.584867345439279
40
0.600258591371893
40
0.600258591371893
40
0.615649837304507
40
0.615649837304507
40
0.63104108323712
40
0.63104108323712
40
0.646432329169734
40
0.646432329169734
40
0.677214821034961
40
0.677214821034961
40
0.707997312900188
40
0.707997312900188
40
0.738779804765414
40
0.738779804765414
40
0.769562296630641
40
0.769562296630641
40
0.800344788495868
40
0.800344788495868
40
0.831127280361095
40
0.831127280361095
40
0.861909772226321
40
0.861909772226321
40
0.892692264091548
40
0.892692264091548
40
0.923474755956775
40
0.923474755956775
40
0.938866001889388
40
0.938866001889388
40
0.954257247822001
40
0.954257247822001
40
0.985039739687229
40
0.985039739687229
40
1
40
1
40
1
40
1
41
1
10
11.5996378158708
20
1.75342757813937
30
0
41
1
10
11.8403256027193
20
1.64741532741525
30
0
41
1
10
12.0805597170715
20
1.53777035799703
30
0
41
1
10
12.4389461661871
20
1.36597103693847
30
0
41
1
10
12.5580857120455
20
1.30747824491817
30
0
41
1
10
12.7962852412074
20
1.18899134730793
30
0
41
1
10
12.9153844021283
20
1.12906795617036
30
0
41
1
10
13.1534348317181
20
1.00763290525472
30
0
41
1
10
13.2723297251232
20
0.946022842331644
30
0
41
1
10
13.5098863145258
20
0.821048921041864
30
0
41
1
10
13.6286169716397
20
0.757803868661881
30
0
41
1
10
13.8664516507701
20
0.630641317095439
30
0
41
1
10
13.9855567281517
20
0.566730686347768
30
0
41
1
10
14.2238258666238
20
0.43767352310536
30
0
41
1
10
14.3429532143369
20
0.372455227443766
30
0
41
1
10
14.5815474227987
20
0.241270019298781
30
0
41
1
10
14.7010731337437
20
0.175414088575082
30
0
41
1
10
14.9408533796763
20
0.0436951395659833
30
0
41
1
10
15.0610355865563
20
-0.0223032631037654
30
0
41
1
10
15.2415935749939
20
-0.121829719798598
30
0
41
1
10
15.3018592106868
20
-0.155116276711368
30
0
41
1
10
15.4221246597722
20
-0.22150004671758
30
0
41
1
10
15.4821744664601
20
-0.254618936332321
30
0
41
1
10
15.6621696993847
20
-0.353580261708373
30
0
41
1
10
15.7820112224622
20
-0.418933280500084
30
0
41
1
10
16.0213065532655
20
-0.548588491739253
30
0
41
1
10
16.1406973241281
20
-0.613008066225575
30
0
41
1
10
16.3789462856902
20
-0.741057603394722
30
0
41
1
10
16.4978704603334
20
-0.80456325419496
30
0
41
1
10
16.7357952941662
20
-0.929700009144455
30
0
41
1
10
16.854810702297
20
-0.991311416189262
30
0
41
1
10
17.0926338758063
20
-1.11318134424596
30
0
41
1
10
17.211403252293
20
-1.17350105151596
30
0
41
1
10
17.4489595355221
20
-1.29237350610543
30
0
41
1
10
17.5678083621319
20
-1.35082231286125
30
0
41
1
10
17.8059728579554
20
-1.46522454670955
30
0
41
1
10
17.9252205319623
20
-1.52129317558723
30
0
41
1
10
18.1638134845028
20
-1.63151798913972
30
0
41
1
10
18.2831393435635
20
-1.68569824831596
30
0
41
1
10
18.4625822003572
20
-1.7649125586106
30
0
41
1
10
18.5224704918105
20
-1.79097794133256
30
0
41
1
10
18.6424446567601
20
-1.84235585410568
30
0
41
1
10
18.7025282547013
20
-1.86767221639042
30
0
41
1
10
18.8228435614596
20
-1.91762552285903
30
0
41
1
10
18.8830979197365
20
-1.9422753090449
30
0
41
1
10
19.0036241611159
20
-1.99088280981178
30
0
41
1
10
19.06377901801
20
-2.01479964301677
30
0
41
1
10
19.2439399316808
20
-2.08535754495691
30
0
41
1
10
19.363681375521
20
-2.13074457694032
30
0
41
1
10
19.6029364922721
20
-2.21762808171624
30
0
41
1
10
19.7224774615717
20
-2.25910625584746
30
0
41
1
10
19.9610916313709
20
-2.33855547376871
30
0
41
1
10
20.0801247316858
20
-2.37656139219825
30
0
41
1
10
20.3178882945082
20
-2.44884475751007
30
0
41
1
10
20.4366825816146
20
-2.48305495358488
30
0
41
1
10
20.6744583863956
20
-2.54732732482057
30
0
41
1
10
20.7933797949965
20
-2.57745552712007
30
0
41
1
10
21.0310367634252
20
-2.63389765421491
30
0
41
1
10
21.1497436234469
20
-2.66021985916879
30
0
41
1
10
21.3874408705267
20
-2.70863424963372
30
0
41
1
10
21.5064760200208
20
-2.73070461532035
30
0
41
1
10
21.7449782975316
20
-2.77056635512741
30
0
41
1
10
21.8643739252263
20
-2.78840213130002
30
0
41
1
10
22.1033325677987
20
-2.81985850773148
30
0
41
1
10
22.2229459941285
20
-2.83344354553603
30
0
41
1
10
22.4029539794366
20
-2.85042246951858
30
0
41
1
10
22.4630579180776
20
-2.85551679455793
30
0
41
1
10
22.5834611942792
20
-2.864578221741
30
0
41
1
10
22.643802313267
20
-2.86854923124613
30
0
41
1
10
22.8244368998925
20
-2.87874677612135
30
0
41
1
10
22.9444465979024
20
-2.88327455448285
30
0
41
1
10
23.1223024746144
20
-2.88661128804304
30
0
41
1
10
23.1804103037323
20
-2.88716139944628
30
0
41
1
10
23.2384815150414
20
-2.88717633673286
30
0
0
SPLINE
5
CA
100
AcDbEntity
8
1
62
256
6
ByLayer
370
18
48
1
60
0
100
AcDbSpline
70
4
71
3
72
136
73
132
40
0
40
0
40
0
40
0
40
0.007757194924069
40
0.007757194924069
40
0.0247686267877255
40
0.0247686267877255
40
0.0417800586513819
40
0.0417800586513819
40
0.0587914905150384
40
0.0587914905150384
40
0.0758029223786949
40
0.0758029223786949
40
0.0843086383105232
40
0.0843086383105232
40
0.0928143542423514
40
0.0928143542423514
40
0.109825786106009
40
0.109825786106009
40
0.126837217969667
40
0.126837217969667
40
0.143848649833325
40
0.143848649833325
40
0.160860081696983
40
0.160860081696983
40
0.177871513560641
40
0.177871513560641
40
0.194882945424299
40
0.194882945424299
40
0.211894377287957
40
0.211894377287957
40
0.228905809151615
40
0.228905809151615
40
0.245917241015273
40
0.245917241015273
40
0.262928672878931
40
0.262928672878931
40
0.279940104742589
40
0.279940104742589
40
0.288445820674417
40
0.288445820674417
40
0.296951536606245
40
0.296951536606245
40
0.313962968469902
40
0.313962968469902
40
0.330974400333558
40
0.330974400333558
40
0.347985832197215
40
0.347985832197215
40
0.364997264060871
40
0.364997264060871
40
0.382008695924528
40
0.382008695924528
40
0.399020127788184
40
0.399020127788184
40
0.416031559651841
40
0.416031559651841
40
0.433042991515497
40
0.433042991515497
40
0.450054423379153
40
0.450054423379153
40
0.458560139310981
40
0.458560139310981
40
0.467065855242809
40
0.467065855242809
40
0.484077287106463
40
0.484077287106463
40
0.501088718970118
40
0.501088718970118
40
0.518100150833773
40
0.518100150833773
40
0.535111582697429
40
0.535111582697429
40
0.552123014561084
40
0.552123014561084
40
0.569134446424739
40
0.569134446424739
40
0.586145878288394
40
0.586145878288394
40
0.603157310152049
40
0.603157310152049
40
0.620168742015703
40
0.620168742015703
40
0.628674457947532
40
0.628674457947532
40
0.63718017387936
40
0.63718017387936
40
0.654191605743016
40
0.654191605743016
40
0.671203037606673
40
0.671203037606673
40
0.688214469470329
40
0.688214469470329
40
0.705225901333986
40
0.705225901333986
40
0.722237333197642
40
0.722237333197642
40
0.739248765061299
40
0.739248765061299
40
0.756260196924955
40
0.756260196924955
40
0.773271628788612
40
0.773271628788612
40
0.790283060652268
40
0.790283060652268
40
0.807294492515925
40
0.807294492515925
40
0.815800208447753
40
0.815800208447753
40
0.824305924379581
40
0.824305924379581
40
0.841317356243236
40
0.841317356243236
40
0.858328788106891
40
0.858328788106891
40
0.875340219970546
40
0.875340219970546
40
0.8923516518342
40
0.8923516518342
40
0.909363083697855
40
0.909363083697855
40
0.92637451556151
40
0.92637451556151
40
0.943385947425165
40
0.943385947425165
40
0.96039737928882
40
0.96039737928882
40
0.977408811152474
40
0.977408811152474
40
0.994420243016129
40
0.994420243016129
40
1
40
1
40
1
40
1
41
1
10
35.0724851107319
20
1.8437711779795
30
0
41
1
10
35.1267278424393
20
1.86680742766623
30
0
41
1
10
35.1809587051079
20
1.88953237296479
30
0
41
1
10
35.3540331789493
20
1.96116996081662
30
0
41
1
10
35.4727375695621
20
2.00902744753731
30
0
41
1
10
35.7100702755763
20
2.10167368267952
30
0
41
1
10
35.8287619748018
20
2.14637858242165
30
0
41
1
10
36.0665515731127
20
2.23213915262491
30
0
41
1
10
36.1855880366122
20
2.27327819936099
30
0
41
1
10
36.4236955096069
20
2.35233459320784
30
0
41
1
10
36.5427392877374
20
2.39027070053288
30
0
41
1
10
36.7216901502408
20
2.44431755521742
30
0
41
1
10
36.7814042585495
20
2.46185861572172
30
0
41
1
10
36.9010111986896
20
2.4959421162022
30
0
41
1
10
36.9609058630713
20
2.51248351865317
30
0
41
1
10
37.1407960988361
20
2.56067109066075
30
0
41
1
10
37.26097638963
20
2.59090276501917
30
0
41
1
10
37.5017441165441
20
2.64757483297936
30
0
41
1
10
37.6217661728757
20
2.6738111368264
30
0
41
1
10
37.8614409001204
20
2.72174136996367
30
0
41
1
10
37.9811546034186
20
2.74343533994826
30
0
41
1
10
38.2200656799478
20
2.78253977488649
30
0
41
1
10
38.3392198715593
20
2.79996380389579
30
0
41
1
10
38.5771223469778
20
2.83043368456438
30
0
41
1
10
38.695936675911
20
2.84344699716971
30
0
41
1
10
38.9336946081355
20
2.86496056537135
30
0
41
1
10
39.0525867645667
20
2.87349034447132
30
0
41
1
10
39.2901284594585
20
2.88616062490297
30
0
41
1
10
39.4087448163175
20
2.89029108675052
30
0
41
1
10
39.6461627973962
20
2.89404212966281
30
0
41
1
10
39.765010695777
20
2.89366831554301
30
0
41
1
10
40.003095078999
20
2.88846606969923
30
0
41
1
10
40.1222589959602
20
2.88363804161187
30
0
41
1
10
40.3606747126853
20
2.86942155616893
30
0
41
1
10
40.4799655592513
20
2.86002590987516
30
0
41
1
10
40.7192493444873
20
2.83675636721989
30
0
41
1
10
40.8392827833368
20
2.82291308361417
30
0
41
1
10
41.0197551613641
20
2.79875374917998
30
0
41
1
10
41.0800343011234
20
2.79012288524626
30
0
41
1
10
41.2003459265008
20
2.77175534377565
30
0
41
1
10
41.2603878037579
20
2.76201378935693
30
0
41
1
10
41.4402690755293
20
2.73117171192439
30
0
41
1
10
41.5598849679488
20
2.70846256514699
30
0
41
1
10
41.7989457478683
20
2.65912599193541
30
0
41
1
10
41.9183557418853
20
2.63248665798224
30
0
41
1
10
42.1566514731696
20
2.57508324392023
30
0
41
1
10
42.2754997787841
20
2.54427547092905
30
0
41
1
10
42.5130538387055
20
2.47883027350449
30
0
41
1
10
42.6318100338384
20
2.44424431823242
30
0
41
1
10
42.869456259653
20
2.37157945723993
30
0
41
1
10
42.9882719059341
20
2.33343042406469
30
0
41
1
10
43.2257026810993
20
2.25326427923528
30
0
41
1
10
43.3443394081599
20
2.21125904209779
30
0
41
1
10
43.5819996434766
20
2.1240274044936
30
0
41
1
10
43.7010654122129
20
2.07886519624182
30
0
41
1
10
43.9395024227168
20
1.9852513913915
30
0
41
1
10
44.0588186598633
20
1.93672280925114
30
0
41
1
10
44.2977008565646
20
1.83620677528515
30
0
41
1
10
44.4173361102685
20
1.78431149928906
30
0
41
1
10
44.5974285194877
20
1.70452069454396
30
0
41
1
10
44.6575655136202
20
1.67760066093643
30
0
41
1
10
44.7780072274574
20
1.62304212696884
30
0
41
1
10
44.8382608684997
20
1.59542147674173
30
0
41
1
10
45.0185845187224
20
1.5117025900623
30
0
41
1
10
45.1383602404642
20
1.45457800618723
30
0
41
1
10
45.3774240712153
20
1.3383564340362
30
0
41
1
10
45.4967682539049
20
1.27935404434078
30
0
41
1
10
45.7353194318912
20
1.15999566064576
30
0
41
1
10
45.8544531508977
20
1.09951717380264
30
0
41
1
10
46.0922336431459
20
0.976611256344285
30
0
41
1
10
46.2108830035674
20
0.914184345666172
30
0
41
1
10
46.4482601961524
20
0.788363510871676
30
0
41
1
10
46.5670309321215
20
0.725048755129762
30
0
41
1
10
46.8046304177537
20
0.597435542217568
30
0
41
1
10
46.9233983305015
20
0.533027344242186
30
0
41
1
10
47.1608609028151
20
0.402972754863555
30
0
41
1
10
47.2796224317599
20
0.337445994191398
30
0
41
1
10
47.5176795722643
20
0.206266859217152
30
0
41
1
10
47.6369876279187
20
0.140641744777952
30
0
41
1
10
47.8758510077316
20
0.0087315554405905
30
0
41
1
10
47.9953684997669
20
-0.0576283595354994
30
0
41
1
10
48.1750152358221
20
-0.157336120745015
30
0
41
1
10
48.2349703121396
20
-0.190578566827867
30
0
41
1
10
48.3550799915495
20
-0.256973249996435
30
0
41
1
10
48.4152832022178
20
-0.290139038172498
30
0
41
1
10
48.5959125443948
20
-0.389278463123674
30
0
41
1
10
48.7160570578203
20
-0.454835304797541
30
0
41
1
10
48.9555764781034
20
-0.58531582941697
30
0
41
1
10
49.0749369240908
20
-0.650258994604116
30
0
41
1
10
49.313411733945
20
-0.778538967678429
30
0
41
1
10
49.4325693256324
20
-0.841802666894779
30
0
41
1
10
49.6706873228332
20
-0.966687351516782
30
0
41
1
10
49.7895822122829
20
-1.02842431102883
30
0
41
1
10
50.0269822693355
20
-1.15057766192706
30
0
41
1
10
50.1455499736558
20
-1.21088180917644
30
0
41
1
10
50.3829163818671
20
-1.32912291404187
30
0
41
1
10
50.5017415694613
20
-1.38702335309193
30
0
41
1
10
50.7393734223629
20
-1.50088699838295
30
0
41
1
10
50.8581409194886
20
-1.556907923659
30
0
41
1
10
51.0958231627129
20
-1.66670820582499
30
0
41
1
10
51.2148020609294
20
-1.72038720094343
30
0
41
1
10
51.4533995125925
20
-1.82475983672526
30
0
41
1
10
51.5729579592846
20
-1.87554891804447
30
0
41
1
10
51.8123478446225
20
-1.97466169463547
30
0
41
1
10
51.9321521512495
20
-2.02301639800726
30
0
41
1
10
52.1124247822012
20
-2.09314817543651
30
0
41
1
10
52.1726390455196
20
-2.11613677211153
30
0
41
1
10
52.292869955425
20
-2.16108654046127
30
0
41
1
10
52.3529389843536
20
-2.18306685750764
30
0
41
1
10
52.5329415365747
20
-2.2476301875362
30
0
41
1
10
52.6526497867929
20
-2.28886376604368
30
0
41
1
10
52.8913692734903
20
-2.36784469395096
30
0
41
1
10
53.0104337276421
20
-2.40551964637461
30
0
41
1
10
53.2484822635817
20
-2.47674583814049
30
0
41
1
10
53.3675017964315
20
-2.51027682962257
30
0
41
1
10
53.6052599527222
20
-2.57348892566145
30
0
41
1
10
53.7239556438649
20
-2.60319931858979
30
0
41
1
10
53.9611617705521
20
-2.65863190504209
30
0
41
1
10
54.0797386453372
20
-2.68429832267159
30
0
41
1
10
54.3172516120985
20
-2.73128212655877
30
0
41
1
10
54.4361401041879
20
-2.75264401993272
30
0
41
1
10
54.6739068208535
20
-2.79125159819432
30
0
41
1
10
54.7927509880628
20
-2.808501101274
30
0
41
1
10
55.0308460436761
20
-2.83858951466382
30
0
41
1
10
55.1501443273108
20
-2.85141520833827
30
0
41
1
10
55.3893693741219
20
-2.87259950229202
30
0
41
1
10
55.509222909483
20
-2.88098649400055
30
0
41
1
10
55.7492590737199
20
-2.89328052093285
30
0
41
1
10
55.8696055477572
20
-2.89716290325586
30
0
41
1
10
56.0292568132016
20
-2.89922709940254
30
0
41
1
10
56.0686924763929
20
-2.89948925387983
30
0
41
1
10
56.1081276820052
20
-2.89950476055645
30
0
0
SPLINE
5
CB
100
AcDbEntity
8
1
62
256
6
ByLayer
370
18
48
1
60
0
100
AcDbSpline
70
4
71
3
72
15
73
11
40
0
40
0
40
0
40
0
40
0.0022386506858243
40
0.0261446009025867
40
0.0529684078089719
40
0.121004026045206
40
0.341675477536126
40
0.543535923915162
40
0.769139241490723
40
1
40
1
40
1
40
1
41
1
10
55.451178373122
20
0.0196210046097747
30
0
41
1
10
55.4512842129246
20
0.020003670984778
30
0
41
1
10
55.4521077540862
20
0.0245739374621508
30
0
41
1
10
55.4437470244021
20
0.0361072549012533
30
0
41
1
10
55.3881401477221
20
0.066676294474064
30
0
41
1
10
55.1521418439002
20
0.163043999078667
30
0
41
1
10
54.7304676102756
20
0.335121776924126
30
0
41
1
10
54.1123539454335
20
0.602387859162377
30
0
41
1
10
53.5117339632575
20
0.884891169084796
30
0
41
1
10
53.106188638157
20
1.08729623297359
30
0
41
1
10
52.904652386728
20
1.19147269449843
30
0
0
SPLINE
5
CC
100
AcDbEntity
8
1
62
256
6
ByLayer
370
18
48
1
60
0
100
AcDbSpline
70
4
71
3
72
16
73
12
40
0
40
0
40
0
40
0
40
0.011510197644328
40
0.0329741363431169
40
0.0883106499152257
40
0.209826805970204
40
0.327230549535587
40
0.446813078122254
40
0.60137878480528
40
0.800527316905219
40
1
40
1
40
1
40
1
41
1
10
22.7560975951492
20
-0.028610811725116
30
0
41
1
10
22.7565563356069
20
-0.027023829637784
30
0
41
1
10
22.7542771384429
20
-0.0216240474064477
30
0
41
1
10
22.719091523252
20
-0.0020372245569718
30
0
41
1
10
22.5625299794386
20
0.0570691622687889
30
0
41
1
10
22.3162610865472
20
0.151586511805902
30
0
41
1
10
21.983749541791
20
0.285025599400086
30
0
41
1
10
21.6028203926816
20
0.444981782617816
30
0
41
1
10
21.1567015782674
20
0.642989201181734
30
0
41
1
10
20.6414526300763
20
0.886542802800335
30
0
41
1
10
20.2713793324574
20
1.07037865201841
30
0
41
1
10
20.0868124595485
20
1.16458419054911
30
0
0
SPLINE
5
CD
100
AcDbEntity
8
1
62
256
6
ByLayer
370
18
48
1
60
0
100
AcDbSpline
70
4
71
3
72
14
73
10
40
0
40
0
40
0
40
0
40
0.0115037636560476
40
0.0332173001955999
40
0.0880565251814484
40
0.278909280792686
40
0.479130637159087
40
0.729832452730316
40
1
40
1
40
1
40
1
41
1
10
39.2406206174601
20
-0.0459315921691257
30
0
41
1
10
39.2410674664286
20
-0.0443340900938551
30
0
41
1
10
39.2389592102355
20
-0.0388027273015439
30
0
41
1
10
39.2049240823455
20
-0.0191087751849182
30
0
41
1
10
38.9962611917753
20
0.059225906513575
30
0
41
1
10
38.5894642905315
20
0.2133875708885
30
0
41
1
10
37.9485821509405
20
0.481923875418147
30
0
41
1
10
37.2587100294537
20
0.7972917148129
30
0
41
1
10
36.7609540362113
20
1.04252765415671
30
0
41
1
10
36.5050811122247
20
1.17388968542033
30
0
0
LINE
5
7D
100
AcDbEntity
8
80
62
256
6
ByLayer
370
18
48
1
60
0
100
AcDbLine
10
0
20
0
30
0
11
-5
21
0
31
0
39
0
210
0
220
0
230
1
0
LINE
5
7E
100
AcDbEntity
8
4
62
256
6
ByLayer
370
18
48
0.05
60
0
100
AcDbLine
10
-5
20
0
30
0
11
64
21
0
31
0
39
0
210
0
220
0
230
1
0
LINE
5
80
100
AcDbEntity
8
SK4
62
256
6
ByLayer
370
18
48
0.05
60
0
100
AcDbLine
10
-39
20
0
30
0
11
64
21
0
31
0
39
0
210
0
220
0
230
1
0
LINE
5
82
100
AcDbEntity
8
81
62
256
6
ByLayer
370
18
48
1
60
0
100
AcDbLine
10
59
20
0
30
0
11
64
21
0
31
0
39
0
210
0
220
0
230
1
0
LINE
5
83
100
AcDbEntity
8
1
62
256
6
ByLayer
370
18
48
1
60
0
100
AcDbLine
10
0
20
2.9
30
0
11
0
21
-2.9
31
0
39
0
210
0
220
0
230
1
0
LINE
5
84
100
AcDbEntity
8
1
62
256
6
ByLayer
370
18
48
1
60
0
100
AcDbLine
10
57.431754
20
-2.9
30
0
11
57.431754
21
-1.241121
31
0
39
0
210
0
220
0
230
1
0
LINE
5
85
100
AcDbEntity
8
1
62
256
6
ByLayer
370
18
48
1
60
0
100
AcDbLine
10
57.431754
20
2.9
30
0
11
57.431754
21
2.807819
31
0
39
0
210
0
220
0
230
1
0
LINE
5
86
100
AcDbEntity
8
1
62
256
6
ByLayer
370
18
48
1
60
0
100
AcDbLine
10
0.2
20
-2.878538
30
0
11
0.2
21
2.878538
31
0
39
0
210
0
220
0
230
1
0
LINE
5
87
100
AcDbEntity
8
SK1
62
256
6
ByLayer
370
18
48
1
60
0
100
AcDbLine
10
0
20
2.9
30
0
11
0
21
-2.9
31
0
39
0
210
0
220
0
230
1
0
LINE
5
89
100
AcDbEntity
8
SK1
62
256
6
ByLayer
370
18
48
1
60
0
100
AcDbLine
10
-34
20
-2.4
30
0
11
-34
21
2.4
31
0
39
0
210
0
220
0
230
1
0
LINE
5
8A
100
AcDbEntity
8
SK1
62
256
6
ByLayer
370
18
48
1
60
0
100
AcDbLine
10
-33.5
20
-2.9
30
0
11
-33.5
21
2.9
31
0
39
0
210
0
220
0
230
1
0
LINE
5
8B
100
AcDbEntity
8
1
62
256
6
ByLayer
370
18
48
1
60
0
100
AcDbLine
10
59
20
0
30
0
11
57.431754
21
2.9
31
0
39
0
210
0
220
0
230
1
0
LINE
5
8C
100
AcDbEntity
8
1
62
256
6
ByLayer
370
18
48
1
60
0
100
AcDbLine
10
57.431754
20
-2.9
30
0
11
59
21
0
31
0
39
0
210
0
220
0
230
1
0
LINE
5
8D
100
AcDbEntity
8
1
62
256
6
ByLayer
370
18
48
1
60
0
100
AcDbLine
10
0.2
20
2.878538
30
0
11
0
21
2.9
31
0
39
0
210
0
220
0
230
1
0
LINE
5
8E
100
AcDbEntity
8
1
62
256
6
ByLayer
370
18
48
1
60
0
100
AcDbLine
10
0
20
-2.9
30
0
11
0.2
21
-2.878538
31
0
39
0
210
0
220
0
230
1
0
LINE
5
8F
100
AcDbEntity
8
1
62
256
6
ByLayer
370
18
48
1
60
0
100
AcDbLine
10
0.2
20
-2.878538
30
0
11
3.040662
21
-2.879603
31
0
39
0
210
0
220
0
230
1
0
LINE
5
90
100
AcDbEntity
8
1
62
256
6
ByLayer
370
18
48
1
60
0
100
AcDbLine
10
6.068178
20
-2.880739
30
0
11
14.041348
21
-2.883729
31
0
39
0
210
0
220
0
230
1
0
LINE
5
91
100
AcDbEntity
8
1
62
256
6
ByLayer
370
18
48
1
60
0
100
AcDbLine
10
23.237801
20
-2.887177
30
0
11
30.472744
21
-2.88989
31
0
39
0
210
0
220
0
230
1
0
LINE
5
92
100
AcDbEntity
8
1
62
256
6
ByLayer
370
18
48
1
60
0
100
AcDbLine
10
39.67369
20
-2.893341
30
0
11
46.903351
21
-2.896052
31
0
39
0
210
0
220
0
230
1
0
LINE
5
93
100
AcDbEntity
8
1
62
256
6
ByLayer
370
18
48
1
60
0
100
AcDbLine
10
56.108676
20
-2.899504
30
0
11
57.431754
21
-2.9
31
0
39
0
210
0
220
0
230
1
0
LINE
5
94
100
AcDbEntity
8
1
62
256
6
ByLayer
370
18
48
1
60
0
100
AcDbLine
10
57.431754
20
2.9
30
0
11
56.108676
21
2.899504
31
0
39
0
210
0
220
0
230
1
0
LINE
5
95
100
AcDbEntity
8
1
62
256
6
ByLayer
370
18
48
1
60
0
100
AcDbLine
10
46.903351
20
2.896052
30
0
11
39.67369
21
2.893341
31
0
39
0
210
0
220
0
230
1
0
LINE
5
96
100
AcDbEntity
8
1
62
256
6
ByLayer
370
18
48
1
60
0
100
AcDbLine
10
30.472744
20
2.88989
30
0
11
23.237801
21
2.887177
31
0
39
0
210
0
220
0
230
1
0
LINE
5
97
100
AcDbEntity
8
1
62
256
6
ByLayer
370
18
48
1
60
0
100
AcDbLine
10
14.041348
20
2.883729
30
0
11
6.068178
21
2.880739
31
0
39
0
210
0
220
0
230
1
0
LINE
5
98
100
AcDbEntity
8
1
62
256
6
ByLayer
370
18
48
1
60
0
100
AcDbLine
10
3.040662
20
2.879603
30
0
11
0.2
21
2.878538
31
0
39
0
210
0
220
0
230
1
0
LINE
5
99
100
AcDbEntity
8
SK1
62
256
6
ByLayer
370
18
48
1
60
0
100
AcDbLine
10
-33.5
20
-2.9
30
0
11
0
21
-2.9
31
0
39
0
210
0
220
0
230
1
0
LINE
5
9A
100
AcDbEntity
8
SK1
62
256
6
ByLayer
370
18
48
1
60
0
100
AcDbLine
10
0
20
2.9
30
0
11
-33.5
21
2.9
31
0
39
0
210
0
220
0
230
1
0
LINE
5
9B
100
AcDbEntity
8
SK1
62
256
6
ByLayer
370
18
48
1
60
0
100
AcDbLine
10
-34
20
-2.4
30
0
11
-33.5
21
-2.9
31
0
39
0
210
0
220
0
230
1
0
LINE
5
9C
100
AcDbEntity
8
SK1
62
256
6
ByLayer
370
18
48
1
60
0
100
AcDbLine
10
-33.5
20
2.9
30
0
11
-34
21
2.4
31
0
39
0
210
0
220
0
230
1
0
LINE
5
9D
100
AcDbEntity
8
SK2
62
256
6
ByLayer
370
13
48
1
60
0
100
AcDbLine
10
-40.5
20
29.682741
30
0
11
-40.5
21
-10.4
31
0
39
0
210
0
220
0
230
1
0
LINE
5
9F
100
AcDbEntity
8
SK2
62
256
6
ByLayer
370
13
48
1
60
0
100
AcDbLine
10
-35.5875
20
2.9
30
0
11
-42.5
21
2.9
31
0
39
0
210
0
220
0
230
1
0
LINE
5
A0
100
AcDbEntity
8
SK2
62
256
6
ByLayer
370
13
48
1
60
0
100
AcDbLine
10
-35.5875
20
-2.9
30
0
11
-42.5
21
-2.9
31
0
39
0
210
0
220
0
230
1
0
LINE
5
A1
100
AcDbEntity
8
1
62
256
6
ByLayer
370
18
48
1
60
1
100
AcDbLine
10
-40.5
20
2.9
30
0
11
-40.960784
21
6.399998
31
0
39
0
210
0
220
0
230
1
0
LINE
5
A2
100
AcDbEntity
8
1
62
256
6
ByLayer
370
18
48
1
60
1
100
AcDbLine
10
-40.960784
20
6.399998
30
0
11
-40.039216
21
6.400002
31
0
39
0
210
0
220
0
230
1
0
LINE
5
A3
100
AcDbEntity
8
1
62
256
6
ByLayer
370
18
48
1
60
1
100
AcDbLine
10
-40.039216
20
6.400002
30
0
11
-40.5
21
2.9
31
0
39
0
210
0
220
0
230
1
0
LINE
5
A4
100
AcDbEntity
8
1
62
256
6
ByLayer
370
18
48
1
60
1
100
AcDbLine
10
-40.5
20
-2.9
30
0
11
-40.039216
21
-6.399998
31
0
39
0
210
0
220
0
230
1
0
LINE
5
A5
100
AcDbEntity
8
1
62
256
6
ByLayer
370
18
48
1
60
1
100
AcDbLine
10
-40.039216
20
-6.399998
30
0
11
-40.960784
21
-6.400002
31
0
39
0
210
0
220
0
230
1
0
LINE
5
A6
100
AcDbEntity
8
1
62
256
6
ByLayer
370
18
48
1
60
1
100
AcDbLine
10
-40.960784
20
-6.400002
30
0
11
-40.5
21
-2.9
31
0
39
0
210
0
220
0
230
1
0
LINE
5
A7
100
AcDbEntity
8
2
62
256
6
ByLayer
370
13
48
1
60
0
100
AcDbLine
10
66.931754
20
29.682741
30
0
11
66.931754
21
-10.4
31
0
39
0
210
0
220
0
230
1
0
LINE
5
A9
100
AcDbEntity
8
2
62
256
6
ByLayer
370
13
48
1
60
0
100
AcDbLine
10
59.019254
20
2.9
30
0
11
68.931754
21
2.9
31
0
39
0
210
0
220
0
230
1
0
LINE
5
AA
100
AcDbEntity
8
2
62
256
6
ByLayer
370
13
48
1
60
0
100
AcDbLine
10
59.019254
20
-2.9
30
0
11
68.931754
21
-2.9
31
0
39
0
210
0
220
0
230
1
0
LINE
5
AB
100
AcDbEntity
8
1
62
256
6
ByLayer
370
18
48
1
60
1
100
AcDbLine
10
66.931754
20
2.9
30
0
11
66.47097
21
6.399998
31
0
39
0
210
0
220
0
230
1
0
LINE
5
AC
100
AcDbEntity
8
1
62
256
6
ByLayer
370
18
48
1
60
1
100
AcDbLine
10
66.47097
20
6.399998
30
0
11
67.392538
21
6.400002
31
0
39
0
210
0
220
0
230
1
0
LINE
5
AD
100
AcDbEntity
8
1
62
256
6
ByLayer
370
18
48
1
60
1
100
AcDbLine
10
67.392538
20
6.400002
30
0
11
66.931754
21
2.9
31
0
39
0
210
0
220
0
230
1
0
LINE
5
AE
100
AcDbEntity
8
1
62
256
6
ByLayer
370
18
48
1
60
1
100
AcDbLine
10
66.931754
20
-2.9
30
0
11
67.392538
21
-6.399998
31
0
39
0
210
0
220
0
230
1
0
LINE
5
AF
100
AcDbEntity
8
1
62
256
6
ByLayer
370
18
48
1
60
1
100
AcDbLine
10
67.392538
20
-6.399998
30
0
11
66.47097
21
-6.400002
31
0
39
0
210
0
220
0
230
1
0
LINE
5
B0
100
AcDbEntity
8
1
62
256
6
ByLayer
370
18
48
1
60
1
100
AcDbLine
10
66.47097
20
-6.400002
30
0
11
66.931754
21
-2.9
31
0
39
0
210
0
220
0
230
1
0
LINE
5
B1
100
AcDbEntity
8
2
62
256
6
ByLayer
370
13
48
1
60
0
100
AcDbLine
10
59.755136
20
-1.396397
30
0
11
70.416232
21
-21.110889
31
0
39
0
210
0
220
0
230
1
0
LINE
5
B2
100
AcDbEntity
8
2
62
256
6
ByLayer
370
13
48
1
60
0
100
AcDbLine
10
59.755136
20
1.396397
30
0
11
70.416232
21
21.110889
31
0
39
0
210
0
220
0
230
1
0
LINE
5
B3
100
AcDbEntity
8
1
62
256
6
ByLayer
370
18
48
1
60
1
100
AcDbLine
10
69.464879
20
-19.351649
30
0
11
72.239971
21
-17.169637
31
0
39
0
210
0
220
0
230
1
0
LINE
5
B4
100
AcDbEntity
8
1
62
256
6
ByLayer
370
18
48
1
60
1
100
AcDbLine
10
72.239971
20
-17.169637
30
0
11
72.710161
21
-17.962233
31
0
39
0
210
0
220
0
230
1
0
LINE
5
B5
100
AcDbEntity
8
1
62
256
6
ByLayer
370
18
48
1
60
1
100
AcDbLine
10
72.710161
20
-17.962233
30
0
11
69.464879
21
-19.351649
31
0
39
0
210
0
220
0
230
1
0
LINE
5
B6
100
AcDbEntity
8
1
62
256
6
ByLayer
370
18
48
1
60
1
100
AcDbLine
10
69.464879
20
19.351649
30
0
11
72.710158
21
17.962234
31
0
39
0
210
0
220
0
230
1
0
LINE
5
B7
100
AcDbEntity
8
1
62
256
6
ByLayer
370
18
48
1
60
1
100
AcDbLine
10
72.710158
20
17.962234
30
0
11
72.239974
21
17.169635
31
0
39
0
210
0
220
0
230
1
0
LINE
5
B8
100
AcDbEntity
8
1
62
256
6
ByLayer
370
18
48
1
60
1
100
AcDbLine
10
72.239974
20
17.169635
30
0
11
69.464879
21
19.351649
31
0
39
0
210
0
220
0
230
1
0
LINE
5
D2
100
AcDbEntity
8
1
62
256
6
ByLayer
370
18
48
1
60
1
100
AcDbLine
10
-40.5
20
2.9
30
0
11
-40.960784
21
6.399998
31
0
39
0
210
0
220
0
230
1
0
LINE
5
D3
100
AcDbEntity
8
1
62
256
6
ByLayer
370
18
48
1
60
1
100
AcDbLine
10
-40.960784
20
6.399998
30
0
11
-40.039216
21
6.400002
31
0
39
0
210
0
220
0
230
1
0
LINE
5
D4
100
AcDbEntity
8
1
62
256
6
ByLayer
370
18
48
1
60
1
100
AcDbLine
10
-40.039216
20
6.400002
30
0
11
-40.5
21
2.9
31
0
39
0
210
0
220
0
230
1
0
LINE
5
D6
100
AcDbEntity
8
1
62
256
6
ByLayer
370
18
48
1
60
1
100
AcDbLine
10
-40.5
20
-2.9
30
0
11
-40.039216
21
-6.399998
31
0
39
0
210
0
220
0
230
1
0
LINE
5
D7
100
AcDbEntity
8
1
62
256
6
ByLayer
370
18
48
1
60
1
100
AcDbLine
10
-40.039216
20
-6.399998
30
0
11
-40.960784
21
-6.400002
31
0
39
0
210
0
220
0
230
1
0
LINE
5
D8
100
AcDbEntity
8
1
62
256
6
ByLayer
370
18
48
1
60
1
100
AcDbLine
10
-40.960784
20
-6.400002
30
0
11
-40.5
21
-2.9
31
0
39
0
210
0
220
0
230
1
0
LINE
5
DC
100
AcDbEntity
8
1
62
256
6
ByLayer
370
18
48
1
60
1
100
AcDbLine
10
66.931754
20
2.9
30
0
11
66.47097
21
6.399998
31
0
39
0
210
0
220
0
230
1
0
LINE
5
DD
100
AcDbEntity
8
1
62
256
6
ByLayer
370
18
48
1
60
1
100
AcDbLine
10
66.47097
20
6.399998
30
0
11
67.392538
21
6.400002
31
0
39
0
210
0
220
0
230
1
0
LINE
5
DE
100
AcDbEntity
8
1
62
256
6
ByLayer
370
18
48
1
60
1
100
AcDbLine
10
67.392538
20
6.400002
30
0
11
66.931754
21
2.9
31
0
39
0
210
0
220
0
230
1
0
LINE
5
E0
100
AcDbEntity
8
1
62
256
6
ByLayer
370
18
48
1
60
1
100
AcDbLine
10
66.931754
20
-2.9
30
0
11
67.392538
21
-6.399998
31
0
39
0
210
0
220
0
230
1
0
LINE
5
E1
100
AcDbEntity
8
1
62
256
6
ByLayer
370
18
48
1
60
1
100
AcDbLine
10
67.392538
20
-6.399998
30
0
11
66.47097
21
-6.400002
31
0
39
0
210
0
220
0
230
1
0
LINE
5
E2
100
AcDbEntity
8
1
62
256
6
ByLayer
370
18
48
1
60
1
100
AcDbLine
10
66.47097
20
-6.400002
30
0
11
66.931754
21
-2.9
31
0
39
0
210
0
220
0
230
1
0
LINE
5
E5
100
AcDbEntity
8
1
62
256
6
ByLayer
370
18
48
1
60
1
100
AcDbLine
10
69.464879
20
-19.351649
30
0
11
72.239971
21
-17.169637
31
0
39
0
210
0
220
0
230
1
0
LINE
5
E6
100
AcDbEntity
8
1
62
256
6
ByLayer
370
18
48
1
60
1
100
AcDbLine
10
72.239971
20
-17.169637
30
0
11
72.710161
21
-17.962233
31
0
39
0
210
0
220
0
230
1
0
LINE
5
E7
100
AcDbEntity
8
1
62
256
6
ByLayer
370
18
48
1
60
1
100
AcDbLine
10
72.710161
20
-17.962233
30
0
11
69.464879
21
-19.351649
31
0
39
0
210
0
220
0
230
1
0
LINE
5
E9
100
AcDbEntity
8
1
62
256
6
ByLayer
370
18
48
1
60
1
100
AcDbLine
10
69.464879
20
19.351649
30
0
11
72.710158
21
17.962234
31
0
39
0
210
0
220
0
230
1
0
LINE
5
EA
100
AcDbEntity
8
1
62
256
6
ByLayer
370
18
48
1
60
1
100
AcDbLine
10
72.710158
20
17.962234
30
0
11
72.239974
21
17.169635
31
0
39
0
210
0
220
0
230
1
0
LINE
5
EB
100
AcDbEntity
8
1
62
256
6
ByLayer
370
18
48
1
60
1
100
AcDbLine
10
72.239974
20
17.169635
30
0
11
69.464879
21
19.351649
31
0
39
0
210
0
220
0
230
1
0
MTEXT
5
CE
100
AcDbEntity
8
SK2
62
256
6
ByLayer
370
18
48
1
60
0
100
AcDbMText
10
-41.841114
20
14.558438
30
0
210
0
220
0
230
1
1
%%c
40
3
41
0
44
1.084337
50
90
71
7
72
5
7
iso_b_vert
0
MTEXT
5
D1
100
AcDbEntity
8
SK2
62
256
6
ByLayer
370
18
48
1
60
0
100
AcDbMText
10
-41.841114
20
20.535
30
0
210
0
220
0
230
1
1
\W0.7468;5.800
40
3
41
0
44
1.084337
50
90
71
7
72
5
7
iso_b_vert
0
MTEXT
5
DA
100
AcDbEntity
8
2
62
256
6
ByLayer
370
18
48
1
60
0
100
AcDbMText
10
65.590639
20
14.558438
30
0
210
0
220
0
230
1
1
%%c
40
3
41
0
44
1.084337
50
90
71
7
72
5
7
iso_b_vert
0
MTEXT
5
DB
100
AcDbEntity
8
2
62
256
6
ByLayer
370
18
48
1
60
0
100
AcDbMText
10
65.590639
20
20.535
30
0
210
0
220
0
230
1
1
\W0.7468;5.800
40
3
41
0
44
1.084337
50
90
71
7
72
5
7
iso_b_vert
0
MTEXT
5
E4
100
AcDbEntity
8
2
62
256
6
ByLayer
370
18
48
1
60
0
100
AcDbMText
10
78.092229
20
-2.114886
30
0
210
0
220
0
230
1
1
\W0.6008;118%%d
40
3
41
0
44
1.084337
50
0
71
7
72
5
7
iso_b_vert
0
MTEXT
5
ED
100
AcDbEntity
8
SK6
62
256
6
ByLayer
370
18
48
1
60
0
100
AcDbMText
10
5.617859
20
-67.114886
30
0
210
0
220
0
230
1
1
\W0.7690;R0035.8
40
3
41
0
44
1.084337
50
0
71
7
72
5
7
iso_b_vert
0
HATCH
5
D5
100
AcDbEntity
8
SK2
62
256
6
ByLayer
370
13
48
1
60
0
100
AcDbHatch
10
0
20
0
30
0
210
0
220
0
230
1
2
ANSI31
70
0
71
0
91
1
92
5
93
3
72
1
10
-40.5
20
2.90000000000001
11
-40.9607837415528
21
6.39999830744682
72
1
10
-40.9607837415528
20
6.39999830744682
11
-40.0392162584472
21
6.40000169255319
72
1
10
-40.0392162584472
20
6.40000169255319
11
-40.5
21
2.90000000000001
97
0
75
0
76
1
52
0
41
0.0062
77
0
78
1
53
45
43
0
44
0
45
-0.0139193969876572
46
0.0139193969876572
79
0
47
0
98
1
10
0
20
0
0
HATCH
5
D9
100
AcDbEntity
8
SK2
62
256
6
ByLayer
370
13
48
1
60
0
100
AcDbHatch
10
0
20
0
30
0
210
0
220
0
230
1
2
ANSI31
70
0
71
0
91
1
92
5
93
3
72
1
10
-40.5
20
-2.90000000000001
11
-40.0392162584472
21
-6.39999830744682
72
1
10
-40.0392162584472
20
-6.39999830744682
11
-40.9607837415528
21
-6.40000169255319
72
1
10
-40.9607837415528
20
-6.40000169255319
11
-40.5
21
-2.90000000000001
97
0
75
0
76
1
52
0
41
0.0062
77
0
78
1
53
45
43
0
44
0
45
-0.0139193969876572
46
0.0139193969876572
79
0
47
0
98
1
10
0
20
0
0
HATCH
5
DF
100
AcDbEntity
8
2
62
256
6
ByLayer
370
13
48
1
60
0
100
AcDbHatch
10
0
20
0
30
0
210
0
220
0
230
1
2
ANSI31
70
0
71
0
91
1
92
5
93
3
72
1
10
66.9317537843381
20
2.90000000000001
11
66.4709700427853
21
6.39999830744682
72
1
10
66.4709700427853
20
6.39999830744682
11
67.3925375258908
21
6.40000169255319
72
1
10
67.3925375258908
20
6.40000169255319
11
66.9317537843381
21
2.90000000000001
97
0
75
0
76
1
52
0
41
0.0062
77
0
78
1
53
45
43
0
44
0
45
-0.0139193969876572
46
0.0139193969876572
79
0
47
0
98
1
10
0
20
0
0
HATCH
5
E3
100
AcDbEntity
8
2
62
256
6
ByLayer
370
13
48
1
60
0
100
AcDbHatch
10
0
20
0
30
0
210
0
220
0
230
1
2
ANSI31
70
0
71
0
91
1
92
5
93
3
72
1
10
66.9317537843381
20
-2.90000000000001
11
67.3925375258908
21
-6.39999830744682
72
1
10
67.3925375258908
20
-6.39999830744682
11
66.4709700427853
21
-6.40000169255319
72
1
10
66.4709700427853
20
-6.40000169255319
11
66.9317537843381
21
-2.90000000000001
97
0
75
0
76
1
52
0
41
0.0062
77
0
78
1
53
45
43
0
44
0
45
-0.0139193969876572
46
0.0139193969876572
79
0
47
0
98
1
10
0
20
0
0
HATCH
5
E8
100
AcDbEntity
8
2
62
256
6
ByLayer
370
13
48
1
60
0
100
AcDbHatch
10
0
20
0
30
0
210
0
220
0
230
1
2
ANSI31
70
0
71
0
91
1
92
5
93
3
72
1
10
69.4648791987519
20
-19.3516485952884
11
72.2399711078381
21
-17.1696369764526
72
1
10
72.2399711078381
20
-17.1696369764526
11
72.7101613929249
21
-17.9622325364572
72
1
10
72.7101613929249
20
-17.9622325364572
11
69.4648791987519
21
-19.3516485952884
97
0
75
0
76
1
52
0
41
0.0062
77
0
78
1
53
45
43
0
44
0
45
-0.0139193969876572
46
0.0139193969876572
79
0
47
0
98
1
10
0
20
0
0
HATCH
5
EC
100
AcDbEntity
8
2
62
256
6
ByLayer
370
13
48
1
60
0
100
AcDbHatch
10
0
20
0
30
0
210
0
220
0
230
1
2
ANSI31
70
0
71
0
91
1
92
5
93
3
72
1
10
69.4648791987519
20
19.3516485952884
11
72.7101584815525
21
17.9622342635518
72
1
10
72.7101584815525
20
17.9622342635518
11
72.2399740192105
21
17.169635249358
72
1
10
72.2399740192105
20
17.169635249358
11
69.4648791987519
21
19.3516485952884
97
0
75
0
76
1
52
0
41
0.0062
77
0
78
1
53
45
43
0
44
0
45
-0.0139193969876572
46
0.0139193969876572
79
0
47
0
98
1
10
0
20
0
0
DIMENSION
5
F0
100
AcDbEntity
8
SK2
62
256
6
ByLayer
370
18
48
1
60
0
100
AcDbDimension
2
_U0
10
59
20
-49.455516
30
0
11
12.5
21
-49.455516
31
0
70
32
71
1
72
1
41
1
210
0
220
0
230
1
3
Standard
100
AcDbAlignedDimension
13
-34
23
-2.9
33
0
14
59
24
0
34
0
50
0
100
AcDbRotatedDimension
1001
ACAD
1000
DSTYLE
1002
{
1070
   371
1070
    13
1070
   372
1070
    13
1070
     3
1000

1070
   170
1070
     0
1070
   144
1040
1.0
1070
   277
1070
     2
1070
   284
1070
     8
1070
   278
1070
    46
1070
   146
1040
1.166667
1070
   345
1005
16
1070
   347
1005
16
1070
   346
1005
16
1070
   344
1005
0
1070
   343
1005
0
1070
   172
1070
     1
1070
    76
1070
     0
1070
    75
1070
     0
1070
   282
1070
     0
1070
   281
1070
     0
1070
    71
1070
     0
1070
    74
1070
     0
1070
   279
1070
     0
1070
   173
1070
     1
1070
   340
1005
CF
1070
   271
1070
     2
1070
   272
1070
     3
1070
    77
1070
     1
1070
    73
1070
     1
1070
   171
1070
     3
1070
   274
1070
     4
1070
   177
1070
     2
1070
   176
1070
     2
1070
   178
1070
     2
1070
    78
1070
     8
1070
    48
1040
-0.1
1070
    41
1040
3.5
1070
   147
1040
1.5
1070
    42
1040
1.5875
1070
    44
1040
2.0
1070
   140
1040
3.0
1002
}
1001
ACAD_DSTYLE_DIM_LINETYPE
1070
   380
1005
16
1001
ACAD_DSTYLE_DIM_EXT1_LINETYPE
1070
   381
1005
16
1001
ACAD_DSTYLE_DIM_EXT2_LINETYPE
1070
   382
1005
16
0
DIMENSION
5
109
100
AcDbEntity
8
2
62
256
6
ByLayer
370
18
48
1
60
0
100
AcDbDimension
2
_U1
10
2
20
-39.455516
30
0
11
30.5
21
-39.455516
31
0
70
32
71
1
72
1
41
1
210
0
220
0
230
1
3
Standard
100
AcDbAlignedDimension
13
59
23
0
33
0
14
2
24
-2.9
34
0
50
0
100
AcDbRotatedDimension
1001
ACAD
1000
DSTYLE
1002
{
1070
   371
1070
    13
1070
   372
1070
    13
1070
     3
1000

1070
   170
1070
     0
1070
   144
1040
1.0
1070
   277
1070
     2
1070
   284
1070
     8
1070
   278
1070
    46
1070
   146
1040
1.166667
1070
   345
1005
16
1070
   347
1005
16
1070
   346
1005
16
1070
   344
1005
0
1070
   343
1005
0
1070
   172
1070
     1
1070
    76
1070
     0
1070
    75
1070
     0
1070
   282
1070
     0
1070
   281
1070
     0
1070
    71
1070
     0
1070
    74
1070
     0
1070
   279
1070
     0
1070
   173
1070
     1
1070
   340
1005
CF
1070
   271
1070
     2
1070
   272
1070
     3
1070
    77
1070
     1
1070
    73
1070
     1
1070
   171
1070
     3
1070
   274
1070
     4
1070
   177
1070
     2
1070
   176
1070
     2
1070
   178
1070
     2
1070
    78
1070
     8
1070
    48
1040
-0.1
1070
    41
1040
3.5
1070
   147
1040
1.5
1070
    42
1040
1.5875
1070
    44
1040
2.0
1070
   140
1040
3.0
1002
}
1001
ACAD_DSTYLE_DIM_LINETYPE
1070
   380
1005
16
1001
ACAD_DSTYLE_DIM_EXT1_LINETYPE
1070
   381
1005
16
1001
ACAD_DSTYLE_DIM_EXT2_LINETYPE
1070
   382
1005
16
0
DIMENSION
5
121
100
AcDbEntity
8
SK2
62
256
6
ByLayer
370
18
48
1
60
0
100
AcDbDimension
2
_U2
10
0
20
-34.455516
30
0
11
-17
21
-34.455516
31
0
70
32
71
1
72
1
41
1
210
0
220
0
230
1
3
Standard
100
AcDbAlignedDimension
13
-34
23
-2.9
33
0
14
0
24
-2.9
34
0
50
0
100
AcDbRotatedDimension
1001
ACAD
1000
DSTYLE
1002
{
1070
   371
1070
    13
1070
   372
1070
    13
1070
     3
1000

1070
   170
1070
     0
1070
   144
1040
1.0
1070
   277
1070
     2
1070
   284
1070
     8
1070
   278
1070
    46
1070
   146
1040
1.166667
1070
   345
1005
16
1070
   347
1005
16
1070
   346
1005
16
1070
   344
1005
0
1070
   343
1005
0
1070
   172
1070
     1
1070
    76
1070
     0
1070
    75
1070
     0
1070
   282
1070
     0
1070
   281
1070
     0
1070
    71
1070
     0
1070
    74
1070
     0
1070
   279
1070
     0
1070
   173
1070
     1
1070
   340
1005
CF
1070
   271
1070
     2
1070
   272
1070
     3
1070
    77
1070
     1
1070
    73
1070
     1
1070
   171
1070
     3
1070
   274
1070
     4
1070
   177
1070
     2
1070
   176
1070
     2
1070
   178
1070
     2
1070
    78
1070
     8
1070
    48
1040
-0.1
1070
    41
1040
3.5
1070
   147
1040
1.5
1070
    42
1040
1.5875
1070
    44
1040
2.0
1070
   140
1040
3.0
1002
}
1001
ACAD_DSTYLE_DIM_LINETYPE
1070
   380
1005
16
1001
ACAD_DSTYLE_DIM_EXT1_LINETYPE
1070
   381
1005
16
1001
ACAD_DSTYLE_DIM_EXT2_LINETYPE
1070
   382
1005
16
0
DIMENSION
5
139
100
AcDbEntity
8
2
62
256
6
ByLayer
370
18
48
1
60
0
100
AcDbDimension
2
_U3
10
16.25
20
-32.455516
30
0
11
37.625
21
-32.455516
31
0
70
32
71
1
72
1
41
1
210
0
220
0
230
1
3
Standard
100
AcDbAlignedDimension
13
59
23
0
33
0
14
16.25
24
-2.9
34
0
50
0
100
AcDbRotatedDimension
1001
ACAD
1000
DSTYLE
1002
{
1070
   371
1070
    13
1070
   372
1070
    13
1070
     3
1000

1070
   170
1070
     0
1070
   144
1040
1.0
1070
   277
1070
     2
1070
   284
1070
     8
1070
   278
1070
    46
1070
   146
1040
1.166667
1070
   345
1005
16
1070
   347
1005
16
1070
   346
1005
16
1070
   344
1005
0
1070
   343
1005
0
1070
   172
1070
     1
1070
    76
1070
     0
1070
    75
1070
     0
1070
   282
1070
     0
1070
   281
1070
     0
1070
    71
1070
     0
1070
    74
1070
     0
1070
   279
1070
     0
1070
   173
1070
     1
1070
   340
1005
CF
1070
   271
1070
     2
1070
   272
1070
     3
1070
    77
1070
     1
1070
    73
1070
     1
1070
   171
1070
     3
1070
   274
1070
     4
1070
   177
1070
     2
1070
   176
1070
     2
1070
   178
1070
     2
1070
    78
1070
     8
1070
    48
1040
-0.1
1070
    41
1040
3.5
1070
   147
1040
1.5
1070
    42
1040
1.5875
1070
    44
1040
2.0
1070
   140
1040
3.0
1002
}
1001
ACAD_DSTYLE_DIM_LINETYPE
1070
   380
1005
16
1001
ACAD_DSTYLE_DIM_EXT1_LINETYPE
1070
   381
1005
16
1001
ACAD_DSTYLE_DIM_EXT2_LINETYPE
1070
   382
1005
16
0
ENDSEC
0
SECTION
2
OBJECTS
0
DICTIONARY
5
1c3
330
0
100
AcDbDictionary
280
0
281
1
3
ACAD_GROUP
350
1c4
3
ACAD_MLINESTYLE
350
1c5
0
DICTIONARY
5
1c4
330
0
100
AcDbDictionary
280
0
281
1
0
DICTIONARY
5
1c5
330
0
100
AcDbDictionary
280
0
281
1
3
Standard
350
18
0
MLINESTYLE
5
18
330
1c5
100
AcDbMlineStyle
2
Standard
70
0
3

62
256
51
90
52
90
71
2
49
-0.5
62
256
6
ByLayer
49
0.5
62
256
6
ByLayer
0
RASTERVARIABLES
5
1af
330

100
AcDbRasterVariables
90
0
70
1
71
1
72
1
0
ENDSEC
0
EOF
