0
SECTION
2
HEADER
9
$ACADVER
1
AC1015
9
$DWGCODEPAGE
3
ANSI_1252
9
$HANDSEED
5
1cf
9
$ANGBASE
50
0
9
$ANGDIR
70
0
9
$ATTMODE
70
1
9
$AUNITS
70
0
9
$AUPREC
70
0
9
$CECOLOR
62
256
9
$CELTSCALE
40
1
9
$CELTYPE
6
ByLayer
9
$CELWEIGHT
370
18
9
$CLAYER
8
0
9
$CMLJUST
70
0
9
$CMLSCALE
40
1
9
$CMLSTYLE
2
Standard
9
$DIMSTYLE
2
Standard
9
$TEXTSIZE
40
0.2
9
$TEXTSTYLE
7
Standard
9
$LUNITS
70
2
9
$LUPREC
70
4
9
$EXTNAMES
290
1
9
$INSUNITS
70
4
9
$LTSCALE
40
1
9
$LWDISPLAY
290
1
9
$PDMODE
70
0
9
$PDSIZE
40
0
9
$PLINEGEN
70
0
0
ENDSEC
0
SECTION
2
CLASSES
0
CLASS
1
RASTERVARIABLES
2
AcDbRasterVariables
3
ISM
90
0
280
0
281
0
0
ENDSEC
0
SECTION
2
TABLES
0
TABLE
2
VPORT
5
1c5
100
AcDbSymbolTable
0
VPORT
5
1
100
AcDbSymbolTableRecord
100
AcDbViewportTableRecord
2
*Active
70
0
10
0
20
0
11
1
21
1
12
-1
22
1
13
0
23
0
14
0.5
24
0.5
15
10
25
10
16
0
26
0
36
1
17
0
27
0
37
0
0
ENDTAB
0
TABLE
2
LTYPE
5
1c6
100
AcDbSymbolTable
0
LTYPE
5
14
100
AcDbSymbolTableRecord
100
AcDbLinetypeTableRecord
70
0
2
ByBlock
3

72
65
73
0
40
0
0
LTYPE
5
15
100
AcDbSymbolTableRecord
100
AcDbLinetypeTableRecord
70
0
2
ByLayer
3

72
65
73
0
40
0
0
LTYPE
5
16
100
AcDbSymbolTableRecord
100
AcDbLinetypeTableRecord
70
0
2
Continuous
3
Solid line
72
65
73
0
40
0
0
LTYPE
5
6E
100
AcDbSymbolTableRecord
100
AcDbLinetypeTableRecord
70
0
2
CENTER
3
____ _ ____ _ ____ _ ____
72
65
73
4
40
47.5
49
22
74
0
49
-8.5
74
0
49
8.5
74
0
49
-8.5
74
0
0
LTYPE
5
6F
100
AcDbSymbolTableRecord
100
AcDbLinetypeTableRecord
70
0
2
DASHED
3
__ __ __ __ __ __ __ __ __
72
65
73
2
40
25.72
49
12.86
74
0
49
-12.86
74
0
0
ENDTAB
0
TABLE
2
LAYER
5
1c7
100
AcDbSymbolTable
0
LAYER
5
10
100
AcDbSymbolTableRecord
100
AcDbLayerTableRecord
2
0
70
0
62
7
6
Continuous
290
1
370
-3
390
0
0
LAYER
5
71
100
AcDbSymbolTableRecord
100
AcDbLayerTableRecord
2
81
70
0
62
-3
6
Continuous
290
1
370
-3
390
0
0
LAYER
5
73
100
AcDbSymbolTableRecord
100
AcDbLayerTableRecord
2
80
70
0
62
-6
6
Continuous
290
1
370
-3
390
0
0
LAYER
5
75
100
AcDbSymbolTableRecord
100
AcDbLayerTableRecord
2
1
70
0
62
4
6
Continuous
290
1
370
-3
390
0
0
LAYER
5
7F
100
AcDbSymbolTableRecord
100
AcDbLayerTableRecord
2
4
70
0
62
-2
6
CENTER
290
1
370
-3
390
0
0
LAYER
5
A8
100
AcDbSymbolTableRecord
100
AcDbLayerTableRecord
2
2
70
0
62
7
6
Continuous
290
1
370
-3
390
0
0
LAYER
5
F2
100
AcDbSymbolTableRecord
100
AcDbLayerTableRecord
2
Defpoints
70
0
62
7
6
Continuous
290
0
370
-3
390
0
0
LAYER
5
1af
100
AcDbSymbolTableRecord
100
AcDbLayerTableRecord
2
SK4
70
0
62
2
6
CENTER
290
1
370
-3
390
0
0
LAYER
5
1b0
100
AcDbSymbolTableRecord
100
AcDbLayerTableRecord
2
SK1
70
0
62
4
6
Continuous
290
1
370
-3
390
0
0
LAYER
5
1b1
100
AcDbSymbolTableRecord
100
AcDbLayerTableRecord
2
SK2
70
0
62
7
6
Continuous
290
1
370
-3
390
0
0
LAYER
5
1b2
100
AcDbSymbolTableRecord
100
AcDbLayerTableRecord
2
CUT
70
0
62
-1
6
Continuous
290
1
370
-3
390
0
0
LAYER
5
1b3
100
AcDbSymbolTableRecord
100
AcDbLayerTableRecord
2
NOCUT
70
0
62
-7
6
Continuous
290
1
370
-3
390
0
0
LAYER
5
1b4
100
AcDbSymbolTableRecord
100
AcDbLayerTableRecord
2
SK6
70
0
62
5
6
Continuous
290
1
370
-3
390
0
0
ENDTAB
0
TABLE
2
STYLE
5
1c8
100
AcDbSymbolTable
0
STYLE
5
11
100
AcDbSymbolTableRecord
100
AcDbTextStyleTableRecord
2
Standard
3
txt
70
0
71
0
40
0
41
1
42
0
50
0
0
STYLE
5
CE
100
AcDbSymbolTableRecord
100
AcDbTextStyleTableRecord
2
iso_b_vert
3
simplex.shx
70
0
71
0
40
0
41
1
42
0
50
0
0
STYLE
5
CF
100
AcDbSymbolTableRecord
100
AcDbTextStyleTableRecord
2
DWGDirectTextStyle
3
simplex
70
0
71
0
40
0
41
1
42
0
50
0
0
ENDTAB
0
TABLE
2
DIMSTYLE
5
1c9
100
AcDbSymbolTable
100
AcDbDimStyleTable
0
DIMSTYLE
105
27
100
AcDbSymbolTableRecord
100
AcDbDimStyleTableRecord
2
Standard
70
0
3
<>
41
0.18
42
0.0625
44
0.18
140
0.18
147
0.09
73
0
74
0
77
1
271
2
275
0
278
52
280
0
340
11
0
ENDTAB
0
TABLE
2
VIEW
5
1ca
100
AcDbSymbolTable
0
ENDTAB
0
TABLE
2
UCS
5
1cb
100
AcDbSymbolTable
0
ENDTAB
0
TABLE
2
APPID
5
1cc
100
AcDbSymbolTable
0
APPID
5
12
100
AcDbSymbolTableRecord
100
AcDbRegAppTableRecord
2
ACAD
70
0
0
APPID
5
EE
100
AcDbSymbolTableRecord
100
AcDbRegAppTableRecord
2
ACAD_DSTYLE_DIMBREAK
70
0
0
APPID
5
16E
100
AcDbSymbolTableRecord
100
AcDbRegAppTableRecord
2
ACAD_DSTYLE_DIM_LINETYPE
70
0
0
APPID
5
16F
100
AcDbSymbolTableRecord
100
AcDbRegAppTableRecord
2
ACAD_DSTYLE_DIM_EXT1_LINETYPE
70
0
0
APPID
5
170
100
AcDbSymbolTableRecord
100
AcDbRegAppTableRecord
2
ACAD_DSTYLE_DIM_EXT2_LINETYPE
70
0
0
APPID
5
1AB
100
AcDbSymbolTableRecord
100
AcDbRegAppTableRecord
2
ACAD_MLEADERVER
70
0
0
ENDTAB
0
TABLE
2
BLOCK_RECORD
5
1cd
100
AcDbSymbolTable
0
BLOCK_RECORD
5
1F
100
AcDbSymbolTableRecord
100
AcDbBlockTableRecord
2
*Model_Space
340
0
70
0
0
BLOCK_RECORD
5
1B
100
AcDbSymbolTableRecord
100
AcDbBlockTableRecord
2
*Paper_Space
340
0
70
0
0
BLOCK_RECORD
5
23
100
AcDbSymbolTableRecord
100
AcDbBlockTableRecord
2
*Paper_Space0
340
0
70
0
0
BLOCK_RECORD
5
F3
100
AcDbSymbolTableRecord
100
AcDbBlockTableRecord
2
*D1
340
0
70
0
0
BLOCK_RECORD
5
FF
100
AcDbSymbolTableRecord
100
AcDbBlockTableRecord
2
_U0
340
0
70
0
0
BLOCK_RECORD
5
10B
100
AcDbSymbolTableRecord
100
AcDbBlockTableRecord
2
*D3
340
0
70
0
0
BLOCK_RECORD
5
117
100
AcDbSymbolTableRecord
100
AcDbBlockTableRecord
2
_U1
340
0
70
0
0
BLOCK_RECORD
5
123
100
AcDbSymbolTableRecord
100
AcDbBlockTableRecord
2
*D5
340
0
70
0
0
BLOCK_RECORD
5
12F
100
AcDbSymbolTableRecord
100
AcDbBlockTableRecord
2
_U2
340
0
70
0
0
BLOCK_RECORD
5
13B
100
AcDbSymbolTableRecord
100
AcDbBlockTableRecord
2
*D7
340
0
70
0
0
BLOCK_RECORD
5
147
100
AcDbSymbolTableRecord
100
AcDbBlockTableRecord
2
_U3
340
0
70
0
0
ENDTAB
0
ENDSEC
0
SECTION
2
BLOCKS
0
BLOCK
5
20
100
AcDbEntity
8
0
100
AcDbBlockBegin
2
*Model_Space
70
0
10
0
20
0
30
0
3
*Model_Space
0
ENDBLK
5
21
100
AcDbEntity
8
0
100
AcDbBlockEnd
0
BLOCK
5
1C
100
AcDbEntity
8
0
100
AcDbBlockBegin
2
*Paper_Space
70
0
10
0
20
0
30
0
3
*Paper_Space
0
ENDBLK
5
1D
100
AcDbEntity
8
0
100
AcDbBlockEnd
0
BLOCK
5
24
100
AcDbEntity
8
0
100
AcDbBlockBegin
2
*Paper_Space0
70
0
10
0
20
0
30
0
3
*Paper_Space0
0
ENDBLK
5
25
100
AcDbEntity
8
0
100
AcDbBlockEnd
0
BLOCK
5
F4
100
AcDbEntity
8
0
100
AcDbBlockBegin
2
*D1
70
1
10
0
20
0
30
0
3
*D1
0
LINE
5
F6
100
AcDbEntity
8
0
62
256
6
ByLayer
370
-2
48
1
60
0
100
AcDbLine
10
-26
20
-2.9375
30
0
11
-26
21
-50.091957
31
0
39
0
210
0
220
0
230
1
0
LINE
5
F7
100
AcDbEntity
8
0
62
256
6
ByLayer
370
-2
48
1
60
0
100
AcDbLine
10
35
20
-1.5875
30
0
11
35
21
-50.091957
31
0
39
0
210
0
220
0
230
1
0
LINE
5
F8
100
AcDbEntity
8
0
62
256
6
ByLayer
370
-2
48
1
60
0
100
AcDbLine
10
-22.5
20
-48.091957
30
0
11
31.5
21
-48.091957
31
0
39
0
210
0
220
0
230
1
0
SOLID
5
F9
100
AcDbEntity
8
0
62
256
6
ByLayer
370
-1
48
1
60
0
100
AcDbTrace
10
-22.5
20
-47.508624
30
0
11
-22.5
21
-48.67529
31
0
12
-26
22
-48.091957
32
0
13
-26
23
-48.091957
33
0
39
0
210
0
220
0
230
1
0
SOLID
5
FA
100
AcDbEntity
8
0
62
256
6
ByLayer
370
-1
48
1
60
0
100
AcDbTrace
10
31.5
20
-48.67529
30
0
11
31.5
21
-47.508624
31
0
12
35
22
-48.091957
32
0
13
35
23
-48.091957
33
0
39
0
210
0
220
0
230
1
0
MTEXT
5
FB
100
AcDbEntity
8
0
62
256
6
ByLayer
370
18
48
1
60
0
100
AcDbMText
10
4.5
20
-42.091957
30
0
210
0
220
0
230
1
1
\A1;61
40
3
41
0
44
1
50
0
71
5
72
5
7
iso_b_vert
0
POINT
5
FC
100
AcDbEntity
8
Defpoints
62
0
6
ByLayer
370
-1
48
1
60
0
100
AcDbPoint
10
-26
20
-1.35
30
0
39
0
210
0
220
0
230
1
50
360
0
POINT
5
FD
100
AcDbEntity
8
Defpoints
62
0
6
ByLayer
370
-1
48
1
60
0
100
AcDbPoint
10
35
20
0
30
0
39
0
210
0
220
0
230
1
50
360
0
POINT
5
FE
100
AcDbEntity
8
Defpoints
62
0
6
ByLayer
370
-1
48
1
60
0
100
AcDbPoint
10
35
20
-48.091957
30
0
39
0
210
0
220
0
230
1
50
360
0
ENDBLK
5
F5
100
AcDbEntity
8
0
100
AcDbBlockEnd
0
BLOCK
5
106
100
AcDbEntity
8
0
100
AcDbBlockBegin
2
_U0
70
0
10
0
20
0
30
0
3
_U0
0
MTEXT
5
100
100
AcDbEntity
8
SK2
62
256
6
ByLayer
370
18
48
1
60
0
100
AcDbMText
10
0.392572
20
-47.206842
30
0
210
0
220
0
230
1
1
\W0.6864;61.00
40
3
41
0
44
1.084337
50
0
71
7
72
5
7
iso_b_vert
0
LINE
5
101
100
AcDbEntity
8
SK2
62
256
6
ByLayer
370
13
48
1
60
0
100
AcDbLine
10
-26
20
-2.9375
30
0
11
-26
21
-50.091957
31
0
39
0
210
0
220
0
230
1
0
LINE
5
102
100
AcDbEntity
8
SK2
62
256
6
ByLayer
370
13
48
1
60
0
100
AcDbLine
10
35
20
-1.5875
30
0
11
35
21
-50.091957
31
0
39
0
210
0
220
0
230
1
0
LINE
5
103
100
AcDbEntity
8
SK2
62
256
6
ByLayer
370
13
48
1
60
0
100
AcDbLine
10
-26
20
-48.091957
30
0
11
35
21
-48.091957
31
0
39
0
210
0
220
0
230
1
0
SOLID
5
104
100
AcDbEntity
8
SK2
62
256
6
ByLayer
370
18
48
1
60
0
100
AcDbTrace
10
-26
20
-48.091957
30
0
11
-22.500002
21
-47.631173
31
0
12
-22.499998
22
-48.552741
32
0
13
-22.499998
23
-48.552741
33
0
39
0
210
0
220
0
230
1
0
SOLID
5
105
100
AcDbEntity
8
SK2
62
256
6
ByLayer
370
18
48
1
60
0
100
AcDbTrace
10
35
20
-48.091957
30
0
11
31.500002
21
-48.552741
31
0
12
31.499998
22
-47.631173
32
0
13
31.499998
23
-47.631173
33
0
39
0
210
0
220
0
230
1
0
ENDBLK
5
107
100
AcDbEntity
8
0
100
AcDbBlockEnd
0
BLOCK
5
10C
100
AcDbEntity
8
0
100
AcDbBlockBegin
2
*D3
70
1
10
0
20
0
30
0
3
*D3
0
LINE
5
10E
100
AcDbEntity
8
0
62
256
6
ByLayer
370
-2
48
1
60
0
100
AcDbLine
10
35
20
-1.5875
30
0
11
35
21
-40.091957
31
0
39
0
210
0
220
0
230
1
0
LINE
5
10F
100
AcDbEntity
8
0
62
256
6
ByLayer
370
-2
48
1
60
0
100
AcDbLine
10
2
20
-2.9375
30
0
11
2
21
-40.091957
31
0
39
0
210
0
220
0
230
1
0
LINE
5
110
100
AcDbEntity
8
0
62
256
6
ByLayer
370
-2
48
1
60
0
100
AcDbLine
10
31.5
20
-38.091957
30
0
11
5.5
21
-38.091957
31
0
39
0
210
0
220
0
230
1
0
SOLID
5
111
100
AcDbEntity
8
0
62
256
6
ByLayer
370
-1
48
1
60
0
100
AcDbTrace
10
31.5
20
-38.67529
30
0
11
31.5
21
-37.508624
31
0
12
35
22
-38.091957
32
0
13
35
23
-38.091957
33
0
39
0
210
0
220
0
230
1
0
SOLID
5
112
100
AcDbEntity
8
0
62
256
6
ByLayer
370
-1
48
1
60
0
100
AcDbTrace
10
5.5
20
-37.508624
30
0
11
5.5
21
-38.67529
31
0
12
2
22
-38.091957
32
0
13
2
23
-38.091957
33
0
39
0
210
0
220
0
230
1
0
MTEXT
5
113
100
AcDbEntity
8
0
62
256
6
ByLayer
370
18
48
1
60
0
100
AcDbMText
10
18.5
20
-32.091957
30
0
210
0
220
0
230
1
1
\A1;33
40
3
41
0
44
1
50
0
71
5
72
5
7
iso_b_vert
0
POINT
5
114
100
AcDbEntity
8
Defpoints
62
0
6
ByLayer
370
-1
48
1
60
0
100
AcDbPoint
10
35
20
0
30
0
39
0
210
0
220
0
230
1
50
360
0
POINT
5
115
100
AcDbEntity
8
Defpoints
62
0
6
ByLayer
370
-1
48
1
60
0
100
AcDbPoint
10
2
20
-1.35
30
0
39
0
210
0
220
0
230
1
50
360
0
POINT
5
116
100
AcDbEntity
8
Defpoints
62
0
6
ByLayer
370
-1
48
1
60
0
100
AcDbPoint
10
2
20
-38.091957
30
0
39
0
210
0
220
0
230
1
50
360
0
ENDBLK
5
10D
100
AcDbEntity
8
0
100
AcDbBlockEnd
0
BLOCK
5
11E
100
AcDbEntity
8
0
100
AcDbBlockBegin
2
_U1
70
0
10
0
20
0
30
0
3
_U1
0
MTEXT
5
118
100
AcDbEntity
8
2
62
256
6
ByLayer
370
18
48
1
60
0
100
AcDbMText
10
14.01763
20
-37.206842
30
0
210
0
220
0
230
1
1
\W0.7468;33.00
40
3
41
0
44
1.084337
50
0
71
7
72
5
7
iso_b_vert
0
LINE
5
119
100
AcDbEntity
8
2
62
256
6
ByLayer
370
13
48
1
60
0
100
AcDbLine
10
35
20
-1.5875
30
0
11
35
21
-40.091957
31
0
39
0
210
0
220
0
230
1
0
LINE
5
11A
100
AcDbEntity
8
2
62
256
6
ByLayer
370
13
48
1
60
0
100
AcDbLine
10
2
20
-2.9375
30
0
11
2
21
-40.091957
31
0
39
0
210
0
220
0
230
1
0
LINE
5
11B
100
AcDbEntity
8
2
62
256
6
ByLayer
370
13
48
1
60
0
100
AcDbLine
10
35
20
-38.091957
30
0
11
2
21
-38.091957
31
0
39
0
210
0
220
0
230
1
0
SOLID
5
11C
100
AcDbEntity
8
2
62
256
6
ByLayer
370
18
48
1
60
0
100
AcDbTrace
10
35
20
-38.091957
30
0
11
31.500002
21
-38.552741
31
0
12
31.499998
22
-37.631173
32
0
13
31.499998
23
-37.631173
33
0
39
0
210
0
220
0
230
1
0
SOLID
5
11D
100
AcDbEntity
8
2
62
256
6
ByLayer
370
18
48
1
60
0
100
AcDbTrace
10
2
20
-38.091957
30
0
11
5.499998
21
-37.631173
31
0
12
5.500002
22
-38.552741
32
0
13
5.500002
23
-38.552741
33
0
39
0
210
0
220
0
230
1
0
ENDBLK
5
11F
100
AcDbEntity
8
0
100
AcDbBlockEnd
0
BLOCK
5
124
100
AcDbEntity
8
0
100
AcDbBlockBegin
2
*D5
70
1
10
0
20
0
30
0
3
*D5
0
LINE
5
126
100
AcDbEntity
8
0
62
256
6
ByLayer
370
-2
48
1
60
0
100
AcDbLine
10
-26
20
-2.9375
30
0
11
-26
21
-35.091957
31
0
39
0
210
0
220
0
230
1
0
LINE
5
127
100
AcDbEntity
8
0
62
256
6
ByLayer
370
-2
48
1
60
0
100
AcDbLine
10
0
20
-2.9375
30
0
11
0
21
-35.091957
31
0
39
0
210
0
220
0
230
1
0
LINE
5
128
100
AcDbEntity
8
0
62
256
6
ByLayer
370
-2
48
1
60
0
100
AcDbLine
10
-22.5
20
-33.091957
30
0
11
-3.5
21
-33.091957
31
0
39
0
210
0
220
0
230
1
0
SOLID
5
129
100
AcDbEntity
8
0
62
256
6
ByLayer
370
-1
48
1
60
0
100
AcDbTrace
10
-22.5
20
-32.508624
30
0
11
-22.5
21
-33.67529
31
0
12
-26
22
-33.091957
32
0
13
-26
23
-33.091957
33
0
39
0
210
0
220
0
230
1
0
SOLID
5
12A
100
AcDbEntity
8
0
62
256
6
ByLayer
370
-1
48
1
60
0
100
AcDbTrace
10
-3.5
20
-33.67529
30
0
11
-3.5
21
-32.508624
31
0
12
0
22
-33.091957
32
0
13
0
23
-33.091957
33
0
39
0
210
0
220
0
230
1
0
MTEXT
5
12B
100
AcDbEntity
8
0
62
256
6
ByLayer
370
18
48
1
60
0
100
AcDbMText
10
-13
20
-27.091957
30
0
210
0
220
0
230
1
1
\A1;26
40
3
41
0
44
1
50
0
71
5
72
5
7
iso_b_vert
0
POINT
5
12C
100
AcDbEntity
8
Defpoints
62
0
6
ByLayer
370
-1
48
1
60
0
100
AcDbPoint
10
-26
20
-1.35
30
0
39
0
210
0
220
0
230
1
50
360
0
POINT
5
12D
100
AcDbEntity
8
Defpoints
62
0
6
ByLayer
370
-1
48
1
60
0
100
AcDbPoint
10
0
20
-1.35
30
0
39
0
210
0
220
0
230
1
50
360
0
POINT
5
12E
100
AcDbEntity
8
Defpoints
62
0
6
ByLayer
370
-1
48
1
60
0
100
AcDbPoint
10
0
20
-33.091957
30
0
39
0
210
0
220
0
230
1
50
360
0
ENDBLK
5
125
100
AcDbEntity
8
0
100
AcDbBlockEnd
0
BLOCK
5
136
100
AcDbEntity
8
0
100
AcDbBlockBegin
2
_U2
70
0
10
0
20
0
30
0
3
_U2
0
MTEXT
5
130
100
AcDbEntity
8
SK2
62
256
6
ByLayer
370
18
48
1
60
0
100
AcDbMText
10
-17.48237
20
-32.206842
30
0
210
0
220
0
230
1
1
\W0.7468;26.00
40
3
41
0
44
1.084337
50
0
71
7
72
5
7
iso_b_vert
0
LINE
5
131
100
AcDbEntity
8
SK2
62
256
6
ByLayer
370
13
48
1
60
0
100
AcDbLine
10
-26
20
-2.9375
30
0
11
-26
21
-35.091957
31
0
39
0
210
0
220
0
230
1
0
LINE
5
132
100
AcDbEntity
8
SK2
62
256
6
ByLayer
370
13
48
1
60
0
100
AcDbLine
10
0
20
-2.9375
30
0
11
0
21
-35.091957
31
0
39
0
210
0
220
0
230
1
0
LINE
5
133
100
AcDbEntity
8
SK2
62
256
6
ByLayer
370
13
48
1
60
0
100
AcDbLine
10
-26
20
-33.091957
30
0
11
0
21
-33.091957
31
0
39
0
210
0
220
0
230
1
0
SOLID
5
134
100
AcDbEntity
8
SK2
62
256
6
ByLayer
370
18
48
1
60
0
100
AcDbTrace
10
-26
20
-33.091957
30
0
11
-22.500002
21
-32.631173
31
0
12
-22.499998
22
-33.552741
32
0
13
-22.499998
23
-33.552741
33
0
39
0
210
0
220
0
230
1
0
SOLID
5
135
100
AcDbEntity
8
SK2
62
256
6
ByLayer
370
18
48
1
60
0
100
AcDbTrace
10
0
20
-33.091957
30
0
11
-3.499998
21
-33.552741
31
0
12
-3.500002
22
-32.631173
32
0
13
-3.500002
23
-32.631173
33
0
39
0
210
0
220
0
230
1
0
ENDBLK
5
137
100
AcDbEntity
8
0
100
AcDbBlockEnd
0
BLOCK
5
13C
100
AcDbEntity
8
0
100
AcDbBlockBegin
2
*D7
70
1
10
0
20
0
30
0
3
*D7
0
LINE
5
13E
100
AcDbEntity
8
0
62
256
6
ByLayer
370
-2
48
1
60
0
100
AcDbLine
10
35
20
-1.5875
30
0
11
35
21
-33.091957
31
0
39
0
210
0
220
0
230
1
0
LINE
5
13F
100
AcDbEntity
8
0
62
256
6
ByLayer
370
-2
48
1
60
0
100
AcDbLine
10
10.25
20
-2.9375
30
0
11
10.25
21
-33.091957
31
0
39
0
210
0
220
0
230
1
0
LINE
5
140
100
AcDbEntity
8
0
62
256
6
ByLayer
370
-2
48
1
60
0
100
AcDbLine
10
31.5
20
-31.091957
30
0
11
13.75
21
-31.091957
31
0
39
0
210
0
220
0
230
1
0
SOLID
5
141
100
AcDbEntity
8
0
62
256
6
ByLayer
370
-1
48
1
60
0
100
AcDbTrace
10
31.5
20
-31.67529
30
0
11
31.5
21
-30.508624
31
0
12
35
22
-31.091957
32
0
13
35
23
-31.091957
33
0
39
0
210
0
220
0
230
1
0
SOLID
5
142
100
AcDbEntity
8
0
62
256
6
ByLayer
370
-1
48
1
60
0
100
AcDbTrace
10
13.75
20
-30.508624
30
0
11
13.75
21
-31.67529
31
0
12
10.25
22
-31.091957
32
0
13
10.25
23
-31.091957
33
0
39
0
210
0
220
0
230
1
0
MTEXT
5
143
100
AcDbEntity
8
0
62
256
6
ByLayer
370
18
48
1
60
0
100
AcDbMText
10
22.625
20
-25.091957
30
0
210
0
220
0
230
1
1
\A1;24.75
40
3
41
0
44
1
50
0
71
5
72
5
7
iso_b_vert
0
POINT
5
144
100
AcDbEntity
8
Defpoints
62
0
6
ByLayer
370
-1
48
1
60
0
100
AcDbPoint
10
35
20
0
30
0
39
0
210
0
220
0
230
1
50
360
0
POINT
5
145
100
AcDbEntity
8
Defpoints
62
0
6
ByLayer
370
-1
48
1
60
0
100
AcDbPoint
10
10.25
20
-1.35
30
0
39
0
210
0
220
0
230
1
50
360
0
POINT
5
146
100
AcDbEntity
8
Defpoints
62
0
6
ByLayer
370
-1
48
1
60
0
100
AcDbPoint
10
10.25
20
-31.091957
30
0
39
0
210
0
220
0
230
1
50
360
0
ENDBLK
5
13D
100
AcDbEntity
8
0
100
AcDbBlockEnd
0
BLOCK
5
14E
100
AcDbEntity
8
0
100
AcDbBlockBegin
2
_U3
70
0
10
0
20
0
30
0
3
_U3
0
MTEXT
5
148
100
AcDbEntity
8
2
62
256
6
ByLayer
370
18
48
1
60
0
100
AcDbMText
10
17.984687
20
-30.206842
30
0
210
0
220
0
230
1
1
\W0.7694;24.75
40
3
41
0
44
1.084337
50
0
71
7
72
5
7
iso_b_vert
0
LINE
5
149
100
AcDbEntity
8
2
62
256
6
ByLayer
370
13
48
1
60
0
100
AcDbLine
10
35
20
-1.5875
30
0
11
35
21
-33.091957
31
0
39
0
210
0
220
0
230
1
0
LINE
5
14A
100
AcDbEntity
8
2
62
256
6
ByLayer
370
13
48
1
60
0
100
AcDbLine
10
10.25
20
-2.9375
30
0
11
10.25
21
-33.091957
31
0
39
0
210
0
220
0
230
1
0
LINE
5
14B
100
AcDbEntity
8
2
62
256
6
ByLayer
370
13
48
1
60
0
100
AcDbLine
10
35
20
-31.091957
30
0
11
10.25
21
-31.091957
31
0
39
0
210
0
220
0
230
1
0
SOLID
5
14C
100
AcDbEntity
8
2
62
256
6
ByLayer
370
18
48
1
60
0
100
AcDbTrace
10
35
20
-31.091957
30
0
11
31.500002
21
-31.552741
31
0
12
31.499998
22
-30.631173
32
0
13
31.499998
23
-30.631173
33
0
39
0
210
0
220
0
230
1
0
SOLID
5
14D
100
AcDbEntity
8
2
62
256
6
ByLayer
370
18
48
1
60
0
100
AcDbTrace
10
10.25
20
-31.091957
30
0
11
13.749998
21
-30.631173
31
0
12
13.750002
22
-31.552741
32
0
13
13.750002
23
-31.552741
33
0
39
0
210
0
220
0
230
1
0
ENDBLK
5
14F
100
AcDbEntity
8
0
100
AcDbBlockEnd
0
ENDSEC
0
SECTION
2
ENTITIES
0
ARC
5
B9
100
AcDbEntity
8
2
62
256
6
ByLayer
370
13
48
1
60
0
100
AcDbCircle
39
0
10
35
20
0
30
0
40
22
210
0
220
0
230
1
100
AcDbArc
50
7.83748
51
61.596605
0
ARC
5
BA
100
AcDbEntity
8
2
62
256
6
ByLayer
370
13
48
1
60
0
100
AcDbCircle
39
0
10
35
20
0
30
0
40
22
210
0
220
0
230
1
100
AcDbArc
50
298.403395
51
352.16252
0
POINT
5
70
100
AcDbEntity
8
81
62
256
6
ByLayer
370
18
48
1
60
0
100
AcDbPoint
10
35
20
0
30
0
39
0
210
0
220
0
230
1
50
360
0
POINT
5
72
100
AcDbEntity
8
80
62
256
6
ByLayer
370
18
48
1
60
0
100
AcDbPoint
10
0
20
0
30
0
39
0
210
0
220
0
230
1
50
360
0
POINT
5
74
100
AcDbEntity
8
1
62
256
6
ByLayer
370
18
48
1
60
1
100
AcDbPoint
10
-26
20
-1.35
30
0
39
0
210
0
220
0
230
1
50
360
0
POINT
5
76
100
AcDbEntity
8
1
62
256
6
ByLayer
370
18
48
1
60
1
100
AcDbPoint
10
35
20
0
30
0
39
0
210
0
220
0
230
1
50
360
0
POINT
5
77
100
AcDbEntity
8
1
62
256
6
ByLayer
370
18
48
1
60
1
100
AcDbPoint
10
35
20
0
30
0
39
0
210
0
220
0
230
1
50
360
0
POINT
5
78
100
AcDbEntity
8
1
62
256
6
ByLayer
370
18
48
1
60
1
100
AcDbPoint
10
2
20
-1.35
30
0
39
0
210
0
220
0
230
1
50
360
0
POINT
5
79
100
AcDbEntity
8
1
62
256
6
ByLayer
370
18
48
1
60
1
100
AcDbPoint
10
-26
20
-1.35
30
0
39
0
210
0
220
0
230
1
50
360
0
POINT
5
7A
100
AcDbEntity
8
1
62
256
6
ByLayer
370
18
48
1
60
1
100
AcDbPoint
10
0
20
-1.35
30
0
39
0
210
0
220
0
230
1
50
360
0
POINT
5
7B
100
AcDbEntity
8
1
62
256
6
ByLayer
370
18
48
1
60
1
100
AcDbPoint
10
35
20
0
30
0
39
0
210
0
220
0
230
1
50
360
0
POINT
5
7C
100
AcDbEntity
8
1
62
256
6
ByLayer
370
18
48
1
60
1
100
AcDbPoint
10
10.25
20
-1.35
30
0
39
0
210
0
220
0
230
1
50
360
0
SPLINE
5
BB
100
AcDbEntity
8
CUT
62
256
6
ByLayer
370
18
48
1
60
0
100
AcDbSpline
70
2053
71
3
72
17
73
13
40
0
40
0
40
0
40
0
40
0.479226717300453
40
0.479226717300453
40
0.479226717300453
40
0.505191947274044
40
0.505191947274044
40
0.505191947274044
40
0.970283045505028
40
0.970283045505028
40
0.970283045505028
40
1
40
1
40
1
40
1
41
1
10
35
20
0
30
0
41
1
10
26.75
20
0
30
0
41
1
10
18.5
20
0
30
0
41
1
10
10.25
20
0
30
0
41
1
10
10.25
20
0.446997505680088
30
0
41
1
10
10.25
20
0.893995011360204
30
0
41
1
10
10.2500000000001
20
1.34099251704029
30
0
41
1
10
18.2566514493088
20
1.34399501133299
30
0
41
1
10
26.2633028986172
20
1.34699750562567
30
0
41
1
10
34.2699543479257
20
1.34999999991834
30
0
41
1
10
34.5133028986171
20
0.89999999994555
30
0
41
1
10
34.7566514493086
20
0.449999999972789
30
0
41
1
10
35
20
0
30
0
0
SPLINE
5
BD
100
AcDbEntity
8
NOCUT
62
256
6
ByLayer
370
18
48
1
60
0
100
AcDbSpline
70
2053
71
3
72
26
73
22
40
0
40
0
40
0
40
0
40
0.483229761631507
40
0.483229761631507
40
0.483229761631507
40
0.501105830440923
40
0.501105830440923
40
0.501105830440923
40
0.636410173210746
40
0.636410173210746
40
0.636410173210746
40
0.637754120042324
40
0.637754120042324
40
0.637754120042324
40
0.980347357944779
40
0.980347357944779
40
0.980347357944779
40
0.986003000007876
40
0.986003000007876
40
0.986003000007876
40
1
40
1
40
1
40
1
41
1
10
-26
20
0
30
0
41
1
10
-13.9166666666667
20
0
30
0
41
1
10
-1.83333333333351
20
0
30
0
41
1
10
10.2499999999999
20
0
30
0
41
1
10
10.25
20
0.446997505680088
30
0
41
1
10
10.25
20
0.893995011360204
30
0
41
1
10
10.25
20
1.34099251704029
30
0
41
1
10
6.86666666666673
20
1.33972376704065
30
0
41
1
10
3.48333333333346
20
1.33845501704099
30
0
41
1
10
0.0999999999824013
20
1.33718626704359
30
0
41
1
10
0.0666666666430729
20
1.3414575113639
30
0
41
1
10
0.0333333333215364
20
1.34572875568196
30
0
41
1
10
0
20
1.34999999999999
30
0
41
1
10
-8.56666666666666
20
1.34999999999999
30
0
41
1
10
-17.1333333333333
20
1.34999999999999
30
0
41
1
10
-25.7
20
1.34999999999999
30
0
41
1
10
-25.8
20
1.25
30
0
41
1
10
-25.9
20
1.15000000000001
30
0
41
1
10
-26
20
1.05000000000001
30
0
41
1
10
-26
20
0.699999999999989
30
0
41
1
10
-26
20
0.349999999999994
30
0
41
1
10
-26
20
0
30
0
0
SPLINE
5
BF
100
AcDbEntity
8
1
62
256
6
ByLayer
370
18
48
1
60
0
100
AcDbSpline
70
4
71
3
72
62
73
58
40
0
40
0
40
0
40
0
40
0.124999999999995
40
0.124999999999995
40
0.187499999999995
40
0.187499999999995
40
0.249999999999994
40
0.249999999999994
40
0.312499999999993
40
0.312499999999993
40
0.374999999999993
40
0.374999999999993
40
0.406249999999994
40
0.406249999999994
40
0.437499999999995
40
0.437499999999995
40
0.468749999999997
40
0.468749999999997
40
0.476562499999997
40
0.476562499999997
40
0.484374999999997
40
0.484374999999997
40
0.492187499999997
40
0.492187499999997
40
0.499999999999998
40
0.499999999999998
40
0.507812499999998
40
0.507812499999998
40
0.511718749999998
40
0.511718749999998
40
0.515624999999998
40
0.515624999999998
40
0.523437499999999
40
0.523437499999999
40
0.531249999999999
40
0.531249999999999
40
0.539062499999999
40
0.539062499999999
40
0.546874999999999
40
0.546874999999999
40
0.5625
40
0.5625
40
0.593750000000001
40
0.593750000000001
40
0.625000000000003
40
0.625000000000003
40
0.687500000000005
40
0.687500000000005
40
0.750000000000008
40
0.750000000000008
40
0.781250000000007
40
0.781250000000007
40
0.812500000000007
40
0.812500000000007
40
0.875000000000006
40
0.875000000000006
40
1
40
1
40
1
40
1
41
1
10
34.2699543479257
20
1.30636655704652
30
0
41
1
10
34.3251143606539
20
1.20464263141949
30
0
41
1
10
34.3800045991848
20
1.10239587441293
30
0
41
1
10
34.4616445244682
20
0.948284497553885
30
0
41
1
10
34.4887278649094
20
0.896806450123705
30
0
41
1
10
34.5424967517901
20
0.793595724998426
30
0
41
1
10
34.5691893391453
20
0.741864212310162
30
0
41
1
10
34.6219055698463
20
0.638004465266221
30
0
41
1
10
34.6478583339154
20
0.585817279981853
30
0
41
1
10
34.6994628754758
20
0.481592608078699
30
0
41
1
10
34.725109118181
20
0.429483868948552
30
0
41
1
10
34.7628593253041
20
0.351290454543715
30
0
41
1
10
34.7753157874653
20
0.325229822222099
30
0
41
1
10
34.7998047723835
20
0.273039195378629
30
0
41
1
10
34.8118454139956
20
0.24689847189228
30
0
41
1
10
34.8351261698895
20
0.194463779667217
30
0
41
1
10
34.8463788556692
20
0.168168191233633
30
0
41
1
10
34.8595153243039
20
0.13506964726227
30
0
41
1
10
34.8620947233173
20
0.128441919392031
30
0
41
1
10
34.8671206520581
20
0.11514735110697
30
0
41
1
10
34.8695760196631
20
0.108488174490475
30
0
41
1
10
34.874173265178
20
0.0949804736509066
30
0
41
1
10
34.8763189022174
20
0.0880897145671327
30
0
41
1
10
34.8798362923248
20
0.0741086522944272
30
0
41
1
10
34.8812096914767
20
0.0670076842712888
30
0
41
1
10
34.8829534432733
20
0.0525230694937591
30
0
41
1
10
34.8832967545843
20
0.0453053735558058
30
0
41
1
10
34.8829720075197
20
0.034797595441546
30
0
41
1
10
34.8827254799759
20
0.031333895166398
30
0
41
1
10
34.881950770472
20
0.0244880979487903
30
0
41
1
10
34.8814178621493
20
0.0210922305950021
30
0
41
1
10
34.8794522263493
20
0.011315410490198
30
0
41
1
10
34.8776415587846
20
0.0052617546047315
30
0
41
1
10
34.8732624152388
20
-0.0060826282891639
30
0
41
1
10
34.8707410292134
20
-0.0113007801230651
30
0
41
1
10
34.8654819578807
20
-0.0213064569863377
30
0
41
1
10
34.8627333931331
20
-0.0261404275733526
30
0
41
1
10
34.8571289675629
20
-0.0357357354932049
30
0
41
1
10
34.854266768667
20
-0.0404823783424604
30
0
41
1
10
34.8455457165474
20
-0.0546208812069153
30
0
41
1
10
34.8395482608206
20
-0.0638972598770522
30
0
41
1
10
34.8211542394531
20
-0.0912585595234816
30
0
41
1
10
34.8083732273506
20
-0.108856882110132
30
0
41
1
10
34.7824327756909
20
-0.142643811361495
30
0
41
1
10
34.7692436643738
20
-0.158876889900029
30
0
41
1
10
34.7293431712417
20
-0.205793788028529
30
0
41
1
10
34.7023115993506
20
-0.234689706660646
30
0
41
1
10
34.6479336924278
20
-0.288032673452847
30
0
41
1
10
34.6205676284969
20
-0.312472233157507
30
0
41
1
10
34.5793124941482
20
-0.345806435016613
30
0
41
1
10
34.5655236311736
20
-0.356359860332333
30
0
41
1
10
34.5381220379744
20
-0.376176019599825
30
0
41
1
10
34.5244771179357
20
-0.385465580711951
30
0
41
1
10
34.4836914636116
20
-0.411525241712269
30
0
41
1
10
34.4567001159137
20
-0.426490379080661
30
0
41
1
10
34.3761510050289
20
-0.464350642661543
30
0
41
1
10
34.3230198273187
20
-0.480266460873764
30
0
41
1
10
34.2699543479256
20
-0.486631365874302
30
0
0
SPLINE
5
C0
100
AcDbEntity
8
1
62
256
6
ByLayer
370
18
48
1
60
0
100
AcDbSpline
70
4
71
5
72
90
73
84
40
0
40
0
40
0
40
0
40
0
40
0
40
0.0341063164686867
40
0.0696110923514489
40
0.101650643657202
40
0.132139757284074
40
0.167391091092397
40
0.203984458277945
40
0.240710569927974
40
0.277523421722937
40
0.314413852768429
40
0.351026227464107
40
0.385577177171753
40
0.419798350492215
40
0.45193415556107
40
0.455180760660284
40
0.459876888282849
40
0.462224952094133
40
0.464573015905416
40
0.466046192440918
40
0.46751936897642
40
0.468992545511922
40
0.469998973046078
40
0.470465722047425
40
0.472354819712762
40
0.477191353758133
40
0.477435529681447
40
0.478561451994505
40
0.479931550230877
40
0.481293418351361
40
0.482655286471844
40
0.483363853796081
40
0.484031542236226
40
0.485407798000609
40
0.488190240260792
40
0.489379452039372
40
0.495422840939414
40
0.501435801333618
40
0.507448640126939
40
0.507640998563355
40
0.509031405354757
40
0.510421812146159
40
0.51183345231108
40
0.513245092476
40
0.513559598398343
40
0.514039219929916
40
0.514833347383833
40
0.51562747483775
40
0.516421602291667
40
0.521461335129879
40
0.52415131266185
40
0.524337746748224
40
0.525496301427835
40
0.526841290193821
40
0.528186278959806
40
0.529531267725792
40
0.530876256491778
40
0.532221245257763
40
0.537266522510488
40
0.542311799763213
40
0.552402354268662
40
0.563998792827855
40
0.613998078669201
40
0.642564652710873
40
0.666029600462606
40
0.688903179348892
40
0.711389603108648
40
0.733620901006323
40
0.755720828543322
40
0.777739051317936
40
0.799677445578389
40
0.821528129017078
40
0.843286198675421
40
0.86494155657001
40
0.88632410644996
40
0.906815144705737
40
0.927035535063701
40
0.947578482414712
40
0.968112996782803
40
0.98858520377069
40
1
40
1
40
1
40
1
40
1
40
1
41
1
10
5.14087998973267
20
-1.10753292121237
30
0
41
1
10
5.14087998973267
20
-1.09407382152585
30
0
41
1
10
5.14087998973267
20
-1.06649909398945
30
0
41
1
10
5.14087998973267
20
-1.02592184180566
30
0
41
1
10
5.14087998973267
20
-0.972594742024114
30
0
41
1
10
5.14087998973264
20
-0.904042490155518
30
0
41
1
10
5.14087998973267
20
-0.833504180056337
30
0
41
1
10
5.14087998973267
20
-0.761839809014731
30
0
41
1
10
5.14087998973267
20
-0.687398142719388
30
0
41
1
10
5.14087998973267
20
-0.609470499119936
30
0
41
1
10
5.14087998973267
20
-0.530149264452831
30
0
41
1
10
5.14087998973264
20
-0.450923063910011
30
0
41
1
10
5.14087998973264
20
-0.372035980236006
30
0
41
1
10
5.14087998973272
20
-0.294467760083364
30
0
41
1
10
5.14087998973267
20
-0.231318990509152
30
0
41
1
10
5.1408799897327
20
-0.182225822396276
30
0
41
1
10
5.14087998973264
20
-0.147548642640459
30
0
41
1
10
5.14087998973267
20
-0.127267989410797
30
0
41
1
10
5.1408799897327
20
-0.120871803105189
30
0
41
1
10
5.1408799897327
20
-0.115273870395157
30
0
41
1
10
5.14087998973272
20
-0.11113390907505
30
0
41
1
10
5.14087998973272
20
-0.107598861969535
30
0
41
1
10
5.14087998973275
20
-0.104915545467378
30
0
41
1
10
5.14087998973278
20
-0.102038549726501
30
0
41
1
10
5.14087998973281
20
-0.0976189707093624
30
0
41
1
10
5.14087998973284
20
-0.0937455181655196
30
0
41
1
10
5.14087998973287
20
-0.0897974070522309
30
0
41
1
10
5.14087998973292
20
-0.0854027870701657
30
0
41
1
10
5.14087998973292
20
-0.0812222787131418
30
0
41
1
10
5.14087998973292
20
-0.078656174147568
30
0
41
1
10
5.14087998973292
20
-0.075856664712461
30
0
41
1
10
5.14087998973292
20
-0.0732606885597704
30
0
41
1
10
5.14087998973292
20
-0.0706513152753132
30
0
41
1
10
5.14087998973289
20
-0.0673526488111236
30
0
41
1
10
5.14087998973287
20
-0.0641217060124575
30
0
41
1
10
5.14087998973284
20
-0.0583040630846199
30
0
41
1
10
5.14087998973278
20
-0.0498637580109005
30
0
41
1
10
5.14087998973275
20
-0.0391671383408152
30
0
41
1
10
5.14087998973272
20
-0.0298099225286421
30
0
41
1
10
5.1408799897327
20
-0.0205381617032572
30
0
41
1
10
5.14087998973261
20
-0.0136105930385781
30
0
41
1
10
5.14087998973255
20
-0.0088895708451275
30
0
41
1
10
5.1408799897325
20
-0.0062811319383513
30
0
41
1
10
5.14087998973244
20
-0.0036505933156832
30
0
41
1
10
5.14087998973238
20
-0.0014485076657422
30
0
41
1
10
5.14087998973235
20
0.0004744265816328
30
0
41
1
10
5.1408799897323
20
0.0021160729203018
30
0
41
1
10
5.14087998973227
20
0.0034824333374388
30
0
41
1
10
5.14087998973216
20
0.0068574702445403
30
0
41
1
10
5.14087998973204
20
0.0110988305857802
30
0
41
1
10
5.14087998973196
20
0.015007217076402
30
0
41
1
10
5.14087998973199
20
0.0190077546829457
30
0
41
1
10
5.1408799897321
20
0.023186881922669
30
0
41
1
10
5.14087998973218
20
0.0258707305569885
30
0
41
1
10
5.14087998973224
20
0.0280111182961491
30
0
41
1
10
5.14087998973233
20
0.0306049386213658
30
0
41
1
10
5.14087998973241
20
0.0332674668639754
30
0
41
1
10
5.14087998973253
20
0.0373900080485043
30
0
41
1
10
5.14087998973264
20
0.0429689342289521
30
0
41
1
10
5.14087998973275
20
0.0519980495204209
30
0
41
1
10
5.14087998973281
20
0.065084291390491
30
0
41
1
10
5.14087998973272
20
0.0974343574198144
30
0
41
1
10
5.14087998973267
20
0.139178269740938
30
0
41
1
10
5.14087998973264
20
0.188159274070443
30
0
41
1
10
5.14087998973267
20
0.24221891468602
30
0
41
1
10
5.14087998973264
20
0.300560657968759
30
0
41
1
10
5.14087998973264
20
0.347923941130119
30
0
41
1
10
5.1408799897327
20
0.392702285320496
30
0
41
1
10
5.14087998973264
20
0.437066498524075
30
0
41
1
10
5.14087998973272
20
0.480149941672437
30
0
41
1
10
5.1408799897327
20
0.521830863041686
30
0
41
1
10
5.1408799897327
20
0.562307902334368
30
0
41
1
10
5.14087998973267
20
0.601551414928934
30
0
41
1
10
5.14087998973267
20
0.639503655636275
30
0
41
1
10
5.1408799897327
20
0.675886150907644
30
0
41
1
10
5.14087998973267
20
0.710644758983761
30
0
41
1
10
5.14087998973267
20
0.744000106104693
30
0
41
1
10
5.14087998973267
20
0.775789167044934
30
0
41
1
10
5.14087998973267
20
0.805841966764916
30
0
41
1
10
5.14087998973267
20
0.831960794573547
30
0
41
1
10
5.14087998973267
20
0.851509353934233
30
0
41
1
10
5.14087998973267
20
0.865087785649621
30
0
41
1
10
5.14087998973267
20
0.873173522250823
30
0
41
1
10
5.14087998973267
20
0.87604569430178
30
0
0
SPLINE
5
C1
100
AcDbEntity
8
1
62
256
6
ByLayer
370
18
48
1
60
0
100
AcDbSpline
70
4
71
3
72
56
73
52
40
0
40
0
40
0
40
0
40
0.0480815412335762
40
0.0480815412335762
40
0.0721223118503643
40
0.0721223118503643
40
0.0961630824671524
40
0.0961630824671524
40
0.144244623700732
40
0.144244623700732
40
0.192326164934312
40
0.192326164934312
40
0.240407706167891
40
0.240407706167891
40
0.288489247401471
40
0.288489247401471
40
0.33657078863505
40
0.33657078863505
40
0.38465232986863
40
0.38465232986863
40
0.432733871102209
40
0.432733871102209
40
0.456774641718999
40
0.456774641718999
40
0.480815412335789
40
0.480815412335789
40
0.528896953569365
40
0.528896953569365
40
0.576978494802941
40
0.576978494802941
40
0.625060036036517
40
0.625060036036517
40
0.673141577270094
40
0.673141577270094
40
0.69718234788688
40
0.69718234788688
40
0.721223118503666
40
0.721223118503666
40
0.769304659737236
40
0.769304659737236
40
0.817386200970806
40
0.817386200970806
40
0.865467742204375
40
0.865467742204375
40
0.88950851282116
40
0.88950851282116
40
0.913549283437944
40
0.913549283437944
40
0.961630824671511
40
0.961630824671511
40
1
40
1
40
1
40
1
41
1
10
34.2699543479255
20
-0.486631365874217
30
0
41
1
10
34.1934086494697
20
-0.447278493205431
30
0
41
1
10
34.1172771893411
20
-0.407129835269814
30
0
41
1
10
34.003696804202
20
-0.345720047497821
30
0
41
1
10
33.9659218932601
20
-0.32508441860162
30
0
41
1
10
33.8903279486567
20
-0.283874866996428
30
0
41
1
10
33.8525293517324
20
-0.263263581497085
30
0
41
1
10
33.7391661205587
20
-0.201342272628722
30
0
41
1
10
33.6636551082492
20
-0.159906150867073
30
0
41
1
10
33.5126390015702
20
-0.0769508484456196
30
0
41
1
10
33.4371016963052
20
-0.0354909100390728
30
0
41
1
10
33.2860193308402
20
0.0474860598372686
30
0
41
1
10
33.2104963418954
20
0.0890436170512032
30
0
41
1
10
33.0596740628886
20
0.172644424164275
30
0
41
1
10
32.9844553412827
20
0.214836912296249
30
0
41
1
10
32.8331885030805
20
0.297767713412355
30
0
41
1
10
32.757239934967
20
0.338689097575809
30
0
41
1
10
32.6047805112529
20
0.419568995924891
30
0
41
1
10
32.5281045115444
20
0.459533163296413
30
0
41
1
10
32.3754515435044
20
0.537410777171914
30
0
41
1
10
32.299334311051
20
0.57544022615366
30
0
41
1
10
32.185629252426
20
0.63139676859825
30
0
41
1
10
32.1478060030411
20
0.649866270472018
30
0
41
1
10
32.0723339609812
20
0.686457726385669
30
0
41
1
10
32.0346919157747
20
0.704589134854757
30
0
41
1
10
31.9218313694153
20
0.758135156132511
30
0
41
1
10
31.8465022026087
20
0.792434301527777
30
0
41
1
10
31.6957441145049
20
0.858448471965602
30
0
41
1
10
31.6203300676674
20
0.890180608388846
30
0
41
1
10
31.4692665927778
20
0.950896915411391
30
0
41
1
10
31.3935998698968
20
0.979863201899661
30
0
41
1
10
31.2421340981087
20
1.03517804096094
30
0
41
1
10
31.1663594211463
20
1.06155688709544
30
0
41
1
10
31.0527138510718
20
1.09919697285645
30
0
41
1
10
31.0148391573475
20
1.11142409939291
30
0
41
1
10
30.9388962060135
20
1.13500007455116
30
0
41
1
10
30.9008113791845
20
1.1463334748951
30
0
41
1
10
30.7862499414601
20
1.17901558811715
30
0
41
1
10
30.7100047939229
20
1.19892919685071
30
0
41
1
10
30.5579243364553
20
1.23503541809401
30
0
41
1
10
30.4820170390408
20
1.25120977385924
30
0
41
1
10
30.3304363670563
20
1.27988165206875
30
0
41
1
10
30.2547847357347
20
1.29239959655723
30
0
41
1
10
30.1416707409152
20
1.30848776037496
30
0
41
1
10
30.1040312920784
20
1.31340192242672
30
0
41
1
10
30.0288520834391
20
1.3222974470707
30
0
41
1
10
29.9913134317569
20
1.32627635808478
30
0
41
1
10
29.8784990028549
20
1.33669078877173
30
0
41
1
10
29.8030967706513
20
1.34164644061829
30
0
41
1
10
29.6673043633008
20
1.34709302986468
30
0
41
1
10
29.6069438704828
20
1.34827610195421
30
0
41
1
10
29.5464498834723
20
1.34822825053109
30
0
0
SPLINE
5
C2
100
AcDbEntity
8
1
62
256
6
ByLayer
370
18
48
1
60
0
100
AcDbSpline
70
4
71
3
72
119
73
115
40
0
40
0
40
0
40
0
40
0.0022977080592083
40
0.0022977080592083
40
0.014020488083891
40
0.0374660481332576
40
0.0374660481332576
40
0.060911608182624
40
0.060911608182624
40
0.0726343882073067
40
0.0726343882073067
40
0.0843571682319891
40
0.0843571682319891
40
0.0960799482566718
40
0.0960799482566718
40
0.107802728281354
40
0.107802728281354
40
0.154693848380089
40
0.154693848380089
40
0.178139408429457
40
0.178139408429457
40
0.189862188454141
40
0.189862188454141
40
0.201584968478826
40
0.201584968478826
40
0.225030528528193
40
0.225030528528193
40
0.248476088577561
40
0.248476088577561
40
0.260198868602244
40
0.260198868602244
40
0.271921648626927
40
0.271921648626927
40
0.295367208676294
40
0.295367208676294
40
0.307089988700978
40
0.307089988700978
40
0.318812768725661
40
0.318812768725661
40
0.34225832877503
40
0.34225832877503
40
0.3657038888244
40
0.3657038888244
40
0.389149448873769
40
0.389149448873769
40
0.412595008923138
40
0.412595008923138
40
0.424317788947822
40
0.424317788947822
40
0.436040568972505
40
0.436040568972505
40
0.459486129021873
40
0.459486129021873
40
0.48293168907124
40
0.48293168907124
40
0.494654469095924
40
0.494654469095924
40
0.506377249120607
40
0.506377249120607
40
0.529822809169977
40
0.529822809169977
40
0.553268369219346
40
0.553268369219346
40
0.576713929268715
40
0.576713929268715
40
0.600159489318084
40
0.600159489318084
40
0.611882269342769
40
0.611882269342769
40
0.623605049367455
40
0.623605049367455
40
0.647050609416824
40
0.647050609416824
40
0.670496169466193
40
0.670496169466193
40
0.693941729515562
40
0.693941729515562
40
0.705664509540247
40
0.705664509540247
40
0.717387289564931
40
0.717387289564931
40
0.740832849614302
40
0.740832849614302
40
0.764278409663673
40
0.764278409663673
40
0.787723969713043
40
0.787723969713043
40
0.799446749737729
40
0.799446749737729
40
0.811169529762416
40
0.811169529762416
40
0.822892309787101
40
0.822892309787101
40
0.834615089811788
40
0.834615089811788
40
0.85806064986116
40
0.85806064986116
40
0.881506209910532
40
0.881506209910532
40
0.904951769959905
40
0.904951769959905
40
0.91667454998459
40
0.91667454998459
40
0.928397330009276
40
0.928397330009276
40
0.951842890058647
40
0.951842890058647
40
0.963565670083332
40
0.963565670083332
40
0.975288450108019
40
0.975288450108019
40
0.99873401015739
40
0.99873401015739
40
1
40
1
40
1
40
1
41
1
10
23.9472030464472
20
-0.896868486875775
30
0
41
1
10
23.9398231927011
20
-0.899933875528205
30
0
41
1
10
23.9324413734657
20
-0.90298439816695
30
0
41
1
10
23.8873842814488
20
-0.92150578979971
30
0
41
1
10
23.7742300567326
20
-0.966834959122679
30
0
41
1
10
23.6607951073112
20
-1.00897013090559
30
0
41
1
10
23.5091425416629
20
-1.0621318933776
30
0
41
1
10
23.4330906990383
20
-1.08718180006912
30
0
41
1
10
23.3187635630735
20
-1.12254226402453
30
0
41
1
10
23.2806168690871
20
-1.13396338787987
30
0
41
1
10
23.2042693876542
20
-1.15608030557598
30
0
41
1
10
23.1660220281983
20
-1.16678989316907
30
0
41
1
10
23.08979358033
20
-1.18738190509689
30
0
41
1
10
23.0518097153367
20
-1.19727300729406
30
0
41
1
10
22.9759188146592
20
-1.21607937515009
30
0
41
1
10
22.9379854042036
20
-1.22497522379595
30
0
41
1
10
22.7483958144632
20
-1.26700997634771
30
0
41
1
10
22.5971554371315
20
-1.29297461179331
30
0
41
1
10
22.3703515912208
20
-1.32067530352876
30
0
41
1
10
22.2947884304487
20
-1.32805018531883
30
0
41
1
10
22.1816580691287
20
-1.33631409937416
30
0
41
1
10
22.1439871736214
20
-1.33860072288854
30
0
41
1
10
22.0687056669592
20
-1.3422081736245
30
0
41
1
10
22.0311017738995
20
-1.34352693402323
30
0
41
1
10
21.9180470892994
20
-1.34598145019012
30
0
41
1
10
21.8423811967153
20
-1.34563880664987
30
0
41
1
10
21.6906170200723
20
-1.34106444140579
30
0
41
1
10
21.6144987111506
20
-1.33682510302944
30
0
41
1
10
21.4998390774473
20
-1.32755784113345
30
0
41
1
10
21.4614943851672
20
-1.32397896558919
30
0
41
1
10
21.3849150934581
20
-1.31586713565579
30
0
41
1
10
21.3466979366277
20
-1.31133750792247
30
0
41
1
10
21.2323091050985
20
-1.29631032463476
30
0
41
1
10
21.1564270673721
20
-1.28436198705953
30
0
41
1
10
21.0431428399707
20
-1.26348175765736
30
0
41
1
10
21.0054449410987
20
-1.25604211031094
30
0
41
1
10
20.9299819654551
20
-1.24034620541596
30
0
41
1
10
20.8922382077528
20
-1.23207791974764
30
0
41
1
10
20.7790088929665
20
-1.2060107074245
30
0
41
1
10
20.7035439450997
20
-1.18693311238062
30
0
41
1
10
20.5525227611286
20
-1.14555786611544
30
0
41
1
10
20.4769350991426
20
-1.1232938490657
30
0
41
1
10
20.325669590528
20
-1.07557271823097
30
0
41
1
10
20.2500136665325
20
-1.05009546945271
30
0
41
1
10
20.0988341309506
20
-0.995565710658923
30
0
41
1
10
20.0233727436839
20
-0.966402060284167
30
0
41
1
10
19.9094779052738
20
-0.920922327280152
30
0
41
1
10
19.8714196512742
20
-0.905448123179525
30
0
41
1
10
19.7951442681069
20
-0.873836543393253
30
0
41
1
10
19.7568900843545
20
-0.857682962624494
30
0
41
1
10
19.642125891911
20
-0.808367563055469
30
0
41
1
10
19.5658356161567
20
-0.774472609615572
30
0
41
1
10
19.4135708686803
20
-0.704883606521037
30
0
41
1
10
19.3376117906181
20
-0.669168032025254
30
0
41
1
10
19.2240921581767
20
-0.613951061310559
30
0
41
1
10
19.1863225170519
20
-0.595270094998114
30
0
41
1
10
19.110937052684
20
-0.55732878011807
30
0
41
1
10
19.0733284617605
20
-0.538055418525772
30
0
41
1
10
18.960507272748
20
-0.479742910628317
30
0
41
1
10
18.8851508118377
20
-0.440470754847468
30
0
41
1
10
18.7342782388587
20
-0.360958667739311
30
0
41
1
10
18.6587655767018
20
-0.320709799663348
30
0
41
1
10
18.5074145888522
20
-0.239550979219388
30
0
41
1
10
18.4315631271306
20
-0.19866801558868
30
0
41
1
10
18.2796541470301
20
-0.116013386369474
30
0
41
1
10
18.2036228527376
20
-0.0741921025332601
30
0
41
1
10
18.0895152806992
20
-0.0105566704958733
30
0
41
1
10
18.0514634721945
20
0.0108179792367196
30
0
41
1
10
17.9751543439145
20
0.0534238970446097
30
0
41
1
10
17.9370240728954
20
0.0745774185850223
30
0
41
1
10
17.8227379042978
20
0.137670194503443
30
0
41
1
10
17.7467130769263
20
0.179292710777531
30
0
41
1
10
17.5949125904754
20
0.261551793901617
30
0
41
1
10
17.5191023102354
20
0.302124321063928
30
0
41
1
10
17.3676528951269
20
0.382170604496395
30
0
41
1
10
17.2920355853217
20
0.421685864007969
30
0
41
1
10
17.1789234004853
20
0.480443317088486
30
0
41
1
10
17.1412767891167
20
0.499951172613208
30
0
41
1
10
17.0660571340239
20
0.538730720188198
30
0
41
1
10
17.0284775582304
20
0.557990295848072
30
0
41
1
10
16.9155002424098
20
0.614824300142516
30
0
41
1
10
16.8399575454015
20
0.651618183859711
30
0
41
1
10
16.6885470252131
20
0.723246298787274
30
0
41
1
10
16.6126532731711
20
0.758035666755831
30
0
41
1
10
16.4603302156919
20
0.825318567150646
30
0
41
1
10
16.3839088082117
20
0.857828460325408
30
0
41
1
10
16.2690276968116
20
0.905077314577113
30
0
41
1
10
16.2308074376903
20
0.920526415860792
30
0
41
1
10
16.1546206922302
20
0.950806999613576
30
0
41
1
10
16.116647565124
20
0.965653010272547
30
0
41
1
10
16.0408577278654
20
0.994631187356276
30
0
41
1
10
16.0030092607886
20
1.00872138990462
30
0
41
1
10
15.9272864725219
20
1.03597617907431
30
0
41
1
10
15.8894296193815
20
1.04916414245588
30
0
41
1
10
15.7759122790554
20
1.08748456602919
30
0
41
1
10
15.7003118373326
20
1.11137891807891
30
0
41
1
10
15.549113807193
20
1.15577816319743
30
0
41
1
10
15.4734895555027
20
1.17626281269429
30
0
41
1
10
15.3222937102757
20
1.21392249377476
30
0
41
1
10
15.2467431343151
20
1.2311171172986
30
0
41
1
10
15.1336130047702
20
1.25444481391781
30
0
41
1
10
15.0959412039107
20
1.26181023295675
30
0
41
1
10
15.0205296959828
20
1.27560801134291
30
0
41
1
10
14.9827544704941
20
1.28202001956518
30
0
41
1
10
14.8691747962017
20
1.29978969857427
30
0
41
1
10
14.7931741686945
20
1.30971653802763
30
0
41
1
10
14.6787543375795
20
1.32173948632499
30
0
41
1
10
14.64054000484
20
1.32526643055172
30
0
41
1
10
14.563935954737
20
1.33134854937771
30
0
41
1
10
14.5256130528108
20
1.33389780323725
30
0
41
1
10
14.410922298835
20
1.34007138268618
30
0
41
1
10
14.3346991932343
20
1.34224159935249
30
0
41
1
10
14.2547209191999
20
1.34248276590304
30
0
41
1
10
14.2506246035646
20
1.34248943239083
30
0
41
1
10
14.2465293116494
20
1.34249039873262
30
0
0
SPLINE
5
C3
100
AcDbEntity
8
1
62
256
6
ByLayer
370
18
48
1
60
0
100
AcDbSpline
70
4
71
3
72
50
73
46
40
0
40
0
40
0
40
0
40
0.0241997581171291
40
0.0241997581171291
40
0.0892531075759887
40
0.0892531075759887
40
0.121779782305421
40
0.121779782305421
40
0.154306457034854
40
0.154306457034854
40
0.186833131764285
40
0.186833131764285
40
0.219359806493718
40
0.219359806493718
40
0.25188648122315
40
0.25188648122315
40
0.284413155952583
40
0.284413155952583
40
0.349466505411442
40
0.349466505411442
40
0.414519854870303
40
0.414519854870303
40
0.44704652959973
40
0.44704652959973
40
0.479573204329158
40
0.479573204329158
40
0.544626553788014
40
0.544626553788014
40
0.609679903246869
40
0.609679903246869
40
0.674733252705724
40
0.674733252705724
40
0.707259927435152
40
0.707259927435152
40
0.739786602164579
40
0.739786602164579
40
0.772313276894007
40
0.772313276894007
40
0.804839951623435
40
0.804839951623435
40
0.86989330108229
40
0.86989330108229
40
0.934946650541146
40
0.934946650541146
40
1
40
1
40
1
40
1
41
1
10
8.65245384104341
20
-0.889996783531103
30
0
41
1
10
8.62398735997272
20
-0.901639033781919
30
0
41
1
10
8.59547334392855
20
-0.913103487271883
30
0
41
1
10
8.49024676992394
20
-0.954668469561085
30
0
41
1
10
8.41363078711063
20
-0.983485239168459
30
0
41
1
10
8.29898293726285
20
-1.02468978146885
30
0
41
1
10
8.26081358139211
20
-1.03808694608952
30
0
41
1
10
8.18458918733009
20
-1.06421477076646
30
0
41
1
10
8.14654172646112
20
-1.07695279563311
30
0
41
1
10
8.07049064687985
20
-1.10166539868399
30
0
41
1
10
8.03245431199224
20
-1.11360470448091
30
0
41
1
10
7.95623404116569
20
-1.13653225637037
30
0
41
1
10
7.91806882688792
20
-1.14754090497107
30
0
41
1
10
7.84165747466974
20
-1.16868555733149
30
0
41
1
10
7.80341180066711
20
-1.17882148517077
30
0
41
1
10
7.72682611297756
20
-1.19821037555826
30
0
41
1
10
7.68850223951168
20
-1.20745810193921
30
0
41
1
10
7.57378075517923
20
-1.23375835081853
30
0
41
1
10
7.49747273459772
20
-1.24939448319819
30
0
41
1
10
7.34530242874055
20
-1.27703413579857
30
0
41
1
10
7.26946176176784
20
-1.28905260189603
30
0
41
1
10
7.15619107718862
20
-1.30436431765318
30
0
41
1
10
7.11852169172096
20
-1.30901393214759
30
0
41
1
10
7.04319920502829
20
-1.31732857858358
30
0
41
1
10
7.00551272683819
20
-1.32098339512319
30
0
41
1
10
6.89235606743139
20
-1.3304680576075
30
0
41
1
10
6.81683749358408
20
-1.33483562233988
30
0
41
1
10
6.6656314479518
20
-1.33973193269421
30
0
41
1
10
6.58990919826991
20
-1.34025491475251
30
0
41
1
10
6.43815626186083
20
-1.33747987097661
30
0
41
1
10
6.36214554566087
20
-1.33418912212238
30
0
41
1
10
6.24808037226376
20
-1.3262796074616
30
0
41
1
10
6.21005270450217
20
-1.32314450821602
30
0
41
1
10
6.13397645302135
20
-1.31584508841445
30
0
41
1
10
6.09593636490627
20
-1.31167448475614
30
0
41
1
10
6.01962996298423
20
-1.3023609871025
30
0
41
1
10
5.98137091859098
20
-1.29722454173776
30
0
41
1
10
5.90493517558181
20
-1.28603431561365
30
0
41
1
10
5.86672658905113
20
-1.27997425421611
30
0
41
1
10
5.75213548382277
20
-1.26041229055136
30
0
41
1
10
5.67577429997471
20
-1.24553345938582
30
0
41
1
10
5.52290883641982
20
-1.21230863147971
30
0
41
1
10
5.4464148513776
20
-1.19396569205259
30
0
41
1
10
5.29350256635885
20
-1.1536299552011
30
0
41
1
10
5.21708672937461
20
-1.13163965071098
30
0
41
1
10
5.1408799897327
20
-1.1075329213036
30
0
0
SPLINE
5
C4
100
AcDbEntity
8
1
62
256
6
ByLayer
370
18
48
1
60
0
100
AcDbSpline
70
4
71
3
72
102
73
98
40
0
40
0
40
0
40
0
40
0.125000000000003
40
0.125000000000003
40
0.187500000000005
40
0.187500000000005
40
0.250000000000008
40
0.250000000000008
40
0.281250000000009
40
0.281250000000009
40
0.31250000000001
40
0.31250000000001
40
0.343750000000011
40
0.343750000000011
40
0.375000000000012
40
0.375000000000012
40
0.390625000000013
40
0.390625000000013
40
0.406250000000013
40
0.406250000000013
40
0.421875000000014
40
0.421875000000014
40
0.437500000000015
40
0.437500000000015
40
0.453125000000015
40
0.453125000000015
40
0.468750000000016
40
0.468750000000016
40
0.476562500000016
40
0.476562500000016
40
0.484375000000017
40
0.484375000000017
40
0.500000000000019
40
0.500000000000019
40
0.507812500000019
40
0.507812500000019
40
0.51562500000002
40
0.523437500000021
40
0.523437500000021
40
0.527343750000022
40
0.527343750000022
40
0.531250000000022
40
0.539062500000023
40
0.539062500000023
40
0.542968750000023
40
0.542968750000023
40
0.546875000000023
40
0.546875000000023
40
0.562500000000023
40
0.562500000000023
40
0.570312500000023
40
0.570312500000023
40
0.578125000000022
40
0.578125000000022
40
0.593750000000021
40
0.593750000000021
40
0.609375000000019
40
0.609375000000019
40
0.625000000000017
40
0.625000000000017
40
0.656250000000012
40
0.656250000000012
40
0.671875000000009
40
0.671875000000009
40
0.679687500000008
40
0.679687500000008
40
0.683593750000007
40
0.683593750000007
40
0.687500000000006
40
0.687500000000006
40
0.691406250000006
40
0.691406250000006
40
0.695312500000005
40
0.695312500000005
40
0.703125000000005
40
0.703125000000005
40
0.707031250000005
40
0.707031250000005
40
0.710937500000005
40
0.710937500000005
40
0.714843750000005
40
0.714843750000005
40
0.718750000000005
40
0.718750000000005
40
0.750000000000004
40
0.750000000000004
40
0.812500000000003
40
0.812500000000003
40
0.828125000000002
40
0.828125000000002
40
0.843750000000002
40
0.843750000000002
40
0.875000000000002
40
0.875000000000002
40
0.937500000000001
40
0.937500000000001
40
1
40
1
40
1
40
1
41
1
10
5.14087998973332
20
-1.1075329213038
30
0
41
1
10
4.85182441532569
20
-1.04043632784979
30
0
41
1
10
4.56703976125777
20
-0.957438896517601
30
0
41
1
10
4.14434658856632
20
-0.807703593229576
30
0
41
1
10
4.00419817367899
20
-0.753584322684986
30
0
41
1
10
3.72515883734292
20
-0.636348643967807
30
0
41
1
10
3.58626516062785
20
-0.573253447511291
30
0
41
1
10
3.37877671852789
20
-0.470898076507836
30
0
41
1
10
3.31004748242512
20
-0.435627358731864
30
0
41
1
10
3.17376615244487
20
-0.362720681541077
30
0
41
1
10
3.10617443976111
20
-0.325067553524803
30
0
41
1
10
2.97221706010492
20
-0.247065092423469
30
0
41
1
10
2.905849606819
20
-0.206719500044329
30
0
41
1
10
2.77456180010839
20
-0.122843554183959
30
0
41
1
10
2.70963738327365
20
-0.0793216778008343
30
0
41
1
10
2.61363336084565
20
-0.0110107613061814
30
0
41
1
10
2.58194376629544
20
0.0122129201794792
30
0
41
1
10
2.51944997901396
20
0.0595712544673859
30
0
41
1
10
2.48862029105931
20
0.0837229177498955
30
0
41
1
10
2.42793798409778
20
0.133134991762944
30
0
41
1
10
2.39808433679252
20
0.15839421462735
30
0
41
1
10
2.33955826335335
20
0.21025617782135
30
0
41
1
10
2.31084814909616
20
0.236901138889635
30
0
41
1
10
2.25556552688877
20
0.291218382756938
30
0
41
1
10
2.22891435093212
20
0.31895226359768
30
0
41
1
10
2.17808748140737
20
0.375878715495105
30
0
41
1
10
2.153905032219
20
0.405067019776055
30
0
41
1
10
2.12008056309875
20
0.450313900774148
30
0
41
1
10
2.10921680581035
20
0.465642069836974
30
0
41
1
10
2.08846451314145
20
0.496886168262762
30
0
41
1
10
2.07854200227521
20
0.512867383886743
30
0
41
1
10
2.05099223404204
20
0.561077198186979
30
0
41
1
10
2.03542875914255
20
0.593714625527014
30
0
41
1
10
2.0176907529073
20
0.643731598559356
30
0
41
1
10
2.01272517550356
20
0.66063059052837
30
0
41
1
10
2.00518276083332
20
0.693945115340995
30
0
41
1
10
1.99994319153265
20
0.726981180618424
30
0
41
1
10
1.999610879068
20
0.75945568544023
30
0
41
1
10
2.00134057945584
20
0.783597922313902
30
0
41
1
10
2.0022538544693
20
0.791643668553093
30
0
41
1
10
2.00472734640994
20
0.807439153085426
30
0
41
1
10
2.0094000584366
20
0.830716117864057
30
0
41
1
10
2.01685401793566
20
0.852801547996705
30
0
41
1
10
2.02604383599578
20
0.874157086723699
30
0
41
1
10
2.0293966624601
20
0.8811538260845
30
0
41
1
10
2.03666437747682
20
0.894913142207486
30
0
41
1
10
2.04059229811156
20
0.901695775782002
30
0
41
1
10
2.06143215418942
20
0.934787708532383
30
0
41
1
10
2.08172932780201
20
0.958470125977556
30
0
41
1
10
2.11619435194496
20
0.9909866606977
30
0
41
1
10
2.12836123190192
20
1.00131708766105
30
0
41
1
10
2.1538921856822
20
1.02109339137618
30
0
41
1
10
2.16723802707693
20
1.03051832972344
30
0
41
1
10
2.20826771595634
20
1.05727318150414
30
0
41
1
10
2.23712412808166
20
1.07325177454382
30
0
41
1
10
2.29707481561135
20
1.10251740700682
30
0
41
1
10
2.32817609751226
20
1.11579518224869
30
0
41
1
10
2.39215889657498
20
1.14026904982387
30
0
41
1
10
2.42511397926353
20
1.1514821321627
30
0
41
1
10
2.52543436617521
20
1.18240584506444
30
0
41
1
10
2.59434007277682
20
1.19951590305882
30
0
41
1
10
2.69982663895081
20
1.22175519120617
30
0
41
1
10
2.73538885874905
20
1.22857542726891
30
0
41
1
10
2.78902858569495
20
1.23810344168339
30
0
41
1
10
2.8069512026139
20
1.24116987228632
30
0
41
1
10
2.83389303799052
20
1.24561808629843
30
0
41
1
10
2.84287918312919
20
1.24707878346018
30
0
41
1
10
2.86098682657524
20
1.24985244473663
30
0
41
1
10
2.87012303862224
20
1.25115242952333
30
0
41
1
10
2.88884665514729
20
1.25335144354835
30
0
41
1
10
2.89850121838768
20
1.25424906538882
30
0
41
1
10
2.91801018788021
20
1.2556133890669
30
0
41
1
10
2.92778438645172
20
1.25608704601027
30
0
41
1
10
2.95715558766784
20
1.25700573752817
30
0
41
1
10
2.97680014014972
20
1.25696138798364
30
0
41
1
10
3.00635324722452
20
1.25600454314153
30
0
41
1
10
3.01623973636677
20
1.25552696137314
30
0
41
1
10
3.03575264581181
20
1.25430037418315
30
0
41
1
10
3.04541816168046
20
1.25355567091404
30
0
41
1
10
3.06466842983832
20
1.25193972020873
30
0
41
1
10
3.07425587616012
20
1.25107230847576
30
0
41
1
10
3.09342969386557
20
1.24932287673798
30
0
41
1
10
3.10301350291397
20
1.2484373664868
30
0
41
1
10
3.18928758278082
20
1.24043978808336
30
0
41
1
10
3.26607469451216
20
1.23308007000119
30
0
41
1
10
3.49635649481104
20
1.20971911496028
30
0
41
1
10
3.64982188015023
20
1.19257921946885
30
0
41
1
10
3.84154344996071
20
1.16934831094269
30
0
41
1
10
3.87989288381937
20
1.16462616318287
30
0
41
1
10
3.95640605003234
20
1.15472494932095
30
0
41
1
10
3.99455858413265
20
1.14952781470635
30
0
41
1
10
4.10860398609941
20
1.13298304082181
30
0
41
1
10
4.18412228431802
20
1.12073819773104
30
0
41
1
10
4.40929317958154
20
1.08008041266407
30
0
41
1
10
4.55753223791112
20
1.04768804498258
30
0
41
1
10
4.85109134434228
20
0.970931536852163
30
0
41
1
10
4.99641419475432
20
0.926553640131687
30
0
41
1
10
5.14087998973335
20
0.876045694301553
30
0
0
SPLINE
5
C5
100
AcDbEntity
8
1
62
256
6
ByLayer
370
18
48
1
60
0
100
AcDbSpline
70
4
71
3
72
70
73
66
40
0
40
0
40
0
40
0
40
0.040980244883289
40
0.040980244883289
40
0.0819604897665779
40
0.0819604897665779
40
0.163920979533153
40
0.163920979533153
40
0.184411101974794
40
0.184411101974794
40
0.204901224416436
40
0.204901224416436
40
0.245881469299716
40
0.245881469299716
40
0.286861714182997
40
0.286861714182997
40
0.307351836624636
40
0.307351836624636
40
0.327841959066274
40
0.327841959066274
40
0.348332081507913
40
0.348332081507913
40
0.368822203949552
40
0.368822203949552
40
0.409802448832829
40
0.409802448832829
40
0.450782693716107
40
0.450782693716107
40
0.491762938599384
40
0.491762938599384
40
0.512253061041023
40
0.512253061041023
40
0.532743183482661
40
0.532743183482661
40
0.5532333059243
40
0.5532333059243
40
0.573723428365939
40
0.573723428365939
40
0.594213550807578
40
0.594213550807578
40
0.614703673249216
40
0.614703673249216
40
0.655683918132491
40
0.655683918132491
40
0.696664163015766
40
0.696664163015766
40
0.73764440789904
40
0.73764440789904
40
0.778624652782315
40
0.778624652782315
40
0.819604897665589
40
0.819604897665589
40
0.860585142548864
40
0.860585142548864
40
0.881075264990501
40
0.881075264990501
40
0.901565387432138
40
0.901565387432138
40
0.922055509873776
40
0.922055509873776
40
0.942545632315413
40
0.942545632315413
40
0.983525877198688
40
0.983525877198688
40
1
40
1
40
1
40
1
41
1
10
5.14087998973267
20
0.876045694301808
30
0
41
1
10
5.21694747993377
20
0.84331488700829
30
0
41
1
10
5.29317652491332
20
0.810029658347617
30
0
41
1
10
5.44566506668545
20
0.742073259518492
30
0
41
1
10
5.52192098142976
20
0.707396680143063
30
0
41
1
10
5.75010795257737
20
0.600359261799809
30
0
41
1
10
5.90133675926671
20
0.524783234528229
30
0
41
1
10
6.08953516614949
20
0.425278321488804
30
0
41
1
10
6.12712086278697
20
0.405102294045918
30
0
41
1
10
6.20242102347481
20
0.364617111802659
30
0
41
1
10
6.24015400367713
20
0.34434185943357
30
0
41
1
10
6.35370955605927
20
0.283633657525655
30
0
41
1
10
6.42983742377436
20
0.243232225161336
30
0
41
1
10
6.58250548626162
20
0.161819372575366
30
0
41
1
10
6.65900076670491
20
0.120721749455839
30
0
41
1
10
6.77381751207054
20
0.0581185875639392
30
0
41
1
10
6.81215168108864
20
0.0370921699700943
30
0
41
1
10
6.88871161894229
20
-0.005102713115491
30
0
41
1
10
6.92688570981895
20
-0.0262372236722683
30
0
41
1
10
7.00301982600951
20
-0.0685807554797861
30
0
41
1
10
7.04097479800171
20
-0.0897994409865532
30
0
41
1
10
7.11667854593406
20
-0.132289811692516
30
0
41
1
10
7.15444440866656
20
-0.153527855602192
30
0
41
1
10
7.26785577613521
20
-0.216528566159866
30
0
41
1
10
7.34369730726871
20
-0.257432999794503
30
0
41
1
10
7.49555054309855
20
-0.337708498704984
30
0
41
1
10
7.57154526352986
20
-0.377111802148647
30
0
41
1
10
7.72316964269703
20
-0.455347027896636
30
0
41
1
10
7.7988176535809
20
-0.494140667517087
30
0
41
1
10
7.91216156051837
20
-0.551600851377088
30
0
41
1
10
7.94992238060445
20
-0.570631193939619
30
0
41
1
10
8.02539607722943
20
-0.608449180426078
30
0
41
1
10
8.06309553444837
20
-0.62725884183385
30
0
41
1
10
8.13851310591031
20
-0.664514788942398
30
0
41
1
10
8.17625068182525
20
-0.682928288514205
30
0
41
1
10
8.25201985756573
20
-0.718946547555305
30
0
41
1
10
8.2900444911831
20
-0.736563956836704
30
0
41
1
10
8.36632894259557
20
-0.77109887978304
30
0
41
1
10
8.40458959440352
20
-0.788015127269176
30
0
41
1
10
8.48129253954633
20
-0.821237422284838
30
0
41
1
10
8.51977509660676
20
-0.837561875623322
30
0
41
1
10
8.63509521566331
20
-0.885637263854164
30
0
41
1
10
8.7115968157882
20
-0.916500780140098
30
0
41
1
10
8.86384693287113
20
-0.97578126446848
30
0
41
1
10
8.93963319785644
20
-1.00414702754546
30
0
41
1
10
9.09053788812955
20
-1.05820518140195
30
0
41
1
10
9.16556263228856
20
-1.08396750349516
30
0
41
1
10
9.31644116518376
20
-1.13117307625544
30
0
41
1
10
9.39219026630451
20
-1.15277801432887
30
0
41
1
10
9.54390279149447
20
-1.19258561761052
30
0
41
1
10
9.61983360618461
20
-1.21081621886233
30
0
41
1
10
9.77148794442581
20
-1.24414377251841
30
0
41
1
10
9.84726425261158
20
-1.25918931803233
30
0
41
1
10
9.96095859573865
20
-1.27912706599236
30
0
41
1
10
9.9988581017019
20
-1.28533690303803
30
0
41
1
10
10.0746543723873
20
-1.296856925356
30
0
41
1
10
10.112543212238
20
-1.30216776382804
30
0
41
1
10
10.1885464550494
20
-1.31176192327658
30
0
41
1
10
10.2266949808785
20
-1.3160407949905
30
0
41
1
10
10.3032621064723
20
-1.3235558408854
30
0
41
1
10
10.3415514490459
20
-1.32678833042408
30
0
41
1
10
10.4563768537213
20
-1.33499846435234
30
0
41
1
10
10.5328709390598
20
-1.33850414413882
30
0
41
1
10
10.6396923767327
20
-1.34078017242228
30
0
41
1
10
10.6702699630541
20
-1.34112565591667
30
0
41
1
10
10.7008005589938
20
-1.34116021207134
30
0
0
SPLINE
5
C6
100
AcDbEntity
8
1
62
256
6
ByLayer
370
18
48
1
60
0
100
AcDbSpline
70
4
71
3
72
124
73
120
40
0
40
0
40
0
40
0
40
0.0233157805876664
40
0.0233157805876664
40
0.0467723400338391
40
0.0467723400338391
40
0.0702288994800118
40
0.0702288994800118
40
0.0819571792030974
40
0.0819571792030974
40
0.093685458926183
40
0.093685458926183
40
0.117142018372352
40
0.117142018372352
40
0.140598577818522
40
0.140598577818522
40
0.164055137264692
40
0.164055137264692
40
0.175783416987776
40
0.175783416987776
40
0.187511696710861
40
0.187511696710861
40
0.199239976433946
40
0.199239976433946
40
0.210968256157031
40
0.210968256157031
40
0.2344248156032
40
0.2344248156032
40
0.25788137504937
40
0.25788137504937
40
0.269609654772454
40
0.269609654772454
40
0.281337934495539
40
0.281337934495539
40
0.293066214218624
40
0.293066214218624
40
0.304794493941708
40
0.304794493941708
40
0.328251053387878
40
0.328251053387878
40
0.351707612834048
40
0.351707612834048
40
0.375164172280217
40
0.375164172280217
40
0.386892452003302
40
0.386892452003302
40
0.398620731726386
40
0.398620731726386
40
0.422077291172556
40
0.422077291172556
40
0.43380557089564
40
0.43380557089564
40
0.445533850618724
40
0.445533850618724
40
0.468990410064893
40
0.468990410064893
40
0.480718689787978
40
0.480718689787978
40
0.492446969511063
40
0.492446969511063
40
0.504175249234148
40
0.504175249234148
40
0.515903528957232
40
0.515903528957232
40
0.539360088403403
40
0.539360088403403
40
0.562816647849574
40
0.562816647849574
40
0.586273207295746
40
0.586273207295746
40
0.598001487018832
40
0.598001487018832
40
0.609729766741918
40
0.609729766741918
40
0.621458046465004
40
0.621458046465004
40
0.633186326188091
40
0.633186326188091
40
0.656642885634262
40
0.656642885634262
40
0.680099445080433
40
0.680099445080433
40
0.691827724803518
40
0.691827724803518
40
0.703556004526602
40
0.703556004526602
40
0.727012563972772
40
0.727012563972772
40
0.750469123418941
40
0.750469123418941
40
0.773925682865111
40
0.773925682865111
40
0.785653962588195
40
0.785653962588195
40
0.79738224231128
40
0.79738224231128
40
0.809110522034365
40
0.809110522034365
40
0.82083880175745
40
0.82083880175745
40
0.844295361203618
40
0.844295361203618
40
0.867751920649786
40
0.867751920649786
40
0.891208480095954
40
0.891208480095954
40
0.914665039542122
40
0.914665039542122
40
0.93812159898829
40
0.93812159898829
40
0.961578158434458
40
0.961578158434458
40
0.973306438157542
40
0.973306438157542
40
0.985034717880626
40
0.985034717880626
40
0.99676299760371
40
0.99676299760371
40
1
40
1
40
1
40
1
41
1
10
16.2992031580762
20
0.894914589466083
30
0
41
1
10
16.3743535304417
20
0.92567445858748
30
0
41
1
10
16.4497730174266
20
0.954822676180328
30
0
41
1
10
16.6011359351389
20
1.01075232117756
30
0
41
1
10
16.6770262746116
20
1.03757771281957
30
0
41
1
10
16.8287660215843
20
1.08866724201675
30
0
41
1
10
16.9046550033953
20
1.11288533770949
30
0
41
1
10
17.0185498178803
20
1.14706392864761
30
0
41
1
10
17.0565033092568
20
1.15811863720353
30
0
41
1
10
17.1325679711374
20
1.17935174820556
30
0
41
1
10
17.1707186735297
20
1.18951534679374
30
0
41
1
10
17.2851517803532
20
1.2182752438035
30
0
41
1
10
17.36153194782
20
1.23528748428436
30
0
41
1
10
17.5141002003318
20
1.26560305634325
30
0
41
1
10
17.5902563982636
20
1.27892602747733
30
0
41
1
10
17.7419505898079
20
1.30209130067254
30
0
41
1
10
17.8175400956461
20
1.31189257255539
30
0
41
1
10
17.9306340860787
20
1.32377986252752
30
0
41
1
10
17.9682801567108
20
1.32727471912142
30
0
41
1
10
18.0434602061324
20
1.33330682895138
30
0
41
1
10
18.0809840911181
20
1.33584313087528
30
0
41
1
10
18.156140630973
20
1.33989664179407
30
0
41
1
10
18.1937918201988
20
1.341412807301
30
0
41
1
10
18.2693277797839
20
1.34345161643372
30
0
41
1
10
18.3071960331214
20
1.34397763841684
30
0
41
1
10
18.4210330280335
20
1.34412371928548
30
0
41
1
10
18.4972341308351
20
1.34232672881666
30
0
41
1
10
18.6497575772504
20
1.33489378718838
30
0
41
1
10
18.7260560700546
20
1.32923532727685
30
0
41
1
10
18.8406822413521
20
1.31768777229382
30
0
41
1
10
18.8789594273531
20
1.31332416044697
30
0
41
1
10
18.9552136674051
20
1.30359654015402
30
0
41
1
10
18.9932241048606
20
1.29822792195239
30
0
41
1
10
19.0690197490747
20
1.28646910715756
30
0
41
1
10
19.1068197261649
20
1.28008358555971
30
0
41
1
10
19.182472209539
20
1.26645794883987
30
0
41
1
10
19.2203426059519
20
1.25923214818346
30
0
41
1
10
19.3340777983548
20
1.23637849938561
30
0
41
1
10
19.4100564046458
20
1.21958096375977
30
0
41
1
10
19.5618756450996
20
1.18268642901526
30
0
41
1
10
19.6376640607073
20
1.16253773371651
30
0
41
1
10
19.7888629895356
20
1.11862167363378
30
0
41
1
10
19.8643229068306
20
1.09489808371916
30
0
41
1
10
19.9773535865188
20
1.05660392718951
30
0
41
1
10
20.0149887404141
20
1.0433694006033
30
0
41
1
10
20.0902514645462
20
1.01602453975846
30
0
41
1
10
20.1278988911877
20
1.00193590163664
30
0
41
1
10
20.2412493678262
20
0.958888951909302
30
0
41
1
10
20.3173610666933
20
0.929174622700117
30
0
41
1
10
20.4320560529194
20
0.882827760785915
30
0
41
1
10
20.4703733587825
20
0.867077436146019
30
0
41
1
10
20.5471172588325
20
0.834879073435133
30
0
41
1
10
20.585579418338
20
0.818408482338043
30
0
41
1
10
20.7005347835919
20
0.768044276605565
30
0
41
1
10
20.7767505842706
20
0.733183207796884
30
0
41
1
10
20.8905549014908
20
0.679121657536115
30
0
41
1
10
20.9284013899775
20
0.660803518158644
30
0
41
1
10
21.0039092807232
20
0.62355259777209
30
0
41
1
10
21.0415514270834
20
0.604587206578515
30
0
41
1
10
21.1167888328585
20
0.566266904568778
30
0
41
1
10
21.1544025707967
20
0.546942949688628
30
0
41
1
10
21.2298112687592
20
0.508302659440346
30
0
41
1
10
21.2675863236574
20
0.488953437476937
30
0
41
1
10
21.3810585513942
20
0.430725404612758
30
0
41
1
10
21.4569092130812
20
0.391681707290587
30
0
41
1
10
21.6085198762306
20
0.312299309599837
30
0
41
1
10
21.6842331838999
20
0.271872634490705
30
0
41
1
10
21.8355527973334
20
0.189636168297397
30
0
41
1
10
21.9111878080513
20
0.147879868082441
30
0
41
1
10
22.0246042430474
20
0.0842370109257899
30
0
41
1
10
22.0623888850939
20
0.0628252554079438
30
0
41
1
10
22.138152923876
20
0.0200512508897077
30
0
41
1
10
22.1761508848538
20
-0.0012748072714146
30
0
41
1
10
22.2524775370076
20
-0.0436037820514628
30
0
41
1
10
22.290836004312
20
-0.064666147396423
30
0
41
1
10
22.3674950892196
20
-0.10645247534984
30
0
41
1
10
22.4058055829312
20
-0.127182534792212
30
0
41
1
10
22.5205923240125
20
-0.189068619854424
30
0
41
1
10
22.5968908696834
20
-0.229986583578295
30
0
41
1
10
22.7487731374752
20
-0.311621273674575
30
0
41
1
10
22.8244106164455
20
-0.352234379651605
30
0
41
1
10
22.9374884133786
20
-0.412670793886889
30
0
41
1
10
22.9751122158509
20
-0.432745903940457
30
0
41
1
10
23.050224549687
20
-0.472741746509541
30
0
41
1
10
23.0877256154034
20
-0.492639207919439
30
0
41
1
10
23.2004347540907
20
-0.551393202861789
30
0
41
1
10
23.2759584944859
20
-0.589133277089047
30
0
41
1
10
23.4275204777822
20
-0.66229456735536
30
0
41
1
10
23.5035355319156
20
-0.697756632241209
30
0
41
1
10
23.655530465969
20
-0.767244527059603
30
0
41
1
10
23.7315162241039
20
-0.801253830530527
30
0
41
1
10
23.845603867377
20
-0.850906783902246
30
0
41
1
10
23.8836528528714
20
-0.867228664243981
30
0
41
1
10
23.9597871606422
20
-0.89940586636277
30
0
41
1
10
23.9979074827111
20
-0.915294748261402
30
0
41
1
10
24.0740015119364
20
-0.94642524173247
30
0
41
1
10
24.111960448215
20
-0.961622954084049
30
0
41
1
10
24.18794573161
20
-0.990980007201898
30
0
41
1
10
24.2259733855975
20
-1.00514169217624
30
0
41
1
10
24.3401043105502
20
-1.04622240075159
30
0
41
1
10
24.4162651300154
20
-1.07173827185511
30
0
41
1
10
24.5682728877292
20
-1.11972018208129
30
0
41
1
10
24.6440654618845
20
-1.14223338420314
30
0
41
1
10
24.7951953302274
20
-1.1842361573149
30
0
41
1
10
24.870573848019
20
-1.20368590831791
30
0
41
1
10
25.0209901850847
20
-1.23930307729452
30
0
41
1
10
25.0958986909432
20
-1.25552820686011
30
0
41
1
10
25.2467938039471
20
-1.28366917148656
30
0
41
1
10
25.3227188157286
20
-1.29567741205892
30
0
41
1
10
25.4751187081798
20
-1.31597396637073
30
0
41
1
10
25.5515664176724
20
-1.32427535480349
30
0
41
1
10
25.6663227933379
20
-1.33397620855536
30
0
41
1
10
25.7046390851149
20
-1.33674610465872
30
0
41
1
10
25.7811661232961
20
-1.3413087598075
30
0
41
1
10
25.8193230195214
20
-1.34309913997143
30
0
41
1
10
25.8954347769353
20
-1.34568563931919
30
0
41
1
10
25.9333876259675
20
-1.34648229846764
30
0
41
1
10
25.9816781667071
20
-1.34685444908723
30
0
41
1
10
25.9921141741991
20
-1.34689622770006
30
0
41
1
10
26.0025433617321
20
-1.34689932789274
30
0
0
SPLINE
5
C7
100
AcDbEntity
8
1
62
256
6
ByLayer
370
18
48
1
60
0
100
AcDbSpline
70
4
71
3
72
40
73
36
40
0
40
0
40
0
40
0
40
0.0641483526094789
40
0.0641483526094789
40
0.149225775099532
40
0.149225775099532
40
0.191764486344559
40
0.191764486344559
40
0.234303197589586
40
0.234303197589586
40
0.319380620079638
40
0.319380620079638
40
0.361919331324663
40
0.361919331324663
40
0.404458042569687
40
0.404458042569687
40
0.489535465059728
40
0.489535465059728
40
0.532074176304753
40
0.532074176304753
40
0.574612887549777
40
0.574612887549777
40
0.659690310039823
40
0.659690310039823
40
0.744767732529871
40
0.744767732529871
40
0.829845155019918
40
0.829845155019918
40
0.872383866264938
40
0.872383866264938
40
0.914922577509959
40
0.914922577509959
40
0.957461288754979
40
0.957461288754979
40
1
40
1
40
1
40
1
41
1
10
31.5988105282484
20
0.896399552430182
30
0
41
1
10
31.6558560711184
20
0.919771983758636
30
0
41
1
10
31.7127931402774
20
0.942532721141248
30
0
41
1
10
31.8450667806256
20
0.993903592856867
30
0
41
1
10
31.9203415950121
20
1.02200716794312
30
0
41
1
10
32.0330768333625
20
1.06223984928846
30
0
41
1
10
32.0706512086619
20
1.07529763163481
30
0
41
1
10
32.1460350920264
20
1.10043799704707
30
0
41
1
10
32.1838572468629
20
1.11250945976232
30
0
41
1
10
32.2976661944964
20
1.14732031248272
30
0
41
1
10
32.3739959237004
20
1.16866628105072
30
0
41
1
10
32.4888270893418
20
1.19827829732611
30
0
41
1
10
32.5271577517153
20
1.20774769392486
30
0
41
1
10
32.6038742451301
20
1.2259123741276
30
0
41
1
10
32.6421561792429
20
1.23457611923976
30
0
41
1
10
32.756651746051
20
1.25923753819416
30
0
41
1
10
32.8325934677053
20
1.27391306858794
30
0
41
1
10
32.9459538503384
20
1.29317417277153
30
0
41
1
10
32.9836285251595
20
1.29914486004549
30
0
41
1
10
33.0588798285864
20
1.31010547642893
30
0
41
1
10
33.0964755761408
20
1.3150848805555
30
0
41
1
10
33.209516627201
20
1.32842427983454
30
0
41
1
10
33.2851654364256
20
1.33523284071572
30
0
41
1
10
33.4366549087764
20
1.34506935842958
30
0
41
1
10
33.5124734462557
20
1.3481027557122
30
0
41
1
10
33.6638267962786
20
1.35040058071368
30
0
41
1
10
33.7394061999304
20
1.34964685700666
30
0
41
1
10
33.852744544619
20
1.34552770868657
30
0
41
1
10
33.8905164767317
20
1.34365662236598
30
0
41
1
10
33.9660391428822
20
1.33888599006914
30
0
41
1
10
34.0037712510339
20
1.3359793186444
30
0
41
1
10
34.0793800745261
20
1.3291525079737
30
0
41
1
10
34.1172751856333
20
1.32523853078686
30
0
41
1
10
34.1934036826486
20
1.31649484137381
30
0
41
1
10
34.2316164386352
20
1.31166011877133
30
0
41
1
10
34.2699543479255
20
1.30636655704655
30
0
0
SPLINE
5
C8
100
AcDbEntity
8
1
62
256
6
ByLayer
370
18
48
1
60
0
100
AcDbSpline
70
4
71
3
72
121
73
117
40
0
40
0
40
0
40
0
40
0.0056245787668111
40
0.0056245787668111
40
0.0290602480388493
40
0.0290602480388493
40
0.0524959173108874
40
0.0524959173108874
40
0.0642137519469056
40
0.0642137519469056
40
0.0759315865829238
40
0.0759315865829238
40
0.0993672558549586
40
0.0993672558549586
40
0.122802925126994
40
0.122802925126994
40
0.146238594399028
40
0.146238594399028
40
0.157956429035046
40
0.157956429035046
40
0.169674263671063
40
0.169674263671063
40
0.193109932943096
40
0.193109932943096
40
0.21654560221513
40
0.21654560221513
40
0.239981271487163
40
0.239981271487163
40
0.25169910612318
40
0.25169910612318
40
0.263416940759198
40
0.263416940759198
40
0.275134775395215
40
0.275134775395215
40
0.286852610031232
40
0.286852610031232
40
0.310288279303266
40
0.310288279303266
40
0.333723948575299
40
0.333723948575299
40
0.357159617847332
40
0.357159617847332
40
0.380595287119365
40
0.380595287119365
40
0.404030956391398
40
0.404030956391398
40
0.427466625663432
40
0.427466625663432
40
0.439184460299448
40
0.439184460299448
40
0.450902294935465
40
0.450902294935465
40
0.462620129571481
40
0.462620129571481
40
0.474337964207498
40
0.474337964207498
40
0.497773633479529
40
0.497773633479529
40
0.521209302751561
40
0.521209302751561
40
0.544644972023592
40
0.544644972023592
40
0.568080641295624
40
0.568080641295624
40
0.57979847593164
40
0.57979847593164
40
0.591516310567657
40
0.591516310567657
40
0.603234145203673
40
0.603234145203673
40
0.61495197983969
40
0.61495197983969
40
0.638387649111723
40
0.638387649111723
40
0.661823318383756
40
0.661823318383756
40
0.673541153019772
40
0.673541153019772
40
0.685258987655787
40
0.685258987655787
40
0.696976822291803
40
0.696976822291803
40
0.708694656927819
40
0.708694656927819
40
0.732130326199849
40
0.732130326199849
40
0.755565995471879
40
0.755565995471879
40
0.767283830107893
40
0.767283830107893
40
0.779001664743907
40
0.779001664743907
40
0.790719499379921
40
0.790719499379921
40
0.802437334015935
40
0.825873003287965
40
0.825873003287965
40
0.849308672559994
40
0.849308672559994
40
0.86102650719601
40
0.86102650719601
40
0.872744341832026
40
0.872744341832026
40
0.884462176468042
40
0.884462176468042
40
0.896180011104057
40
0.896180011104057
40
0.94305134964812
40
0.94305134964812
40
0.966487018920151
40
0.966487018920151
40
0.978204853556166
40
0.978204853556166
40
0.989922688192182
40
0.989922688192182
40
1
40
1
40
1
40
1
41
1
10
31.5991621626093
20
-0.898444764153453
30
0
41
1
10
31.5810469021114
20
-0.905887659287998
30
0
41
1
10
31.5629260056784
20
-0.91325278155719
30
0
41
1
10
31.4692665927779
20
-0.950896915411391
30
0
41
1
10
31.3935998698968
20
-0.979863201899661
30
0
41
1
10
31.2421340981087
20
-1.03517804096094
30
0
41
1
10
31.1663594211463
20
-1.06155688709541
30
0
41
1
10
31.0527138510718
20
-1.09919697285645
30
0
41
1
10
31.0148391573475
20
-1.11142409939291
30
0
41
1
10
30.9388962060135
20
-1.13500007455116
30
0
41
1
10
30.9008113791845
20
-1.1463334748951
30
0
41
1
10
30.7862499414602
20
-1.17901558811712
30
0
41
1
10
30.7100047939229
20
-1.19892919685071
30
0
41
1
10
30.5579243364552
20
-1.23503541809401
30
0
41
1
10
30.4820170390408
20
-1.25120977385924
30
0
41
1
10
30.3304363670563
20
-1.27988165206875
30
0
41
1
10
30.2547847357347
20
-1.29239959655723
30
0
41
1
10
30.1416707409152
20
-1.30848776037496
30
0
41
1
10
30.1040312920784
20
-1.31340192242672
30
0
41
1
10
30.0288520834391
20
-1.3222974470707
30
0
41
1
10
29.9913134317569
20
-1.32627635808478
30
0
41
1
10
29.8784990028549
20
-1.33669078877173
30
0
41
1
10
29.8030967706513
20
-1.34164644061829
30
0
41
1
10
29.6520486708118
20
-1.3477049307233
30
0
41
1
10
29.5763799376288
20
-1.34879595723186
30
0
41
1
10
29.4245903304764
20
-1.34711475208425
30
0
41
1
10
29.3484736117889
20
-1.34435304424648
30
0
41
1
10
29.234105021373
20
-1.33724198684232
30
0
41
1
10
29.1959506915777
20
-1.33437475150822
30
0
41
1
10
29.1195959110013
20
-1.32760952494902
30
0
41
1
10
29.081468267834
20
-1.32371291399093
30
0
41
1
10
29.0054791000957
20
-1.31492153578532
30
0
41
1
10
28.9675583119826
20
-1.31003226650282
30
0
41
1
10
28.8917025278472
20
-1.29935948086185
30
0
41
1
10
28.8537879274071
20
-1.29356870288359
30
0
41
1
10
28.740121889436
20
-1.27484534950472
30
0
41
1
10
28.6644618153553
20
-1.26055182056115
30
0
41
1
10
28.5132252963359
20
-1.22853041106939
30
0
41
1
10
28.4376192941592
20
-1.2108292598337
30
0
41
1
10
28.2865160344047
20
-1.17202262368468
30
0
41
1
10
28.2110399783419
20
-1.15090124043022
30
0
41
1
10
28.0604176989877
20
-1.10493464412582
30
0
41
1
10
27.9853068779939
20
-1.08001976933005
30
0
41
1
10
27.8343141439497
20
-1.02757955138841
30
0
41
1
10
27.7585668151527
20
-0.999928267952384
30
0
41
1
10
27.606603723296
20
-0.94175026090636
30
0
41
1
10
27.5303546205836
20
-0.911264089012946
30
0
41
1
10
27.415504667338
20
-0.86353253105375
30
0
41
1
10
27.3771797317512
20
-0.847294880909601
30
0
41
1
10
27.3007777727328
20
-0.814259385407496
30
0
41
1
10
27.2626589995588
20
-0.797440912401697
30
0
41
1
10
27.1866091859529
20
-0.763164355473236
30
0
41
1
10
27.1486799367191
20
-0.745703383666978
30
0
41
1
10
27.07301931267
20
-0.710119712293164
30
0
41
1
10
27.0352959171432
20
-0.691983309231517
30
0
41
1
10
26.9221604441466
20
-0.636998338963309
30
0
41
1
10
26.8466797241448
20
-0.599748374255029
30
0
41
1
10
26.6957593791215
20
-0.523860917034085
30
0
41
1
10
26.620312127502
20
-0.485232838124062
30
0
41
1
10
26.46926553315
20
-0.406936514877998
30
0
41
1
10
26.3936574062344
20
-0.367286804596745
30
0
41
1
10
26.2424322363241
20
-0.286695020665377
30
0
41
1
10
26.1668428322093
20
-0.245702485154965
30
0
41
1
10
26.0535361946988
20
-0.183038161405591
30
0
41
1
10
26.0157802713023
20
-0.161952362392583
30
0
41
1
10
25.940057992402
20
-0.119825743583959
30
0
41
1
10
25.9020982108129
20
-0.0987738596288068
30
0
41
1
10
25.826007120383
20
-0.0566479015476773
30
0
41
1
10
25.7878789159199
20
-0.0355677551940516
30
0
41
1
10
25.711460730815
20
0.0066339662276675
30
0
41
1
10
25.6731716680937
20
0.0277503994528558
30
0
41
1
10
25.5584578154953
20
0.0908565246892294
30
0
41
1
10
25.4820160863717
20
0.13263585649625
30
0
41
1
10
25.3292134644861
20
0.215646390643826
30
0
41
1
10
25.2528760966995
20
0.25692101215131
30
0
41
1
10
25.1386207629825
20
0.318748501416138
30
0
41
1
10
25.1005830933812
20
0.339353070969821
30
0
41
1
10
25.0245436259637
20
0.380444007301492
30
0
41
1
10
24.9865203933078
20
0.400892340582971
30
0
41
1
10
24.9102823477068
20
0.441273135872706
30
0
41
1
10
24.8720543333353
20
0.461263157300181
30
0
41
1
10
24.7956722916979
20
0.500758581386322
30
0
41
1
10
24.7575335562079
20
0.52026204946398
30
0
41
1
10
24.6432538611387
20
0.578021478437677
30
0
41
1
10
24.5672412840465
20
0.615512023860276
30
0
41
1
10
24.4154142068858
20
0.688286983844819
30
0
41
1
10
24.3396113152813
20
0.723597017772306
30
0
41
1
10
24.226229653611
20
0.775190663481112
30
0
41
1
10
24.1884893832229
20
0.792158437312963
30
0
41
1
10
24.113136198224
20
0.825651363353217
30
0
41
1
10
24.075530161427
20
0.842185458058054
30
0
41
1
10
24.0003452200975
20
0.874652024325314
30
0
41
1
10
23.9627303571496
20
0.890533658364234
30
0
41
1
10
23.8873842814488
20
0.921505789799738
30
0
41
1
10
23.7742300567326
20
0.966834959122679
30
0
41
1
10
23.6607951073111
20
1.00897013090559
30
0
41
1
10
23.5091425416629
20
1.0621318933776
30
0
41
1
10
23.4330906990383
20
1.08718180006912
30
0
41
1
10
23.3187635630735
20
1.12254226402453
30
0
41
1
10
23.2806168690871
20
1.13396338787987
30
0
41
1
10
23.2042693876542
20
1.15608030557598
30
0
41
1
10
23.1660220281983
20
1.16678989316907
30
0
41
1
10
23.08979358033
20
1.18738190509689
30
0
41
1
10
23.0518097153367
20
1.19727300729403
30
0
41
1
10
22.9759188146592
20
1.21607937515009
30
0
41
1
10
22.9379854042035
20
1.22497522379595
30
0
41
1
10
22.7483958144632
20
1.26700997634771
30
0
41
1
10
22.5971554371315
20
1.29297461179331
30
0
41
1
10
22.3703515912208
20
1.32067530352879
30
0
41
1
10
22.2947884304487
20
1.32805018531883
30
0
41
1
10
22.1816580691288
20
1.33631409937416
30
0
41
1
10
22.1439871736214
20
1.33860072288854
30
0
41
1
10
22.0687056669592
20
1.3422081736245
30
0
41
1
10
22.0311017738995
20
1.34352693402323
30
0
41
1
10
21.9610079529971
20
1.34504873223278
30
0
41
1
10
21.9285442778266
20
1.34538644545654
30
0
41
1
10
21.8960322066471
20
1.34536098463144
30
0
0
SPLINE
5
C9
100
AcDbEntity
8
1
62
256
6
ByLayer
370
18
48
1
60
0
100
AcDbSpline
70
4
71
3
72
124
73
120
40
0
40
0
40
0
40
0
40
0.0108915144636657
40
0.0108915144636657
40
0.0226280532111302
40
0.0226280532111302
40
0.034364591958595
40
0.034364591958595
40
0.0461011307060598
40
0.0461011307060598
40
0.069574208200989
40
0.069574208200989
40
0.0930472856959186
40
0.0930472856959186
40
0.116520363190848
40
0.116520363190848
40
0.128256901938313
40
0.128256901938313
40
0.139993440685777
40
0.139993440685777
40
0.163466518180708
40
0.163466518180708
40
0.175203056928175
40
0.175203056928175
40
0.186939595675641
40
0.186939595675641
40
0.210412673170574
40
0.210412673170574
40
0.22214921191804
40
0.22214921191804
40
0.233885750665506
40
0.233885750665506
40
0.257358828160439
40
0.257358828160439
40
0.280831905655372
40
0.280831905655372
40
0.304304983150305
40
0.304304983150305
40
0.327778060645238
40
0.327778060645238
40
0.339514599392705
40
0.339514599392705
40
0.351251138140172
40
0.351251138140172
40
0.362987676887639
40
0.362987676887639
40
0.374724215635106
40
0.374724215635106
40
0.39819729313004
40
0.39819729313004
40
0.421670370624974
40
0.421670370624974
40
0.445143448119909
40
0.445143448119909
40
0.468616525614843
40
0.468616525614843
40
0.492089603109778
40
0.492089603109778
40
0.515562680604712
40
0.515562680604712
40
0.527299219352179
40
0.527299219352179
40
0.539035758099646
40
0.539035758099646
40
0.562508835594581
40
0.562508835594581
40
0.585981913089515
40
0.585981913089515
40
0.60945499058445
40
0.60945499058445
40
0.621191529331916
40
0.621191529331916
40
0.632928068079384
40
0.632928068079384
40
0.644664606826851
40
0.644664606826851
40
0.656401145574318
40
0.656401145574318
40
0.67987422306925
40
0.67987422306925
40
0.703347300564183
40
0.703347300564183
40
0.726820378059116
40
0.726820378059116
40
0.738556916806581
40
0.738556916806581
40
0.750293455554046
40
0.750293455554046
40
0.773766533048978
40
0.773766533048978
40
0.785503071796442
40
0.785503071796442
40
0.797239610543907
40
0.797239610543907
40
0.820712688038838
40
0.820712688038838
40
0.832449226786304
40
0.832449226786304
40
0.844185765533771
40
0.844185765533771
40
0.855922304281237
40
0.855922304281237
40
0.867658843028704
40
0.867658843028704
40
0.87939538177617
40
0.87939538177617
40
0.891131920523636
40
0.891131920523636
40
0.914604998018569
40
0.914604998018569
40
0.938078075513502
40
0.938078075513502
40
0.949814614260967
40
0.949814614260967
40
0.961551153008432
40
0.961551153008432
40
0.985024230503364
40
0.985024230503364
40
1
40
1
40
1
40
1
41
1
10
16.2990511864145
20
-0.892724911147013
30
0
41
1
10
16.263524679641
20
-0.907300367190544
30
0
41
1
10
16.2280647359703
20
-0.921616508483055
30
0
41
1
10
16.1546206922303
20
-0.950806999613604
30
0
41
1
10
16.116647565124
20
-0.965653010272547
30
0
41
1
10
16.0408577278653
20
-0.994631187356276
30
0
41
1
10
16.0030092607885
20
-1.00872138990462
30
0
41
1
10
15.9272864725219
20
-1.03597617907431
30
0
41
1
10
15.8894296193815
20
-1.04916414245588
30
0
41
1
10
15.7759122790554
20
-1.08748456602919
30
0
41
1
10
15.7003118373326
20
-1.11137891807891
30
0
41
1
10
15.549113807193
20
-1.15577816319743
30
0
41
1
10
15.4734895555027
20
-1.17626281269429
30
0
41
1
10
15.3222937102757
20
-1.21392249377476
30
0
41
1
10
15.2467431343151
20
-1.2311171172986
30
0
41
1
10
15.1336130047701
20
-1.25444481391781
30
0
41
1
10
15.0959412039107
20
-1.26181023295675
30
0
41
1
10
15.0205296959828
20
-1.27560801134291
30
0
41
1
10
14.9827544704941
20
-1.28202001956518
30
0
41
1
10
14.8691747962017
20
-1.29978969857427
30
0
41
1
10
14.7931741686945
20
-1.30971653802763
30
0
41
1
10
14.6787543375795
20
-1.32173948632499
30
0
41
1
10
14.64054000484
20
-1.32526643055172
30
0
41
1
10
14.563935954737
20
-1.33134854937771
30
0
41
1
10
14.5256130528108
20
-1.33389780323725
30
0
41
1
10
14.410922298835
20
-1.34007138268618
30
0
41
1
10
14.3346991932343
20
-1.34224159935249
30
0
41
1
10
14.2208777958686
20
-1.34258481648379
30
0
41
1
10
14.1830253733043
20
-1.34221145859828
30
0
41
1
10
14.1074916889603
20
-1.3404709478919
30
0
41
1
10
14.0698188372709
20
-1.33910007295609
30
0
41
1
10
13.9567548825031
20
-1.33352531324871
30
0
41
1
10
13.8812848549467
20
-1.32788559995626
30
0
41
1
10
13.7303246855338
20
-1.31285710584032
30
0
41
1
10
13.6548189328233
20
-1.30346368542902
30
0
41
1
10
13.5035840899472
20
-1.28104592891938
30
0
41
1
10
13.427850844084
20
-1.26803336203801
30
0
41
1
10
13.2763250090145
20
-1.2382633471365
30
0
41
1
10
13.2005626830993
20
-1.22148183858832
30
0
41
1
10
13.0869258249587
20
-1.19329311935331
30
0
41
1
10
13.0490386670232
20
-1.18339740513949
30
0
41
1
10
12.973016895022
20
-1.16280994629577
30
0
41
1
10
12.9348998687178
20
-1.15210564268031
30
0
41
1
10
12.8584797938352
20
-1.12985893974388
30
0
41
1
10
12.8201921110688
20
-1.11831494944096
30
0
41
1
10
12.7438186069364
20
-1.09450889348119
30
0
41
1
10
12.7056837836885
20
-1.08223420795892
30
0
41
1
10
12.5914006967661
20
-1.0443503099799
30
0
41
1
10
12.5153477351893
20
-1.017715197456
30
0
41
1
10
12.3635464956881
20
-0.961705541793918
30
0
41
1
10
12.2878203963712
20
-0.932305238782362
30
0
41
1
10
12.1369099115204
20
-0.870404500877413
30
0
41
1
10
12.0618123062395
20
-0.83776008910047
30
0
41
1
10
11.9111399440114
20
-0.770781123299429
30
0
41
1
10
11.8356539736222
20
-0.736336896013199
30
0
41
1
10
11.6844615439948
20
-0.665464262409557
30
0
41
1
10
11.6087251642404
20
-0.629079756321744
30
0
41
1
10
11.4568428042806
20
-0.554640594409193
30
0
41
1
10
11.3807098859453
20
-0.516570042076495
30
0
41
1
10
11.2663726038354
20
-0.457873318962044
30
0
41
1
10
11.2282368046853
20
-0.438042004123361
30
0
41
1
10
11.1519337634507
20
-0.397798321827992
30
0
41
1
10
11.1137536936994
20
-0.377361081796408
30
0
41
1
10
10.9994170953353
20
-0.315731509736196
30
0
41
1
10
10.9231335256299
20
-0.274502150234326
30
0
41
1
10
10.770500526072
20
-0.191683217266785
30
0
41
1
10
10.6941714085754
20
-0.150056210969097
30
0
41
1
10
10.5413106293146
20
-0.066696159632869
30
0
41
1
10
10.464761608305
20
-0.0249958627468629
30
0
41
1
10
10.3498707845895
20
0.0377889147337669
30
0
41
1
10
10.3115393035006
20
0.0587786100593064
30
0
41
1
10
10.2350111651803
20
0.100822730936386
30
0
41
1
10
10.1968603345308
20
0.12186040332864
30
0
41
1
10
10.1207800575558
20
0.163950797263567
30
0
41
1
10
10.082859101428
20
0.185018546058643
30
0
41
1
10
10.0070348516615
20
0.22678018146587
30
0
41
1
10
9.96912416943411
20
0.247461625310848
30
0
41
1
10
9.85543021934538
20
0.308988026194641
30
0
41
1
10
9.77971190464717
20
0.349364769778987
30
0
41
1
10
9.62836261346976
20
0.428755138000127
30
0
41
1
10
9.5526969867629
20
0.467707459502918
30
0
41
1
10
9.40136771721376
20
0.54412223743202
30
0
41
1
10
9.32572575347666
20
0.581624358136452
30
0
41
1
10
9.21244935409788
20
0.637044263349964
30
0
41
1
10
9.17472648863793
20
0.655385585194466
30
0
41
1
10
9.09931621070518
20
0.691733869851447
30
0
41
1
10
9.06162649381596
20
0.709735978522701
30
0
41
1
10
8.94825968776377
20
0.762678039265921
30
0
41
1
10
8.8723705658131
20
0.796697041995003
30
0
41
1
10
8.7581681971906
20
0.845979403738909
30
0
41
1
10
8.72003354022232
20
0.862106326923396
30
0
41
1
10
8.64360820634025
20
0.893726355935939
30
0
41
1
10
8.60529051367118
20
0.90922565992318
30
0
41
1
10
8.49024676992391
20
0.954668469561085
30
0
41
1
10
8.41363078711061
20
0.983485239168459
30
0
41
1
10
8.29898293726285
20
1.02468978146885
30
0
41
1
10
8.26081358139211
20
1.03808694608952
30
0
41
1
10
8.18458918733012
20
1.06421477076646
30
0
41
1
10
8.14654172646112
20
1.07695279563311
30
0
41
1
10
8.07049064687985
20
1.10166539868399
30
0
41
1
10
8.03245431199224
20
1.11360470448093
30
0
41
1
10
7.95623404116566
20
1.13653225637037
30
0
41
1
10
7.91806882688792
20
1.14754090497107
30
0
41
1
10
7.84165747466972
20
1.16868555733151
30
0
41
1
10
7.80341180066711
20
1.17882148517077
30
0
41
1
10
7.72682611297753
20
1.19821037555826
30
0
41
1
10
7.68850223951168
20
1.20745810193921
30
0
41
1
10
7.5737807551792
20
1.23375835081853
30
0
41
1
10
7.49747273459769
20
1.24939448319819
30
0
41
1
10
7.34530242874052
20
1.27703413579857
30
0
41
1
10
7.26946176176784
20
1.28905260189603
30
0
41
1
10
7.15619107718859
20
1.30436431765321
30
0
41
1
10
7.11852169172093
20
1.30901393214759
30
0
41
1
10
7.04319920502826
20
1.31732857858358
30
0
41
1
10
7.00551272683816
20
1.32098339512319
30
0
41
1
10
6.89235606743136
20
1.3304680576075
30
0
41
1
10
6.81683749358405
20
1.33483562233991
30
0
41
1
10
6.69299991595986
20
1.33884569489379
30
0
41
1
10
6.64471683092103
20
1.33962398774904
30
0
41
1
10
6.59637612862392
20
1.33962246553878
30
0
0
SPLINE
5
CA
100
AcDbEntity
8
1
62
256
6
ByLayer
370
18
48
1
60
0
100
AcDbSpline
70
4
71
3
72
124
73
120
40
0
40
0
40
0
40
0
40
0.0137963023204911
40
0.0137963023204911
40
0.0372594642231591
40
0.0372594642231591
40
0.0607226261258271
40
0.0607226261258271
40
0.084185788028495
40
0.084185788028495
40
0.107648949931163
40
0.107648949931163
40
0.131112111833831
40
0.131112111833831
40
0.142843692785165
40
0.142843692785165
40
0.154575273736499
40
0.154575273736499
40
0.166306854687833
40
0.166306854687833
40
0.178038435639167
40
0.178038435639167
40
0.201501597541835
40
0.201501597541835
40
0.224964759444503
40
0.224964759444503
40
0.248427921347171
40
0.248427921347171
40
0.260159502298505
40
0.260159502298505
40
0.271891083249839
40
0.271891083249839
40
0.295354245152505
40
0.295354245152505
40
0.318817407055172
40
0.318817407055172
40
0.342280568957838
40
0.342280568957838
40
0.354012149909171
40
0.354012149909171
40
0.365743730860504
40
0.365743730860504
40
0.389206892763171
40
0.389206892763171
40
0.412670054665837
40
0.412670054665837
40
0.436133216568503
40
0.436133216568503
40
0.447864797519836
40
0.447864797519836
40
0.45959637847117
40
0.45959637847117
40
0.471327959422503
40
0.471327959422503
40
0.483059540373836
40
0.483059540373836
40
0.506522702276502
40
0.506522702276502
40
0.518254283227835
40
0.518254283227835
40
0.529985864179168
40
0.529985864179168
40
0.553449026081833
40
0.553449026081833
40
0.565180607033166
40
0.565180607033166
40
0.576912187984499
40
0.576912187984499
40
0.600375349887164
40
0.600375349887164
40
0.623838511789829
40
0.623838511789829
40
0.647301673692493
40
0.647301673692493
40
0.659033254643826
40
0.659033254643826
40
0.670764835595158
40
0.670764835595158
40
0.694227997497824
40
0.694227997497824
40
0.705959578449157
40
0.705959578449157
40
0.71769115940049
40
0.71769115940049
40
0.741154321303155
40
0.741154321303155
40
0.752885902254487
40
0.752885902254487
40
0.764617483205818
40
0.764617483205818
40
0.776349064157149
40
0.776349064157149
40
0.788080645108481
40
0.788080645108481
40
0.811543807011146
40
0.811543807011146
40
0.83500696891381
40
0.83500696891381
40
0.858470130816475
40
0.858470130816475
40
0.870201711767806
40
0.870201711767806
40
0.881933292719138
40
0.881933292719138
40
0.905396454621799
40
0.905396454621799
40
0.928859616524461
40
0.928859616524461
40
0.952322778427122
40
0.952322778427122
40
0.964054359378452
40
0.964054359378452
40
0.975785940329782
40
0.975785940329782
40
0.987517521281112
40
0.987517521281112
40
0.999249102232442
40
0.999249102232442
40
1
40
1
40
1
40
1
41
1
10
8.65304667720127
20
0.892594389327172
30
0
41
1
10
8.69806885848715
20
0.910861253266575
30
0
41
1
10
8.74296045955705
20
0.928712606498863
30
0
41
1
10
8.86384693287116
20
0.97578126446848
30
0
41
1
10
8.93963319785644
20
1.00414702754546
30
0
41
1
10
9.09053788812955
20
1.05820518140195
30
0
41
1
10
9.16556263228856
20
1.08396750349516
30
0
41
1
10
9.31644116518373
20
1.13117307625544
30
0
41
1
10
9.39219026630454
20
1.15277801432887
30
0
41
1
10
9.5439027914945
20
1.19258561761052
30
0
41
1
10
9.61983360618461
20
1.21081621886233
30
0
41
1
10
9.77148794442581
20
1.24414377251841
30
0
41
1
10
9.84726425261158
20
1.25918931803233
30
0
41
1
10
9.96095859573862
20
1.27912706599236
30
0
41
1
10
9.99885810170187
20
1.285336903038
30
0
41
1
10
10.0746543723872
20
1.296856925356
30
0
41
1
10
10.112543212238
20
1.30216776382804
30
0
41
1
10
10.1885464550494
20
1.31176192327658
30
0
41
1
10
10.2266949808785
20
1.3160407949905
30
0
41
1
10
10.3032621064723
20
1.3235558408854
30
0
41
1
10
10.3415514490459
20
1.32678833042408
30
0
41
1
10
10.4563768537213
20
1.33499846435234
30
0
41
1
10
10.5328709390598
20
1.33850414413882
30
0
41
1
10
10.6852551302375
20
1.34175097114871
30
0
41
1
10
10.7611269654469
20
1.34147388166826
30
0
41
1
10
10.9123768199282
20
1.33700183312476
30
0
41
1
10
10.9877601126154
20
1.3328119421775
30
0
41
1
10
11.1004723732781
20
1.32346693321617
30
0
41
1
10
11.1380025943928
20
1.3198430336189
30
0
41
1
10
11.213227506811
20
1.31166657060342
30
0
41
1
10
11.2509389916132
20
1.30712384984292
30
0
41
1
10
11.364347781498
20
1.29218723317888
30
0
41
1
10
11.4403116965456
20
1.28049649992315
30
0
41
1
10
11.5924947287269
20
1.25353098868678
30
0
41
1
10
11.6686616324609
20
1.23821476964133
30
0
41
1
10
11.8210355248451
20
1.20366093158779
30
0
41
1
10
11.8972915063109
20
1.18445739606639
30
0
41
1
10
12.0118411278737
20
1.15262248349066
30
0
41
1
10
12.0499361786901
20
1.14151405161164
30
0
41
1
10
12.1258995793353
20
1.11842976569375
30
0
41
1
10
12.1638100667292
20
1.10646645451621
30
0
41
1
10
12.2776850920415
20
1.06973488020768
30
0
41
1
10
12.3537662920166
20
1.0441145460359
30
0
41
1
10
12.5059012019669
20
0.990399575546974
30
0
41
1
10
12.5819349082333
20
0.962280869090307
30
0
41
1
10
12.7334909035678
20
0.902938683140491
30
0
41
1
10
12.8090544299512
20
0.871759451736239
30
0
41
1
10
12.9221929504527
20
0.822816289326681
30
0
41
1
10
12.9598693092676
20
0.806136873653514
30
0
41
1
10
13.0351417143225
20
0.772020749842
30
0
41
1
10
13.0727186177565
20
0.754553468814436
30
0
41
1
10
13.1479395850586
20
0.719072450271284
30
0
41
1
10
13.1856019743399
20
0.701087309787482
30
0
41
1
10
13.2612102593722
20
0.664933795064542
30
0
41
1
10
13.2991357726668
20
0.646734609676258
30
0
41
1
10
13.413207835235
20
0.591689059659927
30
0
41
1
10
13.4896548726779
20
0.554412849134565
30
0
41
1
10
13.6045527557015
20
0.496996464387166
30
0
41
1
10
13.6428837285557
20
0.47759337718486
30
0
41
1
10
13.7196036645525
20
0.438229633766923
30
0
41
1
10
13.7579404574469
20
0.418303838794287
30
0
41
1
10
13.8725348753409
20
0.358038715672507
30
0
41
1
10
13.9485417769821
20
0.317166095808346
30
0
41
1
10
14.0619461146729
20
0.254773866219352
30
0
41
1
10
14.0996379306653
20
0.233779985037359
30
0
41
1
10
14.1750476036591
20
0.191853487209784
30
0
41
1
10
14.212784571161
20
0.170956213814662
30
0
41
1
10
14.3262027535755
20
0.108666612653678
30
0
41
1
10
14.4020409368556
20
0.0675831728228218
30
0
41
1
10
14.5537435877215
20
-0.0144877867668356
30
0
41
1
10
14.6295635880227
20
-0.0555574065479618
30
0
41
1
10
14.7808972860475
20
-0.138213542117484
30
0
41
1
10
14.8564652933487
20
-0.179699695024624
30
0
41
1
10
14.9697513991316
20
-0.242012316302095
30
0
41
1
10
15.0074957307902
20
-0.262809473303605
30
0
41
1
10
15.0829601291909
20
-0.304435391379258
30
0
41
1
10
15.1206953083607
20
-0.325236262969384
30
0
41
1
10
15.2342798286896
20
-0.386921113348563
30
0
41
1
10
15.3106029365851
20
-0.426913156880175
30
0
41
1
10
15.4257608139675
20
-0.485624301962929
30
0
41
1
10
15.4642313503346
20
-0.504978267482613
30
0
41
1
10
15.5409508340583
20
-0.543207724874577
30
0
41
1
10
15.5792445136425
20
-0.562107664021255
30
0
41
1
10
15.693837082916
20
-0.618319482035162
30
0
41
1
10
15.7698622216867
20
-0.655114335625825
30
0
41
1
10
15.8834569754683
20
-0.709047984560101
30
0
41
1
10
15.9212489521004
20
-0.726815001453076
30
0
41
1
10
15.9966786282403
20
-0.761928818523302
30
0
41
1
10
16.0343029598538
20
-0.779295436889413
30
0
41
1
10
16.1094611276979
20
-0.81349664210822
30
0
41
1
10
16.1470142899249
20
-0.830300914089975
30
0
41
1
10
16.222307388501
20
-0.86298438295475
30
0
41
1
10
16.2600415081555
20
-0.878874642584378
30
0
41
1
10
16.3734427777675
20
-0.925322423063108
30
0
41
1
10
16.4493174340891
20
-0.95465433498606
30
0
41
1
10
16.6011359351388
20
-1.01075232117756
30
0
41
1
10
16.6770262746116
20
-1.0375777128196
30
0
41
1
10
16.8287660215843
20
-1.08866724201675
30
0
41
1
10
16.9046550033953
20
-1.11288533770949
30
0
41
1
10
17.0185498178803
20
-1.14706392864761
30
0
41
1
10
17.0565033092568
20
-1.15811863720353
30
0
41
1
10
17.1325679711374
20
-1.17935174820559
30
0
41
1
10
17.1707186735296
20
-1.18951534679374
30
0
41
1
10
17.2851517803532
20
-1.2182752438035
30
0
41
1
10
17.3615319478199
20
-1.23528748428436
30
0
41
1
10
17.5141002003318
20
-1.26560305634325
30
0
41
1
10
17.5902563982636
20
-1.27892602747733
30
0
41
1
10
17.7419505898079
20
-1.30209130067254
30
0
41
1
10
17.8175400956461
20
-1.31189257255539
30
0
41
1
10
17.9306340860787
20
-1.32377986252752
30
0
41
1
10
17.9682801567108
20
-1.32727471912142
30
0
41
1
10
18.0434602061324
20
-1.33330682895138
30
0
41
1
10
18.0809840911181
20
-1.33584313087528
30
0
41
1
10
18.156140630973
20
-1.33989664179407
30
0
41
1
10
18.1937918201988
20
-1.341412807301
30
0
41
1
10
18.2693277797839
20
-1.34345161643372
30
0
41
1
10
18.3071960331214
20
-1.34397763841684
30
0
41
1
10
18.347570468369
20
-1.34402944874947
30
0
41
1
10
18.3499995559179
20
-1.34403062522068
30
0
41
1
10
18.3524289525723
20
-1.34402986063054
30
0
0
SPLINE
5
CB
100
AcDbEntity
8
1
62
256
6
ByLayer
370
18
48
1
60
0
100
AcDbSpline
70
4
71
3
72
122
73
118
40
0
40
0
40
0
40
0
40
0.0090951496913934
40
0.0090951496913934
40
0.0208157310710482
40
0.0208157310710482
40
0.0325363124507027
40
0.0325363124507027
40
0.055977475210012
40
0.055977475210012
40
0.0794186379693213
40
0.0794186379693213
40
0.102859800728631
40
0.102859800728631
40
0.12630096348794
40
0.12630096348794
40
0.149742126247249
40
0.149742126247249
40
0.173183289006558
40
0.173183289006558
40
0.184903870386213
40
0.184903870386213
40
0.196624451765867
40
0.196624451765867
40
0.208345033145522
40
0.208345033145522
40
0.220065614525177
40
0.220065614525177
40
0.231786195904831
40
0.231786195904831
40
0.243506777284486
40
0.243506777284486
40
0.266947940043795
40
0.266947940043795
40
0.290389102803105
40
0.290389102803105
40
0.313830265562414
40
0.313830265562414
40
0.325550846942069
40
0.325550846942069
40
0.337271428321725
40
0.337271428321725
40
0.348992009701381
40
0.348992009701381
40
0.360712591081036
40
0.360712591081036
40
0.384153753840347
40
0.384153753840347
40
0.407594916599658
40
0.407594916599658
40
0.419315497979314
40
0.419315497979314
40
0.431036079358969
40
0.431036079358969
40
0.45447724211828
40
0.45447724211828
40
0.477918404877591
40
0.477918404877591
40
0.501359567636902
40
0.501359567636902
40
0.513080149016557
40
0.513080149016557
40
0.524800730396211
40
0.524800730396211
40
0.536521311775866
40
0.536521311775866
40
0.548241893155521
40
0.548241893155521
40
0.57168305591483
40
0.57168305591483
40
0.59512421867414
40
0.59512421867414
40
0.618565381433449
40
0.618565381433449
40
0.630285962813104
40
0.630285962813104
40
0.642006544192759
40
0.642006544192759
40
0.665447706952068
40
0.665447706952068
40
0.688888869711377
40
0.688888869711377
40
0.712330032470686
40
0.712330032470686
40
0.724050613850341
40
0.724050613850341
40
0.735771195229996
40
0.735771195229996
40
0.759212357989305
40
0.759212357989305
40
0.782653520748614
40
0.782653520748614
40
0.806094683507924
40
0.806094683507924
40
0.829535846267233
40
0.829535846267233
40
0.841256427646887
40
0.841256427646887
40
0.852977009026542
40
0.852977009026542
40
0.876418171785851
40
0.876418171785851
40
0.888138753165506
40
0.888138753165506
40
0.899859334545161
40
0.899859334545161
40
0.923300497304469
40
0.923300497304469
40
0.935021078684123
40
0.935021078684123
40
0.946741660063778
40
0.946741660063778
40
0.970182822823086
40
0.970182822823086
40
0.993623985582393
40
0.993623985582393
40
1
40
1
40
1
40
1
41
1
10
23.9473079251422
20
0.894097436989227
30
0
41
1
10
23.976861526183
20
0.906507904651846
30
0
41
1
10
24.0064300836446
20
0.918781392028563
30
0
41
1
10
24.0740015119364
20
0.946425241732442
30
0
41
1
10
24.111960448215
20
0.961622954084049
30
0
41
1
10
24.18794573161
20
0.990980007201898
30
0
41
1
10
24.2259733855975
20
1.00514169217624
30
0
41
1
10
24.3401043105502
20
1.04622240075156
30
0
41
1
10
24.4162651300154
20
1.07173827185511
30
0
41
1
10
24.5682728877292
20
1.11972018208129
30
0
41
1
10
24.6440654618845
20
1.14223338420314
30
0
41
1
10
24.7951953302275
20
1.1842361573149
30
0
41
1
10
24.8705738480189
20
1.20368590831788
30
0
41
1
10
25.0209901850847
20
1.23930307729452
30
0
41
1
10
25.0958986909432
20
1.25552820686011
30
0
41
1
10
25.2467938039471
20
1.28366917148656
30
0
41
1
10
25.3227188157286
20
1.29567741205892
30
0
41
1
10
25.4751187081798
20
1.31597396637073
30
0
41
1
10
25.5515664176723
20
1.32427535480349
30
0
41
1
10
25.6663227933379
20
1.33397620855536
30
0
41
1
10
25.7046390851149
20
1.33674610465872
30
0
41
1
10
25.7811661232961
20
1.3413087598075
30
0
41
1
10
25.8193230195214
20
1.34309913997143
30
0
41
1
10
25.8954347769353
20
1.34568563931919
30
0
41
1
10
25.9333876259675
20
1.34648229846764
30
0
41
1
10
26.0090781428926
20
1.34706560675826
30
0
41
1
10
26.0468016464569
20
1.34684899151924
30
0
41
1
10
26.1222386640719
20
1.34540297420875
30
0
41
1
10
26.1599707240709
20
1.34417671387916
30
0
41
1
10
26.2355733635957
20
1.34077648774033
30
0
41
1
10
26.273425815374
20
1.33860193378854
30
0
41
1
10
26.3870715653598
20
1.33069899259402
30
0
41
1
10
26.4629556415315
20
1.32360605170959
30
0
41
1
10
26.6144642720169
20
1.30566942572693
30
0
41
1
10
26.6900577993897
20
1.29479600394686
30
0
41
1
10
26.8410578467682
20
1.2691457324874
30
0
41
1
10
26.9164819070043
20
1.25438370395943
30
0
41
1
10
27.0294890695057
20
1.22916083991535
30
0
41
1
10
27.067143850912
20
1.22024048035169
30
0
41
1
10
27.1426742265432
20
1.20156679514037
30
0
41
1
10
27.1805695083575
20
1.19183308233224
30
0
41
1
10
27.2566410791477
20
1.1716278617898
30
0
41
1
10
27.2948080490958
20
1.1611488555402
30
0
41
1
10
27.371355636346
20
1.13941478136977
30
0
41
1
10
27.4097705263299
20
1.12814840953595
30
0
41
1
10
27.5249955130063
20
1.09316336347939
30
0
41
1
10
27.6015023665144
20
1.06829139748271
30
0
41
1
10
27.7537257902884
20
1.01522563901898
30
0
41
1
10
27.829493373209
20
0.987089080617721
30
0
41
1
10
27.9426793871181
20
0.942490847813758
30
0
41
1
10
27.9803174156405
20
0.927208057715461
30
0
41
1
10
28.0554671420408
20
0.895870074917042
30
0
41
1
10
28.0929987925406
20
0.879840533076646
30
0
41
1
10
28.2058281930265
20
0.831196391754162
30
0
41
1
10
28.2813921943993
20
0.798087895885942
30
0
41
1
10
28.4328467663056
20
0.73014643779365
30
0
41
1
10
28.5087231534846
20
0.695293619897626
30
0
41
1
10
28.6602962861284
20
0.623046150353218
30
0
41
1
10
28.7360233326867
20
0.585690059439827
30
0
41
1
10
28.8496507835076
20
0.527928248759224
30
0
41
1
10
28.8875322542363
20
0.508385765247027
30
0
41
1
10
28.963301421024
20
0.468695566221271
30
0
41
1
10
29.0011718560104
20
0.448515825888705
30
0
41
1
10
29.077024678758
20
0.40772117472099
30
0
41
1
10
29.1150388534616
20
0.387134286418842
30
0
41
1
10
29.1913813270752
20
0.346036217311195
30
0
41
1
10
29.2295708530573
20
0.325561140038701
30
0
41
1
10
29.3441368491333
20
0.26424316487703
30
0
41
1
10
29.4205190465409
20
0.22352206556414
30
0
41
1
10
29.572819606335
20
0.141492848544033
30
0
41
1
10
29.6486877013207
20
0.100091786628241
30
0
41
1
10
29.799903569299
20
0.016606833843781
30
0
41
1
10
29.8752832389457
20
-0.0254178477700009
30
0
41
1
10
29.9880064229854
20
-0.0888766016409193
30
0
41
1
10
30.0255040477143
20
-0.110134707411447
30
0
41
1
10
30.1005657006023
20
-0.152454831699856
30
0
41
1
10
30.138147665962
20
-0.173483917481235
30
0
41
1
10
30.2512498651463
20
-0.235809506219425
30
0
41
1
10
30.3270545144049
20
-0.276477897146123
30
0
41
1
10
30.479051087486
20
-0.356830370529394
30
0
41
1
10
30.5552062982928
20
-0.396581163477947
30
0
41
1
10
30.7075272030262
20
-0.475772110340756
30
0
41
1
10
30.7837471737384
20
-0.515113157504771
30
0
41
1
10
30.8982751762319
20
-0.573533010880254
30
0
41
1
10
30.9363523778298
20
-0.592849470356867
30
0
41
1
10
31.0122438653327
20
-0.631140709508287
30
0
41
1
10
31.0500716278767
20
-0.650110434589806
30
0
41
1
10
31.1635764432669
20
-0.705871545772538
30
0
41
1
10
31.2394058785235
20
-0.741316413740321
30
0
41
1
10
31.3912253326353
20
-0.809259841997942
30
0
41
1
10
31.4671839438981
20
-0.841812030017849
30
0
41
1
10
31.6186953538129
20
-0.904847987782688
30
0
41
1
10
31.694241624895
20
-0.935327903051046
30
0
41
1
10
31.8450667806256
20
-0.993903592856896
30
0
41
1
10
31.9203415950122
20
-1.02200716794312
30
0
41
1
10
32.0330768333625
20
-1.06223984928849
30
0
41
1
10
32.0706512086619
20
-1.07529763163481
30
0
41
1
10
32.1460350920264
20
-1.10043799704707
30
0
41
1
10
32.1838572468629
20
-1.11250945976232
30
0
41
1
10
32.2976661944964
20
-1.14732031248272
30
0
41
1
10
32.3739959237004
20
-1.16866628105072
30
0
41
1
10
32.4888270893418
20
-1.19827829732611
30
0
41
1
10
32.5271577517153
20
-1.20774769392486
30
0
41
1
10
32.60387424513
20
-1.2259123741276
30
0
41
1
10
32.6421561792428
20
-1.23457611923976
30
0
41
1
10
32.756651746051
20
-1.25923753819416
30
0
41
1
10
32.8325934677053
20
-1.27391306858794
30
0
41
1
10
32.9459538503384
20
-1.29317417277153
30
0
41
1
10
32.9836285251595
20
-1.29914486004549
30
0
41
1
10
33.0588798285864
20
-1.31010547642893
30
0
41
1
10
33.0964755761408
20
-1.3150848805555
30
0
41
1
10
33.209516627201
20
-1.32842427983454
30
0
41
1
10
33.2851654364256
20
-1.33523284071572
30
0
41
1
10
33.4366549087764
20
-1.34506935842958
30
0
41
1
10
33.5124734462558
20
-1.3481027557122
30
0
41
1
10
33.6087342354557
20
-1.34956417330258
30
0
41
1
10
33.629311153079
20
-1.34973591295375
30
0
41
1
10
33.6498824189253
20
-1.34976508127568
30
0
0
SPLINE
5
CC
100
AcDbEntity
8
1
62
256
6
ByLayer
370
18
48
1
60
0
100
AcDbSpline
70
4
71
3
72
8
73
4
40
0
40
0
40
0
40
0
40
1
40
1
40
1
40
1
41
1
10
25.7393241190535
20
-0.0087436723130736
30
0
41
1
10
25.7526661142103
20
-0.0158962416993234
30
0
41
1
10
25.7659450249485
20
-0.0232462666188837
30
0
41
1
10
25.779155058038
20
-0.0307949708519573
30
0
0
LINE
5
7D
100
AcDbEntity
8
80
62
256
6
ByLayer
370
18
48
1
60
0
100
AcDbLine
10
0
20
0
30
0
11
-5
21
0
31
0
39
0
210
0
220
0
230
1
0
LINE
5
7E
100
AcDbEntity
8
4
62
256
6
ByLayer
370
18
48
0.05
60
0
100
AcDbLine
10
-5
20
0
30
0
11
40
21
0
31
0
39
0
210
0
220
0
230
1
0
LINE
5
80
100
AcDbEntity
8
81
62
256
6
ByLayer
370
18
48
1
60
0
100
AcDbLine
10
35
20
0
30
0
11
40
21
0
31
0
39
0
210
0
220
0
230
1
0
LINE
5
81
100
AcDbEntity
8
SK4
62
256
6
ByLayer
370
18
48
0.05
60
0
100
AcDbLine
10
-31
20
0
30
0
11
40
21
0
31
0
39
0
210
0
220
0
230
1
0
LINE
5
83
100
AcDbEntity
8
1
62
256
6
ByLayer
370
18
48
1
60
0
100
AcDbLine
10
0
20
1.35
30
0
11
0
21
-1.35
31
0
39
0
210
0
220
0
230
1
0
LINE
5
84
100
AcDbEntity
8
1
62
256
6
ByLayer
370
18
48
1
60
0
100
AcDbLine
10
34.269954
20
-1.35
30
0
11
34.269954
21
-0.486631
31
0
39
0
210
0
220
0
230
1
0
LINE
5
85
100
AcDbEntity
8
1
62
256
6
ByLayer
370
18
48
1
60
0
100
AcDbLine
10
34.269954
20
1.35
30
0
11
34.269954
21
1.306367
31
0
39
0
210
0
220
0
230
1
0
LINE
5
86
100
AcDbEntity
8
1
62
256
6
ByLayer
370
18
48
1
60
0
100
AcDbLine
10
0.1
20
-1.337186
30
0
11
0.1
21
1.337186
31
0
39
0
210
0
220
0
230
1
0
LINE
5
87
100
AcDbEntity
8
SK1
62
256
6
ByLayer
370
18
48
1
60
0
100
AcDbLine
10
-26
20
-1.05
30
0
11
-26
21
1.05
31
0
39
0
210
0
220
0
230
1
0
LINE
5
89
100
AcDbEntity
8
SK1
62
256
6
ByLayer
370
18
48
1
60
0
100
AcDbLine
10
-25.7
20
-1.35
30
0
11
-25.7
21
1.35
31
0
39
0
210
0
220
0
230
1
0
LINE
5
8A
100
AcDbEntity
8
SK1
62
256
6
ByLayer
370
18
48
1
60
0
100
AcDbLine
10
0
20
1.35
30
0
11
0
21
-1.35
31
0
39
0
210
0
220
0
230
1
0
LINE
5
8B
100
AcDbEntity
8
1
62
256
6
ByLayer
370
18
48
1
60
0
100
AcDbLine
10
35
20
0
30
0
11
34.269954
21
1.35
31
0
39
0
210
0
220
0
230
1
0
LINE
5
8C
100
AcDbEntity
8
1
62
256
6
ByLayer
370
18
48
1
60
0
100
AcDbLine
10
34.269954
20
-1.35
30
0
11
35
21
0
31
0
39
0
210
0
220
0
230
1
0
LINE
5
8D
100
AcDbEntity
8
1
62
256
6
ByLayer
370
18
48
1
60
0
100
AcDbLine
10
0.1
20
1.337186
30
0
11
0
21
1.35
31
0
39
0
210
0
220
0
230
1
0
LINE
5
8E
100
AcDbEntity
8
1
62
256
6
ByLayer
370
18
48
1
60
0
100
AcDbLine
10
0
20
-1.35
30
0
11
0.1
21
-1.337186
31
0
39
0
210
0
220
0
230
1
0
LINE
5
8F
100
AcDbEntity
8
1
62
256
6
ByLayer
370
18
48
1
60
0
100
AcDbLine
10
0.1
20
-1.337186
30
0
11
6.596097
21
-1.339622
31
0
39
0
210
0
220
0
230
1
0
LINE
5
90
100
AcDbEntity
8
1
62
256
6
ByLayer
370
18
48
1
60
0
100
AcDbLine
10
10.699717
20
-1.341161
30
0
11
14.246746
21
-1.342491
31
0
39
0
210
0
220
0
230
1
0
LINE
5
91
100
AcDbEntity
8
1
62
256
6
ByLayer
370
18
48
1
60
0
100
AcDbLine
10
18.353219
20
-1.344031
30
0
11
21.895707
21
-1.34536
31
0
39
0
210
0
220
0
230
1
0
LINE
5
92
100
AcDbEntity
8
1
62
256
6
ByLayer
370
18
48
1
60
0
100
AcDbLine
10
26.003557
20
-1.3469
30
0
11
29.546594
21
-1.348229
31
0
39
0
210
0
220
0
230
1
0
LINE
5
93
100
AcDbEntity
8
1
62
256
6
ByLayer
370
18
48
1
60
0
100
AcDbLine
10
33.64963
20
-1.349767
30
0
11
34.269954
21
-1.35
31
0
39
0
210
0
220
0
230
1
0
LINE
5
94
100
AcDbEntity
8
1
62
256
6
ByLayer
370
18
48
1
60
0
100
AcDbLine
10
34.269954
20
1.35
30
0
11
33.64963
21
1.349767
31
0
39
0
210
0
220
0
230
1
0
LINE
5
95
100
AcDbEntity
8
1
62
256
6
ByLayer
370
18
48
1
60
0
100
AcDbLine
10
29.546594
20
1.348229
30
0
11
26.003557
21
1.3469
31
0
39
0
210
0
220
0
230
1
0
LINE
5
96
100
AcDbEntity
8
1
62
256
6
ByLayer
370
18
48
1
60
0
100
AcDbLine
10
21.895707
20
1.34536
30
0
11
18.353219
21
1.344031
31
0
39
0
210
0
220
0
230
1
0
LINE
5
97
100
AcDbEntity
8
1
62
256
6
ByLayer
370
18
48
1
60
0
100
AcDbLine
10
14.246746
20
1.342491
30
0
11
10.699717
21
1.341161
31
0
39
0
210
0
220
0
230
1
0
LINE
5
98
100
AcDbEntity
8
1
62
256
6
ByLayer
370
18
48
1
60
0
100
AcDbLine
10
6.596097
20
1.339622
30
0
11
0.1
21
1.337186
31
0
39
0
210
0
220
0
230
1
0
LINE
5
99
100
AcDbEntity
8
SK1
62
256
6
ByLayer
370
18
48
1
60
0
100
AcDbLine
10
-26
20
-1.05
30
0
11
-25.7
21
-1.35
31
0
39
0
210
0
220
0
230
1
0
LINE
5
9A
100
AcDbEntity
8
SK1
62
256
6
ByLayer
370
18
48
1
60
0
100
AcDbLine
10
-25.7
20
1.35
30
0
11
-26
21
1.05
31
0
39
0
210
0
220
0
230
1
0
LINE
5
9B
100
AcDbEntity
8
SK1
62
256
6
ByLayer
370
18
48
1
60
0
100
AcDbLine
10
-25.7
20
-1.35
30
0
11
0
21
-1.35
31
0
39
0
210
0
220
0
230
1
0
LINE
5
9C
100
AcDbEntity
8
SK1
62
256
6
ByLayer
370
18
48
1
60
0
100
AcDbLine
10
0
20
1.35
30
0
11
-25.7
21
1.35
31
0
39
0
210
0
220
0
230
1
0
LINE
5
9D
100
AcDbEntity
8
SK2
62
256
6
ByLayer
370
13
48
1
60
0
100
AcDbLine
10
-32.5
20
28.132741
30
0
11
-32.5
21
-8.85
31
0
39
0
210
0
220
0
230
1
0
LINE
5
9F
100
AcDbEntity
8
SK2
62
256
6
ByLayer
370
13
48
1
60
0
100
AcDbLine
10
-27.5875
20
1.35
30
0
11
-34.5
21
1.35
31
0
39
0
210
0
220
0
230
1
0
LINE
5
A0
100
AcDbEntity
8
SK2
62
256
6
ByLayer
370
13
48
1
60
0
100
AcDbLine
10
-27.5875
20
-1.35
30
0
11
-34.5
21
-1.35
31
0
39
0
210
0
220
0
230
1
0
LINE
5
A1
100
AcDbEntity
8
1
62
256
6
ByLayer
370
18
48
1
60
1
100
AcDbLine
10
-32.5
20
1.35
30
0
11
-32.960784
21
4.849998
31
0
39
0
210
0
220
0
230
1
0
LINE
5
A2
100
AcDbEntity
8
1
62
256
6
ByLayer
370
18
48
1
60
1
100
AcDbLine
10
-32.960784
20
4.849998
30
0
11
-32.039216
21
4.850002
31
0
39
0
210
0
220
0
230
1
0
LINE
5
A3
100
AcDbEntity
8
1
62
256
6
ByLayer
370
18
48
1
60
1
100
AcDbLine
10
-32.039216
20
4.850002
30
0
11
-32.5
21
1.35
31
0
39
0
210
0
220
0
230
1
0
LINE
5
A4
100
AcDbEntity
8
1
62
256
6
ByLayer
370
18
48
1
60
1
100
AcDbLine
10
-32.5
20
-1.35
30
0
11
-32.039216
21
-4.849998
31
0
39
0
210
0
220
0
230
1
0
LINE
5
A5
100
AcDbEntity
8
1
62
256
6
ByLayer
370
18
48
1
60
1
100
AcDbLine
10
-32.039216
20
-4.849998
30
0
11
-32.960784
21
-4.850002
31
0
39
0
210
0
220
0
230
1
0
LINE
5
A6
100
AcDbEntity
8
1
62
256
6
ByLayer
370
18
48
1
60
1
100
AcDbLine
10
-32.960784
20
-4.850002
30
0
11
-32.5
21
-1.35
31
0
39
0
210
0
220
0
230
1
0
LINE
5
A7
100
AcDbEntity
8
2
62
256
6
ByLayer
370
13
48
1
60
0
100
AcDbLine
10
43.769954
20
28.132741
30
0
11
43.769954
21
-8.85
31
0
39
0
210
0
220
0
230
1
0
LINE
5
A9
100
AcDbEntity
8
2
62
256
6
ByLayer
370
13
48
1
60
0
100
AcDbLine
10
35.857454
20
1.35
30
0
11
45.769954
21
1.35
31
0
39
0
210
0
220
0
230
1
0
LINE
5
AA
100
AcDbEntity
8
2
62
256
6
ByLayer
370
13
48
1
60
0
100
AcDbLine
10
35.857454
20
-1.35
30
0
11
45.769954
21
-1.35
31
0
39
0
210
0
220
0
230
1
0
LINE
5
AB
100
AcDbEntity
8
1
62
256
6
ByLayer
370
18
48
1
60
1
100
AcDbLine
10
43.769954
20
1.35
30
0
11
43.309171
21
4.849998
31
0
39
0
210
0
220
0
230
1
0
LINE
5
AC
100
AcDbEntity
8
1
62
256
6
ByLayer
370
18
48
1
60
1
100
AcDbLine
10
43.309171
20
4.849998
30
0
11
44.230738
21
4.850002
31
0
39
0
210
0
220
0
230
1
0
LINE
5
AD
100
AcDbEntity
8
1
62
256
6
ByLayer
370
18
48
1
60
1
100
AcDbLine
10
44.230738
20
4.850002
30
0
11
43.769954
21
1.35
31
0
39
0
210
0
220
0
230
1
0
LINE
5
AE
100
AcDbEntity
8
1
62
256
6
ByLayer
370
18
48
1
60
1
100
AcDbLine
10
43.769954
20
-1.35
30
0
11
44.230738
21
-4.849998
31
0
39
0
210
0
220
0
230
1
0
LINE
5
AF
100
AcDbEntity
8
1
62
256
6
ByLayer
370
18
48
1
60
1
100
AcDbLine
10
44.230738
20
-4.849998
30
0
11
43.309171
21
-4.850002
31
0
39
0
210
0
220
0
230
1
0
LINE
5
B0
100
AcDbEntity
8
1
62
256
6
ByLayer
370
18
48
1
60
1
100
AcDbLine
10
43.309171
20
-4.850002
30
0
11
43.769954
21
-1.35
31
0
39
0
210
0
220
0
230
1
0
LINE
5
B1
100
AcDbEntity
8
2
62
256
6
ByLayer
370
13
48
1
60
0
100
AcDbLine
10
35.755136
20
-1.396397
30
0
11
46.416232
21
-21.110889
31
0
39
0
210
0
220
0
230
1
0
LINE
5
B2
100
AcDbEntity
8
2
62
256
6
ByLayer
370
13
48
1
60
0
100
AcDbLine
10
35.755136
20
1.396397
30
0
11
46.416232
21
21.110889
31
0
39
0
210
0
220
0
230
1
0
LINE
5
B3
100
AcDbEntity
8
1
62
256
6
ByLayer
370
18
48
1
60
1
100
AcDbLine
10
45.464879
20
-19.351649
30
0
11
48.239971
21
-17.169637
31
0
39
0
210
0
220
0
230
1
0
LINE
5
B4
100
AcDbEntity
8
1
62
256
6
ByLayer
370
18
48
1
60
1
100
AcDbLine
10
48.239971
20
-17.169637
30
0
11
48.710161
21
-17.962233
31
0
39
0
210
0
220
0
230
1
0
LINE
5
B5
100
AcDbEntity
8
1
62
256
6
ByLayer
370
18
48
1
60
1
100
AcDbLine
10
48.710161
20
-17.962233
30
0
11
45.464879
21
-19.351649
31
0
39
0
210
0
220
0
230
1
0
LINE
5
B6
100
AcDbEntity
8
1
62
256
6
ByLayer
370
18
48
1
60
1
100
AcDbLine
10
45.464879
20
19.351649
30
0
11
48.710158
21
17.962234
31
0
39
0
210
0
220
0
230
1
0
LINE
5
B7
100
AcDbEntity
8
1
62
256
6
ByLayer
370
18
48
1
60
1
100
AcDbLine
10
48.710158
20
17.962234
30
0
11
48.239974
21
17.169635
31
0
39
0
210
0
220
0
230
1
0
LINE
5
B8
100
AcDbEntity
8
1
62
256
6
ByLayer
370
18
48
1
60
1
100
AcDbLine
10
48.239974
20
17.169635
30
0
11
45.464879
21
19.351649
31
0
39
0
210
0
220
0
230
1
0
LINE
5
D1
100
AcDbEntity
8
1
62
256
6
ByLayer
370
18
48
1
60
1
100
AcDbLine
10
-32.5
20
1.35
30
0
11
-32.960784
21
4.849998
31
0
39
0
210
0
220
0
230
1
0
LINE
5
D2
100
AcDbEntity
8
1
62
256
6
ByLayer
370
18
48
1
60
1
100
AcDbLine
10
-32.960784
20
4.849998
30
0
11
-32.039216
21
4.850002
31
0
39
0
210
0
220
0
230
1
0
LINE
5
D3
100
AcDbEntity
8
1
62
256
6
ByLayer
370
18
48
1
60
1
100
AcDbLine
10
-32.039216
20
4.850002
30
0
11
-32.5
21
1.35
31
0
39
0
210
0
220
0
230
1
0
LINE
5
D5
100
AcDbEntity
8
1
62
256
6
ByLayer
370
18
48
1
60
1
100
AcDbLine
10
-32.5
20
-1.35
30
0
11
-32.039216
21
-4.849998
31
0
39
0
210
0
220
0
230
1
0
LINE
5
D6
100
AcDbEntity
8
1
62
256
6
ByLayer
370
18
48
1
60
1
100
AcDbLine
10
-32.039216
20
-4.849998
30
0
11
-32.960784
21
-4.850002
31
0
39
0
210
0
220
0
230
1
0
LINE
5
D7
100
AcDbEntity
8
1
62
256
6
ByLayer
370
18
48
1
60
1
100
AcDbLine
10
-32.960784
20
-4.850002
30
0
11
-32.5
21
-1.35
31
0
39
0
210
0
220
0
230
1
0
LINE
5
DB
100
AcDbEntity
8
1
62
256
6
ByLayer
370
18
48
1
60
1
100
AcDbLine
10
43.769954
20
1.35
30
0
11
43.309171
21
4.849998
31
0
39
0
210
0
220
0
230
1
0
LINE
5
DC
100
AcDbEntity
8
1
62
256
6
ByLayer
370
18
48
1
60
1
100
AcDbLine
10
43.309171
20
4.849998
30
0
11
44.230738
21
4.850002
31
0
39
0
210
0
220
0
230
1
0
LINE
5
DD
100
AcDbEntity
8
1
62
256
6
ByLayer
370
18
48
1
60
1
100
AcDbLine
10
44.230738
20
4.850002
30
0
11
43.769954
21
1.35
31
0
39
0
210
0
220
0
230
1
0
LINE
5
DF
100
AcDbEntity
8
1
62
256
6
ByLayer
370
18
48
1
60
1
100
AcDbLine
10
43.769954
20
-1.35
30
0
11
44.230738
21
-4.849998
31
0
39
0
210
0
220
0
230
1
0
LINE
5
E0
100
AcDbEntity
8
1
62
256
6
ByLayer
370
18
48
1
60
1
100
AcDbLine
10
44.230738
20
-4.849998
30
0
11
43.309171
21
-4.850002
31
0
39
0
210
0
220
0
230
1
0
LINE
5
E1
100
AcDbEntity
8
1
62
256
6
ByLayer
370
18
48
1
60
1
100
AcDbLine
10
43.309171
20
-4.850002
30
0
11
43.769954
21
-1.35
31
0
39
0
210
0
220
0
230
1
0
LINE
5
E4
100
AcDbEntity
8
1
62
256
6
ByLayer
370
18
48
1
60
1
100
AcDbLine
10
45.464879
20
-19.351649
30
0
11
48.239971
21
-17.169637
31
0
39
0
210
0
220
0
230
1
0
LINE
5
E5
100
AcDbEntity
8
1
62
256
6
ByLayer
370
18
48
1
60
1
100
AcDbLine
10
48.239971
20
-17.169637
30
0
11
48.710161
21
-17.962233
31
0
39
0
210
0
220
0
230
1
0
LINE
5
E6
100
AcDbEntity
8
1
62
256
6
ByLayer
370
18
48
1
60
1
100
AcDbLine
10
48.710161
20
-17.962233
30
0
11
45.464879
21
-19.351649
31
0
39
0
210
0
220
0
230
1
0
LINE
5
E8
100
AcDbEntity
8
1
62
256
6
ByLayer
370
18
48
1
60
1
100
AcDbLine
10
45.464879
20
19.351649
30
0
11
48.710158
21
17.962234
31
0
39
0
210
0
220
0
230
1
0
LINE
5
E9
100
AcDbEntity
8
1
62
256
6
ByLayer
370
18
48
1
60
1
100
AcDbLine
10
48.710158
20
17.962234
30
0
11
48.239974
21
17.169635
31
0
39
0
210
0
220
0
230
1
0
LINE
5
EA
100
AcDbEntity
8
1
62
256
6
ByLayer
370
18
48
1
60
1
100
AcDbLine
10
48.239974
20
17.169635
30
0
11
45.464879
21
19.351649
31
0
39
0
210
0
220
0
230
1
0
MTEXT
5
CD
100
AcDbEntity
8
SK2
62
256
6
ByLayer
370
18
48
1
60
0
100
AcDbMText
10
-33.841114
20
13.008437
30
0
210
0
220
0
230
1
1
%%c
40
3
41
0
44
1.084337
50
90
71
7
72
5
7
iso_b_vert
0
MTEXT
5
D0
100
AcDbEntity
8
SK2
62
256
6
ByLayer
370
18
48
1
60
0
100
AcDbMText
10
-33.841114
20
18.985
30
0
210
0
220
0
230
1
1
\W0.7468;2.700
40
3
41
0
44
1.084337
50
90
71
7
72
5
7
iso_b_vert
0
MTEXT
5
D9
100
AcDbEntity
8
2
62
256
6
ByLayer
370
18
48
1
60
0
100
AcDbMText
10
42.42884
20
13.008437
30
0
210
0
220
0
230
1
1
%%c
40
3
41
0
44
1.084337
50
90
71
7
72
5
7
iso_b_vert
0
MTEXT
5
DA
100
AcDbEntity
8
2
62
256
6
ByLayer
370
18
48
1
60
0
100
AcDbMText
10
42.42884
20
18.985
30
0
210
0
220
0
230
1
1
\W0.7468;2.700
40
3
41
0
44
1.084337
50
90
71
7
72
5
7
iso_b_vert
0
MTEXT
5
E3
100
AcDbEntity
8
2
62
256
6
ByLayer
370
18
48
1
60
0
100
AcDbMText
10
54.092229
20
-2.114886
30
0
210
0
220
0
230
1
1
\W0.6008;118%%d
40
3
41
0
44
1.084337
50
0
71
7
72
5
7
iso_b_vert
0
MTEXT
5
EC
100
AcDbEntity
8
SK6
62
256
6
ByLayer
370
18
48
1
60
0
100
AcDbMText
10
-2.382141
20
-67.114886
30
0
210
0
220
0
230
1
1
\W0.7690;R0032.7
40
3
41
0
44
1.084337
50
0
71
7
72
5
7
iso_b_vert
0
HATCH
5
D4
100
AcDbEntity
8
SK2
62
256
6
ByLayer
370
13
48
1
60
0
100
AcDbHatch
10
0
20
0
30
0
210
0
220
0
230
1
2
ANSI31
70
0
71
0
91
1
92
5
93
3
72
1
10
-32.5
20
1.34999999999999
11
-32.9607837415528
21
4.84999830744681
72
1
10
-32.9607837415528
20
4.84999830744681
11
-32.0392162584472
21
4.85000169255318
72
1
10
-32.0392162584472
20
4.85000169255318
11
-32.5
21
1.34999999999999
97
0
75
0
76
1
52
0
41
0.0062
77
0
78
1
53
45
43
0
44
0
45
-0.0139193969876572
46
0.0139193969876572
79
0
47
0
98
1
10
0
20
0
0
HATCH
5
D8
100
AcDbEntity
8
SK2
62
256
6
ByLayer
370
13
48
1
60
0
100
AcDbHatch
10
0
20
0
30
0
210
0
220
0
230
1
2
ANSI31
70
0
71
0
91
1
92
5
93
3
72
1
10
-32.5
20
-1.34999999999999
11
-32.0392162584472
21
-4.84999830744681
72
1
10
-32.0392162584472
20
-4.84999830744681
11
-32.9607837415528
21
-4.85000169255318
72
1
10
-32.9607837415528
20
-4.85000169255318
11
-32.5
21
-1.34999999999999
97
0
75
0
76
1
52
0
41
0.0062
77
0
78
1
53
45
43
0
44
0
45
-0.0139193969876572
46
0.0139193969876572
79
0
47
0
98
1
10
0
20
0
0
HATCH
5
DE
100
AcDbEntity
8
2
62
256
6
ByLayer
370
13
48
1
60
0
100
AcDbHatch
10
0
20
0
30
0
210
0
220
0
230
1
2
ANSI31
70
0
71
0
91
1
92
5
93
3
72
1
10
43.7699543478815
20
1.34999999999999
11
43.3091706063287
21
4.84999830744681
72
1
10
43.3091706063287
20
4.84999830744681
11
44.2307380894343
21
4.85000169255318
72
1
10
44.2307380894343
20
4.85000169255318
11
43.7699543478815
21
1.34999999999999
97
0
75
0
76
1
52
0
41
0.0062
77
0
78
1
53
45
43
0
44
0
45
-0.0139193969876572
46
0.0139193969876572
79
0
47
0
98
1
10
0
20
0
0
HATCH
5
E2
100
AcDbEntity
8
2
62
256
6
ByLayer
370
13
48
1
60
0
100
AcDbHatch
10
0
20
0
30
0
210
0
220
0
230
1
2
ANSI31
70
0
71
0
91
1
92
5
93
3
72
1
10
43.7699543478815
20
-1.34999999999999
11
44.2307380894343
21
-4.84999830744681
72
1
10
44.2307380894343
20
-4.84999830744681
11
43.3091706063287
21
-4.85000169255318
72
1
10
43.3091706063287
20
-4.85000169255318
11
43.7699543478815
21
-1.34999999999999
97
0
75
0
76
1
52
0
41
0.0062
77
0
78
1
53
45
43
0
44
0
45
-0.0139193969876572
46
0.0139193969876572
79
0
47
0
98
1
10
0
20
0
0
HATCH
5
E7
100
AcDbEntity
8
2
62
256
6
ByLayer
370
13
48
1
60
0
100
AcDbHatch
10
0
20
0
30
0
210
0
220
0
230
1
2
ANSI31
70
0
71
0
91
1
92
5
93
3
72
1
10
45.464879198752
20
-19.3516485952884
11
48.2399711078382
21
-17.1696369764526
72
1
10
48.2399711078382
20
-17.1696369764526
11
48.710161392925
21
-17.9622325364572
72
1
10
48.710161392925
20
-17.9622325364572
11
45.464879198752
21
-19.3516485952884
97
0
75
0
76
1
52
0
41
0.0062
77
0
78
1
53
45
43
0
44
0
45
-0.0139193969876572
46
0.0139193969876572
79
0
47
0
98
1
10
0
20
0
0
HATCH
5
EB
100
AcDbEntity
8
2
62
256
6
ByLayer
370
13
48
1
60
0
100
AcDbHatch
10
0
20
0
30
0
210
0
220
0
230
1
2
ANSI31
70
0
71
0
91
1
92
5
93
3
72
1
10
45.464879198752
20
19.3516485952884
11
48.7101584815527
21
17.9622342635518
72
1
10
48.7101584815527
20
17.9622342635518
11
48.2399740192106
21
17.1696352493579
72
1
10
48.2399740192106
20
17.1696352493579
11
45.464879198752
21
19.3516485952884
97
0
75
0
76
1
52
0
41
0.0062
77
0
78
1
53
45
43
0
44
0
45
-0.0139193969876572
46
0.0139193969876572
79
0
47
0
98
1
10
0
20
0
0
DIMENSION
5
EF
100
AcDbEntity
8
SK2
62
256
6
ByLayer
370
18
48
1
60
0
100
AcDbDimension
2
_U0
10
35
20
-48.091957
30
0
11
4.5
21
-48.091957
31
0
70
32
71
1
72
1
41
1
210
0
220
0
230
1
3
Standard
100
AcDbAlignedDimension
13
-26
23
-1.35
33
0
14
35
24
0
34
0
50
0
100
AcDbRotatedDimension
1001
ACAD
1000
DSTYLE
1002
{
1070
   371
1070
    13
1070
   372
1070
    13
1070
     3
1000

1070
   170
1070
     0
1070
   144
1040
1.0
1070
   277
1070
     2
1070
   284
1070
     8
1070
   278
1070
    46
1070
   146
1040
1.166667
1070
   345
1005
16
1070
   347
1005
16
1070
   346
1005
16
1070
   344
1005
0
1070
   343
1005
0
1070
   172
1070
     1
1070
    76
1070
     0
1070
    75
1070
     0
1070
   282
1070
     0
1070
   281
1070
     0
1070
    71
1070
     0
1070
    74
1070
     0
1070
   279
1070
     0
1070
   173
1070
     1
1070
   340
1005
CE
1070
   271
1070
     2
1070
   272
1070
     3
1070
    77
1070
     1
1070
    73
1070
     1
1070
   171
1070
     3
1070
   274
1070
     4
1070
   177
1070
     2
1070
   176
1070
     2
1070
   178
1070
     2
1070
    78
1070
     8
1070
    48
1040
-0.1
1070
    41
1040
3.5
1070
   147
1040
1.5
1070
    42
1040
1.5875
1070
    44
1040
2.0
1070
   140
1040
3.0
1002
}
1001
ACAD_DSTYLE_DIM_LINETYPE
1070
   380
1005
16
1001
ACAD_DSTYLE_DIM_EXT1_LINETYPE
1070
   381
1005
16
1001
ACAD_DSTYLE_DIM_EXT2_LINETYPE
1070
   382
1005
16
0
DIMENSION
5
108
100
AcDbEntity
8
2
62
256
6
ByLayer
370
18
48
1
60
0
100
AcDbDimension
2
_U1
10
2
20
-38.091957
30
0
11
18.5
21
-38.091957
31
0
70
32
71
1
72
1
41
1
210
0
220
0
230
1
3
Standard
100
AcDbAlignedDimension
13
35
23
0
33
0
14
2
24
-1.35
34
0
50
0
100
AcDbRotatedDimension
1001
ACAD
1000
DSTYLE
1002
{
1070
   371
1070
    13
1070
   372
1070
    13
1070
     3
1000

1070
   170
1070
     0
1070
   144
1040
1.0
1070
   277
1070
     2
1070
   284
1070
     8
1070
   278
1070
    46
1070
   146
1040
1.166667
1070
   345
1005
16
1070
   347
1005
16
1070
   346
1005
16
1070
   344
1005
0
1070
   343
1005
0
1070
   172
1070
     1
1070
    76
1070
     0
1070
    75
1070
     0
1070
   282
1070
     0
1070
   281
1070
     0
1070
    71
1070
     0
1070
    74
1070
     0
1070
   279
1070
     0
1070
   173
1070
     1
1070
   340
1005
CE
1070
   271
1070
     2
1070
   272
1070
     3
1070
    77
1070
     1
1070
    73
1070
     1
1070
   171
1070
     3
1070
   274
1070
     4
1070
   177
1070
     2
1070
   176
1070
     2
1070
   178
1070
     2
1070
    78
1070
     8
1070
    48
1040
-0.1
1070
    41
1040
3.5
1070
   147
1040
1.5
1070
    42
1040
1.5875
1070
    44
1040
2.0
1070
   140
1040
3.0
1002
}
1001
ACAD_DSTYLE_DIM_LINETYPE
1070
   380
1005
16
1001
ACAD_DSTYLE_DIM_EXT1_LINETYPE
1070
   381
1005
16
1001
ACAD_DSTYLE_DIM_EXT2_LINETYPE
1070
   382
1005
16
0
DIMENSION
5
120
100
AcDbEntity
8
SK2
62
256
6
ByLayer
370
18
48
1
60
0
100
AcDbDimension
2
_U2
10
0
20
-33.091957
30
0
11
-13
21
-33.091957
31
0
70
32
71
1
72
1
41
1
210
0
220
0
230
1
3
Standard
100
AcDbAlignedDimension
13
-26
23
-1.35
33
0
14
0
24
-1.35
34
0
50
0
100
AcDbRotatedDimension
1001
ACAD
1000
DSTYLE
1002
{
1070
   371
1070
    13
1070
   372
1070
    13
1070
     3
1000

1070
   170
1070
     0
1070
   144
1040
1.0
1070
   277
1070
     2
1070
   284
1070
     8
1070
   278
1070
    46
1070
   146
1040
1.166667
1070
   345
1005
16
1070
   347
1005
16
1070
   346
1005
16
1070
   344
1005
0
1070
   343
1005
0
1070
   172
1070
     1
1070
    76
1070
     0
1070
    75
1070
     0
1070
   282
1070
     0
1070
   281
1070
     0
1070
    71
1070
     0
1070
    74
1070
     0
1070
   279
1070
     0
1070
   173
1070
     1
1070
   340
1005
CE
1070
   271
1070
     2
1070
   272
1070
     3
1070
    77
1070
     1
1070
    73
1070
     1
1070
   171
1070
     3
1070
   274
1070
     4
1070
   177
1070
     2
1070
   176
1070
     2
1070
   178
1070
     2
1070
    78
1070
     8
1070
    48
1040
-0.1
1070
    41
1040
3.5
1070
   147
1040
1.5
1070
    42
1040
1.5875
1070
    44
1040
2.0
1070
   140
1040
3.0
1002
}
1001
ACAD_DSTYLE_DIM_LINETYPE
1070
   380
1005
16
1001
ACAD_DSTYLE_DIM_EXT1_LINETYPE
1070
   381
1005
16
1001
ACAD_DSTYLE_DIM_EXT2_LINETYPE
1070
   382
1005
16
0
DIMENSION
5
138
100
AcDbEntity
8
2
62
256
6
ByLayer
370
18
48
1
60
0
100
AcDbDimension
2
_U3
10
10.25
20
-31.091957
30
0
11
22.625
21
-31.091957
31
0
70
32
71
1
72
1
41
1
210
0
220
0
230
1
3
Standard
100
AcDbAlignedDimension
13
35
23
0
33
0
14
10.25
24
-1.35
34
0
50
0
100
AcDbRotatedDimension
1001
ACAD
1000
DSTYLE
1002
{
1070
   371
1070
    13
1070
   372
1070
    13
1070
     3
1000

1070
   170
1070
     0
1070
   144
1040
1.0
1070
   277
1070
     2
1070
   284
1070
     8
1070
   278
1070
    46
1070
   146
1040
1.166667
1070
   345
1005
16
1070
   347
1005
16
1070
   346
1005
16
1070
   344
1005
0
1070
   343
1005
0
1070
   172
1070
     1
1070
    76
1070
     0
1070
    75
1070
     0
1070
   282
1070
     0
1070
   281
1070
     0
1070
    71
1070
     0
1070
    74
1070
     0
1070
   279
1070
     0
1070
   173
1070
     1
1070
   340
1005
CE
1070
   271
1070
     2
1070
   272
1070
     3
1070
    77
1070
     1
1070
    73
1070
     1
1070
   171
1070
     3
1070
   274
1070
     4
1070
   177
1070
     2
1070
   176
1070
     2
1070
   178
1070
     2
1070
    78
1070
     8
1070
    48
1040
-0.1
1070
    41
1040
3.5
1070
   147
1040
1.5
1070
    42
1040
1.5875
1070
    44
1040
2.0
1070
   140
1040
3.0
1002
}
1001
ACAD_DSTYLE_DIM_LINETYPE
1070
   380
1005
16
1001
ACAD_DSTYLE_DIM_EXT1_LINETYPE
1070
   381
1005
16
1001
ACAD_DSTYLE_DIM_EXT2_LINETYPE
1070
   382
1005
16
0
ENDSEC
0
SECTION
2
OBJECTS
0
DICTIONARY
5
1c2
330
0
100
AcDbDictionary
280
0
281
1
3
ACAD_GROUP
350
1c3
3
ACAD_MLINESTYLE
350
1c4
0
DICTIONARY
5
1c3
330
0
100
AcDbDictionary
280
0
281
1
0
DICTIONARY
5
1c4
330
0
100
AcDbDictionary
280
0
281
1
3
Standard
350
18
0
MLINESTYLE
5
18
330
1c4
100
AcDbMlineStyle
2
Standard
70
0
3

62
256
51
90
52
90
71
2
49
-0.5
62
256
6
ByLayer
49
0.5
62
256
6
ByLayer
0
RASTERVARIABLES
5
1ae
330

100
AcDbRasterVariables
90
0
70
1
71
1
72
1
0
ENDSEC
0
EOF
