0
SECTION
2
HEADER
9
$ACADVER
1
AC1015
9
$DWGCODEPAGE
3
ANSI_1252
9
$HANDSEED
5
1d0
9
$ANGBASE
50
0
9
$ANGDIR
70
0
9
$ATTMODE
70
1
9
$AUNITS
70
0
9
$AUPREC
70
0
9
$CECOLOR
62
256
9
$CELTSCALE
40
1
9
$CELTYPE
6
ByLayer
9
$CELWEIGHT
370
18
9
$CLAYER
8
0
9
$CMLJUST
70
0
9
$CMLSCALE
40
1
9
$CMLSTYLE
2
Standard
9
$DIMSTYLE
2
Standard
9
$TEXTSIZE
40
0.2
9
$TEXTSTYLE
7
Standard
9
$LUNITS
70
2
9
$LUPREC
70
4
9
$EXTNAMES
290
1
9
$INSUNITS
70
4
9
$LTSCALE
40
1
9
$LWDISPLAY
290
1
9
$PDMODE
70
0
9
$PDSIZE
40
0
9
$PLINEGEN
70
0
0
ENDSEC
0
SECTION
2
CLASSES
0
CLASS
1
RASTERVARIABLES
2
AcDbRasterVariables
3
ISM
90
0
280
0
281
0
0
ENDSEC
0
SECTION
2
TABLES
0
TABLE
2
VPORT
5
1c6
100
AcDbSymbolTable
0
VPORT
5
1
100
AcDbSymbolTableRecord
100
AcDbViewportTableRecord
2
*Active
70
0
10
0
20
0
11
1
21
1
12
-1
22
1
13
0
23
0
14
0.5
24
0.5
15
10
25
10
16
0
26
0
36
1
17
0
27
0
37
0
0
ENDTAB
0
TABLE
2
LTYPE
5
1c7
100
AcDbSymbolTable
0
LTYPE
5
14
100
AcDbSymbolTableRecord
100
AcDbLinetypeTableRecord
70
0
2
ByBlock
3

72
65
73
0
40
0
0
LTYPE
5
15
100
AcDbSymbolTableRecord
100
AcDbLinetypeTableRecord
70
0
2
ByLayer
3

72
65
73
0
40
0
0
LTYPE
5
16
100
AcDbSymbolTableRecord
100
AcDbLinetypeTableRecord
70
0
2
Continuous
3
Solid line
72
65
73
0
40
0
0
LTYPE
5
6E
100
AcDbSymbolTableRecord
100
AcDbLinetypeTableRecord
70
0
2
CENTER
3
____ _ ____ _ ____ _ ____
72
65
73
4
40
47.5
49
22
74
0
49
-8.5
74
0
49
8.5
74
0
49
-8.5
74
0
0
LTYPE
5
6F
100
AcDbSymbolTableRecord
100
AcDbLinetypeTableRecord
70
0
2
DASHED
3
__ __ __ __ __ __ __ __ __
72
65
73
2
40
25.72
49
12.86
74
0
49
-12.86
74
0
0
ENDTAB
0
TABLE
2
LAYER
5
1c8
100
AcDbSymbolTable
0
LAYER
5
10
100
AcDbSymbolTableRecord
100
AcDbLayerTableRecord
2
0
70
0
62
7
6
Continuous
290
1
370
-3
390
0
0
LAYER
5
71
100
AcDbSymbolTableRecord
100
AcDbLayerTableRecord
2
81
70
0
62
-3
6
Continuous
290
1
370
-3
390
0
0
LAYER
5
73
100
AcDbSymbolTableRecord
100
AcDbLayerTableRecord
2
80
70
0
62
-6
6
Continuous
290
1
370
-3
390
0
0
LAYER
5
75
100
AcDbSymbolTableRecord
100
AcDbLayerTableRecord
2
1
70
0
62
4
6
Continuous
290
1
370
-3
390
0
0
LAYER
5
7E
100
AcDbSymbolTableRecord
100
AcDbLayerTableRecord
2
4
70
0
62
-2
6
CENTER
290
1
370
-3
390
0
0
LAYER
5
A8
100
AcDbSymbolTableRecord
100
AcDbLayerTableRecord
2
2
70
0
62
7
6
Continuous
290
1
370
-3
390
0
0
LAYER
5
F2
100
AcDbSymbolTableRecord
100
AcDbLayerTableRecord
2
Defpoints
70
0
62
7
6
Continuous
290
0
370
-3
390
0
0
LAYER
5
1b0
100
AcDbSymbolTableRecord
100
AcDbLayerTableRecord
2
SK4
70
0
62
2
6
CENTER
290
1
370
-3
390
0
0
LAYER
5
1b1
100
AcDbSymbolTableRecord
100
AcDbLayerTableRecord
2
SK1
70
0
62
4
6
Continuous
290
1
370
-3
390
0
0
LAYER
5
1b2
100
AcDbSymbolTableRecord
100
AcDbLayerTableRecord
2
SK2
70
0
62
7
6
Continuous
290
1
370
-3
390
0
0
LAYER
5
1b3
100
AcDbSymbolTableRecord
100
AcDbLayerTableRecord
2
CUT
70
0
62
-1
6
Continuous
290
1
370
-3
390
0
0
LAYER
5
1b4
100
AcDbSymbolTableRecord
100
AcDbLayerTableRecord
2
NOCUT
70
0
62
-7
6
Continuous
290
1
370
-3
390
0
0
LAYER
5
1b5
100
AcDbSymbolTableRecord
100
AcDbLayerTableRecord
2
SK6
70
0
62
5
6
Continuous
290
1
370
-3
390
0
0
ENDTAB
0
TABLE
2
STYLE
5
1c9
100
AcDbSymbolTable
0
STYLE
5
11
100
AcDbSymbolTableRecord
100
AcDbTextStyleTableRecord
2
Standard
3
txt
70
0
71
0
40
0
41
1
42
0
50
0
0
STYLE
5
CE
100
AcDbSymbolTableRecord
100
AcDbTextStyleTableRecord
2
iso_b_vert
3
simplex.shx
70
0
71
0
40
0
41
1
42
0
50
0
0
STYLE
5
CF
100
AcDbSymbolTableRecord
100
AcDbTextStyleTableRecord
2
DWGDirectTextStyle
3
simplex
70
0
71
0
40
0
41
1
42
0
50
0
0
ENDTAB
0
TABLE
2
DIMSTYLE
5
1ca
100
AcDbSymbolTable
100
AcDbDimStyleTable
0
DIMSTYLE
105
27
100
AcDbSymbolTableRecord
100
AcDbDimStyleTableRecord
2
Standard
70
0
3
<>
41
0.18
42
0.0625
44
0.18
140
0.18
147
0.09
73
0
74
0
77
1
271
2
275
0
278
52
280
0
340
11
0
ENDTAB
0
TABLE
2
VIEW
5
1cb
100
AcDbSymbolTable
0
ENDTAB
0
TABLE
2
UCS
5
1cc
100
AcDbSymbolTable
0
ENDTAB
0
TABLE
2
APPID
5
1cd
100
AcDbSymbolTable
0
APPID
5
12
100
AcDbSymbolTableRecord
100
AcDbRegAppTableRecord
2
ACAD
70
0
0
APPID
5
EE
100
AcDbSymbolTableRecord
100
AcDbRegAppTableRecord
2
ACAD_DSTYLE_DIMBREAK
70
0
0
APPID
5
16F
100
AcDbSymbolTableRecord
100
AcDbRegAppTableRecord
2
ACAD_DSTYLE_DIM_LINETYPE
70
0
0
APPID
5
170
100
AcDbSymbolTableRecord
100
AcDbRegAppTableRecord
2
ACAD_DSTYLE_DIM_EXT1_LINETYPE
70
0
0
APPID
5
171
100
AcDbSymbolTableRecord
100
AcDbRegAppTableRecord
2
ACAD_DSTYLE_DIM_EXT2_LINETYPE
70
0
0
APPID
5
1AC
100
AcDbSymbolTableRecord
100
AcDbRegAppTableRecord
2
ACAD_MLEADERVER
70
0
0
ENDTAB
0
TABLE
2
BLOCK_RECORD
5
1ce
100
AcDbSymbolTable
0
BLOCK_RECORD
5
1F
100
AcDbSymbolTableRecord
100
AcDbBlockTableRecord
2
*Model_Space
340
0
70
0
0
BLOCK_RECORD
5
1B
100
AcDbSymbolTableRecord
100
AcDbBlockTableRecord
2
*Paper_Space
340
0
70
0
0
BLOCK_RECORD
5
23
100
AcDbSymbolTableRecord
100
AcDbBlockTableRecord
2
*Paper_Space0
340
0
70
0
0
BLOCK_RECORD
5
F3
100
AcDbSymbolTableRecord
100
AcDbBlockTableRecord
2
*D1
340
0
70
0
0
BLOCK_RECORD
5
FF
100
AcDbSymbolTableRecord
100
AcDbBlockTableRecord
2
_U0
340
0
70
0
0
BLOCK_RECORD
5
10B
100
AcDbSymbolTableRecord
100
AcDbBlockTableRecord
2
*D3
340
0
70
0
0
BLOCK_RECORD
5
117
100
AcDbSymbolTableRecord
100
AcDbBlockTableRecord
2
_U1
340
0
70
0
0
BLOCK_RECORD
5
123
100
AcDbSymbolTableRecord
100
AcDbBlockTableRecord
2
*D5
340
0
70
0
0
BLOCK_RECORD
5
12F
100
AcDbSymbolTableRecord
100
AcDbBlockTableRecord
2
_U2
340
0
70
0
0
BLOCK_RECORD
5
13B
100
AcDbSymbolTableRecord
100
AcDbBlockTableRecord
2
*D7
340
0
70
0
0
BLOCK_RECORD
5
148
100
AcDbSymbolTableRecord
100
AcDbBlockTableRecord
2
_U3
340
0
70
0
0
ENDTAB
0
ENDSEC
0
SECTION
2
BLOCKS
0
BLOCK
5
20
100
AcDbEntity
8
0
100
AcDbBlockBegin
2
*Model_Space
70
0
10
0
20
0
30
0
3
*Model_Space
0
ENDBLK
5
21
100
AcDbEntity
8
0
100
AcDbBlockEnd
0
BLOCK
5
1C
100
AcDbEntity
8
0
100
AcDbBlockBegin
2
*Paper_Space
70
0
10
0
20
0
30
0
3
*Paper_Space
0
ENDBLK
5
1D
100
AcDbEntity
8
0
100
AcDbBlockEnd
0
BLOCK
5
24
100
AcDbEntity
8
0
100
AcDbBlockBegin
2
*Paper_Space0
70
0
10
0
20
0
30
0
3
*Paper_Space0
0
ENDBLK
5
25
100
AcDbEntity
8
0
100
AcDbBlockEnd
0
BLOCK
5
F4
100
AcDbEntity
8
0
100
AcDbBlockBegin
2
*D1
70
1
10
0
20
0
30
0
3
*D1
0
LINE
5
F6
100
AcDbEntity
8
0
62
256
6
ByLayer
370
-2
48
1
60
0
100
AcDbLine
10
-21
20
-2.4375
30
0
11
-21
21
-53.606724
31
0
39
0
210
0
220
0
230
1
0
LINE
5
F7
100
AcDbEntity
8
0
62
256
6
ByLayer
370
-2
48
1
60
0
100
AcDbLine
10
22
20
-1.5875
30
0
11
22
21
-53.606724
31
0
39
0
210
0
220
0
230
1
0
LINE
5
F8
100
AcDbEntity
8
0
62
256
6
ByLayer
370
-2
48
1
60
0
100
AcDbLine
10
-17.5
20
-51.606724
30
0
11
18.5
21
-51.606724
31
0
39
0
210
0
220
0
230
1
0
SOLID
5
F9
100
AcDbEntity
8
0
62
256
6
ByLayer
370
-1
48
1
60
0
100
AcDbTrace
10
-17.5
20
-51.023391
30
0
11
-17.5
21
-52.190057
31
0
12
-21
22
-51.606724
32
0
13
-21
23
-51.606724
33
0
39
0
210
0
220
0
230
1
0
SOLID
5
FA
100
AcDbEntity
8
0
62
256
6
ByLayer
370
-1
48
1
60
0
100
AcDbTrace
10
18.5
20
-52.190057
30
0
11
18.5
21
-51.023391
31
0
12
22
22
-51.606724
32
0
13
22
23
-51.606724
33
0
39
0
210
0
220
0
230
1
0
MTEXT
5
FB
100
AcDbEntity
8
0
62
256
6
ByLayer
370
18
48
1
60
0
100
AcDbMText
10
0.5
20
-45.606724
30
0
210
0
220
0
230
1
1
\A1;43
40
3
41
0
44
1
50
0
71
5
72
5
7
iso_b_vert
0
POINT
5
FC
100
AcDbEntity
8
Defpoints
62
0
6
ByLayer
370
-1
48
1
60
0
100
AcDbPoint
10
-21
20
-0.85
30
0
39
0
210
0
220
0
230
1
50
360
0
POINT
5
FD
100
AcDbEntity
8
Defpoints
62
0
6
ByLayer
370
-1
48
1
60
0
100
AcDbPoint
10
22
20
0
30
0
39
0
210
0
220
0
230
1
50
360
0
POINT
5
FE
100
AcDbEntity
8
Defpoints
62
0
6
ByLayer
370
-1
48
1
60
0
100
AcDbPoint
10
22
20
-51.606724
30
0
39
0
210
0
220
0
230
1
50
360
0
ENDBLK
5
F5
100
AcDbEntity
8
0
100
AcDbBlockEnd
0
BLOCK
5
106
100
AcDbEntity
8
0
100
AcDbBlockBegin
2
_U0
70
0
10
0
20
0
30
0
3
_U0
0
MTEXT
5
100
100
AcDbEntity
8
SK2
62
256
6
ByLayer
370
18
48
1
60
0
100
AcDbMText
10
-4.140313
20
-50.72161
30
0
210
0
220
0
230
1
1
\W0.7694;43.00
40
3
41
0
44
1.084337
50
0
71
7
72
5
7
iso_b_vert
0
LINE
5
101
100
AcDbEntity
8
SK2
62
256
6
ByLayer
370
13
48
1
60
0
100
AcDbLine
10
-21
20
-2.4375
30
0
11
-21
21
-53.606724
31
0
39
0
210
0
220
0
230
1
0
LINE
5
102
100
AcDbEntity
8
SK2
62
256
6
ByLayer
370
13
48
1
60
0
100
AcDbLine
10
22
20
-1.5875
30
0
11
22
21
-53.606724
31
0
39
0
210
0
220
0
230
1
0
LINE
5
103
100
AcDbEntity
8
SK2
62
256
6
ByLayer
370
13
48
1
60
0
100
AcDbLine
10
-21
20
-51.606724
30
0
11
22
21
-51.606724
31
0
39
0
210
0
220
0
230
1
0
SOLID
5
104
100
AcDbEntity
8
SK2
62
256
6
ByLayer
370
18
48
1
60
0
100
AcDbTrace
10
-21
20
-51.606724
30
0
11
-17.500002
21
-51.14594
31
0
12
-17.499998
22
-52.067508
32
0
13
-17.499998
23
-52.067508
33
0
39
0
210
0
220
0
230
1
0
SOLID
5
105
100
AcDbEntity
8
SK2
62
256
6
ByLayer
370
18
48
1
60
0
100
AcDbTrace
10
22
20
-51.606724
30
0
11
18.500002
21
-52.067508
31
0
12
18.499998
22
-51.14594
32
0
13
18.499998
23
-51.14594
33
0
39
0
210
0
220
0
230
1
0
ENDBLK
5
107
100
AcDbEntity
8
0
100
AcDbBlockEnd
0
BLOCK
5
10C
100
AcDbEntity
8
0
100
AcDbBlockBegin
2
*D3
70
1
10
0
20
0
30
0
3
*D3
0
LINE
5
10E
100
AcDbEntity
8
0
62
256
6
ByLayer
370
-2
48
1
60
0
100
AcDbLine
10
22
20
-1.5875
30
0
11
22
21
-43.606724
31
0
39
0
210
0
220
0
230
1
0
LINE
5
10F
100
AcDbEntity
8
0
62
256
6
ByLayer
370
-2
48
1
60
0
100
AcDbLine
10
2
20
-2.4375
30
0
11
2
21
-43.606724
31
0
39
0
210
0
220
0
230
1
0
LINE
5
110
100
AcDbEntity
8
0
62
256
6
ByLayer
370
-2
48
1
60
0
100
AcDbLine
10
18.5
20
-41.606724
30
0
11
5.5
21
-41.606724
31
0
39
0
210
0
220
0
230
1
0
SOLID
5
111
100
AcDbEntity
8
0
62
256
6
ByLayer
370
-1
48
1
60
0
100
AcDbTrace
10
18.5
20
-42.190057
30
0
11
18.5
21
-41.023391
31
0
12
22
22
-41.606724
32
0
13
22
23
-41.606724
33
0
39
0
210
0
220
0
230
1
0
SOLID
5
112
100
AcDbEntity
8
0
62
256
6
ByLayer
370
-1
48
1
60
0
100
AcDbTrace
10
5.5
20
-41.023391
30
0
11
5.5
21
-42.190057
31
0
12
2
22
-41.606724
32
0
13
2
23
-41.606724
33
0
39
0
210
0
220
0
230
1
0
MTEXT
5
113
100
AcDbEntity
8
0
62
256
6
ByLayer
370
18
48
1
60
0
100
AcDbMText
10
12
20
-35.606724
30
0
210
0
220
0
230
1
1
\A1;20
40
3
41
0
44
1
50
0
71
5
72
5
7
iso_b_vert
0
POINT
5
114
100
AcDbEntity
8
Defpoints
62
0
6
ByLayer
370
-1
48
1
60
0
100
AcDbPoint
10
22
20
0
30
0
39
0
210
0
220
0
230
1
50
360
0
POINT
5
115
100
AcDbEntity
8
Defpoints
62
0
6
ByLayer
370
-1
48
1
60
0
100
AcDbPoint
10
2
20
-0.85
30
0
39
0
210
0
220
0
230
1
50
360
0
POINT
5
116
100
AcDbEntity
8
Defpoints
62
0
6
ByLayer
370
-1
48
1
60
0
100
AcDbPoint
10
2
20
-41.606724
30
0
39
0
210
0
220
0
230
1
50
360
0
ENDBLK
5
10D
100
AcDbEntity
8
0
100
AcDbBlockEnd
0
BLOCK
5
11E
100
AcDbEntity
8
0
100
AcDbBlockBegin
2
_U1
70
0
10
0
20
0
30
0
3
_U1
0
MTEXT
5
118
100
AcDbEntity
8
2
62
256
6
ByLayer
370
18
48
1
60
0
100
AcDbMText
10
7.51763
20
-40.72161
30
0
210
0
220
0
230
1
1
\W0.7468;20.00
40
3
41
0
44
1.084337
50
0
71
7
72
5
7
iso_b_vert
0
LINE
5
119
100
AcDbEntity
8
2
62
256
6
ByLayer
370
13
48
1
60
0
100
AcDbLine
10
22
20
-1.5875
30
0
11
22
21
-43.606724
31
0
39
0
210
0
220
0
230
1
0
LINE
5
11A
100
AcDbEntity
8
2
62
256
6
ByLayer
370
13
48
1
60
0
100
AcDbLine
10
2
20
-2.4375
30
0
11
2
21
-43.606724
31
0
39
0
210
0
220
0
230
1
0
LINE
5
11B
100
AcDbEntity
8
2
62
256
6
ByLayer
370
13
48
1
60
0
100
AcDbLine
10
22
20
-41.606724
30
0
11
2
21
-41.606724
31
0
39
0
210
0
220
0
230
1
0
SOLID
5
11C
100
AcDbEntity
8
2
62
256
6
ByLayer
370
18
48
1
60
0
100
AcDbTrace
10
22
20
-41.606724
30
0
11
18.500002
21
-42.067508
31
0
12
18.499998
22
-41.14594
32
0
13
18.499998
23
-41.14594
33
0
39
0
210
0
220
0
230
1
0
SOLID
5
11D
100
AcDbEntity
8
2
62
256
6
ByLayer
370
18
48
1
60
0
100
AcDbTrace
10
2
20
-41.606724
30
0
11
5.499998
21
-41.14594
31
0
12
5.500002
22
-42.067508
32
0
13
5.500002
23
-42.067508
33
0
39
0
210
0
220
0
230
1
0
ENDBLK
5
11F
100
AcDbEntity
8
0
100
AcDbBlockEnd
0
BLOCK
5
124
100
AcDbEntity
8
0
100
AcDbBlockBegin
2
*D5
70
1
10
0
20
0
30
0
3
*D5
0
LINE
5
126
100
AcDbEntity
8
0
62
256
6
ByLayer
370
-2
48
1
60
0
100
AcDbLine
10
-21
20
-2.4375
30
0
11
-21
21
-38.606724
31
0
39
0
210
0
220
0
230
1
0
LINE
5
127
100
AcDbEntity
8
0
62
256
6
ByLayer
370
-2
48
1
60
0
100
AcDbLine
10
0
20
-2.4375
30
0
11
0
21
-38.606724
31
0
39
0
210
0
220
0
230
1
0
LINE
5
128
100
AcDbEntity
8
0
62
256
6
ByLayer
370
-2
48
1
60
0
100
AcDbLine
10
-17.5
20
-36.606724
30
0
11
-3.5
21
-36.606724
31
0
39
0
210
0
220
0
230
1
0
SOLID
5
129
100
AcDbEntity
8
0
62
256
6
ByLayer
370
-1
48
1
60
0
100
AcDbTrace
10
-17.5
20
-36.023391
30
0
11
-17.5
21
-37.190057
31
0
12
-21
22
-36.606724
32
0
13
-21
23
-36.606724
33
0
39
0
210
0
220
0
230
1
0
SOLID
5
12A
100
AcDbEntity
8
0
62
256
6
ByLayer
370
-1
48
1
60
0
100
AcDbTrace
10
-3.5
20
-37.190057
30
0
11
-3.5
21
-36.023391
31
0
12
0
22
-36.606724
32
0
13
0
23
-36.606724
33
0
39
0
210
0
220
0
230
1
0
MTEXT
5
12B
100
AcDbEntity
8
0
62
256
6
ByLayer
370
18
48
1
60
0
100
AcDbMText
10
-10.5
20
-30.606724
30
0
210
0
220
0
230
1
1
\A1;21
40
3
41
0
44
1
50
0
71
5
72
5
7
iso_b_vert
0
POINT
5
12C
100
AcDbEntity
8
Defpoints
62
0
6
ByLayer
370
-1
48
1
60
0
100
AcDbPoint
10
-21
20
-0.85
30
0
39
0
210
0
220
0
230
1
50
360
0
POINT
5
12D
100
AcDbEntity
8
Defpoints
62
0
6
ByLayer
370
-1
48
1
60
0
100
AcDbPoint
10
0
20
-0.85
30
0
39
0
210
0
220
0
230
1
50
360
0
POINT
5
12E
100
AcDbEntity
8
Defpoints
62
0
6
ByLayer
370
-1
48
1
60
0
100
AcDbPoint
10
0
20
-36.606724
30
0
39
0
210
0
220
0
230
1
50
360
0
ENDBLK
5
125
100
AcDbEntity
8
0
100
AcDbBlockEnd
0
BLOCK
5
136
100
AcDbEntity
8
0
100
AcDbBlockBegin
2
_U2
70
0
10
0
20
0
30
0
3
_U2
0
MTEXT
5
130
100
AcDbEntity
8
SK2
62
256
6
ByLayer
370
18
48
1
60
0
100
AcDbMText
10
-14.607428
20
-35.72161
30
0
210
0
220
0
230
1
1
\W0.6864;21.00
40
3
41
0
44
1.084337
50
0
71
7
72
5
7
iso_b_vert
0
LINE
5
131
100
AcDbEntity
8
SK2
62
256
6
ByLayer
370
13
48
1
60
0
100
AcDbLine
10
-21
20
-2.4375
30
0
11
-21
21
-38.606724
31
0
39
0
210
0
220
0
230
1
0
LINE
5
132
100
AcDbEntity
8
SK2
62
256
6
ByLayer
370
13
48
1
60
0
100
AcDbLine
10
0
20
-2.4375
30
0
11
0
21
-38.606724
31
0
39
0
210
0
220
0
230
1
0
LINE
5
133
100
AcDbEntity
8
SK2
62
256
6
ByLayer
370
13
48
1
60
0
100
AcDbLine
10
-21
20
-36.606724
30
0
11
0
21
-36.606724
31
0
39
0
210
0
220
0
230
1
0
SOLID
5
134
100
AcDbEntity
8
SK2
62
256
6
ByLayer
370
18
48
1
60
0
100
AcDbTrace
10
-21
20
-36.606724
30
0
11
-17.500002
21
-36.14594
31
0
12
-17.499998
22
-37.067508
32
0
13
-17.499998
23
-37.067508
33
0
39
0
210
0
220
0
230
1
0
SOLID
5
135
100
AcDbEntity
8
SK2
62
256
6
ByLayer
370
18
48
1
60
0
100
AcDbTrace
10
0
20
-36.606724
30
0
11
-3.499998
21
-37.067508
31
0
12
-3.500002
22
-36.14594
32
0
13
-3.500002
23
-36.14594
33
0
39
0
210
0
220
0
230
1
0
ENDBLK
5
137
100
AcDbEntity
8
0
100
AcDbBlockEnd
0
BLOCK
5
13C
100
AcDbEntity
8
0
100
AcDbBlockBegin
2
*D7
70
1
10
0
20
0
30
0
3
*D7
0
LINE
5
13E
100
AcDbEntity
8
0
62
256
6
ByLayer
370
-2
48
1
60
0
100
AcDbLine
10
22
20
-1.5875
30
0
11
22
21
-36.606724
31
0
39
0
210
0
220
0
230
1
0
LINE
5
13F
100
AcDbEntity
8
0
62
256
6
ByLayer
370
-2
48
1
60
0
100
AcDbLine
10
7
20
-2.4375
30
0
11
7
21
-36.606724
31
0
39
0
210
0
220
0
230
1
0
LINE
5
140
100
AcDbEntity
8
0
62
256
6
ByLayer
370
-2
48
1
60
0
100
AcDbLine
10
25.5
20
-34.606724
30
0
11
29
21
-34.606724
31
0
39
0
210
0
220
0
230
1
0
LINE
5
141
100
AcDbEntity
8
0
62
256
6
ByLayer
370
-2
48
1
60
0
100
AcDbLine
10
3.5
20
-34.606724
30
0
11
0
21
-34.606724
31
0
39
0
210
0
220
0
230
1
0
SOLID
5
142
100
AcDbEntity
8
0
62
256
6
ByLayer
370
-1
48
1
60
0
100
AcDbTrace
10
25.5
20
-34.023391
30
0
11
25.5
21
-35.190057
31
0
12
22
22
-34.606724
32
0
13
22
23
-34.606724
33
0
39
0
210
0
220
0
230
1
0
SOLID
5
143
100
AcDbEntity
8
0
62
256
6
ByLayer
370
-1
48
1
60
0
100
AcDbTrace
10
3.5
20
-35.190057
30
0
11
3.5
21
-34.023391
31
0
12
7
22
-34.606724
32
0
13
7
23
-34.606724
33
0
39
0
210
0
220
0
230
1
0
MTEXT
5
144
100
AcDbEntity
8
0
62
256
6
ByLayer
370
18
48
1
60
0
100
AcDbMText
10
14.5
20
-28.606724
30
0
210
0
220
0
230
1
1
\A1;15
40
3
41
0
44
1
50
0
71
5
72
5
7
iso_b_vert
0
POINT
5
145
100
AcDbEntity
8
Defpoints
62
0
6
ByLayer
370
-1
48
1
60
0
100
AcDbPoint
10
22
20
0
30
0
39
0
210
0
220
0
230
1
50
360
0
POINT
5
146
100
AcDbEntity
8
Defpoints
62
0
6
ByLayer
370
-1
48
1
60
0
100
AcDbPoint
10
7
20
-0.85
30
0
39
0
210
0
220
0
230
1
50
360
0
POINT
5
147
100
AcDbEntity
8
Defpoints
62
0
6
ByLayer
370
-1
48
1
60
0
100
AcDbPoint
10
7
20
-34.606724
30
0
39
0
210
0
220
0
230
1
50
360
0
ENDBLK
5
13D
100
AcDbEntity
8
0
100
AcDbBlockEnd
0
BLOCK
5
14F
100
AcDbEntity
8
0
100
AcDbBlockBegin
2
_U3
70
0
10
0
20
0
30
0
3
_U3
0
MTEXT
5
149
100
AcDbEntity
8
2
62
256
6
ByLayer
370
18
48
1
60
0
100
AcDbMText
10
10.392572
20
-33.72161
30
0
210
0
220
0
230
1
1
\W0.6864;15.00
40
3
41
0
44
1.084337
50
0
71
7
72
5
7
iso_b_vert
0
LINE
5
14A
100
AcDbEntity
8
2
62
256
6
ByLayer
370
13
48
1
60
0
100
AcDbLine
10
22
20
-1.5875
30
0
11
22
21
-36.606724
31
0
39
0
210
0
220
0
230
1
0
LINE
5
14B
100
AcDbEntity
8
2
62
256
6
ByLayer
370
13
48
1
60
0
100
AcDbLine
10
7
20
-2.4375
30
0
11
7
21
-36.606724
31
0
39
0
210
0
220
0
230
1
0
LINE
5
14C
100
AcDbEntity
8
2
62
256
6
ByLayer
370
13
48
1
60
0
100
AcDbLine
10
22
20
-34.606724
30
0
11
7
21
-34.606724
31
0
39
0
210
0
220
0
230
1
0
SOLID
5
14D
100
AcDbEntity
8
2
62
256
6
ByLayer
370
18
48
1
60
0
100
AcDbTrace
10
22
20
-34.606724
30
0
11
18.500002
21
-35.067508
31
0
12
18.499998
22
-34.14594
32
0
13
18.499998
23
-34.14594
33
0
39
0
210
0
220
0
230
1
0
SOLID
5
14E
100
AcDbEntity
8
2
62
256
6
ByLayer
370
18
48
1
60
0
100
AcDbTrace
10
7
20
-34.606724
30
0
11
10.499998
21
-34.14594
31
0
12
10.500002
22
-35.067508
32
0
13
10.500002
23
-35.067508
33
0
39
0
210
0
220
0
230
1
0
ENDBLK
5
150
100
AcDbEntity
8
0
100
AcDbBlockEnd
0
ENDSEC
0
SECTION
2
ENTITIES
0
ARC
5
B9
100
AcDbEntity
8
2
62
256
6
ByLayer
370
13
48
1
60
0
100
AcDbCircle
39
0
10
22
20
0
30
0
40
22
210
0
220
0
230
1
100
AcDbArc
50
7.83748
51
61.596605
0
ARC
5
BA
100
AcDbEntity
8
2
62
256
6
ByLayer
370
13
48
1
60
0
100
AcDbCircle
39
0
10
22
20
0
30
0
40
22
210
0
220
0
230
1
100
AcDbArc
50
298.403395
51
352.16252
0
POINT
5
70
100
AcDbEntity
8
81
62
256
6
ByLayer
370
18
48
1
60
0
100
AcDbPoint
10
22
20
0
30
0
39
0
210
0
220
0
230
1
50
360
0
POINT
5
72
100
AcDbEntity
8
80
62
256
6
ByLayer
370
18
48
1
60
0
100
AcDbPoint
10
0
20
0
30
0
39
0
210
0
220
0
230
1
50
360
0
POINT
5
74
100
AcDbEntity
8
1
62
256
6
ByLayer
370
18
48
1
60
1
100
AcDbPoint
10
-21
20
-0.85
30
0
39
0
210
0
220
0
230
1
50
360
0
POINT
5
76
100
AcDbEntity
8
1
62
256
6
ByLayer
370
18
48
1
60
1
100
AcDbPoint
10
22
20
0
30
0
39
0
210
0
220
0
230
1
50
360
0
POINT
5
77
100
AcDbEntity
8
1
62
256
6
ByLayer
370
18
48
1
60
1
100
AcDbPoint
10
22
20
0
30
0
39
0
210
0
220
0
230
1
50
360
0
POINT
5
78
100
AcDbEntity
8
1
62
256
6
ByLayer
370
18
48
1
60
1
100
AcDbPoint
10
2
20
-0.85
30
0
39
0
210
0
220
0
230
1
50
360
0
POINT
5
79
100
AcDbEntity
8
1
62
256
6
ByLayer
370
18
48
1
60
1
100
AcDbPoint
10
-21
20
-0.85
30
0
39
0
210
0
220
0
230
1
50
360
0
POINT
5
7A
100
AcDbEntity
8
1
62
256
6
ByLayer
370
18
48
1
60
1
100
AcDbPoint
10
0
20
-0.85
30
0
39
0
210
0
220
0
230
1
50
360
0
POINT
5
7B
100
AcDbEntity
8
1
62
256
6
ByLayer
370
18
48
1
60
1
100
AcDbPoint
10
22
20
0
30
0
39
0
210
0
220
0
230
1
50
360
0
POINT
5
7C
100
AcDbEntity
8
1
62
256
6
ByLayer
370
18
48
1
60
1
100
AcDbPoint
10
7
20
-0.85
30
0
39
0
210
0
220
0
230
1
50
360
0
SPLINE
5
BB
100
AcDbEntity
8
CUT
62
256
6
ByLayer
370
18
48
1
60
0
100
AcDbSpline
70
2053
71
3
72
17
73
13
40
0
40
0
40
0
40
0
40
0.478450342065751
40
0.478450342065751
40
0.478450342065751
40
0.505388607327647
40
0.505388607327647
40
0.505388607327647
40
0.969177401599086
40
0.969177401599086
40
0.969177401599086
40
1
40
1
40
1
40
1
41
1
10
22
20
0
30
0
41
1
10
17
20
0
30
0
41
1
10
12
20
0
30
0
41
1
10
7
20
0
30
0
41
1
10
7
20
0.281515790630039
30
0
41
1
10
7
20
0.563031581260049
30
0
41
1
10
6.99999999999994
20
0.844547371890087
30
0
41
1
10
11.8467805421479
20
0.84636491459338
30
0
41
1
10
16.6935610842959
20
0.848182457296701
30
0
41
1
10
21.5403416264439
20
0.849999999999994
30
0
41
1
10
21.6935610842959
20
0.566666666666663
30
0
41
1
10
21.846780542148
20
0.283333333333331
30
0
41
1
10
22
20
0
30
0
0
SPLINE
5
BD
100
AcDbEntity
8
NOCUT
62
256
6
ByLayer
370
18
48
1
60
0
100
AcDbSpline
70
2053
71
3
72
26
73
22
40
0
40
0
40
0
40
0
40
0.486794528177824
40
0.486794528177824
40
0.486794528177824
40
0.501477422441367
40
0.501477422441367
40
0.501477422441367
40
0.621437511033188
40
0.621437511033188
40
0.621437511033188
40
0.62318167318475
40
0.62318167318475
40
0.62318167318475
40
0.983061913657331
40
0.983061913657331
40
0.983061913657331
40
0.990437964626817
40
0.990437964626817
40
0.990437964626817
40
1
40
1
40
1
40
1
41
1
10
-21
20
0
30
0
41
1
10
-11.6666666666667
20
0
30
0
41
1
10
-2.33333333333331
20
0
30
0
41
1
10
7
20
0
30
0
41
1
10
7
20
0.281515790630039
30
0
41
1
10
7
20
0.563031581260049
30
0
41
1
10
7
20
0.844547371890087
30
0
41
1
10
4.69999999999985
20
0.843684871890076
30
0
41
1
10
2.39999999999967
20
0.842822371890094
30
0
41
1
10
0.100000000026739
20
0.841959871887923
30
0
41
1
10
0.0666666667026448
20
0.844639914590488
30
0
41
1
10
0.0333333333513224
20
0.847319957295241
30
0
41
1
10
0
20
0.849999999999994
30
0
41
1
10
-6.90000000000001
20
0.849999999999994
30
0
41
1
10
-13.8
20
0.849999999999994
30
0
41
1
10
-20.7
20
0.849999999999994
30
0
41
1
10
-20.8
20
0.75
30
0
41
1
10
-20.9
20
0.650000000000006
30
0
41
1
10
-21
20
0.550000000000011
30
0
41
1
10
-21
20
0.366666666666674
30
0
41
1
10
-21
20
0.183333333333337
30
0
41
1
10
-21
20
0
30
0
0
SPLINE
5
BF
100
AcDbEntity
8
1
62
256
6
ByLayer
370
18
48
1
60
0
100
AcDbSpline
70
4
71
3
72
57
73
53
40
0
40
0
40
0
40
0
40
0.124999999999991
40
0.124999999999991
40
0.187499999999987
40
0.187499999999987
40
0.249999999999982
40
0.249999999999982
40
0.28124999999998
40
0.28124999999998
40
0.312499999999978
40
0.312499999999978
40
0.374999999999968
40
0.374999999999968
40
0.437499999999958
40
0.437499999999958
40
0.468749999999953
40
0.468749999999953
40
0.476562499999952
40
0.476562499999952
40
0.484374999999951
40
0.484374999999951
40
0.49218749999995
40
0.49218749999995
40
0.499999999999948
40
0.499999999999948
40
0.507812499999947
40
0.507812499999947
40
0.515624999999946
40
0.515624999999946
40
0.523437499999945
40
0.523437499999945
40
0.531249999999944
40
0.531249999999944
40
0.562499999999946
40
0.562499999999946
40
0.593749999999949
40
0.593749999999949
40
0.624999999999952
40
0.624999999999952
40
0.687499999999957
40
0.687499999999957
40
0.749999999999962
40
0.749999999999962
40
0.781249999999965
40
0.781249999999965
40
0.812499999999967
40
0.874999999999978
40
0.874999999999978
40
0.937499999999989
40
0.937499999999989
40
1
40
1
40
1
40
1
41
1
10
21.5403416264439
20
0.823096169320763
30
0
41
1
10
21.5754237076846
20
0.759026294913468
30
0
41
1
10
21.6102961485322
20
0.694453868928747
30
0
41
1
10
21.6621846903403
20
0.597054890138764
30
0
41
1
10
21.6794087393647
20
0.564496295776792
30
0
41
1
10
21.7136356971137
20
0.499175952782366
30
0
41
1
10
21.7306309116847
20
0.466436546315293
30
0
41
1
10
21.7558091135518
20
0.417142191357215
30
0
41
1
10
21.7641461126046
20
0.400677341468906
30
0
41
1
10
21.7806942731547
20
0.367681153861867
30
0
41
1
10
21.7889070931491
20
0.351151519961803
30
0
41
1
10
21.8134359089882
20
0.3015413992307
30
0
41
1
10
21.8296577655052
20
0.268495807340543
30
0
41
1
10
21.8614954274867
20
0.202336455363024
30
0
41
1
10
21.8771497313668
20
0.169215004350576
30
0
41
1
10
21.8991170834157
20
0.119200770078408
30
0
41
1
10
21.9062057727136
20
0.102472858661002
30
0
41
1
10
21.9143795159995
20
0.0813870896455455
30
0
41
1
10
21.9159779460183
20
0.0771592628641429
30
0
41
1
10
21.9190269405727
20
0.0686219602026767
30
0
41
1
10
21.9204750983057
20
0.0643166620542956
30
0
41
1
10
21.9230286062127
20
0.0555696916494526
30
0
41
1
10
21.9241315739743
20
0.0511225470967247
30
0
41
1
10
21.925757201158
20
0.0419785772822365
30
0
41
1
10
21.926253092144
20
0.0374060122775859
30
0
41
1
10
21.9265184228842
20
0.0283864462192582
30
0
41
1
10
21.9262759760201
20
0.0238810856218379
30
0
41
1
10
21.9251507418681
20
0.0153920622444161
30
0
41
1
10
21.9242805794574
20
0.0113503537276074
30
0
41
1
10
21.9221668275419
20
0.0034855481900422
30
0
41
1
10
21.9209312387779
20
-0.0003284740080289
30
0
41
1
10
21.9182997225712
20
-0.007808730813025
30
0
41
1
10
21.9168963519863
20
-0.011489211864415
30
0
41
1
10
21.909579118916
20
-0.0297399046676503
30
0
41
1
10
21.9027817882303
20
-0.0438488347987231
30
0
41
1
10
21.88823616951
20
-0.0712587072863187
30
0
41
1
10
21.8804599025044
20
-0.084564069073565
30
0
41
1
10
21.8645385463812
20
-0.110220240421086
30
0
41
1
10
21.8563695798832
20
-0.122609053246634
30
0
41
1
10
21.831543678154
20
-0.158636897389698
30
0
41
1
10
21.8145813912967
20
-0.181146473881284
30
0
41
1
10
21.780372251823
20
-0.223465834740324
30
0
41
1
10
21.7631068184855
20
-0.24326648094501
30
0
41
1
10
21.7370445068604
20
-0.270951784315173
30
0
41
1
10
21.7283078079598
20
-0.279862147182143
30
0
41
1
10
21.71087875997
20
-0.296898027130851
30
0
41
1
10
21.684840134778
20
-0.321241326199157
30
0
41
1
10
21.6590880499876
20
-0.342036419539454
30
0
41
1
10
21.6249316449984
20
-0.366665221014642
30
0
41
1
10
21.6079429444696
20
-0.377429662818031
30
0
41
1
10
21.5740548913622
20
-0.395857857270016
30
0
41
1
10
21.5571216985384
20
-0.403526730208824
30
0
41
1
10
21.5403416264439
20
-0.409598243303151
30
0
0
SPLINE
5
C0
100
AcDbEntity
8
1
62
256
6
ByLayer
370
18
48
1
60
0
100
AcDbSpline
70
4
71
3
72
48
73
44
40
0
40
0
40
0
40
0
40
0.0421300989312553
40
0.0421300989312553
40
0.0842601978625107
40
0.0842601978625107
40
0.168520395725021
40
0.168520395725021
40
0.210650494656279
40
0.210650494656279
40
0.252780593587537
40
0.252780593587537
40
0.294910692518795
40
0.294910692518795
40
0.337040791450053
40
0.337040791450053
40
0.379170890381311
40
0.379170890381311
40
0.421300989312569
40
0.421300989312569
40
0.505561187175079
40
0.505561187175079
40
0.547691286106335
40
0.547691286106335
40
0.58982138503759
40
0.58982138503759
40
0.631951483968845
40
0.631951483968845
40
0.674081582900101
40
0.674081582900101
40
0.716211681831356
40
0.716211681831356
40
0.758341780762611
40
0.758341780762611
40
0.800471879693867
40
0.800471879693867
40
0.842601978625122
40
0.842601978625122
40
0.926862176487628
40
0.926862176487628
40
0.96899227541888
40
0.96899227541888
40
1
40
1
40
1
40
1
41
1
10
21.5403416264443
20
-0.409598243303321
30
0
41
1
10
21.4953661407125
20
-0.387509225108715
30
0
41
1
10
21.4504633014567
20
-0.365113109867906
30
0
41
1
10
21.3608278960585
20
-0.319679871587567
30
0
41
1
10
21.3161025119751
20
-0.296629712480325
30
0
41
1
10
21.182093393325
20
-0.226683975913858
30
0
41
1
10
21.0929595893762
20
-0.179030812449014
30
0
41
1
10
20.9597963044189
20
-0.105587160803452
30
0
41
1
10
20.9154952467414
20
-0.0807802935909194
30
0
41
1
10
20.8265800567364
20
-0.031408718919522
30
0
41
1
10
20.7820157824907
20
-0.0067541079362741
30
0
41
1
10
20.6927091953102
20
0.042555257302979
30
0
41
1
10
20.6479531330611
20
0.0671846548130191
30
0
41
1
10
20.5581800068343
20
0.116289945115909
30
0
41
1
10
20.5131534944315
20
0.1407825280385
30
0
41
1
10
20.4229722107286
20
0.189733565985335
30
0
41
1
10
20.3781229569984
20
0.214064527075664
30
0
41
1
10
20.2887464341259
20
0.262123826145142
30
0
41
1
10
20.2441313282745
20
0.285692138718417
30
0
41
1
10
20.1103101246354
20
0.354733256949686
30
0
41
1
10
20.0212630474089
20
0.398788223793957
30
0
41
1
10
19.8877060094542
20
0.461603105613904
30
0
41
1
10
19.8432138527839
20
0.482035054686662
30
0
41
1
10
19.7543183841189
20
0.52190959480788
30
0
41
1
10
19.7099360851817
20
0.541376870107683
30
0
41
1
10
19.6208638400571
20
0.578719121159338
30
0
41
1
10
19.5761556385299
20
0.596575914647872
30
0
41
1
10
19.4864835563056
20
0.630792961590913
30
0
41
1
10
19.4415063972188
20
0.647133414277135
30
0
41
1
10
19.351198587996
20
0.678176974784463
30
0
41
1
10
19.3061705938473
20
0.692777779622276
30
0
41
1
10
19.2164740786602
20
0.720218236595343
30
0
41
1
10
19.1718119574285
20
0.733070867144903
30
0
41
1
10
19.0827838207654
20
0.75693050404189
30
0
41
1
10
19.0383705376218
20
0.767888424995249
30
0
41
1
10
18.949407344592
20
0.787641816028298
30
0
41
1
10
18.9049259336799
20
0.796495968130074
30
0
41
1
10
18.7714367817083
20
0.820008009721278
30
0
41
1
10
18.6822847094196
20
0.831596848374659
30
0
41
1
10
18.5485237438008
20
0.842801505711776
30
0
41
1
10
18.503959979692
20
0.845497274107117
30
0
41
1
10
18.4263663146297
20
0.848258263584682
30
0
41
1
10
18.3933550157247
20
0.848830145404463
30
0
41
1
10
18.3602407389598
20
0.848807765216833
30
0
0
SPLINE
5
C1
100
AcDbEntity
8
1
62
256
6
ByLayer
370
18
48
1
60
0
100
AcDbSpline
70
4
71
3
72
101
73
97
40
0
40
0
40
0
40
0
40
0.0168745460030104
40
0.0168745460030104
40
0.0384532442462315
40
0.0384532442462315
40
0.0600319424894527
40
0.0600319424894527
40
0.0708212916110631
40
0.0708212916110631
40
0.0816106407326737
40
0.0816106407326737
40
0.103189338975897
40
0.103189338975897
40
0.124768037219121
40
0.124768037219121
40
0.146346735462345
40
0.146346735462345
40
0.167925433705568
40
0.167925433705568
40
0.189504131948792
40
0.189504131948792
40
0.211082830192015
40
0.211082830192015
40
0.232661528435239
40
0.232661528435239
40
0.243450877556852
40
0.243450877556852
40
0.254240226678465
40
0.254240226678465
40
0.275818924921691
40
0.275818924921691
40
0.297397623164918
40
0.297397623164918
40
0.318976321408144
40
0.318976321408144
40
0.34055501965137
40
0.34055501965137
40
0.362133717894596
40
0.362133717894596
40
0.405291114381049
40
0.405291114381049
40
0.416080463502662
40
0.416080463502662
40
0.426869812624275
40
0.426869812624275
40
0.448448510867501
40
0.448448510867501
40
0.470027209110727
40
0.470027209110727
40
0.491605907353954
40
0.491605907353954
40
0.51318460559718
40
0.51318460559718
40
0.534763303840406
40
0.534763303840406
40
0.577920700326856
40
0.577920700326856
40
0.588710049448469
40
0.588710049448469
40
0.599499398570081
40
0.599499398570081
40
0.621078096813303
40
0.621078096813303
40
0.642656795056525
40
0.642656795056525
40
0.664235493299748
40
0.664235493299748
40
0.707392889786192
40
0.707392889786192
40
0.728971588029416
40
0.728971588029416
40
0.75055028627264
40
0.75055028627264
40
0.761339635394252
40
0.761339635394252
40
0.772128984515864
40
0.793707682759086
40
0.793707682759086
40
0.815286381002308
40
0.815286381002308
40
0.83686507924553
40
0.83686507924553
40
0.880022475731976
40
0.880022475731976
40
0.901601173975199
40
0.901601173975199
40
0.923179872218423
40
0.923179872218423
40
0.944758570461646
40
0.944758570461646
40
0.966337268704869
40
0.966337268704869
40
0.987915966948092
40
0.987915966948092
40
1
40
1
40
1
40
1
41
1
10
14.9405832947683
20
-0.518795220105147
30
0
41
1
10
14.9057493575155
20
-0.533983035969186
30
0
41
1
10
14.8709255093014
20
-0.548836134645086
30
0
41
1
10
14.7915671373596
20
-0.581859929145196
30
0
41
1
10
14.7470157591386
20
-0.599772840843428
30
0
41
1
10
14.657443948828
20
-0.633776232825767
30
0
41
1
10
14.6124922247464
20
-0.649963119848053
30
0
41
1
10
14.5448134383213
20
-0.673015146393794
30
0
41
1
10
14.5222300915805
20
-0.680484457129353
30
0
41
1
10
14.4771721499657
20
-0.694931082490484
30
0
41
1
10
14.4546736843225
20
-0.701916760344346
30
0
41
1
10
14.3872707905456
20
-0.722171182930111
30
0
41
1
10
14.3424608587705
20
-0.734742636843379
30
0
41
1
10
14.2531582445184
20
-0.758079220527463
30
0
41
1
10
14.208686113034
20
-0.768854343060354
30
0
41
1
10
14.1198542260364
20
-0.788387220193528
30
0
41
1
10
14.0754034947037
20
-0.797084795384507
30
0
41
1
10
13.9864285066809
20
-0.812403520739565
30
0
41
1
10
13.9419203175329
20
-0.819032289081264
30
0
41
1
10
13.8527975575608
20
-0.8302139652927
30
0
41
1
10
13.8081739818836
20
-0.834765552507349
30
0
41
1
10
13.7188342990976
20
-0.841789242640658
30
0
41
1
10
13.6741330516154
20
-0.844264811837263
30
0
41
1
10
13.5846671674392
20
-0.847059504395588
30
0
41
1
10
13.5399164049103
20
-0.847366440648813
30
0
41
1
10
13.4723980657257
20
-0.846157521947987
30
0
41
1
10
13.4498253978903
20
-0.845478266601589
30
0
41
1
10
13.4047927732259
20
-0.84358054152284
30
0
41
1
10
13.3823056749051
20
-0.842361649848158
30
0
41
1
10
13.3149235183498
20
-0.83790839027705
30
0
41
1
10
13.2701048642841
20
-0.833878290500138
30
0
41
1
10
13.1806106579256
20
-0.82376159237225
30
0
41
1
10
13.1359384901077
20
-0.817676924697821
30
0
41
1
10
13.0468158835934
20
-0.803415692319703
30
0
41
1
10
13.0023799579266
20
-0.795226277827993
30
0
41
1
10
12.9136293638475
20
-0.776758913466551
30
0
41
1
10
12.8692353234007
20
-0.76653414791403
30
0
41
1
10
12.7802200363703
20
-0.744293861470823
30
0
41
1
10
12.7356503785909
20
-0.732238539345786
30
0
41
1
10
12.6016794020095
20
-0.69335055329995
30
0
41
1
10
12.5119401447964
20
-0.663916936330452
30
0
41
1
10
12.3994181069796
20
-0.622283076119345
30
0
41
1
10
12.3768730154507
20
-0.613704367597393
30
0
41
1
10
12.3319225161026
20
-0.596156339898158
30
0
41
1
10
12.3094969011887
20
-0.587182056138175
30
0
41
1
10
12.2422525918962
20
-0.559825576062821
30
0
41
1
10
12.1974579764211
20
-0.541025729224486
30
0
41
1
10
12.1080243393864
20
-0.502216773878416
30
0
41
1
10
12.0633735468425
20
-0.482223048410617
30
0
41
1
10
11.9741323151171
20
-0.44118454110216
30
0
41
1
10
11.9295399261794
20
-0.420144394494741
30
0
41
1
10
11.8404755193908
20
-0.376918090673257
30
0
41
1
10
11.7960172694757
20
-0.354707974420393
30
0
41
1
10
11.7071860809945
20
-0.30916823939279
30
0
41
1
10
11.6627815198584
20
-0.285888519868337
30
0
41
1
10
11.5290185369801
20
-0.215549855188556
30
0
41
1
10
11.4394144214075
20
-0.16747324832815
30
0
41
1
10
11.326654994674
20
-0.10628363096464
30
0
41
1
10
11.3040410449608
20
-0.0939727768416674
30
0
41
1
10
11.2589221029147
20
-0.0693041817866629
30
0
41
1
10
11.2364116985024
20
-0.0569428420542692
30
0
41
1
10
11.1690335137845
20
-0.0197672493457901
30
0
41
1
10
11.1243443585604
20
0.0051862908683233
30
0
41
1
10
11.0351382084499
20
0.0548820812813915
30
0
41
1
10
10.9905373395881
20
0.0794682759523653
30
0
41
1
10
10.9013787777008
20
0.128209058917264
30
0
41
1
10
10.8568268695436
20
0.152373592637758
30
0
41
1
10
10.7231511441593
20
0.22407388613081
30
0
41
1
10
10.6339917055411
20
0.270799352244779
30
0
41
1
10
10.5004079012589
20
0.339606844071568
30
0
41
1
10
10.4559019171618
20
0.362316723127833
30
0
41
1
10
10.3664469714973
20
0.406448228808216
30
0
41
1
10
10.3215495152856
20
0.427960508697055
30
0
41
1
10
10.2539710796899
20
0.459437138156943
30
0
41
1
10
10.2313789401968
20
0.469804063354616
30
0
41
1
10
10.1862290936728
20
0.49018952868613
30
0
41
1
10
10.1186015790426
20
0.520220386544509
30
0
41
1
10
10.0512570464099
20
0.548633888643508
30
0
41
1
10
9.96178558946559
20
0.585187511019768
30
0
41
1
10
9.91722707450029
20
0.60281665538318
30
0
41
1
10
9.82829846880966
20
0.636526729809503
30
0
41
1
10
9.783839982936
20
0.652496780625341
30
0
41
1
10
9.65031280339656
20
0.697630698397745
30
0
41
1
10
9.56121953883127
20
0.724178918993147
30
0
41
1
10
9.42724382622751
20
0.758505284502917
30
0
41
1
10
9.38255360652585
20
0.76905193358013
30
0
41
1
10
9.2931382416478
20
0.788312351131339
30
0
41
1
10
9.248434004507
20
0.797030316371462
30
0
41
1
10
9.15857952336037
20
0.812297806873602
30
0
41
1
10
9.11335474545078
20
0.818859035926835
30
0
41
1
10
9.02334397374196
20
0.829790700543271
30
0
41
1
10
8.97845293055678
20
0.834169920274235
30
0
41
1
10
8.88882626024707
20
0.840786626676135
30
0
41
1
10
8.84409078350723
20
0.843027883857843
30
0
41
1
10
8.77447788550131
20
0.844872833051738
30
0
41
1
10
8.74952781706855
20
0.845202239894917
30
0
41
1
10
8.72460982681201
20
0.84519406626012
30
0
0
SPLINE
5
C2
100
AcDbEntity
8
1
62
256
6
ByLayer
370
18
48
1
60
0
100
AcDbSpline
70
4
71
3
72
22
73
18
40
0
40
0
40
0
40
0
40
0.003133351863243
40
0.003133351863243
40
0.145542873025638
40
0.145542873025638
40
0.287952394188031
40
0.287952394188031
40
0.430361915350426
40
0.430361915350426
40
0.572771436512819
40
0.572771436512819
40
0.715180957675214
40
0.715180957675214
40
0.857590478837607
40
0.857590478837607
40
1
40
1
40
1
40
1
41
1
10
5.30726647356016
20
-0.516281699558306
30
0
41
1
10
5.30628564071807
20
-0.516706945514926
30
0
41
1
10
5.30530480302656
20
-0.517131888327071
30
0
41
1
10
5.2597450885535
20
-0.536856236229852
30
0
41
1
10
5.21516013525229
20
-0.555533270853374
30
0
41
1
10
5.1258574478409
20
-0.591462065808969
30
0
41
1
10
5.08113572172047
20
-0.608710293390203
30
0
41
1
10
4.99155200270576
20
-0.641756835178427
30
0
41
1
10
4.946709482242
20
-0.657577804784353
30
0
41
1
10
4.85678195443299
20
-0.687600910792895
30
0
41
1
10
4.8116189460674
20
-0.70178369932637
30
0
41
1
10
4.7214020767868
20
-0.728099307343115
30
0
41
1
10
4.67630261460494
20
-0.740275696343872
30
0
41
1
10
4.58607871478219
20
-0.762662157487483
30
0
41
1
10
4.54095534355591
20
-0.772875859439552
30
0
41
1
10
4.45075865032109
20
-0.791381934238274
30
0
41
1
10
4.40568620798899
20
-0.799677110332084
30
0
41
1
10
4.36071440959932
20
-0.807002473999859
30
0
0
SPLINE
5
C3
100
AcDbEntity
8
1
62
256
6
ByLayer
370
18
48
1
60
0
100
AcDbSpline
70
4
71
3
72
44
73
40
40
0
40
0
40
0
40
0
40
0.0573789398379909
40
0.0573789398379909
40
0.114757879675982
40
0.114757879675982
40
0.172136819513973
40
0.172136819513973
40
0.229515759351963
40
0.229515759351963
40
0.286894699189954
40
0.286894699189954
40
0.344273639027945
40
0.344273639027945
40
0.401652578865936
40
0.401652578865936
40
0.459031518703927
40
0.459031518703927
40
0.487720988622921
40
0.487720988622921
40
0.516410458541914
40
0.516410458541914
40
0.573789398379898
40
0.573789398379898
40
0.631168338217883
40
0.631168338217883
40
0.688547278055867
40
0.688547278055867
40
0.745926217893851
40
0.745926217893851
40
0.803305157731835
40
0.803305157731835
40
0.860684097569819
40
0.860684097569819
40
0.889373567488811
40
0.889373567488811
40
0.918063037407803
40
0.918063037407803
40
1
40
1
40
1
40
1
41
1
10
4.3607144095993
20
-0.0361115762235045
30
0
41
1
10
4.40557204981806
20
-0.0616311966937246
30
0
41
1
10
4.45052347119071
20
-0.0865027893545687
30
0
41
1
10
4.54045179523683
20
-0.135359189640724
30
0
41
1
10
4.58542699543682
20
-0.159347262534283
30
0
41
1
10
4.67518263051787
20
-0.206878626158726
30
0
41
1
10
4.71994591688335
20
-0.230451495399393
30
0
41
1
10
4.80919700369401
20
-0.277275417628346
30
0
41
1
10
4.85366506681535
20
-0.300558770591039
30
0
41
1
10
4.94251177376066
20
-0.346445677119135
30
0
41
1
10
4.98691859827053
20
-0.368999918742333
30
0
41
1
10
5.07602153685562
20
-0.412800614843548
30
0
41
1
10
5.12072016876712
20
-0.434045087448595
30
0
41
1
10
5.21051779218146
20
-0.475086141886607
30
0
41
1
10
5.25557561514694
20
-0.494952375128633
30
0
41
1
10
5.34572375019829
20
-0.53380629600457
30
0
41
1
10
5.39088590699745
20
-0.552781859960106
30
0
41
1
10
5.45856973221478
20
-0.580343304357086
30
0
41
1
10
5.48107005734187
20
-0.589359629914327
30
0
41
1
10
5.52593695521298
20
-0.607059147974724
30
0
41
1
10
5.54829752800998
20
-0.615749248601816
30
0
41
1
10
5.61528960938713
20
-0.641162225483669
30
0
41
1
10
5.65986795736708
20
-0.657175039296675
30
0
41
1
10
5.74934465649372
20
-0.686900405172935
30
0
41
1
10
5.79417135448296
20
-0.70071211608257
30
0
41
1
10
5.88374312172957
20
-0.726587631791148
30
0
41
1
10
5.92846689315496
20
-0.73866792638097
30
0
41
1
10
6.01771834866136
20
-0.761128233255903
30
0
41
1
10
6.06227147674943
20
-0.771484853952444
30
0
41
1
10
6.15124241491444
20
-0.79035662113597
30
0
41
1
10
6.19560216211971
20
-0.798896798492422
30
0
41
1
10
6.28473396823816
20
-0.813727134264127
30
0
41
1
10
6.32957622455797
20
-0.819996103910654
30
0
41
1
10
6.39719698038229
20
-0.827792780900865
30
0
41
1
10
6.41978928498702
20
-0.830126565834235
30
0
41
1
10
6.46504675362169
20
-0.834276620292314
30
0
41
1
10
6.48773531772093
20
-0.836094456667041
30
0
41
1
10
6.57507614016717
20
-0.842090845152086
30
0
41
1
10
6.63929635491039
20
-0.844384584774929
30
0
41
1
10
6.70310734804431
20
-0.844437229671684
30
0
0
SPLINE
5
C4
100
AcDbEntity
8
1
62
256
6
ByLayer
370
18
48
1
60
0
100
AcDbSpline
70
4
71
3
72
122
73
118
40
0
40
0
40
0
40
0
40
0.0018152058555329
40
0.0018152058555329
40
0.0234246810677565
40
0.0234246810677565
40
0.0450341562799789
40
0.0450341562799789
40
0.0666436314922012
40
0.0666436314922012
40
0.0774483690983123
40
0.0774483690983123
40
0.0882531067044234
40
0.0882531067044234
40
0.109862581916646
40
0.109862581916646
40
0.120667319522758
40
0.120667319522758
40
0.131472057128871
40
0.153081532341096
40
0.153081532341096
40
0.174691007553321
40
0.174691007553321
40
0.196300482765545
40
0.196300482765545
40
0.21790995797777
40
0.21790995797777
40
0.239519433189995
40
0.239519433189995
40
0.250324170796108
40
0.250324170796108
40
0.26112890840222
40
0.271933646008332
40
0.271933646008332
40
0.282738383614445
40
0.282738383614445
40
0.293543121220557
40
0.293543121220557
40
0.30434785882667
40
0.30434785882667
40
0.325957334038892
40
0.325957334038892
40
0.347566809251115
40
0.347566809251115
40
0.369176284463337
40
0.369176284463337
40
0.39078575967556
40
0.39078575967556
40
0.412395234887782
40
0.412395234887782
40
0.434004710100004
40
0.434004710100004
40
0.444809447706114
40
0.444809447706114
40
0.455614185312224
40
0.455614185312224
40
0.466418922918334
40
0.466418922918334
40
0.477223660524443
40
0.477223660524443
40
0.498833135736663
40
0.498833135736663
40
0.520442610948883
40
0.520442610948883
40
0.542052086161103
40
0.542052086161103
40
0.563661561373322
40
0.563661561373322
40
0.585271036585542
40
0.585271036585542
40
0.606880511797762
40
0.606880511797762
40
0.628489987009982
40
0.628489987009982
40
0.639294724616091
40
0.639294724616091
40
0.650099462222201
40
0.650099462222201
40
0.671708937434421
40
0.671708937434421
40
0.693318412646641
40
0.693318412646641
40
0.714927887858861
40
0.714927887858861
40
0.73653736307108
40
0.73653736307108
40
0.7581468382833
40
0.7581468382833
40
0.76895157588941
40
0.76895157588941
40
0.77975631349552
40
0.77975631349552
40
0.801365788707739
40
0.801365788707739
40
0.812170526313851
40
0.812170526313851
40
0.822975263919962
40
0.822975263919962
40
0.844584739132184
40
0.844584739132184
40
0.866194214344406
40
0.866194214344406
40
0.887803689556628
40
0.887803689556628
40
0.909413164768851
40
0.909413164768851
40
0.931022639981073
40
0.931022639981073
40
0.941827377587184
40
0.941827377587184
40
0.952632115193295
40
0.952632115193295
40
0.974241590405518
40
0.974241590405518
40
0.99585106561774
40
0.99585106561774
40
1
40
1
40
1
40
1
41
1
10
10.1244101123667
20
0.519212489241966
30
0
41
1
10
10.1281718864967
20
0.520821403207719
30
0
41
1
10
10.1319334532323
20
0.522425516730436
30
0
41
1
10
10.1804716616986
20
0.543065943906015
30
0
41
1
10
10.2251904585742
20
0.561469001185685
30
0
41
1
10
10.3144058209961
20
0.597112335241036
30
0
41
1
10
10.3589288795862
20
0.614314566561831
30
0
41
1
10
10.4478332975443
20
0.647379885798472
30
0
41
1
10
10.4921450519709
20
0.663317779421817
30
0
41
1
10
10.5588643020759
20
0.685758026978874
30
0
41
1
10
10.5811510090384
20
0.692990071303001
30
0
41
1
10
10.6258843751042
20
0.7068987098977
30
0
41
1
10
10.6483235615491
20
0.713584252921294
30
0
41
1
10
10.7158010800963
20
0.73290975836241
30
0
41
1
10
10.7610002333652
20
0.744822417988132
30
0
41
1
10
10.8289322965904
20
0.761403010499919
30
0
41
1
10
10.8515883435778
20
0.766713235038651
30
0
41
1
10
10.8967340855476
20
0.776845271525389
30
0
41
1
10
10.9642823967032
20
0.791327088543454
30
0
41
1
10
11.031354864557
20
0.803613912938204
30
0
41
1
10
11.1203598962715
20
0.817971433895565
30
0
41
1
10
11.1647054194538
20
0.824089576898473
30
0
41
1
10
11.2537564005464
20
0.833997405737563
30
0
41
1
10
11.2984412132607
20
0.837820378322192
30
0
41
1
10
11.3878555235552
20
0.843403298100128
30
0
41
1
10
11.4325774442611
20
0.845162234510155
30
0
41
1
10
11.5218679885769
20
0.846594984937411
30
0
41
1
10
11.5664616732143
20
0.846261281496652
30
0
41
1
10
11.6333197531514
20
0.844111805745342
30
0
41
1
10
11.655596930942
20
0.843120152489576
30
0
41
1
10
11.700130673905
20
0.840567848242017
30
0
41
1
10
11.7446559561655
20
0.83744607932519
30
0
41
1
10
11.7893538160701
20
0.833215653248033
30
0
41
1
10
11.8342164304546
20
0.82846869808921
30
0
41
1
10
11.8567357037845
20
0.825840548426982
30
0
41
1
10
11.9019169501051
20
0.820079456486837
30
0
41
1
10
11.9245908256859
20
0.816943343497485
30
0
41
1
10
11.9698403744594
20
0.81018779583809
30
0
41
1
10
11.9924404373826
20
0.806565642981127
30
0
41
1
10
12.0601197307423
20
0.794946311146532
30
0
41
1
10
12.1050551212778
20
0.786181741665672
30
0
41
1
10
12.1945615770019
20
0.766581066499725
30
0
41
1
10
12.2391525050003
20
0.755760900739261
30
0
41
1
10
12.3279716590937
20
0.731983246497236
30
0
41
1
10
12.3722020117599
20
0.719011138992812
30
0
41
1
10
12.4610053438471
20
0.691599998481507
30
0
41
1
10
12.5056178490813
20
0.677222302022926
30
0
41
1
10
12.5950284853644
20
0.646976219322227
30
0
41
1
10
12.6398195375973
20
0.631099642968593
30
0
41
1
10
12.7293358722936
20
0.597522533771269
30
0
41
1
10
12.774077073792
20
0.579835903035615
30
0
41
1
10
12.8412181601806
20
0.551964687469763
30
0
41
1
10
12.8636036852469
20
0.542451313405309
30
0
41
1
10
12.9083749070057
20
0.522948411586725
30
0
41
1
10
12.9307545833235
20
0.512948672790088
30
0
41
1
10
12.9755891574019
20
0.492572958098606
30
0
41
1
10
12.9980732801361
20
0.482188243360952
30
0
41
1
10
13.0430253833437
20
0.46127013444098
30
0
41
1
10
13.0655080648357
20
0.450746188437364
30
0
41
1
10
13.1329992049539
20
0.419029401863327
30
0
41
1
10
13.1780218167603
20
0.39764632367681
30
0
41
1
10
13.2678728365713
20
0.354010301198599
30
0
41
1
10
13.3126796942249
20
0.331719366266327
30
0
41
1
10
13.4019877142479
20
0.286063030150075
30
0
41
1
10
13.44651392183
20
0.262740649913383
30
0
41
1
10
13.5353148500276
20
0.215093776401858
30
0
41
1
10
13.5795330130348
20
0.190664133569584
30
0
41
1
10
13.6682720830229
20
0.141787046431887
30
0
41
1
10
13.7128624505095
20
0.117471170315468
30
0
41
1
10
13.8024062115566
20
0.0689753607621526
30
0
41
1
10
13.8473302049122
20
0.0447419262267772
30
0
41
1
10
13.9372312575119
20
-0.0041733188576245
30
0
41
1
10
13.9822031349443
20
-0.0288671709492689
30
0
41
1
10
14.0497491101224
20
-0.0661780013264774
30
0
41
1
10
14.0723073731687
20
-0.0786715931430138
30
0
41
1
10
14.1173051478099
20
-0.103673070598291
30
0
41
1
10
14.13972945559
20
-0.116190996811213
30
0
41
1
10
14.2068417314092
20
-0.153668947050591
30
0
41
1
10
14.2514080284521
20
-0.178472827882246
30
0
41
1
10
14.340834051218
20
-0.22657564050445
30
0
41
1
10
14.3856469301748
20
-0.24997127681911
30
0
41
1
10
14.4752067450368
20
-0.295981182737051
30
0
41
1
10
14.5199410951311
20
-0.318616034426526
30
0
41
1
10
14.6091693485116
20
-0.363386412104717
30
0
41
1
10
14.6536896439189
20
-0.385475172191974
30
0
41
1
10
14.7425849106826
20
-0.428952194695455
30
0
41
1
10
14.7868869408357
20
-0.450453131416879
30
0
41
1
10
14.8535150900143
20
-0.481700328779851
30
0
41
1
10
14.8757606519393
20
-0.491938743901727
30
0
41
1
10
14.9204019916315
20
-0.511948322481345
30
0
41
1
10
14.9427966046592
20
-0.521721945439623
30
0
41
1
10
15.0101450732675
20
-0.550446009718826
30
0
41
1
10
15.0552621169492
20
-0.568804617760776
30
0
41
1
10
15.1230773906645
20
-0.595426067192022
30
0
41
1
10
15.1457283444073
20
-0.60415972150642
30
0
41
1
10
15.1909316768114
20
-0.62127543689499
30
0
41
1
10
15.2134741989322
20
-0.629650809859413
30
0
41
1
10
15.280936122587
20
-0.65420607797833
30
0
41
1
10
15.3256989015008
20
-0.669806411200398
30
0
41
1
10
15.4147648410012
20
-0.69944276139546
30
0
41
1
10
15.4590999479198
20
-0.71342481979724
30
0
41
1
10
15.5480728997694
20
-0.739064494854148
30
0
41
1
10
15.5927277656735
20
-0.750730113408167
30
0
41
1
10
15.682103530631
20
-0.772119860127134
30
0
41
1
10
15.7268204577323
20
-0.781845627554873
30
0
41
1
10
15.8160938119279
20
-0.799493552280836
30
0
41
1
10
15.8606713967821
20
-0.807394953461824
30
0
41
1
10
15.9274983272734
20
-0.817768951837564
30
0
41
1
10
15.9497663093442
20
-0.820981339615912
30
0
41
1
10
15.9942759020532
20
-0.826904574186273
30
0
41
1
10
16.0165164963285
20
-0.829614514663376
30
0
41
1
10
16.0833362399094
20
-0.83691743209431
30
0
41
1
10
16.1280543248509
20
-0.84066466460277
30
0
41
1
10
16.2182086294266
20
-0.845909947657788
30
0
41
1
10
16.26361971467
20
-0.84743578968488
30
0
41
1
10
16.31744604958
20
-0.847987020576312
30
0
41
1
10
16.3261093166209
20
-0.848036706218494
30
0
41
1
10
16.3347658673664
20
-0.848047149623113
30
0
0
SPLINE
5
C5
100
AcDbEntity
8
1
62
256
6
ByLayer
370
18
48
1
60
0
100
AcDbSpline
70
4
71
3
72
32
73
28
40
0
40
0
40
0
40
0
40
0.0222624435007614
40
0.0222624435007614
40
0.0974730247699328
40
0.0974730247699328
40
0.172683606039104
40
0.172683606039104
40
0.247894187308277
40
0.247894187308277
40
0.323104768577448
40
0.323104768577448
40
0.39831534984662
40
0.39831534984662
40
0.473525931115791
40
0.473525931115791
40
0.548736512384963
40
0.548736512384963
40
0.623947093654134
40
0.623947093654134
40
0.699157674923306
40
0.699157674923306
40
0.774368256192477
40
0.774368256192477
40
0.849578837461649
40
0.849578837461649
40
1
40
1
40
1
40
1
41
1
10
19.7566742982141
20
0.521116295220423
30
0
41
1
10
19.7698225664524
20
0.526987063937412
30
0
41
1
10
19.7829714899259
20
0.532784736742173
30
0
41
1
10
19.8405853770481
20
0.557790581126341
30
0
41
1
10
19.8851984475391
20
0.576052207673399
30
0
41
1
10
19.9745252257087
20
0.610917819858969
30
0
41
1
10
20.0192299502028
20
0.627533858069398
30
0
41
1
10
20.1084779410272
20
0.659428679312668
30
0
41
1
10
20.153034578899
20
0.674685509452502
30
0
41
1
10
20.2420812330504
20
0.703672032014282
30
0
41
1
10
20.2865364076601
20
0.71743719489379
30
0
41
1
10
20.3755000527382
20
0.743228911948563
30
0
41
1
10
20.420098279487
20
0.755161820035141
30
0
41
1
10
20.5100413477003
20
0.776711404952806
30
0
41
1
10
20.5554118772132
20
0.786420429647677
30
0
41
1
10
20.6458150081695
20
0.803785625246462
30
0
41
1
10
20.6908657883784
20
0.811464483573786
30
0
41
1
10
20.7805799190731
20
0.824834070291587
30
0
41
1
10
20.8252692062268
20
0.830508997979905
30
0
41
1
10
20.9143221605805
20
0.839763557500191
30
0
41
1
10
20.9586227965764
20
0.843347243584958
30
0
41
1
10
21.0474288313137
20
0.848237889365038
30
0
41
1
10
21.092008539869
20
0.849550635091731
30
0
41
1
10
21.1814787904041
20
0.850064729564451
30
0
41
1
10
21.226334846264
20
0.849272162235707
30
0
41
1
10
21.360884128785
20
0.843718241218255
30
0
41
1
10
21.4505385677554
20
0.835762845302213
30
0
41
1
10
21.5403416264443
20
0.823096169320735
30
0
0
SPLINE
5
C6
100
AcDbEntity
8
1
62
256
6
ByLayer
370
18
48
1
60
0
100
AcDbSpline
70
4
71
3
72
95
73
91
40
0
40
0
40
0
40
0
40
0.0148480574530625
40
0.0148480574530625
40
0.0364295501065999
40
0.0364295501065999
40
0.0580110427601374
40
0.0580110427601374
40
0.0795925354136749
40
0.0795925354136749
40
0.101174028067212
40
0.101174028067212
40
0.12275552072075
40
0.12275552072075
40
0.144337013374287
40
0.144337013374287
40
0.18749999868136
40
0.18749999868136
40
0.209081491334895
40
0.209081491334895
40
0.230662983988429
40
0.230662983988429
40
0.252244476641964
40
0.252244476641964
40
0.273825969295499
40
0.273825969295499
40
0.295407461949034
40
0.295407461949034
40
0.316988954602569
40
0.316988954602569
40
0.360151939909639
40
0.360151939909639
40
0.381733432563175
40
0.381733432563175
40
0.403314925216711
40
0.403314925216711
40
0.414105671543478
40
0.414105671543478
40
0.424896417870245
40
0.446477910523779
40
0.446477910523779
40
0.489640895830848
40
0.489640895830848
40
0.511222388484382
40
0.511222388484382
40
0.532803881137916
40
0.532803881137916
40
0.554385373791449
40
0.554385373791449
40
0.575966866444983
40
0.575966866444983
40
0.597548359098517
40
0.597548359098517
40
0.61912985175205
40
0.61912985175205
40
0.662292837059117
40
0.662292837059117
40
0.68387432971265
40
0.68387432971265
40
0.705455822366182
40
0.705455822366182
40
0.727037315019715
40
0.727037315019715
40
0.748618807673247
40
0.748618807673247
40
0.77020030032678
40
0.77020030032678
40
0.791781792980312
40
0.791781792980312
40
0.813363285633844
40
0.813363285633844
40
0.834944778287377
40
0.834944778287377
40
0.845735524614144
40
0.845735524614144
40
0.856526270940912
40
0.856526270940912
40
0.878107763594449
40
0.878107763594449
40
0.899689256247987
40
0.899689256247987
40
0.921270748901524
40
0.921270748901524
40
0.942852241555062
40
0.942852241555062
40
0.964433734208599
40
0.964433734208599
40
0.986015226862137
40
0.986015226862137
40
1
40
1
40
1
40
1
41
1
10
19.7571754305329
20
-0.520486476132305
30
0
41
1
10
19.72660881669
20
-0.533979691098125
30
0
41
1
10
19.6960407953532
20
-0.547202269484188
30
0
41
1
10
19.6208638400571
20
-0.57871912115931
30
0
41
1
10
19.5761556385299
20
-0.596575914647872
30
0
41
1
10
19.4864835563056
20
-0.630792961590885
30
0
41
1
10
19.4415063972188
20
-0.647133414277135
30
0
41
1
10
19.351198587996
20
-0.678176974784492
30
0
41
1
10
19.3061705938473
20
-0.692777779622276
30
0
41
1
10
19.2164740786603
20
-0.720218236595343
30
0
41
1
10
19.1718119574285
20
-0.733070867144903
30
0
41
1
10
19.0827838207655
20
-0.75693050404189
30
0
41
1
10
19.0383705376218
20
-0.767888424995249
30
0
41
1
10
18.949407344592
20
-0.78764181602827
30
0
41
1
10
18.9049259336799
20
-0.796495968130046
30
0
41
1
10
18.7714367817083
20
-0.820008009721278
30
0
41
1
10
18.6822847094196
20
-0.83159684837463
30
0
41
1
10
18.5485237438008
20
-0.842801505711719
30
0
41
1
10
18.503959979692
20
-0.845497274107117
30
0
41
1
10
18.414566321841
20
-0.848678138788387
30
0
41
1
10
18.3696581880941
20
-0.849163382227317
30
0
41
1
10
18.2794769245908
20
-0.847945630512868
30
0
41
1
10
18.2344368586074
20
-0.846240168243668
30
0
41
1
10
18.1446436291655
20
-0.840711030123401
30
0
41
1
10
18.0998426089689
20
-0.836891147304868
30
0
41
1
10
18.0104770488056
20
-0.827150406148633
30
0
41
1
10
17.9659281058749
20
-0.821221839149416
30
0
41
1
10
17.8770737224561
20
-0.807216935675086
30
0
41
1
10
17.8327680067501
20
-0.799129496502502
30
0
41
1
10
17.6995013066179
20
-0.772077928039408
30
0
41
1
10
17.6104788516578
20
-0.750186208732629
30
0
41
1
10
17.4764659899768
20
-0.711830503011925
30
0
41
1
10
17.4317160518517
20
-0.69812460703028
30
0
41
1
10
17.3421252632195
20
-0.668746967868202
30
0
41
1
10
17.2973013667039
20
-0.653049470436457
30
0
41
1
10
17.2298784427729
20
-0.628092595650742
30
0
41
1
10
17.2073687926024
20
-0.619554792550503
30
0
41
1
10
17.1623636029462
20
-0.602181830536438
30
0
41
1
10
17.094840079637
20
-0.575628155463761
30
0
41
1
10
17.027352005167
20
-0.547507117072144
30
0
41
1
10
16.8923309504148
20
-0.489329643660454
30
0
41
1
10
16.8022012098909
20
-0.44807459210881
30
0
41
1
10
16.6670888533543
20
-0.381957028175208
30
0
41
1
10
16.6222474564488
20
-0.359257366532546
30
0
41
1
10
16.53267710039
20
-0.313485177505044
30
0
41
1
10
16.4879334838005
20
-0.290367674007257
30
0
41
1
10
16.3985864233325
20
-0.243579544221831
30
0
41
1
10
16.3539692443152
20
-0.219932861030003
30
0
41
1
10
16.2647810942485
20
-0.172258705029407
30
0
41
1
10
16.2202120795101
20
-0.148228209339123
30
0
41
1
10
16.1311959025062
20
-0.0996482729670163
30
0
41
1
10
16.0867618691858
20
-0.0750742330579328
30
0
41
1
10
15.9979403870191
20
-0.0255349378930134
30
0
41
1
10
15.9534868270448
20
-0.00069124706107
30
0
41
1
10
15.8196110917318
20
0.0733360882698548
30
0
41
1
10
15.7299143019752
20
0.122461021638458
30
0
41
1
10
15.5944356149814
20
0.195321130642753
30
0
41
1
10
15.5493834676132
20
0.219373071737237
30
0
41
1
10
15.459755856406
20
0.266987227262348
30
0
41
1
10
15.4151685212682
20
0.290601505927981
30
0
41
1
10
15.3260719002493
20
0.336773802010782
30
0
41
1
10
15.2815064281818
20
0.359240860398529
30
0
41
1
10
15.1924289134399
20
0.403125631038563
30
0
41
1
10
15.1479084260093
20
0.424526949013313
30
0
41
1
10
15.0588312451644
20
0.466145041627556
30
0
41
1
10
15.0142710613275
20
0.486358170226794
30
0
41
1
10
14.9251650964257
20
0.525673709440667
30
0
41
1
10
14.8806337633245
20
0.54479619055391
30
0
41
1
10
14.7915671373596
20
0.581859929145196
30
0
41
1
10
14.7470157591386
20
0.599772840843428
30
0
41
1
10
14.6574439488279
20
0.633776232825738
30
0
41
1
10
14.6124922247464
20
0.649963119848053
30
0
41
1
10
14.5448134383213
20
0.673015146393794
30
0
41
1
10
14.5222300915805
20
0.680484457129353
30
0
41
1
10
14.4771721499657
20
0.694931082490484
30
0
41
1
10
14.4546736843225
20
0.701916760344346
30
0
41
1
10
14.3872707905456
20
0.722171182930111
30
0
41
1
10
14.3424608587706
20
0.73474263684335
30
0
41
1
10
14.2531582445184
20
0.758079220527463
30
0
41
1
10
14.208686113034
20
0.768854343060354
30
0
41
1
10
14.1198542260364
20
0.788387220193528
30
0
41
1
10
14.0754034947037
20
0.797084795384507
30
0
41
1
10
13.9864285066809
20
0.812403520739565
30
0
41
1
10
13.9419203175329
20
0.819032289081264
30
0
41
1
10
13.8527975575608
20
0.8302139652927
30
0
41
1
10
13.8081739818836
20
0.834765552507349
30
0
41
1
10
13.7188342990976
20
0.841789242640658
30
0
41
1
10
13.6741330516154
20
0.844264811837263
30
0
41
1
10
13.6004132337382
20
0.846567636297323
30
0
41
1
10
13.5714188751113
20
0.847015249179719
30
0
41
1
10
13.5423507393673
20
0.84699888221914
30
0
0
SPLINE
5
C7
100
AcDbEntity
8
1
62
256
6
ByLayer
370
18
48
1
60
0
100
AcDbSpline
70
4
71
3
72
84
73
80
40
0
40
0
40
0
40
0
40
0.0204767167191354
40
0.0204767167191354
40
0.0437986996543944
40
0.0437986996543944
40
0.0671206825896531
40
0.0671206825896531
40
0.113764648460172
40
0.113764648460172
40
0.137086631395432
40
0.137086631395432
40
0.160408614330691
40
0.160408614330691
40
0.183730597265951
40
0.183730597265951
40
0.20705258020121
40
0.20705258020121
40
0.23037456313647
40
0.23037456313647
40
0.253696546071729
40
0.253696546071729
40
0.277018529006989
40
0.277018529006989
40
0.300340511942249
40
0.300340511942249
40
0.346984477812766
40
0.346984477812766
40
0.370306460748025
40
0.370306460748025
40
0.393628443683284
40
0.393628443683284
40
0.416950426618543
40
0.416950426618543
40
0.440272409553802
40
0.440272409553802
40
0.46359439248906
40
0.46359439248906
40
0.486916375424319
40
0.486916375424319
40
0.533560341294836
40
0.533560341294836
40
0.556882324230094
40
0.556882324230094
40
0.580204307165352
40
0.580204307165352
40
0.626848273035869
40
0.626848273035869
40
0.650170255971127
40
0.650170255971127
40
0.673492238906385
40
0.673492238906385
40
0.696814221841643
40
0.696814221841643
40
0.720136204776901
40
0.720136204776901
40
0.74345818771216
40
0.74345818771216
40
0.766780170647418
40
0.766780170647418
40
0.790102153582676
40
0.790102153582676
40
0.813424136517934
40
0.813424136517934
40
0.836746119453193
40
0.836746119453193
40
0.860068102388451
40
0.860068102388451
40
0.883390085323709
40
0.883390085323709
40
0.906712068258967
40
0.906712068258967
40
0.930034051194225
40
0.930034051194225
40
0.953356034129484
40
0.953356034129484
40
0.976678017064742
40
0.976678017064742
40
1
40
1
40
1
40
1
41
1
10
10.1247031987026
20
-0.517194339242224
30
0
41
1
10
10.0852011420516
20
-0.534303552535903
30
0
41
1
10
10.0457993176555
20
-0.550863647303203
30
0
41
1
10
9.96178558946559
20
-0.585187511019768
30
0
41
1
10
9.91722707450032
20
-0.60281665538318
30
0
41
1
10
9.82829846880969
20
-0.636526729809475
30
0
41
1
10
9.783839982936
20
-0.652496780625341
30
0
41
1
10
9.65031280339659
20
-0.697630698397745
30
0
41
1
10
9.5612195388313
20
-0.724178918993118
30
0
41
1
10
9.42724382622754
20
-0.758505284502917
30
0
41
1
10
9.38255360652587
20
-0.76905193358013
30
0
41
1
10
9.2931382416478
20
-0.788312351131339
30
0
41
1
10
9.24843400450703
20
-0.797030316371462
30
0
41
1
10
9.15857952336037
20
-0.812297806873602
30
0
41
1
10
9.11335474545078
20
-0.818859035926835
30
0
41
1
10
9.02334397374199
20
-0.829790700543271
30
0
41
1
10
8.97845293055678
20
-0.834169920274235
30
0
41
1
10
8.88882626024713
20
-0.840786626676135
30
0
41
1
10
8.84409078350726
20
-0.843027883857843
30
0
41
1
10
8.75484337771974
20
-0.845393206004729
30
0
41
1
10
8.71034444180717
20
-0.845514376743921
30
0
41
1
10
8.62151583142179
20
-0.843580220275982
30
0
41
1
10
8.57713394766455
20
-0.841522370622442
30
0
41
1
10
8.48812139743688
20
-0.835317580979961
30
0
41
1
10
8.44355725735528
20
-0.831162694830368
30
0
41
1
10
8.30964453625575
20
-0.81557800230496
30
0
41
1
10
8.21998242142948
20
-0.801109521324378
30
0
41
1
10
8.08510124664107
20
-0.772908893332357
30
0
41
1
10
8.04003421617415
20
-0.762364977522083
30
0
41
1
10
7.9500705950521
20
-0.739377757236383
30
0
41
1
10
7.90504995997128
20
-0.727000314158545
30
0
41
1
10
7.81500699007114
20
-0.700467125618815
30
0
41
1
10
7.76998124636629
20
-0.686311277413523
30
0
41
1
10
7.67984653676081
20
-0.656317455117289
30
0
41
1
10
7.63473279974508
20
-0.640487639545398
30
0
41
1
10
7.54446804696167
20
-0.607081901996196
30
0
41
1
10
7.49927599503144
20
-0.589458957192818
30
0
41
1
10
7.40944058630191
20
-0.552667700104848
30
0
41
1
10
7.36472205210356
20
-0.533492675059733
30
0
41
1
10
7.23050352244599
20
-0.474642068743947
30
0
41
1
10
7.14123985503133
20
-0.433214915520011
30
0
41
1
10
7.00742467096688
20
-0.368269271017283
30
0
41
1
10
6.96283920404471
20
-0.346142962933214
30
0
41
1
10
6.87377550859159
20
-0.30080554571569
30
0
41
1
10
6.82931667095477
20
-0.277557882559336
30
0
41
1
10
6.69581428883328
20
-0.206639072751159
30
0
41
1
10
6.60627879621023
20
-0.158462682098531
30
0
41
1
10
6.47109322326671
20
-0.0850373751651716
30
0
41
1
10
6.42580443884574
20
-0.0603719974560306
30
0
41
1
10
6.33551467228651
20
-0.0109870595088069
30
0
41
1
10
6.2904703541798
20
0.0137932566493078
30
0
41
1
10
6.20058828686777
20
0.0635352069825785
30
0
41
1
10
6.15576510692313
20
0.0885221982059363
30
0
41
1
10
6.06584868119737
20
0.137809958871003
30
0
41
1
10
6.02079476857688
20
0.162183228061451
30
0
41
1
10
5.93054401938727
20
0.210478476308253
30
0
41
1
10
5.88528513576463
20
0.234397701432783
30
0
41
1
10
5.79514951268953
20
0.281308955217384
30
0
41
1
10
5.75020726183629
20
0.304347706335449
30
0
41
1
10
5.66064372575514
20
0.349720766799209
30
0
41
1
10
5.6160380439915
20
0.37207885490298
30
0
41
1
10
5.52703506746042
20
0.415870050512638
30
0
41
1
10
5.48255868729234
20
0.437171836379946
30
0
41
1
10
5.39347204469456
20
0.478331556691074
30
0
41
1
10
5.34890283276349
20
0.498256820378288
30
0
41
1
10
5.2597450885535
20
0.536856236229823
30
0
41
1
10
5.21516013525229
20
0.555533270853346
30
0
41
1
10
5.12585744784093
20
0.591462065808969
30
0
41
1
10
5.08113572172047
20
0.608710293390203
30
0
41
1
10
4.99155200270576
20
0.641756835178398
30
0
41
1
10
4.946709482242
20
0.657577804784353
30
0
41
1
10
4.85678195443299
20
0.687600910792895
30
0
41
1
10
4.8116189460674
20
0.70178369932637
30
0
41
1
10
4.7214020767868
20
0.728099307343115
30
0
41
1
10
4.67630261460496
20
0.740275696343872
30
0
41
1
10
4.58607871478222
20
0.762662157487483
30
0
41
1
10
4.54095534355591
20
0.772875859439552
30
0
41
1
10
4.45075865032109
20
0.791381934238274
30
0
41
1
10
4.40568620798896
20
0.799677110332055
30
0
41
1
10
4.3607144095993
20
0.807002473999859
30
0
0
SPLINE
5
C8
100
AcDbEntity
8
1
62
256
6
ByLayer
370
18
48
1
60
0
100
AcDbSpline
70
4
71
3
72
8
73
4
40
0
40
0
40
0
40
0
40
1
40
1
40
1
40
1
41
1
10
4.3607144095993
20
0.807002473999944
30
0
41
1
10
4.14533539467743
20
0.82838117994612
30
0
41
1
10
3.93345442871367
20
0.842463460073304
30
0
41
1
10
3.72370402128615
20
0.843274231711803
30
0
0
SPLINE
5
C9
100
AcDbEntity
8
1
62
256
6
ByLayer
370
18
48
1
60
0
100
AcDbSpline
70
4
71
3
72
111
73
107
40
0
40
0
40
0
40
0
40
0.0205352525196943
40
0.0205352525196943
40
0.0313432584406126
40
0.0313432584406126
40
0.0421512643615308
40
0.0421512643615308
40
0.0637672762033685
40
0.0637672762033685
40
0.0853832880452062
40
0.0853832880452062
40
0.106999299887044
40
0.106999299887044
40
0.128615311728882
40
0.128615311728882
40
0.150231323570719
40
0.150231323570719
40
0.171847335412557
40
0.171847335412557
40
0.182655341333476
40
0.182655341333476
40
0.193463347254395
40
0.193463347254395
40
0.236695370938069
40
0.236695370938069
40
0.258311382779906
40
0.258311382779906
40
0.279927394621743
40
0.279927394621743
40
0.30154340646358
40
0.30154340646358
40
0.323159418305417
40
0.323159418305417
40
0.344775430147254
40
0.344775430147254
40
0.355583436068173
40
0.355583436068173
40
0.366391441989093
40
0.366391441989093
40
0.388007453830931
40
0.388007453830931
40
0.409623465672769
40
0.409623465672769
40
0.431239477514608
40
0.431239477514608
40
0.452855489356446
40
0.452855489356446
40
0.474471501198284
40
0.474471501198284
40
0.496087513040123
40
0.496087513040123
40
0.517703524881961
40
0.517703524881961
40
0.52851153080288
40
0.52851153080288
40
0.5393195367238
40
0.5393195367238
40
0.55012754264472
40
0.55012754264472
40
0.56093554856564
40
0.56093554856564
40
0.582551560407479
40
0.582551560407479
40
0.625783584091159
40
0.625783584091159
40
0.647399595932999
40
0.647399595932999
40
0.669015607774839
40
0.669015607774839
40
0.69063161961668
40
0.69063161961668
40
0.71224763145852
40
0.71224763145852
40
0.723055637379441
40
0.723055637379441
40
0.733863643300361
40
0.733863643300361
40
0.755479655142201
40
0.755479655142201
40
0.777095666984042
40
0.777095666984042
40
0.798711678825882
40
0.798711678825882
40
0.820327690667722
40
0.820327690667722
40
0.841943702509563
40
0.841943702509563
40
0.852751708430483
40
0.852751708430483
40
0.863559714351403
40
0.863559714351403
40
0.885175726193246
40
0.885175726193246
40
0.895983732114168
40
0.895983732114168
40
0.906791738035091
40
0.928407749876936
40
0.928407749876936
40
0.950023761718782
40
0.950023761718782
40
0.971639773560627
40
0.971639773560627
40
0.993255785402473
40
0.993255785402473
40
1
40
1
40
1
40
1
41
1
10
5.30741117929011
20
0.517289864413868
30
0
41
1
10
5.3502396944192
20
0.535702276888259
30
0
41
1
10
5.39314194835532
20
0.553700539692557
30
0
41
1
10
5.45856973221478
20
0.580343304357086
30
0
41
1
10
5.48107005734184
20
0.589359629914327
30
0
41
1
10
5.52593695521298
20
0.607059147974695
30
0
41
1
10
5.54829752800998
20
0.615749248601816
30
0
41
1
10
5.61528960938713
20
0.641162225483669
30
0
41
1
10
5.65986795736708
20
0.657175039296675
30
0
41
1
10
5.74934465649372
20
0.686900405172963
30
0
41
1
10
5.79417135448296
20
0.70071211608257
30
0
41
1
10
5.88374312172957
20
0.726587631791148
30
0
41
1
10
5.92846689315496
20
0.73866792638097
30
0
41
1
10
6.01771834866136
20
0.761128233255903
30
0
41
1
10
6.06227147674943
20
0.771484853952444
30
0
41
1
10
6.15124241491446
20
0.79035662113597
30
0
41
1
10
6.19560216211971
20
0.798896798492422
30
0
41
1
10
6.28473396823816
20
0.813727134264127
30
0
41
1
10
6.32957622455797
20
0.819996103910682
30
0
41
1
10
6.39719698038229
20
0.827792780900865
30
0
41
1
10
6.41978928498699
20
0.830126565834235
30
0
41
1
10
6.46504675362166
20
0.834276620292314
30
0
41
1
10
6.48773531772093
20
0.836094456667041
30
0
41
1
10
6.60098862623818
20
0.843869868164973
30
0
41
1
10
6.69066943789642
20
0.845877580683037
30
0
41
1
10
6.82405814590857
20
0.842184797887938
30
0
41
1
10
6.86840569266261
20
0.839825351436332
30
0
41
1
10
6.95750854759416
20
0.833076357243101
30
0
41
1
10
7.00221701618995
20
0.82869874529905
30
0
41
1
10
7.09167715895163
20
0.817950352293792
30
0
41
1
10
7.13641645719426
20
0.811571241120873
30
0
41
1
10
7.22576352264824
20
0.796677107924268
30
0
41
1
10
7.27039788235842
20
0.788172304514973
30
0
41
1
10
7.35963548659004
20
0.768975601860234
30
0
41
1
10
7.40416634405909
20
0.758217700567826
30
0
41
1
10
7.4712255333695
20
0.740594512123351
30
0
41
1
10
7.49362935140681
20
0.734480728060021
30
0
41
1
10
7.53861547729872
20
0.721861039144784
30
0
41
1
10
7.56120369102609
20
0.715352625849164
30
0
41
1
10
7.62912413321439
20
0.695217543061972
30
0
41
1
10
7.67435969678422
20
0.681060261232091
30
0
41
1
10
7.76449853864364
20
0.651048008916945
30
0
41
1
10
7.80938099372139
20
0.635163286349723
30
0
41
1
10
7.89880519072938
20
0.601645700290817
30
0
41
1
10
7.94336029795653
20
0.584031180104375
30
0
41
1
10
8.03212190262954
20
0.546992374314016
30
0
41
1
10
8.07636169986793
20
0.527602292861644
30
0
41
1
10
8.16525156651912
20
0.48810818021974
30
0
41
1
10
8.20991781486671
20
0.468043838961108
30
0
41
1
10
8.29941866620905
20
0.426935562041706
30
0
41
1
10
8.34424913046206
20
0.405884185167139
30
0
41
1
10
8.43385477669673
20
0.362409451339801
30
0
41
1
10
8.47865147303892
20
0.340017705545932
30
0
41
1
10
8.54589001586439
20
0.305488020792779
30
0
41
1
10
8.56830891246216
20
0.293819093373116
30
0
41
1
10
8.6131487038495
20
0.270132796064274
30
0
41
1
10
8.63556981349348
20
0.258114860980982
30
0
41
1
10
8.68050820198602
20
0.233895766468635
30
0
41
1
10
8.70298750811739
20
0.221717557687413
30
0
41
1
10
8.74792144220979
20
0.197444393859541
30
0
41
1
10
8.77040351909872
20
0.185354636170104
30
0
41
1
10
8.83787688854073
20
0.149188780773045
30
0
41
1
10
8.88287968974112
20
0.125186156789766
30
0
41
1
10
9.01757766249381
20
0.0527948222865291
30
0
41
1
10
9.10683728681562
20
0.0037889828367383
30
0
41
1
10
9.23999800648389
20
-0.0706616854102435
30
0
41
1
10
9.28422609043503
20
-0.0957033222496761
30
0
41
1
10
9.37307054406114
20
-0.144931430413237
30
0
41
1
10
9.41774331943719
20
-0.169015454401801
30
0
41
1
10
9.50741890473392
20
-0.216446215107993
30
0
41
1
10
9.55240544069042
20
-0.239822924100196
30
0
41
1
10
9.64242630909285
20
-0.286353219806699
30
0
41
1
10
9.68746820053599
20
-0.309492493338667
30
0
41
1
10
9.75513522076454
20
-0.343903038788596
30
0
41
1
10
9.77769389466229
20
-0.355313154682023
30
0
41
1
10
9.82262729957037
20
-0.377935865469709
30
0
41
1
10
9.84501899032995
20
-0.389174412497539
30
0
41
1
10
9.91207121269608
20
-0.422487895837918
30
0
41
1
10
9.95664521746906
20
-0.444092372261054
30
0
41
1
10
10.0461005844771
20
-0.485282201571266
30
0
41
1
10
10.0909178095317
20
-0.50498399110333
30
0
41
1
10
10.1804716616987
20
-0.543065943906015
30
0
41
1
10
10.2251904585742
20
-0.561469001185685
30
0
41
1
10
10.3144058209961
20
-0.597112335241036
30
0
41
1
10
10.3589288795862
20
-0.614314566561831
30
0
41
1
10
10.4478332975443
20
-0.647379885798472
30
0
41
1
10
10.4921450519709
20
-0.663317779421817
30
0
41
1
10
10.5588643020759
20
-0.685758026978874
30
0
41
1
10
10.5811510090384
20
-0.692990071303001
30
0
41
1
10
10.6258843751042
20
-0.7068987098977
30
0
41
1
10
10.6483235615491
20
-0.713584252921294
30
0
41
1
10
10.7158010800963
20
-0.732909758362439
30
0
41
1
10
10.7610002333652
20
-0.744822417988132
30
0
41
1
10
10.8289322965904
20
-0.761403010499919
30
0
41
1
10
10.8515883435778
20
-0.766713235038651
30
0
41
1
10
10.8967340855476
20
-0.776845271525389
30
0
41
1
10
10.9642823967032
20
-0.791327088543454
30
0
41
1
10
11.031354864557
20
-0.803613912938204
30
0
41
1
10
11.1203598962715
20
-0.817971433895565
30
0
41
1
10
11.1647054194538
20
-0.824089576898473
30
0
41
1
10
11.2537564005464
20
-0.833997405737563
30
0
41
1
10
11.2984412132607
20
-0.837820378322192
30
0
41
1
10
11.3878555235552
20
-0.843403298100128
30
0
41
1
10
11.4325774442611
20
-0.845162234510155
30
0
41
1
10
11.4911520803739
20
-0.846102119416912
30
0
41
1
10
11.505076422565
20
-0.846223409680476
30
0
41
1
10
11.5189966528089
20
-0.846240986179765
30
0
0
SPLINE
5
CA
100
AcDbEntity
8
1
62
256
6
ByLayer
370
18
48
1
60
0
100
AcDbSpline
70
4
71
3
72
111
73
107
40
0
40
0
40
0
40
0
40
0.0040608654342327
40
0.0040608654342327
40
0.0256610048681916
40
0.0256610048681916
40
0.0364610745851708
40
0.0364610745851708
40
0.0472611443021503
40
0.0472611443021503
40
0.0688612837361093
40
0.0688612837361093
40
0.0904614231700679
40
0.0904614231700679
40
0.112061562604027
40
0.112061562604027
40
0.133661702037986
40
0.133661702037986
40
0.155261841471944
40
0.155261841471944
40
0.166061911188924
40
0.166061911188924
40
0.176861980905903
40
0.176861980905903
40
0.198462120339862
40
0.198462120339862
40
0.220062259773821
40
0.220062259773821
40
0.241662399207779
40
0.241662399207779
40
0.263262538641738
40
0.263262538641738
40
0.284862678075697
40
0.284862678075697
40
0.306462817509656
40
0.306462817509656
40
0.328062956943615
40
0.328062956943615
40
0.349663096377573
40
0.349663096377573
40
0.371263235811532
40
0.371263235811532
40
0.392863375245491
40
0.392863375245491
40
0.41446351467945
40
0.41446351467945
40
0.436063654113409
40
0.436063654113409
40
0.457663793547367
40
0.457663793547367
40
0.479263932981326
40
0.479263932981326
40
0.490064002698306
40
0.490064002698306
40
0.500864072415285
40
0.500864072415285
40
0.522464211849244
40
0.522464211849244
40
0.544064351283203
40
0.544064351283203
40
0.565664490717161
40
0.565664490717161
40
0.58726463015112
40
0.58726463015112
40
0.608864769585079
40
0.608864769585079
40
0.630464909019038
40
0.630464909019038
40
0.652065048452997
40
0.652065048452997
40
0.662865118169976
40
0.662865118169976
40
0.673665187886955
40
0.684465257603935
40
0.684465257603935
40
0.695265327320914
40
0.695265327320914
40
0.716865466754875
40
0.716865466754875
40
0.738465606188837
40
0.738465606188837
40
0.760065745622798
40
0.760065745622798
40
0.781665885056759
40
0.781665885056759
40
0.80326602449072
40
0.80326602449072
40
0.824866163924682
40
0.824866163924682
40
0.846466303358643
40
0.846466303358643
40
0.868066442792604
40
0.868066442792604
40
0.889666582226566
40
0.889666582226566
40
0.911266721660527
40
0.911266721660527
40
0.932866861094488
40
0.932866861094488
40
0.954467000528449
40
0.954467000528449
40
0.97606713996241
40
0.97606713996241
40
0.997667279396372
40
0.997667279396372
40
1
40
1
40
1
40
1
41
1
10
14.9399471140984
20
0.520410192185636
30
0
41
1
10
14.9483716733838
20
0.524068273386661
30
0
41
1
10
14.956805004604
20
0.527696516039072
30
0
41
1
10
15.0101450732675
20
0.550446009718826
30
0
41
1
10
15.0552621169492
20
0.568804617760776
30
0
41
1
10
15.1230773906645
20
0.595426067192022
30
0
41
1
10
15.1457283444073
20
0.604159721506448
30
0
41
1
10
15.1909316768114
20
0.62127543689499
30
0
41
1
10
15.2134741989322
20
0.629650809859413
30
0
41
1
10
15.280936122587
20
0.65420607797833
30
0
41
1
10
15.3256989015008
20
0.669806411200398
30
0
41
1
10
15.4147648410012
20
0.699442761395488
30
0
41
1
10
15.4590999479198
20
0.71342481979724
30
0
41
1
10
15.5480728997694
20
0.739064494854148
30
0
41
1
10
15.5927277656735
20
0.750730113408167
30
0
41
1
10
15.682103530631
20
0.772119860127134
30
0
41
1
10
15.7268204577323
20
0.781845627554873
30
0
41
1
10
15.8160938119279
20
0.799493552280836
30
0
41
1
10
15.8606713967821
20
0.807394953461824
30
0
41
1
10
15.9274983272734
20
0.817768951837564
30
0
41
1
10
15.9497663093442
20
0.820981339615912
30
0
41
1
10
15.9942759020533
20
0.826904574186273
30
0
41
1
10
16.0165164963285
20
0.829614514663376
30
0
41
1
10
16.0833362399094
20
0.83691743209431
30
0
41
1
10
16.1280543248509
20
0.84066466460277
30
0
41
1
10
16.2182086294267
20
0.845909947657788
30
0
41
1
10
16.2636197146701
20
0.84743578968488
30
0
41
1
10
16.3539326546623
20
0.848360676777844
30
0
41
1
10
16.3989101385816
20
0.847762375362635
30
0
41
1
10
16.4884736694852
20
0.844404569218398
30
0
41
1
10
16.5330829514403
20
0.841647582788283
30
0
41
1
10
16.6219422969851
20
0.833902530535681
30
0
41
1
10
16.6661560468765
20
0.828885066956957
30
0
41
1
10
16.7548586722058
20
0.816832269875221
30
0
41
1
10
16.7994059482198
20
0.809845814234194
30
0
41
1
10
16.8887326953944
20
0.794011407981401
30
0
41
1
10
16.9334949165868
20
0.785155292501457
30
0
41
1
10
17.0229637366267
20
0.765379062779203
30
0
41
1
10
17.0676757039221
20
0.754455019492582
30
0
41
1
10
17.1571242259888
20
0.730491292942446
30
0
41
1
10
17.2018389450928
20
0.717430488546256
30
0
41
1
10
17.2913722627854
20
0.689136456491582
30
0
41
1
10
17.3363550276281
20
0.673948108284719
30
0
41
1
10
17.4263484222111
20
0.642571155040571
30
0
41
1
10
17.4713804794074
20
0.626300682524146
30
0
41
1
10
17.5612615661655
20
0.592342939417989
30
0
41
1
10
17.606093712818
20
0.574630801766716
30
0
41
1
10
17.6954277631347
20
0.537565621362234
30
0
41
1
10
17.739956044214
20
0.518247675919383
30
0
41
1
10
17.8287624479242
20
0.478038195436653
30
0
41
1
10
17.8729693676701
20
0.457031424957251
30
0
41
1
10
17.9394368039724
20
0.424847240750125
30
0
41
1
10
17.9616239038631
20
0.414016465289762
30
0
41
1
10
18.0061310932762
20
0.392273549949067
30
0
41
1
10
18.0284445431703
20
0.381351368120136
30
0
41
1
10
18.0955072852092
20
0.34835197683654
30
0
41
1
10
18.1403795489908
20
0.326046355168899
30
0
41
1
10
18.2301991655922
20
0.280389643379806
30
0
41
1
10
18.2751301557414
20
0.257005227537178
30
0
41
1
10
18.3650908541138
20
0.209161950153799
30
0
41
1
10
18.4102222605675
20
0.184660125019178
30
0
41
1
10
18.4998164444802
20
0.134968107885356
30
0
41
1
10
18.5443900165149
20
0.109841552108577
30
0
41
1
10
18.6337753094924
20
0.0603085397313521
30
0
41
1
10
18.6785763987406
20
0.0358788517058315
30
0
41
1
10
18.7681256069933
20
-0.0128283029067973
30
0
41
1
10
18.8128673916762
20
-0.0371172154834767
30
0
41
1
10
18.9020940841258
20
-0.0859161506953399
30
0
41
1
10
18.94660318311
20
-0.110380874718317
30
0
41
1
10
19.0132542111604
20
-0.147088241674879
30
0
41
1
10
19.0354497578051
20
-0.159330660616945
30
0
41
1
10
19.0797907282592
20
-0.183839942807111
30
0
41
1
10
19.1240913365712
20
-0.208355654236811
30
0
41
1
10
19.1685009331767
20
-0.232540099550192
30
0
41
1
10
19.2130450430203
20
-0.256416711570239
30
0
41
1
10
19.2353913223456
20
-0.268188785117928
30
0
41
1
10
19.3026116443375
20
-0.303083417491564
30
0
41
1
10
19.3476570917599
20
-0.325803203913097
30
0
41
1
10
19.4379568597748
20
-0.370610214435175
30
0
41
1
10
19.483283036359
20
-0.392782352056287
30
0
41
1
10
19.5733464420201
20
-0.436186758285857
30
0
41
1
10
19.6181627752245
20
-0.457413725991159
30
0
41
1
10
19.7073325245264
20
-0.498920187513392
30
0
41
1
10
19.7516751590701
20
-0.519201359222166
30
0
41
1
10
19.840585377048
20
-0.557790581126341
30
0
41
1
10
19.885198447539
20
-0.576052207673428
30
0
41
1
10
19.9745252257087
20
-0.610917819858969
30
0
41
1
10
20.0192299502028
20
-0.627533858069398
30
0
41
1
10
20.1084779410273
20
-0.659428679312697
30
0
41
1
10
20.1530345788991
20
-0.67468550945253
30
0
41
1
10
20.2420812330504
20
-0.703672032014282
30
0
41
1
10
20.2865364076601
20
-0.71743719489379
30
0
41
1
10
20.3755000527383
20
-0.743228911948563
30
0
41
1
10
20.420098279487
20
-0.755161820035141
30
0
41
1
10
20.5100413477003
20
-0.776711404952806
30
0
41
1
10
20.5554118772132
20
-0.786420429647677
30
0
41
1
10
20.6458150081695
20
-0.803785625246462
30
0
41
1
10
20.6908657883784
20
-0.811464483573786
30
0
41
1
10
20.7805799190731
20
-0.824834070291587
30
0
41
1
10
20.8252692062268
20
-0.830508997979905
30
0
41
1
10
20.9143221605806
20
-0.839763557500191
30
0
41
1
10
20.9586227965764
20
-0.843347243584958
30
0
41
1
10
21.0474288313137
20
-0.848237889365038
30
0
41
1
10
21.092008539869
20
-0.849550635091731
30
0
41
1
10
21.1415748630433
20
-0.849835442305562
30
0
41
1
10
21.1464074713702
20
-0.849850960570137
30
0
41
1
10
21.1512413298691
20
-0.849854225628206
30
0
0
SPLINE
5
CB
100
AcDbEntity
8
1
62
256
6
ByLayer
370
18
48
1
60
0
100
AcDbSpline
70
4
71
5
72
94
73
88
40
0
40
0
40
0
40
0
40
0
40
0
40
0.0030270511733814
40
0.0716043728317344
40
0.140398367055903
40
0.209380565943929
40
0.278535743151803
40
0.347848523177212
40
0.41730333815798
40
0.486883410006078
40
0.556461622262964
40
0.623621920036216
40
0.680286786327551
40
0.729083601829994
40
0.77484534029547
40
0.815560979483203
40
0.817272843212376
40
0.826182652579156
40
0.835092461945936
40
0.84289989581649
40
0.846803612751767
40
0.849010061454315
40
0.850707329687044
40
0.8539735633051
40
0.857239796923157
40
0.860506030541213
40
0.86377226415927
40
0.86637146912362
40
0.868970674087969
40
0.871569879052318
40
0.872812977078746
40
0.874169084016668
40
0.876211164540575
40
0.878253245064482
40
0.885760926887974
40
0.88814250655801
40
0.889184447663651
40
0.892342108083931
40
0.893920938294071
40
0.895499768504211
40
0.897026573641602
40
0.898553378778992
40
0.900080183916383
40
0.900544863740806
40
0.901606989053774
40
0.904575933007515
40
0.907544876961256
40
0.910461065771033
40
0.912236137220462
40
0.91337725458081
40
0.916313149846635
40
0.919249045112459
40
0.922258664425976
40
0.923763474082734
40
0.92395975360318
40
0.925268283739492
40
0.92690352645846
40
0.928538769177428
40
0.930174011896396
40
0.931809254615364
40
0.934094733623031
40
0.935237473126865
40
0.936380212630698
40
0.938665691638366
40
0.938765060290873
40
0.940951170646033
40
0.949596612626005
40
0.951757973120998
40
0.953919333615991
40
0.956080694110984
40
0.958242054605977
40
0.960189083134712
40
0.962136111663447
40
0.964083140192183
40
0.966030168720918
40
0.967977197249653
40
0.969924225778389
40
0.97381828283586
40
0.977712339893331
40
0.981267783293631
40
0.981606396950802
40
0.985500454008273
40
0.989394511065743
40
0.99982929929214
40
1
40
1
40
1
40
1
40
1
40
1
41
1
10
4.3607144095993
20
-0.80700247418136
30
0
41
1
10
4.3607144095993
20
-0.806501462131564
30
0
41
1
10
4.3607144095993
20
-0.79465138678529
30
0
41
1
10
4.36071440959932
20
-0.771475567565318
30
0
41
1
10
4.36071440959932
20
-0.737082453693859
30
0
41
1
10
4.3607144095993
20
-0.691668469374946
30
0
41
1
10
4.3607144095993
20
-0.635983690620691
30
0
41
1
10
4.36071440959932
20
-0.58069368729204
30
0
41
1
10
4.3607144095993
20
-0.525809800126893
30
0
41
1
10
4.36071440959932
20
-0.471360427040224
30
0
41
1
10
4.36071440959927
20
-0.417749888482632
30
0
41
1
10
4.36071440959932
20
-0.366600248368769
30
0
41
1
10
4.36071440959932
20
-0.319079270609421
30
0
41
1
10
4.3607144095993
20
-0.275544353862728
30
0
41
1
10
4.36071440959935
20
-0.236734049878322
30
0
41
1
10
4.36071440959932
20
-0.208037340089391
30
0
41
1
10
4.36071440959913
20
-0.18658059049622
30
0
41
1
10
4.36071440959904
20
-0.171047420460297
30
0
41
1
10
4.36071440959907
20
-0.161085603870561
30
0
41
1
10
4.3607144095991
20
-0.156513640612843
30
0
41
1
10
4.36071440959921
20
-0.151869229979184
30
0
41
1
10
4.36071440959932
20
-0.148280246300857
30
0
41
1
10
4.36071440959944
20
-0.145517577568938
30
0
41
1
10
4.36071440959955
20
-0.143419842674462
30
0
41
1
10
4.36071440959967
20
-0.141415992785653
30
0
41
1
10
4.36071440959984
20
-0.139258433409879
30
0
41
1
10
4.36071440960001
20
-0.136971890303641
30
0
41
1
10
4.36071440960021
20
-0.134787055741469
30
0
41
1
10
4.3607144096004
20
-0.132705321319719
30
0
41
1
10
4.3607144096006
20
-0.130924221791844
30
0
41
1
10
4.36071440960075
20
-0.129425742470033
30
0
41
1
10
4.36071440960089
20
-0.128013831777309
30
0
41
1
10
4.360714409601
20
-0.126688317557097
30
0
41
1
10
4.36071440960117
20
-0.124672309068245
30
0
41
1
10
4.36071440960129
20
-0.122519711947206
30
0
41
1
10
4.36071440960129
20
-0.120445803518208
30
0
41
1
10
4.36071440960117
20
-0.118260847026079
30
0
41
1
10
4.36071440960097
20
-0.116192018830901
30
0
41
1
10
4.36071440960083
20
-0.114926956522027
30
0
41
1
10
4.36071440960069
20
-0.113791279598644
30
0
41
1
10
4.36071440960055
20
-0.112615611891215
30
0
41
1
10
4.36071440960043
20
-0.111659608793616
30
0
41
1
10
4.36071440960035
20
-0.110854483624053
30
0
41
1
10
4.36071440960023
20
-0.110122490584132
30
0
41
1
10
4.36071440960012
20
-0.109229503754307
30
0
41
1
10
4.36071440960001
20
-0.108184841808423
30
0
41
1
10
4.36071440959986
20
-0.107006531045954
30
0
41
1
10
4.36071440959972
20
-0.10572259828507
30
0
41
1
10
4.36071440959958
20
-0.104478482365067
30
0
41
1
10
4.36071440959947
20
-0.103279170196203
30
0
41
1
10
4.36071440959935
20
-0.102125146531989
30
0
41
1
10
4.36071440959927
20
-0.101005070248078
30
0
41
1
10
4.36071440959918
20
-0.0999597149905469
30
0
41
1
10
4.36071440959913
20
-0.0990476055768852
30
0
41
1
10
4.36071440959907
20
-0.09830570066012
30
0
41
1
10
4.36071440959904
20
-0.0976917651331917
30
0
41
1
10
4.36071440959901
20
-0.09720086127939
30
0
41
1
10
4.36071440959901
20
-0.0967131782160493
30
0
41
1
10
4.36071440959898
20
-0.0961372868401611
30
0
41
1
10
4.36071440959898
20
-0.095514616169396
30
0
41
1
10
4.36071440959898
20
-0.0949521331851599
30
0
41
1
10
4.36071440959898
20
-0.0944446446801805
30
0
41
1
10
4.36071440959898
20
-0.0939162810895766
30
0
41
1
10
4.36071440959898
20
-0.0935020785937866
30
0
41
1
10
4.36071440959898
20
-0.0931057835559272
30
0
41
1
10
4.36071440959901
20
-0.0923054288051617
30
0
41
1
10
4.36071440959904
20
-0.0915178520876339
30
0
41
1
10
4.3607144095991
20
-0.0907955245946823
30
0
41
1
10
4.36071440959913
20
-0.0900375841610241
30
0
41
1
10
4.36071440959918
20
-0.0893276043920821
30
0
41
1
10
4.36071440959921
20
-0.0889065156786444
30
0
41
1
10
4.36071440959921
20
-0.0885049173765822
30
0
41
1
10
4.36071440959924
20
-0.0881201967040397
30
0
41
1
10
4.36071440959927
20
-0.0877501757661037
30
0
41
1
10
4.36071440959927
20
-0.0873930454940819
30
0
41
1
10
4.36071440959927
20
-0.0870397237438567
30
0
41
1
10
4.3607144095993
20
-0.0866191719571816
30
0
41
1
10
4.3607144095993
20
-0.0861322833293912
30
0
41
1
10
4.36071440959932
20
-0.0855911326134162
30
0
41
1
10
4.36071440959932
20
-0.0851084983290491
30
0
41
1
10
4.36071440959932
20
-0.084556920357187
30
0
41
1
10
4.36071440959932
20
-0.0840047649513735
30
0
41
1
10
4.36071440959932
20
-0.0832194421769827
30
0
41
1
10
4.36071440959932
20
-0.0825519539787933
30
0
41
1
10
4.36071440959935
20
-0.081893740752065
30
0
41
1
10
4.36071440959938
20
-0.0813732008053023
30
0
41
1
10
4.36071440959938
20
-0.080991616196286
30
0
41
1
10
4.36071440959941
20
-0.0809854741808635
30
0
0
SPLINE
5
CC
100
AcDbEntity
8
1
62
256
6
ByLayer
370
18
48
1
60
0
100
AcDbSpline
70
4
71
3
72
102
73
98
40
0
40
0
40
0
40
0
40
0.125000000000008
40
0.125000000000008
40
0.156250000000009
40
0.156250000000009
40
0.187500000000011
40
0.187500000000011
40
0.250000000000015
40
0.250000000000015
40
0.312500000000019
40
0.312500000000019
40
0.343750000000021
40
0.343750000000021
40
0.359375000000022
40
0.359375000000022
40
0.375000000000023
40
0.375000000000023
40
0.406250000000023
40
0.406250000000023
40
0.437500000000023
40
0.437500000000023
40
0.453125000000024
40
0.453125000000024
40
0.460937500000024
40
0.460937500000024
40
0.468750000000024
40
0.468750000000024
40
0.484375000000023
40
0.484375000000023
40
0.492187500000022
40
0.492187500000022
40
0.496093750000021
40
0.496093750000021
40
0.50000000000002
40
0.50000000000002
40
0.507812500000019
40
0.507812500000019
40
0.511718750000018
40
0.511718750000018
40
0.515625000000018
40
0.523437500000017
40
0.523437500000017
40
0.527343750000016
40
0.527343750000016
40
0.531250000000015
40
0.539062500000013
40
0.539062500000013
40
0.546875000000011
40
0.546875000000011
40
0.562500000000008
40
0.562500000000008
40
0.570312500000007
40
0.570312500000007
40
0.578125000000006
40
0.578125000000006
40
0.593750000000001
40
0.593750000000001
40
0.609374999999997
40
0.609374999999997
40
0.624999999999992
40
0.624999999999992
40
0.656249999999984
40
0.656249999999984
40
0.687499999999975
40
0.687499999999975
40
0.703124999999971
40
0.703124999999971
40
0.710937499999968
40
0.710937499999968
40
0.718749999999966
40
0.718749999999966
40
0.722656249999966
40
0.722656249999966
40
0.726562499999966
40
0.726562499999966
40
0.734374999999967
40
0.734374999999967
40
0.742187499999969
40
0.742187499999969
40
0.74999999999997
40
0.74999999999997
40
0.781249999999976
40
0.781249999999976
40
0.812499999999982
40
0.812499999999982
40
0.828124999999984
40
0.828124999999984
40
0.843749999999987
40
0.843749999999987
40
0.874999999999989
40
0.874999999999989
40
0.906249999999991
40
0.906249999999991
40
0.937499999999994
40
0.937499999999994
40
1
40
1
40
1
40
1
41
1
10
4.3607144095993
20
-0.807002473999944
30
0
41
1
10
4.14213860129891
20
-0.828698496401643
30
0
41
1
10
3.9271654531602
20
-0.842879889095713
30
0
41
1
10
3.66116573044852
20
-0.843406956291091
30
0
41
1
10
3.60809973012493
20
-0.842655629075352
30
0
41
1
10
3.50218599298796
20
-0.83924761692731
30
0
41
1
10
3.44929699859483
20
-0.836588324484865
30
0
41
1
10
3.29115491157103
20
-0.825466314012772
30
0
41
1
10
3.18696524265835
20
-0.813919888828849
30
0
41
1
10
2.98091110043572
20
-0.781101081964692
30
0
41
1
10
2.87903648137211
20
-0.759870222062546
30
0
41
1
10
2.72808314719248
20
-0.718912908772211
30
0
41
1
10
2.67807811884219
20
-0.70373198538411
30
0
41
1
10
2.60360921514254
20
-0.678233857792719
30
0
41
1
10
2.57887652281585
20
-0.669278090861582
30
0
41
1
10
2.52961204525252
20
-0.65034706638076
30
0
41
1
10
2.50503600870263
20
-0.640352524018823
30
0
41
1
10
2.4320458589757
20
-0.608798701538149
30
0
41
1
10
2.38436367600849
20
-0.585713262096505
30
0
41
1
10
2.29163538019051
20
-0.534129432567113
30
0
41
1
10
2.24655661931766
20
-0.505689557254755
30
0
41
1
10
2.18205736096732
20
-0.456851318802848
30
0
41
1
10
2.16121551587955
20
-0.439614524331461
30
0
41
1
10
2.13143931772507
20
-0.412037112036245
30
0
41
1
10
2.1217553865244
20
-0.402549693262841
30
0
41
1
10
2.10295986386569
20
-0.382882879009969
30
0
41
1
10
2.0938208225833
20
-0.372670110032885
30
0
41
1
10
2.06768019270726
20
-0.341070411854019
30
0
41
1
10
2.05193681568613
20
-0.318781414956675
30
0
41
1
10
2.03195984514451
20
-0.282762809159095
30
0
41
1
10
2.02591345169375
20
-0.270321560700012
30
0
41
1
10
2.01800484010573
20
-0.250844269150889
30
0
41
1
10
2.01555739422821
20
-0.244192889929707
30
0
41
1
10
2.01117037730989
20
-0.230791070520411
30
0
41
1
10
2.00922198341502
20
-0.224022759576854
30
0
41
1
10
2.00416300599872
20
-0.203503398842372
30
0
41
1
10
2.00183525074147
20
-0.189538735970046
30
0
41
1
10
2.00016617228934
20
-0.168102694022792
30
0
41
1
10
1.9999175052784
20
-0.160849081447481
30
0
41
1
10
2.00006856157273
20
-0.146464139311519
30
0
41
1
10
2.00125405118456
20
-0.124978069785129
30
0
41
1
10
2.00529078128716
20
-0.103767396639654
30
0
41
1
10
2.01120921501601
20
-0.0827433949440035
30
0
41
1
10
2.01350631163692
20
-0.0757450661881478
30
0
41
1
10
2.01862397445524
20
-0.0620592756645806
30
0
41
1
10
2.02710478076861
20
-0.041910922325826
30
0
41
1
10
2.03780276893266
20
-0.0228122327049789
30
0
41
1
10
2.05377059167242
20
0.0018442387122377
30
0
41
1
10
2.06249591742673
20
0.0135940875309188
30
0
41
1
10
2.09023972406331
20
0.047177973914188
30
0
41
1
10
2.11089772491357
20
0.0675145286003271
30
0
41
1
10
2.14412336614885
20
0.0959000591063841
30
0
41
1
10
2.15556362782425
20
0.10498451153245
30
0
41
1
10
2.17879133519867
20
0.122326386375619
30
0
41
1
10
2.19061774257696
20
0.130616999325582
30
0
41
1
10
2.22663095769928
20
0.154537486816167
30
0
41
1
10
2.25134663785795
20
0.169225386858926
30
0
41
1
10
2.30183203057334
20
0.196740258695542
30
0
41
1
10
2.3276048809868
20
0.209561473498241
30
0
41
1
10
2.3799895224704
20
0.233735561638298
30
0
41
1
10
2.40660510223492
20
0.245083560846126
30
0
41
1
10
2.48693552302481
20
0.277119830624315
30
0
41
1
10
2.54133091933852
20
0.295926092239284
30
0
41
1
10
2.65132415607479
20
0.330009922603097
30
0
41
1
10
2.7069677948592
20
0.345285552310685
30
0
41
1
10
2.79100438153415
20
0.36610235796212
30
0
41
1
10
2.81910426373477
20
0.372671554680522
30
0
41
1
10
2.8613483277191
20
0.382123612915621
30
0
41
1
10
2.87544408778192
20
0.385212016532734
30
0
41
1
10
2.90365190734391
20
0.39131121648407
30
0
41
1
10
2.91774317198946
20
0.394396532743315
30
0
41
1
10
2.93901391090043
20
0.398530137152505
30
0
41
1
10
2.94613443163607
20
0.399796997004302
30
0
41
1
10
2.96052855728567
20
0.401778896631185
30
0
41
1
10
2.96783511395873
20
0.402481370658705
30
0
41
1
10
2.98936352807496
20
0.403479315249996
30
0
41
1
10
3.00338776269831
20
0.402732882776462
30
0
41
1
10
3.03091406080813
20
0.398983361066371
30
0
41
1
10
3.04442219448799
20
0.396003898767901
30
0
41
1
10
3.0713728159632
20
0.389736979245186
30
0
41
1
10
3.08482168072814
20
0.386478343717101
30
0
41
1
10
3.15213549690989
20
0.370434353418091
30
0
41
1
10
3.20606841458624
20
0.357768840008873
30
0
41
1
10
3.31388007268072
20
0.332021841467508
30
0
41
1
10
3.36777390294597
20
0.319011753436456
30
0
41
1
10
3.44863351787868
20
0.299404920414219
30
0
41
1
10
3.47559348627203
20
0.292865267757946
30
0
41
1
10
3.52946769892762
20
0.279597320101885
30
0
41
1
10
3.55637411250157
20
0.2728454805507
30
0
41
1
10
3.63680421031739
20
0.251620950617905
30
0
41
1
10
3.69003015783531
20
0.236151227766129
30
0
41
1
10
3.79573361428231
20
0.202574873474248
30
0
41
1
10
3.84822069075881
20
0.184497554396188
30
0
41
1
10
3.95255897582894
20
0.14593227258726
30
0
41
1
10
4.00443639898259
20
0.125429476123173
30
0
41
1
10
4.15910978370638
20
0.0607287489099804
30
0
41
1
10
4.26042782165462
20
0.0135365494993209
30
0
41
1
10
4.3607144095993
20
-0.0361115762235045
30
0
0
LINE
5
7D
100
AcDbEntity
8
4
62
256
6
ByLayer
370
18
48
0.05
60
0
100
AcDbLine
10
-5
20
0
30
0
11
27
21
0
31
0
39
0
210
0
220
0
230
1
0
LINE
5
7F
100
AcDbEntity
8
81
62
256
6
ByLayer
370
18
48
1
60
0
100
AcDbLine
10
22
20
0
30
0
11
27
21
0
31
0
39
0
210
0
220
0
230
1
0
LINE
5
80
100
AcDbEntity
8
SK4
62
256
6
ByLayer
370
18
48
0.05
60
0
100
AcDbLine
10
-26
20
0
30
0
11
27
21
0
31
0
39
0
210
0
220
0
230
1
0
LINE
5
82
100
AcDbEntity
8
80
62
256
6
ByLayer
370
18
48
1
60
0
100
AcDbLine
10
0
20
0
30
0
11
-5
21
0
31
0
39
0
210
0
220
0
230
1
0
LINE
5
83
100
AcDbEntity
8
1
62
256
6
ByLayer
370
18
48
1
60
0
100
AcDbLine
10
0
20
0.85
30
0
11
0
21
-0.85
31
0
39
0
210
0
220
0
230
1
0
LINE
5
84
100
AcDbEntity
8
1
62
256
6
ByLayer
370
18
48
1
60
0
100
AcDbLine
10
21.540342
20
-0.85
30
0
11
21.540342
21
-0.409598
31
0
39
0
210
0
220
0
230
1
0
LINE
5
85
100
AcDbEntity
8
1
62
256
6
ByLayer
370
18
48
1
60
0
100
AcDbLine
10
21.540342
20
0.85
30
0
11
21.540342
21
0.823096
31
0
39
0
210
0
220
0
230
1
0
LINE
5
86
100
AcDbEntity
8
1
62
256
6
ByLayer
370
18
48
1
60
0
100
AcDbLine
10
0.1
20
-0.84196
30
0
11
0.1
21
0.84196
31
0
39
0
210
0
220
0
230
1
0
LINE
5
87
100
AcDbEntity
8
SK1
62
256
6
ByLayer
370
18
48
1
60
0
100
AcDbLine
10
-21
20
-0.55
30
0
11
-21
21
0.55
31
0
39
0
210
0
220
0
230
1
0
LINE
5
89
100
AcDbEntity
8
SK1
62
256
6
ByLayer
370
18
48
1
60
0
100
AcDbLine
10
0
20
0.85
30
0
11
0
21
-0.85
31
0
39
0
210
0
220
0
230
1
0
LINE
5
8A
100
AcDbEntity
8
SK1
62
256
6
ByLayer
370
18
48
1
60
0
100
AcDbLine
10
-20.7
20
-0.85
30
0
11
-20.7
21
0.85
31
0
39
0
210
0
220
0
230
1
0
LINE
5
8B
100
AcDbEntity
8
1
62
256
6
ByLayer
370
18
48
1
60
0
100
AcDbLine
10
22
20
0
30
0
11
21.540342
21
0.85
31
0
39
0
210
0
220
0
230
1
0
LINE
5
8C
100
AcDbEntity
8
1
62
256
6
ByLayer
370
18
48
1
60
0
100
AcDbLine
10
21.540342
20
-0.85
30
0
11
22
21
0
31
0
39
0
210
0
220
0
230
1
0
LINE
5
8D
100
AcDbEntity
8
1
62
256
6
ByLayer
370
18
48
1
60
0
100
AcDbLine
10
0.1
20
0.84196
30
0
11
0
21
0.85
31
0
39
0
210
0
220
0
230
1
0
LINE
5
8E
100
AcDbEntity
8
1
62
256
6
ByLayer
370
18
48
1
60
0
100
AcDbLine
10
0
20
-0.85
30
0
11
0.1
21
-0.84196
31
0
39
0
210
0
220
0
230
1
0
LINE
5
8F
100
AcDbEntity
8
1
62
256
6
ByLayer
370
18
48
1
60
0
100
AcDbLine
10
0.1
20
-0.84196
30
0
11
3.727764
21
-0.84332
31
0
39
0
210
0
220
0
230
1
0
LINE
5
90
100
AcDbEntity
8
1
62
256
6
ByLayer
370
18
48
1
60
0
100
AcDbLine
10
6.702691
20
-0.844436
30
0
11
8.725063
21
-0.845194
31
0
39
0
210
0
220
0
230
1
0
LINE
5
91
100
AcDbEntity
8
1
62
256
6
ByLayer
370
18
48
1
60
0
100
AcDbLine
10
11.518471
20
-0.846242
30
0
11
13.542915
21
-0.847001
31
0
39
0
210
0
220
0
230
1
0
LINE
5
92
100
AcDbEntity
8
1
62
256
6
ByLayer
370
18
48
1
60
0
100
AcDbLine
10
16.334553
20
-0.848048
30
0
11
18.360584
21
-0.848808
31
0
39
0
210
0
220
0
230
1
0
LINE
5
93
100
AcDbEntity
8
1
62
256
6
ByLayer
370
18
48
1
60
0
100
AcDbLine
10
21.151501
20
-0.849854
30
0
11
21.540342
21
-0.85
31
0
39
0
210
0
220
0
230
1
0
LINE
5
94
100
AcDbEntity
8
1
62
256
6
ByLayer
370
18
48
1
60
0
100
AcDbLine
10
21.540342
20
0.85
30
0
11
21.151501
21
0.849854
31
0
39
0
210
0
220
0
230
1
0
LINE
5
95
100
AcDbEntity
8
1
62
256
6
ByLayer
370
18
48
1
60
0
100
AcDbLine
10
18.360584
20
0.848808
30
0
11
16.334553
21
0.848048
31
0
39
0
210
0
220
0
230
1
0
LINE
5
96
100
AcDbEntity
8
1
62
256
6
ByLayer
370
18
48
1
60
0
100
AcDbLine
10
13.542915
20
0.847001
30
0
11
11.518471
21
0.846242
31
0
39
0
210
0
220
0
230
1
0
LINE
5
97
100
AcDbEntity
8
1
62
256
6
ByLayer
370
18
48
1
60
0
100
AcDbLine
10
8.725063
20
0.845194
30
0
11
6.702691
21
0.844436
31
0
39
0
210
0
220
0
230
1
0
LINE
5
98
100
AcDbEntity
8
1
62
256
6
ByLayer
370
18
48
1
60
0
100
AcDbLine
10
3.727764
20
0.84332
30
0
11
0.1
21
0.84196
31
0
39
0
210
0
220
0
230
1
0
LINE
5
99
100
AcDbEntity
8
SK1
62
256
6
ByLayer
370
18
48
1
60
0
100
AcDbLine
10
-21
20
-0.55
30
0
11
-20.7
21
-0.85
31
0
39
0
210
0
220
0
230
1
0
LINE
5
9A
100
AcDbEntity
8
SK1
62
256
6
ByLayer
370
18
48
1
60
0
100
AcDbLine
10
-20.7
20
0.85
30
0
11
-21
21
0.55
31
0
39
0
210
0
220
0
230
1
0
LINE
5
9B
100
AcDbEntity
8
SK1
62
256
6
ByLayer
370
18
48
1
60
0
100
AcDbLine
10
-20.7
20
-0.85
30
0
11
0
21
-0.85
31
0
39
0
210
0
220
0
230
1
0
LINE
5
9C
100
AcDbEntity
8
SK1
62
256
6
ByLayer
370
18
48
1
60
0
100
AcDbLine
10
0
20
0.85
30
0
11
-20.7
21
0.85
31
0
39
0
210
0
220
0
230
1
0
LINE
5
9D
100
AcDbEntity
8
SK2
62
256
6
ByLayer
370
13
48
1
60
0
100
AcDbLine
10
-27.5
20
26.882855
30
0
11
-27.5
21
-8.35
31
0
39
0
210
0
220
0
230
1
0
LINE
5
9F
100
AcDbEntity
8
SK2
62
256
6
ByLayer
370
13
48
1
60
0
100
AcDbLine
10
-22.5875
20
0.85
30
0
11
-29.5
21
0.85
31
0
39
0
210
0
220
0
230
1
0
LINE
5
A0
100
AcDbEntity
8
SK2
62
256
6
ByLayer
370
13
48
1
60
0
100
AcDbLine
10
-22.5875
20
-0.85
30
0
11
-29.5
21
-0.85
31
0
39
0
210
0
220
0
230
1
0
LINE
5
A1
100
AcDbEntity
8
1
62
256
6
ByLayer
370
18
48
1
60
1
100
AcDbLine
10
-27.5
20
0.85
30
0
11
-27.960784
21
4.349998
31
0
39
0
210
0
220
0
230
1
0
LINE
5
A2
100
AcDbEntity
8
1
62
256
6
ByLayer
370
18
48
1
60
1
100
AcDbLine
10
-27.960784
20
4.349998
30
0
11
-27.039216
21
4.350002
31
0
39
0
210
0
220
0
230
1
0
LINE
5
A3
100
AcDbEntity
8
1
62
256
6
ByLayer
370
18
48
1
60
1
100
AcDbLine
10
-27.039216
20
4.350002
30
0
11
-27.5
21
0.85
31
0
39
0
210
0
220
0
230
1
0
LINE
5
A4
100
AcDbEntity
8
1
62
256
6
ByLayer
370
18
48
1
60
1
100
AcDbLine
10
-27.5
20
-0.85
30
0
11
-27.039216
21
-4.349998
31
0
39
0
210
0
220
0
230
1
0
LINE
5
A5
100
AcDbEntity
8
1
62
256
6
ByLayer
370
18
48
1
60
1
100
AcDbLine
10
-27.039216
20
-4.349998
30
0
11
-27.960784
21
-4.350002
31
0
39
0
210
0
220
0
230
1
0
LINE
5
A6
100
AcDbEntity
8
1
62
256
6
ByLayer
370
18
48
1
60
1
100
AcDbLine
10
-27.960784
20
-4.350002
30
0
11
-27.5
21
-0.85
31
0
39
0
210
0
220
0
230
1
0
LINE
5
A7
100
AcDbEntity
8
2
62
256
6
ByLayer
370
13
48
1
60
0
100
AcDbLine
10
31.040342
20
26.882855
30
0
11
31.040342
21
-8.35
31
0
39
0
210
0
220
0
230
1
0
LINE
5
A9
100
AcDbEntity
8
2
62
256
6
ByLayer
370
13
48
1
60
0
100
AcDbLine
10
23.127842
20
0.85
30
0
11
33.040342
21
0.85
31
0
39
0
210
0
220
0
230
1
0
LINE
5
AA
100
AcDbEntity
8
2
62
256
6
ByLayer
370
13
48
1
60
0
100
AcDbLine
10
23.127842
20
-0.85
30
0
11
33.040342
21
-0.85
31
0
39
0
210
0
220
0
230
1
0
LINE
5
AB
100
AcDbEntity
8
1
62
256
6
ByLayer
370
18
48
1
60
1
100
AcDbLine
10
31.040342
20
0.85
30
0
11
30.579558
21
4.349998
31
0
39
0
210
0
220
0
230
1
0
LINE
5
AC
100
AcDbEntity
8
1
62
256
6
ByLayer
370
18
48
1
60
1
100
AcDbLine
10
30.579558
20
4.349998
30
0
11
31.501125
21
4.350002
31
0
39
0
210
0
220
0
230
1
0
LINE
5
AD
100
AcDbEntity
8
1
62
256
6
ByLayer
370
18
48
1
60
1
100
AcDbLine
10
31.501125
20
4.350002
30
0
11
31.040342
21
0.85
31
0
39
0
210
0
220
0
230
1
0
LINE
5
AE
100
AcDbEntity
8
1
62
256
6
ByLayer
370
18
48
1
60
1
100
AcDbLine
10
31.040342
20
-0.85
30
0
11
31.501125
21
-4.349998
31
0
39
0
210
0
220
0
230
1
0
LINE
5
AF
100
AcDbEntity
8
1
62
256
6
ByLayer
370
18
48
1
60
1
100
AcDbLine
10
31.501125
20
-4.349998
30
0
11
30.579558
21
-4.350002
31
0
39
0
210
0
220
0
230
1
0
LINE
5
B0
100
AcDbEntity
8
1
62
256
6
ByLayer
370
18
48
1
60
1
100
AcDbLine
10
30.579558
20
-4.350002
30
0
11
31.040342
21
-0.85
31
0
39
0
210
0
220
0
230
1
0
LINE
5
B1
100
AcDbEntity
8
2
62
256
6
ByLayer
370
13
48
1
60
0
100
AcDbLine
10
22.755136
20
-1.396397
30
0
11
33.416232
21
-21.110889
31
0
39
0
210
0
220
0
230
1
0
LINE
5
B2
100
AcDbEntity
8
2
62
256
6
ByLayer
370
13
48
1
60
0
100
AcDbLine
10
22.755136
20
1.396397
30
0
11
33.416232
21
21.110889
31
0
39
0
210
0
220
0
230
1
0
LINE
5
B3
100
AcDbEntity
8
1
62
256
6
ByLayer
370
18
48
1
60
1
100
AcDbLine
10
32.464879
20
-19.351649
30
0
11
35.239971
21
-17.169637
31
0
39
0
210
0
220
0
230
1
0
LINE
5
B4
100
AcDbEntity
8
1
62
256
6
ByLayer
370
18
48
1
60
1
100
AcDbLine
10
35.239971
20
-17.169637
30
0
11
35.710161
21
-17.962233
31
0
39
0
210
0
220
0
230
1
0
LINE
5
B5
100
AcDbEntity
8
1
62
256
6
ByLayer
370
18
48
1
60
1
100
AcDbLine
10
35.710161
20
-17.962233
30
0
11
32.464879
21
-19.351649
31
0
39
0
210
0
220
0
230
1
0
LINE
5
B6
100
AcDbEntity
8
1
62
256
6
ByLayer
370
18
48
1
60
1
100
AcDbLine
10
32.464879
20
19.351649
30
0
11
35.710158
21
17.962234
31
0
39
0
210
0
220
0
230
1
0
LINE
5
B7
100
AcDbEntity
8
1
62
256
6
ByLayer
370
18
48
1
60
1
100
AcDbLine
10
35.710158
20
17.962234
30
0
11
35.239974
21
17.169635
31
0
39
0
210
0
220
0
230
1
0
LINE
5
B8
100
AcDbEntity
8
1
62
256
6
ByLayer
370
18
48
1
60
1
100
AcDbLine
10
35.239974
20
17.169635
30
0
11
32.464879
21
19.351649
31
0
39
0
210
0
220
0
230
1
0
LINE
5
D1
100
AcDbEntity
8
1
62
256
6
ByLayer
370
18
48
1
60
1
100
AcDbLine
10
-27.5
20
0.85
30
0
11
-27.960784
21
4.349998
31
0
39
0
210
0
220
0
230
1
0
LINE
5
D2
100
AcDbEntity
8
1
62
256
6
ByLayer
370
18
48
1
60
1
100
AcDbLine
10
-27.960784
20
4.349998
30
0
11
-27.039216
21
4.350002
31
0
39
0
210
0
220
0
230
1
0
LINE
5
D3
100
AcDbEntity
8
1
62
256
6
ByLayer
370
18
48
1
60
1
100
AcDbLine
10
-27.039216
20
4.350002
30
0
11
-27.5
21
0.85
31
0
39
0
210
0
220
0
230
1
0
LINE
5
D5
100
AcDbEntity
8
1
62
256
6
ByLayer
370
18
48
1
60
1
100
AcDbLine
10
-27.5
20
-0.85
30
0
11
-27.039216
21
-4.349998
31
0
39
0
210
0
220
0
230
1
0
LINE
5
D6
100
AcDbEntity
8
1
62
256
6
ByLayer
370
18
48
1
60
1
100
AcDbLine
10
-27.039216
20
-4.349998
30
0
11
-27.960784
21
-4.350002
31
0
39
0
210
0
220
0
230
1
0
LINE
5
D7
100
AcDbEntity
8
1
62
256
6
ByLayer
370
18
48
1
60
1
100
AcDbLine
10
-27.960784
20
-4.350002
30
0
11
-27.5
21
-0.85
31
0
39
0
210
0
220
0
230
1
0
LINE
5
DB
100
AcDbEntity
8
1
62
256
6
ByLayer
370
18
48
1
60
1
100
AcDbLine
10
31.040342
20
0.85
30
0
11
30.579558
21
4.349998
31
0
39
0
210
0
220
0
230
1
0
LINE
5
DC
100
AcDbEntity
8
1
62
256
6
ByLayer
370
18
48
1
60
1
100
AcDbLine
10
30.579558
20
4.349998
30
0
11
31.501125
21
4.350002
31
0
39
0
210
0
220
0
230
1
0
LINE
5
DD
100
AcDbEntity
8
1
62
256
6
ByLayer
370
18
48
1
60
1
100
AcDbLine
10
31.501125
20
4.350002
30
0
11
31.040342
21
0.85
31
0
39
0
210
0
220
0
230
1
0
LINE
5
DF
100
AcDbEntity
8
1
62
256
6
ByLayer
370
18
48
1
60
1
100
AcDbLine
10
31.040342
20
-0.85
30
0
11
31.501125
21
-4.349998
31
0
39
0
210
0
220
0
230
1
0
LINE
5
E0
100
AcDbEntity
8
1
62
256
6
ByLayer
370
18
48
1
60
1
100
AcDbLine
10
31.501125
20
-4.349998
30
0
11
30.579558
21
-4.350002
31
0
39
0
210
0
220
0
230
1
0
LINE
5
E1
100
AcDbEntity
8
1
62
256
6
ByLayer
370
18
48
1
60
1
100
AcDbLine
10
30.579558
20
-4.350002
30
0
11
31.040342
21
-0.85
31
0
39
0
210
0
220
0
230
1
0
LINE
5
E4
100
AcDbEntity
8
1
62
256
6
ByLayer
370
18
48
1
60
1
100
AcDbLine
10
32.464879
20
-19.351649
30
0
11
35.239971
21
-17.169637
31
0
39
0
210
0
220
0
230
1
0
LINE
5
E5
100
AcDbEntity
8
1
62
256
6
ByLayer
370
18
48
1
60
1
100
AcDbLine
10
35.239971
20
-17.169637
30
0
11
35.710161
21
-17.962233
31
0
39
0
210
0
220
0
230
1
0
LINE
5
E6
100
AcDbEntity
8
1
62
256
6
ByLayer
370
18
48
1
60
1
100
AcDbLine
10
35.710161
20
-17.962233
30
0
11
32.464879
21
-19.351649
31
0
39
0
210
0
220
0
230
1
0
LINE
5
E8
100
AcDbEntity
8
1
62
256
6
ByLayer
370
18
48
1
60
1
100
AcDbLine
10
32.464879
20
19.351649
30
0
11
35.710158
21
17.962234
31
0
39
0
210
0
220
0
230
1
0
LINE
5
E9
100
AcDbEntity
8
1
62
256
6
ByLayer
370
18
48
1
60
1
100
AcDbLine
10
35.710158
20
17.962234
30
0
11
35.239974
21
17.169635
31
0
39
0
210
0
220
0
230
1
0
LINE
5
EA
100
AcDbEntity
8
1
62
256
6
ByLayer
370
18
48
1
60
1
100
AcDbLine
10
35.239974
20
17.169635
30
0
11
32.464879
21
19.351649
31
0
39
0
210
0
220
0
230
1
0
MTEXT
5
CD
100
AcDbEntity
8
SK2
62
256
6
ByLayer
370
18
48
1
60
0
100
AcDbMText
10
-28.841114
20
12.508437
30
0
210
0
220
0
230
1
1
%%c
40
3
41
0
44
1.084337
50
90
71
7
72
5
7
iso_b_vert
0
MTEXT
5
D0
100
AcDbEntity
8
SK2
62
256
6
ByLayer
370
18
48
1
60
0
100
AcDbMText
10
-28.841114
20
18.485
30
0
210
0
220
0
230
1
1
\W0.6864;1.700
40
3
41
0
44
1.084337
50
90
71
7
72
5
7
iso_b_vert
0
MTEXT
5
D9
100
AcDbEntity
8
2
62
256
6
ByLayer
370
18
48
1
60
0
100
AcDbMText
10
29.699227
20
12.508437
30
0
210
0
220
0
230
1
1
%%c
40
3
41
0
44
1.084337
50
90
71
7
72
5
7
iso_b_vert
0
MTEXT
5
DA
100
AcDbEntity
8
2
62
256
6
ByLayer
370
18
48
1
60
0
100
AcDbMText
10
29.699227
20
18.485
30
0
210
0
220
0
230
1
1
\W0.6864;1.700
40
3
41
0
44
1.084337
50
90
71
7
72
5
7
iso_b_vert
0
MTEXT
5
E3
100
AcDbEntity
8
2
62
256
6
ByLayer
370
18
48
1
60
0
100
AcDbMText
10
41.092229
20
-2.114886
30
0
210
0
220
0
230
1
1
\W0.6008;118%%d
40
3
41
0
44
1.084337
50
0
71
7
72
5
7
iso_b_vert
0
MTEXT
5
EC
100
AcDbEntity
8
SK6
62
256
6
ByLayer
370
18
48
1
60
0
100
AcDbMText
10
-6.007199
20
-67.114886
30
0
210
0
220
0
230
1
1
\W0.7280;R0031.7
40
3
41
0
44
1.084337
50
0
71
7
72
5
7
iso_b_vert
0
HATCH
5
D4
100
AcDbEntity
8
SK2
62
256
6
ByLayer
370
13
48
1
60
0
100
AcDbHatch
10
0
20
0
30
0
210
0
220
0
230
1
2
ANSI31
70
0
71
0
91
1
92
5
93
3
72
1
10
-27.5
20
0.849999999999994
11
-27.9607837415528
21
4.34999830744681
72
1
10
-27.9607837415528
20
4.34999830744681
11
-27.0392162584472
21
4.35000169255318
72
1
10
-27.0392162584472
20
4.35000169255318
11
-27.5
21
0.849999999999994
97
0
75
0
76
1
52
0
41
0.0062
77
0
78
1
53
45
43
0
44
0
45
-0.0139193969876572
46
0.0139193969876572
79
0
47
0
98
1
10
0
20
0
0
HATCH
5
D8
100
AcDbEntity
8
SK2
62
256
6
ByLayer
370
13
48
1
60
0
100
AcDbHatch
10
0
20
0
30
0
210
0
220
0
230
1
2
ANSI31
70
0
71
0
91
1
92
5
93
3
72
1
10
-27.5
20
-0.850000000000023
11
-27.0392162584472
21
-4.34999830744684
72
1
10
-27.0392162584472
20
-4.34999830744684
11
-27.9607837415528
21
-4.35000169255321
72
1
10
-27.9607837415528
20
-4.35000169255321
11
-27.5
21
-0.850000000000023
97
0
75
0
76
1
52
0
41
0.0062
77
0
78
1
53
45
43
0
44
0
45
-0.0139193969876572
46
0.0139193969876572
79
0
47
0
98
1
10
0
20
0
0
HATCH
5
DE
100
AcDbEntity
8
2
62
256
6
ByLayer
370
13
48
1
60
0
100
AcDbHatch
10
0
20
0
30
0
210
0
220
0
230
1
2
ANSI31
70
0
71
0
91
1
92
5
93
3
72
1
10
31.0403416264439
20
0.849999999999994
11
30.5795578848912
21
4.34999830744681
72
1
10
30.5795578848912
20
4.34999830744681
11
31.5011253679967
21
4.35000169255318
72
1
10
31.5011253679967
20
4.35000169255318
11
31.0403416264439
21
0.849999999999994
97
0
75
0
76
1
52
0
41
0.0062
77
0
78
1
53
45
43
0
44
0
45
-0.0139193969876572
46
0.0139193969876572
79
0
47
0
98
1
10
0
20
0
0
HATCH
5
E2
100
AcDbEntity
8
2
62
256
6
ByLayer
370
13
48
1
60
0
100
AcDbHatch
10
0
20
0
30
0
210
0
220
0
230
1
2
ANSI31
70
0
71
0
91
1
92
5
93
3
72
1
10
31.0403416264439
20
-0.850000000000023
11
31.5011253679967
21
-4.34999830744684
72
1
10
31.5011253679967
20
-4.34999830744684
11
30.5795578848912
21
-4.35000169255321
72
1
10
30.5795578848912
20
-4.35000169255321
11
31.0403416264439
21
-0.850000000000023
97
0
75
0
76
1
52
0
41
0.0062
77
0
78
1
53
45
43
0
44
0
45
-0.0139193969876572
46
0.0139193969876572
79
0
47
0
98
1
10
0
20
0
0
HATCH
5
E7
100
AcDbEntity
8
2
62
256
6
ByLayer
370
13
48
1
60
0
100
AcDbHatch
10
0
20
0
30
0
210
0
220
0
230
1
2
ANSI31
70
0
71
0
91
1
92
5
93
3
72
1
10
32.4648791987517
20
-19.3516485952886
11
35.2399711078379
21
-17.1696369764528
72
1
10
35.2399711078379
20
-17.1696369764528
11
35.7101613929247
21
-17.9622325364574
72
1
10
35.7101613929247
20
-17.9622325364574
11
32.4648791987517
21
-19.3516485952886
97
0
75
0
76
1
52
0
41
0.0062
77
0
78
1
53
45
43
0
44
0
45
-0.0139193969876572
46
0.0139193969876572
79
0
47
0
98
1
10
0
20
0
0
HATCH
5
EB
100
AcDbEntity
8
2
62
256
6
ByLayer
370
13
48
1
60
0
100
AcDbHatch
10
0
20
0
30
0
210
0
220
0
230
1
2
ANSI31
70
0
71
0
91
1
92
5
93
3
72
1
10
32.4648791987514
20
19.3516485952887
11
35.7101584815521
21
17.9622342635522
72
1
10
35.7101584815521
20
17.9622342635522
11
35.2399740192101
21
17.1696352493584
72
1
10
35.2399740192101
20
17.1696352493584
11
32.4648791987514
21
19.3516485952887
97
0
75
0
76
1
52
0
41
0.0062
77
0
78
1
53
45
43
0
44
0
45
-0.0139193969876572
46
0.0139193969876572
79
0
47
0
98
1
10
0
20
0
0
DIMENSION
5
EF
100
AcDbEntity
8
SK2
62
256
6
ByLayer
370
18
48
1
60
0
100
AcDbDimension
2
_U0
10
22
20
-51.606724
30
0
11
0.5
21
-51.606724
31
0
70
32
71
1
72
1
41
1
210
0
220
0
230
1
3
Standard
100
AcDbAlignedDimension
13
-21
23
-0.85
33
0
14
22
24
0
34
0
50
0
100
AcDbRotatedDimension
1001
ACAD
1000
DSTYLE
1002
{
1070
   371
1070
    13
1070
   372
1070
    13
1070
     3
1000

1070
   170
1070
     0
1070
   144
1040
1.0
1070
   277
1070
     2
1070
   284
1070
     8
1070
   278
1070
    46
1070
   146
1040
1.166667
1070
   345
1005
16
1070
   347
1005
16
1070
   346
1005
16
1070
   344
1005
0
1070
   343
1005
0
1070
   172
1070
     1
1070
    76
1070
     0
1070
    75
1070
     0
1070
   282
1070
     0
1070
   281
1070
     0
1070
    71
1070
     0
1070
    74
1070
     0
1070
   279
1070
     0
1070
   173
1070
     1
1070
   340
1005
CE
1070
   271
1070
     2
1070
   272
1070
     3
1070
    77
1070
     1
1070
    73
1070
     1
1070
   171
1070
     3
1070
   274
1070
     4
1070
   177
1070
     2
1070
   176
1070
     2
1070
   178
1070
     2
1070
    78
1070
     8
1070
    48
1040
-0.1
1070
    41
1040
3.5
1070
   147
1040
1.5
1070
    42
1040
1.5875
1070
    44
1040
2.0
1070
   140
1040
3.0
1002
}
1001
ACAD_DSTYLE_DIM_LINETYPE
1070
   380
1005
16
1001
ACAD_DSTYLE_DIM_EXT1_LINETYPE
1070
   381
1005
16
1001
ACAD_DSTYLE_DIM_EXT2_LINETYPE
1070
   382
1005
16
0
DIMENSION
5
108
100
AcDbEntity
8
2
62
256
6
ByLayer
370
18
48
1
60
0
100
AcDbDimension
2
_U1
10
2
20
-41.606724
30
0
11
12
21
-41.606724
31
0
70
32
71
1
72
1
41
1
210
0
220
0
230
1
3
Standard
100
AcDbAlignedDimension
13
22
23
0
33
0
14
2
24
-0.85
34
0
50
0
100
AcDbRotatedDimension
1001
ACAD
1000
DSTYLE
1002
{
1070
   371
1070
    13
1070
   372
1070
    13
1070
     3
1000

1070
   170
1070
     0
1070
   144
1040
1.0
1070
   277
1070
     2
1070
   284
1070
     8
1070
   278
1070
    46
1070
   146
1040
1.166667
1070
   345
1005
16
1070
   347
1005
16
1070
   346
1005
16
1070
   344
1005
0
1070
   343
1005
0
1070
   172
1070
     1
1070
    76
1070
     0
1070
    75
1070
     0
1070
   282
1070
     0
1070
   281
1070
     0
1070
    71
1070
     0
1070
    74
1070
     0
1070
   279
1070
     0
1070
   173
1070
     1
1070
   340
1005
CE
1070
   271
1070
     2
1070
   272
1070
     3
1070
    77
1070
     1
1070
    73
1070
     1
1070
   171
1070
     3
1070
   274
1070
     4
1070
   177
1070
     2
1070
   176
1070
     2
1070
   178
1070
     2
1070
    78
1070
     8
1070
    48
1040
-0.1
1070
    41
1040
3.5
1070
   147
1040
1.5
1070
    42
1040
1.5875
1070
    44
1040
2.0
1070
   140
1040
3.0
1002
}
1001
ACAD_DSTYLE_DIM_LINETYPE
1070
   380
1005
16
1001
ACAD_DSTYLE_DIM_EXT1_LINETYPE
1070
   381
1005
16
1001
ACAD_DSTYLE_DIM_EXT2_LINETYPE
1070
   382
1005
16
0
DIMENSION
5
120
100
AcDbEntity
8
SK2
62
256
6
ByLayer
370
18
48
1
60
0
100
AcDbDimension
2
_U2
10
0
20
-36.606724
30
0
11
-10.5
21
-36.606724
31
0
70
32
71
1
72
1
41
1
210
0
220
0
230
1
3
Standard
100
AcDbAlignedDimension
13
-21
23
-0.85
33
0
14
0
24
-0.85
34
0
50
0
100
AcDbRotatedDimension
1001
ACAD
1000
DSTYLE
1002
{
1070
   371
1070
    13
1070
   372
1070
    13
1070
     3
1000

1070
   170
1070
     0
1070
   144
1040
1.0
1070
   277
1070
     2
1070
   284
1070
     8
1070
   278
1070
    46
1070
   146
1040
1.166667
1070
   345
1005
16
1070
   347
1005
16
1070
   346
1005
16
1070
   344
1005
0
1070
   343
1005
0
1070
   172
1070
     1
1070
    76
1070
     0
1070
    75
1070
     0
1070
   282
1070
     0
1070
   281
1070
     0
1070
    71
1070
     0
1070
    74
1070
     0
1070
   279
1070
     0
1070
   173
1070
     1
1070
   340
1005
CE
1070
   271
1070
     2
1070
   272
1070
     3
1070
    77
1070
     1
1070
    73
1070
     1
1070
   171
1070
     3
1070
   274
1070
     4
1070
   177
1070
     2
1070
   176
1070
     2
1070
   178
1070
     2
1070
    78
1070
     8
1070
    48
1040
-0.1
1070
    41
1040
3.5
1070
   147
1040
1.5
1070
    42
1040
1.5875
1070
    44
1040
2.0
1070
   140
1040
3.0
1002
}
1001
ACAD_DSTYLE_DIM_LINETYPE
1070
   380
1005
16
1001
ACAD_DSTYLE_DIM_EXT1_LINETYPE
1070
   381
1005
16
1001
ACAD_DSTYLE_DIM_EXT2_LINETYPE
1070
   382
1005
16
0
DIMENSION
5
138
100
AcDbEntity
8
2
62
256
6
ByLayer
370
18
48
1
60
0
100
AcDbDimension
2
_U3
10
7
20
-34.606724
30
0
11
14.5
21
-34.606724
31
0
70
32
71
1
72
1
41
1
210
0
220
0
230
1
3
Standard
100
AcDbAlignedDimension
13
22
23
0
33
0
14
7
24
-0.85
34
0
50
0
100
AcDbRotatedDimension
1001
ACAD
1000
DSTYLE
1002
{
1070
   371
1070
    13
1070
   372
1070
    13
1070
     3
1000

1070
   170
1070
     0
1070
   144
1040
1.0
1070
   277
1070
     2
1070
   284
1070
     8
1070
   278
1070
    46
1070
   146
1040
1.166667
1070
   345
1005
16
1070
   347
1005
16
1070
   346
1005
16
1070
   344
1005
0
1070
   343
1005
0
1070
   172
1070
     1
1070
    76
1070
     0
1070
    75
1070
     0
1070
   282
1070
     0
1070
   281
1070
     0
1070
    71
1070
     0
1070
    74
1070
     0
1070
   279
1070
     0
1070
   173
1070
     1
1070
   340
1005
CE
1070
   271
1070
     2
1070
   272
1070
     3
1070
    77
1070
     1
1070
    73
1070
     1
1070
   171
1070
     3
1070
   274
1070
     4
1070
   177
1070
     2
1070
   176
1070
     2
1070
   178
1070
     2
1070
    78
1070
     8
1070
    48
1040
-0.1
1070
    41
1040
3.5
1070
   147
1040
1.5
1070
    42
1040
1.5875
1070
    44
1040
2.0
1070
   140
1040
3.0
1002
}
1001
ACAD_DSTYLE_DIM_LINETYPE
1070
   380
1005
16
1001
ACAD_DSTYLE_DIM_EXT1_LINETYPE
1070
   381
1005
16
1001
ACAD_DSTYLE_DIM_EXT2_LINETYPE
1070
   382
1005
16
0
ENDSEC
0
SECTION
2
OBJECTS
0
DICTIONARY
5
1c3
330
0
100
AcDbDictionary
280
0
281
1
3
ACAD_GROUP
350
1c4
3
ACAD_MLINESTYLE
350
1c5
0
DICTIONARY
5
1c4
330
0
100
AcDbDictionary
280
0
281
1
0
DICTIONARY
5
1c5
330
0
100
AcDbDictionary
280
0
281
1
3
Standard
350
18
0
MLINESTYLE
5
18
330
1c5
100
AcDbMlineStyle
2
Standard
70
0
3

62
256
51
90
52
90
71
2
49
-0.5
62
256
6
ByLayer
49
0.5
62
256
6
ByLayer
0
RASTERVARIABLES
5
1af
330

100
AcDbRasterVariables
90
0
70
1
71
1
72
1
0
ENDSEC
0
EOF
