0
SECTION
2
HEADER
9
$ACADVER
1
AC1015
9
$DWGCODEPAGE
3
ANSI_1252
9
$HANDSEED
5
1be
9
$ANGBASE
50
0
9
$ANGDIR
70
0
9
$ATTMODE
70
1
9
$AUNITS
70
0
9
$AUPREC
70
0
9
$CECOLOR
62
256
9
$CELTSCALE
40
1
9
$CELTYPE
6
ByLayer
9
$CELWEIGHT
370
18
9
$CLAYER
8
0
9
$CMLJUST
70
0
9
$CMLSCALE
40
1
9
$CMLSTYLE
2
Standard
9
$DIMSTYLE
2
Standard
9
$TEXTSIZE
40
0.2
9
$TEXTSTYLE
7
Standard
9
$LUNITS
70
2
9
$LUPREC
70
4
9
$EXTNAMES
290
1
9
$INSUNITS
70
4
9
$LTSCALE
40
1
9
$LWDISPLAY
290
1
9
$PDMODE
70
0
9
$PDSIZE
40
0
9
$PLINEGEN
70
0
0
ENDSEC
0
SECTION
2
CLASSES
0
CLASS
1
RASTERVARIABLES
2
AcDbRasterVariables
3
ISM
90
0
280
0
281
0
0
ENDSEC
0
SECTION
2
TABLES
0
TABLE
2
VPORT
5
1b4
100
AcDbSymbolTable
0
VPORT
5
1
100
AcDbSymbolTableRecord
100
AcDbViewportTableRecord
2
*Active
70
0
10
0
20
0
11
1
21
1
12
-1
22
1
13
0
23
0
14
0.5
24
0.5
15
10
25
10
16
0
26
0
36
1
17
0
27
0
37
0
0
ENDTAB
0
TABLE
2
LTYPE
5
1b5
100
AcDbSymbolTable
0
LTYPE
5
14
100
AcDbSymbolTableRecord
100
AcDbLinetypeTableRecord
70
0
2
ByBlock
3

72
65
73
0
40
0
0
LTYPE
5
15
100
AcDbSymbolTableRecord
100
AcDbLinetypeTableRecord
70
0
2
ByLayer
3

72
65
73
0
40
0
0
LTYPE
5
16
100
AcDbSymbolTableRecord
100
AcDbLinetypeTableRecord
70
0
2
Continuous
3
Solid line
72
65
73
0
40
0
0
LTYPE
5
6E
100
AcDbSymbolTableRecord
100
AcDbLinetypeTableRecord
70
0
2
CENTER
3
____ _ ____ _ ____ _ ____
72
65
73
4
40
47.5
49
22
74
0
49
-8.5
74
0
49
8.5
74
0
49
-8.5
74
0
0
LTYPE
5
6F
100
AcDbSymbolTableRecord
100
AcDbLinetypeTableRecord
70
0
2
DASHED
3
__ __ __ __ __ __ __ __ __
72
65
73
2
40
25.72
49
12.86
74
0
49
-12.86
74
0
0
ENDTAB
0
TABLE
2
LAYER
5
1b6
100
AcDbSymbolTable
0
LAYER
5
10
100
AcDbSymbolTableRecord
100
AcDbLayerTableRecord
2
0
70
0
62
7
6
Continuous
290
1
370
-3
390
0
0
LAYER
5
71
100
AcDbSymbolTableRecord
100
AcDbLayerTableRecord
2
80
70
0
62
-6
6
Continuous
290
1
370
-3
390
0
0
LAYER
5
73
100
AcDbSymbolTableRecord
100
AcDbLayerTableRecord
2
1
70
0
62
4
6
Continuous
290
1
370
-3
390
0
0
LAYER
5
7F
100
AcDbSymbolTableRecord
100
AcDbLayerTableRecord
2
4
70
0
62
-2
6
CENTER
290
1
370
-3
390
0
0
LAYER
5
9F
100
AcDbSymbolTableRecord
100
AcDbLayerTableRecord
2
2
70
0
62
7
6
Continuous
290
1
370
-3
390
0
0
LAYER
5
E3
100
AcDbSymbolTableRecord
100
AcDbLayerTableRecord
2
Defpoints
70
0
62
7
6
Continuous
290
0
370
-3
390
0
0
LAYER
5
1a0
100
AcDbSymbolTableRecord
100
AcDbLayerTableRecord
2
SK4
70
0
62
2
6
CENTER
290
1
370
-3
390
0
0
LAYER
5
1a1
100
AcDbSymbolTableRecord
100
AcDbLayerTableRecord
2
SK1
70
0
62
4
6
Continuous
290
1
370
-3
390
0
0
LAYER
5
1a2
100
AcDbSymbolTableRecord
100
AcDbLayerTableRecord
2
SK2
70
0
62
7
6
Continuous
290
1
370
-3
390
0
0
LAYER
5
1a3
100
AcDbSymbolTableRecord
100
AcDbLayerTableRecord
2
SK6
70
0
62
5
6
Continuous
290
1
370
-3
390
0
0
ENDTAB
0
TABLE
2
STYLE
5
1b7
100
AcDbSymbolTable
0
STYLE
5
11
100
AcDbSymbolTableRecord
100
AcDbTextStyleTableRecord
2
Standard
3
txt
70
0
71
0
40
0
41
1
42
0
50
0
0
STYLE
5
BF
100
AcDbSymbolTableRecord
100
AcDbTextStyleTableRecord
2
iso_b_vert
3
simplex.shx
70
0
71
0
40
0
41
1
42
0
50
0
0
STYLE
5
C0
100
AcDbSymbolTableRecord
100
AcDbTextStyleTableRecord
2
DWGDirectTextStyle
3
simplex
70
0
71
0
40
0
41
1
42
0
50
0
0
ENDTAB
0
TABLE
2
DIMSTYLE
5
1b8
100
AcDbSymbolTable
100
AcDbDimStyleTable
0
DIMSTYLE
105
27
100
AcDbSymbolTableRecord
100
AcDbDimStyleTableRecord
2
Standard
70
0
3
<>
41
0.18
42
0.0625
44
0.18
140
0.18
147
0.09
73
0
74
0
77
1
271
2
275
0
278
52
280
0
340
11
0
ENDTAB
0
TABLE
2
VIEW
5
1b9
100
AcDbSymbolTable
0
ENDTAB
0
TABLE
2
UCS
5
1ba
100
AcDbSymbolTable
0
ENDTAB
0
TABLE
2
APPID
5
1bb
100
AcDbSymbolTable
0
APPID
5
12
100
AcDbSymbolTableRecord
100
AcDbRegAppTableRecord
2
ACAD
70
0
0
APPID
5
DF
100
AcDbSymbolTableRecord
100
AcDbRegAppTableRecord
2
ACAD_DSTYLE_DIMBREAK
70
0
0
APPID
5
15F
100
AcDbSymbolTableRecord
100
AcDbRegAppTableRecord
2
ACAD_DSTYLE_DIM_LINETYPE
70
0
0
APPID
5
160
100
AcDbSymbolTableRecord
100
AcDbRegAppTableRecord
2
ACAD_DSTYLE_DIM_EXT1_LINETYPE
70
0
0
APPID
5
161
100
AcDbSymbolTableRecord
100
AcDbRegAppTableRecord
2
ACAD_DSTYLE_DIM_EXT2_LINETYPE
70
0
0
APPID
5
19C
100
AcDbSymbolTableRecord
100
AcDbRegAppTableRecord
2
ACAD_MLEADERVER
70
0
0
ENDTAB
0
TABLE
2
BLOCK_RECORD
5
1bc
100
AcDbSymbolTable
0
BLOCK_RECORD
5
1F
100
AcDbSymbolTableRecord
100
AcDbBlockTableRecord
2
*Model_Space
340
0
70
0
0
BLOCK_RECORD
5
1B
100
AcDbSymbolTableRecord
100
AcDbBlockTableRecord
2
*Paper_Space
340
0
70
0
0
BLOCK_RECORD
5
23
100
AcDbSymbolTableRecord
100
AcDbBlockTableRecord
2
*Paper_Space0
340
0
70
0
0
BLOCK_RECORD
5
E4
100
AcDbSymbolTableRecord
100
AcDbBlockTableRecord
2
*D1
340
0
70
0
0
BLOCK_RECORD
5
F0
100
AcDbSymbolTableRecord
100
AcDbBlockTableRecord
2
_U0
340
0
70
0
0
BLOCK_RECORD
5
FC
100
AcDbSymbolTableRecord
100
AcDbBlockTableRecord
2
*D3
340
0
70
0
0
BLOCK_RECORD
5
108
100
AcDbSymbolTableRecord
100
AcDbBlockTableRecord
2
_U1
340
0
70
0
0
BLOCK_RECORD
5
114
100
AcDbSymbolTableRecord
100
AcDbBlockTableRecord
2
*D5
340
0
70
0
0
BLOCK_RECORD
5
120
100
AcDbSymbolTableRecord
100
AcDbBlockTableRecord
2
_U2
340
0
70
0
0
BLOCK_RECORD
5
12C
100
AcDbSymbolTableRecord
100
AcDbBlockTableRecord
2
*D7
340
0
70
0
0
BLOCK_RECORD
5
138
100
AcDbSymbolTableRecord
100
AcDbBlockTableRecord
2
_U3
340
0
70
0
0
ENDTAB
0
ENDSEC
0
SECTION
2
BLOCKS
0
BLOCK
5
20
100
AcDbEntity
8
0
100
AcDbBlockBegin
2
*Model_Space
70
0
10
0
20
0
30
0
3
*Model_Space
0
ENDBLK
5
21
100
AcDbEntity
8
0
100
AcDbBlockEnd
0
BLOCK
5
1C
100
AcDbEntity
8
0
100
AcDbBlockBegin
2
*Paper_Space
70
0
10
0
20
0
30
0
3
*Paper_Space
0
ENDBLK
5
1D
100
AcDbEntity
8
0
100
AcDbBlockEnd
0
BLOCK
5
24
100
AcDbEntity
8
0
100
AcDbBlockBegin
2
*Paper_Space0
70
0
10
0
20
0
30
0
3
*Paper_Space0
0
ENDBLK
5
25
100
AcDbEntity
8
0
100
AcDbBlockEnd
0
BLOCK
5
E5
100
AcDbEntity
8
0
100
AcDbBlockBegin
2
*D1
70
1
10
0
20
0
30
0
3
*D1
0
LINE
5
E7
100
AcDbEntity
8
0
62
256
6
ByLayer
370
-2
48
1
60
0
100
AcDbLine
10
-70
20
-21.5875
30
0
11
-70
21
-55.207178
31
0
39
0
210
0
220
0
230
1
0
LINE
5
E8
100
AcDbEntity
8
0
62
256
6
ByLayer
370
-2
48
1
60
0
100
AcDbLine
10
381.5
20
-1.5875
30
0
11
381.5
21
-55.207178
31
0
39
0
210
0
220
0
230
1
0
LINE
5
E9
100
AcDbEntity
8
0
62
256
6
ByLayer
370
-2
48
1
60
0
100
AcDbLine
10
-66.5
20
-53.207178
30
0
11
378
21
-53.207178
31
0
39
0
210
0
220
0
230
1
0
SOLID
5
EA
100
AcDbEntity
8
0
62
256
6
ByLayer
370
-1
48
1
60
0
100
AcDbTrace
10
-66.5
20
-52.623845
30
0
11
-66.5
21
-53.790512
31
0
12
-70
22
-53.207178
32
0
13
-70
23
-53.207178
33
0
39
0
210
0
220
0
230
1
0
SOLID
5
EB
100
AcDbEntity
8
0
62
256
6
ByLayer
370
-1
48
1
60
0
100
AcDbTrace
10
378
20
-53.790512
30
0
11
378
21
-52.623845
31
0
12
381.5
22
-53.207178
32
0
13
381.5
23
-53.207178
33
0
39
0
210
0
220
0
230
1
0
MTEXT
5
EC
100
AcDbEntity
8
0
62
256
6
ByLayer
370
18
48
1
60
0
100
AcDbMText
10
155.75
20
-47.207178
30
0
210
0
220
0
230
1
1
\A1;451.5
40
3
41
0
44
1
50
0
71
5
72
5
7
iso_b_vert
0
POINT
5
ED
100
AcDbEntity
8
Defpoints
62
0
6
ByLayer
370
-1
48
1
60
0
100
AcDbPoint
10
-70
20
-20
30
0
39
0
210
0
220
0
230
1
50
360
0
POINT
5
EE
100
AcDbEntity
8
Defpoints
62
0
6
ByLayer
370
-1
48
1
60
0
100
AcDbPoint
10
381.5
20
0
30
0
39
0
210
0
220
0
230
1
50
360
0
POINT
5
EF
100
AcDbEntity
8
Defpoints
62
0
6
ByLayer
370
-1
48
1
60
0
100
AcDbPoint
10
381.5
20
-53.207178
30
0
39
0
210
0
220
0
230
1
50
360
0
ENDBLK
5
E6
100
AcDbEntity
8
0
100
AcDbBlockEnd
0
BLOCK
5
F7
100
AcDbEntity
8
0
100
AcDbBlockBegin
2
_U0
70
0
10
0
20
0
30
0
3
_U0
0
MTEXT
5
F1
100
AcDbEntity
8
SK2
62
256
6
ByLayer
370
18
48
1
60
0
100
AcDbMText
10
150.363715
20
-52.322064
30
0
210
0
220
0
230
1
1
\W0.7237;451.50
40
3
41
0
44
1.084337
50
0
71
7
72
5
7
iso_b_vert
0
LINE
5
F2
100
AcDbEntity
8
SK2
62
256
6
ByLayer
370
13
48
1
60
0
100
AcDbLine
10
-70
20
-21.5875
30
0
11
-70
21
-55.207178
31
0
39
0
210
0
220
0
230
1
0
LINE
5
F3
100
AcDbEntity
8
SK2
62
256
6
ByLayer
370
13
48
1
60
0
100
AcDbLine
10
381.5
20
-1.5875
30
0
11
381.5
21
-55.207178
31
0
39
0
210
0
220
0
230
1
0
LINE
5
F4
100
AcDbEntity
8
SK2
62
256
6
ByLayer
370
13
48
1
60
0
100
AcDbLine
10
-70
20
-53.207178
30
0
11
381.5
21
-53.207178
31
0
39
0
210
0
220
0
230
1
0
SOLID
5
F5
100
AcDbEntity
8
SK2
62
256
6
ByLayer
370
18
48
1
60
0
100
AcDbTrace
10
-70
20
-53.207178
30
0
11
-66.500002
21
-52.746395
31
0
12
-66.499998
22
-53.667962
32
0
13
-66.499998
23
-53.667962
33
0
39
0
210
0
220
0
230
1
0
SOLID
5
F6
100
AcDbEntity
8
SK2
62
256
6
ByLayer
370
18
48
1
60
0
100
AcDbTrace
10
381.5
20
-53.207178
30
0
11
378.000002
21
-53.667962
31
0
12
377.999998
22
-52.746395
32
0
13
377.999998
23
-52.746395
33
0
39
0
210
0
220
0
230
1
0
ENDBLK
5
F8
100
AcDbEntity
8
0
100
AcDbBlockEnd
0
BLOCK
5
FD
100
AcDbEntity
8
0
100
AcDbBlockBegin
2
*D3
70
1
10
0
20
0
30
0
3
*D3
0
LINE
5
FF
100
AcDbEntity
8
0
62
256
6
ByLayer
370
-2
48
1
60
0
100
AcDbLine
10
381.5
20
-1.5875
30
0
11
381.5
21
-45.207178
31
0
39
0
210
0
220
0
230
1
0
LINE
5
100
100
AcDbEntity
8
0
62
256
6
ByLayer
370
-2
48
1
60
0
100
AcDbLine
10
3
20
-22.0875
30
0
11
3
21
-45.207178
31
0
39
0
210
0
220
0
230
1
0
LINE
5
101
100
AcDbEntity
8
0
62
256
6
ByLayer
370
-2
48
1
60
0
100
AcDbLine
10
378
20
-43.207178
30
0
11
6.5
21
-43.207178
31
0
39
0
210
0
220
0
230
1
0
SOLID
5
102
100
AcDbEntity
8
0
62
256
6
ByLayer
370
-1
48
1
60
0
100
AcDbTrace
10
378
20
-43.790512
30
0
11
378
21
-42.623845
31
0
12
381.5
22
-43.207178
32
0
13
381.5
23
-43.207178
33
0
39
0
210
0
220
0
230
1
0
SOLID
5
103
100
AcDbEntity
8
0
62
256
6
ByLayer
370
-1
48
1
60
0
100
AcDbTrace
10
6.5
20
-42.623845
30
0
11
6.5
21
-43.790512
31
0
12
3
22
-43.207178
32
0
13
3
23
-43.207178
33
0
39
0
210
0
220
0
230
1
0
MTEXT
5
104
100
AcDbEntity
8
0
62
256
6
ByLayer
370
18
48
1
60
0
100
AcDbMText
10
192.25
20
-37.207178
30
0
210
0
220
0
230
1
1
\A1;378.5
40
3
41
0
44
1
50
0
71
5
72
5
7
iso_b_vert
0
POINT
5
105
100
AcDbEntity
8
Defpoints
62
0
6
ByLayer
370
-1
48
1
60
0
100
AcDbPoint
10
381.5
20
0
30
0
39
0
210
0
220
0
230
1
50
360
0
POINT
5
106
100
AcDbEntity
8
Defpoints
62
0
6
ByLayer
370
-1
48
1
60
0
100
AcDbPoint
10
3
20
-20.5
30
0
39
0
210
0
220
0
230
1
50
360
0
POINT
5
107
100
AcDbEntity
8
Defpoints
62
0
6
ByLayer
370
-1
48
1
60
0
100
AcDbPoint
10
3
20
-43.207178
30
0
39
0
210
0
220
0
230
1
50
360
0
ENDBLK
5
FE
100
AcDbEntity
8
0
100
AcDbBlockEnd
0
BLOCK
5
10F
100
AcDbEntity
8
0
100
AcDbBlockBegin
2
_U1
70
0
10
0
20
0
30
0
3
_U1
0
MTEXT
5
109
100
AcDbEntity
8
SK2
62
256
6
ByLayer
370
18
48
1
60
0
100
AcDbMText
10
186.646716
20
-42.322064
30
0
210
0
220
0
230
1
1
\W0.7513;378.50
40
3
41
0
44
1.084337
50
0
71
7
72
5
7
iso_b_vert
0
LINE
5
10A
100
AcDbEntity
8
SK2
62
256
6
ByLayer
370
13
48
1
60
0
100
AcDbLine
10
381.5
20
-1.5875
30
0
11
381.5
21
-45.207178
31
0
39
0
210
0
220
0
230
1
0
LINE
5
10B
100
AcDbEntity
8
SK2
62
256
6
ByLayer
370
13
48
1
60
0
100
AcDbLine
10
3
20
-22.0875
30
0
11
3
21
-45.207178
31
0
39
0
210
0
220
0
230
1
0
LINE
5
10C
100
AcDbEntity
8
SK2
62
256
6
ByLayer
370
13
48
1
60
0
100
AcDbLine
10
381.5
20
-43.207178
30
0
11
3
21
-43.207178
31
0
39
0
210
0
220
0
230
1
0
SOLID
5
10D
100
AcDbEntity
8
SK2
62
256
6
ByLayer
370
18
48
1
60
0
100
AcDbTrace
10
381.5
20
-43.207178
30
0
11
378.000002
21
-43.667962
31
0
12
377.999998
22
-42.746395
32
0
13
377.999998
23
-42.746395
33
0
39
0
210
0
220
0
230
1
0
SOLID
5
10E
100
AcDbEntity
8
SK2
62
256
6
ByLayer
370
18
48
1
60
0
100
AcDbTrace
10
3
20
-43.207178
30
0
11
6.499998
21
-42.746395
31
0
12
6.500002
22
-43.667962
32
0
13
6.500002
23
-43.667962
33
0
39
0
210
0
220
0
230
1
0
ENDBLK
5
110
100
AcDbEntity
8
0
100
AcDbBlockEnd
0
BLOCK
5
115
100
AcDbEntity
8
0
100
AcDbBlockBegin
2
*D5
70
1
10
0
20
0
30
0
3
*D5
0
LINE
5
117
100
AcDbEntity
8
0
62
256
6
ByLayer
370
-2
48
1
60
0
100
AcDbLine
10
-70
20
-21.5875
30
0
11
-70
21
-45.207178
31
0
39
0
210
0
220
0
230
1
0
LINE
5
118
100
AcDbEntity
8
0
62
256
6
ByLayer
370
-2
48
1
60
0
100
AcDbLine
10
0
20
-21.5875
30
0
11
0
21
-45.207178
31
0
39
0
210
0
220
0
230
1
0
LINE
5
119
100
AcDbEntity
8
0
62
256
6
ByLayer
370
-2
48
1
60
0
100
AcDbLine
10
-66.5
20
-43.207178
30
0
11
-3.5
21
-43.207178
31
0
39
0
210
0
220
0
230
1
0
SOLID
5
11A
100
AcDbEntity
8
0
62
256
6
ByLayer
370
-1
48
1
60
0
100
AcDbTrace
10
-66.5
20
-42.623845
30
0
11
-66.5
21
-43.790512
31
0
12
-70
22
-43.207178
32
0
13
-70
23
-43.207178
33
0
39
0
210
0
220
0
230
1
0
SOLID
5
11B
100
AcDbEntity
8
0
62
256
6
ByLayer
370
-1
48
1
60
0
100
AcDbTrace
10
-3.5
20
-43.790512
30
0
11
-3.5
21
-42.623845
31
0
12
0
22
-43.207178
32
0
13
0
23
-43.207178
33
0
39
0
210
0
220
0
230
1
0
MTEXT
5
11C
100
AcDbEntity
8
0
62
256
6
ByLayer
370
18
48
1
60
0
100
AcDbMText
10
-35
20
-37.207178
30
0
210
0
220
0
230
1
1
\A1;70
40
3
41
0
44
1
50
0
71
5
72
5
7
iso_b_vert
0
POINT
5
11D
100
AcDbEntity
8
Defpoints
62
0
6
ByLayer
370
-1
48
1
60
0
100
AcDbPoint
10
-70
20
-20
30
0
39
0
210
0
220
0
230
1
50
360
0
POINT
5
11E
100
AcDbEntity
8
Defpoints
62
0
6
ByLayer
370
-1
48
1
60
0
100
AcDbPoint
10
0
20
-20
30
0
39
0
210
0
220
0
230
1
50
360
0
POINT
5
11F
100
AcDbEntity
8
Defpoints
62
0
6
ByLayer
370
-1
48
1
60
0
100
AcDbPoint
10
0
20
-43.207178
30
0
39
0
210
0
220
0
230
1
50
360
0
ENDBLK
5
116
100
AcDbEntity
8
0
100
AcDbBlockEnd
0
BLOCK
5
127
100
AcDbEntity
8
0
100
AcDbBlockBegin
2
_U2
70
0
10
0
20
0
30
0
3
_U2
0
MTEXT
5
121
100
AcDbEntity
8
SK2
62
256
6
ByLayer
370
18
48
1
60
0
100
AcDbMText
10
-39.48237
20
-42.322064
30
0
210
0
220
0
230
1
1
\W0.7468;70.00
40
3
41
0
44
1.084337
50
0
71
7
72
5
7
iso_b_vert
0
LINE
5
122
100
AcDbEntity
8
SK2
62
256
6
ByLayer
370
13
48
1
60
0
100
AcDbLine
10
-70
20
-21.5875
30
0
11
-70
21
-45.207178
31
0
39
0
210
0
220
0
230
1
0
LINE
5
123
100
AcDbEntity
8
SK2
62
256
6
ByLayer
370
13
48
1
60
0
100
AcDbLine
10
0
20
-21.5875
30
0
11
0
21
-45.207178
31
0
39
0
210
0
220
0
230
1
0
LINE
5
124
100
AcDbEntity
8
SK2
62
256
6
ByLayer
370
13
48
1
60
0
100
AcDbLine
10
-70
20
-43.207178
30
0
11
0
21
-43.207178
31
0
39
0
210
0
220
0
230
1
0
SOLID
5
125
100
AcDbEntity
8
SK2
62
256
6
ByLayer
370
18
48
1
60
0
100
AcDbTrace
10
-70
20
-43.207178
30
0
11
-66.500002
21
-42.746395
31
0
12
-66.499998
22
-43.667962
32
0
13
-66.499998
23
-43.667962
33
0
39
0
210
0
220
0
230
1
0
SOLID
5
126
100
AcDbEntity
8
SK2
62
256
6
ByLayer
370
18
48
1
60
0
100
AcDbTrace
10
0
20
-43.207178
30
0
11
-3.499998
21
-43.667962
31
0
12
-3.500002
22
-42.746395
32
0
13
-3.500002
23
-42.746395
33
0
39
0
210
0
220
0
230
1
0
ENDBLK
5
128
100
AcDbEntity
8
0
100
AcDbBlockEnd
0
BLOCK
5
12D
100
AcDbEntity
8
0
100
AcDbBlockBegin
2
*D7
70
1
10
0
20
0
30
0
3
*D7
0
LINE
5
12F
100
AcDbEntity
8
0
62
256
6
ByLayer
370
-2
48
1
60
0
100
AcDbLine
10
381.5
20
1.5875
30
0
11
381.5
21
42.207178
31
0
39
0
210
0
220
0
230
1
0
LINE
5
130
100
AcDbEntity
8
0
62
256
6
ByLayer
370
-2
48
1
60
0
100
AcDbLine
10
30
20
22.0875
30
0
11
30
21
42.207178
31
0
39
0
210
0
220
0
230
1
0
LINE
5
131
100
AcDbEntity
8
0
62
256
6
ByLayer
370
-2
48
1
60
0
100
AcDbLine
10
378
20
40.207178
30
0
11
33.5
21
40.207178
31
0
39
0
210
0
220
0
230
1
0
SOLID
5
132
100
AcDbEntity
8
0
62
256
6
ByLayer
370
-1
48
1
60
0
100
AcDbTrace
10
378
20
39.623845
30
0
11
378
21
40.790512
31
0
12
381.5
22
40.207178
32
0
13
381.5
23
40.207178
33
0
39
0
210
0
220
0
230
1
0
SOLID
5
133
100
AcDbEntity
8
0
62
256
6
ByLayer
370
-1
48
1
60
0
100
AcDbTrace
10
33.5
20
40.790512
30
0
11
33.5
21
39.623845
31
0
12
30
22
40.207178
32
0
13
30
23
40.207178
33
0
39
0
210
0
220
0
230
1
0
MTEXT
5
134
100
AcDbEntity
8
0
62
256
6
ByLayer
370
18
48
1
60
0
100
AcDbMText
10
205.75
20
46.207178
30
0
210
0
220
0
230
1
1
\A1;351.5
40
3
41
0
44
1
50
0
71
5
72
5
7
iso_b_vert
0
POINT
5
135
100
AcDbEntity
8
Defpoints
62
0
6
ByLayer
370
-1
48
1
60
0
100
AcDbPoint
10
381.5
20
0
30
0
39
0
210
0
220
0
230
1
50
360
0
POINT
5
136
100
AcDbEntity
8
Defpoints
62
0
6
ByLayer
370
-1
48
1
60
0
100
AcDbPoint
10
30
20
20.5
30
0
39
0
210
0
220
0
230
1
50
360
0
POINT
5
137
100
AcDbEntity
8
Defpoints
62
0
6
ByLayer
370
-1
48
1
60
0
100
AcDbPoint
10
30
20
40.207178
30
0
39
0
210
0
220
0
230
1
50
360
0
ENDBLK
5
12E
100
AcDbEntity
8
0
100
AcDbBlockEnd
0
BLOCK
5
13F
100
AcDbEntity
8
0
100
AcDbBlockBegin
2
_U3
70
0
10
0
20
0
30
0
3
_U3
0
MTEXT
5
139
100
AcDbEntity
8
SK2
62
256
6
ByLayer
370
18
48
1
60
0
100
AcDbMText
10
200.521658
20
41.092293
30
0
210
0
220
0
230
1
1
\W0.7022;351.50
40
3
41
0
44
1.084337
50
0
71
7
72
5
7
iso_b_vert
0
LINE
5
13A
100
AcDbEntity
8
SK2
62
256
6
ByLayer
370
13
48
1
60
0
100
AcDbLine
10
381.5
20
1.5875
30
0
11
381.5
21
42.207178
31
0
39
0
210
0
220
0
230
1
0
LINE
5
13B
100
AcDbEntity
8
SK2
62
256
6
ByLayer
370
13
48
1
60
0
100
AcDbLine
10
30
20
22.0875
30
0
11
30
21
42.207178
31
0
39
0
210
0
220
0
230
1
0
LINE
5
13C
100
AcDbEntity
8
SK2
62
256
6
ByLayer
370
13
48
1
60
0
100
AcDbLine
10
381.5
20
40.207178
30
0
11
30
21
40.207178
31
0
39
0
210
0
220
0
230
1
0
SOLID
5
13D
100
AcDbEntity
8
SK2
62
256
6
ByLayer
370
18
48
1
60
0
100
AcDbTrace
10
381.5
20
40.207178
30
0
11
378.000002
21
39.746395
31
0
12
377.999998
22
40.667962
32
0
13
377.999998
23
40.667962
33
0
39
0
210
0
220
0
230
1
0
SOLID
5
13E
100
AcDbEntity
8
SK2
62
256
6
ByLayer
370
18
48
1
60
0
100
AcDbTrace
10
30
20
40.207178
30
0
11
33.499998
21
40.667962
31
0
12
33.500002
22
39.746395
32
0
13
33.500002
23
39.746395
33
0
39
0
210
0
220
0
230
1
0
ENDBLK
5
140
100
AcDbEntity
8
0
100
AcDbBlockEnd
0
ENDSEC
0
SECTION
2
ENTITIES
0
ARC
5
B0
100
AcDbEntity
8
SK2
62
256
6
ByLayer
370
13
48
1
60
0
100
AcDbCircle
39
0
10
381.5
20
0
30
0
40
19
210
0
220
0
230
1
100
AcDbArc
50
290
51
70
0
ELLIPSE
5
B1
100
AcDbEntity
8
SK1
62
256
6
ByLayer
370
18
48
1
60
0
100
AcDbEllipse
10
-28.447374
20
0
30
0
11
21.4473742004989
21
-2.43020130678638E-14
31
0
210
0
220
0
230
1
40
0.932515
41
-0.451026811796204
42
0.451026811796208
0
POINT
5
70
100
AcDbEntity
8
80
62
256
6
ByLayer
370
18
48
1
60
0
100
AcDbPoint
10
0
20
0
30
0
39
0
210
0
220
0
230
1
50
360
0
POINT
5
72
100
AcDbEntity
8
1
62
256
6
ByLayer
370
18
48
1
60
1
100
AcDbPoint
10
-70
20
-20
30
0
39
0
210
0
220
0
230
1
50
360
0
POINT
5
74
100
AcDbEntity
8
1
62
256
6
ByLayer
370
18
48
1
60
1
100
AcDbPoint
10
381.5
20
0
30
0
39
0
210
0
220
0
230
1
50
360
0
POINT
5
75
100
AcDbEntity
8
1
62
256
6
ByLayer
370
18
48
1
60
1
100
AcDbPoint
10
381.5
20
0
30
0
39
0
210
0
220
0
230
1
50
360
0
POINT
5
76
100
AcDbEntity
8
1
62
256
6
ByLayer
370
18
48
1
60
1
100
AcDbPoint
10
3
20
-20.5
30
0
39
0
210
0
220
0
230
1
50
360
0
POINT
5
77
100
AcDbEntity
8
1
62
256
6
ByLayer
370
18
48
1
60
1
100
AcDbPoint
10
-70
20
-20
30
0
39
0
210
0
220
0
230
1
50
360
0
POINT
5
78
100
AcDbEntity
8
1
62
256
6
ByLayer
370
18
48
1
60
1
100
AcDbPoint
10
0
20
-20
30
0
39
0
210
0
220
0
230
1
50
360
0
POINT
5
79
100
AcDbEntity
8
1
62
256
6
ByLayer
370
18
48
1
60
1
100
AcDbPoint
10
381.5
20
0
30
0
39
0
210
0
220
0
230
1
50
360
0
POINT
5
7A
100
AcDbEntity
8
1
62
256
6
ByLayer
370
18
48
1
60
1
100
AcDbPoint
10
30
20
20.5
30
0
39
0
210
0
220
0
230
1
50
360
0
SPLINE
5
B2
100
AcDbEntity
8
1
62
256
6
ByLayer
370
18
48
1
60
0
100
AcDbSpline
70
4
71
3
72
24
73
20
40
0
40
0
40
0
40
0
40
0.0624999999999967
40
0.0624999999999967
40
0.124999999999993
40
0.124999999999993
40
0.249999999999994
40
0.249999999999994
40
0.374999999999995
40
0.374999999999995
40
0.499999999999996
40
0.499999999999996
40
0.749999999999998
40
0.749999999999998
40
0.812499999999999
40
0.812499999999999
40
0.874999999999999
40
0.874999999999999
40
1
40
1
40
1
40
1
41
1
10
374.038610197538
20
-2.92657833492817
30
0
41
1
10
373.631149352589
20
-2.77959273715339
30
0
41
1
10
373.223831450272
20
-2.63226074105231
30
0
41
1
10
372.409261389008
20
-2.33751463299015
30
0
41
1
10
372.002002261897
20
-2.19011977175421
30
0
41
1
10
370.780328758268
20
-1.74779634801911
30
0
41
1
10
369.966020122855
20
-1.45272367458136
30
0
41
1
10
368.337777038764
20
-0.861936763531077
30
0
41
1
10
367.523844369658
20
-0.566217580128864
30
0
41
1
10
365.896487277452
20
0.026231642270659
30
0
41
1
10
365.083157508873
20
0.323222503936506
30
0
41
1
10
362.642409022539
20
1.21150652709906
30
0
41
1
10
361.014577393812
20
1.80107215490963
30
0
41
1
10
358.979519430012
20
2.53630552608035
30
0
41
1
10
358.572495373752
20
2.68326850260823
30
0
41
1
10
357.758435374015
20
2.97706242037856
30
0
41
1
10
357.351401178246
20
3.1238980964265
30
0
41
1
10
356.129950782076
20
3.56329914907639
30
0
41
1
10
355.31517902906
20
3.85473768626457
30
0
41
1
10
354.5
20
4.1448581372965
30
0
0
SPLINE
5
B3
100
AcDbEntity
8
1
62
256
6
ByLayer
370
18
48
1
60
0
100
AcDbSpline
70
4
71
3
72
20
73
16
40
0
40
0
40
0
40
0
40
0.14205437607653
40
0.14205437607653
40
0.31364350086123
40
0.31364350086123
40
0.39943806325358
40
0.39943806325358
40
0.48523262564593
40
0.48523262564593
40
0.571027188038281
40
0.571027188038281
40
0.656821750430631
40
0.656821750430631
40
1
40
1
40
1
40
1
41
1
10
359.806850028436
20
20.4974388378104
30
0
41
1
10
360.480611130107
20
20.497558707378
30
0
41
1
10
361.154418715019
20
20.4932702254161
30
0
41
1
10
362.642040043583
20
20.4741372402529
30
0
41
1
10
363.455860532359
20
20.4572832381143
30
0
41
1
10
364.676411439874
20
20.4223874989233
30
0
41
1
10
365.083231702656
20
20.4091519490259
30
0
41
1
10
365.896785719834
20
20.3794516418085
30
0
41
1
10
366.303499016473
20
20.3629793933331
30
0
41
1
10
367.11695250635
20
20.3268224341764
30
0
41
1
10
367.523737887894
20
20.3071535831606
30
0
41
1
10
368.337521340381
20
20.2646885605288
30
0
41
1
10
368.744496746157
20
20.2418847065658
30
0
41
1
10
370.779695440093
20
20.1199942676213
30
0
41
1
10
372.40895208146
20
19.9974219591501
30
0
41
1
10
374.038610197538
20
19.8490520934537
30
0
0
SPLINE
5
B4
100
AcDbEntity
8
1
62
256
6
ByLayer
370
18
48
1
60
0
100
AcDbSpline
70
4
71
3
72
178
73
174
40
0
40
0
40
0
40
0
40
0.0325425493183874
40
0.0325425493183874
40
0.0406781866479841
40
0.0406781866479841
40
0.0488138239775808
40
0.0488138239775808
40
0.0569494613071775
40
0.0569494613071775
40
0.0650850986367743
40
0.0650850986367743
40
0.0976276479551612
40
0.0976276479551612
40
0.105763285284758
40
0.105763285284758
40
0.113898922614355
40
0.113898922614355
40
0.130170197273548
40
0.130170197273548
40
0.146441471932742
40
0.146441471932742
40
0.154577109262338
40
0.154577109262338
40
0.162712746591935
40
0.162712746591935
40
0.170848383921532
40
0.170848383921532
40
0.178984021251128
40
0.178984021251128
40
0.195255295910322
40
0.195255295910322
40
0.203390933239918
40
0.203390933239918
40
0.211526570569514
40
0.211526570569514
40
0.227797845228707
40
0.227797845228707
40
0.2440691198879
40
0.2440691198879
40
0.252204757217497
40
0.252204757217497
40
0.260340394547093
40
0.260340394547093
40
0.292882943865479
40
0.292882943865479
40
0.301018581195075
40
0.301018581195075
40
0.309154218524672
40
0.309154218524672
40
0.325425493183864
40
0.325425493183864
40
0.333561130513461
40
0.333561130513461
40
0.341696767843057
40
0.341696767843057
40
0.349832405172654
40
0.349832405172654
40
0.35796804250225
40
0.35796804250225
40
0.374239317161443
40
0.374239317161443
40
0.390510591820636
40
0.390510591820636
40
0.398646229150232
40
0.398646229150232
40
0.406781866479829
40
0.406781866479829
40
0.42305314113902
40
0.42305314113902
40
0.439324415798212
40
0.439324415798212
40
0.447460053127808
40
0.447460053127808
40
0.455595690457404
40
0.455595690457404
40
0.471866965116597
40
0.471866965116597
40
0.488138239775789
40
0.488138239775789
40
0.496273877105385
40
0.496273877105385
40
0.504409514434982
40
0.504409514434982
40
0.520680789094174
40
0.520680789094174
40
0.536952063753366
40
0.536952063753366
40
0.545087701082963
40
0.545087701082963
40
0.553223338412559
40
0.553223338412559
40
0.561358975742156
40
0.561358975742156
40
0.569494613071752
40
0.569494613071752
40
0.585765887730945
40
0.585765887730945
40
0.593901525060542
40
0.593901525060542
40
0.602037162390138
40
0.602037162390138
40
0.610172799719735
40
0.610172799719735
40
0.618308437049331
40
0.618308437049331
40
0.634579711708524
40
0.634579711708524
40
0.650850986367717
40
0.650850986367717
40
0.654918805032515
40
0.654918805032515
40
0.658986623697313
40
0.658986623697313
40
0.66712226102691
40
0.66712226102691
40
0.683393535686103
40
0.683393535686103
40
0.699664810345295
40
0.699664810345295
40
0.707800447674892
40
0.707800447674892
40
0.715936085004488
40
0.715936085004488
40
0.73220735966368
40
0.73220735966368
40
0.748478634322873
40
0.748478634322873
40
0.756614271652469
40
0.756614271652469
40
0.764749908982066
40
0.764749908982066
40
0.781021183641259
40
0.781021183641259
40
0.797292458300452
40
0.797292458300452
40
0.805428095630048
40
0.805428095630048
40
0.813563732959645
40
0.813563732959645
40
0.821699370289241
40
0.821699370289241
40
0.829835007618838
40
0.829835007618838
40
0.84610628227803
40
0.84610628227803
40
0.854241919607627
40
0.854241919607627
40
0.862377556937223
40
0.862377556937223
40
0.878648831596417
40
0.878648831596417
40
0.89492010625561
40
0.89492010625561
40
0.903055743585207
40
0.903055743585207
40
0.911191380914804
40
0.911191380914804
40
0.927462655573996
40
0.927462655573996
40
0.943733930233189
40
0.943733930233189
40
0.951869567562786
40
0.951869567562786
40
0.960005204892382
40
0.960005204892382
40
0.976276479551575
40
0.976276479551575
40
0.984412116881171
40
0.984412116881171
40
0.992547754210767
40
0.992547754210767
40
1
40
1
40
1
40
1
41
1
10
26.0337212262353
20
18.5136806061614
30
0
41
1
10
27.7469761290655
20
18.3126781671537
30
0
41
1
10
29.4595068673623
20
18.0873509451233
30
0
41
1
10
31.5982678522954
20
17.7746989286942
30
0
41
1
10
32.025925191146
20
17.7106127060807
30
0
41
1
10
32.8810232650046
20
17.5792858294956
30
0
41
1
10
33.3084529259167
20
17.5120303429742
30
0
41
1
10
34.1631155597716
20
17.3743744175368
30
0
41
1
10
34.5903833190911
20
17.3040186508103
30
0
41
1
10
35.4450327399864
20
17.1605955517496
30
0
41
1
10
35.8723825988349
20
17.0874866337117
30
0
41
1
10
38.0091289174751
20
16.7148114047645
30
0
41
1
10
39.7185888698307
20
16.3940524030107
30
0
41
1
10
41.8545136504713
20
15.963048324723
30
0
41
1
10
42.2816704900936
20
15.8753636601788
30
0
41
1
10
43.1362400827395
20
15.6975624800315
30
0
41
1
10
43.5636304602759
20
15.607410795253
30
0
41
1
10
44.8460297342253
20
15.3330698405988
30
0
41
1
10
45.7012748452998
20
15.1450122030115
30
0
41
1
10
47.412222110254
20
14.7582681573387
30
0
41
1
10
48.2679222364396
20
14.5595790794822
30
0
41
1
10
49.5516487733594
20
14.2531510035039
30
0
41
1
10
49.9795764578554
20
14.1495833540304
30
0
41
1
10
50.8357885205252
20
13.9402427471671
30
0
41
1
10
51.2640781987775
20
13.8344843745676
30
0
41
1
10
52.1209643025971
20
13.6206797509736
30
0
41
1
10
52.5494777550918
20
13.512651244835
30
0
41
1
10
53.4061776206848
20
13.2944199795555
30
0
41
1
10
53.834430331932
20
13.184201826676
30
0
41
1
10
55.1188648017418
20
12.8501745328415
30
0
41
1
10
55.9747225950464
20
12.6229953206932
30
0
41
1
10
57.257693684481
20
12.2750791518707
30
0
41
1
10
57.6851910938553
20
12.1578596259157
30
0
41
1
10
58.5401355811644
20
11.9215370362379
30
0
41
1
10
58.9676189271853
20
11.8025191866673
30
0
41
1
10
60.2500597343474
20
11.4428182731148
30
0
41
1
10
61.1049746571875
20
11.1994126484819
30
0
41
1
10
62.8145435151993
20
10.705024450739
30
0
41
1
10
63.6691978261537
20
10.4540432978822
30
0
41
1
10
64.9508202705896
20
10.0714562188571
30
0
41
1
10
65.3779436549556
20
9.94284598722939
30
0
41
1
10
66.2322095802265
20
9.68392128792186
30
0
41
1
10
66.6594023473654
20
9.55373342832479
30
0
41
1
10
68.7958032722837
20
8.89954405496755
30
0
41
1
10
70.5059797810113
20
8.36498868774277
30
0
41
1
10
72.6440482542478
20
7.68019171103134
30
0
41
1
10
73.0716606477179
20
7.54234764395335
30
0
41
1
10
73.9269853316308
20
7.26515403112407
30
0
41
1
10
74.3547433102319
20
7.12592796157091
30
0
41
1
10
75.6385478245275
20
6.70703913690457
30
0
41
1
10
76.494991162177
20
6.42580625479528
30
0
41
1
10
77.7803493363993
20
6.00054836852379
30
0
41
1
10
78.2089432285989
20
5.85822700410804
30
0
41
1
10
79.0657059403323
20
5.57259865169834
30
0
41
1
10
79.4939530274468
20
5.42926642890308
30
0
41
1
10
80.3501515572605
20
5.14148832844901
30
0
41
1
10
80.7780936062647
20
4.99701573836873
30
0
41
1
10
81.633693076738
20
4.70698675156419
30
0
41
1
10
82.0613821667328
20
4.56152020567163
30
0
41
1
10
83.3445011574949
20
4.12485863864819
30
0
41
1
10
84.1998388801108
20
3.83299331176704
30
0
41
1
10
85.9101105355451
20
3.2470324541477
30
0
41
1
10
86.7650612178631
20
2.95298472302579
30
0
41
1
10
88.0470535381889
20
2.50986287945193
30
0
41
1
10
88.4743098861662
20
2.36180761923876
30
0
41
1
10
89.3286536481754
20
2.06494179138804
30
0
41
1
10
89.755752175154
20
1.91616288148074
30
0
41
1
10
91.0373047259749
20
1.47016186959922
30
0
41
1
10
91.8919178826181
20
1.17299551241922
30
0
41
1
10
93.6013327276034
20
0.578138247286006
30
0
41
1
10
94.4561564766352
20
0.280510942686021
30
0
41
1
10
95.7384151820823
20
-0.16666971551976
30
0
41
1
10
96.1658384745122
20
-0.315853688958981
30
0
41
1
10
97.0206625000389
20
-0.614558093398529
30
0
41
1
10
97.44804956211
20
-0.764118562949051
30
0
41
1
10
98.7306073554359
20
-1.21205387553084
30
0
41
1
10
99.5862075958754
20
-1.50958489909232
30
0
41
1
10
101.298188945166
20
-2.10345298321909
30
0
41
1
10
102.154595350338
20
-2.39971636488229
30
0
41
1
10
103.439684534641
20
-2.84353127364508
30
0
41
1
10
103.868202162335
20
-2.99139854365922
30
0
41
1
10
104.724811566765
20
-3.28683280017918
30
0
41
1
10
105.15291687081
20
-3.43448113919141
30
0
41
1
10
106.437014096415
20
-3.87611156254394
30
0
41
1
10
107.292961723215
20
-4.16828124766232
30
0
41
1
10
109.004344933567
20
-4.74898493436834
30
0
41
1
10
109.859792849971
20
-5.03748295729926
30
0
41
1
10
111.142456160023
20
-5.46785552504943
30
0
41
1
10
111.569925613339
20
-5.61091740655118
30
0
41
1
10
112.424664829594
20
-5.89632727697742
30
0
41
1
10
112.851911523635
20
-6.03873843252174
30
0
41
1
10
113.706332116181
20
-6.3224897904814
30
0
41
1
10
114.133556719466
20
-6.46369099411947
30
0
41
1
10
114.988106327668
20
-6.74455697840961
30
0
41
1
10
115.415410168417
20
-6.88427987018218
30
0
41
1
10
116.697355044911
20
-7.30147193245355
30
0
41
1
10
117.552041221381
20
-7.57693455457451
30
0
41
1
10
118.834015909814
20
-7.9865006036851
30
0
41
1
10
119.261331222929
20
-8.12241875820186
30
0
41
1
10
120.115914805252
20
-8.39311491535921
30
0
41
1
10
120.543166742566
20
-8.52793534917174
30
0
41
1
10
121.397679969433
20
-8.79627985658442
30
0
41
1
10
121.824985093892
20
-8.92968945448644
30
0
41
1
10
122.679874685227
20
-9.19451741739093
30
0
41
1
10
123.107428287935
20
-9.32601629112281
30
0
41
1
10
124.390345722682
20
-9.71795395573483
30
0
41
1
10
125.245980015286
20
-9.97580016228937
30
0
41
1
10
126.957784453913
20
-10.4850393635794
30
0
41
1
10
127.813936604416
20
-10.7364770233758
30
0
41
1
10
128.884366584916
20
-11.0469340209739
30
0
41
1
10
129.098471149421
20
-11.1088170470792
30
0
41
1
10
129.526758169302
20
-11.232066413471
30
0
41
1
10
129.740962066786
20
-11.2934270634415
30
0
41
1
10
130.383504921515
20
-11.4765937251587
30
0
41
1
10
130.811813364949
20
-11.5975287171069
30
0
41
1
10
132.096499361392
20
-11.9570213968118
30
0
41
1
10
132.952650144796
20
-12.1922400633775
30
0
41
1
10
134.664171090703
20
-12.6542221648762
30
0
41
1
10
135.519537559417
20
-12.8809947013972
30
0
41
1
10
136.801831338008
20
-13.2151304348549
30
0
41
1
10
137.229144131621
20
-13.3254848009357
30
0
41
1
10
138.083854802914
20
-13.5434610398933
30
0
41
1
10
138.51123720822
20
-13.6511188443998
30
0
41
1
10
139.793376772654
20
-13.9703127819442
30
0
41
1
10
140.648131313179
20
-14.1780617370645
30
0
41
1
10
142.357464375042
20
-14.5838314244239
30
0
41
1
10
143.212040866989
20
-14.7818571255271
30
0
41
1
10
144.493602047995
20
-15.0718631644111
30
0
41
1
10
144.920721435402
20
-15.1673878124741
30
0
41
1
10
145.775132602625
20
-15.3555765129446
30
0
41
1
10
146.202443044118
20
-15.448209516883
30
0
41
1
10
147.484604397727
20
-15.7219012204626
30
0
41
1
10
148.339674430408
20
-15.8987748023496
30
0
41
1
10
150.050240351337
20
-16.2416530492734
30
0
41
1
10
150.905734915364
20
-16.4076608939828
30
0
41
1
10
152.189133656591
20
-16.6487106211762
30
0
41
1
10
152.61693463256
20
-16.7277690852503
30
0
41
1
10
153.472778766361
20
-16.8829195788033
30
0
41
1
10
153.900865255611
20
-16.9589475758875
30
0
41
1
10
154.757364035983
20
-17.1079284638482
30
0
41
1
10
155.185782218141
20
-17.1809015438975
30
0
41
1
10
156.04282090508
20
-17.3238411277776
30
0
41
1
10
156.471238621413
20
-17.3937719106417
30
0
41
1
10
157.756158314682
20
-17.5989992237813
30
0
41
1
10
158.612326089017
20
-17.7297381587512
30
0
41
1
10
159.895746958107
20
-17.9168957839264
30
0
41
1
10
160.32339278865
20
-17.9778140633513
30
0
41
1
10
161.178519398648
20
-18.0965149103065
30
0
41
1
10
161.606050712715
20
-18.1542396927883
30
0
41
1
10
162.888682910494
20
-18.3224235852108
30
0
41
1
10
163.743719121124
20
-18.4280154941959
30
0
41
1
10
165.453488766361
20
-18.6264306704245
30
0
41
1
10
166.308229210355
20
-18.7192473873906
30
0
41
1
10
167.589962605896
20
-18.8489807171668
30
0
41
1
10
168.017128906964
20
-18.8906534555038
30
0
41
1
10
168.871381515089
20
-18.9707742377347
30
0
41
1
10
169.298509607628
20
-19.0091885776684
30
0
41
1
10
170.580198653576
20
-19.1192969916419
30
0
41
1
10
171.434920867609
20
-19.185974582437
30
0
41
1
10
173.144654338945
20
-19.30610343128
30
0
41
1
10
173.999678899816
20
-19.3595463848151
30
0
41
1
10
175.282296935357
20
-19.4297997929545
30
0
41
1
10
175.709843627752
20
-19.451566750307
30
0
41
1
10
176.564959850351
20
-19.4917709765361
30
0
41
1
10
176.992554035224
20
-19.5101955704564
30
0
41
1
10
178.275870622281
20
-19.5602957284696
30
0
41
1
10
179.131991675334
20
-19.5868628214247
30
0
41
1
10
180.41683179343
20
-19.61656803735
30
0
41
1
10
180.845226157571
20
-19.62477610669
30
0
41
1
10
181.702219606174
20
-19.6378019850221
30
0
41
1
10
182.130708833603
20
-19.6426176874389
30
0
41
1
10
182.951296642813
20
-19.648583573471
30
0
41
1
10
183.343475675775
20
-19.6500084965911
30
0
41
1
10
183.73551657511
20
-19.6499999720116
30
0
0
SPLINE
5
B5
100
AcDbEntity
8
1
62
256
6
ByLayer
370
18
48
1
60
0
100
AcDbSpline
70
4
71
3
72
44
73
40
40
0
40
0
40
0
40
0
40
0.0323967770795828
40
0.0323967770795828
40
0.0682339334840423
40
0.0682339334840423
40
0.139908246292963
40
0.139908246292963
40
0.211582559101883
40
0.211582559101883
40
0.247419715506342
40
0.247419715506342
40
0.283256871910802
40
0.283256871910802
40
0.354931184719722
40
0.354931184719722
40
0.390768341124185
40
0.390768341124185
40
0.426605497528646
40
0.426605497528646
40
0.462442653933108
40
0.462442653933108
40
0.49827981033757
40
0.49827981033757
40
0.569954123146493
40
0.569954123146493
40
0.641628435955418
40
0.641628435955418
40
0.677465592359878
40
0.677465592359878
40
0.713302748764338
40
0.713302748764338
40
0.856651374382173
40
0.856651374382173
40
0.89248853078663
40
0.89248853078663
40
0.928325687191087
40
0.928325687191087
40
1
40
1
40
1
40
1
41
1
10
318.682029258308
20
14.4366236541673
30
0
41
1
10
319.068557172153
20
14.5283441547112
30
0
41
1
10
319.455030627582
20
14.6190929540897
30
0
41
1
10
320.269148309632
20
14.807713801596
30
0
41
1
10
320.696784192284
20
14.9053642672148
30
0
41
1
10
321.979762446259
20
15.1942608310244
30
0
41
1
10
322.835183543182
20
15.3814398473781
30
0
41
1
10
324.546061270888
20
15.745287525494
30
0
41
1
10
325.401515911618
20
15.9219607178365
30
0
41
1
10
326.684552655451
20
16.1793040649643
30
0
41
1
10
327.112196267487
20
16.2638216298826
30
0
41
1
10
327.967736079271
20
16.4297988861202
30
0
41
1
10
328.395638395145
20
16.5112520141063
30
0
41
1
10
329.679650940684
20
16.7511731965791
30
0
41
1
10
330.536062725834
20
16.9052121441209
30
0
41
1
10
331.821162295922
20
17.127600606004
30
0
41
1
10
332.249635742906
20
17.2002898915029
30
0
41
1
10
333.106599426134
20
17.342784967543
30
0
41
1
10
333.534945857347
20
17.4125665664403
30
0
41
1
10
334.391336842917
20
17.5492262102509
30
0
41
1
10
334.819358302863
20
17.616131901376
30
0
41
1
10
335.675321650664
20
17.7467397222812
30
0
41
1
10
336.103300001086
20
17.8103986711851
30
0
41
1
10
337.387183054201
20
17.9965328873172
30
0
41
1
10
338.243002340451
20
18.114210827361
30
0
41
1
10
339.954265566545
20
18.3370091167603
30
0
41
1
10
340.809709881003
20
18.4421300166281
30
0
41
1
10
342.092430255601
20
18.5904997705528
30
0
41
1
10
342.519904824392
20
18.638424102203
30
0
41
1
10
343.374846981171
20
18.7310174855626
30
0
41
1
10
343.802365010248
20
18.7756429471276
30
0
41
1
10
345.940321589945
20
18.9903567463371
30
0
41
1
10
347.651522855482
20
19.1356086539415
30
0
41
1
10
349.790591575461
20
19.2846196429178
30
0
41
1
10
350.218389414305
20
19.3127968819639
30
0
41
1
10
351.074060062248
20
19.3658212896944
30
0
41
1
10
351.501979387442
20
19.3906439391497
30
0
41
1
10
352.786226002095
20
19.4599532715406
30
0
41
1
10
353.642909312051
20
19.499355197285
30
0
41
1
10
354.500000000001
20
19.5320190282068
30
0
0
SPLINE
5
B6
100
AcDbEntity
8
1
62
256
6
ByLayer
370
18
48
1
60
0
100
AcDbSpline
70
4
71
3
72
82
73
78
40
0
40
0
40
0
40
0
40
0.0338432382906148
40
0.0338432382906148
40
0.0507648574359213
40
0.0507648574359213
40
0.0676864765812278
40
0.0676864765812278
40
0.135372953162456
40
0.135372953162456
40
0.152294572307764
40
0.152294572307764
40
0.169216191453072
40
0.169216191453072
40
0.203059429743687
40
0.203059429743687
40
0.236902668034302
40
0.236902668034302
40
0.25382428717961
40
0.25382428717961
40
0.270745906324919
40
0.270745906324919
40
0.304589144615534
40
0.304589144615534
40
0.32151076376084
40
0.32151076376084
40
0.338432382906147
40
0.338432382906147
40
0.355354002051453
40
0.355354002051453
40
0.372275621196759
40
0.372275621196759
40
0.406118859487374
40
0.406118859487374
40
0.439962097777989
40
0.439962097777989
40
0.456883716923295
40
0.456883716923295
40
0.473805336068602
40
0.473805336068602
40
0.541491812649832
40
0.541491812649832
40
0.55841343179514
40
0.55841343179514
40
0.575335050940448
40
0.575335050940448
40
0.609178289231061
40
0.609178289231061
40
0.643021527521675
40
0.643021527521675
40
0.659943146666982
40
0.659943146666982
40
0.676864765812289
40
0.676864765812289
40
0.744551242393515
40
0.744551242393515
40
0.761472861538821
40
0.761472861538821
40
0.778394480684127
40
0.778394480684127
40
0.812237718974739
40
0.812237718974739
40
0.846080957265351
40
0.846080957265351
40
0.863002576410657
40
0.863002576410657
40
0.879924195555963
40
0.879924195555963
40
0.947610672137189
40
0.947610672137189
40
0.964532291282496
40
0.964532291282496
40
0.981453910427804
40
0.981453910427804
40
0.998375529573111
40
0.998375529573111
40
1
40
1
40
1
40
1
41
1
10
354.5
20
3.67740646635548
30
0
41
1
10
353.61976986221
20
3.97874661256966
30
0
41
1
10
352.739991194944
20
4.27841069729439
30
0
41
1
10
351.421097023747
20
4.72567839998013
30
0
41
1
10
350.981595500803
20
4.87439823820284
30
0
41
1
10
350.102865520888
20
5.1711324304008
30
0
41
1
10
349.66365218131
20
5.31918848031253
30
0
41
1
10
347.467781558947
20
6.05632777061689
30
0
41
1
10
345.71142960193
20
6.63525366661187
30
0
41
1
10
343.517008016818
20
7.34717143168797
30
0
41
1
10
343.078176216699
20
7.4889697831799
30
0
41
1
10
342.200630769138
20
7.77142520623366
30
0
41
1
10
341.761932724525
20
7.9121227886163
30
0
41
1
10
340.445728606741
20
8.3317358569798
30
0
41
1
10
339.568034317812
20
8.60797166134523
30
0
41
1
10
337.812317038779
20
9.15378865284686
30
0
41
1
10
336.934289392911
20
9.42335791202214
30
0
41
1
10
335.617092109439
20
9.82294105571924
30
0
41
1
10
335.178001233143
20
9.95534193195346
30
0
41
1
10
334.299781669607
20
10.2185803057533
30
0
41
1
10
333.860668948452
20
10.3494566433703
30
0
41
1
10
332.542994096438
20
10.7390357742598
30
0
41
1
10
331.664010234205
20
10.9944848212031
30
0
41
1
10
330.344822711339
20
11.371493724638
30
0
41
1
10
329.904974408843
20
11.496134180294
30
0
41
1
10
329.025053166825
20
11.7433878622923
30
0
41
1
10
328.584895902869
20
11.8660247566763
30
0
41
1
10
327.704887928295
20
12.1091659660397
30
0
41
1
10
327.265034413001
20
12.229672645726
30
0
41
1
10
326.385641753476
20
12.4685814780476
30
0
41
1
10
325.946118766123
20
12.5870186357973
30
0
41
1
10
324.62774606146
20
12.9385424653722
30
0
41
1
10
323.749004941087
20
13.1676572740185
30
0
41
1
10
321.991979727168
20
13.6157676437842
30
0
41
1
10
321.113691780022
20
13.8347551877457
30
0
41
1
10
319.796694610858
20
14.1558393838453
30
0
41
1
10
319.357768962991
20
14.2616355015774
30
0
41
1
10
318.480077792927
20
14.470779986581
30
0
41
1
10
318.041328811942
20
14.5741590545138
30
0
41
1
10
315.847528487433
20
15.0840276045369
30
0
41
1
10
314.091927485101
20
15.4688065000179
30
0
41
1
10
311.897306639579
20
15.9221072570889
30
0
41
1
10
311.458378190556
20
16.0113819634125
30
0
41
1
10
310.580525535344
20
16.1871687993025
30
0
41
1
10
310.141618146949
20
16.2737069501257
30
0
41
1
10
308.824636739888
20
16.528726561814
30
0
41
1
10
307.946201792522
20
16.6924608910752
30
0
41
1
10
306.18854635509
20
17.0076065168906
30
0
41
1
10
305.309323602494
20
17.1590148444978
30
0
41
1
10
303.989991422351
20
17.3769841467659
30
0
41
1
10
303.550131903774
20
17.4481169125029
30
0
41
1
10
302.670260372407
20
17.5873345599567
30
0
41
1
10
302.230271821385
20
17.6554379570462
30
0
41
1
10
300.031211079486
20
17.9874811618382
30
0
41
1
10
298.272996620182
20
18.2258012768645
30
0
41
1
10
296.077067822029
20
18.4905891659172
30
0
41
1
10
295.637976193863
20
18.5418872996085
30
0
41
1
10
294.759994723164
20
18.6411657639737
30
0
41
1
10
294.321122083519
20
18.6891598412844
30
0
41
1
10
293.004548468645
20
18.8279172756089
30
0
41
1
10
292.126782134393
20
18.9133742397554
30
0
41
1
10
290.371248265473
20
19.0703917363738
30
0
41
1
10
289.493479328238
20
19.1419518038397
30
0
41
1
10
288.17692017185
20
19.2389218594651
30
0
41
1
10
287.738083819845
20
19.2695162024012
30
0
41
1
10
286.86045763666
20
19.3272388566922
30
0
41
1
10
286.42168526033
20
19.3543743050694
30
0
41
1
10
284.227519574577
20
19.481138528107
30
0
41
1
10
282.470730699678
20
19.5539286810099
30
0
41
1
10
280.273482272525
20
19.6094447406728
30
0
41
1
10
279.833971361402
20
19.6187688336107
30
0
41
1
10
278.954839369517
20
19.633841421356
30
0
41
1
10
278.515235644073
20
19.6395900211618
30
0
41
1
10
277.635754566425
20
19.6474761642721
30
0
41
1
10
277.195840553512
20
19.6496138845947
30
0
41
1
10
276.713535379077
20
19.6499847561707
30
0
41
1
10
276.671290646623
20
19.6500006595769
30
0
41
1
10
276.629046776727
20
19.6499999882633
30
0
0
SPLINE
5
B7
100
AcDbEntity
8
1
62
256
6
ByLayer
370
18
48
1
60
0
100
AcDbSpline
70
4
71
3
72
164
73
160
40
0
40
0
40
0
40
0
40
0.0055014816490489
40
0.0055014816490489
40
0.0266610245926834
40
0.0266610245926834
40
0.0372407960645006
40
0.0372407960645006
40
0.0478205675363177
40
0.0478205675363177
40
0.0584003390081351
40
0.0584003390081351
40
0.0689801104799523
40
0.0689801104799523
40
0.0901396534235875
40
0.0901396534235875
40
0.100719424895405
40
0.100719424895405
40
0.111299196367223
40
0.111299196367223
40
0.121878967839041
40
0.121878967839041
40
0.132458739310859
40
0.132458739310859
40
0.153618282254495
40
0.153618282254495
40
0.164198053726313
40
0.164198053726313
40
0.174777825198132
40
0.174777825198132
40
0.18535759666995
40
0.18535759666995
40
0.195937368141769
40
0.195937368141769
40
0.217096911085405
40
0.217096911085405
40
0.227676682557223
40
0.227676682557223
40
0.238256454029041
40
0.238256454029041
40
0.248836225500859
40
0.248836225500859
40
0.259415996972677
40
0.259415996972677
40
0.280575539916315
40
0.280575539916315
40
0.291155311388133
40
0.291155311388133
40
0.301735082859951
40
0.301735082859951
40
0.31231485433177
40
0.31231485433177
40
0.322894625803588
40
0.322894625803588
40
0.344054168747226
40
0.344054168747226
40
0.354633940219045
40
0.354633940219045
40
0.365213711690864
40
0.365213711690864
40
0.375793483162683
40
0.375793483162683
40
0.386373254634502
40
0.386373254634502
40
0.40753279757814
40
0.40753279757814
40
0.418112569049959
40
0.418112569049959
40
0.428692340521778
40
0.428692340521778
40
0.439272111993596
40
0.439272111993596
40
0.449851883465415
40
0.449851883465415
40
0.471011426409052
40
0.471011426409052
40
0.481591197880871
40
0.481591197880871
40
0.49217096935269
40
0.49217096935269
40
0.502750740824509
40
0.502750740824509
40
0.513330512296328
40
0.513330512296328
40
0.534490055239965
40
0.534490055239965
40
0.545069826711784
40
0.545069826711784
40
0.555649598183603
40
0.555649598183603
40
0.566229369655422
40
0.566229369655422
40
0.576809141127241
40
0.576809141127241
40
0.58738891259906
40
0.58738891259906
40
0.597968684070879
40
0.597968684070879
40
0.608548455542698
40
0.608548455542698
40
0.619128227014517
40
0.619128227014517
40
0.629707998486337
40
0.629707998486337
40
0.640287769958156
40
0.640287769958156
40
0.661447312901794
40
0.661447312901794
40
0.672027084373613
40
0.672027084373613
40
0.682606855845433
40
0.682606855845433
40
0.693186627317252
40
0.693186627317252
40
0.703766398789071
40
0.703766398789071
40
0.724925941732709
40
0.724925941732709
40
0.735505713204528
40
0.735505713204528
40
0.746085484676348
40
0.746085484676348
40
0.751375370412257
40
0.751375370412257
40
0.756665256148166
40
0.756665256148166
40
0.767245027619985
40
0.767245027619985
40
0.788404570563623
40
0.788404570563623
40
0.798984342035441
40
0.798984342035441
40
0.80956411350726
40
0.80956411350726
40
0.820143884979079
40
0.820143884979079
40
0.830723656450898
40
0.830723656450898
40
0.851883199394536
40
0.851883199394536
40
0.862462970866354
40
0.862462970866354
40
0.873042742338174
40
0.873042742338174
40
0.883622513809993
40
0.883622513809993
40
0.894202285281812
40
0.894202285281812
40
0.915361828225449
40
0.915361828225449
40
0.925941599697268
40
0.925941599697268
40
0.936521371169087
40
0.936521371169087
40
0.947101142640906
40
0.947101142640906
40
0.957680914112724
40
0.957680914112724
40
1
40
1
40
1
40
1
41
1
10
141.713242416604
20
-14.4289387518011
30
0
41
1
10
141.48483422363
20
-14.4830095149788
30
0
41
1
10
141.256438122789
20
-14.5367050130716
30
0
41
1
10
140.149658861082
20
-14.7951165108921
30
0
41
1
10
139.271451804129
20
-14.9946910738226
30
0
41
1
10
137.954517634108
20
-15.2859662972394
30
0
41
1
10
137.515603483998
20
-15.3817113818536
30
0
41
1
10
136.637917672941
20
-15.5705249128724
30
0
41
1
10
136.199162871344
20
-15.6636219967339
30
0
41
1
10
135.321687792366
20
-15.8469381988459
30
0
41
1
10
134.882930548103
20
-15.9370941954272
30
0
41
1
10
134.005319727591
20
-16.1143193434265
30
0
41
1
10
133.566477806561
20
-16.2014086556707
30
0
41
1
10
132.249864378822
20
-16.4581563307753
30
0
41
1
10
131.37200127118
20
-16.6232921907713
30
0
41
1
10
130.055118014866
20
-16.8620873877955
30
0
41
1
10
129.616143285208
20
-16.940201679651
30
0
41
1
10
128.738180764864
20
-17.0934701367636
30
0
41
1
10
128.29920947234
20
-17.1686468544524
30
0
41
1
10
127.421149899767
20
-17.3158770735388
30
0
41
1
10
126.982024518195
20
-17.3878794655807
30
0
41
1
10
126.103520898843
20
-17.5285855706946
30
0
41
1
10
125.664154968677
20
-17.5973064947559
30
0
41
1
10
124.345737163977
20
-17.7986114225149
30
0
41
1
10
123.466361511339
20
-17.9263369667033
30
0
41
1
10
122.146742246336
20
-18.1082909300477
30
0
41
1
10
121.70675075078
20
-18.1673402004361
30
0
41
1
10
120.826710310733
20
-18.2822116578291
30
0
41
1
10
120.386875567006
20
-18.3380245646971
30
0
41
1
10
119.507444441707
20
-18.4462545861266
30
0
41
1
10
119.067811156638
20
-18.4986341602224
30
0
41
1
10
118.188644856919
20
-18.5998801658307
30
0
41
1
10
117.749124194955
20
-18.6487594751345
30
0
41
1
10
116.430770430474
20
-18.7902099180365
30
0
41
1
10
115.552141315882
20
-18.8775947993863
30
0
41
1
10
114.234699031894
20
-18.9983929703044
30
0
41
1
10
113.795636352501
20
-19.0369454834486
30
0
41
1
10
112.917695443998
20
-19.1106235428357
30
0
41
1
10
112.478833506803
20
-19.1457588108511
30
0
41
1
10
111.60119478124
20
-19.2125228932754
30
0
41
1
10
111.162380620692
20
-19.2441288715951
30
0
41
1
10
110.284694869423
20
-19.3037661829324
30
0
41
1
10
109.845836242044
20
-19.3318057381413
30
0
41
1
10
108.529235260189
20
-19.4106171460436
30
0
41
1
10
107.651463701801
20
-19.4560846597722
30
0
41
1
10
106.334842313555
20
-19.5137116646881
30
0
41
1
10
105.89597564267
20
-19.5311574609713
30
0
41
1
10
105.018271236476
20
-19.562513134498
30
0
41
1
10
104.579449385877
20
-19.5764261377824
30
0
41
1
10
103.701739450104
20
-19.6006737517098
30
0
41
1
10
103.262814001498
20
-19.611000394652
30
0
41
1
10
102.384749102407
20
-19.628059112055
30
0
41
1
10
101.94562330686
20
-19.6347943874405
30
0
41
1
10
100.627988711424
20
-19.6496338011233
30
0
41
1
10
99.7492187574234
20
-19.6523761687736
30
0
41
1
10
98.4306337260169
20
-19.6457401088553
30
0
41
1
10
97.9910347724501
20
-19.6417351829618
30
0
41
1
10
97.1117095056651
20
-19.6301200307807
30
0
41
1
10
96.6719986707334
20
-19.6225064884678
30
0
41
1
10
95.7923570715869
20
-19.603665737547
30
0
41
1
10
95.352307766106
20
-19.5924430439004
30
0
41
1
10
94.4724076471336
20
-19.5664432929704
30
0
41
1
10
94.0325409822912
20
-19.551663923314
30
0
41
1
10
92.7132119825915
20
-19.5020069226126
30
0
41
1
10
91.8340162484999
20
-19.4618166864329
30
0
41
1
10
90.5158477934795
20
-19.3908934460549
30
0
41
1
10
90.0765636885378
20
-19.365477630229
30
0
41
1
10
89.1982214700147
20
-19.3110798913387
30
0
41
1
10
88.7591789198465
20
-19.2820884267645
30
0
41
1
10
87.8812295273034
20
-19.2205765885963
30
0
41
1
10
87.4422853560502
20
-19.1880784421096
30
0
41
1
10
86.5643790598138
20
-19.1196643560131
30
0
41
1
10
86.1254311548517
20
-19.0837402173584
30
0
41
1
10
84.8086255103109
20
-18.9708207916692
30
0
41
1
10
83.930801581322
20
-18.8886862886336
30
0
41
1
10
82.6142269900422
20
-18.7551344018422
30
0
41
1
10
82.1753968182359
20
-18.7088899339223
30
0
41
1
10
81.2978075883218
20
-18.6129208324685
30
0
41
1
10
80.8590637584514
20
-18.5631809786866
30
0
41
1
10
79.9815601781472
20
-18.4602866170073
30
0
41
1
10
79.5427630705526
20
-18.4071687158034
30
0
41
1
10
78.6649935365987
20
-18.2976905848395
30
0
41
1
10
78.2260360810427
20
-18.2413159359956
30
0
41
1
10
76.9089689424367
20
-18.0672746449846
30
0
41
1
10
76.0306603741187
20
-17.9446999562107
30
0
41
1
10
74.7128922809852
20
-17.750894234287
30
0
41
1
10
74.2735864571621
20
-17.6846325180084
30
0
41
1
10
73.394889667271
20
-17.5487548564559
30
0
41
1
10
72.9555134352665
20
-17.479118407609
30
0
41
1
10
72.0765922252413
20
-17.336582176573
30
0
41
1
10
71.6370103577083
20
-17.263732921564
30
0
41
1
10
70.7575163782661
20
-17.1150052374753
30
0
41
1
10
70.3176195716302
20
-17.0391060842535
30
0
41
1
10
69.4375418859499
20
-16.8842205109994
30
0
41
1
10
68.997396930873
20
-16.8052405684469
30
0
41
1
10
68.1174503632701
20
-16.6442896662069
30
0
41
1
10
67.6775743689275
20
-16.5623057269102
30
0
41
1
10
66.7980343731952
20
-16.3952937114883
30
0
41
1
10
66.3583709228776
20
-16.3102647391951
30
0
41
1
10
65.4792726525363
20
-16.1371287188494
30
0
41
1
10
65.0398527256365
20
-16.0489961406241
30
0
41
1
10
64.1611590138758
20
-15.8697804123384
30
0
41
1
10
63.7218479151268
20
-15.7787605963272
30
0
41
1
10
62.8432062784955
20
-15.594067217742
30
0
41
1
10
62.4038913139347
20
-15.500367406053
30
0
41
1
10
61.0859869001756
20
-15.2151836997937
30
0
41
1
10
60.2074335486928
20
-15.0196271056873
30
0
41
1
10
58.8897693806664
20
-14.7179763013849
30
0
41
1
10
58.4505767723087
20
-14.6160369636945
30
0
41
1
10
57.5722644916365
20
-14.4093409263786
30
0
41
1
10
57.1331594590341
20
-14.304554708462
30
0
41
1
10
56.2549417673929
20
-14.0923108169899
30
0
41
1
10
55.8157919136409
20
-13.9849274747639
30
0
41
1
10
54.9373158167451
20
-13.7678395346641
30
0
41
1
10
54.4980056113846
20
-13.6581030578297
30
0
41
1
10
53.1798822833508
20
-13.3252783047562
30
0
41
1
10
52.3008722368951
20
-13.0985872581763
30
0
41
1
10
50.9820558725346
20
-12.7511317457032
30
0
41
1
10
50.542401281664
20
-12.6340734429143
30
0
41
1
10
49.6630085100201
20
-12.3974318998844
30
0
41
1
10
49.2232846521531
20
-12.2778153937596
30
0
41
1
10
48.5635768933021
20
-12.0966198057506
30
0
41
1
10
48.3436497559992
20
-12.0359359057307
30
0
41
1
10
47.9037133822057
20
-11.9140744573163
30
0
41
1
10
47.6836860269767
20
-11.8528862509374
30
0
41
1
10
47.0237101360984
20
-11.6686206672243
30
0
41
1
10
46.5838335219118
20
-11.5448316527697
30
0
41
1
10
45.264546460698
20
-11.1705891831812
30
0
41
1
10
44.3854742263528
20
-10.9172733023195
30
0
41
1
10
43.0676312207268
20
-10.5313684086348
30
0
41
1
10
42.6284789491347
20
-10.4017415476414
30
0
41
1
10
41.7504473852835
20
-10.1404622558615
30
0
41
1
10
41.3115821641878
20
-10.0087739775995
30
0
41
1
10
40.434049570197
20
-9.74355690995125
30
0
41
1
10
39.9953459221797
20
-9.61012017898474
30
0
41
1
10
39.117964932931
20
-9.34184991072044
30
0
41
1
10
38.6793038760498
20
-9.2069751257506
30
0
41
1
10
37.3634317082724
20
-8.80008182207473
30
0
41
1
10
36.4863271464538
20
-8.52580769626985
30
0
41
1
10
35.170975086737
20
-8.10964971961809
30
0
41
1
10
34.7325763224236
20
-7.97013584065724
30
0
41
1
10
33.8558982080833
20
-7.68947342553454
30
0
41
1
10
33.4176324853634
20
-7.54828812520543
30
0
41
1
10
32.5411492851938
20
-7.26446730739011
30
0
41
1
10
32.1028957566163
20
-7.12192865782285
30
0
41
1
10
31.2262570272983
20
-6.83589164262298
30
0
41
1
10
30.7878891447514
20
-6.69234680709005
30
0
41
1
10
29.4726639562466
20
-6.26007431415283
30
0
41
1
10
28.595680778636
20
-5.96972232704587
30
0
41
1
10
27.2800456152416
20
-5.53068963125958
30
0
41
1
10
26.8414748834152
20
-5.38375788594675
30
0
41
1
10
25.9642972752726
20
-5.08867118261551
30
0
41
1
10
25.5257032219068
20
-4.94047970395536
30
0
41
1
10
24.6484135060868
20
-4.64305105821265
30
0
41
1
10
24.2096828712114
20
-4.49391305846063
30
0
41
1
10
23.3319358590024
20
-4.19511935998332
30
0
41
1
10
22.892937533606
20
-4.04541251470224
30
0
41
1
10
20.6973626038605
20
-3.29521821888935
30
0
41
1
10
18.9390118272837
20
-2.68985854846042
30
0
41
1
10
17.17922273172
20
-2.07779322493909
30
0
0
SPLINE
5
B8
100
AcDbEntity
8
1
62
256
6
ByLayer
370
18
48
1
60
0
100
AcDbSpline
70
4
71
3
72
242
73
238
40
0
40
0
40
0
40
0
40
0.0110711768603332
40
0.0110711768603332
40
0.017101230659964
40
0.017101230659964
40
0.0231312844595948
40
0.0231312844595948
40
0.0351913920588561
40
0.0351913920588561
40
0.0472514996581176
40
0.0472514996581176
40
0.0532815534577483
40
0.0532815534577483
40
0.0593116072573791
40
0.0593116072573791
40
0.0653416610570099
40
0.0653416610570099
40
0.0713717148566406
40
0.0713717148566406
40
0.0834318224559021
40
0.0834318224559021
40
0.089461876255533
40
0.089461876255533
40
0.0954919300551639
40
0.0954919300551639
40
0.107552037654426
40
0.107552037654426
40
0.119612145253688
40
0.119612145253688
40
0.12564219905332
40
0.12564219905332
40
0.131672252852951
40
0.131672252852951
40
0.143732360452213
40
0.143732360452213
40
0.155792468051476
40
0.155792468051476
40
0.161822521851107
40
0.161822521851107
40
0.167852575650738
40
0.167852575650738
40
0.179912683250001
40
0.179912683250001
40
0.185942737049632
40
0.185942737049632
40
0.191972790849264
40
0.191972790849264
40
0.198002844648895
40
0.198002844648895
40
0.204032898448526
40
0.204032898448526
40
0.216093006047789
40
0.216093006047789
40
0.228153113647051
40
0.228153113647051
40
0.234183167446682
40
0.234183167446682
40
0.240213221246314
40
0.240213221246314
40
0.252273328845578
40
0.252273328845578
40
0.264333436444841
40
0.264333436444841
40
0.270363490244473
40
0.270363490244473
40
0.276393544044105
40
0.276393544044105
40
0.28845365164337
40
0.28845365164337
40
0.300513759242634
40
0.300513759242634
40
0.306543813042266
40
0.306543813042266
40
0.312573866841898
40
0.312573866841898
40
0.31860392064153
40
0.31860392064153
40
0.324633974441162
40
0.324633974441162
40
0.336694082040426
40
0.336694082040426
40
0.342724135840059
40
0.342724135840059
40
0.348754189639692
40
0.348754189639692
40
0.354784243439324
40
0.354784243439324
40
0.360814297238957
40
0.360814297238957
40
0.372874404838222
40
0.372874404838222
40
0.384934512437488
40
0.384934512437488
40
0.390964566237121
40
0.390964566237121
40
0.396994620036754
40
0.396994620036754
40
0.40905472763602
40
0.40905472763602
40
0.421114835235286
40
0.421114835235286
40
0.427144889034919
40
0.427144889034919
40
0.433174942834553
40
0.433174942834553
40
0.44523505043382
40
0.44523505043382
40
0.457295158033087
40
0.457295158033087
40
0.46332521183272
40
0.46332521183272
40
0.469355265632353
40
0.469355265632353
40
0.481415373231619
40
0.481415373231619
40
0.493475480830886
40
0.493475480830886
40
0.499505534630519
40
0.499505534630519
40
0.505535588430153
40
0.505535588430153
40
0.517595696029421
40
0.517595696029421
40
0.529655803628688
40
0.529655803628688
40
0.535685857428322
40
0.535685857428322
40
0.541715911227955
40
0.541715911227955
40
0.547745965027589
40
0.547745965027589
40
0.553776018827223
40
0.553776018827223
40
0.56583612642649
40
0.56583612642649
40
0.571866180226123
40
0.571866180226123
40
0.577896234025756
40
0.577896234025756
40
0.589956341625022
40
0.589956341625022
40
0.602016449224287
40
0.602016449224287
40
0.60804650302392
40
0.60804650302392
40
0.614076556823552
40
0.614076556823552
40
0.626136664422817
40
0.626136664422817
40
0.638196772022082
40
0.638196772022082
40
0.644226825821715
40
0.644226825821715
40
0.650256879621347
40
0.650256879621347
40
0.662316987220612
40
0.662316987220612
40
0.668347041020245
40
0.668347041020245
40
0.674377094819877
40
0.674377094819877
40
0.680407148619509
40
0.680407148619509
40
0.686437202419141
40
0.686437202419141
40
0.698497310018406
40
0.698497310018406
40
0.71055741761767
40
0.71055741761767
40
0.716587471417302
40
0.716587471417302
40
0.722617525216935
40
0.722617525216935
40
0.728647579016567
40
0.728647579016567
40
0.7346776328162
40
0.7346776328162
40
0.746737740415464
40
0.746737740415464
40
0.752767794215096
40
0.752767794215096
40
0.758797848014729
40
0.758797848014729
40
0.764827901814361
40
0.764827901814361
40
0.770857955613993
40
0.770857955613993
40
0.782918063213257
40
0.782918063213257
40
0.78894811701289
40
0.78894811701289
40
0.794978170812522
40
0.794978170812522
40
0.801008224612155
40
0.801008224612155
40
0.807038278411788
40
0.807038278411788
40
0.831158493610316
40
0.831158493610316
40
0.837188547409948
40
0.837188547409948
40
0.843218601209579
40
0.843218601209579
40
0.855278708808843
40
0.855278708808843
40
0.867338816408107
40
0.867338816408107
40
0.873368870207738
40
0.873368870207738
40
0.87939892400737
40
0.87939892400737
40
0.891459031606634
40
0.891459031606634
40
0.897489085406265
40
0.897489085406265
40
0.903519139205896
40
0.903519139205896
40
0.909549193005528
40
0.909549193005528
40
0.915579246805159
40
0.915579246805159
40
0.927639354404422
40
0.927639354404422
40
0.939699462003685
40
0.939699462003685
40
0.945729515803316
40
0.945729515803316
40
0.951759569602947
40
0.951759569602947
40
0.975879784801473
40
0.975879784801473
40
0.981909838601105
40
0.981909838601105
40
0.987939892400736
40
0.987939892400736
40
1
40
1
40
1
40
1
41
1
10
141.713044339809
20
14.4307584241471
30
0
41
1
10
142.497613830476
20
14.6162761777862
30
0
41
1
10
143.282099680604
20
14.7977108196984
30
0
41
1
10
144.493602047995
20
15.0718631644112
30
0
41
1
10
144.920721435402
20
15.1673878124741
30
0
41
1
10
145.775132602625
20
15.3555765129447
30
0
41
1
10
146.202443044118
20
15.4482095168831
30
0
41
1
10
147.484604397727
20
15.7219012204627
30
0
41
1
10
148.339674430408
20
15.8987748023497
30
0
41
1
10
150.050240351337
20
16.2416530492734
30
0
41
1
10
150.905734915364
20
16.4076608939828
30
0
41
1
10
152.189133656591
20
16.6487106211762
30
0
41
1
10
152.61693463256
20
16.7277690852503
30
0
41
1
10
153.472778766361
20
16.8829195788034
30
0
41
1
10
153.900865255611
20
16.9589475758875
30
0
41
1
10
154.757364035983
20
17.1079284638482
30
0
41
1
10
155.185782218141
20
17.1809015438975
30
0
41
1
10
156.042820905081
20
17.3238411277776
30
0
41
1
10
156.471238621413
20
17.3937719106417
30
0
41
1
10
157.756158314681
20
17.5989992237813
30
0
41
1
10
158.612326089016
20
17.7297381587513
30
0
41
1
10
159.895746958107
20
17.9168957839264
30
0
41
1
10
160.32339278865
20
17.9778140633514
30
0
41
1
10
161.178519398649
20
18.0965149103065
30
0
41
1
10
161.606050712715
20
18.1542396927883
30
0
41
1
10
162.888682910494
20
18.3224235852108
30
0
41
1
10
163.743719121124
20
18.4280154941959
30
0
41
1
10
165.453488766361
20
18.6264306704245
30
0
41
1
10
166.308229210355
20
18.7192473873906
30
0
41
1
10
167.589962605896
20
18.8489807171668
30
0
41
1
10
168.017128906964
20
18.8906534555039
30
0
41
1
10
168.871381515089
20
18.9707742377347
30
0
41
1
10
169.298509607628
20
19.0091885776684
30
0
41
1
10
170.580198653576
20
19.1192969916419
30
0
41
1
10
171.434920867609
20
19.185974582437
30
0
41
1
10
173.144654338945
20
19.30610343128
30
0
41
1
10
173.999678899816
20
19.3595463848151
30
0
41
1
10
175.282296935356
20
19.4297997929546
30
0
41
1
10
175.709843627752
20
19.451566750307
30
0
41
1
10
176.564959850351
20
19.4917709765361
30
0
41
1
10
176.992554035224
20
19.5101955704564
30
0
41
1
10
178.275870622281
20
19.5602957284696
30
0
41
1
10
179.131991675334
20
19.5868628214247
30
0
41
1
10
180.41683179343
20
19.61656803735
30
0
41
1
10
180.845226157571
20
19.62477610669
30
0
41
1
10
181.702219606174
20
19.6378019850221
30
0
41
1
10
182.130708833603
20
19.6426176874389
30
0
41
1
10
182.987272199126
20
19.6488451250887
30
0
41
1
10
183.415402409972
20
19.6502578331075
30
0
41
1
10
184.271331159017
20
19.6496650843979
30
0
41
1
10
184.699132107645
20
19.6476557210415
30
0
41
1
10
185.982529845715
20
19.6365205043634
30
0
41
1
10
186.838058188742
20
19.6223068933433
30
0
41
1
10
188.548667778847
20
19.5804043820541
30
0
41
1
10
189.40377232669
20
19.5527177105238
30
0
41
1
10
190.685977734475
20
19.5010295065929
30
0
41
1
10
191.113304195716
20
19.4821056336123
30
0
41
1
10
191.96777548746
20
19.4408395113774
30
0
41
1
10
192.394901602954
20
19.4184862047158
30
0
41
1
10
193.676400283508
20
19.3464531639656
30
0
41
1
10
194.530978047321
20
19.2918626204817
30
0
41
1
10
196.240286387416
20
19.1695005948317
30
0
41
1
10
197.095040479031
20
19.1017400056474
30
0
41
1
10
198.377174800382
20
18.9901085020876
30
0
41
1
10
198.804553404945
20
18.9512314985544
30
0
41
1
10
199.659281933436
20
18.8701024247786
30
0
41
1
10
200.086607328473
20
18.8278282282512
30
0
41
1
10
201.368805994404
20
18.6961320220497
30
0
41
1
10
202.224121651473
20
18.6020417600833
30
0
41
1
10
203.935548908451
20
18.4011761172659
30
0
41
1
10
204.791662250104
20
18.2944015030049
30
0
41
1
10
206.076292897617
20
18.124545313026
30
0
41
1
10
206.504579676124
20
18.0663092512408
30
0
41
1
10
207.361279062565
20
17.9465492607002
30
0
41
1
10
207.789676929345
20
17.8849972486174
30
0
41
1
10
208.646053981273
20
17.7587988308988
30
0
41
1
10
209.074163033138
20
17.69420359724
30
0
41
1
10
209.93033162761
20
17.5621826807985
30
0
41
1
10
210.35836635089
20
17.4947260324311
30
0
41
1
10
211.642264657388
20
17.2879643796885
30
0
41
1
10
212.497935337265
20
17.1442892038883
30
0
41
1
10
213.780913632337
20
16.919851904298
30
0
41
1
10
214.208484452706
20
16.8435499931753
30
0
41
1
10
215.063420989111
20
16.6879162467215
30
0
41
1
10
215.490773077484
20
16.6085629480614
30
0
41
1
10
216.345308542847
20
16.4468665792678
30
0
41
1
10
216.772531386039
20
16.3645840898152
30
0
41
1
10
217.627102853653
20
16.1975096362862
30
0
41
1
10
218.054419475897
20
16.1126681052532
30
0
41
1
10
219.336388297327
20
15.8541301746153
30
0
41
1
10
220.191073515407
20
15.6764474058266
30
0
41
1
10
221.900346749172
20
15.3101418500861
30
0
41
1
10
222.754923354752
20
15.1214987042995
30
0
41
1
10
224.036571786931
20
14.8299793432207
30
0
41
1
10
224.463777463146
20
14.7314248048533
30
0
41
1
10
225.318464019034
20
14.5321256211372
30
0
41
1
10
225.745918105439
20
14.4313322071195
30
0
41
1
10
227.02852650607
20
14.1253712491514
30
0
41
1
10
227.883937229755
20
13.9166464930658
30
0
41
1
10
229.595266688534
20
13.4893506745537
30
0
41
1
10
230.451183423617
20
13.2707765252007
30
0
41
1
10
231.735273400701
20
12.9350753049177
30
0
41
1
10
232.16333622726
20
12.8218571433267
30
0
41
1
10
233.019850987509
20
12.5935044556279
30
0
41
1
10
233.448365818363
20
12.4783427522121
30
0
41
1
10
234.733516102889
20
12.1300083094327
30
0
41
1
10
235.589958827119
20
11.893936815598
30
0
41
1
10
237.302037558246
20
11.4137618911373
30
0
41
1
10
238.157671608459
20
11.1696543944117
30
0
41
1
10
239.440345821421
20
10.7970296601284
30
0
41
1
10
239.86775312695
20
10.671690281051
30
0
41
1
10
240.722554645987
20
10.4194509890271
30
0
41
1
10
241.149977607809
20
10.2926232729462
30
0
41
1
10
242.432246998601
20
9.90987041823223
30
0
41
1
10
243.287072795348
20
9.65162501305153
30
0
41
1
10
244.99651656811
20
9.12858869753751
30
0
41
1
10
245.851134013993
20
8.86379693676136
30
0
41
1
10
247.132738912763
20
8.46124258000251
30
0
41
1
10
247.559861918134
20
8.3260962424516
30
0
41
1
10
248.414163391853
20
8.05443027911767
30
0
41
1
10
248.841390081562
20
7.91803838339993
30
0
41
1
10
250.123338982456
20
7.50730960007132
30
0
41
1
10
250.978259095811
20
7.23123450373453
30
0
41
1
10
252.688488408068
20
6.67409433372214
30
0
41
1
10
253.543801105578
20
6.39303908770034
30
0
41
1
10
254.826909354079
20
5.96725712129666
30
0
41
1
10
255.254615368774
20
5.82457311947786
30
0
41
1
10
256.110159747
20
5.53803282450653
30
0
41
1
10
256.538046641585
20
5.39431276584719
30
0
41
1
10
257.394179280571
20
5.10634585502911
30
0
41
1
10
257.822398016319
20
4.9620232152225
30
0
41
1
10
258.679098837294
20
4.67258559708731
30
0
41
1
10
259.107660493444
20
4.52745148001506
30
0
41
1
10
260.393099647021
20
4.09100892027794
30
0
41
1
10
261.249599267379
20
3.79871015376446
30
0
41
1
10
262.533500227441
20
3.35779737736485
30
0
41
1
10
262.961313532203
20
3.21038019881266
30
0
41
1
10
263.816683038509
20
2.91479864732179
30
0
41
1
10
264.244275904133
20
2.76674028939229
30
0
41
1
10
265.527125159772
20
2.32276393157471
30
0
41
1
10
266.382306335178
20
2.02662285226822
30
0
41
1
10
268.092321839717
20
1.43332293586133
30
0
41
1
10
268.947171311715
20
1.13620788789865
30
0
41
1
10
270.229051213028
20
0.689383947581661
30
0
41
1
10
270.656274922727
20
0.540239537190331
30
0
41
1
10
271.510574214085
20
0.241518625963266
30
0
41
1
10
271.93766756565
20
0.0919935122154527
30
0
41
1
10
273.219236646285
20
-0.355751493629015
30
0
41
1
10
274.073882403415
20
-0.653485178193193
30
0
41
1
10
275.783417313647
20
-1.24826329153691
30
0
41
1
10
276.638327114353
20
-1.54524800470259
30
0
41
1
10
277.920753266254
20
-1.9905584344244
30
0
41
1
10
278.348238684933
20
-2.13896807156067
30
0
41
1
10
279.203199782133
20
-2.43581924782183
30
0
41
1
10
279.630667887379
20
-2.584282696538
30
0
41
1
10
280.913521169078
20
-3.02838002663413
30
0
41
1
10
281.769340722148
20
-3.32276306521209
30
0
41
1
10
283.053696839553
20
-3.76253578035974
30
0
41
1
10
283.481925665278
20
-3.908810021899
30
0
41
1
10
284.338581977084
20
-4.20078760571471
30
0
41
1
10
284.767041846938
20
-4.34650390935374
30
0
41
1
10
285.623993648047
20
-4.63739288234004
30
0
41
1
10
286.052315839163
20
-4.78250705251668
30
0
41
1
10
286.908621863939
20
-5.07215734467263
30
0
41
1
10
287.336583563865
20
-5.21675520454636
30
0
41
1
10
288.620306536049
20
-5.64869336117644
30
0
41
1
10
289.476040383453
20
-5.93380714117802
30
0
41
1
10
291.187036670603
20
-6.49928564854815
30
0
41
1
10
292.042317657191
20
-6.7795977477675
30
0
41
1
10
293.324768492605
20
-7.19682257274931
30
0
41
1
10
293.752173515937
20
-7.33535673986611
30
0
41
1
10
294.606796308243
20
-7.61141769887544
30
0
41
1
10
295.033989888309
20
-7.74900821326261
30
0
41
1
10
295.888340149699
20
-8.0227734634496
30
0
41
1
10
296.315546391204
20
-8.15881756900706
30
0
41
1
10
297.170063782175
20
-8.4291270778161
30
0
41
1
10
297.597357208875
20
-8.56343931625472
30
0
41
1
10
298.879292135345
20
-8.96398642137709
30
0
41
1
10
299.733999014968
20
-9.22780618027872
30
0
41
1
10
301.016044457705
20
-9.61907391039384
30
0
41
1
10
301.443390075449
20
-9.74875320249643
30
0
41
1
10
302.298047418174
20
-10.0066886532538
30
0
41
1
10
302.725340599959
20
-10.1349905862332
30
0
41
1
10
303.579968048261
20
-10.3899742110797
30
0
41
1
10
304.007349404283
20
-10.5165391140692
30
0
41
1
10
304.862397691088
20
-10.7674531525604
30
0
41
1
10
305.290035853537
20
-10.8918736238925
30
0
41
1
10
306.573227042988
20
-11.2621923177248
30
0
41
1
10
307.429070208737
20
-11.5051174500675
30
0
41
1
10
308.713275267194
20
-11.8638831861666
30
0
41
1
10
309.141416336648
20
-11.9825357385273
30
0
41
1
10
309.997818088834
20
-12.2180207721472
30
0
41
1
10
310.426068592989
20
-12.3348766139433
30
0
41
1
10
311.282707489485
20
-12.5667132534906
30
0
41
1
10
311.711000003126
20
-12.6815807223741
30
0
41
1
10
312.567509098218
20
-12.9085981978673
30
0
41
1
10
312.995736164739
20
-13.0208325984526
30
0
41
1
10
315.136605729729
20
-13.5759566603738
30
0
41
1
10
316.848527042954
20
-14.0006250463762
30
0
41
1
10
318.986474681151
20
-14.5090565370985
30
0
41
1
10
319.413982522947
20
-14.6095826235127
30
0
41
1
10
320.269148309632
20
-14.8077138015961
30
0
41
1
10
320.696784192284
20
-14.9053642672148
30
0
41
1
10
321.979762446259
20
-15.1942608310244
30
0
41
1
10
322.835183543181
20
-15.3814398473781
30
0
41
1
10
324.546061270888
20
-15.7452875254939
30
0
41
1
10
325.401515911618
20
-15.9219607178365
30
0
41
1
10
326.684552655451
20
-16.1793040649643
30
0
41
1
10
327.112196267487
20
-16.2638216298827
30
0
41
1
10
327.967736079271
20
-16.4297988861202
30
0
41
1
10
328.395638395145
20
-16.5112520141063
30
0
41
1
10
329.679650940683
20
-16.7511731965791
30
0
41
1
10
330.536062725834
20
-16.905212144121
30
0
41
1
10
331.821162295921
20
-17.127600606004
30
0
41
1
10
332.249635742905
20
-17.2002898915028
30
0
41
1
10
333.106599426134
20
-17.3427849675429
30
0
41
1
10
333.534945857347
20
-17.4125665664403
30
0
41
1
10
334.391336842917
20
-17.5492262102509
30
0
41
1
10
334.819358302862
20
-17.616131901376
30
0
41
1
10
335.675321650664
20
-17.7467397222812
30
0
41
1
10
336.103300001086
20
-17.8103986711851
30
0
41
1
10
337.3871830542
20
-17.9965328873172
30
0
41
1
10
338.243002340451
20
-18.114210827361
30
0
41
1
10
339.954265566544
20
-18.3370091167603
30
0
41
1
10
340.809709881003
20
-18.4421300166281
30
0
41
1
10
342.092430255601
20
-18.5904997705527
30
0
41
1
10
342.519904824392
20
-18.638424102203
30
0
41
1
10
343.374846981171
20
-18.7310174855626
30
0
41
1
10
343.802365010248
20
-18.7756429471276
30
0
41
1
10
345.940321589945
20
-18.9903567463371
30
0
41
1
10
347.651522855482
20
-19.1356086539415
30
0
41
1
10
349.790591575461
20
-19.2846196429178
30
0
41
1
10
350.218389414305
20
-19.3127968819639
30
0
41
1
10
351.074060062248
20
-19.3658212896944
30
0
41
1
10
351.501979387442
20
-19.3906439391497
30
0
41
1
10
352.786226002095
20
-19.4599532715407
30
0
41
1
10
353.642909312051
20
-19.4993551972849
30
0
41
1
10
354.5
20
-19.5320190282068
30
0
0
SPLINE
5
B9
100
AcDbEntity
8
1
62
256
6
ByLayer
370
18
48
1
60
0
100
AcDbSpline
70
4
71
3
72
244
73
240
40
0
40
0
40
0
40
0
40
0.0049338166681021
40
0.0049338166681021
40
0.0290012053119593
40
0.0290012053119593
40
0.0350180524729237
40
0.0350180524729237
40
0.0410348996338882
40
0.0410348996338882
40
0.0530685939558171
40
0.0530685939558171
40
0.065102288277746
40
0.065102288277746
40
0.0711191354387105
40
0.0711191354387105
40
0.077135982599675
40
0.077135982599675
40
0.101203371243534
40
0.101203371243534
40
0.107220218404499
40
0.107220218404499
40
0.113237065565465
40
0.113237065565465
40
0.125270759887395
40
0.125270759887395
40
0.137304454209325
40
0.137304454209325
40
0.14332130137029
40
0.14332130137029
40
0.149338148531254
40
0.149338148531254
40
0.173405537175114
40
0.173405537175114
40
0.179422384336079
40
0.179422384336079
40
0.185439231497044
40
0.185439231497044
40
0.191456078658009
40
0.191456078658009
40
0.197472925818974
40
0.197472925818974
40
0.209506620140904
40
0.209506620140904
40
0.215523467301869
40
0.215523467301869
40
0.221540314462834
40
0.221540314462834
40
0.245607703106694
40
0.245607703106694
40
0.251624550267659
40
0.251624550267659
40
0.257641397428625
40
0.257641397428625
40
0.269675091750556
40
0.269675091750556
40
0.281708786072487
40
0.281708786072487
40
0.287725633233452
40
0.287725633233452
40
0.293742480394418
40
0.293742480394418
40
0.305776174716348
40
0.305776174716348
40
0.311793021877313
40
0.311793021877313
40
0.317809869038278
40
0.317809869038278
40
0.323826716199243
40
0.323826716199243
40
0.329843563360208
40
0.329843563360208
40
0.341877257682138
40
0.341877257682138
40
0.353910952004068
40
0.353910952004068
40
0.359927799165033
40
0.359927799165033
40
0.365944646325998
40
0.365944646325998
40
0.377978340647927
40
0.377978340647927
40
0.390012034969856
40
0.390012034969856
40
0.396028882130821
40
0.396028882130821
40
0.402045729291785
40
0.402045729291785
40
0.414079423613714
40
0.414079423613714
40
0.426113117935644
40
0.426113117935644
40
0.432129965096609
40
0.432129965096609
40
0.438146812257574
40
0.438146812257574
40
0.450180506579503
40
0.450180506579503
40
0.462214200901432
40
0.462214200901432
40
0.468231048062397
40
0.468231048062397
40
0.474247895223362
40
0.474247895223362
40
0.486281589545291
40
0.486281589545291
40
0.498315283867221
40
0.498315283867221
40
0.504332131028185
40
0.504332131028185
40
0.510348978189149
40
0.510348978189149
40
0.522382672511077
40
0.522382672511077
40
0.534416366833005
40
0.534416366833005
40
0.540433213993969
40
0.540433213993969
40
0.546450061154934
40
0.546450061154934
40
0.558483755476862
40
0.558483755476862
40
0.570517449798791
40
0.570517449798791
40
0.576534296959755
40
0.576534296959755
40
0.58255114412072
40
0.58255114412072
40
0.59458483844265
40
0.59458483844265
40
0.60661853276458
40
0.60661853276458
40
0.612635379925545
40
0.612635379925545
40
0.618652227086509
40
0.618652227086509
40
0.630685921408439
40
0.630685921408439
40
0.642719615730369
40
0.642719615730369
40
0.648736462891334
40
0.648736462891334
40
0.654753310052299
40
0.654753310052299
40
0.660770157213263
40
0.660770157213263
40
0.666787004374228
40
0.666787004374228
40
0.678820698696158
40
0.678820698696158
40
0.684837545857123
40
0.684837545857123
40
0.690854393018087
40
0.690854393018087
40
0.702888087340017
40
0.702888087340017
40
0.714921781661946
40
0.714921781661946
40
0.720938628822911
40
0.720938628822911
40
0.726955475983875
40
0.726955475983875
40
0.73297232314484
40
0.73297232314484
40
0.738989170305804
40
0.738989170305804
40
0.751022864627734
40
0.751022864627734
40
0.757039711788699
40
0.757039711788699
40
0.763056558949663
40
0.763056558949663
40
0.769073406110628
40
0.769073406110628
40
0.775090253271593
40
0.775090253271593
40
0.781107100432558
40
0.781107100432558
40
0.787123947593523
40
0.787123947593523
40
0.793140794754487
40
0.793140794754487
40
0.799157641915452
40
0.799157641915452
40
0.805174489076417
40
0.805174489076417
40
0.811191336237382
40
0.811191336237382
40
0.823225030559311
40
0.823225030559311
40
0.829241877720276
40
0.829241877720276
40
0.835258724881241
40
0.835258724881241
40
0.841275572042205
40
0.841275572042205
40
0.84729241920317
40
0.84729241920317
40
0.859326113525099
40
0.859326113525099
40
0.865342960686064
40
0.865342960686064
40
0.871359807847029
40
0.871359807847029
40
0.877376655007993
40
0.877376655007993
40
0.883393502168958
40
0.883393502168958
40
0.895427196490888
40
0.895427196490888
40
0.901444043651853
40
0.901444043651853
40
0.907460890812818
40
0.907460890812818
40
0.913477737973783
40
0.913477737973783
40
0.919494585134748
40
0.919494585134748
40
0.931528279456677
40
0.931528279456677
40
0.937545126617642
40
0.937545126617642
40
0.943561973778608
40
0.943561973778608
40
0.949578820939572
40
0.949578820939572
40
0.955595668100537
40
0.955595668100537
40
0.967629362422467
40
0.967629362422467
40
0.973646209583432
40
0.973646209583432
40
0.979663056744397
40
0.979663056744397
40
0.985679903905362
40
0.985679903905362
40
0.991696751066326
40
0.991696751066326
40
1
40
1
40
1
40
1
41
1
10
318.681955960653
20
-14.4225594373663
30
0
41
1
10
318.322128091768
20
-14.507950849015
30
0
41
1
10
317.962352145819
20
-14.5925142884845
30
0
41
1
10
315.847528487432
20
-15.0840276045366
30
0
41
1
10
314.0919274851
20
-15.4688065000179
30
0
41
1
10
311.897306639579
20
-15.9221072570889
30
0
41
1
10
311.458378190556
20
-16.0113819634125
30
0
41
1
10
310.580525535344
20
-16.1871687993024
30
0
41
1
10
310.141618146949
20
-16.2737069501258
30
0
41
1
10
308.824636739887
20
-16.5287265618138
30
0
41
1
10
307.946201792522
20
-16.6924608910752
30
0
41
1
10
306.18854635509
20
-17.0076065168906
30
0
41
1
10
305.309323602494
20
-17.1590148444977
30
0
41
1
10
303.989991422351
20
-17.3769841467659
30
0
41
1
10
303.550131903774
20
-17.4481169125029
30
0
41
1
10
302.670260372407
20
-17.5873345599567
30
0
41
1
10
302.230271821385
20
-17.6554379570462
30
0
41
1
10
300.031211079486
20
-17.9874811618382
30
0
41
1
10
298.272996620182
20
-18.2258012768645
30
0
41
1
10
296.077067822029
20
-18.4905891659172
30
0
41
1
10
295.637976193863
20
-18.5418872996086
30
0
41
1
10
294.759994723164
20
-18.6411657639737
30
0
41
1
10
294.321122083519
20
-18.6891598412844
30
0
41
1
10
293.004548468645
20
-18.8279172756089
30
0
41
1
10
292.126782134393
20
-18.9133742397554
30
0
41
1
10
290.371248265473
20
-19.0703917363737
30
0
41
1
10
289.493479328238
20
-19.1419518038397
30
0
41
1
10
288.17692017185
20
-19.2389218594651
30
0
41
1
10
287.738083819845
20
-19.2695162024012
30
0
41
1
10
286.86045763666
20
-19.3272388566922
30
0
41
1
10
286.42168526033
20
-19.3543743050694
30
0
41
1
10
284.227519574578
20
-19.481138528107
30
0
41
1
10
282.470730699678
20
-19.5539286810099
30
0
41
1
10
280.273482272525
20
-19.6094447406728
30
0
41
1
10
279.833971361402
20
-19.6187688336107
30
0
41
1
10
278.954839369517
20
-19.633841421356
30
0
41
1
10
278.515235644073
20
-19.6395900211618
30
0
41
1
10
277.635754566425
20
-19.6474761642721
30
0
41
1
10
277.195840553512
20
-19.6496138845947
30
0
41
1
10
276.315721384257
20
-19.6502906577265
30
0
41
1
10
275.875754829085
20
-19.6488298140197
30
0
41
1
10
274.556151894591
20
-19.6390729349544
30
0
41
1
10
273.676808747843
20
-19.6254080197083
30
0
41
1
10
272.358477146425
20
-19.5941740627193
30
0
41
1
10
271.919148208372
20
-19.5819717978686
30
0
41
1
10
271.040733867753
20
-19.5539712252653
30
0
41
1
10
270.601666142455
20
-19.5381658461992
30
0
41
1
10
268.406530424805
20
-19.4502486738272
30
0
41
1
10
266.650550243352
20
-19.3517717586582
30
0
41
1
10
264.456277509926
20
-19.1935470310484
30
0
41
1
10
264.017460440757
20
-19.1601384158529
30
0
41
1
10
263.139914711777
20
-19.0897710017315
30
0
41
1
10
262.701203870344
20
-19.0527980909459
30
0
41
1
10
261.384966319163
20
-18.9367007071825
30
0
41
1
10
260.507202850235
20
-18.8525069438678
30
0
41
1
10
258.751215080523
20
-18.6705612016758
30
0
41
1
10
257.872992862328
20
-18.5728084637597
30
0
41
1
10
256.55541226189
20
-18.4158941359265
30
0
41
1
10
256.116178525543
20
-18.3618728743931
30
0
41
1
10
255.237643380364
20
-18.2503660924655
30
0
41
1
10
254.798359735858
20
-18.1928594260832
30
0
41
1
10
253.480176330999
20
-18.0153707705989
30
0
41
1
10
252.600807889745
20
-17.8905871518391
30
0
41
1
10
251.280944258919
20
-17.693708663932
30
0
41
1
10
250.840771911584
20
-17.6264493224647
30
0
41
1
10
249.96070413911
20
-17.4887543719179
30
0
41
1
10
249.520796339736
20
-17.4183174732616
30
0
41
1
10
248.641250690122
20
-17.2742402630726
30
0
41
1
10
248.201613380997
20
-17.2005991605583
30
0
41
1
10
247.3226236509
20
-17.0500846218108
30
0
41
1
10
246.883289116366
20
-16.9731836223277
30
0
41
1
10
245.56548537296
20
-16.7379557981628
30
0
41
1
10
244.687077342488
20
-16.5753216881653
30
0
41
1
10
242.93058496724
20
-16.2384264632966
30
0
41
1
10
242.052503983367
20
-16.0641608754372
30
0
41
1
10
240.735726036113
20
-15.7938788371662
30
0
41
1
10
240.296858402974
20
-15.702301342469
30
0
41
1
10
239.41925356039
20
-15.5161451688798
30
0
41
1
10
238.980534378099
20
-15.4215330669833
30
0
41
1
10
237.664348550212
20
-15.1335798910546
30
0
41
1
10
236.786708207351
20
-14.9363950655994
30
0
41
1
10
235.031127462714
20
-14.5315553178727
30
0
41
1
10
234.153191769997
20
-14.3238924448629
30
0
41
1
10
232.836165536889
20
-14.0043308984967
30
0
41
1
10
232.397137399759
20
-13.8964627071873
30
0
41
1
10
231.519055539721
20
-13.67799063065
30
0
41
1
10
231.080019718236
20
-13.5673479428454
30
0
41
1
10
229.76265749408
20
-13.2317510111974
30
0
41
1
10
228.883925786377
20
-13.0034575205926
30
0
41
1
10
227.125541861676
20
-12.5376783341794
30
0
41
1
10
226.245895759954
20
-12.3001802646924
30
0
41
1
10
224.925837225651
20
-11.9367770745529
30
0
41
1
10
224.485737441643
20
-11.8144507124512
30
0
41
1
10
223.606031850017
20
-11.5675529586594
30
0
41
1
10
223.166360216285
20
-11.4429150891712
30
0
41
1
10
221.847623465903
20
-11.0660662299925
30
0
41
1
10
220.968684010004
20
-10.811292269504
30
0
41
1
10
219.211289574354
20
-10.2946078255156
30
0
41
1
10
218.332840967031
20
-10.0326822816059
30
0
41
1
10
217.015635606365
20
-9.6341871412227
30
0
41
1
10
216.576646211688
20
-9.50041756377482
30
0
41
1
10
215.698839554843
20
-9.2309621099308
30
0
41
1
10
215.260040298044
20
-9.09522945996201
30
0
41
1
10
213.943691375595
20
-8.68568614378097
30
0
41
1
10
213.066032702522
20
-8.40994179253707
30
0
41
1
10
211.310577203715
20
-7.8529477910192
30
0
41
1
10
210.43278798546
20
-7.57167883042703
30
0
41
1
10
209.116106917971
20
-7.14535974935546
30
0
41
1
10
208.677214785333
20
-7.00251397261681
30
0
41
1
10
207.799447229834
20
-6.71530029520477
30
0
41
1
10
207.360589702639
20
-6.57088293482218
30
0
41
1
10
206.043839360229
20
-6.13589134425777
30
0
41
1
10
205.165604930159
20
-5.84403193077353
30
0
41
1
10
203.408374677695
20
-5.25650809669733
30
0
41
1
10
202.529388189172
20
-4.96081838134603
30
0
41
1
10
201.210443902801
20
-4.51411619907029
30
0
41
1
10
200.770719423734
20
-4.36468402010638
30
0
41
1
10
199.891130404837
20
-4.06471200346786
30
0
41
1
10
199.451264909531
20
-3.91411426030749
30
0
41
1
10
198.131375239501
20
-3.46125923500361
30
0
41
1
10
197.251759807881
20
-3.15871912574147
30
0
41
1
10
195.493174910602
20
-2.55228979927367
30
0
41
1
10
194.614215257624
20
-2.24837196185121
30
0
41
1
10
193.296368095047
20
-1.79116914207256
30
0
41
1
10
192.857185594338
20
-1.63854384902126
30
0
41
1
10
191.979034606976
20
-1.33280362380501
30
0
41
1
10
191.540083971219
20
-1.1796369714757
30
0
41
1
10
190.223357864957
20
-0.719969380447026
30
0
41
1
10
189.345538427081
20
-0.413792565365498
30
0
41
1
10
187.589921573924
20
0.198104802692797
30
0
41
1
10
186.712134996172
20
0.503856798956946
30
0
41
1
10
185.3955824098
20
0.962462873902439
30
0
41
1
10
184.956753888497
20
1.11533112315891
30
0
41
1
10
184.079155528661
20
1.42110663938578
30
0
41
1
10
183.640403364687
20
1.57406485600052
30
0
41
1
10
182.324046088517
20
2.0324523789316
30
0
41
1
10
181.446164780203
20
2.33688901156245
30
0
41
1
10
179.689801430065
20
2.94351003998148
30
0
41
1
10
178.811332116719
20
3.24573117474762
30
0
41
1
10
177.493289424617
20
3.69769460684182
30
0
41
1
10
177.053886483727
20
3.84812408730144
30
0
41
1
10
176.174983086449
20
4.14857040994721
30
0
41
1
10
175.735499995454
20
4.29863704993414
30
0
41
1
10
174.856314101936
20
4.59800619874329
30
0
41
1
10
174.416575975765
20
4.74720740462877
30
0
41
1
10
173.536770204444
20
5.04453121699916
30
0
41
1
10
173.096629028383
20
5.19270859635682
30
0
41
1
10
171.776584669995
20
5.63548897650017
30
0
41
1
10
170.8969713116
20
5.92836105015931
30
0
41
1
10
169.578267034645
20
6.36446688077058
30
0
41
1
10
169.138819427609
20
6.50930447355896
30
0
41
1
10
168.26017966342
20
6.79795301527008
30
0
41
1
10
167.821004983724
20
6.94181113972402
30
0
41
1
10
166.50368394008
20
7.37134467325814
30
0
41
1
10
165.625560227342
20
7.65449369611989
30
0
41
1
10
163.869495788703
20
8.21444988343021
30
0
41
1
10
162.991569411303
20
8.49129638704025
30
0
41
1
10
161.674932252448
20
8.90211561268956
30
0
41
1
10
161.236096420436
20
9.03831597897016
30
0
41
1
10
160.358525532123
20
9.30926847143922
30
0
41
1
10
159.919807829744
20
9.44406409147854
30
0
41
1
10
159.042356135514
20
9.71190244852386
30
0
41
1
10
158.603585823704
20
9.84485402748896
30
0
41
1
10
157.725909658991
20
10.1087129421721
30
0
41
1
10
157.287014177531
20
10.2396464625657
30
0
41
1
10
155.970177116868
20
10.6295196955313
30
0
41
1
10
155.092081159135
20
10.8855252519536
30
0
41
1
10
153.774723224272
20
11.263885166948
30
0
41
1
10
153.335569347994
20
11.3890657670532
30
0
41
1
10
152.457206237133
20
11.6375728036088
30
0
41
1
10
152.018013971521
20
11.7609384683391
30
0
41
1
10
151.139461415329
20
12.0055420596969
30
0
41
1
10
150.700064752201
20
12.1266957396597
30
0
41
1
10
149.820980400863
20
12.366596735285
30
0
41
1
10
149.38130358647
20
12.4853693920807
30
0
41
1
10
148.501695182636
20
12.7205950818668
30
0
41
1
10
148.061763215886
20
12.8370472542817
30
0
41
1
10
147.181656499551
20
13.0676577352291
30
0
41
1
10
146.741509779827
20
13.1818084547427
30
0
41
1
10
145.861662431971
20
13.4076780089415
30
0
41
1
10
145.421879957617
20
13.5194197877815
30
0
41
1
10
144.542612070472
20
13.7405417642521
30
0
41
1
10
144.103143644961
20
13.8499564770432
30
0
41
1
10
143.22439351252
20
14.0661847712903
30
0
41
1
10
142.785075270072
20
14.1729238340443
30
0
41
1
10
141.906499616708
20
14.383561997653
30
0
41
1
10
141.467253196353
20
14.4874837809727
30
0
41
1
10
140.149658861082
20
14.7951165108921
30
0
41
1
10
139.271451804129
20
14.9946910738227
30
0
41
1
10
137.954517634108
20
15.2859662972394
30
0
41
1
10
137.515603483998
20
15.3817113818536
30
0
41
1
10
136.637917672941
20
15.5705249128724
30
0
41
1
10
136.199162871344
20
15.6636219967339
30
0
41
1
10
135.321687792366
20
15.8469381988458
30
0
41
1
10
134.882930548103
20
15.9370941954272
30
0
41
1
10
134.005319727591
20
16.1143193434264
30
0
41
1
10
133.566477806562
20
16.2014086556707
30
0
41
1
10
132.249864378822
20
16.4581563307752
30
0
41
1
10
131.37200127118
20
16.6232921907713
30
0
41
1
10
130.055118014866
20
16.8620873877954
30
0
41
1
10
129.616143285208
20
16.940201679651
30
0
41
1
10
128.738180764864
20
17.0934701367636
30
0
41
1
10
128.29920947234
20
17.1686468544524
30
0
41
1
10
127.421149899767
20
17.3158770735388
30
0
41
1
10
126.982024518195
20
17.3878794655807
30
0
41
1
10
126.103520898843
20
17.5285855706946
30
0
41
1
10
125.664154968677
20
17.5973064947559
30
0
41
1
10
124.345737163977
20
17.7986114225149
30
0
41
1
10
123.466361511339
20
17.9263369667033
30
0
41
1
10
122.146742246336
20
18.1082909300477
30
0
41
1
10
121.70675075078
20
18.1673402004361
30
0
41
1
10
120.826710310733
20
18.2822116578291
30
0
41
1
10
120.386875567006
20
18.338024564697
30
0
41
1
10
119.507444441707
20
18.4462545861266
30
0
41
1
10
119.067811156637
20
18.4986341602224
30
0
41
1
10
118.188644856919
20
18.5998801658307
30
0
41
1
10
117.749124194955
20
18.6487594751345
30
0
41
1
10
116.430770430474
20
18.7902099180365
30
0
41
1
10
115.552141315882
20
18.8775947993863
30
0
41
1
10
114.234699031894
20
18.9983929703044
30
0
41
1
10
113.795636352501
20
19.0369454834486
30
0
41
1
10
112.917695443998
20
19.1106235428356
30
0
41
1
10
112.478833506803
20
19.1457588108511
30
0
41
1
10
111.60119478124
20
19.2125228932755
30
0
41
1
10
111.162380620692
20
19.2441288715951
30
0
41
1
10
110.284694869423
20
19.3037661829324
30
0
41
1
10
109.845836242044
20
19.3318057381413
30
0
41
1
10
108.529235260189
20
19.4106171460436
30
0
41
1
10
107.651463701802
20
19.4560846597722
30
0
41
1
10
106.334842313555
20
19.5137116646881
30
0
41
1
10
105.89597564267
20
19.5311574609713
30
0
41
1
10
105.018271236475
20
19.562513134498
30
0
41
1
10
104.579449385877
20
19.5764261377824
30
0
41
1
10
103.701739450104
20
19.6006737517098
30
0
41
1
10
103.262814001498
20
19.611000394652
30
0
41
1
10
102.384749102407
20
19.6280591120549
30
0
41
1
10
101.94562330686
20
19.6347943874404
30
0
41
1
10
100.900299871985
20
19.6465669888401
30
0
41
1
10
100.294022814418
20
19.6499887304693
30
0
41
1
10
99.6876003643903
20
19.6500008823415
30
0
0
SPLINE
5
BA
100
AcDbEntity
8
1
62
256
6
ByLayer
370
18
48
1
60
0
100
AcDbSpline
70
4
71
3
72
86
73
82
40
0
40
0
40
0
40
0
40
0.0624999999999884
40
0.0624999999999884
40
0.0937499999999827
40
0.0937499999999827
40
0.124999999999977
40
0.124999999999977
40
0.156249999999971
40
0.156249999999971
40
0.16406249999997
40
0.16406249999997
40
0.171874999999969
40
0.171874999999969
40
0.187499999999967
40
0.187499999999967
40
0.218749999999964
40
0.218749999999964
40
0.24999999999996
40
0.24999999999996
40
0.281249999999956
40
0.281249999999956
40
0.296874999999955
40
0.304687499999954
40
0.304687499999954
40
0.312499999999953
40
0.312499999999953
40
0.343749999999952
40
0.343749999999952
40
0.37499999999995
40
0.37499999999995
40
0.406249999999949
40
0.406249999999949
40
0.421874999999948
40
0.421874999999948
40
0.429687499999948
40
0.429687499999948
40
0.433593749999948
40
0.433593749999948
40
0.437499999999948
40
0.468749999999949
40
0.468749999999949
40
0.49999999999995
40
0.531249999999951
40
0.531249999999951
40
0.546874999999951
40
0.546874999999951
40
0.554687499999951
40
0.554687499999951
40
0.562499999999952
40
0.562499999999952
40
0.593749999999953
40
0.593749999999953
40
0.624999999999954
40
0.624999999999954
40
0.656249999999955
40
0.656249999999955
40
0.664062499999955
40
0.664062499999955
40
0.671874999999956
40
0.671874999999956
40
0.687499999999957
40
0.687499999999957
40
0.718749999999959
40
0.718749999999959
40
0.749999999999961
40
0.749999999999961
40
0.781249999999963
40
0.781249999999963
40
0.789062499999964
40
0.789062499999964
40
0.796874999999964
40
0.812499999999966
40
0.812499999999966
40
0.843749999999971
40
0.843749999999971
40
0.874999999999977
40
0.874999999999977
40
0.937499999999988
40
0.937499999999988
40
1
40
1
40
1
40
1
41
1
10
9.99999999999999
20
18.2740212558431
30
0
41
1
10
9.50060949547468
20
18.1864471911498
30
0
41
1
10
9.02025518220069
20
18.0837049670823
30
0
41
1
10
8.3282479902537
20
17.9022079628461
30
0
41
1
10
8.10234420600382
20
17.8371316427097
30
0
41
1
10
7.66021046732375
20
17.6968563615216
30
0
41
1
10
7.44397984238296
20
17.6216588524775
30
0
41
1
10
7.02145188912317
20
17.4600014604112
30
0
41
1
10
6.81515350003967
20
17.3735437162462
30
0
41
1
10
6.56374000527804
20
17.2575786185757
30
0
41
1
10
6.51378067837946
20
17.2339903011053
30
0
41
1
10
6.41451676143313
20
17.1859988709384
30
0
41
1
10
6.36517311818641
20
17.1615753575059
30
0
41
1
10
6.21860054368105
20
17.0872828066449
30
0
41
1
10
6.1227323297106
20
17.0363487954205
30
0
41
1
10
5.8406686180591
20
16.8791799561533
30
0
41
1
10
5.66000764265462
20
16.76858314372
30
0
41
1
10
5.31359806977422
20
16.5348514819442
30
0
41
1
10
5.14784835751864
20
16.4117182539558
30
0
41
1
10
4.8316273959522
20
16.1518399987235
30
0
41
1
10
4.68115428541913
20
16.0150973279138
30
0
41
1
10
4.46737417993644
20
15.7987953639849
30
0
41
1
10
4.36346983921253
20
15.687844351641
30
0
41
1
10
4.26416684813299
20
15.5724768488675
30
0
41
1
10
4.19900372647579
20
15.4945570439132
30
0
41
1
10
4.16690761643358
20
15.4550497175473
30
0
41
1
10
4.00951177998101
20
15.2554928018505
30
0
41
1
10
3.89373295998796
20
15.0897905455416
30
0
41
1
10
3.68240489931723
20
14.7457676110478
30
0
41
1
10
3.58685472070211
20
14.567448012626
30
0
41
1
10
3.4162854815503
20
14.1975466370398
30
0
41
1
10
3.34126446412846
20
14.0059664036781
30
0
41
1
10
3.24465021968474
20
13.7080323523898
30
0
41
1
10
3.2151015835157
20
13.606958843943
30
0
41
1
10
3.17486004657864
20
13.4526120484374
30
0
41
1
10
3.1621266755356
20
13.400706906634
30
0
41
1
10
3.1440617548517
20
13.3221520478317
30
0
41
1
10
3.13821221608333
20
13.2958473459218
30
0
41
1
10
3.12689040140241
20
13.2431470296562
30
0
41
1
10
3.0776049308642
20
13.0054281229745
30
0
41
1
10
3.04317427262393
20
12.7626147538406
30
0
41
1
10
3.00488017689776
20
12.3229531179848
30
0
41
1
10
2.98950410797814
20
11.8752979346185
30
0
41
1
10
3.0197182583982
20
11.4116542559059
30
0
41
1
10
3.05969712197009
20
11.0578819170053
30
0
41
1
10
3.07591304481195
20
10.9389507535319
30
0
41
1
10
3.10462919311328
20
10.7590337581552
30
0
41
1
10
3.11494849722061
20
10.6987288092445
30
0
41
1
10
3.13697822588671
20
10.5780674541327
30
0
41
1
10
3.14868446138638
20
10.5177210953494
30
0
41
1
10
3.21062428057156
20
10.2159169056
30
0
41
1
10
3.27106666443058
20
9.97424050517034
30
0
41
1
10
3.41278786908212
20
9.49059810490846
30
0
41
1
10
3.49406960844742
20
9.24863215948295
30
0
41
1
10
3.67691545542446
20
8.76462143488033
30
0
41
1
10
3.77848150165764
20
8.52257664021312
30
0
41
1
10
3.91796348829327
20
8.22012404410572
30
0
41
1
10
3.9464867958596
20
8.1596387779214
30
0
41
1
10
4.00478603639593
20
8.03868290448378
30
0
41
1
10
4.0345438629047
20
7.97825269099803
30
0
41
1
10
4.12532588252262
20
7.79770022723511
30
0
41
1
10
4.18796567152856
20
7.67809068411401
30
0
41
1
10
4.3820371224424
20
7.32150202308819
30
0
41
1
10
4.51961308403727
20
7.08676021897938
30
0
41
1
10
4.81029135934047
20
6.62312608079975
30
0
41
1
10
4.96339613824287
20
6.3942346174947
30
0
41
1
10
5.28449472050468
20
5.94225955297844
30
0
41
1
10
5.45249035579923
20
5.71917663202436
30
0
41
1
10
5.67148989961612
20
5.44395920815543
30
0
41
1
10
5.71577453330035
20
5.38905603441509
30
0
41
1
10
5.80506662842981
20
5.27982350466976
30
0
41
1
10
5.940003609027
20
5.11693621554912
30
0
41
1
10
6.07787467153705
20
4.95687966314898
30
0
41
1
10
6.3573777270007
20
4.64041088938583
30
0
41
1
10
6.548724031552
20
4.43428770817155
30
0
41
1
10
6.94073906079485
20
4.03115267648508
30
0
41
1
10
7.14140916661071
20
3.83414211330464
30
0
41
1
10
7.75650944535052
20
3.25600759942151
30
0
41
1
10
8.18401172416054
20
2.88776887895972
30
0
41
1
10
9.06980310146515
20
2.18207865030107
30
0
41
1
10
9.52810281886508
20
1.84463635918471
30
0
41
1
10
9.99999999999997
20
1.52095421645367
30
0
0
SPLINE
5
BB
100
AcDbEntity
8
1
62
256
6
ByLayer
370
18
48
1
60
0
100
AcDbSpline
70
4
71
3
72
22
73
18
40
0
40
0
40
0
40
0
40
0.125
40
0.125
40
0.25
40
0.25
40
0.375
40
0.375
40
0.5
40
0.5
40
0.625
40
0.625
40
0.75
40
0.75
40
0.875
40
0.875
40
1
40
1
40
1
40
1
41
1
10
17.1792227317202
20
-2.07779322493911
30
0
41
1
10
16.8620534663742
20
-1.96396569217293
30
0
41
1
10
16.547353063118
20
-1.84520610685294
30
0
41
1
10
15.9224695248775
20
-1.59865321535827
30
0
41
1
10
15.6122854137151
20
-1.47086186478293
30
0
41
1
10
14.9961724326701
20
-1.20676040794518
30
0
41
1
10
14.6902431209133
20
-1.07045119853092
30
0
41
1
10
14.0825609835771
20
-0.789463652397103
30
0
41
1
10
13.780808405952
20
-0.644784841376293
30
0
41
1
10
13.1815874981424
20
-0.346835366129625
30
0
41
1
10
12.8841199736502
20
-0.193563117116327
30
0
41
1
10
12.2937468680462
20
0.122135888811101
30
0
41
1
10
12.0008423069617
20
0.28456465788986
30
0
41
1
10
11.4200139207851
20
0.619422442086147
30
0
41
1
10
11.1320909449751
20
0.791853128481421
30
0
41
1
10
10.5617561228209
20
1.1477854098342
30
0
41
1
10
10.2793446576199
20
1.33128773954249
30
0
41
1
10
9.99999999999999
20
1.52095421645367
30
0
0
SPLINE
5
BC
100
AcDbEntity
8
1
62
256
6
ByLayer
370
18
48
1
60
0
100
AcDbSpline
70
4
71
4
72
13
73
8
40
0
40
0
40
0
40
0
40
0
40
0.592493870118797
40
0.592493870118797
40
0.592493870118797
40
1
40
1
40
1
40
1
40
1
41
0.990020717047896
10
26.0337212262322
20
18.5136806061401
30
0
41
0.97712248476587
10
25.5671305272359
20
15.2836724524894
30
0
41
0.965035517027303
10
24.4888725210391
20
10.7464478273624
30
0
41
1
10
22.8986405128713
20
6.27989490596747
30
0
41
1
10
20.7177427870696
20
1.20813409681833
30
0
41
0.98346029803872
10
19.7042282737446
20
-0.792152530777407
30
0
41
0.977064780734182
10
18.7903862876109
20
-2.02731703693017
30
0
41
0.978797510620099
10
18.1010672830324
20
-2.41366642691937
30
0
0
SPLINE
5
BD
100
AcDbEntity
8
1
62
256
6
ByLayer
370
18
48
1
60
0
100
AcDbSpline
70
4
71
3
72
38
73
34
40
0
40
0
40
0
40
0
40
0.0624999999999909
40
0.0624999999999909
40
0.124999999999982
40
0.124999999999982
40
0.187499999999973
40
0.187499999999973
40
0.249999999999964
40
0.312499999999954
40
0.312499999999954
40
0.328124999999953
40
0.328124999999953
40
0.343749999999952
40
0.343749999999952
40
0.374999999999953
40
0.374999999999953
40
0.437499999999956
40
0.437499999999956
40
0.499999999999959
40
0.499999999999959
40
0.624999999999963
40
0.624999999999963
40
0.656249999999965
40
0.671874999999966
40
0.671874999999966
40
0.687499999999967
40
0.687499999999967
40
0.749999999999972
40
0.749999999999972
40
0.874999999999986
40
0.874999999999986
40
1
40
1
40
1
40
1
41
1
10
9.99999999999999
20
18.2740212558431
30
0
41
1
10
10.3034845245899
20
18.3369820404855
30
0
41
1
10
10.6108151095887
20
18.3938533602819
30
0
41
1
10
11.2328676176637
20
18.4972056237752
30
0
41
1
10
11.5475903912068
20
18.5436836236905
30
0
41
1
10
12.1842392823382
20
18.6276660286135
30
0
41
1
10
12.5061659471647
20
18.6651685923804
30
0
41
1
10
13.1571244326911
20
18.7323240667264
30
0
41
1
10
13.8151885395365
20
18.7916282686483
30
0
41
1
10
14.4874204849797
20
18.8369795977034
30
0
41
1
10
14.9120212863732
20
18.8613703081712
30
0
41
1
10
14.9971643931262
20
18.8660502274396
30
0
41
1
10
15.1678978119262
20
18.8750216874308
30
0
41
1
10
15.2535474977575
20
18.8793160259792
30
0
41
1
10
15.5107378016805
20
18.8916069341741
30
0
41
1
10
15.682243916646
20
18.899000083995
30
0
41
1
10
16.1968971752003
20
18.9189161591907
30
0
41
1
10
16.540179153709
20
18.9291831388257
30
0
41
1
10
17.2270899347846
20
18.9442430883266
30
0
41
1
10
17.570718771042
20
18.949034783824
30
0
41
1
10
18.6021096227934
20
18.9556804800702
30
0
41
1
10
19.2903759774699
20
18.9498808915934
30
0
41
1
10
20.1515026447925
20
18.9301168129329
30
0
41
1
10
20.4099001785539
20
18.9232399614776
30
0
41
1
10
20.6683856390494
20
18.9149243649675
30
0
41
1
10
20.8407286581074
20
18.909058134963
30
0
41
1
10
20.9269465123131
20
18.9059622894848
30
0
41
1
10
21.3571806850073
20
18.8897049750769
30
0
41
1
10
21.6992110986939
20
18.8741950996354
30
0
41
1
10
22.719307993877
20
18.8200736489111
30
0
41
1
10
23.3913804982899
20
18.7738856859829
30
0
41
1
10
24.7220560081803
20
18.6601830306118
30
0
41
1
10
25.3806747563229
20
18.592667436415
30
0
41
1
10
26.0337212262352
20
18.5136806061614
30
0
0
LINE
5
7B
100
AcDbEntity
8
SK4
62
256
6
ByLayer
370
18
48
0.05
60
0
100
AcDbLine
10
-75
20
0
30
0
11
386.5
21
0
31
0
39
0
210
0
220
0
230
1
0
LINE
5
7D
100
AcDbEntity
8
80
62
256
6
ByLayer
370
18
48
1
60
0
100
AcDbLine
10
0
20
0
30
0
11
-5
21
0
31
0
39
0
210
0
220
0
230
1
0
LINE
5
7E
100
AcDbEntity
8
4
62
256
6
ByLayer
370
18
48
0.05
60
0
100
AcDbLine
10
-5
20
0
30
0
11
386.5
21
0
31
0
39
0
210
0
220
0
230
1
0
LINE
5
80
100
AcDbEntity
8
1
62
256
6
ByLayer
370
18
48
1
60
0
100
AcDbLine
10
99.684171
20
19.65
30
0
11
10
21
19.65
31
0
39
0
210
0
220
0
230
1
0
LINE
5
81
100
AcDbEntity
8
1
62
256
6
ByLayer
370
18
48
1
60
0
100
AcDbLine
10
183.730379
20
-19.65
30
0
11
276.631535
21
-19.65
31
0
39
0
210
0
220
0
230
1
0
LINE
5
82
100
AcDbEntity
8
1
62
256
6
ByLayer
370
18
48
1
60
0
100
AcDbLine
10
276.631535
20
19.65
30
0
11
183.730379
21
19.65
31
0
39
0
210
0
220
0
230
1
0
LINE
5
83
100
AcDbEntity
8
1
62
256
6
ByLayer
370
18
48
1
60
0
100
AcDbLine
10
10
20
-19.65
30
0
11
99.684171
21
-19.65
31
0
39
0
210
0
220
0
230
1
0
LINE
5
84
100
AcDbEntity
8
1
62
256
6
ByLayer
370
18
48
1
60
0
100
AcDbLine
10
10
20
19.65
30
0
11
0
21
20
31
0
39
0
210
0
220
0
230
1
0
LINE
5
85
100
AcDbEntity
8
1
62
256
6
ByLayer
370
18
48
1
60
0
100
AcDbLine
10
0
20
-20
30
0
11
10
21
-19.65
31
0
39
0
210
0
220
0
230
1
0
LINE
5
86
100
AcDbEntity
8
1
62
256
6
ByLayer
370
18
48
1
60
0
100
AcDbLine
10
374.03861
20
20.5
30
0
11
354.5
21
20.5
31
0
39
0
210
0
220
0
230
1
0
LINE
5
87
100
AcDbEntity
8
1
62
256
6
ByLayer
370
18
48
1
60
0
100
AcDbLine
10
354.5
20
-20.5
30
0
11
374.03861
21
-20.5
31
0
39
0
210
0
220
0
230
1
0
LINE
5
88
100
AcDbEntity
8
SK1
62
256
6
ByLayer
370
18
48
1
60
0
100
AcDbLine
10
-69
20
-20
30
0
11
0
21
-20
31
0
39
0
210
0
220
0
230
1
0
LINE
5
8A
100
AcDbEntity
8
SK1
62
256
6
ByLayer
370
18
48
1
60
0
100
AcDbLine
10
0
20
20
30
0
11
-69
21
20
31
0
39
0
210
0
220
0
230
1
0
LINE
5
8B
100
AcDbEntity
8
1
62
256
6
ByLayer
370
18
48
1
60
0
100
AcDbLine
10
0
20
20
30
0
11
0
21
-20
31
0
39
0
210
0
220
0
230
1
0
LINE
5
8C
100
AcDbEntity
8
1
62
256
6
ByLayer
370
18
48
1
60
0
100
AcDbLine
10
10
20
19.65
30
0
11
10
21
18.274021
31
0
39
0
210
0
220
0
230
1
0
LINE
5
8D
100
AcDbEntity
8
1
62
256
6
ByLayer
370
18
48
1
60
0
100
AcDbLine
10
10
20
-19.65
30
0
11
10
21
1.520954
31
0
39
0
210
0
220
0
230
1
0
LINE
5
8E
100
AcDbEntity
8
SK1
62
256
6
ByLayer
370
18
48
1
60
0
100
AcDbLine
10
0
20
20
30
0
11
0
21
-20
31
0
39
0
210
0
220
0
230
1
0
LINE
5
8F
100
AcDbEntity
8
SK1
62
256
6
ByLayer
370
18
48
1
60
0
100
AcDbLine
10
-9.144737
20
-8.717798
30
0
11
-61.13497
21
-8.717798
31
0
39
0
210
0
220
0
230
1
0
LINE
5
90
100
AcDbEntity
8
SK1
62
256
6
ByLayer
370
18
48
1
60
0
100
AcDbLine
10
-61.13497
20
8.717798
30
0
11
-9.144737
21
8.717798
31
0
39
0
210
0
220
0
230
1
0
LINE
5
91
100
AcDbEntity
8
SK1
62
256
6
ByLayer
370
18
48
1
60
0
100
AcDbLine
10
-9.144737
20
-8.717798
30
0
11
-9.144737
21
8.717798
31
0
39
0
210
0
220
0
230
1
0
LINE
5
92
100
AcDbEntity
8
1
62
256
6
ByLayer
370
18
48
1
60
0
100
AcDbLine
10
354.5
20
20.5
30
0
11
354.5
21
-20.5
31
0
39
0
210
0
220
0
230
1
0
LINE
5
93
100
AcDbEntity
8
1
62
256
6
ByLayer
370
18
48
1
60
0
100
AcDbLine
10
354.5
20
20.5
30
0
11
354.5
21
-20.5
31
0
39
0
210
0
220
0
230
1
0
LINE
5
94
100
AcDbEntity
8
SK2
62
256
6
ByLayer
370
13
48
1
60
0
100
AcDbLine
10
-76.5
20
-20
30
0
11
-76.5
21
49.340455
31
0
39
0
210
0
220
0
230
1
0
LINE
5
96
100
AcDbEntity
8
SK2
62
256
6
ByLayer
370
13
48
1
60
0
100
AcDbLine
10
-71.5875
20
20
30
0
11
-78.5
21
20
31
0
39
0
210
0
220
0
230
1
0
LINE
5
97
100
AcDbEntity
8
SK2
62
256
6
ByLayer
370
13
48
1
60
0
100
AcDbLine
10
-71.5875
20
-20
30
0
11
-78.5
21
-20
31
0
39
0
210
0
220
0
230
1
0
LINE
5
98
100
AcDbEntity
8
1
62
256
6
ByLayer
370
18
48
1
60
1
100
AcDbLine
10
-76.5
20
20
30
0
11
-76.039216
21
16.500002
31
0
39
0
210
0
220
0
230
1
0
LINE
5
99
100
AcDbEntity
8
1
62
256
6
ByLayer
370
18
48
1
60
1
100
AcDbLine
10
-76.039216
20
16.500002
30
0
11
-76.960784
21
16.499998
31
0
39
0
210
0
220
0
230
1
0
LINE
5
9A
100
AcDbEntity
8
1
62
256
6
ByLayer
370
18
48
1
60
1
100
AcDbLine
10
-76.960784
20
16.499998
30
0
11
-76.5
21
20
31
0
39
0
210
0
220
0
230
1
0
LINE
5
9B
100
AcDbEntity
8
1
62
256
6
ByLayer
370
18
48
1
60
1
100
AcDbLine
10
-76.5
20
-20
30
0
11
-76.960784
21
-16.500002
31
0
39
0
210
0
220
0
230
1
0
LINE
5
9C
100
AcDbEntity
8
1
62
256
6
ByLayer
370
18
48
1
60
1
100
AcDbLine
10
-76.960784
20
-16.500002
30
0
11
-76.039216
21
-16.499998
31
0
39
0
210
0
220
0
230
1
0
LINE
5
9D
100
AcDbEntity
8
1
62
256
6
ByLayer
370
18
48
1
60
1
100
AcDbLine
10
-76.039216
20
-16.499998
30
0
11
-76.5
21
-20
31
0
39
0
210
0
220
0
230
1
0
LINE
5
9E
100
AcDbEntity
8
2
62
256
6
ByLayer
370
13
48
1
60
0
100
AcDbLine
10
389
20
-20.5
30
0
11
389
21
49.090569
31
0
39
0
210
0
220
0
230
1
0
LINE
5
A0
100
AcDbEntity
8
2
62
256
6
ByLayer
370
13
48
1
60
0
100
AcDbLine
10
375.62611
20
20.5
30
0
11
391
21
20.5
31
0
39
0
210
0
220
0
230
1
0
LINE
5
A1
100
AcDbEntity
8
2
62
256
6
ByLayer
370
13
48
1
60
0
100
AcDbLine
10
375.62611
20
-20.5
30
0
11
391
21
-20.5
31
0
39
0
210
0
220
0
230
1
0
LINE
5
A2
100
AcDbEntity
8
1
62
256
6
ByLayer
370
18
48
1
60
1
100
AcDbLine
10
389
20
20.5
30
0
11
389.460784
21
17.000002
31
0
39
0
210
0
220
0
230
1
0
LINE
5
A3
100
AcDbEntity
8
1
62
256
6
ByLayer
370
18
48
1
60
1
100
AcDbLine
10
389.460784
20
17.000002
30
0
11
388.539216
21
16.999998
31
0
39
0
210
0
220
0
230
1
0
LINE
5
A4
100
AcDbEntity
8
1
62
256
6
ByLayer
370
18
48
1
60
1
100
AcDbLine
10
388.539216
20
16.999998
30
0
11
389
21
20.5
31
0
39
0
210
0
220
0
230
1
0
LINE
5
A5
100
AcDbEntity
8
1
62
256
6
ByLayer
370
18
48
1
60
1
100
AcDbLine
10
389
20
-20.5
30
0
11
388.539216
21
-17.000002
31
0
39
0
210
0
220
0
230
1
0
LINE
5
A6
100
AcDbEntity
8
1
62
256
6
ByLayer
370
18
48
1
60
1
100
AcDbLine
10
388.539216
20
-17.000002
30
0
11
389.460784
21
-16.999998
31
0
39
0
210
0
220
0
230
1
0
LINE
5
A7
100
AcDbEntity
8
1
62
256
6
ByLayer
370
18
48
1
60
1
100
AcDbLine
10
389.460784
20
-16.999998
30
0
11
389
21
-20.5
31
0
39
0
210
0
220
0
230
1
0
LINE
5
A8
100
AcDbEntity
8
SK2
62
256
6
ByLayer
370
13
48
1
60
0
100
AcDbLine
10
382.042957
20
-1.491762
30
0
11
388.682423
21
-19.733545
31
0
39
0
210
0
220
0
230
1
0
LINE
5
A9
100
AcDbEntity
8
SK2
62
256
6
ByLayer
370
13
48
1
60
0
100
AcDbLine
10
382.042957
20
1.491762
30
0
11
388.682423
21
19.733545
31
0
39
0
210
0
220
0
230
1
0
LINE
5
AA
100
AcDbEntity
8
1
62
256
6
ByLayer
370
18
48
1
60
1
100
AcDbLine
10
387.998383
20
-17.85416
30
0
11
391.051575
21
-16.082064
31
0
39
0
210
0
220
0
230
1
0
LINE
5
AB
100
AcDbEntity
8
1
62
256
6
ByLayer
370
18
48
1
60
1
100
AcDbLine
10
391.051575
20
-16.082064
30
0
11
391.406196
21
-16.93267
31
0
39
0
210
0
220
0
230
1
0
LINE
5
AC
100
AcDbEntity
8
1
62
256
6
ByLayer
370
18
48
1
60
1
100
AcDbLine
10
391.406196
20
-16.93267
30
0
11
387.998383
21
-17.85416
31
0
39
0
210
0
220
0
230
1
0
LINE
5
AD
100
AcDbEntity
8
1
62
256
6
ByLayer
370
18
48
1
60
1
100
AcDbLine
10
387.998383
20
17.85416
30
0
11
391.406193
21
16.932671
31
0
39
0
210
0
220
0
230
1
0
LINE
5
AE
100
AcDbEntity
8
1
62
256
6
ByLayer
370
18
48
1
60
1
100
AcDbLine
10
391.406193
20
16.932671
30
0
11
391.051579
21
16.082063
31
0
39
0
210
0
220
0
230
1
0
LINE
5
AF
100
AcDbEntity
8
1
62
256
6
ByLayer
370
18
48
1
60
1
100
AcDbLine
10
391.051579
20
16.082063
30
0
11
387.998383
21
17.85416
31
0
39
0
210
0
220
0
230
1
0
LINE
5
C2
100
AcDbEntity
8
1
62
256
6
ByLayer
370
18
48
1
60
1
100
AcDbLine
10
-76.5
20
20
30
0
11
-76.039216
21
16.500002
31
0
39
0
210
0
220
0
230
1
0
LINE
5
C3
100
AcDbEntity
8
1
62
256
6
ByLayer
370
18
48
1
60
1
100
AcDbLine
10
-76.039216
20
16.500002
30
0
11
-76.960784
21
16.499998
31
0
39
0
210
0
220
0
230
1
0
LINE
5
C4
100
AcDbEntity
8
1
62
256
6
ByLayer
370
18
48
1
60
1
100
AcDbLine
10
-76.960784
20
16.499998
30
0
11
-76.5
21
20
31
0
39
0
210
0
220
0
230
1
0
LINE
5
C6
100
AcDbEntity
8
1
62
256
6
ByLayer
370
18
48
1
60
1
100
AcDbLine
10
-76.5
20
-20
30
0
11
-76.960784
21
-16.500002
31
0
39
0
210
0
220
0
230
1
0
LINE
5
C7
100
AcDbEntity
8
1
62
256
6
ByLayer
370
18
48
1
60
1
100
AcDbLine
10
-76.960784
20
-16.500002
30
0
11
-76.039216
21
-16.499998
31
0
39
0
210
0
220
0
230
1
0
LINE
5
C8
100
AcDbEntity
8
1
62
256
6
ByLayer
370
18
48
1
60
1
100
AcDbLine
10
-76.039216
20
-16.499998
30
0
11
-76.5
21
-20
31
0
39
0
210
0
220
0
230
1
0
LINE
5
CC
100
AcDbEntity
8
1
62
256
6
ByLayer
370
18
48
1
60
1
100
AcDbLine
10
389
20
20.5
30
0
11
389.460784
21
17.000002
31
0
39
0
210
0
220
0
230
1
0
LINE
5
CD
100
AcDbEntity
8
1
62
256
6
ByLayer
370
18
48
1
60
1
100
AcDbLine
10
389.460784
20
17.000002
30
0
11
388.539216
21
16.999998
31
0
39
0
210
0
220
0
230
1
0
LINE
5
CE
100
AcDbEntity
8
1
62
256
6
ByLayer
370
18
48
1
60
1
100
AcDbLine
10
388.539216
20
16.999998
30
0
11
389
21
20.5
31
0
39
0
210
0
220
0
230
1
0
LINE
5
D0
100
AcDbEntity
8
1
62
256
6
ByLayer
370
18
48
1
60
1
100
AcDbLine
10
389
20
-20.5
30
0
11
388.539216
21
-17.000002
31
0
39
0
210
0
220
0
230
1
0
LINE
5
D1
100
AcDbEntity
8
1
62
256
6
ByLayer
370
18
48
1
60
1
100
AcDbLine
10
388.539216
20
-17.000002
30
0
11
389.460784
21
-16.999998
31
0
39
0
210
0
220
0
230
1
0
LINE
5
D2
100
AcDbEntity
8
1
62
256
6
ByLayer
370
18
48
1
60
1
100
AcDbLine
10
389.460784
20
-16.999998
30
0
11
389
21
-20.5
31
0
39
0
210
0
220
0
230
1
0
LINE
5
D5
100
AcDbEntity
8
1
62
256
6
ByLayer
370
18
48
1
60
1
100
AcDbLine
10
387.998383
20
-17.85416
30
0
11
391.051575
21
-16.082064
31
0
39
0
210
0
220
0
230
1
0
LINE
5
D6
100
AcDbEntity
8
1
62
256
6
ByLayer
370
18
48
1
60
1
100
AcDbLine
10
391.051575
20
-16.082064
30
0
11
391.406196
21
-16.93267
31
0
39
0
210
0
220
0
230
1
0
LINE
5
D7
100
AcDbEntity
8
1
62
256
6
ByLayer
370
18
48
1
60
1
100
AcDbLine
10
391.406196
20
-16.93267
30
0
11
387.998383
21
-17.85416
31
0
39
0
210
0
220
0
230
1
0
LINE
5
D9
100
AcDbEntity
8
1
62
256
6
ByLayer
370
18
48
1
60
1
100
AcDbLine
10
387.998383
20
17.85416
30
0
11
391.406193
21
16.932671
31
0
39
0
210
0
220
0
230
1
0
LINE
5
DA
100
AcDbEntity
8
1
62
256
6
ByLayer
370
18
48
1
60
1
100
AcDbLine
10
391.406193
20
16.932671
30
0
11
391.051579
21
16.082063
31
0
39
0
210
0
220
0
230
1
0
LINE
5
DB
100
AcDbEntity
8
1
62
256
6
ByLayer
370
18
48
1
60
1
100
AcDbLine
10
391.051579
20
16.082063
30
0
11
387.998383
21
17.85416
31
0
39
0
210
0
220
0
230
1
0
MTEXT
5
BE
100
AcDbEntity
8
SK2
62
256
6
ByLayer
370
18
48
1
60
0
100
AcDbMText
10
-77.841114
20
31.658438
30
0
210
0
220
0
230
1
1
%%c
40
3
41
0
44
1.084337
50
90
71
7
72
5
7
iso_b_vert
0
MTEXT
5
C1
100
AcDbEntity
8
SK2
62
256
6
ByLayer
370
18
48
1
60
0
100
AcDbMText
10
-77.841114
20
37.635
30
0
210
0
220
0
230
1
1
\W0.7728;40.000
40
3
41
0
44
1.084337
50
90
71
7
72
5
7
iso_b_vert
0
MTEXT
5
CA
100
AcDbEntity
8
2
62
256
6
ByLayer
370
18
48
1
60
0
100
AcDbMText
10
387.658886
20
32.158437
30
0
210
0
220
0
230
1
1
%%c
40
3
41
0
44
1.084337
50
90
71
7
72
5
7
iso_b_vert
0
MTEXT
5
CB
100
AcDbEntity
8
2
62
256
6
ByLayer
370
18
48
1
60
0
100
AcDbMText
10
387.658886
20
38.135
30
0
210
0
220
0
230
1
1
\W0.7237;41.000
40
3
41
0
44
1.084337
50
90
71
7
72
5
7
iso_b_vert
0
MTEXT
5
D4
100
AcDbEntity
8
SK2
62
256
6
ByLayer
370
18
48
1
60
0
100
AcDbMText
10
401.409114
20
3.734657
30
0
210
0
220
0
230
1
1
\W0.7071;140%%d
40
3
41
0
44
1.084337
50
270
71
7
72
5
7
iso_b_vert
0
MTEXT
5
DD
100
AcDbEntity
8
SK6
62
256
6
ByLayer
370
18
48
1
60
0
100
AcDbMText
10
132.066833
20
-67.114886
30
0
210
0
220
0
230
1
1
\W0.7499;H85841.0
40
3
41
0
44
1.084337
50
0
71
7
72
5
7
iso_b_vert
0
HATCH
5
C5
100
AcDbEntity
8
SK2
62
256
6
ByLayer
370
13
48
1
60
0
100
AcDbHatch
10
0
20
0
30
0
210
0
220
0
230
1
2
ANSI31
70
0
71
0
91
1
92
5
93
3
72
1
10
-76.5
20
20
11
-76.0392162584472
21
16.5000016925532
72
1
10
-76.0392162584472
20
16.5000016925532
11
-76.9607837415528
21
16.4999983074468
72
1
10
-76.9607837415528
20
16.4999983074468
11
-76.5
21
20
97
0
75
0
76
1
52
0
41
0.0062
77
0
78
1
53
45
43
0
44
0
45
-0.0139193969876572
46
0.0139193969876572
79
0
47
0
98
1
10
0
20
0
0
HATCH
5
C9
100
AcDbEntity
8
SK2
62
256
6
ByLayer
370
13
48
1
60
0
100
AcDbHatch
10
0
20
0
30
0
210
0
220
0
230
1
2
ANSI31
70
0
71
0
91
1
92
5
93
3
72
1
10
-76.5
20
-20
11
-76.9607837415528
21
-16.5000016925532
72
1
10
-76.9607837415528
20
-16.5000016925532
11
-76.0392162584472
21
-16.4999983074468
72
1
10
-76.0392162584472
20
-16.4999983074468
11
-76.5
21
-20
97
0
75
0
76
1
52
0
41
0.0062
77
0
78
1
53
45
43
0
44
0
45
-0.0139193969876572
46
0.0139193969876572
79
0
47
0
98
1
10
0
20
0
0
HATCH
5
CF
100
AcDbEntity
8
2
62
256
6
ByLayer
370
13
48
1
60
0
100
AcDbHatch
10
0
20
0
30
0
210
0
220
0
230
1
2
ANSI31
70
0
71
0
91
1
92
5
93
3
72
1
10
389
20
20.5
11
389.460783741553
21
17.0000016925532
72
1
10
389.460783741553
20
17.0000016925532
11
388.539216258447
21
16.9999983074468
72
1
10
388.539216258447
20
16.9999983074468
11
389
21
20.5
97
0
75
0
76
1
52
0
41
0.0062
77
0
78
1
53
45
43
0
44
0
45
-0.0139193969876572
46
0.0139193969876572
79
0
47
0
98
1
10
0
20
0
0
HATCH
5
D3
100
AcDbEntity
8
2
62
256
6
ByLayer
370
13
48
1
60
0
100
AcDbHatch
10
0
20
0
30
0
210
0
220
0
230
1
2
ANSI31
70
0
71
0
91
1
92
5
93
3
72
1
10
389
20
-20.5
11
388.539216258447
21
-17.0000016925532
72
1
10
388.539216258447
20
-17.0000016925532
11
389.460783741553
21
-16.9999983074468
72
1
10
389.460783741553
20
-16.9999983074468
11
389
21
-20.5
97
0
75
0
76
1
52
0
41
0.0062
77
0
78
1
53
45
43
0
44
0
45
-0.0139193969876572
46
0.0139193969876572
79
0
47
0
98
1
10
0
20
0
0
HATCH
5
D8
100
AcDbEntity
8
SK2
62
256
6
ByLayer
370
13
48
1
60
0
100
AcDbHatch
10
0
20
0
30
0
210
0
220
0
230
1
2
ANSI31
70
0
71
0
91
1
92
5
93
3
72
1
10
387.998382723188
20
-17.8541597949323
11
391.051575425693
21
-16.0820638240608
72
1
10
391.051575425693
20
-16.0820638240608
11
391.406195833975
21
-16.9326700737197
72
1
10
391.406195833975
20
-16.9326700737197
11
387.998382723188
21
-17.8541597949323
97
0
75
0
76
1
52
0
41
0.0062
77
0
78
1
53
45
43
0
44
0
45
-0.0139193969876572
46
0.0139193969876572
79
0
47
0
98
1
10
0
20
0
0
HATCH
5
DC
100
AcDbEntity
8
SK2
62
256
6
ByLayer
370
13
48
1
60
0
100
AcDbHatch
10
0
20
0
30
0
210
0
220
0
230
1
2
ANSI31
70
0
71
0
91
1
92
5
93
3
72
1
10
387.998382723188
20
17.8541597949323
11
391.406192709519
21
16.9326713763017
72
1
10
391.406192709519
20
16.9326713763017
11
391.051578550149
21
16.0820625214788
72
1
10
391.051578550149
20
16.0820625214788
11
387.998382723188
21
17.8541597949323
97
0
75
0
76
1
52
0
41
0.0062
77
0
78
1
53
45
43
0
44
0
45
-0.0139193969876572
46
0.0139193969876572
79
0
47
0
98
1
10
0
20
0
0
DIMENSION
5
E0
100
AcDbEntity
8
SK2
62
256
6
ByLayer
370
18
48
1
60
0
100
AcDbDimension
2
_U0
10
381.5
20
-53.207178
30
0
11
155.75
21
-53.207178
31
0
70
32
71
1
72
1
41
1
210
0
220
0
230
1
3
Standard
100
AcDbAlignedDimension
13
-70
23
-20
33
0
14
381.5
24
0
34
0
50
0
100
AcDbRotatedDimension
1001
ACAD
1000
DSTYLE
1002
{
1070
   371
1070
    13
1070
   372
1070
    13
1070
     3
1000

1070
   170
1070
     0
1070
   144
1040
1.0
1070
   277
1070
     2
1070
   284
1070
     8
1070
   278
1070
    46
1070
   146
1040
1.166667
1070
   345
1005
16
1070
   347
1005
16
1070
   346
1005
16
1070
   344
1005
0
1070
   343
1005
0
1070
   172
1070
     1
1070
    76
1070
     0
1070
    75
1070
     0
1070
   282
1070
     0
1070
   281
1070
     0
1070
    71
1070
     0
1070
    74
1070
     0
1070
   279
1070
     0
1070
   173
1070
     1
1070
   340
1005
BF
1070
   271
1070
     2
1070
   272
1070
     3
1070
    77
1070
     1
1070
    73
1070
     1
1070
   171
1070
     3
1070
   274
1070
     4
1070
   177
1070
     2
1070
   176
1070
     2
1070
   178
1070
     2
1070
    78
1070
     8
1070
    48
1040
-0.1
1070
    41
1040
3.5
1070
   147
1040
1.5
1070
    42
1040
1.5875
1070
    44
1040
2.0
1070
   140
1040
3.0
1002
}
1001
ACAD_DSTYLE_DIM_LINETYPE
1070
   380
1005
16
1001
ACAD_DSTYLE_DIM_EXT1_LINETYPE
1070
   381
1005
16
1001
ACAD_DSTYLE_DIM_EXT2_LINETYPE
1070
   382
1005
16
0
DIMENSION
5
F9
100
AcDbEntity
8
SK2
62
256
6
ByLayer
370
18
48
1
60
0
100
AcDbDimension
2
_U1
10
3
20
-43.207178
30
0
11
192.25
21
-43.207178
31
0
70
32
71
1
72
1
41
1
210
0
220
0
230
1
3
Standard
100
AcDbAlignedDimension
13
381.5
23
0
33
0
14
3
24
-20.5
34
0
50
0
100
AcDbRotatedDimension
1001
ACAD
1000
DSTYLE
1002
{
1070
   371
1070
    13
1070
   372
1070
    13
1070
     3
1000

1070
   170
1070
     0
1070
   144
1040
1.0
1070
   277
1070
     2
1070
   284
1070
     8
1070
   278
1070
    46
1070
   146
1040
1.166667
1070
   345
1005
16
1070
   347
1005
16
1070
   346
1005
16
1070
   344
1005
0
1070
   343
1005
0
1070
   172
1070
     1
1070
    76
1070
     0
1070
    75
1070
     0
1070
   282
1070
     0
1070
   281
1070
     0
1070
    71
1070
     0
1070
    74
1070
     0
1070
   279
1070
     0
1070
   173
1070
     1
1070
   340
1005
BF
1070
   271
1070
     2
1070
   272
1070
     3
1070
    77
1070
     1
1070
    73
1070
     1
1070
   171
1070
     3
1070
   274
1070
     4
1070
   177
1070
     2
1070
   176
1070
     2
1070
   178
1070
     2
1070
    78
1070
     8
1070
    48
1040
-0.1
1070
    41
1040
3.5
1070
   147
1040
1.5
1070
    42
1040
1.5875
1070
    44
1040
2.0
1070
   140
1040
3.0
1002
}
1001
ACAD_DSTYLE_DIM_LINETYPE
1070
   380
1005
16
1001
ACAD_DSTYLE_DIM_EXT1_LINETYPE
1070
   381
1005
16
1001
ACAD_DSTYLE_DIM_EXT2_LINETYPE
1070
   382
1005
16
0
DIMENSION
5
111
100
AcDbEntity
8
SK2
62
256
6
ByLayer
370
18
48
1
60
0
100
AcDbDimension
2
_U2
10
0
20
-43.207178
30
0
11
-35
21
-43.207178
31
0
70
32
71
1
72
1
41
1
210
0
220
0
230
1
3
Standard
100
AcDbAlignedDimension
13
-70
23
-20
33
0
14
0
24
-20
34
0
50
0
100
AcDbRotatedDimension
1001
ACAD
1000
DSTYLE
1002
{
1070
   371
1070
    13
1070
   372
1070
    13
1070
     3
1000

1070
   170
1070
     0
1070
   144
1040
1.0
1070
   277
1070
     2
1070
   284
1070
     8
1070
   278
1070
    46
1070
   146
1040
1.166667
1070
   345
1005
16
1070
   347
1005
16
1070
   346
1005
16
1070
   344
1005
0
1070
   343
1005
0
1070
   172
1070
     1
1070
    76
1070
     0
1070
    75
1070
     0
1070
   282
1070
     0
1070
   281
1070
     0
1070
    71
1070
     0
1070
    74
1070
     0
1070
   279
1070
     0
1070
   173
1070
     1
1070
   340
1005
BF
1070
   271
1070
     2
1070
   272
1070
     3
1070
    77
1070
     1
1070
    73
1070
     1
1070
   171
1070
     3
1070
   274
1070
     4
1070
   177
1070
     2
1070
   176
1070
     2
1070
   178
1070
     2
1070
    78
1070
     8
1070
    48
1040
-0.1
1070
    41
1040
3.5
1070
   147
1040
1.5
1070
    42
1040
1.5875
1070
    44
1040
2.0
1070
   140
1040
3.0
1002
}
1001
ACAD_DSTYLE_DIM_LINETYPE
1070
   380
1005
16
1001
ACAD_DSTYLE_DIM_EXT1_LINETYPE
1070
   381
1005
16
1001
ACAD_DSTYLE_DIM_EXT2_LINETYPE
1070
   382
1005
16
0
DIMENSION
5
129
100
AcDbEntity
8
SK2
62
256
6
ByLayer
370
18
48
1
60
0
100
AcDbDimension
2
_U3
10
30
20
40.207178
30
0
11
205.75
21
40.207178
31
0
70
32
71
1
72
1
41
1
210
0
220
0
230
1
3
Standard
100
AcDbAlignedDimension
13
381.5
23
0
33
0
14
30
24
20.5
34
0
50
0
100
AcDbRotatedDimension
1001
ACAD
1000
DSTYLE
1002
{
1070
   371
1070
    13
1070
   372
1070
    13
1070
     3
1000

1070
   170
1070
     0
1070
   144
1040
1.0
1070
   277
1070
     2
1070
   284
1070
     8
1070
   278
1070
    46
1070
   146
1040
1.166667
1070
   345
1005
16
1070
   347
1005
16
1070
   346
1005
16
1070
   344
1005
0
1070
   343
1005
0
1070
   172
1070
     1
1070
    76
1070
     0
1070
    75
1070
     0
1070
   282
1070
     0
1070
   281
1070
     0
1070
    71
1070
     0
1070
    74
1070
     0
1070
   279
1070
     0
1070
   173
1070
     1
1070
   340
1005
BF
1070
   271
1070
     2
1070
   272
1070
     3
1070
    77
1070
     1
1070
    73
1070
     1
1070
   171
1070
     3
1070
   274
1070
     4
1070
   177
1070
     2
1070
   176
1070
     2
1070
   178
1070
     2
1070
    78
1070
     8
1070
    48
1040
-0.1
1070
    41
1040
3.5
1070
   147
1040
1.5
1070
    42
1040
1.5875
1070
    44
1040
2.0
1070
   140
1040
3.0
1002
}
1001
ACAD_DSTYLE_DIM_LINETYPE
1070
   380
1005
16
1001
ACAD_DSTYLE_DIM_EXT1_LINETYPE
1070
   381
1005
16
1001
ACAD_DSTYLE_DIM_EXT2_LINETYPE
1070
   382
1005
16
0
ENDSEC
0
SECTION
2
OBJECTS
0
DICTIONARY
5
1b1
330
0
100
AcDbDictionary
280
0
281
1
3
ACAD_GROUP
350
1b2
3
ACAD_MLINESTYLE
350
1b3
0
DICTIONARY
5
1b2
330
0
100
AcDbDictionary
280
0
281
1
0
DICTIONARY
5
1b3
330
0
100
AcDbDictionary
280
0
281
1
3
Standard
350
18
0
MLINESTYLE
5
18
330
1b3
100
AcDbMlineStyle
2
Standard
70
0
3

62
256
51
90
52
90
71
2
49
-0.5
62
256
6
ByLayer
49
0.5
62
256
6
ByLayer
0
RASTERVARIABLES
5
19f
330

100
AcDbRasterVariables
90
0
70
1
71
1
72
1
0
ENDSEC
0
EOF
