0
SECTION
2
HEADER
9
$ACADVER
1
AC1015
9
$DWGCODEPAGE
3
ANSI_1252
9
$HANDSEED
5
1cd
9
$ANGBASE
50
0
9
$ANGDIR
70
0
9
$ATTMODE
70
1
9
$AUNITS
70
0
9
$AUPREC
70
0
9
$CECOLOR
62
256
9
$CELTSCALE
40
1
9
$CELTYPE
6
ByLayer
9
$CELWEIGHT
370
18
9
$CLAYER
8
0
9
$CMLJUST
70
0
9
$CMLSCALE
40
1
9
$CMLSTYLE
2
Standard
9
$DIMSTYLE
2
Standard
9
$TEXTSIZE
40
0.2
9
$TEXTSTYLE
7
Standard
9
$LUNITS
70
2
9
$LUPREC
70
4
9
$EXTNAMES
290
1
9
$INSUNITS
70
4
9
$LTSCALE
40
1
9
$LWDISPLAY
290
1
9
$PDMODE
70
0
9
$PDSIZE
40
0
9
$PLINEGEN
70
0
0
ENDSEC
0
SECTION
2
CLASSES
0
CLASS
1
RASTERVARIABLES
2
AcDbRasterVariables
3
ISM
90
0
280
0
281
0
0
ENDSEC
0
SECTION
2
TABLES
0
TABLE
2
VPORT
5
1c3
100
AcDbSymbolTable
0
VPORT
5
1
100
AcDbSymbolTableRecord
100
AcDbViewportTableRecord
2
*Active
70
0
10
0
20
0
11
1
21
1
12
-1
22
1
13
0
23
0
14
0.5
24
0.5
15
10
25
10
16
0
26
0
36
1
17
0
27
0
37
0
0
ENDTAB
0
TABLE
2
LTYPE
5
1c4
100
AcDbSymbolTable
0
LTYPE
5
14
100
AcDbSymbolTableRecord
100
AcDbLinetypeTableRecord
70
0
2
ByBlock
3

72
65
73
0
40
0
0
LTYPE
5
15
100
AcDbSymbolTableRecord
100
AcDbLinetypeTableRecord
70
0
2
ByLayer
3

72
65
73
0
40
0
0
LTYPE
5
16
100
AcDbSymbolTableRecord
100
AcDbLinetypeTableRecord
70
0
2
Continuous
3
Solid line
72
65
73
0
40
0
0
LTYPE
5
6E
100
AcDbSymbolTableRecord
100
AcDbLinetypeTableRecord
70
0
2
CENTER
3
____ _ ____ _ ____ _ ____
72
65
73
4
40
47.5
49
22
74
0
49
-8.5
74
0
49
8.5
74
0
49
-8.5
74
0
0
LTYPE
5
6F
100
AcDbSymbolTableRecord
100
AcDbLinetypeTableRecord
70
0
2
DASHED
3
__ __ __ __ __ __ __ __ __
72
65
73
2
40
25.72
49
12.86
74
0
49
-12.86
74
0
0
ENDTAB
0
TABLE
2
LAYER
5
1c5
100
AcDbSymbolTable
0
LAYER
5
10
100
AcDbSymbolTableRecord
100
AcDbLayerTableRecord
2
0
70
0
62
7
6
Continuous
290
1
370
-3
390
0
0
LAYER
5
71
100
AcDbSymbolTableRecord
100
AcDbLayerTableRecord
2
80
70
0
62
-6
6
Continuous
290
1
370
-3
390
0
0
LAYER
5
73
100
AcDbSymbolTableRecord
100
AcDbLayerTableRecord
2
81
70
0
62
-3
6
Continuous
290
1
370
-3
390
0
0
LAYER
5
75
100
AcDbSymbolTableRecord
100
AcDbLayerTableRecord
2
1
70
0
62
4
6
Continuous
290
1
370
-3
390
0
0
LAYER
5
82
100
AcDbSymbolTableRecord
100
AcDbLayerTableRecord
2
4
70
0
62
-2
6
CENTER
290
1
370
-3
390
0
0
LAYER
5
AC
100
AcDbSymbolTableRecord
100
AcDbLayerTableRecord
2
2
70
0
62
7
6
Continuous
290
1
370
-3
390
0
0
LAYER
5
F2
100
AcDbSymbolTableRecord
100
AcDbLayerTableRecord
2
Defpoints
70
0
62
7
6
Continuous
290
0
370
-3
390
0
0
LAYER
5
1af
100
AcDbSymbolTableRecord
100
AcDbLayerTableRecord
2
SK4
70
0
62
2
6
CENTER
290
1
370
-3
390
0
0
LAYER
5
1b0
100
AcDbSymbolTableRecord
100
AcDbLayerTableRecord
2
SK1
70
0
62
4
6
Continuous
290
1
370
-3
390
0
0
LAYER
5
1b1
100
AcDbSymbolTableRecord
100
AcDbLayerTableRecord
2
SK2
70
0
62
7
6
Continuous
290
1
370
-3
390
0
0
LAYER
5
1b2
100
AcDbSymbolTableRecord
100
AcDbLayerTableRecord
2
SK6
70
0
62
5
6
Continuous
290
1
370
-3
390
0
0
ENDTAB
0
TABLE
2
STYLE
5
1c6
100
AcDbSymbolTable
0
STYLE
5
11
100
AcDbSymbolTableRecord
100
AcDbTextStyleTableRecord
2
Standard
3
txt
70
0
71
0
40
0
41
1
42
0
50
0
0
STYLE
5
CE
100
AcDbSymbolTableRecord
100
AcDbTextStyleTableRecord
2
iso_b_vert
3
simplex.shx
70
0
71
0
40
0
41
1
42
0
50
0
0
STYLE
5
CF
100
AcDbSymbolTableRecord
100
AcDbTextStyleTableRecord
2
DWGDirectTextStyle
3
simplex
70
0
71
0
40
0
41
1
42
0
50
0
0
ENDTAB
0
TABLE
2
DIMSTYLE
5
1c7
100
AcDbSymbolTable
100
AcDbDimStyleTable
0
DIMSTYLE
105
27
100
AcDbSymbolTableRecord
100
AcDbDimStyleTableRecord
2
Standard
70
0
3
<>
41
0.18
42
0.0625
44
0.18
140
0.18
147
0.09
73
0
74
0
77
1
271
2
275
0
278
52
280
0
340
11
0
ENDTAB
0
TABLE
2
VIEW
5
1c8
100
AcDbSymbolTable
0
ENDTAB
0
TABLE
2
UCS
5
1c9
100
AcDbSymbolTable
0
ENDTAB
0
TABLE
2
APPID
5
1ca
100
AcDbSymbolTable
0
APPID
5
12
100
AcDbSymbolTableRecord
100
AcDbRegAppTableRecord
2
ACAD
70
0
0
APPID
5
EE
100
AcDbSymbolTableRecord
100
AcDbRegAppTableRecord
2
ACAD_DSTYLE_DIMBREAK
70
0
0
APPID
5
16E
100
AcDbSymbolTableRecord
100
AcDbRegAppTableRecord
2
ACAD_DSTYLE_DIM_LINETYPE
70
0
0
APPID
5
16F
100
AcDbSymbolTableRecord
100
AcDbRegAppTableRecord
2
ACAD_DSTYLE_DIM_EXT1_LINETYPE
70
0
0
APPID
5
170
100
AcDbSymbolTableRecord
100
AcDbRegAppTableRecord
2
ACAD_DSTYLE_DIM_EXT2_LINETYPE
70
0
0
APPID
5
1AB
100
AcDbSymbolTableRecord
100
AcDbRegAppTableRecord
2
ACAD_MLEADERVER
70
0
0
ENDTAB
0
TABLE
2
BLOCK_RECORD
5
1cb
100
AcDbSymbolTable
0
BLOCK_RECORD
5
1F
100
AcDbSymbolTableRecord
100
AcDbBlockTableRecord
2
*Model_Space
340
0
70
0
0
BLOCK_RECORD
5
1B
100
AcDbSymbolTableRecord
100
AcDbBlockTableRecord
2
*Paper_Space
340
0
70
0
0
BLOCK_RECORD
5
23
100
AcDbSymbolTableRecord
100
AcDbBlockTableRecord
2
*Paper_Space0
340
0
70
0
0
BLOCK_RECORD
5
F3
100
AcDbSymbolTableRecord
100
AcDbBlockTableRecord
2
*D1
340
0
70
0
0
BLOCK_RECORD
5
FF
100
AcDbSymbolTableRecord
100
AcDbBlockTableRecord
2
_U0
340
0
70
0
0
BLOCK_RECORD
5
10B
100
AcDbSymbolTableRecord
100
AcDbBlockTableRecord
2
*D3
340
0
70
0
0
BLOCK_RECORD
5
117
100
AcDbSymbolTableRecord
100
AcDbBlockTableRecord
2
_U1
340
0
70
0
0
BLOCK_RECORD
5
123
100
AcDbSymbolTableRecord
100
AcDbBlockTableRecord
2
*D5
340
0
70
0
0
BLOCK_RECORD
5
12F
100
AcDbSymbolTableRecord
100
AcDbBlockTableRecord
2
_U2
340
0
70
0
0
BLOCK_RECORD
5
13B
100
AcDbSymbolTableRecord
100
AcDbBlockTableRecord
2
*D7
340
0
70
0
0
BLOCK_RECORD
5
147
100
AcDbSymbolTableRecord
100
AcDbBlockTableRecord
2
_U3
340
0
70
0
0
ENDTAB
0
ENDSEC
0
SECTION
2
BLOCKS
0
BLOCK
5
20
100
AcDbEntity
8
0
100
AcDbBlockBegin
2
*Model_Space
70
0
10
0
20
0
30
0
3
*Model_Space
0
ENDBLK
5
21
100
AcDbEntity
8
0
100
AcDbBlockEnd
0
BLOCK
5
1C
100
AcDbEntity
8
0
100
AcDbBlockBegin
2
*Paper_Space
70
0
10
0
20
0
30
0
3
*Paper_Space
0
ENDBLK
5
1D
100
AcDbEntity
8
0
100
AcDbBlockEnd
0
BLOCK
5
24
100
AcDbEntity
8
0
100
AcDbBlockBegin
2
*Paper_Space0
70
0
10
0
20
0
30
0
3
*Paper_Space0
0
ENDBLK
5
25
100
AcDbEntity
8
0
100
AcDbBlockEnd
0
BLOCK
5
F4
100
AcDbEntity
8
0
100
AcDbBlockBegin
2
*D1
70
1
10
0
20
0
30
0
3
*D1
0
LINE
5
F6
100
AcDbEntity
8
0
62
256
6
ByLayer
370
-2
48
1
60
0
100
AcDbLine
10
-70
20
-21.5875
30
0
11
-70
21
-52.061051
31
0
39
0
210
0
220
0
230
1
0
LINE
5
F7
100
AcDbEntity
8
0
62
256
6
ByLayer
370
-2
48
1
60
0
100
AcDbLine
10
351.5
20
-1.5875
30
0
11
351.5
21
-52.061051
31
0
39
0
210
0
220
0
230
1
0
LINE
5
F8
100
AcDbEntity
8
0
62
256
6
ByLayer
370
-2
48
1
60
0
100
AcDbLine
10
-66.5
20
-50.061051
30
0
11
348
21
-50.061051
31
0
39
0
210
0
220
0
230
1
0
SOLID
5
F9
100
AcDbEntity
8
0
62
256
6
ByLayer
370
-1
48
1
60
0
100
AcDbTrace
10
-66.5
20
-49.477717
30
0
11
-66.5
21
-50.644384
31
0
12
-70
22
-50.061051
32
0
13
-70
23
-50.061051
33
0
39
0
210
0
220
0
230
1
0
SOLID
5
FA
100
AcDbEntity
8
0
62
256
6
ByLayer
370
-1
48
1
60
0
100
AcDbTrace
10
348
20
-50.644384
30
0
11
348
21
-49.477717
31
0
12
351.5
22
-50.061051
32
0
13
351.5
23
-50.061051
33
0
39
0
210
0
220
0
230
1
0
MTEXT
5
FB
100
AcDbEntity
8
0
62
256
6
ByLayer
370
18
48
1
60
0
100
AcDbMText
10
140.75
20
-44.061051
30
0
210
0
220
0
230
1
1
\A1;421.5
40
3
41
0
44
1
50
0
71
5
72
5
7
iso_b_vert
0
POINT
5
FC
100
AcDbEntity
8
Defpoints
62
0
6
ByLayer
370
-1
48
1
60
0
100
AcDbPoint
10
-70
20
-20
30
0
39
0
210
0
220
0
230
1
50
360
0
POINT
5
FD
100
AcDbEntity
8
Defpoints
62
0
6
ByLayer
370
-1
48
1
60
0
100
AcDbPoint
10
351.5
20
0
30
0
39
0
210
0
220
0
230
1
50
360
0
POINT
5
FE
100
AcDbEntity
8
Defpoints
62
0
6
ByLayer
370
-1
48
1
60
0
100
AcDbPoint
10
351.5
20
-50.061051
30
0
39
0
210
0
220
0
230
1
50
360
0
ENDBLK
5
F5
100
AcDbEntity
8
0
100
AcDbBlockEnd
0
BLOCK
5
106
100
AcDbEntity
8
0
100
AcDbBlockBegin
2
_U0
70
0
10
0
20
0
30
0
3
_U0
0
MTEXT
5
100
100
AcDbEntity
8
SK2
62
256
6
ByLayer
370
18
48
1
60
0
100
AcDbMText
10
135.363715
20
-49.175936
30
0
210
0
220
0
230
1
1
\W0.7237;421.50
40
3
41
0
44
1.084337
50
0
71
7
72
5
7
iso_b_vert
0
LINE
5
101
100
AcDbEntity
8
SK2
62
256
6
ByLayer
370
13
48
1
60
0
100
AcDbLine
10
-70
20
-21.5875
30
0
11
-70
21
-52.061051
31
0
39
0
210
0
220
0
230
1
0
LINE
5
102
100
AcDbEntity
8
SK2
62
256
6
ByLayer
370
13
48
1
60
0
100
AcDbLine
10
351.5
20
-1.5875
30
0
11
351.5
21
-52.061051
31
0
39
0
210
0
220
0
230
1
0
LINE
5
103
100
AcDbEntity
8
SK2
62
256
6
ByLayer
370
13
48
1
60
0
100
AcDbLine
10
-70
20
-50.061051
30
0
11
351.5
21
-50.061051
31
0
39
0
210
0
220
0
230
1
0
SOLID
5
104
100
AcDbEntity
8
SK2
62
256
6
ByLayer
370
18
48
1
60
0
100
AcDbTrace
10
-70
20
-50.061051
30
0
11
-66.500002
21
-49.600267
31
0
12
-66.499998
22
-50.521835
32
0
13
-66.499998
23
-50.521835
33
0
39
0
210
0
220
0
230
1
0
SOLID
5
105
100
AcDbEntity
8
SK2
62
256
6
ByLayer
370
18
48
1
60
0
100
AcDbTrace
10
351.5
20
-50.061051
30
0
11
348.000002
21
-50.521835
31
0
12
347.999998
22
-49.600267
32
0
13
347.999998
23
-49.600267
33
0
39
0
210
0
220
0
230
1
0
ENDBLK
5
107
100
AcDbEntity
8
0
100
AcDbBlockEnd
0
BLOCK
5
10C
100
AcDbEntity
8
0
100
AcDbBlockBegin
2
*D3
70
1
10
0
20
0
30
0
3
*D3
0
LINE
5
10E
100
AcDbEntity
8
0
62
256
6
ByLayer
370
-2
48
1
60
0
100
AcDbLine
10
351.5
20
-1.5875
30
0
11
351.5
21
-42.061051
31
0
39
0
210
0
220
0
230
1
0
LINE
5
10F
100
AcDbEntity
8
0
62
256
6
ByLayer
370
-2
48
1
60
0
100
AcDbLine
10
3
20
-20.5875
30
0
11
3
21
-42.061051
31
0
39
0
210
0
220
0
230
1
0
LINE
5
110
100
AcDbEntity
8
0
62
256
6
ByLayer
370
-2
48
1
60
0
100
AcDbLine
10
348
20
-40.061051
30
0
11
6.5
21
-40.061051
31
0
39
0
210
0
220
0
230
1
0
SOLID
5
111
100
AcDbEntity
8
0
62
256
6
ByLayer
370
-1
48
1
60
0
100
AcDbTrace
10
348
20
-40.644384
30
0
11
348
21
-39.477717
31
0
12
351.5
22
-40.061051
32
0
13
351.5
23
-40.061051
33
0
39
0
210
0
220
0
230
1
0
SOLID
5
112
100
AcDbEntity
8
0
62
256
6
ByLayer
370
-1
48
1
60
0
100
AcDbTrace
10
6.5
20
-39.477717
30
0
11
6.5
21
-40.644384
31
0
12
3
22
-40.061051
32
0
13
3
23
-40.061051
33
0
39
0
210
0
220
0
230
1
0
MTEXT
5
113
100
AcDbEntity
8
0
62
256
6
ByLayer
370
18
48
1
60
0
100
AcDbMText
10
177.25
20
-34.061051
30
0
210
0
220
0
230
1
1
\A1;348.5
40
3
41
0
44
1
50
0
71
5
72
5
7
iso_b_vert
0
POINT
5
114
100
AcDbEntity
8
Defpoints
62
0
6
ByLayer
370
-1
48
1
60
0
100
AcDbPoint
10
351.5
20
0
30
0
39
0
210
0
220
0
230
1
50
360
0
POINT
5
115
100
AcDbEntity
8
Defpoints
62
0
6
ByLayer
370
-1
48
1
60
0
100
AcDbPoint
10
3
20
-19
30
0
39
0
210
0
220
0
230
1
50
360
0
POINT
5
116
100
AcDbEntity
8
Defpoints
62
0
6
ByLayer
370
-1
48
1
60
0
100
AcDbPoint
10
3
20
-40.061051
30
0
39
0
210
0
220
0
230
1
50
360
0
ENDBLK
5
10D
100
AcDbEntity
8
0
100
AcDbBlockEnd
0
BLOCK
5
11E
100
AcDbEntity
8
0
100
AcDbBlockBegin
2
_U1
70
0
10
0
20
0
30
0
3
_U1
0
MTEXT
5
118
100
AcDbEntity
8
SK2
62
256
6
ByLayer
370
18
48
1
60
0
100
AcDbMText
10
171.488773
20
-39.175936
30
0
210
0
220
0
230
1
1
\W0.7728;348.50
40
3
41
0
44
1.084337
50
0
71
7
72
5
7
iso_b_vert
0
LINE
5
119
100
AcDbEntity
8
SK2
62
256
6
ByLayer
370
13
48
1
60
0
100
AcDbLine
10
351.5
20
-1.5875
30
0
11
351.5
21
-42.061051
31
0
39
0
210
0
220
0
230
1
0
LINE
5
11A
100
AcDbEntity
8
SK2
62
256
6
ByLayer
370
13
48
1
60
0
100
AcDbLine
10
3
20
-20.5875
30
0
11
3
21
-42.061051
31
0
39
0
210
0
220
0
230
1
0
LINE
5
11B
100
AcDbEntity
8
SK2
62
256
6
ByLayer
370
13
48
1
60
0
100
AcDbLine
10
351.5
20
-40.061051
30
0
11
3
21
-40.061051
31
0
39
0
210
0
220
0
230
1
0
SOLID
5
11C
100
AcDbEntity
8
SK2
62
256
6
ByLayer
370
18
48
1
60
0
100
AcDbTrace
10
351.5
20
-40.061051
30
0
11
348.000002
21
-40.521835
31
0
12
347.999998
22
-39.600267
32
0
13
347.999998
23
-39.600267
33
0
39
0
210
0
220
0
230
1
0
SOLID
5
11D
100
AcDbEntity
8
SK2
62
256
6
ByLayer
370
18
48
1
60
0
100
AcDbTrace
10
3
20
-40.061051
30
0
11
6.499998
21
-39.600267
31
0
12
6.500002
22
-40.521835
32
0
13
6.500002
23
-40.521835
33
0
39
0
210
0
220
0
230
1
0
ENDBLK
5
11F
100
AcDbEntity
8
0
100
AcDbBlockEnd
0
BLOCK
5
124
100
AcDbEntity
8
0
100
AcDbBlockBegin
2
*D5
70
1
10
0
20
0
30
0
3
*D5
0
LINE
5
126
100
AcDbEntity
8
0
62
256
6
ByLayer
370
-2
48
1
60
0
100
AcDbLine
10
-70
20
-21.5875
30
0
11
-70
21
-42.061051
31
0
39
0
210
0
220
0
230
1
0
LINE
5
127
100
AcDbEntity
8
0
62
256
6
ByLayer
370
-2
48
1
60
0
100
AcDbLine
10
0
20
-21.5875
30
0
11
0
21
-42.061051
31
0
39
0
210
0
220
0
230
1
0
LINE
5
128
100
AcDbEntity
8
0
62
256
6
ByLayer
370
-2
48
1
60
0
100
AcDbLine
10
-66.5
20
-40.061051
30
0
11
-3.5
21
-40.061051
31
0
39
0
210
0
220
0
230
1
0
SOLID
5
129
100
AcDbEntity
8
0
62
256
6
ByLayer
370
-1
48
1
60
0
100
AcDbTrace
10
-66.5
20
-39.477717
30
0
11
-66.5
21
-40.644384
31
0
12
-70
22
-40.061051
32
0
13
-70
23
-40.061051
33
0
39
0
210
0
220
0
230
1
0
SOLID
5
12A
100
AcDbEntity
8
0
62
256
6
ByLayer
370
-1
48
1
60
0
100
AcDbTrace
10
-3.5
20
-40.644384
30
0
11
-3.5
21
-39.477717
31
0
12
0
22
-40.061051
32
0
13
0
23
-40.061051
33
0
39
0
210
0
220
0
230
1
0
MTEXT
5
12B
100
AcDbEntity
8
0
62
256
6
ByLayer
370
18
48
1
60
0
100
AcDbMText
10
-35
20
-34.061051
30
0
210
0
220
0
230
1
1
\A1;70
40
3
41
0
44
1
50
0
71
5
72
5
7
iso_b_vert
0
POINT
5
12C
100
AcDbEntity
8
Defpoints
62
0
6
ByLayer
370
-1
48
1
60
0
100
AcDbPoint
10
-70
20
-20
30
0
39
0
210
0
220
0
230
1
50
360
0
POINT
5
12D
100
AcDbEntity
8
Defpoints
62
0
6
ByLayer
370
-1
48
1
60
0
100
AcDbPoint
10
0
20
-20
30
0
39
0
210
0
220
0
230
1
50
360
0
POINT
5
12E
100
AcDbEntity
8
Defpoints
62
0
6
ByLayer
370
-1
48
1
60
0
100
AcDbPoint
10
0
20
-40.061051
30
0
39
0
210
0
220
0
230
1
50
360
0
ENDBLK
5
125
100
AcDbEntity
8
0
100
AcDbBlockEnd
0
BLOCK
5
136
100
AcDbEntity
8
0
100
AcDbBlockBegin
2
_U2
70
0
10
0
20
0
30
0
3
_U2
0
MTEXT
5
130
100
AcDbEntity
8
SK2
62
256
6
ByLayer
370
18
48
1
60
0
100
AcDbMText
10
-39.48237
20
-39.175936
30
0
210
0
220
0
230
1
1
\W0.7468;70.00
40
3
41
0
44
1.084337
50
0
71
7
72
5
7
iso_b_vert
0
LINE
5
131
100
AcDbEntity
8
SK2
62
256
6
ByLayer
370
13
48
1
60
0
100
AcDbLine
10
-70
20
-21.5875
30
0
11
-70
21
-42.061051
31
0
39
0
210
0
220
0
230
1
0
LINE
5
132
100
AcDbEntity
8
SK2
62
256
6
ByLayer
370
13
48
1
60
0
100
AcDbLine
10
0
20
-21.5875
30
0
11
0
21
-42.061051
31
0
39
0
210
0
220
0
230
1
0
LINE
5
133
100
AcDbEntity
8
SK2
62
256
6
ByLayer
370
13
48
1
60
0
100
AcDbLine
10
-70
20
-40.061051
30
0
11
0
21
-40.061051
31
0
39
0
210
0
220
0
230
1
0
SOLID
5
134
100
AcDbEntity
8
SK2
62
256
6
ByLayer
370
18
48
1
60
0
100
AcDbTrace
10
-70
20
-40.061051
30
0
11
-66.500002
21
-39.600267
31
0
12
-66.499998
22
-40.521835
32
0
13
-66.499998
23
-40.521835
33
0
39
0
210
0
220
0
230
1
0
SOLID
5
135
100
AcDbEntity
8
SK2
62
256
6
ByLayer
370
18
48
1
60
0
100
AcDbTrace
10
0
20
-40.061051
30
0
11
-3.499998
21
-40.521835
31
0
12
-3.500002
22
-39.600267
32
0
13
-3.500002
23
-39.600267
33
0
39
0
210
0
220
0
230
1
0
ENDBLK
5
137
100
AcDbEntity
8
0
100
AcDbBlockEnd
0
BLOCK
5
13C
100
AcDbEntity
8
0
100
AcDbBlockBegin
2
*D7
70
1
10
0
20
0
30
0
3
*D7
0
LINE
5
13E
100
AcDbEntity
8
0
62
256
6
ByLayer
370
-2
48
1
60
0
100
AcDbLine
10
351.5
20
1.5875
30
0
11
351.5
21
39.061051
31
0
39
0
210
0
220
0
230
1
0
LINE
5
13F
100
AcDbEntity
8
0
62
256
6
ByLayer
370
-2
48
1
60
0
100
AcDbLine
10
25
20
20.5875
30
0
11
25
21
39.061051
31
0
39
0
210
0
220
0
230
1
0
LINE
5
140
100
AcDbEntity
8
0
62
256
6
ByLayer
370
-2
48
1
60
0
100
AcDbLine
10
348
20
37.061051
30
0
11
28.5
21
37.061051
31
0
39
0
210
0
220
0
230
1
0
SOLID
5
141
100
AcDbEntity
8
0
62
256
6
ByLayer
370
-1
48
1
60
0
100
AcDbTrace
10
348
20
36.477717
30
0
11
348
21
37.644384
31
0
12
351.5
22
37.061051
32
0
13
351.5
23
37.061051
33
0
39
0
210
0
220
0
230
1
0
SOLID
5
142
100
AcDbEntity
8
0
62
256
6
ByLayer
370
-1
48
1
60
0
100
AcDbTrace
10
28.5
20
37.644384
30
0
11
28.5
21
36.477717
31
0
12
25
22
37.061051
32
0
13
25
23
37.061051
33
0
39
0
210
0
220
0
230
1
0
MTEXT
5
143
100
AcDbEntity
8
0
62
256
6
ByLayer
370
18
48
1
60
0
100
AcDbMText
10
188.25
20
43.061051
30
0
210
0
220
0
230
1
1
\A1;326.5
40
3
41
0
44
1
50
0
71
5
72
5
7
iso_b_vert
0
POINT
5
144
100
AcDbEntity
8
Defpoints
62
0
6
ByLayer
370
-1
48
1
60
0
100
AcDbPoint
10
351.5
20
0
30
0
39
0
210
0
220
0
230
1
50
360
0
POINT
5
145
100
AcDbEntity
8
Defpoints
62
0
6
ByLayer
370
-1
48
1
60
0
100
AcDbPoint
10
25
20
19
30
0
39
0
210
0
220
0
230
1
50
360
0
POINT
5
146
100
AcDbEntity
8
Defpoints
62
0
6
ByLayer
370
-1
48
1
60
0
100
AcDbPoint
10
25
20
37.061051
30
0
39
0
210
0
220
0
230
1
50
360
0
ENDBLK
5
13D
100
AcDbEntity
8
0
100
AcDbBlockEnd
0
BLOCK
5
14E
100
AcDbEntity
8
0
100
AcDbBlockBegin
2
_U3
70
0
10
0
20
0
30
0
3
_U3
0
MTEXT
5
148
100
AcDbEntity
8
SK2
62
256
6
ByLayer
370
18
48
1
60
0
100
AcDbMText
10
182.646716
20
37.946165
30
0
210
0
220
0
230
1
1
\W0.7513;326.50
40
3
41
0
44
1.084337
50
0
71
7
72
5
7
iso_b_vert
0
LINE
5
149
100
AcDbEntity
8
SK2
62
256
6
ByLayer
370
13
48
1
60
0
100
AcDbLine
10
351.5
20
1.5875
30
0
11
351.5
21
39.061051
31
0
39
0
210
0
220
0
230
1
0
LINE
5
14A
100
AcDbEntity
8
SK2
62
256
6
ByLayer
370
13
48
1
60
0
100
AcDbLine
10
25
20
20.5875
30
0
11
25
21
39.061051
31
0
39
0
210
0
220
0
230
1
0
LINE
5
14B
100
AcDbEntity
8
SK2
62
256
6
ByLayer
370
13
48
1
60
0
100
AcDbLine
10
351.5
20
37.061051
30
0
11
25
21
37.061051
31
0
39
0
210
0
220
0
230
1
0
SOLID
5
14C
100
AcDbEntity
8
SK2
62
256
6
ByLayer
370
18
48
1
60
0
100
AcDbTrace
10
351.5
20
37.061051
30
0
11
348.000002
21
36.600267
31
0
12
347.999998
22
37.521835
32
0
13
347.999998
23
37.521835
33
0
39
0
210
0
220
0
230
1
0
SOLID
5
14D
100
AcDbEntity
8
SK2
62
256
6
ByLayer
370
18
48
1
60
0
100
AcDbTrace
10
25
20
37.061051
30
0
11
28.499998
21
37.521835
31
0
12
28.500002
22
36.600267
32
0
13
28.500002
23
36.600267
33
0
39
0
210
0
220
0
230
1
0
ENDBLK
5
14F
100
AcDbEntity
8
0
100
AcDbBlockEnd
0
ENDSEC
0
SECTION
2
ENTITIES
0
ARC
5
BD
100
AcDbEntity
8
SK2
62
256
6
ByLayer
370
13
48
1
60
0
100
AcDbCircle
39
0
10
351.5
20
0
30
0
40
18.9999999999999
210
0
220
0
230
1
100
AcDbArc
50
290
51
70
0
ELLIPSE
5
BE
100
AcDbEntity
8
SK1
62
256
6
ByLayer
370
18
48
1
60
0
100
AcDbEllipse
10
-28.447374
20
0
30
0
11
21.4473742004989
21
-2.43020130678638E-14
31
0
210
0
220
0
230
1
40
0.932515
41
-0.451026811796204
42
0.451026811796208
0
ELLIPSE
5
BF
100
AcDbEntity
8
SK1
62
256
6
ByLayer
370
18
48
1
60
0
100
AcDbEllipse
10
-44.349698
20
0
30
0
11
-3.67381906146722E-15
21
-20.0000000000005
31
0
210
0
220
0
230
1
40
0.932515
41
-2.02182313859115
42
-1.11976951499865
0
POINT
5
70
100
AcDbEntity
8
80
62
256
6
ByLayer
370
18
48
1
60
0
100
AcDbPoint
10
0
20
0
30
0
39
0
210
0
220
0
230
1
50
360
0
POINT
5
72
100
AcDbEntity
8
81
62
256
6
ByLayer
370
18
48
1
60
0
100
AcDbPoint
10
351.5
20
0
30
0
39
0
210
0
220
0
230
1
50
360
0
POINT
5
74
100
AcDbEntity
8
1
62
256
6
ByLayer
370
18
48
1
60
1
100
AcDbPoint
10
-70
20
-20
30
0
39
0
210
0
220
0
230
1
50
360
0
POINT
5
76
100
AcDbEntity
8
1
62
256
6
ByLayer
370
18
48
1
60
1
100
AcDbPoint
10
351.5
20
0
30
0
39
0
210
0
220
0
230
1
50
360
0
POINT
5
77
100
AcDbEntity
8
1
62
256
6
ByLayer
370
18
48
1
60
1
100
AcDbPoint
10
351.5
20
0
30
0
39
0
210
0
220
0
230
1
50
360
0
POINT
5
78
100
AcDbEntity
8
1
62
256
6
ByLayer
370
18
48
1
60
1
100
AcDbPoint
10
3
20
-19
30
0
39
0
210
0
220
0
230
1
50
360
0
POINT
5
79
100
AcDbEntity
8
1
62
256
6
ByLayer
370
18
48
1
60
1
100
AcDbPoint
10
-70
20
-20
30
0
39
0
210
0
220
0
230
1
50
360
0
POINT
5
7A
100
AcDbEntity
8
1
62
256
6
ByLayer
370
18
48
1
60
1
100
AcDbPoint
10
0
20
-20
30
0
39
0
210
0
220
0
230
1
50
360
0
POINT
5
7B
100
AcDbEntity
8
1
62
256
6
ByLayer
370
18
48
1
60
1
100
AcDbPoint
10
351.5
20
0
30
0
39
0
210
0
220
0
230
1
50
360
0
POINT
5
7C
100
AcDbEntity
8
1
62
256
6
ByLayer
370
18
48
1
60
1
100
AcDbPoint
10
25
20
19
30
0
39
0
210
0
220
0
230
1
50
360
0
SPLINE
5
C0
100
AcDbEntity
8
1
62
256
6
ByLayer
370
18
48
1
60
0
100
AcDbSpline
70
4
71
3
72
26
73
22
40
0
40
0
40
0
40
0
40
0.0625000000000025
40
0.0625000000000025
40
0.125000000000005
40
0.125000000000005
40
0.25000000000001
40
0.25000000000001
40
0.375000000000015
40
0.375000000000015
40
0.437500000000014
40
0.437500000000014
40
0.500000000000012
40
0.500000000000012
40
0.749999999999998
40
0.749999999999998
40
0.812499999999998
40
0.812499999999998
40
0.874999999999999
40
0.874999999999999
40
1
40
1
40
1
40
1
41
1
10
344.584565548935
20
-2.71215354699206
30
0
41
1
10
344.207399955828
20
-2.57618106774959
30
0
41
1
10
343.83037049217
20
-2.43987693043505
30
0
41
1
10
343.076449112355
20
-2.16697921831044
30
0
41
1
10
342.699529651039
20
-2.03046200357593
30
0
41
1
10
341.568826218078
20
-1.62089506730146
30
0
41
1
10
340.815135752912
20
-1.34772302994429
30
0
41
1
10
339.308062761249
20
-0.800888495455467
30
0
41
1
10
338.554678598524
20
-0.527230509729492
30
0
41
1
10
337.424918322479
20
-0.116141227123251
30
0
41
1
10
337.048386904383
20
0.0209962875721317
30
0
41
1
10
336.295427791467
20
0.29546720381839
30
0
41
1
10
335.918988781856
20
0.432769294769798
30
0
41
1
10
334.036508743112
20
1.11826655979931
30
0
41
1
10
332.529840191548
20
1.66405317024925
30
0
41
1
10
330.646138085391
20
2.34437431980504
30
0
41
1
10
330.269380430139
20
2.48034580104144
30
0
41
1
10
329.515842308329
20
2.75213492883833
30
0
41
1
10
329.139076304148
20
2.88799231739901
30
0
41
1
10
328.008574928101
20
3.29486789945247
30
0
41
1
10
327.254494273138
20
3.56479955597831
30
0
41
1
10
326.5
20
3.83341196378436
30
0
0
SPLINE
5
C1
100
AcDbEntity
8
1
62
256
6
ByLayer
370
18
48
1
60
0
100
AcDbSpline
70
4
71
3
72
105
73
101
40
0
40
0
40
0
40
0
40
0.0312499999999904
40
0.0312499999999904
40
0.0624999999999809
40
0.0624999999999809
40
0.0937499999999713
40
0.0937499999999713
40
0.124999999999962
40
0.124999999999962
40
0.140624999999958
40
0.140624999999958
40
0.148437499999956
40
0.148437499999956
40
0.156249999999954
40
0.156249999999954
40
0.187499999999947
40
0.187499999999947
40
0.218749999999941
40
0.218749999999941
40
0.249999999999935
40
0.249999999999935
40
0.281249999999929
40
0.281249999999929
40
0.296874999999925
40
0.296874999999925
40
0.304687499999922
40
0.304687499999922
40
0.31249999999992
40
0.31249999999992
40
0.343749999999909
40
0.343749999999909
40
0.374999999999898
40
0.374999999999898
40
0.406249999999887
40
0.406249999999887
40
0.437499999999876
40
0.437499999999876
40
0.441406249999875
40
0.441406249999875
40
0.445312499999874
40
0.445312499999874
40
0.453124999999872
40
0.46874999999987
40
0.46874999999987
40
0.484374999999868
40
0.484374999999868
40
0.499999999999867
40
0.499999999999867
40
0.515624999999865
40
0.531249999999863
40
0.531249999999863
40
0.535156249999862
40
0.535156249999862
40
0.539062499999861
40
0.539062499999861
40
0.54687499999986
40
0.562499999999858
40
0.562499999999858
40
0.593749999999854
40
0.593749999999854
40
0.62499999999985
40
0.62499999999985
40
0.62890624999985
40
0.62890624999985
40
0.63281249999985
40
0.640624999999851
40
0.640624999999851
40
0.656249999999855
40
0.656249999999855
40
0.687499999999863
40
0.687499999999863
40
0.71874999999987
40
0.71874999999987
40
0.726562499999872
40
0.726562499999872
40
0.734374999999875
40
0.734374999999875
40
0.749999999999879
40
0.749999999999879
40
0.78124999999989
40
0.78124999999989
40
0.812499999999901
40
0.812499999999901
40
0.843749999999911
40
0.843749999999911
40
0.851562499999915
40
0.851562499999915
40
0.859374999999918
40
0.874999999999927
40
0.874999999999927
40
0.906249999999945
40
0.906249999999945
40
0.937499999999963
40
0.968749999999981
40
0.968749999999981
40
0.976562499999985
40
0.976562499999985
40
0.98437499999999
40
1
40
1
40
1
40
1
41
1
10
344.584565548942
20
18.3967091890027
30
0
41
1
10
344.703253455433
20
18.1023636420177
30
0
41
1
10
344.822127519971
20
17.8035981236029
30
0
41
1
10
345.060447486787
20
17.1979460616584
30
0
41
1
10
345.179892937068
20
16.8910600495155
30
0
41
1
10
345.419494564919
20
16.2696848629446
30
0
41
1
10
345.539650976287
20
15.9551932533994
30
0
41
1
10
345.780758070742
20
15.318951801893
30
0
41
1
10
345.90170917101
20
14.9972015653159
30
0
41
1
10
346.083745503471
20
14.5092921352335
30
0
41
1
10
346.144525347252
20
14.3457739897641
30
0
41
1
10
346.235842738215
20
14.0991852655193
30
0
41
1
10
346.266327469913
20
14.0167133085235
30
0
41
1
10
346.327236919876
20
13.8516257876844
30
0
41
1
10
346.357647242621
20
13.7690494958275
30
0
41
1
10
346.509476564909
20
13.3560066066202
30
0
41
1
10
346.630234650156
20
13.025058195501
30
0
41
1
10
346.870240755626
20
12.3621258600412
30
0
41
1
10
346.989490258688
20
12.0301424199861
30
0
41
1
10
347.226208105489
20
11.3650632381434
30
0
41
1
10
347.343679149263
20
11.0319684378593
30
0
41
1
10
347.576335014881
20
10.3644992368882
30
0
41
1
10
347.691524513519
20
10.0301265131878
30
0
41
1
10
347.861959319807
20
9.52738579244371
30
0
41
1
10
347.918376256868
20
9.35960745581835
30
0
41
1
10
348.002294725169
20
9.10760183883278
30
0
41
1
10
348.030162621496
20
9.0235034857634
30
0
41
1
10
348.085577217989
20
8.8553742788074
30
0
41
1
10
348.11310406141
20
8.77140411431799
30
0
41
1
10
348.249779395762
20
8.35200627678091
30
0
41
1
10
348.356084647992
20
8.01794183201048
30
0
41
1
10
348.560680703805
20
7.35216914555102
30
0
41
1
10
348.658984873298
20
7.02046308747987
30
0
41
1
10
348.844590999628
20
6.35871437573581
30
0
41
1
10
348.931909147202
20
6.02867232238194
30
0
41
1
10
349.091063110172
20
5.36934434407254
30
0
41
1
10
349.162906204847
20
5.04005565485681
30
0
41
1
10
349.231425675898
20
4.66941419441224
30
0
41
1
10
349.23886681367
20
4.62822908594492
30
0
41
1
10
349.253390216314
20
4.54585123416683
30
0
41
1
10
349.260476472436
20
4.50463436636335
30
0
41
1
10
349.281142974446
20
4.38115864034495
30
0
41
1
10
349.320084005691
20
4.13506936259557
30
0
41
1
10
349.351429636045
20
3.89160072390817
30
0
41
1
10
349.385791030365
20
3.56939668037836
30
0
41
1
10
349.399252686883
20
3.40950504600426
30
0
41
1
10
349.418185649252
20
3.09226789759444
30
0
41
1
10
349.42365475204
20
2.93492246519219
30
0
41
1
10
349.426248637658
20
2.62293603725252
30
0
41
1
10
349.420496181544
20
2.3136543857311
30
0
41
1
10
349.397856813639
20
2.01015674597127
30
0
41
1
10
349.378531862463
20
1.82241000895252
30
0
41
1
10
349.374408682458
20
1.78495766774191
30
0
41
1
10
349.365650744925
20
1.71025046603427
30
0
41
1
10
349.361011741338
20
1.67296413797638
30
0
41
1
10
349.346370254766
20
1.56166378679066
30
0
41
1
10
349.314212933782
20
1.34142885473878
30
0
41
1
10
349.273930436661
20
1.12820416802589
30
0
41
1
10
349.18388335214
20
0.710875845380116
30
0
41
1
10
349.111261103324
20
0.4448014724085
30
0
41
1
10
348.947380012066
20
-0.0640060843462322
30
0
41
1
10
348.856134995866
20
-0.30674618720019
30
0
41
1
10
348.745727827282
20
-0.566899065222884
30
0
41
1
10
348.733351455473
20
-0.595624908706412
30
0
41
1
10
348.70838831625
20
-0.652716407457689
30
0
41
1
10
348.670605053386
20
-0.73786221235369
30
0
41
1
10
348.632110916162
20
-0.820941357698018
30
0
41
1
10
348.554269303987
20
-0.984396094853167
30
0
41
1
10
348.501240530966
20
-1.08976345062913
30
0
41
1
10
348.339367531031
20
-1.39538182118056
30
0
41
1
10
348.227773457891
20
-1.5851782776931
30
0
41
1
10
347.999392154441
20
-1.93780432992509
30
0
41
1
10
347.882589501382
20
-2.10062887761961
30
0
41
1
10
347.734042873391
20
-2.2873311799313
30
0
41
1
10
347.704204493573
20
-2.32382824607035
30
0
41
1
10
347.644280717228
20
-2.39512859731082
30
0
41
1
10
347.614176568445
20
-2.42995093339715
30
0
41
1
10
347.523898280701
20
-2.53143420510543
30
0
41
1
10
347.463640781336
20
-2.59525929368655
30
0
41
1
10
347.282746613098
20
-2.77550108167145
30
0
41
1
10
347.161997252149
20
-2.88070747390711
30
0
41
1
10
346.920411346157
20
-3.06196510821178
30
0
41
1
10
346.799571038258
20
-3.138013353346
30
0
41
1
10
346.557765899379
20
-3.26099070841568
30
0
41
1
10
346.436799348997
20
-3.30791985731389
30
0
41
1
10
346.285386836041
20
-3.34798982380283
30
0
41
1
10
346.255077133746
20
-3.35507380053451
30
0
41
1
10
346.194707247032
20
-3.36731558144354
30
0
41
1
10
346.10442888042
20
-3.38281774618358
30
0
41
1
10
346.014950350993
20
-3.38983360879493
30
0
41
1
10
345.83698137404
20
-3.39274189154187
30
0
41
1
10
345.71965255948
20
-3.3798683804207
30
0
41
1
10
345.487217127331
20
-3.32503047608259
30
0
41
1
10
345.25700386665
20
-3.24109840116648
30
0
41
1
10
345.030424733457
20
-3.09886309953885
30
0
41
1
10
344.889693538559
20
-2.99134216713148
30
0
41
1
10
344.861615824148
20
-2.96892288183358
30
0
41
1
10
344.805689312015
20
-2.92233687580344
30
0
41
1
10
344.722098078096
20
-2.84980222181244
30
0
41
1
10
344.639367071715
20
-2.76932653903938
30
0
41
1
10
344.584565548942
20
-2.71215354699456
30
0
0
SPLINE
5
C2
100
AcDbEntity
8
1
62
256
6
ByLayer
370
18
48
1
60
0
100
AcDbSpline
70
4
71
3
72
22
73
18
40
0
40
0
40
0
40
0
40
0.143157029704744
40
0.143157029704744
40
0.314525623763798
40
0.314525623763798
40
0.400209920793324
40
0.400209920793324
40
0.485894217822851
40
0.485894217822851
40
0.657262811881904
40
0.657262811881904
40
0.828631405940958
40
0.828631405940958
40
0.914315702970479
40
0.914315702970479
40
1
40
1
40
1
40
1
41
1
10
331.394927358931
20
18.9976262639879
30
0
41
1
10
332.024253350071
20
18.9977390313878
30
0
41
1
10
332.653592939918
20
18.9937075740956
30
0
41
1
10
334.036189303935
20
18.9757963737229
30
0
41
1
10
334.789441293043
20
18.9601330802273
30
0
41
1
10
335.919115006226
20
18.9277358140611
30
0
41
1
10
336.295638790298
20
18.915451888027
30
0
41
1
10
337.04859354565
20
18.88789176707
30
0
41
1
10
337.425010040724
20
18.8726087863608
30
0
41
1
10
338.554454402037
20
18.8223592745439
30
0
41
1
10
339.307770372
20
18.783041591844
30
0
41
1
10
340.814818707264
20
18.6927560831818
30
0
41
1
10
341.568571049674
20
18.6417946966484
30
0
41
1
10
342.699428951866
20
18.5565437160639
30
0
41
1
10
343.076419474894
20
18.5266573208154
30
0
41
1
10
343.830454153248
20
18.4639164936727
30
0
41
1
10
344.207485564003
20
18.431052987213
30
0
41
1
10
344.584565548935
20
18.3967091890033
30
0
0
SPLINE
5
C3
100
AcDbEntity
8
1
62
256
6
ByLayer
370
18
48
1
60
0
100
AcDbSpline
70
4
71
3
72
175
73
171
40
0
40
0
40
0
40
0
40
0.0325160954506997
40
0.0325160954506997
40
0.0406451193133746
40
0.0406451193133746
40
0.0487741431760495
40
0.0487741431760495
40
0.0569031670387244
40
0.0569031670387244
40
0.0650321909013992
40
0.0650321909013992
40
0.0975482863520993
40
0.0975482863520993
40
0.105677310214774
40
0.105677310214774
40
0.113806334077449
40
0.113806334077449
40
0.130064381802799
40
0.130064381802799
40
0.146322429528148
40
0.146322429528148
40
0.154451453390823
40
0.154451453390823
40
0.162580477253498
40
0.162580477253498
40
0.170709501116173
40
0.170709501116173
40
0.178838524978847
40
0.178838524978847
40
0.195096572704197
40
0.195096572704197
40
0.203225596566872
40
0.203225596566872
40
0.211354620429547
40
0.211354620429547
40
0.227612668154897
40
0.227612668154897
40
0.243870715880247
40
0.243870715880247
40
0.251999739742922
40
0.251999739742922
40
0.260128763605597
40
0.260128763605597
40
0.292644859056296
40
0.292644859056296
40
0.300773882918971
40
0.300773882918971
40
0.308902906781646
40
0.308902906781646
40
0.325160954506995
40
0.325160954506995
40
0.333289978369669
40
0.333289978369669
40
0.341419002232344
40
0.341419002232344
40
0.349548026095019
40
0.349548026095019
40
0.357677049957694
40
0.357677049957694
40
0.373935097683043
40
0.373935097683043
40
0.390193145408392
40
0.390193145408392
40
0.398322169271067
40
0.398322169271067
40
0.406451193133741
40
0.406451193133741
40
0.42270924085909
40
0.42270924085909
40
0.438967288584438
40
0.438967288584438
40
0.447096312447112
40
0.447096312447112
40
0.455225336309786
40
0.455225336309786
40
0.471483384035135
40
0.471483384035135
40
0.487741431760483
40
0.487741431760483
40
0.495870455623157
40
0.495870455623157
40
0.503999479485832
40
0.503999479485832
40
0.520257527211181
40
0.520257527211181
40
0.53651557493653
40
0.53651557493653
40
0.544644598799204
40
0.544644598799204
40
0.552773622661879
40
0.552773622661879
40
0.585289718112578
40
0.585289718112578
40
0.593418741975253
40
0.593418741975253
40
0.601547765837928
40
0.601547765837928
40
0.609676789700603
40
0.609676789700603
40
0.617805813563277
40
0.617805813563277
40
0.634063861288628
40
0.634063861288628
40
0.642192885151302
40
0.642192885151302
40
0.650321909013977
40
0.650321909013977
40
0.654386420945315
40
0.654386420945315
40
0.658450932876652
40
0.658450932876652
40
0.666579956739326
40
0.666579956739326
40
0.682838004464674
40
0.682838004464674
40
0.699096052190023
40
0.699096052190023
40
0.707225076052697
40
0.707225076052697
40
0.715354099915371
40
0.715354099915371
40
0.731612147640719
40
0.731612147640719
40
0.747870195366067
40
0.747870195366067
40
0.755999219228741
40
0.755999219228741
40
0.764128243091415
40
0.780386290816763
40
0.780386290816763
40
0.796644338542111
40
0.796644338542111
40
0.804773362404785
40
0.804773362404785
40
0.812902386267459
40
0.812902386267459
40
0.821031410130133
40
0.821031410130133
40
0.829160433992807
40
0.829160433992807
40
0.845418481718155
40
0.845418481718155
40
0.853547505580828
40
0.853547505580828
40
0.861676529443502
40
0.861676529443502
40
0.877934577168849
40
0.877934577168849
40
0.894192624894196
40
0.894192624894196
40
0.90232164875687
40
0.90232164875687
40
0.910450672619543
40
0.910450672619543
40
0.942966768070238
40
0.942966768070238
40
0.951095791932911
40
0.951095791932911
40
0.959224815795585
40
0.959224815795585
40
0.975482863520932
40
0.975482863520932
40
0.983611887383606
40
0.983611887383606
40
0.99174091124628
40
0.99174091124628
40
0.999869935108953
40
0.999869935108953
40
1
40
1
40
1
40
1
41
1
10
21.9018381777668
20
17.1238416520377
30
0
41
1
10
23.4905894821572
20
16.9401085421947
30
0
41
1
10
25.0786676302102
20
16.7338315863146
30
0
41
1
10
27.0620107469941
20
16.4472776994438
30
0
41
1
10
27.4585920655615
20
16.3885260674342
30
0
41
1
10
28.251553844284
20
16.2680998305317
30
0
41
1
10
28.6479205822702
20
16.2064068820543
30
0
41
1
10
29.4404888122557
20
16.0801294201814
30
0
41
1
10
29.836713449779
20
16.0155742753721
30
0
41
1
10
30.6292635824063
20
15.8839435501559
30
0
41
1
10
31.0255635522784
20
15.8168350949051
30
0
41
1
10
33.0070532072765
20
15.4746729327155
30
0
41
1
10
34.5922930010216
20
15.179961426738
30
0
41
1
10
36.5730211679868
20
14.7837345581697
30
0
41
1
10
36.9691435418114
20
14.7031185094614
30
0
41
1
10
37.7616251097265
20
14.5396312615886
30
0
41
1
10
38.15796235401
20
14.4567253945585
30
0
41
1
10
39.3471823844859
20
14.2043997930575
30
0
41
1
10
40.1402817156873
20
14.0313896384047
30
0
41
1
10
41.7268996015508
20
13.6755075873609
30
0
41
1
10
42.5204161739152
20
13.4926330206368
30
0
41
1
10
43.7108533211712
20
13.2105367339423
30
0
41
1
10
44.1076855880225
20
13.115188489264
30
0
41
1
10
44.9016857372169
20
12.9224582889695
30
0
41
1
10
45.298854070879
20
12.8250806620634
30
0
41
1
10
46.093471483678
20
12.6281971744701
30
0
41
1
10
46.4908418504158
20
12.5287088847107
30
0
41
1
10
47.2852814023114
20
12.3277099402129
30
0
41
1
10
47.6824109915145
20
12.2261853893677
30
0
41
1
10
48.8734996837689
20
11.918476126948
30
0
41
1
10
49.6671584689509
20
11.7091584444596
30
0
41
1
10
50.856892564582
20
11.3885420245548
30
0
41
1
10
51.2533242481376
20
11.280513937773
30
0
41
1
10
52.0461521956946
20
11.0627318882101
30
0
41
1
10
52.4425781351422
20
10.9530479934326
30
0
41
1
10
53.6318391950867
20
10.6215148174429
30
0
41
1
10
54.4246336495622
20
10.3971303314938
30
0
41
1
10
56.0099777901412
20
9.94130699092094
30
0
41
1
10
56.8025271978987
20
9.70986798159572
30
0
41
1
10
57.9910172865305
20
9.35701855940081
30
0
41
1
10
58.387102181151
20
9.23839521605106
30
0
41
1
10
59.1793031926652
20
8.99959675549661
30
0
41
1
10
59.5754643711505
20
8.87953561045774
30
0
41
1
10
61.5566528660388
20
8.27614799664923
30
0
41
1
10
63.1425584172832
20
7.78295062967706
30
0
41
1
10
65.1252506810666
20
7.15097108830781
30
0
41
1
10
65.5217857552606
20
7.02374610117158
30
0
41
1
10
66.3149612736058
20
6.7679296581199
30
0
41
1
10
66.7116461264491
20
6.63945873976891
30
0
41
1
10
67.9021776225885
20
6.25287778048212
30
0
41
1
10
68.6963870018932
20
5.99329182363283
30
0
41
1
10
69.8883369644093
20
5.60072056894035
30
0
41
1
10
70.2857798858548
20
5.46933089389955
30
0
41
1
10
71.080270772667
20
5.20562381034156
30
0
41
1
10
71.4773915101113
20
5.07328327178547
30
0
41
1
10
72.2713585071561
20
4.80755624315387
30
0
41
1
10
72.6681938418323
20
4.67413860314304
30
0
41
1
10
73.4616137690104
20
4.40632358955443
30
0
41
1
10
73.8582318391862
20
4.27202150013656
30
0
41
1
10
75.0481279614375
20
3.86884014107034
30
0
41
1
10
75.8413138655901
20
3.59930426317487
30
0
41
1
10
77.4273073993688
20
3.05810975557031
30
0
41
1
10
78.2201290148396
20
2.78649116010013
30
0
41
1
10
79.4089552098732
20
2.37711638513889
30
0
41
1
10
79.805159098074
20
2.24032256118579
30
0
41
1
10
80.5974174610242
20
1.96604375938793
30
0
41
1
10
80.9934890126387
20
1.82860777021688
30
0
41
1
10
82.1819491413904
20
1.41661890197008
30
0
41
1
10
82.9744708311003
20
1.14206216038312
30
0
41
1
10
84.55968107916
20
0.592400373849358
30
0
41
1
10
85.3523886215279
20
0.317350250386767
30
0
41
1
10
86.5414642717759
20
-0.0959618891511695
30
0
41
1
10
86.9378249986156
20
-0.233856157232708
30
0
41
1
10
87.7305236144882
20
-0.509972832109355
30
0
41
1
10
88.1268563858921
20
-0.648210467083345
30
0
41
1
10
89.3162530991455
20
-1.06215348764033
30
0
41
1
10
90.1096906310732
20
-1.33715962621912
30
0
41
1
10
91.6972765112337
20
-1.88613691104078
30
0
41
1
10
92.4914476251309
20
-2.16004148887538
30
0
41
1
10
93.6831388232685
20
-2.57041668631388
30
0
41
1
10
94.0805089799782
20
-2.70715128653046
30
0
41
1
10
94.8748463080363
20
-2.98035907463429
30
0
41
1
10
95.2718322186315
20
-3.11690140736499
30
0
41
1
10
96.4626303829927
20
-3.52520626545663
30
0
41
1
10
97.2563912911391
20
-3.79533952529931
30
0
41
1
10
98.8434135954741
20
-4.33236437102528
30
0
41
1
10
99.6366941838649
20
-4.59920000523664
30
0
41
1
10
100.826136648968
20
-4.99731486561058
30
0
41
1
10
101.222537603925
20
-5.12966327607796
30
0
41
1
10
102.015152223683
20
-5.39371888602901
30
0
41
1
10
102.411343436996
20
-5.52548773223839
30
0
41
1
10
104.392206332177
20
-6.18167494015975
30
0
41
1
10
105.977463835892
20
-6.69578739961617
30
0
41
1
10
107.958818796139
20
-7.32751267867337
30
0
41
1
10
108.355079371887
20
-7.45330830531955
30
0
41
1
10
109.147553677604
20
-7.70386390183418
30
0
41
1
10
109.543749080158
20
-7.82867166727428
30
0
41
1
10
110.33617474712
20
-8.07702917113235
30
0
41
1
10
110.732450243026
20
-8.20046061161639
30
0
41
1
10
111.525243449489
20
-8.44553114865928
30
0
41
1
10
111.921736394331
20
-8.56723504398707
30
0
41
1
10
113.111447281133
20
-8.9300055743758
30
0
41
1
10
113.90490942004
20
-9.16870153445547
30
0
41
1
10
115.095462359716
20
-9.52232360558384
30
0
41
1
10
115.49237272414
20
-9.6394616219836
30
0
41
1
10
116.286288317976
20
-9.872319015801
30
0
41
1
10
116.683282295938
20
-9.98806611173984
30
0
41
1
10
117.278865634005
20
-10.1605630423366
30
0
41
1
10
117.477413274394
20
-10.2178636734
30
0
41
1
10
117.87458836989
20
-10.3319696620677
30
0
41
1
10
118.073233709283
20
-10.3887701765115
30
0
41
1
10
118.669092966593
20
-10.5583448499666
30
0
41
1
10
119.06627889839
20
-10.6703219157378
30
0
41
1
10
120.257609387513
20
-11.0032185562273
30
0
41
1
10
121.05153966709
20
-11.2210755085515
30
0
41
1
10
122.6386641333
20
-11.6490388800412
30
0
41
1
10
123.431848226155
20
-11.859168263085
30
0
41
1
10
124.620936936962
20
-12.1687934081183
30
0
41
1
10
125.017207726268
20
-12.2710212785223
30
0
41
1
10
125.809838968752
20
-12.4729344141573
30
0
41
1
10
126.206175151869
20
-12.5726741047599
30
0
41
1
10
127.39516684143
20
-12.8684296474428
30
0
41
1
10
128.18781514919
20
-13.060964449346
30
0
41
1
10
129.772932452573
20
-13.4370986184493
30
0
41
1
10
130.565399505262
20
-13.6207027207293
30
0
41
1
10
131.75380750257
20
-13.8896479945365
30
0
41
1
10
132.149891325215
20
-13.9782222720789
30
0
41
1
10
132.94225467514
20
-14.1526649065507
30
0
41
1
10
134.131080823585
20
-14.4103003536838
30
0
41
1
10
135.320498746048
20
-14.656377235113
30
0
41
1
10
136.906765632212
20
-14.9744789945371
30
0
41
1
10
137.700085231589
20
-15.1285338290395
30
0
41
1
10
138.890195870091
20
-15.3522897073723
30
0
41
1
10
139.286901936361
20
-15.4256811213004
30
0
41
1
10
140.080582736558
20
-15.5696564220242
30
0
41
1
10
140.477583866957
20
-15.6402023207789
30
0
41
1
10
141.27186595972
20
-15.7784869873921
30
0
41
1
10
141.669166157765
20
-15.8462360416122
30
0
41
1
10
142.463917302843
20
-15.9789579442501
30
0
41
1
10
142.861197040338
20
-16.0439012982704
30
0
41
1
10
144.052721501498
20
-16.2345265649333
30
0
41
1
10
144.846650670678
20
-16.3560107089686
30
0
41
1
10
146.036763061455
20
-16.5299886918865
30
0
41
1
10
146.433313917079
20
-16.586631239427
30
0
41
1
10
147.226309058205
20
-16.6969669039
30
0
41
1
10
147.622796683341
20
-16.7506113451013
30
0
41
1
10
148.812256244156
20
-16.9069809039583
30
0
41
1
10
149.605165045236
20
-17.0052149694301
30
0
41
1
10
151.190689892141
20
-17.1899008530384
30
0
41
1
10
151.98330863546
20
-17.2763506629686
30
0
41
1
10
153.171872932624
20
-17.3972676335238
30
0
41
1
10
153.567981093022
20
-17.4361270874825
30
0
41
1
10
154.360162706482
20
-17.5108352725991
30
0
41
1
10
154.756282038079
20
-17.5466481729787
30
0
41
1
10
156.737291783543
20
-17.7178506767139
30
0
41
1
10
158.322982486221
20
-17.8300973931245
30
0
41
1
10
160.30530024876
20
-17.9399880331012
30
0
41
1
10
160.701761553852
20
-17.9604436914489
30
0
41
1
10
161.494734540167
20
-17.9982645722
30
0
41
1
10
161.891281503694
20
-18.0156140489993
30
0
41
1
10
163.081405422379
20
-18.0628867361192
30
0
41
1
10
163.875330809218
20
-18.0880953337753
30
0
41
1
10
165.066815947369
20
-18.1165306591786
30
0
41
1
10
165.464080535473
20
-18.1244439348161
30
0
41
1
10
166.258792543337
20
-18.1371365426953
30
0
41
1
10
166.656122255906
20
-18.1419136053994
30
0
41
1
10
167.450404992299
20
-18.1483198934468
30
0
41
1
10
167.847399554204
20
-18.149949934589
30
0
41
1
10
168.25059685558
20
-18.1499996473977
30
0
41
1
10
168.256946411361
20
-18.1500000247401
30
0
41
1
10
168.263295935204
20
-18.1499999965902
30
0
0
SPLINE
5
C4
100
AcDbEntity
8
1
62
256
6
ByLayer
370
18
48
1
60
0
100
AcDbSpline
70
4
71
3
72
46
73
42
40
0
40
0
40
0
40
0
40
0.0337818578552141
40
0.0337818578552141
40
0.069567714971687
40
0.069567714971687
40
0.141139429204636
40
0.141139429204636
40
0.212711143437585
40
0.212711143437585
40
0.248497000554058
40
0.248497000554058
40
0.284282857670532
40
0.284282857670532
40
0.355854571903481
40
0.355854571903481
40
0.391640429019954
40
0.391640429019954
40
0.427426286136427
40
0.427426286136427
40
0.463212143252901
40
0.463212143252901
40
0.498998000369375
40
0.498998000369375
40
0.570569714602324
40
0.570569714602324
40
0.642141428835272
40
0.642141428835272
40
0.677927285951744
40
0.677927285951744
40
0.713713143068216
40
0.713713143068216
40
0.785284857301164
40
0.785284857301164
40
0.856856571534112
40
0.856856571534112
40
0.892642428650584
40
0.892642428650584
40
0.928428285767055
40
0.928428285767055
40
1
40
1
40
1
40
1
41
1
10
293.23720372437
20
13.3107431022001
30
0
41
1
10
293.611497490468
20
13.3994567257212
30
0
41
1
10
293.985774958326
20
13.4871164931829
30
0
41
1
10
294.756653833015
20
13.6651767574704
30
0
41
1
10
295.15323344576
20
13.7554889553728
30
0
41
1
10
296.343018115105
20
14.0227191507771
30
0
41
1
10
297.136282159022
20
14.1959092692007
30
0
41
1
10
298.722796161012
20
14.5326639387899
30
0
41
1
10
299.516030639531
20
14.6962552900432
30
0
41
1
10
300.705756824741
20
14.9345396156687
30
0
41
1
10
301.102342494908
20
15.012728691323
30
0
41
1
10
301.895790475999
20
15.1662156476336
30
0
41
1
10
302.292625134097
20
15.2415608727809
30
0
41
1
10
303.483383959561
20
15.4635411378616
30
0
41
1
10
304.277574166645
20
15.6061060850314
30
0
41
1
10
305.469269473673
20
15.8119927179553
30
0
41
1
10
305.866599991727
20
15.8793004239474
30
0
41
1
10
306.661236795344
20
16.011261470388
30
0
41
1
10
307.058422796695
20
16.075896775475
30
0
41
1
10
307.85250661078
20
16.2024935377205
30
0
41
1
10
308.249410283903
20
16.2644436858522
30
0
41
1
10
309.043236974417
20
16.3852682282981
30
0
41
1
10
309.44014604246
20
16.4441642323971
30
0
41
1
10
310.630779044383
20
16.6164370577822
30
0
41
1
10
311.424413617498
20
16.725396019512
30
0
41
1
10
313.011290967936
20
16.9317543700344
30
0
41
1
10
313.804531774642
20
17.0291570323519
30
0
41
1
10
314.993940519259
20
17.1666826967604
30
0
41
1
10
315.390319714801
20
17.2111045689511
30
0
41
1
10
316.183184675847
20
17.2968385826597
30
0
41
1
10
316.579685531202
20
17.3381407540667
30
0
41
1
10
317.769312944458
20
17.4574531333767
30
0
41
1
10
318.562556130273
20
17.5308792974564
30
0
41
1
10
320.149208175746
20
17.6656504727241
30
0
41
1
10
320.942615555685
20
17.7269976609144
30
0
41
1
10
322.132699126094
20
17.8099754442027
30
0
41
1
10
322.529366376034
20
17.8361366616221
30
0
41
1
10
323.32287603155
20
17.8853240160629
30
0
41
1
10
323.719756857201
20
17.9083327798076
30
0
41
1
10
324.910760118649
20
17.9726405683
30
0
41
1
10
325.705200791965
20
18.0092457540678
30
0
41
1
10
326.5
20
18.0396256079954
30
0
0
SPLINE
5
C5
100
AcDbEntity
8
1
62
256
6
ByLayer
370
18
48
1
60
0
100
AcDbSpline
70
4
71
3
72
108
73
104
40
0
40
0
40
0
40
0
40
0.0338203462692806
40
0.0338203462692806
40
0.050730519403922
40
0.050730519403922
40
0.0676406925385633
40
0.0676406925385633
40
0.0845508656732047
40
0.0845508656732047
40
0.101461038807846
40
0.101461038807846
40
0.135281385077127
40
0.135281385077127
40
0.152191558211767
40
0.152191558211767
40
0.169101731346407
40
0.169101731346407
40
0.186011904481048
40
0.186011904481048
40
0.202922077615688
40
0.202922077615688
40
0.236742423884967
40
0.236742423884967
40
0.253652597019605
40
0.253652597019605
40
0.270562770154243
40
0.270562770154243
40
0.287472943288881
40
0.287472943288881
40
0.30438311642352
40
0.30438311642352
40
0.321293289558158
40
0.321293289558158
40
0.338203462692796
40
0.338203462692796
40
0.355113635827434
40
0.355113635827434
40
0.372023808962073
40
0.372023808962073
40
0.388933982096711
40
0.388933982096711
40
0.405844155231349
40
0.405844155231349
40
0.439664501500628
40
0.439664501500628
40
0.456574674635266
40
0.456574674635266
40
0.473484847769905
40
0.473484847769905
40
0.490395020904543
40
0.490395020904543
40
0.507305194039181
40
0.507305194039181
40
0.54112554030846
40
0.54112554030846
40
0.5580357134431
40
0.5580357134431
40
0.57494588657774
40
0.57494588657774
40
0.591856059712381
40
0.591856059712381
40
0.608766232847021
40
0.608766232847021
40
0.642586579116302
40
0.642586579116302
40
0.659496752250942
40
0.659496752250942
40
0.676406925385583
40
0.676406925385583
40
0.693317098520223
40
0.693317098520223
40
0.710227271654863
40
0.710227271654863
40
0.744047617924146
40
0.744047617924146
40
0.760957791058787
40
0.760957791058787
40
0.777867964193429
40
0.777867964193429
40
0.79477813732807
40
0.79477813732807
40
0.811688310462712
40
0.811688310462712
40
0.845508656731994
40
0.845508656731994
40
0.862418829866635
40
0.862418829866635
40
0.879329003001275
40
0.879329003001275
40
0.896239176135916
40
0.896239176135916
40
0.913149349270556
40
0.913149349270556
40
0.946969695539839
40
0.946969695539839
40
0.963879868674482
40
0.963879868674482
40
0.980790041809124
40
0.980790041809124
40
0.997700214943767
40
0.997700214943767
40
1
40
1
40
1
40
1
41
1
10
326.5
20
3.36859639952974
30
0
41
1
10
325.683809781831
20
3.64720331042295
30
0
41
1
10
324.868018443029
20
3.92421897883421
30
0
41
1
10
323.645006032554
20
4.33758838564569
30
0
41
1
10
323.237448768947
20
4.4750218797318
30
0
41
1
10
322.422574160055
20
4.74920967060484
30
0
41
1
10
322.015271073732
20
4.88600390530431
30
0
41
1
10
321.200818660168
20
5.15866509857034
30
0
41
1
10
320.793635689225
20
5.29443760076254
30
0
41
1
10
319.979291796367
20
5.56469336342388
30
0
41
1
10
319.572142737874
20
5.69921003906418
30
0
41
1
10
318.350782573762
20
6.10098524095253
30
0
41
1
10
317.536654735796
20
6.3664604466355
30
0
41
1
10
316.315710206286
20
6.76132913191839
30
0
41
1
10
315.908770968694
20
6.89239710252045
30
0
41
1
10
315.094989782274
20
7.15345290364201
30
0
41
1
10
314.68816199936
20
7.28347806927331
30
0
41
1
10
313.874518391555
20
7.54221533680041
30
0
41
1
10
313.467668810765
20
7.67083823929343
30
0
41
1
10
312.653847699098
20
7.92642346017476
30
0
41
1
10
312.246888375696
20
8.05341814141451
30
0
41
1
10
311.025883283916
20
8.43206418141241
30
0
41
1
10
310.211706800325
20
8.68137004336762
30
0
41
1
10
308.990260873822
20
9.05083745599188
30
0
41
1
10
308.583083050831
20
9.17324682681107
30
0
41
1
10
307.768681248866
20
9.416597498214
30
0
41
1
10
307.361471203577
20
9.53757320776231
30
0
41
1
10
306.54692100848
20
9.77783969111343
30
0
41
1
10
306.139547259038
20
9.89704724135098
30
0
41
1
10
305.32453477826
20
10.1334483706135
30
0
41
1
10
304.916908442649
20
10.2506727569092
30
0
41
1
10
304.101428480694
20
10.4832031761726
30
0
41
1
10
303.693574463618
20
10.5985082533693
30
0
41
1
10
302.877649105333
20
10.8272234099633
30
0
41
1
10
302.469499932272
20
10.9406549586838
30
0
41
1
10
301.653474688618
20
11.1655227334597
30
0
41
1
10
301.245594961337
20
11.2769618455851
30
0
41
1
10
300.43011418476
20
11.4978751428888
30
0
41
1
10
300.022527143477
20
11.6073804900837
30
0
41
1
10
299.207548451816
20
11.8242289039436
30
0
41
1
10
298.800123283723
20
11.9314969486919
30
0
41
1
10
297.985334024896
20
12.1435858828324
30
0
41
1
10
297.577982080729
20
12.2484341608405
30
0
41
1
10
296.356072417214
20
12.5594460116068
30
0
41
1
10
295.541657056604
20
12.7620719279255
30
0
41
1
10
294.320398835282
20
13.0591115311553
30
0
41
1
10
293.913374643348
20
13.1569761806669
30
0
41
1
10
293.099462884938
20
13.350426296094
30
0
41
1
10
292.692589369477
20
13.4460385781398
30
0
41
1
10
291.878895318356
20
13.6348098486874
30
0
41
1
10
291.472040986779
20
13.7279038719792
30
0
41
1
10
290.658248855832
20
13.9113891762363
30
0
41
1
10
290.251323532413
20
14.0018046352514
30
0
41
1
10
289.030478944875
20
14.2691171063099
30
0
41
1
10
288.216487396652
20
14.4420769639195
30
0
41
1
10
286.995436028483
20
14.693778399691
30
0
41
1
10
286.588409262475
20
14.7763900661411
30
0
41
1
10
285.77434892815
20
14.9390463998655
30
0
41
1
10
285.367329155195
20
15.0191130690735
30
0
41
1
10
284.553200951329
20
15.176531678634
30
0
41
1
10
284.146058889362
20
15.25382948305
30
0
41
1
10
283.331548138344
20
15.4054985655071
30
0
41
1
10
282.924192187895
20
15.4798905398957
30
0
41
1
10
281.701842109664
20
15.6987770513906
30
0
41
1
10
280.886562269525
20
15.8389804297265
30
0
41
1
10
279.663149276952
20
16.0407937475903
30
0
41
1
10
279.255263716755
20
16.1066500478471
30
0
41
1
10
278.439341709901
20
16.2355353517969
30
0
41
1
10
278.031327606102
20
16.2985795185866
30
0
41
1
10
277.215692514271
20
16.421624487676
30
0
41
1
10
276.807960198368
20
16.4815952506312
30
0
41
1
10
275.9925953051
20
16.598364621492
30
0
41
1
10
275.584975224298
20
16.6551793735746
30
0
41
1
10
274.362319959187
20
16.820957310664
30
0
41
1
10
273.547485873204
20
16.9252541724137
30
0
41
1
10
272.325716341442
20
17.072469690662
30
0
41
1
10
271.918541183709
20
17.120003226804
30
0
41
1
10
271.104366555521
20
17.2119973105959
30
0
41
1
10
270.697380959991
20
17.2564696375507
30
0
41
1
10
269.883503924722
20
17.34225476904
30
0
41
1
10
269.476578775305
20
17.3835383348036
30
0
41
1
10
268.662684032827
20
17.4628429973864
30
0
41
1
10
268.255727147782
20
17.5008753591317
30
0
41
1
10
267.034846988508
20
17.6101441923878
30
0
41
1
10
266.220910474948
20
17.676553985669
30
0
41
1
10
265.000059709835
20
17.7665668719063
30
0
41
1
10
264.593119499204
20
17.7949704177845
30
0
41
1
10
263.779271857915
20
17.8485710109613
30
0
41
1
10
263.372378121633
20
17.8737742621313
30
0
41
1
10
262.558543227702
20
17.9209172972638
30
0
41
1
10
262.151568364481
20
17.9428411523905
30
0
41
1
10
261.337430185156
20
17.9833727527694
30
0
41
1
10
260.930279938474
20
18.0019869093552
30
0
41
1
10
259.708605356564
20
18.0528938972844
30
0
41
1
10
258.893853609092
20
18.0802544131021
30
0
41
1
10
257.671350168466
20
18.1114295194657
30
0
41
1
10
257.263787373991
20
18.1201760487436
30
0
41
1
10
256.448550456339
20
18.1343648998655
30
0
41
1
10
256.040889776054
20
18.1398078586481
30
0
41
1
10
255.225377707108
20
18.1473611700948
30
0
41
1
10
254.81748080131
20
18.1494692693843
30
0
41
1
10
254.353950796124
20
18.1499719534683
30
0
41
1
10
254.29845925593
20
18.1500013455188
30
0
41
1
10
254.242969251135
20
18.1499999689364
30
0
0
SPLINE
5
C6
100
AcDbEntity
8
1
62
256
6
ByLayer
370
18
48
1
60
0
100
AcDbSpline
70
4
71
3
72
164
73
160
40
0
40
0
40
0
40
0
40
0.0060903386575603
40
0.0060903386575603
40
0.027237352728676
40
0.027237352728676
40
0.037810859764234
40
0.037810859764234
40
0.048384366799792
40
0.048384366799792
40
0.0589578738353497
40
0.0589578738353497
40
0.0695313808709077
40
0.0695313808709077
40
0.0906783949420234
40
0.0906783949420234
40
0.101251901977581
40
0.101251901977581
40
0.111825409013139
40
0.111825409013139
40
0.122398916048697
40
0.122398916048697
40
0.132972423084255
40
0.132972423084255
40
0.15411943715537
40
0.15411943715537
40
0.164692944190928
40
0.164692944190928
40
0.175266451226486
40
0.175266451226486
40
0.185839958262044
40
0.185839958262044
40
0.196413465297602
40
0.196413465297602
40
0.217560479368717
40
0.217560479368717
40
0.228133986404275
40
0.228133986404275
40
0.238707493439832
40
0.238707493439832
40
0.24928100047539
40
0.24928100047539
40
0.259854507510948
40
0.259854507510948
40
0.281001521582062
40
0.281001521582062
40
0.291575028617619
40
0.291575028617619
40
0.302148535653177
40
0.302148535653177
40
0.312722042688734
40
0.312722042688734
40
0.323295549724291
40
0.323295549724291
40
0.344442563795406
40
0.344442563795406
40
0.355016070830963
40
0.355016070830963
40
0.365589577866521
40
0.365589577866521
40
0.376163084902078
40
0.376163084902078
40
0.386736591937635
40
0.386736591937635
40
0.40788360600875
40
0.40788360600875
40
0.418457113044307
40
0.418457113044307
40
0.429030620079864
40
0.429030620079864
40
0.439604127115421
40
0.439604127115421
40
0.450177634150978
40
0.450177634150978
40
0.471324648222092
40
0.471324648222092
40
0.48189815525765
40
0.48189815525765
40
0.492471662293207
40
0.492471662293207
40
0.503045169328765
40
0.503045169328765
40
0.513618676364323
40
0.513618676364323
40
0.534765690435438
40
0.534765690435438
40
0.545339197470996
40
0.545339197470996
40
0.555912704506554
40
0.555912704506554
40
0.566486211542111
40
0.566486211542111
40
0.577059718577669
40
0.577059718577669
40
0.587633225613228
40
0.587633225613228
40
0.598206732648785
40
0.598206732648785
40
0.608780239684343
40
0.608780239684343
40
0.619353746719901
40
0.619353746719901
40
0.629927253755459
40
0.629927253755459
40
0.640500760791017
40
0.640500760791017
40
0.661647774862133
40
0.661647774862133
40
0.672221281897692
40
0.672221281897692
40
0.68279478893325
40
0.68279478893325
40
0.693368295968808
40
0.693368295968808
40
0.703941803004366
40
0.703941803004366
40
0.725088817075483
40
0.725088817075483
40
0.735662324111041
40
0.735662324111041
40
0.746235831146599
40
0.746235831146599
40
0.751522584664378
40
0.751522584664378
40
0.756809338182158
40
0.756809338182158
40
0.767382845217716
40
0.767382845217716
40
0.788529859288832
40
0.788529859288832
40
0.79910336632439
40
0.79910336632439
40
0.809676873359948
40
0.809676873359948
40
0.820250380395506
40
0.820250380395506
40
0.830823887431065
40
0.830823887431065
40
0.851970901502182
40
0.851970901502182
40
0.86254440853774
40
0.86254440853774
40
0.873117915573299
40
0.873117915573299
40
0.883691422608857
40
0.883691422608857
40
0.894264929644416
40
0.894264929644416
40
0.915411943715533
40
0.915411943715533
40
0.925985450751091
40
0.925985450751091
40
0.93655895778665
40
0.93655895778665
40
0.947132464822208
40
0.947132464822208
40
0.957705971857767
40
0.957705971857767
40
1
40
1
40
1
40
1
41
1
10
129.255970340635
20
-13.3143860751787
30
0
41
1
10
129.021366225762
20
-13.3698093658367
30
0
41
1
10
128.786775174423
20
-13.4248056133088
30
0
41
1
10
127.737695534471
20
-13.6688670560648
30
0
41
1
10
126.923360841623
20
-13.8532456292624
30
0
41
1
10
125.702188180028
20
-14.1223068089524
30
0
41
1
10
125.295186574107
20
-14.2107437827469
30
0
41
1
10
124.481308596087
20
-14.3851335276958
30
0
41
1
10
124.074444800671
20
-14.4711078190957
30
0
41
1
10
123.260774299616
20
-14.6404406532431
30
0
41
1
10
122.85393457252
20
-14.7237419605844
30
0
41
1
10
122.040155161047
20
-14.8874707678135
30
0
41
1
10
121.63323036864
20
-14.9679242271765
30
0
41
1
10
120.412370809436
20
-15.205098011489
30
0
41
1
10
119.598347029161
20
-15.3576291479239
30
0
41
1
10
118.377212648104
20
-15.5781650581278
30
0
41
1
10
117.970152405948
20
-15.6503008382118
30
0
41
1
10
117.156013941376
20
-15.7918280716907
30
0
41
1
10
116.748948053154
20
-15.8612365142867
30
0
41
1
10
115.934731426469
20
-15.9971990573738
30
0
41
1
10
115.527547906538
20
-16.0637072340648
30
0
41
1
10
114.712937501462
20
-16.1936587438916
30
0
41
1
10
114.305525755584
20
-16.2571234236271
30
0
41
1
10
113.082991323573
20
-16.4430201975564
30
0
41
1
10
112.267565797684
20
-16.560954040965
30
0
41
1
10
111.043898891698
20
-16.7289290956766
30
0
41
1
10
110.635889232877
20
-16.7834376850246
30
0
41
1
10
109.819851091272
20
-16.8894607656366
30
0
41
1
10
109.411997501675
20
-16.9409668571056
30
0
41
1
10
108.596531178211
20
-17.0408627823926
30
0
41
1
10
108.188885868614
20
-17.0892186759296
30
0
41
1
10
107.373678622074
20
-17.1826723096467
30
0
41
1
10
106.966131523677
20
-17.2277856854389
30
0
41
1
10
105.743678615569
20
-17.358326005364
30
0
41
1
10
104.928957153781
20
-17.4389539417116
30
0
41
1
10
103.70732198017
20
-17.5503814827731
30
0
41
1
10
103.300185818389
20
-17.5859379715919
30
0
41
1
10
102.486078051034
20
-17.6538796664664
30
0
41
1
10
102.079118866187
20
-17.686272372298
30
0
41
1
10
101.265298550547
20
-17.7478292245409
30
0
41
1
10
100.858404533004
20
-17.7769725950556
30
0
41
1
10
100.044555167296
20
-17.8319483454173
30
0
41
1
10
99.6376149554314
20
-17.8577904563249
30
0
41
1
10
98.4167677447997
20
-17.930407497797
30
0
41
1
10
97.6028302727803
20
-17.972275573731
30
0
41
1
10
96.3819425470962
20
-18.0252960907343
30
0
41
1
10
95.9749840645025
20
-18.041338602741
30
0
41
1
10
95.1610884480034
20
-18.0701535951206
30
0
41
1
10
94.7541634854325
20
-18.0829285271111
30
0
41
1
10
93.9402698850207
20
-18.1051747685066
30
0
41
1
10
93.53326863167
20
-18.1146385486055
30
0
41
1
10
92.7190613300559
20
-18.1302402615044
30
0
41
1
10
92.3118707048212
20
-18.1363819081156
30
0
41
1
10
91.0900584396488
20
-18.1498441822175
30
0
41
1
10
90.2751926860225
20
-18.1522062286304
30
0
41
1
10
89.0524835795113
20
-18.145811203912
30
0
41
1
10
88.6448464231249
20
-18.1420220243
30
0
41
1
10
87.8294495837728
20
-18.1311115188053
30
0
41
1
10
87.4217018813912
20
-18.1239876559075
30
0
41
1
10
86.6060190587
20
-18.1063968686094
30
0
41
1
10
86.1979792867884
20
-18.0959333013697
30
0
41
1
10
85.3820954435204
20
-18.071721284901
30
0
41
1
10
84.9742297382653
20
-18.0579700615815
30
0
41
1
10
83.7508798118052
20
-18.0117992787842
30
0
41
1
10
82.9356386799114
20
-17.9744682508146
30
0
41
1
10
81.7133405608318
20
-17.9086425838849
30
0
41
1
10
81.3060028484153
20
-17.8850609442606
30
0
41
1
10
80.4915309317985
20
-17.8346037530929
30
0
41
1
10
80.0844089277331
20
-17.8077207238776
30
0
41
1
10
79.270303992932
20
-17.7506846614426
30
0
41
1
10
78.8632884581972
20
-17.720550689737
30
0
41
1
10
78.049235213533
20
-17.6571257392589
30
0
41
1
10
77.6422128389514
20
-17.6238259465121
30
0
41
1
10
76.4211783034798
20
-17.5191692556492
30
0
41
1
10
75.6071947726142
20
-17.4430621022821
30
0
41
1
10
74.386355920827
20
-17.3193425687333
30
0
41
1
10
73.9794333994491
20
-17.2765076699329
30
0
41
1
10
73.1656492193036
20
-17.1876250417453
30
0
41
1
10
72.7587995996764
20
-17.1415652547814
30
0
41
1
10
71.9450977138646
20
-17.0462776957175
30
0
41
1
10
71.538212947632
20
-16.9970815192239
30
0
41
1
10
70.7242770018381
20
-16.8956958768255
30
0
41
1
10
70.3172415250403
20
-16.8434912817587
30
0
41
1
10
69.0959531944824
20
-16.6823334165248
30
0
41
1
10
68.2815146418382
20
-16.5688445070214
30
0
41
1
10
67.0595637783061
20
-16.3894321822795
30
0
41
1
10
66.6521989524548
20
-16.3280959859864
30
0
41
1
10
65.8373862942611
20
-16.2023287922237
30
0
41
1
10
65.4299502363593
20
-16.1378813608263
30
0
41
1
10
64.6149325705916
20
-16.0059565015493
30
0
41
1
10
64.2073188716337
20
-15.9385228677864
30
0
41
1
10
63.3917830894737
20
-15.8008603313538
30
0
41
1
10
62.983876686951
20
-15.7306101587996
30
0
41
1
10
62.1678005595101
20
-15.587257602144
30
0
41
1
10
61.7596796462985
20
-15.5141640206225
30
0
41
1
10
60.9437460571803
20
-15.3652140815737
30
0
41
1
10
60.5358678746802
20
-15.2893463843658
30
0
41
1
10
59.7203036328137
20
-15.134802521101
30
0
41
1
10
59.312618059517
20
-15.0561255641167
30
0
41
1
10
58.4974536436696
20
-14.8959334214899
30
0
41
1
10
58.0899868806397
20
-14.8143974558962
30
0
41
1
10
57.2751969820444
20
-14.6485837216328
30
0
41
1
10
56.8678412318211
20
-14.5643613092848
30
0
41
1
10
56.0531090251034
20
-14.3934684659038
30
0
41
1
10
55.6457482384589
20
-14.306771547678
30
0
41
1
10
54.4237018580848
20
-14.0429081598676
30
0
41
1
10
53.6090482463669
20
-13.8619795668234
30
0
41
1
10
52.3872113301324
20
-13.5829184704372
30
0
41
1
10
51.9799573001059
20
-13.4886172923185
30
0
41
1
10
51.1655125721656
20
-13.2974188417577
30
0
41
1
10
50.7583339010899
20
-13.2004972291992
30
0
41
1
10
49.9439766875782
20
-13.0041712010383
30
0
41
1
10
49.5367655627484
20
-12.9048319731022
30
0
41
1
10
48.7221786951151
20
-12.7040124957389
30
0
41
1
10
48.3148187554028
20
-12.6025007330073
30
0
41
1
10
47.0925601035826
20
-12.2946268426806
30
0
41
1
10
46.2774787364652
20
-12.0849374837125
30
0
41
1
10
45.0545700989175
20
-11.7635668347351
30
0
41
1
10
44.6468870978951
20
-11.6553008610943
30
0
41
1
10
43.8314402950852
20
-11.4364442184748
30
0
41
1
10
43.4236884254914
20
-11.3258257294468
30
0
41
1
10
42.8119522483209
20
-11.1582526398496
30
0
41
1
10
42.6080185688662
20
-11.1021289599813
30
0
41
1
10
42.2000767877125
20
-10.9894226456047
30
0
41
1
10
41.9960524750192
20
-10.9328316131072
30
0
41
1
10
41.3840858408791
20
-10.7624127145419
30
0
41
1
10
40.9762074508891
20
-10.6479263631389
30
0
41
1
10
39.752888310048
20
-10.3018124481171
30
0
41
1
10
38.9377594654276
20
-10.0675417782949
30
0
41
1
10
37.7157655532701
20
-9.71067491065136
30
0
41
1
10
37.308551871286
20
-9.59080607251963
30
0
41
1
10
36.4943732134642
20
-9.34920559732799
30
0
41
1
10
36.0874201315506
20
-9.22744354112314
30
0
41
1
10
35.273700708998
20
-8.98220951871517
30
0
41
1
10
34.8669023237059
20
-8.85881913765166
30
0
41
1
10
34.053329998335
20
-8.61074939336771
30
0
41
1
10
33.64657151342
20
-8.4860307353114
30
0
41
1
10
32.4263985878355
20
-8.10978068844062
30
0
41
1
10
31.6130826761664
20
-7.85616724310876
30
0
41
1
10
30.3933840647935
20
-7.47138182487342
30
0
41
1
10
29.9868647599354
20
-7.34238936241022
30
0
41
1
10
29.173933411848
20
-7.08290350669753
30
0
41
1
10
28.7675330388542
20
-6.95237850819939
30
0
41
1
10
27.9547793437486
20
-6.68998390145279
30
0
41
1
10
27.5483941051836
20
-6.55820033979043
30
0
41
1
10
26.7355032705001
20
-6.29374643170234
30
0
41
1
10
26.3290138006532
20
-6.16103265148246
30
0
41
1
10
25.1094337305203
20
-5.76138058614438
30
0
41
1
10
24.2962271868193
20
-5.49294497363377
30
0
41
1
10
23.0762650228309
20
-5.08707314208303
30
0
41
1
10
22.6695865841854
20
-4.95124290662594
30
0
41
1
10
21.8561949929232
20
-4.67845860774329
30
0
41
1
10
21.4494934662506
20
-4.54147127075689
30
0
41
1
10
20.635987999527
20
-4.26655823373738
30
0
41
1
10
20.2291621686281
20
-4.12869478865576
30
0
41
1
10
19.4152465348601
20
-3.85249444045704
30
0
41
1
10
19.0081738118967
20
-3.71410900397436
30
0
41
1
10
16.9722753098287
20
-3.0206475631654
30
0
41
1
10
15.3418160920735
20
-2.46108604968208
30
0
41
1
10
13.7100023661445
20
-1.89543917760093
30
0
0
SPLINE
5
C7
100
AcDbEntity
8
1
62
256
6
ByLayer
370
18
48
1
60
0
100
AcDbSpline
70
4
71
3
72
237
73
233
40
0
40
0
40
0
40
0
40
0.0106655088494273
40
0.0106655088494273
40
0.0166980362344909
40
0.0166980362344909
40
0.0227305636195546
40
0.034795618389682
40
0.034795618389682
40
0.0468606731598093
40
0.0468606731598093
40
0.0528932005448731
40
0.0528932005448731
40
0.0589257279299369
40
0.0589257279299369
40
0.0649582553150006
40
0.0649582553150006
40
0.0709907827000643
40
0.0709907827000643
40
0.0830558374701914
40
0.0830558374701914
40
0.0890883648552548
40
0.0890883648552548
40
0.0951208922403183
40
0.0951208922403183
40
0.107185947010445
40
0.107185947010445
40
0.119251001780572
40
0.119251001780572
40
0.125283529165636
40
0.125283529165636
40
0.1313160565507
40
0.1313160565507
40
0.155446166090955
40
0.155446166090955
40
0.161478693476019
40
0.161478693476019
40
0.167511220861083
40
0.167511220861083
40
0.179576275631211
40
0.179576275631211
40
0.185608803016274
40
0.185608803016274
40
0.191641330401338
40
0.191641330401338
40
0.197673857786401
40
0.197673857786401
40
0.203706385171465
40
0.203706385171465
40
0.215771439941592
40
0.215771439941592
40
0.227836494711719
40
0.227836494711719
40
0.233869022096783
40
0.233869022096783
40
0.239901549481847
40
0.239901549481847
40
0.251966604251975
40
0.251966604251975
40
0.264031659022103
40
0.264031659022103
40
0.270064186407167
40
0.270064186407167
40
0.276096713792231
40
0.276096713792231
40
0.288161768562358
40
0.288161768562358
40
0.300226823332485
40
0.300226823332485
40
0.306259350717549
40
0.306259350717549
40
0.312291878102612
40
0.312291878102612
40
0.324356932872739
40
0.324356932872739
40
0.336421987642867
40
0.336421987642867
40
0.342454515027931
40
0.342454515027931
40
0.348487042412995
40
0.348487042412995
40
0.354519569798058
40
0.354519569798058
40
0.360552097183122
40
0.360552097183122
40
0.372617151953251
40
0.372617151953251
40
0.378649679338316
40
0.378649679338316
40
0.38468220672338
40
0.38468220672338
40
0.390714734108444
40
0.390714734108444
40
0.396747261493509
40
0.396747261493509
40
0.420877371033765
40
0.420877371033765
40
0.426909898418829
40
0.426909898418829
40
0.432942425803893
40
0.432942425803893
40
0.445007480574021
40
0.445007480574021
40
0.457072535344148
40
0.457072535344148
40
0.463105062729212
40
0.463105062729212
40
0.469137590114277
40
0.469137590114277
40
0.481202644884406
40
0.481202644884406
40
0.493267699654535
40
0.493267699654535
40
0.4993002270396
40
0.4993002270396
40
0.505332754424664
40
0.505332754424664
40
0.517397809194794
40
0.517397809194794
40
0.529462863964924
40
0.529462863964924
40
0.535495391349989
40
0.535495391349989
40
0.541527918735053
40
0.541527918735053
40
0.547560446120118
40
0.547560446120118
40
0.553592973505182
40
0.553592973505182
40
0.565658028275311
40
0.565658028275311
40
0.571690555660376
40
0.571690555660376
40
0.577723083045441
40
0.577723083045441
40
0.589788137815571
40
0.589788137815571
40
0.601853192585701
40
0.601853192585701
40
0.607885719970765
40
0.607885719970765
40
0.61391824735583
40
0.61391824735583
40
0.638048356896091
40
0.638048356896091
40
0.644080884281157
40
0.644080884281157
40
0.650113411666222
40
0.650113411666222
40
0.662178466436353
40
0.662178466436353
40
0.668210993821417
40
0.668210993821417
40
0.674243521206482
40
0.674243521206482
40
0.680276048591547
40
0.680276048591547
40
0.686308575976612
40
0.686308575976612
40
0.698373630746741
40
0.698373630746741
40
0.71043868551687
40
0.71043868551687
40
0.716471212901935
40
0.716471212901935
40
0.722503740286999
40
0.722503740286999
40
0.734568795057128
40
0.734568795057128
40
0.746633849827257
40
0.746633849827257
40
0.752666377212322
40
0.752666377212322
40
0.758698904597387
40
0.758698904597387
40
0.770763959367517
40
0.770763959367517
40
0.782829014137647
40
0.782829014137647
40
0.788861541522711
40
0.788861541522711
40
0.794894068907776
40
0.794894068907776
40
0.800926596292841
40
0.800926596292841
40
0.806959123677906
40
0.806959123677906
40
0.819024178448037
40
0.819024178448037
40
0.825056705833102
40
0.825056705833102
40
0.831089233218168
40
0.831089233218168
40
0.837121760603234
40
0.837121760603234
40
0.8431542879883
40
0.8431542879883
40
0.85521934275843
40
0.85521934275843
40
0.86728439752856
40
0.86728439752856
40
0.873316924913625
40
0.873316924913625
40
0.87934945229869
40
0.87934945229869
40
0.891414507068821
40
0.891414507068821
40
0.897447034453886
40
0.897447034453886
40
0.903479561838951
40
0.903479561838951
40
0.909512089224017
40
0.909512089224017
40
0.915544616609082
40
0.915544616609082
40
0.927609671379213
40
0.927609671379213
40
0.939674726149344
40
0.939674726149344
40
0.94570725353441
40
0.94570725353441
40
0.951739780919475
40
0.951739780919475
40
0.963804835689606
40
0.963804835689606
40
0.975869890459737
40
0.975869890459737
40
0.981902417844803
40
0.981902417844803
40
0.987934945229869
40
0.987934945229869
40
1
40
1
40
1
40
1
41
1
10
129.256180267261
20
13.3142989406101
30
0
41
1
10
129.956782127312
20
13.4796367986491
30
0
41
1
10
130.657303028644
20
13.6415011488077
30
0
41
1
10
131.75380750257
20
13.8896479945366
30
0
41
1
10
132.149891325215
20
13.9782222720789
30
0
41
1
10
132.94225467514
20
14.1526649065507
30
0
41
1
10
134.131080823585
20
14.4103003536839
30
0
41
1
10
135.320498746048
20
14.656377235113
30
0
41
1
10
136.906765632212
20
14.9744789945371
30
0
41
1
10
137.700085231589
20
15.1285338290396
30
0
41
1
10
138.89019587009
20
15.3522897073723
30
0
41
1
10
139.286901936361
20
15.4256811213004
30
0
41
1
10
140.080582736558
20
15.5696564220242
30
0
41
1
10
140.477583866957
20
15.640202320779
30
0
41
1
10
141.27186595972
20
15.7784869873921
30
0
41
1
10
141.669166157765
20
15.8462360416122
30
0
41
1
10
142.463917302843
20
15.9789579442501
30
0
41
1
10
142.861197040337
20
16.0439012982704
30
0
41
1
10
144.052721501498
20
16.2345265649334
30
0
41
1
10
144.846650670678
20
16.3560107089685
30
0
41
1
10
146.036763061455
20
16.5299886918865
30
0
41
1
10
146.433313917079
20
16.586631239427
30
0
41
1
10
147.226309058205
20
16.6969669039
30
0
41
1
10
147.622796683341
20
16.7506113451013
30
0
41
1
10
148.812256244156
20
16.9069809039583
30
0
41
1
10
149.605165045236
20
17.0052149694301
30
0
41
1
10
151.190689892141
20
17.1899008530384
30
0
41
1
10
151.98330863546
20
17.2763506629686
30
0
41
1
10
153.171872932624
20
17.3972676335238
30
0
41
1
10
153.567981093022
20
17.4361270874825
30
0
41
1
10
154.360162706482
20
17.5108352725992
30
0
41
1
10
154.756282038079
20
17.5466481729787
30
0
41
1
10
156.737291783543
20
17.7178506767139
30
0
41
1
10
158.322982486221
20
17.8300973931245
30
0
41
1
10
160.30530024876
20
17.9399880331012
30
0
41
1
10
160.701761553852
20
17.9604436914489
30
0
41
1
10
161.494734540167
20
17.9982645722
30
0
41
1
10
161.891281503694
20
18.0156140489993
30
0
41
1
10
163.081405422379
20
18.0628867361191
30
0
41
1
10
163.875330809218
20
18.0880953337753
30
0
41
1
10
165.066815947369
20
18.1165306591786
30
0
41
1
10
165.464080535473
20
18.1244439348161
30
0
41
1
10
166.258792543337
20
18.1371365426953
30
0
41
1
10
166.656122255906
20
18.1419136053994
30
0
41
1
10
167.450404992299
20
18.1483198934468
30
0
41
1
10
167.847399554204
20
18.149949934589
30
0
41
1
10
168.641094980415
20
18.1500477944427
30
0
41
1
10
169.037815785739
20
18.1485125979608
30
0
41
1
10
170.228000238086
20
18.1391892533813
30
0
41
1
10
171.021367253899
20
18.1266955889068
30
0
41
1
10
172.607672954795
20
18.0892414983866
30
0
41
1
10
173.400629679718
20
18.0642830909096
30
0
41
1
10
174.589629806742
20
18.0174402146079
30
0
41
1
10
174.985890254357
20
18.0002569121658
30
0
41
1
10
175.778237993718
20
17.9627243185036
30
0
41
1
10
176.174324558801
20
17.9423711875363
30
0
41
1
10
177.362772332992
20
17.8767489666159
30
0
41
1
10
178.15527581267
20
17.8269177694656
30
0
41
1
10
179.740399102547
20
17.7150460953152
30
0
41
1
10
180.533041190107
20
17.6530163634656
30
0
41
1
10
181.721987716344
20
17.5507102778115
30
0
41
1
10
182.11830042423
20
17.515063356436
30
0
41
1
10
182.910892757899
20
17.4406394418755
30
0
41
1
10
183.307154112838
20
17.4018448543823
30
0
41
1
10
184.496237559953
20
17.2810315173743
30
0
41
1
10
185.289450232795
20
17.1946817246694
30
0
41
1
10
186.876547383202
20
17.0101859209827
30
0
41
1
10
187.670452733324
20
16.912057642031
30
0
41
1
10
188.861715436627
20
16.7558665024112
30
0
41
1
10
189.258870447607
20
16.7023017012926
30
0
41
1
10
190.053289599051
20
16.5921186297801
30
0
41
1
10
190.450524596143
20
16.5354718239257
30
0
41
1
10
191.641741063726
20
16.3613456713776
30
0
41
1
10
192.435732118466
20
16.2399052917849
30
0
41
1
10
194.023203830614
20
15.9861848160886
30
0
41
1
10
194.816686254017
20
15.853906264681
30
0
41
1
10
196.006401283231
20
15.6471889561015
30
0
41
1
10
196.402887875358
20
15.5768984517719
30
0
41
1
10
197.195664191139
20
15.4334981814779
30
0
41
1
10
197.591934481353
20
15.360357554003
30
0
41
1
10
198.384370978098
20
15.2113866688023
30
0
41
1
10
198.780583466922
20
15.1356293266007
30
0
41
1
10
199.573096103479
20
14.9817465769917
30
0
41
1
10
199.969373239802
20
14.9035850316093
30
0
41
1
10
201.158213279878
20
14.6653679538886
30
0
41
1
10
201.950796768636
20
14.5016035907869
30
0
41
1
10
203.139582204051
20
14.248312636324
30
0
41
1
10
203.535828473628
20
14.1626062317215
30
0
41
1
10
204.328264837397
20
13.988584798344
30
0
41
1
10
204.72444232927
20
13.9002459224343
30
0
41
1
10
205.516776325213
20
13.721007836908
30
0
41
1
10
205.912969338835
20
13.6301762754739
30
0
41
1
10
206.705602564711
20
13.4464730044142
30
0
41
1
10
207.102013322168
20
13.3535463149258
30
0
41
1
10
209.084424426401
20
12.8833406405161
30
0
41
1
10
210.671548939764
20
12.4895305311168
30
0
41
1
10
212.656119406827
20
11.9731188898438
30
0
41
1
10
213.053094031628
20
11.8686813379793
30
0
41
1
10
213.847428094944
20
11.6580901760104
30
0
41
1
10
214.244818644213
20
11.5518658313798
30
0
41
1
10
215.436585145429
20
11.230514044143
30
0
41
1
10
216.230783472028
20
11.0126772166292
30
0
41
1
10
217.818404840154
20
10.569474774641
30
0
41
1
10
218.611825555968
20
10.3441041321649
30
0
41
1
10
219.801216408487
20
9.99998967550297
30
0
41
1
10
220.197557688453
20
9.88427533537453
30
0
41
1
10
220.990294033377
20
9.65155989804975
30
0
41
1
10
221.386680038952
20
9.53453828803978
30
0
41
1
10
222.575809383445
20
9.18129313357633
30
0
41
1
10
223.368526443565
20
8.94289669576938
30
0
41
1
10
224.953739357112
20
8.45994721059589
30
0
41
1
10
225.74623322459
20
8.21538963674476
30
0
41
1
10
226.93465162122
20
7.84349759759044
30
0
41
1
10
227.330719386666
20
7.71864199346152
30
0
41
1
10
228.122986099372
20
7.46786512160554
30
0
41
1
10
228.519207442607
20
7.342004502864
30
0
41
1
10
229.708064483488
20
6.96283200903105
30
0
41
1
10
230.500878491585
20
6.70789194198491
30
0
41
1
10
232.086840200369
20
6.19329969302009
30
0
41
1
10
232.879986895578
20
5.93364528294808
30
0
41
1
10
234.069809081085
20
5.54018207716433
30
0
41
1
10
234.466410693063
20
5.40829869872155
30
0
41
1
10
235.259811675941
20
5.14365334210297
30
0
41
1
10
235.656652835176
20
5.01101007947838
30
0
41
1
10
236.450623461895
20
4.74511041400413
30
0
41
1
10
236.847740832361
20
4.61181974570911
30
0
41
1
10
237.642212707916
20
4.34448249012814
30
0
41
1
10
238.039641737075
20
4.21041465837703
30
0
41
1
10
239.2316366096
20
3.8072223292391
30
0
41
1
10
240.025858334312
20
3.53712503399103
30
0
41
1
10
241.216380519076
20
3.12959582145194
30
0
41
1
10
241.613065948031
20
2.99329685069495
30
0
41
1
10
242.406262814762
20
2.72018326631175
30
0
41
1
10
242.802820609205
20
2.58350310765007
30
0
41
1
10
243.992508762349
20
2.17348911933982
30
0
41
1
10
244.785554908121
20
1.89989470099317
30
0
41
1
10
246.371305787491
20
1.35167227513026
30
0
41
1
10
247.164017448633
20
1.07706436561742
30
0
41
1
10
248.352692626953
20
0.663981835022838
30
0
41
1
10
248.748838728283
20
0.526053157355705
30
0
41
1
10
249.54103948753
20
0.249919618903391
30
0
41
1
10
249.937131864087
20
0.111824204728919
30
0
41
1
10
251.918021918891
20
-0.577437316569473
30
0
41
1
10
253.503546602027
20
-1.12657417146505
30
0
41
1
10
255.485543270468
20
-1.81283949418128
30
0
41
1
10
255.881941615467
20
-1.9501008476721
30
0
41
1
10
256.674743411043
20
-2.22461964959243
30
0
41
1
10
257.071169292939
20
-2.36181198647799
30
0
41
1
10
258.260915104997
20
-2.77204615937143
30
0
41
1
10
259.054578327354
20
-3.04410764627758
30
0
41
1
10
260.245632726502
20
-3.45060786849649
30
0
41
1
10
260.642748377646
20
-3.58583025186712
30
0
41
1
10
261.437152770267
20
-3.85578338802318
30
0
41
1
10
261.834484133424
20
-3.99052951967292
30
0
41
1
10
262.629107089986
20
-4.25953230138521
30
0
41
1
10
263.026271103651
20
-4.39374799469817
30
0
41
1
10
263.820278501344
20
-4.66167527420498
30
0
41
1
10
264.217124627978
20
-4.79537736700129
30
0
41
1
10
265.407634026951
20
-5.19443821901541
30
0
41
1
10
266.201206762991
20
-5.45793625513147
30
0
41
1
10
267.78787289602
20
-5.98069294696413
30
0
41
1
10
268.580987740219
20
-6.23989094667257
30
0
41
1
10
269.770194586767
20
-6.62579183811471
30
0
41
1
10
270.166519179972
20
-6.75394252472634
30
0
41
1
10
270.958984732122
20
-7.00934708000506
30
0
41
1
10
271.355109364375
20
-7.13664338228216
30
0
41
1
10
272.543577427732
20
-7.51619204820727
30
0
41
1
10
273.336081769714
20
-7.76593610511637
30
0
41
1
10
274.921163147522
20
-8.25972530316739
30
0
41
1
10
275.713762791034
20
-8.50371028248668
30
0
41
1
10
276.902616308085
20
-8.86565977711226
30
0
41
1
10
277.298893117535
20
-8.98563780789041
30
0
41
1
10
278.091404151952
20
-9.22431108475504
30
0
41
1
10
278.487615943963
20
-9.34306157843923
30
0
41
1
10
279.676444233667
20
-9.69673524409103
30
0
41
1
10
280.469443436926
20
-9.92861629894315
30
0
41
1
10
282.056099809712
20
-10.3852054412261
30
0
41
1
10
282.849762311872
20
-10.6099000062912
30
0
41
1
10
284.040629682949
20
-10.941834142535
30
0
41
1
10
284.437647568032
20
-11.0516274117929
30
0
41
1
10
285.231782321581
20
-11.2695614600231
30
0
41
1
10
285.628879381079
20
-11.3777476886194
30
0
41
1
10
286.423274549226
20
-11.5922199521061
30
0
41
1
10
286.820469048208
20
-11.6983593661518
30
0
41
1
10
287.614775739252
20
-11.9082269755125
30
0
41
1
10
288.01189238021
20
-12.0120112196148
30
0
41
1
10
289.203081508456
20
-12.320046296109
30
0
41
1
10
289.997004883321
20
-12.5209576077863
30
0
41
1
10
291.187460635202
20
-12.8159350311817
30
0
41
1
10
291.58420710707
20
-12.9131961036069
30
0
41
1
10
292.377530071008
20
-13.1056325862992
30
0
41
1
10
292.77409238236
20
-13.2008358621929
30
0
41
1
10
293.567092101298
20
-13.3890522596129
30
0
41
1
10
293.963568670596
20
-13.4819872081656
30
0
41
1
10
294.756653833015
20
-13.6651767574704
30
0
41
1
10
295.15323344576
20
-13.7554889553728
30
0
41
1
10
296.343018115105
20
-14.0227191507771
30
0
41
1
10
297.136282159022
20
-14.1959092692007
30
0
41
1
10
298.722796161012
20
-14.5326639387898
30
0
41
1
10
299.51603063953
20
-14.6962552900433
30
0
41
1
10
300.705756824741
20
-14.9345396156687
30
0
41
1
10
301.102342494908
20
-15.012728691323
30
0
41
1
10
301.895790475999
20
-15.1662156476336
30
0
41
1
10
302.292625134097
20
-15.2415608727809
30
0
41
1
10
303.483383959561
20
-15.4635411378617
30
0
41
1
10
304.277574166645
20
-15.6061060850314
30
0
41
1
10
305.469269473672
20
-15.8119927179553
30
0
41
1
10
305.866599991727
20
-15.8793004239474
30
0
41
1
10
306.661236795344
20
-16.011261470388
30
0
41
1
10
307.058422796695
20
-16.075896775475
30
0
41
1
10
307.852506610781
20
-16.2024935377206
30
0
41
1
10
308.249410283903
20
-16.2644436858522
30
0
41
1
10
309.043236974417
20
-16.3852682282981
30
0
41
1
10
309.44014604246
20
-16.4441642323971
30
0
41
1
10
310.630779044382
20
-16.6164370577822
30
0
41
1
10
311.424413617498
20
-16.725396019512
30
0
41
1
10
313.011290967936
20
-16.9317543700344
30
0
41
1
10
313.804531774642
20
-17.0291570323519
30
0
41
1
10
314.993940519259
20
-17.1666826967604
30
0
41
1
10
315.390319714801
20
-17.2111045689511
30
0
41
1
10
316.183184675847
20
-17.2968385826598
30
0
41
1
10
316.579685531202
20
-17.3381407540667
30
0
41
1
10
317.769312944457
20
-17.4574531333767
30
0
41
1
10
318.562556130273
20
-17.5308792974564
30
0
41
1
10
320.149208175746
20
-17.6656504727241
30
0
41
1
10
320.942615555685
20
-17.7269976609144
30
0
41
1
10
322.132699126094
20
-17.8099754442027
30
0
41
1
10
322.529366376034
20
-17.8361366616221
30
0
41
1
10
323.32287603155
20
-17.8853240160629
30
0
41
1
10
323.719756857201
20
-17.9083327798076
30
0
41
1
10
324.910760118649
20
-17.9726405683
30
0
41
1
10
325.705200791966
20
-18.0092457540678
30
0
41
1
10
326.5
20
-18.0396256079955
30
0
0
SPLINE
5
C8
100
AcDbEntity
8
1
62
256
6
ByLayer
370
18
48
1
60
0
100
AcDbSpline
70
4
71
3
72
288
73
284
40
0
40
0
40
0
40
0
40
0.0046950593234092
40
0.0046950593234092
40
0.0107143692591879
40
0.0107143692591879
40
0.0167336791949665
40
0.0167336791949665
40
0.0287722990665245
40
0.0287722990665245
40
0.0347916090023035
40
0.0347916090023035
40
0.0408109189380826
40
0.0408109189380826
40
0.0468302288738616
40
0.0468302288738616
40
0.0528495388096406
40
0.0528495388096406
40
0.0648881586811994
40
0.0648881586811994
40
0.0709074686169787
40
0.0709074686169787
40
0.0769267785527581
40
0.0769267785527581
40
0.0829460884885375
40
0.0829460884885375
40
0.0889653984243169
40
0.0889653984243169
40
0.101004018295876
40
0.101004018295876
40
0.107023328231656
40
0.107023328231656
40
0.113042638167436
40
0.113042638167436
40
0.119061948103216
40
0.119061948103216
40
0.125081258038995
40
0.125081258038995
40
0.137119877910554
40
0.137119877910554
40
0.143139187846333
40
0.143139187846333
40
0.149158497782112
40
0.149158497782112
40
0.155177807717891
40
0.155177807717891
40
0.16119711765367
40
0.16119711765367
40
0.173235737525228
40
0.173235737525228
40
0.179255047461007
40
0.179255047461007
40
0.185274357396785
40
0.185274357396785
40
0.191293667332565
40
0.191293667332565
40
0.197312977268344
40
0.197312977268344
40
0.209351597139901
40
0.209351597139901
40
0.215370907075679
40
0.215370907075679
40
0.221390217011457
40
0.221390217011457
40
0.227409526947236
40
0.227409526947236
40
0.233428836883014
40
0.233428836883014
40
0.24546745675457
40
0.24546745675457
40
0.251486766690347
40
0.251486766690347
40
0.257506076626125
40
0.257506076626125
40
0.263525386561902
40
0.263525386561902
40
0.26954469649768
40
0.26954469649768
40
0.281583316369235
40
0.281583316369235
40
0.287602626305013
40
0.287602626305013
40
0.29362193624079
40
0.29362193624079
40
0.299641246176568
40
0.299641246176568
40
0.305660556112345
40
0.305660556112345
40
0.311679866048123
40
0.311679866048123
40
0.317699175983901
40
0.317699175983901
40
0.323718485919678
40
0.323718485919678
40
0.329737795855456
40
0.329737795855456
40
0.335757105791233
40
0.335757105791233
40
0.341776415727011
40
0.341776415727011
40
0.353815035598566
40
0.353815035598566
40
0.359834345534344
40
0.359834345534344
40
0.365853655470122
40
0.365853655470122
40
0.3718729654059
40
0.3718729654059
40
0.377892275341678
40
0.377892275341678
40
0.389930895213234
40
0.389930895213234
40
0.395950205149012
40
0.395950205149012
40
0.40196951508479
40
0.40196951508479
40
0.407988825020567
40
0.407988825020567
40
0.414008134956345
40
0.414008134956345
40
0.426046754827901
40
0.426046754827901
40
0.432066064763679
40
0.432066064763679
40
0.438085374699457
40
0.438085374699457
40
0.444104684635235
40
0.444104684635235
40
0.450123994571013
40
0.450123994571013
40
0.462162614442569
40
0.462162614442569
40
0.468181924378347
40
0.468181924378347
40
0.474201234314125
40
0.474201234314125
40
0.480220544249903
40
0.480220544249903
40
0.486239854185681
40
0.486239854185681
40
0.498278474057236
40
0.498278474057236
40
0.504297783993014
40
0.504297783993014
40
0.510317093928791
40
0.510317093928791
40
0.516336403864569
40
0.516336403864569
40
0.522355713800347
40
0.522355713800347
40
0.534394333671901
40
0.534394333671901
40
0.540413643607678
40
0.540413643607678
40
0.546432953543455
40
0.546432953543455
40
0.552452263479232
40
0.552452263479232
40
0.558471573415009
40
0.558471573415009
40
0.570510193286562
40
0.570510193286562
40
0.576529503222339
40
0.576529503222339
40
0.582548813158115
40
0.582548813158115
40
0.588568123093892
40
0.588568123093892
40
0.594587433029668
40
0.594587433029668
40
0.606626052901221
40
0.606626052901221
40
0.612645362836998
40
0.612645362836998
40
0.618664672772774
40
0.618664672772774
40
0.624683982708551
40
0.624683982708551
40
0.630703292644327
40
0.630703292644327
40
0.642741912515881
40
0.642741912515881
40
0.648761222451657
40
0.648761222451657
40
0.654780532387434
40
0.654780532387434
40
0.66079984232321
40
0.66079984232321
40
0.666819152258987
40
0.666819152258987
40
0.67885777213054
40
0.67885777213054
40
0.684877082066317
40
0.684877082066317
40
0.690896392002094
40
0.690896392002094
40
0.69691570193787
40
0.69691570193787
40
0.702935011873647
40
0.702935011873647
40
0.7149736317452
40
0.7149736317452
40
0.720992941680976
40
0.720992941680976
40
0.727012251616753
40
0.727012251616753
40
0.733031561552529
40
0.733031561552529
40
0.739050871488306
40
0.739050871488306
40
0.751089491359859
40
0.751089491359859
40
0.757108801295636
40
0.757108801295636
40
0.763128111231413
40
0.763128111231413
40
0.76914742116719
40
0.76914742116719
40
0.775166731102967
40
0.775166731102967
40
0.781186041038743
40
0.781186041038743
40
0.78720535097452
40
0.78720535097452
40
0.793224660910297
40
0.793224660910297
40
0.799243970846074
40
0.799243970846074
40
0.805263280781851
40
0.805263280781851
40
0.811282590717628
40
0.811282590717628
40
0.823321210589182
40
0.823321210589182
40
0.829340520524959
40
0.829340520524959
40
0.835359830460735
40
0.835359830460735
40
0.841379140396513
40
0.841379140396513
40
0.84739845033229
40
0.84739845033229
40
0.859437070203844
40
0.859437070203844
40
0.865456380139621
40
0.865456380139621
40
0.871475690075398
40
0.871475690075398
40
0.877495000011175
40
0.877495000011175
40
0.883514309946953
40
0.883514309946953
40
0.895552929818507
40
0.895552929818507
40
0.901572239754284
40
0.901572239754284
40
0.907591549690061
40
0.907591549690061
40
0.913610859625838
40
0.913610859625838
40
0.919630169561616
40
0.919630169561616
40
0.93166878943317
40
0.93166878943317
40
0.937688099368947
40
0.937688099368947
40
0.943707409304724
40
0.943707409304724
40
0.949726719240502
40
0.949726719240502
40
0.955746029176279
40
0.955746029176279
40
0.967784649047834
40
0.967784649047834
40
0.973803958983611
40
0.973803958983611
40
0.979823268919389
40
0.979823268919389
40
0.985842578855166
40
0.985842578855166
40
0.991861888790944
40
0.991861888790944
40
1
40
1
40
1
40
1
41
1
10
293.237838756025
20
-13.3173771053212
30
0
41
1
10
292.920439492215
20
-13.392436407359
30
0
41
1
10
292.603082859847
20
-13.4668034559486
30
0
41
1
10
291.878895318356
20
-13.6348098486873
30
0
41
1
10
291.472040986779
20
-13.7279038719792
30
0
41
1
10
290.658248855832
20
-13.9113891762363
30
0
41
1
10
290.251323532413
20
-14.0018046352514
30
0
41
1
10
289.030478944875
20
-14.2691171063098
30
0
41
1
10
288.216487396653
20
-14.4420769639194
30
0
41
1
10
286.995436028484
20
-14.6937783996909
30
0
41
1
10
286.588409262475
20
-14.7763900661411
30
0
41
1
10
285.77434892815
20
-14.9390463998655
30
0
41
1
10
285.367329155196
20
-15.0191130690735
30
0
41
1
10
284.553200951329
20
-15.1765316786339
30
0
41
1
10
284.146058889362
20
-15.2538294830499
30
0
41
1
10
283.331548138344
20
-15.405498565507
30
0
41
1
10
282.924192187895
20
-15.4798905398956
30
0
41
1
10
281.701842109664
20
-15.6987770513906
30
0
41
1
10
280.886562269525
20
-15.8389804297264
30
0
41
1
10
279.663149276952
20
-16.0407937475902
30
0
41
1
10
279.255263716755
20
-16.106650047847
30
0
41
1
10
278.439341709901
20
-16.2355353517968
30
0
41
1
10
278.031327606102
20
-16.2985795185865
30
0
41
1
10
277.215692514271
20
-16.421624487676
30
0
41
1
10
276.807960198368
20
-16.4815952506312
30
0
41
1
10
275.9925953051
20
-16.598364621492
30
0
41
1
10
275.584975224298
20
-16.6551793735746
30
0
41
1
10
274.362319959187
20
-16.820957310664
30
0
41
1
10
273.547485873205
20
-16.9252541724137
30
0
41
1
10
272.325716341442
20
-17.072469690662
30
0
41
1
10
271.918541183709
20
-17.120003226804
30
0
41
1
10
271.104366555521
20
-17.2119973105958
30
0
41
1
10
270.697380959991
20
-17.2564696375507
30
0
41
1
10
269.883503924722
20
-17.34225476904
30
0
41
1
10
269.476578775305
20
-17.3835383348035
30
0
41
1
10
268.662684032827
20
-17.4628429973864
30
0
41
1
10
268.255727147783
20
-17.5008753591317
30
0
41
1
10
267.034846988508
20
-17.6101441923878
30
0
41
1
10
266.220910474948
20
-17.676553985669
30
0
41
1
10
265.000059709835
20
-17.7665668719063
30
0
41
1
10
264.593119499204
20
-17.7949704177845
30
0
41
1
10
263.779271857915
20
-17.8485710109612
30
0
41
1
10
263.372378121633
20
-17.8737742621313
30
0
41
1
10
262.558543227702
20
-17.9209172972638
30
0
41
1
10
262.151568364481
20
-17.9428411523904
30
0
41
1
10
261.337430185156
20
-17.9833727527694
30
0
41
1
10
260.930279938474
20
-18.0019869093552
30
0
41
1
10
259.708605356564
20
-18.0528938972843
30
0
41
1
10
258.893853609092
20
-18.0802544131021
30
0
41
1
10
257.671350168466
20
-18.1114295194657
30
0
41
1
10
257.263787373991
20
-18.1201760487436
30
0
41
1
10
256.448550456339
20
-18.1343648998655
30
0
41
1
10
256.040889776054
20
-18.1398078586481
30
0
41
1
10
255.225377707108
20
-18.1473611700948
30
0
41
1
10
254.81748080131
20
-18.1494692693842
30
0
41
1
10
254.001406912661
20
-18.150354276505
30
0
41
1
10
253.593452184316
20
-18.1491321805399
30
0
41
1
10
252.369852214269
20
-18.140495756116
30
0
41
1
10
251.554467242267
20
-18.1281160223368
30
0
41
1
10
250.33198865744
20
-18.0996286174869
30
0
41
1
10
249.924596702913
20
-18.088478513629
30
0
41
1
10
249.110027646879
20
-18.0628584741392
30
0
41
1
10
248.702864249053
20
-18.0483835632597
30
0
41
1
10
247.888672808123
20
-18.0161263452192
30
0
41
1
10
247.481611109597
20
-17.9983555996535
30
0
41
1
10
246.66748193656
20
-17.9595736375379
30
0
41
1
10
246.260427438472
20
-17.9385582009764
30
0
41
1
10
245.039313117613
20
-17.8706487538816
30
0
41
1
10
244.225298665944
20
-17.8188977531119
30
0
41
1
10
243.004448067152
20
-17.7315172698289
30
0
41
1
10
242.597527433734
20
-17.7007630554041
30
0
41
1
10
241.783758190377
20
-17.6359803152446
30
0
41
1
10
241.37692312655
20
-17.601941491178
30
0
41
1
10
240.563246721636
20
-17.5306294870166
30
0
41
1
10
240.156371735622
20
-17.493381197763
30
0
41
1
10
239.342472104002
20
-17.4157713152491
30
0
41
1
10
238.93546078518
20
-17.3754000905996
30
0
41
1
10
237.714261965632
20
-17.2495845764496
30
0
41
1
10
236.899905955517
20
-17.1594459807074
30
0
41
1
10
235.678114382624
20
-17.0147580629835
30
0
41
1
10
235.270808601103
20
-16.964946654348
30
0
41
1
10
234.456125467193
20
-16.862132027358
30
0
41
1
10
234.048761423627
20
-16.8091133419543
30
0
41
1
10
233.233884530337
20
-16.6999505360851
30
0
41
1
10
232.826338286116
20
-16.6438444991716
30
0
41
1
10
232.010953511901
20
-16.5286825553158
30
0
41
1
10
231.603128396438
20
-16.4696115762096
30
0
41
1
10
230.787225828445
20
-16.3484791032851
30
0
41
1
10
230.379071002504
20
-16.2864058982184
30
0
41
1
10
229.563018064502
20
-16.1593327832708
30
0
41
1
10
229.155103930816
20
-16.0943311673466
30
0
41
1
10
228.339515164606
20
-15.9613785964233
30
0
41
1
10
227.931841052022
20
-15.8934268982333
30
0
41
1
10
227.116746469197
20
-15.7545483649583
30
0
41
1
10
226.709339458821
20
-15.683601048406
30
0
41
1
10
225.894702151587
20
-15.5388360549803
30
0
41
1
10
225.487438387812
20
-15.4650687494618
30
0
41
1
10
224.67294413719
20
-15.3148952109282
30
0
41
1
10
224.265726877979
20
-15.2384692519198
30
0
41
1
10
223.044183393173
20
-15.0051601392467
30
0
41
1
10
222.229961594212
20
-14.8442554343255
30
0
41
1
10
221.008917609948
20
-14.5947296430249
30
0
41
1
10
220.601952130964
20
-14.5101902361699
30
0
41
1
10
219.788132563801
20
-14.3383522137217
30
0
41
1
10
219.381291900844
20
-14.2510289169714
30
0
41
1
10
218.567645267773
20
-14.0737493734099
30
0
41
1
10
218.160805662502
20
-13.9838543937598
30
0
41
1
10
217.347015228761
20
-13.8017099873819
30
0
41
1
10
216.940077996418
20
-13.7094359709159
30
0
41
1
10
215.719159905953
20
-13.428983009286
30
0
41
1
10
214.905068934646
20
-13.2371837572851
30
0
41
1
10
213.683792109601
20
-12.9420776800398
30
0
41
1
10
213.276677453198
20
-12.8424715347231
30
0
41
1
10
212.462415956526
20
-12.6407475359039
30
0
41
1
10
212.055282264793
20
-12.538601346973
30
0
41
1
10
211.240907627186
20
-12.3319414763682
30
0
41
1
10
210.833633324303
20
-12.2274990778745
30
0
41
1
10
210.018830688112
20
-12.0165706542003
30
0
41
1
10
209.611316137187
20
-11.910055346512
30
0
41
1
10
208.388452654989
20
-11.5873200542921
30
0
41
1
10
207.572780368215
20
-11.3679221488953
30
0
41
1
10
206.348702370929
20
-11.0322666758681
30
0
41
1
10
205.940604932174
20
-10.9192909365097
30
0
41
1
10
205.124855716089
20
-10.6912817100862
30
0
41
1
10
204.717140644211
20
-10.5761952757992
30
0
41
1
10
203.901928805866
20
-10.3440972107434
30
0
41
1
10
203.494398731926
20
-10.2271661164817
30
0
41
1
10
202.679410537663
20
-9.99174142356472
30
0
41
1
10
202.271965957843
20
-9.87321517841178
30
0
41
1
10
201.04979925403
20
-9.51515845830522
30
0
41
1
10
200.235240233526
20
-9.2731615821568
30
0
41
1
10
199.013807201695
20
-8.90504136363003
30
0
41
1
10
198.606731511997
20
-8.78147730020845
30
0
41
1
10
197.792730603685
20
-8.53259704431505
30
0
41
1
10
197.385818636389
20
-8.40724643343376
30
0
41
1
10
196.572070423276
20
-8.15497981413432
30
0
41
1
10
196.165200674457
20
-8.02815051006914
30
0
41
1
10
195.351388919374
20
-7.77331666319159
30
0
41
1
10
194.944460731988
20
-7.645276448164
30
0
41
1
10
193.723628803533
20
-7.25924138467386
30
0
41
1
10
192.909673908449
20
-6.99934395748593
30
0
41
1
10
191.688719191813
20
-6.60547692066115
30
0
41
1
10
191.281731582525
20
-6.47351453453146
30
0
41
1
10
190.467763765591
20
-6.2082028691774
30
0
41
1
10
190.06079658951
20
-6.07481755611929
30
0
41
1
10
189.246796258681
20
-5.80685407421799
30
0
41
1
10
188.839729730796
20
-5.67236785299303
30
0
41
1
10
188.025380674497
20
-5.40262174102645
30
0
41
1
10
187.618112280668
20
-5.26732299395698
30
0
41
1
10
186.396045544463
20
-4.86009846062646
30
0
41
1
10
185.580982034418
20
-4.58685640099978
30
0
41
1
10
184.357934497947
20
-4.17412821550835
30
0
41
1
10
183.950177576519
20
-4.03607138947311
30
0
41
1
10
183.13452691114
20
-3.75895463749686
30
0
41
1
10
182.726622504499
20
-3.61984902714949
30
0
41
1
10
181.910701800336
20
-3.34087256309741
30
0
41
1
10
181.502838567341
20
-3.20116182947848
30
0
41
1
10
180.687223156563
20
-2.92153773759168
30
0
41
1
10
180.279484828076
20
-2.78158388159179
30
0
41
1
10
179.056496164842
20
-2.36124290649082
30
0
41
1
10
178.241468157212
20
-2.08038787774726
30
0
41
1
10
177.019449169296
20
-1.65794021655654
30
0
41
1
10
176.612197756346
20
-1.51692703960768
30
0
41
1
10
175.797884667144
20
-1.23446786768
30
0
41
1
10
175.390836078289
20
-1.09298381778706
30
0
41
1
10
174.576855706441
20
-0.809795576615983
30
0
41
1
10
174.169890516592
20
-0.668188552883777
30
0
41
1
10
173.355926551192
20
-0.385191126451815
30
0
41
1
10
172.948941849192
20
-0.243759781649999
30
0
41
1
10
171.727999050181
20
0.180389349241324
30
0
41
1
10
170.914048405587
20
0.462951198167673
30
0
41
1
10
169.693217261758
20
0.886713992748099
30
0
41
1
10
169.286290385499
20
1.02795788696886
30
0
41
1
10
168.47248334177
20
1.3104622651251
30
0
41
1
10
168.065616050839
20
1.45176000296149
30
0
41
1
10
167.25185665825
20
1.73416442022184
30
0
41
1
10
166.8449312925
20
1.87517483129031
30
0
41
1
10
166.030903264616
20
2.15656383681434
30
0
41
1
10
165.623815006965
20
2.29698412589681
30
0
41
1
10
164.402347601862
20
2.7174809175477
30
0
41
1
10
163.587762131793
20
2.99678284259434
30
0
41
1
10
162.365549919334
20
3.41441285396752
30
0
41
1
10
161.958091162596
20
3.55340517036683
30
0
41
1
10
161.143076614166
20
3.83098942926406
30
0
41
1
10
160.735533475694
20
3.96961779135083
30
0
41
1
10
159.920279287713
20
4.24626926379798
30
0
41
1
10
159.512535280591
20
4.38419748133902
30
0
41
1
10
158.696727793846
20
4.65901271769314
30
0
41
1
10
158.28860355772
20
4.79596615630018
30
0
41
1
10
157.064596687208
20
5.20518575000423
30
0
41
1
10
156.248968151516
20
5.47583890924176
30
0
41
1
10
155.02616469298
20
5.87880592217419
30
0
41
1
10
154.618671181445
20
6.01262862305887
30
0
41
1
10
153.803912753314
20
6.27930801591634
30
0
41
1
10
153.396660690216
20
6.4121996014936
30
0
41
1
10
152.582314533391
20
6.67681737723711
30
0
41
1
10
152.175187273931
20
6.80845313208832
30
0
41
1
10
151.360938278383
20
7.07015298557653
30
0
41
1
10
150.953830838492
20
7.20025616313561
30
0
41
1
10
149.732578965299
20
7.58838650169645
30
0
41
1
10
148.91850106231
20
7.8442261614174
30
0
41
1
10
147.697596822975
20
8.22382291122736
30
0
41
1
10
147.29066522344
20
8.34966355465954
30
0
41
1
10
146.476888170107
20
8.59999038028292
30
0
41
1
10
146.070055465853
20
8.72450869698358
30
0
41
1
10
145.256406233601
20
8.97200530985216
30
0
41
1
10
144.849556503244
20
9.09489950907118
30
0
41
1
10
144.035718167931
20
9.33876290998774
30
0
41
1
10
143.628744240216
20
9.45976937779247
30
0
41
1
10
142.407678316166
20
9.82007008377616
30
0
41
1
10
141.593438414656
20
10.0566384516773
30
0
41
1
10
140.37186189047
20
10.4062253646075
30
0
41
1
10
139.964634595812
20
10.521878582124
30
0
41
1
10
139.150122430334
20
10.751456766465
30
0
41
1
10
138.742850029299
20
10.8654107232602
30
0
41
1
10
137.928179028861
20
11.0914198513376
30
0
41
1
10
137.520747590704
20
11.2033982451449
30
0
41
1
10
136.705603431065
20
11.425099892309
30
0
41
1
10
136.297905476782
20
11.5348577584367
30
0
41
1
10
135.482271300135
20
11.7522214750966
30
0
41
1
10
135.074334628849
20
11.8598262928387
30
0
41
1
10
134.258232737262
20
12.072905077654
30
0
41
1
10
133.8501049556
20
12.1783688153479
30
0
41
1
10
133.034251082471
20
12.3870373136514
30
0
41
1
10
132.626451284408
20
12.4902626053092
30
0
41
1
10
131.811119299742
20
12.6945184084949
30
0
41
1
10
131.403599731711
20
12.7955747448191
30
0
41
1
10
130.588759861885
20
12.9953403598209
30
0
41
1
10
130.181406608381
20
13.0939814747699
30
0
41
1
10
129.366744308543
20
13.28861314004
30
0
41
1
10
128.959449836116
20
13.3846339948203
30
0
41
1
10
127.737695534471
20
13.6688670560648
30
0
41
1
10
126.923360841623
20
13.8532456292624
30
0
41
1
10
125.702188180028
20
14.1223068089523
30
0
41
1
10
125.295186574107
20
14.2107437827469
30
0
41
1
10
124.481308596088
20
14.3851335276958
30
0
41
1
10
124.074444800671
20
14.4711078190957
30
0
41
1
10
123.260774299616
20
14.6404406532431
30
0
41
1
10
122.85393457252
20
14.7237419605844
30
0
41
1
10
122.040155161047
20
14.8874707678134
30
0
41
1
10
121.63323036864
20
14.9679242271765
30
0
41
1
10
120.412370809436
20
15.205098011489
30
0
41
1
10
119.598347029161
20
15.3576291479238
30
0
41
1
10
118.377212648104
20
15.5781650581278
30
0
41
1
10
117.970152405949
20
15.6503008382118
30
0
41
1
10
117.156013941376
20
15.7918280716907
30
0
41
1
10
116.748948053154
20
15.8612365142867
30
0
41
1
10
115.934731426469
20
15.9971990573737
30
0
41
1
10
115.527547906538
20
16.0637072340648
30
0
41
1
10
114.712937501462
20
16.1936587438916
30
0
41
1
10
114.305525755584
20
16.2571234236271
30
0
41
1
10
113.082991323573
20
16.4430201975563
30
0
41
1
10
112.267565797684
20
16.560954040965
30
0
41
1
10
111.043898891698
20
16.7289290956766
30
0
41
1
10
110.635889232877
20
16.7834376850246
30
0
41
1
10
109.819851091273
20
16.8894607656366
30
0
41
1
10
109.411997501675
20
16.9409668571056
30
0
41
1
10
108.596531178211
20
17.0408627823926
30
0
41
1
10
108.188885868614
20
17.0892186759295
30
0
41
1
10
107.373678622075
20
17.1826723096467
30
0
41
1
10
106.966131523677
20
17.2277856854389
30
0
41
1
10
105.743678615569
20
17.358326005364
30
0
41
1
10
104.928957153781
20
17.4389539417116
30
0
41
1
10
103.70732198017
20
17.5503814827731
30
0
41
1
10
103.300185818389
20
17.5859379715919
30
0
41
1
10
102.486078051034
20
17.6538796664664
30
0
41
1
10
102.079118866187
20
17.686272372298
30
0
41
1
10
101.265298550547
20
17.7478292245409
30
0
41
1
10
100.858404533004
20
17.7769725950556
30
0
41
1
10
100.044555167296
20
17.8319483454173
30
0
41
1
10
99.6376149554313
20
17.8577904563249
30
0
41
1
10
98.4167677447995
20
17.930407497797
30
0
41
1
10
97.6028302727803
20
17.972275573731
30
0
41
1
10
96.3819425470961
20
18.0252960907343
30
0
41
1
10
95.9749840645024
20
18.041338602741
30
0
41
1
10
95.1610884480034
20
18.0701535951206
30
0
41
1
10
94.7541634854324
20
18.0829285271111
30
0
41
1
10
93.9402698850206
20
18.1051747685065
30
0
41
1
10
93.5332686316699
20
18.1146385486055
30
0
41
1
10
92.7190613300559
20
18.1302402615044
30
0
41
1
10
92.3118707048211
20
18.1363819081156
30
0
41
1
10
91.3539696063827
20
18.1469363341246
30
0
41
1
10
90.8031910913468
20
18.1499814400734
30
0
41
1
10
90.2522800335931
20
18.1500007604069
30
0
0
SPLINE
5
C9
100
AcDbEntity
8
1
62
256
6
ByLayer
370
18
48
1
60
0
100
AcDbSpline
70
4
71
3
72
90
73
86
40
0
40
0
40
0
40
0
40
0.0312500000000018
40
0.0312500000000018
40
0.0625000000000035
40
0.0625000000000035
40
0.0937500000000053
40
0.0937500000000053
40
0.125000000000007
40
0.125000000000007
40
0.140625000000008
40
0.148437500000009
40
0.148437500000009
40
0.15625000000001
40
0.15625000000001
40
0.18750000000001
40
0.18750000000001
40
0.218750000000009
40
0.218750000000009
40
0.250000000000009
40
0.250000000000009
40
0.281250000000009
40
0.281250000000009
40
0.296875000000008
40
0.296875000000008
40
0.304687500000008
40
0.304687500000008
40
0.312500000000008
40
0.312500000000008
40
0.343750000000009
40
0.343750000000009
40
0.375000000000009
40
0.375000000000009
40
0.40625000000001
40
0.40625000000001
40
0.43750000000001
40
0.43750000000001
40
0.445312500000011
40
0.445312500000011
40
0.453125000000011
40
0.468750000000011
40
0.468750000000011
40
0.500000000000012
40
0.531250000000012
40
0.531250000000012
40
0.546875000000012
40
0.546875000000012
40
0.554687500000012
40
0.554687500000012
40
0.562500000000012
40
0.562500000000012
40
0.593750000000013
40
0.593750000000013
40
0.625000000000014
40
0.625000000000014
40
0.656250000000014
40
0.656250000000014
40
0.664062500000014
40
0.664062500000014
40
0.671875000000015
40
0.671875000000015
40
0.687500000000014
40
0.687500000000014
40
0.718750000000013
40
0.718750000000013
40
0.750000000000012
40
0.750000000000012
40
0.78125000000001
40
0.78125000000001
40
0.78906250000001
40
0.78906250000001
40
0.796875000000009
40
0.812500000000008
40
0.812500000000008
40
0.843750000000007
40
0.843750000000007
40
0.875000000000005
40
0.875000000000005
40
0.937500000000003
40
0.937500000000003
40
0.953125000000002
40
0.953125000000002
40
0.968750000000002
40
0.968750000000002
40
1
40
1
40
1
40
1
41
1
10
10
20
16.9082214703326
30
0
41
1
10
9.74534192244904
20
16.8996883623185
30
0
41
1
10
9.49614885836144
20
16.8859165000454
30
0
41
1
10
9.00834990550794
20
16.847111707937
30
0
41
1
10
8.7697441004162
20
16.8220796124921
30
0
41
1
10
8.3029036888676
20
16.759811420906
30
0
41
1
10
8.07466887977107
20
16.7225767020119
30
0
41
1
10
7.62848233271639
20
16.6347674907851
30
0
41
1
10
7.41053004219103
20
16.5841951316735
30
0
41
1
10
7.09135196596296
20
16.4972965401987
30
0
41
1
10
6.93370222195266
20
16.4510840701268
30
0
41
1
10
6.77898546877295
20
16.4004991919161
30
0
41
1
10
6.67649669755244
20
16.3657763326237
30
0
41
1
10
6.62556336319285
20
16.3479076393191
30
0
41
1
10
6.37360709494091
20
16.2563931353833
30
0
41
1
10
6.17985481201377
20
16.1759625226585
30
0
41
1
10
5.80757148275883
20
15.9999311862341
30
0
41
1
10
5.62904028618858
20
15.9043319313333
30
0
41
1
10
5.28704509143911
20
15.6970348082748
30
0
41
1
10
5.12358021075703
20
15.5853391833241
30
0
41
1
10
4.81182784780326
20
15.344667912577
30
0
41
1
10
4.66353851412916
20
15.2156956971783
30
0
41
1
10
4.45279829821972
20
15.0081392059488
30
0
41
1
10
4.38450306919439
20
14.9366010740788
30
0
41
1
10
4.28505244558374
20
14.825590846854
30
0
41
1
10
4.25238595094704
20
14.7879519140652
30
0
41
1
10
4.18812793276881
20
14.7114831889205
30
0
41
1
10
4.15663930247233
20
14.6727769869323
30
0
41
1
10
4.0023690231838
20
14.4768791513304
30
0
41
1
10
3.88908895020832
20
14.3125952050022
30
0
41
1
10
3.68233405106989
20
13.9685725668148
30
0
41
1
10
3.58885906962375
20
13.7888349791936
30
0
41
1
10
3.42168166100679
20
13.4133581595259
30
0
41
1
10
3.34797764948115
20
13.2176208183549
30
0
41
1
10
3.22076691839969
20
12.8093290517764
30
0
41
1
10
3.1672567456752
20
12.5967776962219
30
0
41
1
10
3.11358957885408
20
12.3198549573796
30
0
41
1
10
3.10351698214393
20
12.2638818437749
30
0
41
1
10
3.08482218359784
20
12.1514781673583
30
0
41
1
10
3.05890540936977
20
11.9819407185598
30
0
41
1
10
3.03929873483176
20
11.8096236264729
30
0
41
1
10
3.00837394104309
20
11.4613141218062
30
0
41
1
10
2.98921026748944
20
10.9871086667811
30
0
41
1
10
3.01368921182589
20
10.4934464667324
30
0
41
1
10
3.04862910278319
20
10.1158549469777
30
0
41
1
10
3.06304332951429
20
9.98876595729752
30
0
41
1
10
3.08888151270288
20
9.79627937930039
30
0
41
1
10
3.09819732298116
20
9.73180827173928
30
0
41
1
10
3.11824941716857
20
9.60224485467575
30
0
41
1
10
3.12899165790979
20
9.53713059827811
30
0
41
1
10
3.18596159668425
20
9.21178364044837
30
0
41
1
10
3.24214832754917
20
8.95082404028688
30
0
41
1
10
3.37499837582541
20
8.42776896094949
30
0
41
1
10
3.4516645980995
20
8.16567325153395
30
0
41
1
10
3.62522510289661
20
7.64059561677286
30
0
41
1
10
3.7221208154831
20
7.37761339992312
30
0
41
1
10
3.85599252923738
20
7.04850630145862
30
0
41
1
10
3.88340546725058
20
6.98266600063477
30
0
41
1
10
3.93951515630126
20
6.85095237159913
30
0
41
1
10
3.96823810600792
20
6.78502263027318
30
0
41
1
10
4.05596535625806
20
6.58802904800672
30
0
41
1
10
4.11661854953783
20
6.45753599767048
30
0
41
1
10
4.30493826079686
20
6.06854039881043
30
0
41
1
10
4.43895541875882
20
5.81251764163531
30
0
41
1
10
4.72342126119901
20
5.30705984701225
30
0
41
1
10
4.87387249418998
20
5.05762572399067
30
0
41
1
10
5.19097709351672
20
4.56542963690219
30
0
41
1
10
5.35763237055171
20
4.32266838339754
30
0
41
1
10
5.57606446500436
20
4.02349327748294
30
0
41
1
10
5.62023268198854
20
3.96390749258558
30
0
41
1
10
5.70923322543631
20
3.84561967878031
30
0
41
1
10
5.84385088993906
20
3.6693476952266
30
0
41
1
10
5.98177296241406
20
3.49650307768928
30
0
41
1
10
6.261914701599
20
3.15526138347599
30
0
41
1
10
6.4544027621891
20
2.93369343024472
30
0
41
1
10
6.85035434835285
20
2.50186645338218
30
0
41
1
10
7.05381935757022
20
2.29160899270718
30
0
41
1
10
7.68009413198345
20
1.6771322344222
30
0
41
1
10
8.1187630366753
20
1.2891851787567
30
0
41
1
10
8.69196258915709
20
0.829574705137304
30
0
41
1
10
8.80791583524402
20
0.738872064973634
30
0
41
1
10
9.04148291778647
20
0.56056610624654
30
0
41
1
10
9.15918206528552
20
0.472891584281655
30
0
41
1
10
9.51496947009471
20
0.214180361782212
30
0
41
1
10
9.7557421799614
20
0.0474473201702494
30
0
41
1
10
10
20
-0.113781577766673
30
0
0
SPLINE
5
CA
100
AcDbEntity
8
1
62
256
6
ByLayer
370
18
48
1
60
0
100
AcDbSpline
70
4
71
3
72
14
73
10
40
0
40
0
40
0
40
0
40
0.25
40
0.25
40
0.5
40
0.5
40
0.75
40
0.75
40
1
40
1
40
1
40
1
41
1
10
13.7100023661598
20
-1.89543917760639
30
0
41
1
10
13.3854013076391
20
-1.77932617291077
30
0
41
1
10
13.0648739151914
20
-1.65471719583721
30
0
41
1
10
12.4314471543977
20
-1.38952694969754
30
0
41
1
10
12.1185461805645
20
-1.24894912893114
30
0
41
1
10
11.5002004537327
20
-0.952117242600366
30
0
41
1
10
11.1947568630323
20
-0.795860947580792
30
0
41
1
10
10.5915176238965
20
-0.467206623806504
30
0
41
1
10
10.2937249198852
20
-0.294802683780347
30
0
41
1
10
9.99999999999997
20
-0.113781577766673
30
0
0
SPLINE
5
CB
100
AcDbEntity
8
1
62
256
6
ByLayer
370
18
48
1
60
0
100
AcDbSpline
70
4
71
4
72
16
73
11
40
0
40
0
40
0
40
0
40
0
40
0.341141384096297
40
0.341141384096297
40
0.341141384096297
40
0.843210443129289
40
0.843210443129289
40
0.843210443129289
40
1
40
1
40
1
40
1
40
1
41
0.996594496266233
10
21.9018381777672
20
17.1238416520404
30
0
41
0.994687681730881
10
21.646750732762
20
15.3742454214173
30
0
41
0.994475467243884
10
21.208854089381
20
13.2747882364263
30
0
41
1
10
20.6093650121184
20
11.0392750891766
30
0
41
1
10
19.0340870927191
20
5.96004497727202
30
0
41
0.988033871712585
10
17.8059202719556
20
2.65962944463591
30
0
41
1
10
16.5777534511921
20
0.257086517922914
30
0
41
1
10
15.3468799034365
20
-1.48968690586796
30
0
41
0.998833026473367
10
15.0627276181859
20
-1.82930505881034
30
0
41
0.997592370823914
10
14.7982191075788
20
-2.06918019972347
30
0
41
0.99668848343329
10
14.5606873997205
20
-2.2007689280544
30
0
0
SPLINE
5
CC
100
AcDbEntity
8
1
62
256
6
ByLayer
370
18
48
1
60
0
100
AcDbSpline
70
4
71
3
72
31
73
27
40
0
40
0
40
0
40
0
40
0.125000000000015
40
0.125000000000015
40
0.25000000000003
40
0.25000000000003
40
0.375000000000045
40
0.375000000000045
40
0.390625000000045
40
0.390625000000045
40
0.406250000000045
40
0.437500000000041
40
0.437500000000041
40
0.500000000000033
40
0.500000000000033
40
0.625000000000021
40
0.625000000000021
40
0.75000000000001
40
0.75000000000001
40
0.765625000000009
40
0.765625000000009
40
0.781250000000009
40
0.812500000000009
40
0.875000000000005
40
0.875000000000005
40
1
40
1
40
1
40
1
41
1
10
10
20
16.9082214703326
30
0
41
1
10
10.4554017546825
20
16.9964895962081
30
0
41
1
10
10.9200281684709
20
17.0701046370824
30
0
41
1
10
11.8671478814985
20
17.194178291017
30
0
41
1
10
12.3496449642233
20
17.2446201592856
30
0
41
1
10
13.3325366400612
20
17.326356931556
30
0
41
1
10
13.8329323784792
20
17.3576473726567
30
0
41
1
10
14.4062604200048
20
17.3833356126915
30
0
41
1
10
14.4700675871878
20
17.3860545693967
30
0
41
1
10
14.5975816537011
20
17.391214177288
30
0
41
1
10
14.7888350281689
20
17.3985420394104
30
0
41
1
10
14.980035651605
20
17.4046619405728
30
0
41
1
10
15.3623675846186
20
17.4153504030945
30
0
41
1
10
15.617163151422
20
17.4204112785729
30
0
41
1
10
16.3812796069101
20
17.4297317217034
30
0
41
1
10
16.8903304911784
20
17.4281773556994
30
0
41
1
10
17.9077400002972
20
17.410001019774
30
0
41
1
10
18.4160983248723
20
17.3933672472215
30
0
41
1
10
18.9876251091608
20
17.3656356168686
30
0
41
1
10
19.0511329913905
20
17.3624276143983
30
0
41
1
10
19.1778808319073
20
17.3557705356441
30
0
41
1
10
19.3676959882448
20
17.3454188068818
30
0
41
1
10
19.8084811235704
20
17.3186900120869
30
0
41
1
10
20.1827675985355
20
17.2913163963294
30
0
41
1
10
20.9268868091216
20
17.2304166488896
30
0
41
1
10
21.417040950891
20
17.1816418362795
30
0
41
1
10
21.9018381777821
20
17.1238416520359
30
0
0
LINE
5
7D
100
AcDbEntity
8
81
62
256
6
ByLayer
370
18
48
1
60
0
100
AcDbLine
10
351.5
20
0
30
0
11
356.5
21
0
31
0
39
0
210
0
220
0
230
1
0
LINE
5
7E
100
AcDbEntity
8
SK4
62
256
6
ByLayer
370
18
48
0.05
60
0
100
AcDbLine
10
-75
20
0
30
0
11
356.5
21
0
31
0
39
0
210
0
220
0
230
1
0
LINE
5
80
100
AcDbEntity
8
80
62
256
6
ByLayer
370
18
48
1
60
0
100
AcDbLine
10
0
20
0
30
0
11
-5
21
0
31
0
39
0
210
0
220
0
230
1
0
LINE
5
81
100
AcDbEntity
8
4
62
256
6
ByLayer
370
18
48
0.05
60
0
100
AcDbLine
10
-5
20
0
30
0
11
356.5
21
0
31
0
39
0
210
0
220
0
230
1
0
LINE
5
83
100
AcDbEntity
8
1
62
256
6
ByLayer
370
18
48
1
60
0
100
AcDbLine
10
90.249307
20
18.15
30
0
11
10
21
18.15
31
0
39
0
210
0
220
0
230
1
0
LINE
5
84
100
AcDbEntity
8
1
62
256
6
ByLayer
370
18
48
1
60
0
100
AcDbLine
10
168.262411
20
-18.15
30
0
11
254.246798
21
-18.15
31
0
39
0
210
0
220
0
230
1
0
LINE
5
85
100
AcDbEntity
8
1
62
256
6
ByLayer
370
18
48
1
60
0
100
AcDbLine
10
254.246798
20
18.15
30
0
11
168.262411
21
18.15
31
0
39
0
210
0
220
0
230
1
0
LINE
5
86
100
AcDbEntity
8
1
62
256
6
ByLayer
370
18
48
1
60
0
100
AcDbLine
10
10
20
-18.15
30
0
11
90.249307
21
-18.15
31
0
39
0
210
0
220
0
230
1
0
LINE
5
87
100
AcDbEntity
8
1
62
256
6
ByLayer
370
18
48
1
60
0
100
AcDbLine
10
351.5
20
0
30
0
11
344.584566
21
19
31
0
39
0
210
0
220
0
230
1
0
LINE
5
88
100
AcDbEntity
8
1
62
256
6
ByLayer
370
18
48
1
60
0
100
AcDbLine
10
344.584566
20
-19
30
0
11
351.5
21
0
31
0
39
0
210
0
220
0
230
1
0
LINE
5
89
100
AcDbEntity
8
1
62
256
6
ByLayer
370
18
48
1
60
0
100
AcDbLine
10
10
20
18.15
30
0
11
0
21
20
31
0
39
0
210
0
220
0
230
1
0
LINE
5
8A
100
AcDbEntity
8
1
62
256
6
ByLayer
370
18
48
1
60
0
100
AcDbLine
10
0
20
-20
30
0
11
10
21
-18.15
31
0
39
0
210
0
220
0
230
1
0
LINE
5
8B
100
AcDbEntity
8
1
62
256
6
ByLayer
370
18
48
1
60
0
100
AcDbLine
10
351.5
20
0
30
0
11
344.584566
21
19
31
0
39
0
210
0
220
0
230
1
0
LINE
5
8C
100
AcDbEntity
8
1
62
256
6
ByLayer
370
18
48
1
60
0
100
AcDbLine
10
344.584566
20
-19
30
0
11
351.5
21
0
31
0
39
0
210
0
220
0
230
1
0
LINE
5
8D
100
AcDbEntity
8
1
62
256
6
ByLayer
370
18
48
1
60
0
100
AcDbLine
10
344.584566
20
19
30
0
11
326.5
21
19
31
0
39
0
210
0
220
0
230
1
0
LINE
5
8E
100
AcDbEntity
8
1
62
256
6
ByLayer
370
18
48
1
60
0
100
AcDbLine
10
326.5
20
-19
30
0
11
344.584566
21
-19
31
0
39
0
210
0
220
0
230
1
0
LINE
5
8F
100
AcDbEntity
8
SK1
62
256
6
ByLayer
370
18
48
1
60
0
100
AcDbLine
10
-69
20
-20
30
0
11
0
21
-20
31
0
39
0
210
0
220
0
230
1
0
LINE
5
91
100
AcDbEntity
8
SK1
62
256
6
ByLayer
370
18
48
1
60
0
100
AcDbLine
10
0
20
20
30
0
11
-69
21
20
31
0
39
0
210
0
220
0
230
1
0
LINE
5
92
100
AcDbEntity
8
1
62
256
6
ByLayer
370
18
48
1
60
0
100
AcDbLine
10
0
20
20
30
0
11
0
21
-20
31
0
39
0
210
0
220
0
230
1
0
LINE
5
93
100
AcDbEntity
8
1
62
256
6
ByLayer
370
18
48
1
60
0
100
AcDbLine
10
344.584566
20
19
30
0
11
344.584566
21
18.396709
31
0
39
0
210
0
220
0
230
1
0
LINE
5
94
100
AcDbEntity
8
1
62
256
6
ByLayer
370
18
48
1
60
0
100
AcDbLine
10
344.584566
20
-19
30
0
11
344.584566
21
-2.712154
31
0
39
0
210
0
220
0
230
1
0
LINE
5
95
100
AcDbEntity
8
1
62
256
6
ByLayer
370
18
48
1
60
0
100
AcDbLine
10
10
20
18.15
30
0
11
10
21
16.908221
31
0
39
0
210
0
220
0
230
1
0
LINE
5
96
100
AcDbEntity
8
1
62
256
6
ByLayer
370
18
48
1
60
0
100
AcDbLine
10
10
20
-18.15
30
0
11
10
21
-0.113782
31
0
39
0
210
0
220
0
230
1
0
LINE
5
97
100
AcDbEntity
8
SK1
62
256
6
ByLayer
370
18
48
1
60
0
100
AcDbLine
10
0
20
20
30
0
11
0
21
-20
31
0
39
0
210
0
220
0
230
1
0
LINE
5
98
100
AcDbEntity
8
SK1
62
256
6
ByLayer
370
18
48
1
60
0
100
AcDbLine
10
-9.144737
20
-8.717798
30
0
11
-61.13497
21
-8.717798
31
0
39
0
210
0
220
0
230
1
0
LINE
5
99
100
AcDbEntity
8
SK1
62
256
6
ByLayer
370
18
48
1
60
0
100
AcDbLine
10
-61.13497
20
8.717798
30
0
11
-9.144737
21
8.717798
31
0
39
0
210
0
220
0
230
1
0
LINE
5
9A
100
AcDbEntity
8
SK1
62
256
6
ByLayer
370
18
48
1
60
0
100
AcDbLine
10
-9.144737
20
-8.717798
30
0
11
-9.144737
21
8.717798
31
0
39
0
210
0
220
0
230
1
0
LINE
5
9B
100
AcDbEntity
8
SK1
62
256
6
ByLayer
370
18
48
1
60
0
100
AcDbLine
10
-61.13497
20
-8.717798
30
0
11
-61.13497
21
8.717798
31
0
39
0
210
0
220
0
230
1
0
LINE
5
9C
100
AcDbEntity
8
1
62
256
6
ByLayer
370
18
48
1
60
0
100
AcDbLine
10
344.584566
20
19
30
0
11
344.584566
21
-19
31
0
39
0
210
0
220
0
230
1
0
LINE
5
9D
100
AcDbEntity
8
1
62
256
6
ByLayer
370
18
48
1
60
0
100
AcDbLine
10
344.584566
20
19
30
0
11
344.584566
21
-19
31
0
39
0
210
0
220
0
230
1
0
LINE
5
9E
100
AcDbEntity
8
1
62
256
6
ByLayer
370
18
48
1
60
0
100
AcDbLine
10
344.584566
20
19
30
0
11
344.584566
21
-19
31
0
39
0
210
0
220
0
230
1
0
LINE
5
9F
100
AcDbEntity
8
1
62
256
6
ByLayer
370
18
48
1
60
0
100
AcDbLine
10
326.5
20
19
30
0
11
326.5
21
-19
31
0
39
0
210
0
220
0
230
1
0
LINE
5
A0
100
AcDbEntity
8
1
62
256
6
ByLayer
370
18
48
1
60
0
100
AcDbLine
10
326.5
20
19
30
0
11
326.5
21
-19
31
0
39
0
210
0
220
0
230
1
0
LINE
5
A1
100
AcDbEntity
8
SK2
62
256
6
ByLayer
370
13
48
1
60
0
100
AcDbLine
10
-76.5
20
-20
30
0
11
-76.5
21
49.340455
31
0
39
0
210
0
220
0
230
1
0
LINE
5
A3
100
AcDbEntity
8
SK2
62
256
6
ByLayer
370
13
48
1
60
0
100
AcDbLine
10
-71.5875
20
20
30
0
11
-78.5
21
20
31
0
39
0
210
0
220
0
230
1
0
LINE
5
A4
100
AcDbEntity
8
SK2
62
256
6
ByLayer
370
13
48
1
60
0
100
AcDbLine
10
-71.5875
20
-20
30
0
11
-78.5
21
-20
31
0
39
0
210
0
220
0
230
1
0
LINE
5
A5
100
AcDbEntity
8
1
62
256
6
ByLayer
370
18
48
1
60
1
100
AcDbLine
10
-76.5
20
20
30
0
11
-76.039216
21
16.500002
31
0
39
0
210
0
220
0
230
1
0
LINE
5
A6
100
AcDbEntity
8
1
62
256
6
ByLayer
370
18
48
1
60
1
100
AcDbLine
10
-76.039216
20
16.500002
30
0
11
-76.960784
21
16.499998
31
0
39
0
210
0
220
0
230
1
0
LINE
5
A7
100
AcDbEntity
8
1
62
256
6
ByLayer
370
18
48
1
60
1
100
AcDbLine
10
-76.960784
20
16.499998
30
0
11
-76.5
21
20
31
0
39
0
210
0
220
0
230
1
0
LINE
5
A8
100
AcDbEntity
8
1
62
256
6
ByLayer
370
18
48
1
60
1
100
AcDbLine
10
-76.5
20
-20
30
0
11
-76.960784
21
-16.500002
31
0
39
0
210
0
220
0
230
1
0
LINE
5
A9
100
AcDbEntity
8
1
62
256
6
ByLayer
370
18
48
1
60
1
100
AcDbLine
10
-76.960784
20
-16.500002
30
0
11
-76.039216
21
-16.499998
31
0
39
0
210
0
220
0
230
1
0
LINE
5
AA
100
AcDbEntity
8
1
62
256
6
ByLayer
370
18
48
1
60
1
100
AcDbLine
10
-76.039216
20
-16.499998
30
0
11
-76.5
21
-20
31
0
39
0
210
0
220
0
230
1
0
LINE
5
AB
100
AcDbEntity
8
2
62
256
6
ByLayer
370
13
48
1
60
0
100
AcDbLine
10
359
20
-19
30
0
11
359
21
48.024569
31
0
39
0
210
0
220
0
230
1
0
LINE
5
AD
100
AcDbEntity
8
2
62
256
6
ByLayer
370
13
48
1
60
0
100
AcDbLine
10
346.172066
20
19
30
0
11
361
21
19
31
0
39
0
210
0
220
0
230
1
0
LINE
5
AE
100
AcDbEntity
8
2
62
256
6
ByLayer
370
13
48
1
60
0
100
AcDbLine
10
346.172066
20
-19
30
0
11
361
21
-19
31
0
39
0
210
0
220
0
230
1
0
LINE
5
AF
100
AcDbEntity
8
1
62
256
6
ByLayer
370
18
48
1
60
1
100
AcDbLine
10
359
20
19
30
0
11
359.460784
21
15.500002
31
0
39
0
210
0
220
0
230
1
0
LINE
5
B0
100
AcDbEntity
8
1
62
256
6
ByLayer
370
18
48
1
60
1
100
AcDbLine
10
359.460784
20
15.500002
30
0
11
358.539216
21
15.499998
31
0
39
0
210
0
220
0
230
1
0
LINE
5
B1
100
AcDbEntity
8
1
62
256
6
ByLayer
370
18
48
1
60
1
100
AcDbLine
10
358.539216
20
15.499998
30
0
11
359
21
19
31
0
39
0
210
0
220
0
230
1
0
LINE
5
B2
100
AcDbEntity
8
1
62
256
6
ByLayer
370
18
48
1
60
1
100
AcDbLine
10
359
20
-19
30
0
11
358.539216
21
-15.500002
31
0
39
0
210
0
220
0
230
1
0
LINE
5
B3
100
AcDbEntity
8
1
62
256
6
ByLayer
370
18
48
1
60
1
100
AcDbLine
10
358.539216
20
-15.500002
30
0
11
359.460784
21
-15.499998
31
0
39
0
210
0
220
0
230
1
0
LINE
5
B4
100
AcDbEntity
8
1
62
256
6
ByLayer
370
18
48
1
60
1
100
AcDbLine
10
359.460784
20
-15.499998
30
0
11
359
21
-19
31
0
39
0
210
0
220
0
230
1
0
LINE
5
B5
100
AcDbEntity
8
SK2
62
256
6
ByLayer
370
13
48
1
60
0
100
AcDbLine
10
352.042957
20
-1.491762
30
0
11
358.682423
21
-19.733545
31
0
39
0
210
0
220
0
230
1
0
LINE
5
B6
100
AcDbEntity
8
SK2
62
256
6
ByLayer
370
13
48
1
60
0
100
AcDbLine
10
352.042957
20
1.491762
30
0
11
358.682423
21
19.733545
31
0
39
0
210
0
220
0
230
1
0
LINE
5
B7
100
AcDbEntity
8
1
62
256
6
ByLayer
370
18
48
1
60
1
100
AcDbLine
10
357.998383
20
-17.85416
30
0
11
361.051575
21
-16.082064
31
0
39
0
210
0
220
0
230
1
0
LINE
5
B8
100
AcDbEntity
8
1
62
256
6
ByLayer
370
18
48
1
60
1
100
AcDbLine
10
361.051575
20
-16.082064
30
0
11
361.406196
21
-16.93267
31
0
39
0
210
0
220
0
230
1
0
LINE
5
B9
100
AcDbEntity
8
1
62
256
6
ByLayer
370
18
48
1
60
1
100
AcDbLine
10
361.406196
20
-16.93267
30
0
11
357.998383
21
-17.85416
31
0
39
0
210
0
220
0
230
1
0
LINE
5
BA
100
AcDbEntity
8
1
62
256
6
ByLayer
370
18
48
1
60
1
100
AcDbLine
10
357.998383
20
17.85416
30
0
11
361.406193
21
16.932671
31
0
39
0
210
0
220
0
230
1
0
LINE
5
BB
100
AcDbEntity
8
1
62
256
6
ByLayer
370
18
48
1
60
1
100
AcDbLine
10
361.406193
20
16.932671
30
0
11
361.051579
21
16.082063
31
0
39
0
210
0
220
0
230
1
0
LINE
5
BC
100
AcDbEntity
8
1
62
256
6
ByLayer
370
18
48
1
60
1
100
AcDbLine
10
361.051579
20
16.082063
30
0
11
357.998383
21
17.85416
31
0
39
0
210
0
220
0
230
1
0
LINE
5
D1
100
AcDbEntity
8
1
62
256
6
ByLayer
370
18
48
1
60
1
100
AcDbLine
10
-76.5
20
20
30
0
11
-76.039216
21
16.500002
31
0
39
0
210
0
220
0
230
1
0
LINE
5
D2
100
AcDbEntity
8
1
62
256
6
ByLayer
370
18
48
1
60
1
100
AcDbLine
10
-76.039216
20
16.500002
30
0
11
-76.960784
21
16.499998
31
0
39
0
210
0
220
0
230
1
0
LINE
5
D3
100
AcDbEntity
8
1
62
256
6
ByLayer
370
18
48
1
60
1
100
AcDbLine
10
-76.960784
20
16.499998
30
0
11
-76.5
21
20
31
0
39
0
210
0
220
0
230
1
0
LINE
5
D5
100
AcDbEntity
8
1
62
256
6
ByLayer
370
18
48
1
60
1
100
AcDbLine
10
-76.5
20
-20
30
0
11
-76.960784
21
-16.500002
31
0
39
0
210
0
220
0
230
1
0
LINE
5
D6
100
AcDbEntity
8
1
62
256
6
ByLayer
370
18
48
1
60
1
100
AcDbLine
10
-76.960784
20
-16.500002
30
0
11
-76.039216
21
-16.499998
31
0
39
0
210
0
220
0
230
1
0
LINE
5
D7
100
AcDbEntity
8
1
62
256
6
ByLayer
370
18
48
1
60
1
100
AcDbLine
10
-76.039216
20
-16.499998
30
0
11
-76.5
21
-20
31
0
39
0
210
0
220
0
230
1
0
LINE
5
DB
100
AcDbEntity
8
1
62
256
6
ByLayer
370
18
48
1
60
1
100
AcDbLine
10
359
20
19
30
0
11
359.460784
21
15.500002
31
0
39
0
210
0
220
0
230
1
0
LINE
5
DC
100
AcDbEntity
8
1
62
256
6
ByLayer
370
18
48
1
60
1
100
AcDbLine
10
359.460784
20
15.500002
30
0
11
358.539216
21
15.499998
31
0
39
0
210
0
220
0
230
1
0
LINE
5
DD
100
AcDbEntity
8
1
62
256
6
ByLayer
370
18
48
1
60
1
100
AcDbLine
10
358.539216
20
15.499998
30
0
11
359
21
19
31
0
39
0
210
0
220
0
230
1
0
LINE
5
DF
100
AcDbEntity
8
1
62
256
6
ByLayer
370
18
48
1
60
1
100
AcDbLine
10
359
20
-19
30
0
11
358.539216
21
-15.500002
31
0
39
0
210
0
220
0
230
1
0
LINE
5
E0
100
AcDbEntity
8
1
62
256
6
ByLayer
370
18
48
1
60
1
100
AcDbLine
10
358.539216
20
-15.500002
30
0
11
359.460784
21
-15.499998
31
0
39
0
210
0
220
0
230
1
0
LINE
5
E1
100
AcDbEntity
8
1
62
256
6
ByLayer
370
18
48
1
60
1
100
AcDbLine
10
359.460784
20
-15.499998
30
0
11
359
21
-19
31
0
39
0
210
0
220
0
230
1
0
LINE
5
E4
100
AcDbEntity
8
1
62
256
6
ByLayer
370
18
48
1
60
1
100
AcDbLine
10
357.998383
20
-17.85416
30
0
11
361.051575
21
-16.082064
31
0
39
0
210
0
220
0
230
1
0
LINE
5
E5
100
AcDbEntity
8
1
62
256
6
ByLayer
370
18
48
1
60
1
100
AcDbLine
10
361.051575
20
-16.082064
30
0
11
361.406196
21
-16.93267
31
0
39
0
210
0
220
0
230
1
0
LINE
5
E6
100
AcDbEntity
8
1
62
256
6
ByLayer
370
18
48
1
60
1
100
AcDbLine
10
361.406196
20
-16.93267
30
0
11
357.998383
21
-17.85416
31
0
39
0
210
0
220
0
230
1
0
LINE
5
E8
100
AcDbEntity
8
1
62
256
6
ByLayer
370
18
48
1
60
1
100
AcDbLine
10
357.998383
20
17.85416
30
0
11
361.406193
21
16.932671
31
0
39
0
210
0
220
0
230
1
0
LINE
5
E9
100
AcDbEntity
8
1
62
256
6
ByLayer
370
18
48
1
60
1
100
AcDbLine
10
361.406193
20
16.932671
30
0
11
361.051579
21
16.082063
31
0
39
0
210
0
220
0
230
1
0
LINE
5
EA
100
AcDbEntity
8
1
62
256
6
ByLayer
370
18
48
1
60
1
100
AcDbLine
10
361.051579
20
16.082063
30
0
11
357.998383
21
17.85416
31
0
39
0
210
0
220
0
230
1
0
MTEXT
5
CD
100
AcDbEntity
8
SK2
62
256
6
ByLayer
370
18
48
1
60
0
100
AcDbMText
10
-77.841114
20
31.658438
30
0
210
0
220
0
230
1
1
%%c
40
3
41
0
44
1.084337
50
90
71
7
72
5
7
iso_b_vert
0
MTEXT
5
D0
100
AcDbEntity
8
SK2
62
256
6
ByLayer
370
18
48
1
60
0
100
AcDbMText
10
-77.841114
20
37.635
30
0
210
0
220
0
230
1
1
\W0.7728;40.000
40
3
41
0
44
1.084337
50
90
71
7
72
5
7
iso_b_vert
0
MTEXT
5
D9
100
AcDbEntity
8
2
62
256
6
ByLayer
370
18
48
1
60
0
100
AcDbMText
10
357.658886
20
30.658438
30
0
210
0
220
0
230
1
1
%%c
40
3
41
0
44
1.084337
50
90
71
7
72
5
7
iso_b_vert
0
MTEXT
5
DA
100
AcDbEntity
8
2
62
256
6
ByLayer
370
18
48
1
60
0
100
AcDbMText
10
357.658886
20
36.635
30
0
210
0
220
0
230
1
1
\W0.7513;38.000
40
3
41
0
44
1.084337
50
90
71
7
72
5
7
iso_b_vert
0
MTEXT
5
E3
100
AcDbEntity
8
SK2
62
256
6
ByLayer
370
18
48
1
60
0
100
AcDbMText
10
371.409114
20
3.734657
30
0
210
0
220
0
230
1
1
\W0.7071;140%%d
40
3
41
0
44
1.084337
50
270
71
7
72
5
7
iso_b_vert
0
MTEXT
5
EC
100
AcDbEntity
8
SK6
62
256
6
ByLayer
370
18
48
1
60
0
100
AcDbMText
10
116.46286
20
-67.114886
30
0
210
0
220
0
230
1
1
\W0.7680;H85838.0
40
3
41
0
44
1.084337
50
0
71
7
72
5
7
iso_b_vert
0
HATCH
5
D4
100
AcDbEntity
8
SK2
62
256
6
ByLayer
370
13
48
1
60
0
100
AcDbHatch
10
0
20
0
30
0
210
0
220
0
230
1
2
ANSI31
70
0
71
0
91
1
92
5
93
3
72
1
10
-76.5
20
20
11
-76.0392162584472
21
16.5000016925532
72
1
10
-76.0392162584472
20
16.5000016925532
11
-76.9607837415528
21
16.4999983074468
72
1
10
-76.9607837415528
20
16.4999983074468
11
-76.5
21
20
97
0
75
0
76
1
52
0
41
0.0062
77
0
78
1
53
45
43
0
44
0
45
-0.0139193969876572
46
0.0139193969876572
79
0
47
0
98
1
10
0
20
0
0
HATCH
5
D8
100
AcDbEntity
8
SK2
62
256
6
ByLayer
370
13
48
1
60
0
100
AcDbHatch
10
0
20
0
30
0
210
0
220
0
230
1
2
ANSI31
70
0
71
0
91
1
92
5
93
3
72
1
10
-76.5
20
-20
11
-76.9607837415528
21
-16.5000016925532
72
1
10
-76.9607837415528
20
-16.5000016925532
11
-76.0392162584472
21
-16.4999983074468
72
1
10
-76.0392162584472
20
-16.4999983074468
11
-76.5
21
-20
97
0
75
0
76
1
52
0
41
0.0062
77
0
78
1
53
45
43
0
44
0
45
-0.0139193969876572
46
0.0139193969876572
79
0
47
0
98
1
10
0
20
0
0
HATCH
5
DE
100
AcDbEntity
8
2
62
256
6
ByLayer
370
13
48
1
60
0
100
AcDbHatch
10
0
20
0
30
0
210
0
220
0
230
1
2
ANSI31
70
0
71
0
91
1
92
5
93
3
72
1
10
359
20
19
11
359.460783741553
21
15.5000016925532
72
1
10
359.460783741553
20
15.5000016925532
11
358.539216258447
21
15.4999983074468
72
1
10
358.539216258447
20
15.4999983074468
11
359
21
19
97
0
75
0
76
1
52
0
41
0.0062
77
0
78
1
53
45
43
0
44
0
45
-0.0139193969876572
46
0.0139193969876572
79
0
47
0
98
1
10
0
20
0
0
HATCH
5
E2
100
AcDbEntity
8
2
62
256
6
ByLayer
370
13
48
1
60
0
100
AcDbHatch
10
0
20
0
30
0
210
0
220
0
230
1
2
ANSI31
70
0
71
0
91
1
92
5
93
3
72
1
10
359
20
-19
11
358.539216258447
21
-15.5000016925532
72
1
10
358.539216258447
20
-15.5000016925532
11
359.460783741553
21
-15.4999983074468
72
1
10
359.460783741553
20
-15.4999983074468
11
359
21
-19
97
0
75
0
76
1
52
0
41
0.0062
77
0
78
1
53
45
43
0
44
0
45
-0.0139193969876572
46
0.0139193969876572
79
0
47
0
98
1
10
0
20
0
0
HATCH
5
E7
100
AcDbEntity
8
SK2
62
256
6
ByLayer
370
13
48
1
60
0
100
AcDbHatch
10
0
20
0
30
0
210
0
220
0
230
1
2
ANSI31
70
0
71
0
91
1
92
5
93
3
72
1
10
357.998382723188
20
-17.8541597949322
11
361.051575425693
21
-16.0820638240607
72
1
10
361.051575425693
20
-16.0820638240607
11
361.406195833975
21
-16.9326700737196
72
1
10
361.406195833975
20
-16.9326700737196
11
357.998382723188
21
-17.8541597949322
97
0
75
0
76
1
52
0
41
0.0062
77
0
78
1
53
45
43
0
44
0
45
-0.0139193969876572
46
0.0139193969876572
79
0
47
0
98
1
10
0
20
0
0
HATCH
5
EB
100
AcDbEntity
8
SK2
62
256
6
ByLayer
370
13
48
1
60
0
100
AcDbHatch
10
0
20
0
30
0
210
0
220
0
230
1
2
ANSI31
70
0
71
0
91
1
92
5
93
3
72
1
10
357.998382723188
20
17.8541597949322
11
361.406192709519
21
16.9326713763016
72
1
10
361.406192709519
20
16.9326713763016
11
361.051578550149
21
16.0820625214787
72
1
10
361.051578550149
20
16.0820625214787
11
357.998382723188
21
17.8541597949322
97
0
75
0
76
1
52
0
41
0.0062
77
0
78
1
53
45
43
0
44
0
45
-0.0139193969876572
46
0.0139193969876572
79
0
47
0
98
1
10
0
20
0
0
DIMENSION
5
EF
100
AcDbEntity
8
SK2
62
256
6
ByLayer
370
18
48
1
60
0
100
AcDbDimension
2
_U0
10
351.5
20
-50.061051
30
0
11
140.75
21
-50.061051
31
0
70
32
71
1
72
1
41
1
210
0
220
0
230
1
3
Standard
100
AcDbAlignedDimension
13
-70
23
-20
33
0
14
351.5
24
0
34
0
50
0
100
AcDbRotatedDimension
1001
ACAD
1000
DSTYLE
1002
{
1070
   371
1070
    13
1070
   372
1070
    13
1070
     3
1000

1070
   170
1070
     0
1070
   144
1040
1.0
1070
   277
1070
     2
1070
   284
1070
     8
1070
   278
1070
    46
1070
   146
1040
1.166667
1070
   345
1005
16
1070
   347
1005
16
1070
   346
1005
16
1070
   344
1005
0
1070
   343
1005
0
1070
   172
1070
     1
1070
    76
1070
     0
1070
    75
1070
     0
1070
   282
1070
     0
1070
   281
1070
     0
1070
    71
1070
     0
1070
    74
1070
     0
1070
   279
1070
     0
1070
   173
1070
     1
1070
   340
1005
CE
1070
   271
1070
     2
1070
   272
1070
     3
1070
    77
1070
     1
1070
    73
1070
     1
1070
   171
1070
     3
1070
   274
1070
     4
1070
   177
1070
     2
1070
   176
1070
     2
1070
   178
1070
     2
1070
    78
1070
     8
1070
    48
1040
-0.1
1070
    41
1040
3.5
1070
   147
1040
1.5
1070
    42
1040
1.5875
1070
    44
1040
2.0
1070
   140
1040
3.0
1002
}
1001
ACAD_DSTYLE_DIM_LINETYPE
1070
   380
1005
16
1001
ACAD_DSTYLE_DIM_EXT1_LINETYPE
1070
   381
1005
16
1001
ACAD_DSTYLE_DIM_EXT2_LINETYPE
1070
   382
1005
16
0
DIMENSION
5
108
100
AcDbEntity
8
SK2
62
256
6
ByLayer
370
18
48
1
60
0
100
AcDbDimension
2
_U1
10
3
20
-40.061051
30
0
11
177.25
21
-40.061051
31
0
70
32
71
1
72
1
41
1
210
0
220
0
230
1
3
Standard
100
AcDbAlignedDimension
13
351.5
23
0
33
0
14
3
24
-19
34
0
50
0
100
AcDbRotatedDimension
1001
ACAD
1000
DSTYLE
1002
{
1070
   371
1070
    13
1070
   372
1070
    13
1070
     3
1000

1070
   170
1070
     0
1070
   144
1040
1.0
1070
   277
1070
     2
1070
   284
1070
     8
1070
   278
1070
    46
1070
   146
1040
1.166667
1070
   345
1005
16
1070
   347
1005
16
1070
   346
1005
16
1070
   344
1005
0
1070
   343
1005
0
1070
   172
1070
     1
1070
    76
1070
     0
1070
    75
1070
     0
1070
   282
1070
     0
1070
   281
1070
     0
1070
    71
1070
     0
1070
    74
1070
     0
1070
   279
1070
     0
1070
   173
1070
     1
1070
   340
1005
CE
1070
   271
1070
     2
1070
   272
1070
     3
1070
    77
1070
     1
1070
    73
1070
     1
1070
   171
1070
     3
1070
   274
1070
     4
1070
   177
1070
     2
1070
   176
1070
     2
1070
   178
1070
     2
1070
    78
1070
     8
1070
    48
1040
-0.1
1070
    41
1040
3.5
1070
   147
1040
1.5
1070
    42
1040
1.5875
1070
    44
1040
2.0
1070
   140
1040
3.0
1002
}
1001
ACAD_DSTYLE_DIM_LINETYPE
1070
   380
1005
16
1001
ACAD_DSTYLE_DIM_EXT1_LINETYPE
1070
   381
1005
16
1001
ACAD_DSTYLE_DIM_EXT2_LINETYPE
1070
   382
1005
16
0
DIMENSION
5
120
100
AcDbEntity
8
SK2
62
256
6
ByLayer
370
18
48
1
60
0
100
AcDbDimension
2
_U2
10
0
20
-40.061051
30
0
11
-35
21
-40.061051
31
0
70
32
71
1
72
1
41
1
210
0
220
0
230
1
3
Standard
100
AcDbAlignedDimension
13
-70
23
-20
33
0
14
0
24
-20
34
0
50
0
100
AcDbRotatedDimension
1001
ACAD
1000
DSTYLE
1002
{
1070
   371
1070
    13
1070
   372
1070
    13
1070
     3
1000

1070
   170
1070
     0
1070
   144
1040
1.0
1070
   277
1070
     2
1070
   284
1070
     8
1070
   278
1070
    46
1070
   146
1040
1.166667
1070
   345
1005
16
1070
   347
1005
16
1070
   346
1005
16
1070
   344
1005
0
1070
   343
1005
0
1070
   172
1070
     1
1070
    76
1070
     0
1070
    75
1070
     0
1070
   282
1070
     0
1070
   281
1070
     0
1070
    71
1070
     0
1070
    74
1070
     0
1070
   279
1070
     0
1070
   173
1070
     1
1070
   340
1005
CE
1070
   271
1070
     2
1070
   272
1070
     3
1070
    77
1070
     1
1070
    73
1070
     1
1070
   171
1070
     3
1070
   274
1070
     4
1070
   177
1070
     2
1070
   176
1070
     2
1070
   178
1070
     2
1070
    78
1070
     8
1070
    48
1040
-0.1
1070
    41
1040
3.5
1070
   147
1040
1.5
1070
    42
1040
1.5875
1070
    44
1040
2.0
1070
   140
1040
3.0
1002
}
1001
ACAD_DSTYLE_DIM_LINETYPE
1070
   380
1005
16
1001
ACAD_DSTYLE_DIM_EXT1_LINETYPE
1070
   381
1005
16
1001
ACAD_DSTYLE_DIM_EXT2_LINETYPE
1070
   382
1005
16
0
DIMENSION
5
138
100
AcDbEntity
8
SK2
62
256
6
ByLayer
370
18
48
1
60
0
100
AcDbDimension
2
_U3
10
25
20
37.061051
30
0
11
188.25
21
37.061051
31
0
70
32
71
1
72
1
41
1
210
0
220
0
230
1
3
Standard
100
AcDbAlignedDimension
13
351.5
23
0
33
0
14
25
24
19
34
0
50
0
100
AcDbRotatedDimension
1001
ACAD
1000
DSTYLE
1002
{
1070
   371
1070
    13
1070
   372
1070
    13
1070
     3
1000

1070
   170
1070
     0
1070
   144
1040
1.0
1070
   277
1070
     2
1070
   284
1070
     8
1070
   278
1070
    46
1070
   146
1040
1.166667
1070
   345
1005
16
1070
   347
1005
16
1070
   346
1005
16
1070
   344
1005
0
1070
   343
1005
0
1070
   172
1070
     1
1070
    76
1070
     0
1070
    75
1070
     0
1070
   282
1070
     0
1070
   281
1070
     0
1070
    71
1070
     0
1070
    74
1070
     0
1070
   279
1070
     0
1070
   173
1070
     1
1070
   340
1005
CE
1070
   271
1070
     2
1070
   272
1070
     3
1070
    77
1070
     1
1070
    73
1070
     1
1070
   171
1070
     3
1070
   274
1070
     4
1070
   177
1070
     2
1070
   176
1070
     2
1070
   178
1070
     2
1070
    78
1070
     8
1070
    48
1040
-0.1
1070
    41
1040
3.5
1070
   147
1040
1.5
1070
    42
1040
1.5875
1070
    44
1040
2.0
1070
   140
1040
3.0
1002
}
1001
ACAD_DSTYLE_DIM_LINETYPE
1070
   380
1005
16
1001
ACAD_DSTYLE_DIM_EXT1_LINETYPE
1070
   381
1005
16
1001
ACAD_DSTYLE_DIM_EXT2_LINETYPE
1070
   382
1005
16
0
ENDSEC
0
SECTION
2
OBJECTS
0
DICTIONARY
5
1c0
330
0
100
AcDbDictionary
280
0
281
1
3
ACAD_GROUP
350
1c1
3
ACAD_MLINESTYLE
350
1c2
0
DICTIONARY
5
1c1
330
0
100
AcDbDictionary
280
0
281
1
0
DICTIONARY
5
1c2
330
0
100
AcDbDictionary
280
0
281
1
3
Standard
350
18
0
MLINESTYLE
5
18
330
1c2
100
AcDbMlineStyle
2
Standard
70
0
3

62
256
51
90
52
90
71
2
49
-0.5
62
256
6
ByLayer
49
0.5
62
256
6
ByLayer
0
RASTERVARIABLES
5
1ae
330

100
AcDbRasterVariables
90
0
70
1
71
1
72
1
0
ENDSEC
0
EOF
