0
SECTION
2
HEADER
9
$ACADVER
1
AC1015
9
$DWGCODEPAGE
3
ANSI_1252
9
$HANDSEED
5
243
9
$ANGBASE
50
0
9
$ANGDIR
70
0
9
$ATTMODE
70
1
9
$AUNITS
70
0
9
$AUPREC
70
0
9
$CECOLOR
62
256
9
$CELTSCALE
40
1
9
$CELTYPE
6
ByLayer
9
$CELWEIGHT
370
18
9
$CLAYER
8
0
9
$CMLJUST
70
0
9
$CMLSCALE
40
1
9
$CMLSTYLE
2
Standard
9
$DIMSTYLE
2
Standard
9
$TEXTSIZE
40
0.2
9
$TEXTSTYLE
7
Standard
9
$LUNITS
70
2
9
$LUPREC
70
4
9
$EXTNAMES
290
1
9
$INSUNITS
70
4
9
$LTSCALE
40
1
9
$LWDISPLAY
290
1
9
$PDMODE
70
0
9
$PDSIZE
40
0
9
$PLINEGEN
70
0
0
ENDSEC
0
SECTION
2
CLASSES
0
CLASS
1
RASTERVARIABLES
2
AcDbRasterVariables
3
ISM
90
0
280
0
281
0
0
ENDSEC
0
SECTION
2
TABLES
0
TABLE
2
VPORT
5
239
100
AcDbSymbolTable
0
VPORT
5
1
100
AcDbSymbolTableRecord
100
AcDbViewportTableRecord
2
*Active
70
0
10
0
20
0
11
1
21
1
12
-1
22
1
13
0
23
0
14
0.5
24
0.5
15
10
25
10
16
0
26
0
36
1
17
0
27
0
37
0
0
ENDTAB
0
TABLE
2
LTYPE
5
23a
100
AcDbSymbolTable
0
LTYPE
5
14
100
AcDbSymbolTableRecord
100
AcDbLinetypeTableRecord
70
0
2
ByBlock
3

72
65
73
0
40
0
0
LTYPE
5
15
100
AcDbSymbolTableRecord
100
AcDbLinetypeTableRecord
70
0
2
ByLayer
3

72
65
73
0
40
0
0
LTYPE
5
16
100
AcDbSymbolTableRecord
100
AcDbLinetypeTableRecord
70
0
2
Continuous
3
Solid line
72
65
73
0
40
0
0
LTYPE
5
6E
100
AcDbSymbolTableRecord
100
AcDbLinetypeTableRecord
70
0
2
CENTER
3
____ _ ____ _ ____ _ ____
72
65
73
4
40
47.5
49
22
74
0
49
-8.5
74
0
49
8.5
74
0
49
-8.5
74
0
0
LTYPE
5
6F
100
AcDbSymbolTableRecord
100
AcDbLinetypeTableRecord
70
0
2
DASHED
3
__ __ __ __ __ __ __ __ __
72
65
73
2
40
25.72
49
12.86
74
0
49
-12.86
74
0
0
ENDTAB
0
TABLE
2
LAYER
5
23b
100
AcDbSymbolTable
0
LAYER
5
10
100
AcDbSymbolTableRecord
100
AcDbLayerTableRecord
2
0
70
0
62
7
6
Continuous
290
1
370
-3
390
0
0
LAYER
5
71
100
AcDbSymbolTableRecord
100
AcDbLayerTableRecord
2
81
70
0
62
-3
6
Continuous
290
1
370
-3
390
0
0
LAYER
5
73
100
AcDbSymbolTableRecord
100
AcDbLayerTableRecord
2
80
70
0
62
-6
6
Continuous
290
1
370
-3
390
0
0
LAYER
5
75
100
AcDbSymbolTableRecord
100
AcDbLayerTableRecord
2
1
70
0
62
4
6
Continuous
290
1
370
-3
390
0
0
LAYER
5
7F
100
AcDbSymbolTableRecord
100
AcDbLayerTableRecord
2
4
70
0
62
-2
6
CENTER
290
1
370
-3
390
0
0
LAYER
5
B3
100
AcDbSymbolTableRecord
100
AcDbLayerTableRecord
2
2
70
0
62
7
6
Continuous
290
1
370
-3
390
0
0
LAYER
5
168
100
AcDbSymbolTableRecord
100
AcDbLayerTableRecord
2
Defpoints
70
0
62
7
6
Continuous
290
0
370
-3
390
0
0
LAYER
5
225
100
AcDbSymbolTableRecord
100
AcDbLayerTableRecord
2
SK4
70
0
62
2
6
CENTER
290
1
370
-3
390
0
0
LAYER
5
226
100
AcDbSymbolTableRecord
100
AcDbLayerTableRecord
2
SK1
70
0
62
4
6
Continuous
290
1
370
-3
390
0
0
LAYER
5
227
100
AcDbSymbolTableRecord
100
AcDbLayerTableRecord
2
SK2
70
0
62
7
6
Continuous
290
1
370
-3
390
0
0
LAYER
5
228
100
AcDbSymbolTableRecord
100
AcDbLayerTableRecord
2
SK6
70
0
62
5
6
Continuous
290
1
370
-3
390
0
0
ENDTAB
0
TABLE
2
STYLE
5
23c
100
AcDbSymbolTable
0
STYLE
5
11
100
AcDbSymbolTableRecord
100
AcDbTextStyleTableRecord
2
Standard
3
txt
70
0
71
0
40
0
41
1
42
0
50
0
0
STYLE
5
144
100
AcDbSymbolTableRecord
100
AcDbTextStyleTableRecord
2
iso_b_vert
3
simplex.shx
70
0
71
0
40
0
41
1
42
0
50
0
0
STYLE
5
145
100
AcDbSymbolTableRecord
100
AcDbTextStyleTableRecord
2
DWGDirectTextStyle
3
simplex
70
0
71
0
40
0
41
1
42
0
50
0
0
ENDTAB
0
TABLE
2
DIMSTYLE
5
23d
100
AcDbSymbolTable
100
AcDbDimStyleTable
0
DIMSTYLE
105
27
100
AcDbSymbolTableRecord
100
AcDbDimStyleTableRecord
2
Standard
70
0
3
<>
41
0.18
42
0.0625
44
0.18
140
0.18
147
0.09
73
0
74
0
77
1
271
2
275
0
278
52
280
0
340
11
0
ENDTAB
0
TABLE
2
VIEW
5
23e
100
AcDbSymbolTable
0
ENDTAB
0
TABLE
2
UCS
5
23f
100
AcDbSymbolTable
0
ENDTAB
0
TABLE
2
APPID
5
240
100
AcDbSymbolTable
0
APPID
5
12
100
AcDbSymbolTableRecord
100
AcDbRegAppTableRecord
2
ACAD
70
0
0
APPID
5
164
100
AcDbSymbolTableRecord
100
AcDbRegAppTableRecord
2
ACAD_DSTYLE_DIMBREAK
70
0
0
APPID
5
1E4
100
AcDbSymbolTableRecord
100
AcDbRegAppTableRecord
2
ACAD_DSTYLE_DIM_LINETYPE
70
0
0
APPID
5
1E5
100
AcDbSymbolTableRecord
100
AcDbRegAppTableRecord
2
ACAD_DSTYLE_DIM_EXT1_LINETYPE
70
0
0
APPID
5
1E6
100
AcDbSymbolTableRecord
100
AcDbRegAppTableRecord
2
ACAD_DSTYLE_DIM_EXT2_LINETYPE
70
0
0
APPID
5
221
100
AcDbSymbolTableRecord
100
AcDbRegAppTableRecord
2
ACAD_MLEADERVER
70
0
0
ENDTAB
0
TABLE
2
BLOCK_RECORD
5
241
100
AcDbSymbolTable
0
BLOCK_RECORD
5
1F
100
AcDbSymbolTableRecord
100
AcDbBlockTableRecord
2
*Model_Space
340
0
70
0
0
BLOCK_RECORD
5
1B
100
AcDbSymbolTableRecord
100
AcDbBlockTableRecord
2
*Paper_Space
340
0
70
0
0
BLOCK_RECORD
5
23
100
AcDbSymbolTableRecord
100
AcDbBlockTableRecord
2
*Paper_Space0
340
0
70
0
0
BLOCK_RECORD
5
169
100
AcDbSymbolTableRecord
100
AcDbBlockTableRecord
2
*D1
340
0
70
0
0
BLOCK_RECORD
5
175
100
AcDbSymbolTableRecord
100
AcDbBlockTableRecord
2
_U0
340
0
70
0
0
BLOCK_RECORD
5
181
100
AcDbSymbolTableRecord
100
AcDbBlockTableRecord
2
*D3
340
0
70
0
0
BLOCK_RECORD
5
18D
100
AcDbSymbolTableRecord
100
AcDbBlockTableRecord
2
_U1
340
0
70
0
0
BLOCK_RECORD
5
199
100
AcDbSymbolTableRecord
100
AcDbBlockTableRecord
2
*D5
340
0
70
0
0
BLOCK_RECORD
5
1A5
100
AcDbSymbolTableRecord
100
AcDbBlockTableRecord
2
_U2
340
0
70
0
0
BLOCK_RECORD
5
1B1
100
AcDbSymbolTableRecord
100
AcDbBlockTableRecord
2
*D7
340
0
70
0
0
BLOCK_RECORD
5
1BD
100
AcDbSymbolTableRecord
100
AcDbBlockTableRecord
2
_U3
340
0
70
0
0
ENDTAB
0
ENDSEC
0
SECTION
2
BLOCKS
0
BLOCK
5
20
100
AcDbEntity
8
0
100
AcDbBlockBegin
2
*Model_Space
70
0
10
0
20
0
30
0
3
*Model_Space
0
ENDBLK
5
21
100
AcDbEntity
8
0
100
AcDbBlockEnd
0
BLOCK
5
1C
100
AcDbEntity
8
0
100
AcDbBlockBegin
2
*Paper_Space
70
0
10
0
20
0
30
0
3
*Paper_Space
0
ENDBLK
5
1D
100
AcDbEntity
8
0
100
AcDbBlockEnd
0
BLOCK
5
24
100
AcDbEntity
8
0
100
AcDbBlockBegin
2
*Paper_Space0
70
0
10
0
20
0
30
0
3
*Paper_Space0
0
ENDBLK
5
25
100
AcDbEntity
8
0
100
AcDbBlockEnd
0
BLOCK
5
16A
100
AcDbEntity
8
0
100
AcDbBlockBegin
2
*D1
70
1
10
0
20
0
30
0
3
*D1
0
LINE
5
16C
100
AcDbEntity
8
0
62
256
6
ByLayer
370
-2
48
1
60
0
100
AcDbLine
10
-56
20
-14.0875
30
0
11
-56
21
-48.705169
31
0
39
0
210
0
220
0
230
1
0
LINE
5
16D
100
AcDbEntity
8
0
62
256
6
ByLayer
370
-2
48
1
60
0
100
AcDbLine
10
224.5
20
-1.5875
30
0
11
224.5
21
-48.705169
31
0
39
0
210
0
220
0
230
1
0
LINE
5
16E
100
AcDbEntity
8
0
62
256
6
ByLayer
370
-2
48
1
60
0
100
AcDbLine
10
-52.5
20
-46.705169
30
0
11
221
21
-46.705169
31
0
39
0
210
0
220
0
230
1
0
SOLID
5
16F
100
AcDbEntity
8
0
62
256
6
ByLayer
370
-1
48
1
60
0
100
AcDbTrace
10
-52.5
20
-46.121836
30
0
11
-52.5
21
-47.288503
31
0
12
-56
22
-46.705169
32
0
13
-56
23
-46.705169
33
0
39
0
210
0
220
0
230
1
0
SOLID
5
170
100
AcDbEntity
8
0
62
256
6
ByLayer
370
-1
48
1
60
0
100
AcDbTrace
10
221
20
-47.288503
30
0
11
221
21
-46.121836
31
0
12
224.5
22
-46.705169
32
0
13
224.5
23
-46.705169
33
0
39
0
210
0
220
0
230
1
0
MTEXT
5
171
100
AcDbEntity
8
0
62
256
6
ByLayer
370
18
48
1
60
0
100
AcDbMText
10
84.25
20
-40.705169
30
0
210
0
220
0
230
1
1
\A1;280.5
40
3
41
0
44
1
50
0
71
5
72
5
7
iso_b_vert
0
POINT
5
172
100
AcDbEntity
8
Defpoints
62
0
6
ByLayer
370
-1
48
1
60
0
100
AcDbPoint
10
-56
20
-12.5
30
0
39
0
210
0
220
0
230
1
50
360
0
POINT
5
173
100
AcDbEntity
8
Defpoints
62
0
6
ByLayer
370
-1
48
1
60
0
100
AcDbPoint
10
224.5
20
0
30
0
39
0
210
0
220
0
230
1
50
360
0
POINT
5
174
100
AcDbEntity
8
Defpoints
62
0
6
ByLayer
370
-1
48
1
60
0
100
AcDbPoint
10
224.5
20
-46.705169
30
0
39
0
210
0
220
0
230
1
50
360
0
ENDBLK
5
16B
100
AcDbEntity
8
0
100
AcDbBlockEnd
0
BLOCK
5
17C
100
AcDbEntity
8
0
100
AcDbBlockBegin
2
_U0
70
0
10
0
20
0
30
0
3
_U0
0
MTEXT
5
176
100
AcDbEntity
8
SK2
62
256
6
ByLayer
370
18
48
1
60
0
100
AcDbMText
10
78.646716
20
-45.820055
30
0
210
0
220
0
230
1
1
\W0.7513;280.50
40
3
41
0
44
1.084337
50
0
71
7
72
5
7
iso_b_vert
0
LINE
5
177
100
AcDbEntity
8
SK2
62
256
6
ByLayer
370
13
48
1
60
0
100
AcDbLine
10
-56
20
-14.0875
30
0
11
-56
21
-48.705169
31
0
39
0
210
0
220
0
230
1
0
LINE
5
178
100
AcDbEntity
8
SK2
62
256
6
ByLayer
370
13
48
1
60
0
100
AcDbLine
10
224.5
20
-1.5875
30
0
11
224.5
21
-48.705169
31
0
39
0
210
0
220
0
230
1
0
LINE
5
179
100
AcDbEntity
8
SK2
62
256
6
ByLayer
370
13
48
1
60
0
100
AcDbLine
10
-56
20
-46.705169
30
0
11
224.5
21
-46.705169
31
0
39
0
210
0
220
0
230
1
0
SOLID
5
17A
100
AcDbEntity
8
SK2
62
256
6
ByLayer
370
18
48
1
60
0
100
AcDbTrace
10
-56
20
-46.705169
30
0
11
-52.500002
21
-46.244386
31
0
12
-52.499998
22
-47.165953
32
0
13
-52.499998
23
-47.165953
33
0
39
0
210
0
220
0
230
1
0
SOLID
5
17B
100
AcDbEntity
8
SK2
62
256
6
ByLayer
370
18
48
1
60
0
100
AcDbTrace
10
224.5
20
-46.705169
30
0
11
221.000002
21
-47.165953
31
0
12
220.999998
22
-46.244386
32
0
13
220.999998
23
-46.244386
33
0
39
0
210
0
220
0
230
1
0
ENDBLK
5
17D
100
AcDbEntity
8
0
100
AcDbBlockEnd
0
BLOCK
5
182
100
AcDbEntity
8
0
100
AcDbBlockBegin
2
*D3
70
1
10
0
20
0
30
0
3
*D3
0
LINE
5
184
100
AcDbEntity
8
0
62
256
6
ByLayer
370
-2
48
1
60
0
100
AcDbLine
10
224.5
20
-1.5875
30
0
11
224.5
21
-38.705169
31
0
39
0
210
0
220
0
230
1
0
LINE
5
185
100
AcDbEntity
8
0
62
256
6
ByLayer
370
-2
48
1
60
0
100
AcDbLine
10
3
20
-13.0875
30
0
11
3
21
-38.705169
31
0
39
0
210
0
220
0
230
1
0
LINE
5
186
100
AcDbEntity
8
0
62
256
6
ByLayer
370
-2
48
1
60
0
100
AcDbLine
10
221
20
-36.705169
30
0
11
6.5
21
-36.705169
31
0
39
0
210
0
220
0
230
1
0
SOLID
5
187
100
AcDbEntity
8
0
62
256
6
ByLayer
370
-1
48
1
60
0
100
AcDbTrace
10
221
20
-37.288503
30
0
11
221
21
-36.121836
31
0
12
224.5
22
-36.705169
32
0
13
224.5
23
-36.705169
33
0
39
0
210
0
220
0
230
1
0
SOLID
5
188
100
AcDbEntity
8
0
62
256
6
ByLayer
370
-1
48
1
60
0
100
AcDbTrace
10
6.5
20
-36.121836
30
0
11
6.5
21
-37.288503
31
0
12
3
22
-36.705169
32
0
13
3
23
-36.705169
33
0
39
0
210
0
220
0
230
1
0
MTEXT
5
189
100
AcDbEntity
8
0
62
256
6
ByLayer
370
18
48
1
60
0
100
AcDbMText
10
113.75
20
-30.705169
30
0
210
0
220
0
230
1
1
\A1;221.5
40
3
41
0
44
1
50
0
71
5
72
5
7
iso_b_vert
0
POINT
5
18A
100
AcDbEntity
8
Defpoints
62
0
6
ByLayer
370
-1
48
1
60
0
100
AcDbPoint
10
224.5
20
0
30
0
39
0
210
0
220
0
230
1
50
360
0
POINT
5
18B
100
AcDbEntity
8
Defpoints
62
0
6
ByLayer
370
-1
48
1
60
0
100
AcDbPoint
10
3
20
-11.5
30
0
39
0
210
0
220
0
230
1
50
360
0
POINT
5
18C
100
AcDbEntity
8
Defpoints
62
0
6
ByLayer
370
-1
48
1
60
0
100
AcDbPoint
10
3
20
-36.705169
30
0
39
0
210
0
220
0
230
1
50
360
0
ENDBLK
5
183
100
AcDbEntity
8
0
100
AcDbBlockEnd
0
BLOCK
5
194
100
AcDbEntity
8
0
100
AcDbBlockBegin
2
_U1
70
0
10
0
20
0
30
0
3
_U1
0
MTEXT
5
18E
100
AcDbEntity
8
SK2
62
256
6
ByLayer
370
18
48
1
60
0
100
AcDbMText
10
108.521658
20
-35.820055
30
0
210
0
220
0
230
1
1
\W0.7022;221.50
40
3
41
0
44
1.084337
50
0
71
7
72
5
7
iso_b_vert
0
LINE
5
18F
100
AcDbEntity
8
SK2
62
256
6
ByLayer
370
13
48
1
60
0
100
AcDbLine
10
224.5
20
-1.5875
30
0
11
224.5
21
-38.705169
31
0
39
0
210
0
220
0
230
1
0
LINE
5
190
100
AcDbEntity
8
SK2
62
256
6
ByLayer
370
13
48
1
60
0
100
AcDbLine
10
3
20
-13.0875
30
0
11
3
21
-38.705169
31
0
39
0
210
0
220
0
230
1
0
LINE
5
191
100
AcDbEntity
8
SK2
62
256
6
ByLayer
370
13
48
1
60
0
100
AcDbLine
10
224.5
20
-36.705169
30
0
11
3
21
-36.705169
31
0
39
0
210
0
220
0
230
1
0
SOLID
5
192
100
AcDbEntity
8
SK2
62
256
6
ByLayer
370
18
48
1
60
0
100
AcDbTrace
10
224.5
20
-36.705169
30
0
11
221.000002
21
-37.165953
31
0
12
220.999998
22
-36.244386
32
0
13
220.999998
23
-36.244386
33
0
39
0
210
0
220
0
230
1
0
SOLID
5
193
100
AcDbEntity
8
SK2
62
256
6
ByLayer
370
18
48
1
60
0
100
AcDbTrace
10
3
20
-36.705169
30
0
11
6.499998
21
-36.244386
31
0
12
6.500002
22
-37.165953
32
0
13
6.500002
23
-37.165953
33
0
39
0
210
0
220
0
230
1
0
ENDBLK
5
195
100
AcDbEntity
8
0
100
AcDbBlockEnd
0
BLOCK
5
19A
100
AcDbEntity
8
0
100
AcDbBlockBegin
2
*D5
70
1
10
0
20
0
30
0
3
*D5
0
LINE
5
19C
100
AcDbEntity
8
0
62
256
6
ByLayer
370
-2
48
1
60
0
100
AcDbLine
10
-56
20
-14.0875
30
0
11
-56
21
-38.705169
31
0
39
0
210
0
220
0
230
1
0
LINE
5
19D
100
AcDbEntity
8
0
62
256
6
ByLayer
370
-2
48
1
60
0
100
AcDbLine
10
0
20
-14.0875
30
0
11
0
21
-38.705169
31
0
39
0
210
0
220
0
230
1
0
LINE
5
19E
100
AcDbEntity
8
0
62
256
6
ByLayer
370
-2
48
1
60
0
100
AcDbLine
10
-52.5
20
-36.705169
30
0
11
-3.5
21
-36.705169
31
0
39
0
210
0
220
0
230
1
0
SOLID
5
19F
100
AcDbEntity
8
0
62
256
6
ByLayer
370
-1
48
1
60
0
100
AcDbTrace
10
-52.5
20
-36.121836
30
0
11
-52.5
21
-37.288503
31
0
12
-56
22
-36.705169
32
0
13
-56
23
-36.705169
33
0
39
0
210
0
220
0
230
1
0
SOLID
5
1A0
100
AcDbEntity
8
0
62
256
6
ByLayer
370
-1
48
1
60
0
100
AcDbTrace
10
-3.5
20
-37.288503
30
0
11
-3.5
21
-36.121836
31
0
12
0
22
-36.705169
32
0
13
0
23
-36.705169
33
0
39
0
210
0
220
0
230
1
0
MTEXT
5
1A1
100
AcDbEntity
8
0
62
256
6
ByLayer
370
18
48
1
60
0
100
AcDbMText
10
-28
20
-30.705169
30
0
210
0
220
0
230
1
1
\A1;56
40
3
41
0
44
1
50
0
71
5
72
5
7
iso_b_vert
0
POINT
5
1A2
100
AcDbEntity
8
Defpoints
62
0
6
ByLayer
370
-1
48
1
60
0
100
AcDbPoint
10
-56
20
-12.5
30
0
39
0
210
0
220
0
230
1
50
360
0
POINT
5
1A3
100
AcDbEntity
8
Defpoints
62
0
6
ByLayer
370
-1
48
1
60
0
100
AcDbPoint
10
0
20
-12.5
30
0
39
0
210
0
220
0
230
1
50
360
0
POINT
5
1A4
100
AcDbEntity
8
Defpoints
62
0
6
ByLayer
370
-1
48
1
60
0
100
AcDbPoint
10
0
20
-36.705169
30
0
39
0
210
0
220
0
230
1
50
360
0
ENDBLK
5
19B
100
AcDbEntity
8
0
100
AcDbBlockEnd
0
BLOCK
5
1AC
100
AcDbEntity
8
0
100
AcDbBlockBegin
2
_U2
70
0
10
0
20
0
30
0
3
_U2
0
MTEXT
5
1A6
100
AcDbEntity
8
SK2
62
256
6
ByLayer
370
18
48
1
60
0
100
AcDbMText
10
-32.48237
20
-35.820055
30
0
210
0
220
0
230
1
1
\W0.7468;56.00
40
3
41
0
44
1.084337
50
0
71
7
72
5
7
iso_b_vert
0
LINE
5
1A7
100
AcDbEntity
8
SK2
62
256
6
ByLayer
370
13
48
1
60
0
100
AcDbLine
10
-56
20
-14.0875
30
0
11
-56
21
-38.705169
31
0
39
0
210
0
220
0
230
1
0
LINE
5
1A8
100
AcDbEntity
8
SK2
62
256
6
ByLayer
370
13
48
1
60
0
100
AcDbLine
10
0
20
-14.0875
30
0
11
0
21
-38.705169
31
0
39
0
210
0
220
0
230
1
0
LINE
5
1A9
100
AcDbEntity
8
SK2
62
256
6
ByLayer
370
13
48
1
60
0
100
AcDbLine
10
-56
20
-36.705169
30
0
11
0
21
-36.705169
31
0
39
0
210
0
220
0
230
1
0
SOLID
5
1AA
100
AcDbEntity
8
SK2
62
256
6
ByLayer
370
18
48
1
60
0
100
AcDbTrace
10
-56
20
-36.705169
30
0
11
-52.500002
21
-36.244386
31
0
12
-52.499998
22
-37.165953
32
0
13
-52.499998
23
-37.165953
33
0
39
0
210
0
220
0
230
1
0
SOLID
5
1AB
100
AcDbEntity
8
SK2
62
256
6
ByLayer
370
18
48
1
60
0
100
AcDbTrace
10
0
20
-36.705169
30
0
11
-3.499998
21
-37.165953
31
0
12
-3.500002
22
-36.244386
32
0
13
-3.500002
23
-36.244386
33
0
39
0
210
0
220
0
230
1
0
ENDBLK
5
1AD
100
AcDbEntity
8
0
100
AcDbBlockEnd
0
BLOCK
5
1B2
100
AcDbEntity
8
0
100
AcDbBlockBegin
2
*D7
70
1
10
0
20
0
30
0
3
*D7
0
LINE
5
1B4
100
AcDbEntity
8
0
62
256
6
ByLayer
370
-2
48
1
60
0
100
AcDbLine
10
224.5
20
1.5875
30
0
11
224.5
21
35.705169
31
0
39
0
210
0
220
0
230
1
0
LINE
5
1B5
100
AcDbEntity
8
0
62
256
6
ByLayer
370
-2
48
1
60
0
100
AcDbLine
10
24
20
13.0875
30
0
11
24
21
35.705169
31
0
39
0
210
0
220
0
230
1
0
LINE
5
1B6
100
AcDbEntity
8
0
62
256
6
ByLayer
370
-2
48
1
60
0
100
AcDbLine
10
221
20
33.705169
30
0
11
27.5
21
33.705169
31
0
39
0
210
0
220
0
230
1
0
SOLID
5
1B7
100
AcDbEntity
8
0
62
256
6
ByLayer
370
-1
48
1
60
0
100
AcDbTrace
10
221
20
33.121836
30
0
11
221
21
34.288503
31
0
12
224.5
22
33.705169
32
0
13
224.5
23
33.705169
33
0
39
0
210
0
220
0
230
1
0
SOLID
5
1B8
100
AcDbEntity
8
0
62
256
6
ByLayer
370
-1
48
1
60
0
100
AcDbTrace
10
27.5
20
34.288503
30
0
11
27.5
21
33.121836
31
0
12
24
22
33.705169
32
0
13
24
23
33.705169
33
0
39
0
210
0
220
0
230
1
0
MTEXT
5
1B9
100
AcDbEntity
8
0
62
256
6
ByLayer
370
18
48
1
60
0
100
AcDbMText
10
124.25
20
39.705169
30
0
210
0
220
0
230
1
1
\A1;200.5
40
3
41
0
44
1
50
0
71
5
72
5
7
iso_b_vert
0
POINT
5
1BA
100
AcDbEntity
8
Defpoints
62
0
6
ByLayer
370
-1
48
1
60
0
100
AcDbPoint
10
224.5
20
0
30
0
39
0
210
0
220
0
230
1
50
360
0
POINT
5
1BB
100
AcDbEntity
8
Defpoints
62
0
6
ByLayer
370
-1
48
1
60
0
100
AcDbPoint
10
24
20
11.5
30
0
39
0
210
0
220
0
230
1
50
360
0
POINT
5
1BC
100
AcDbEntity
8
Defpoints
62
0
6
ByLayer
370
-1
48
1
60
0
100
AcDbPoint
10
24
20
33.705169
30
0
39
0
210
0
220
0
230
1
50
360
0
ENDBLK
5
1B3
100
AcDbEntity
8
0
100
AcDbBlockEnd
0
BLOCK
5
1C4
100
AcDbEntity
8
0
100
AcDbBlockBegin
2
_U3
70
0
10
0
20
0
30
0
3
_U3
0
MTEXT
5
1BE
100
AcDbEntity
8
SK2
62
256
6
ByLayer
370
18
48
1
60
0
100
AcDbMText
10
118.646716
20
34.590284
30
0
210
0
220
0
230
1
1
\W0.7513;200.50
40
3
41
0
44
1.084337
50
0
71
7
72
5
7
iso_b_vert
0
LINE
5
1BF
100
AcDbEntity
8
SK2
62
256
6
ByLayer
370
13
48
1
60
0
100
AcDbLine
10
224.5
20
1.5875
30
0
11
224.5
21
35.705169
31
0
39
0
210
0
220
0
230
1
0
LINE
5
1C0
100
AcDbEntity
8
SK2
62
256
6
ByLayer
370
13
48
1
60
0
100
AcDbLine
10
24
20
13.0875
30
0
11
24
21
35.705169
31
0
39
0
210
0
220
0
230
1
0
LINE
5
1C1
100
AcDbEntity
8
SK2
62
256
6
ByLayer
370
13
48
1
60
0
100
AcDbLine
10
224.5
20
33.705169
30
0
11
24
21
33.705169
31
0
39
0
210
0
220
0
230
1
0
SOLID
5
1C2
100
AcDbEntity
8
SK2
62
256
6
ByLayer
370
18
48
1
60
0
100
AcDbTrace
10
224.5
20
33.705169
30
0
11
221.000002
21
33.244386
31
0
12
220.999998
22
34.165953
32
0
13
220.999998
23
34.165953
33
0
39
0
210
0
220
0
230
1
0
SOLID
5
1C3
100
AcDbEntity
8
SK2
62
256
6
ByLayer
370
18
48
1
60
0
100
AcDbTrace
10
24
20
33.705169
30
0
11
27.499998
21
34.165953
31
0
12
27.500002
22
33.244386
32
0
13
27.500002
23
33.244386
33
0
39
0
210
0
220
0
230
1
0
ENDBLK
5
1C5
100
AcDbEntity
8
0
100
AcDbBlockEnd
0
ENDSEC
0
SECTION
2
ENTITIES
0
ARC
5
C4
100
AcDbEntity
8
SK2
62
256
6
ByLayer
370
13
48
1
60
0
100
AcDbCircle
39
0
10
224.5
20
0
30
0
40
19
210
0
220
0
230
1
100
AcDbArc
50
290
51
70
0
ELLIPSE
5
C5
100
AcDbEntity
8
SK1
62
256
6
ByLayer
370
18
48
1
60
0
100
AcDbEllipse
10
-41.343561
20
0
30
0
11
-2.29613691341699E-15
21
-12.5000000000002
31
0
210
0
220
0
230
1
40
0.932515
41
-1.86465462472194
42
-1.27693802886786
0
ELLIPSE
5
C6
100
AcDbEntity
8
SK1
62
256
6
ByLayer
370
18
48
1
60
0
100
AcDbEllipse
10
276.680659
20
0
30
0
11
357.953166043254
21
-4.05596621644435E-13
31
0
210
0
220
0
230
1
40
0.034921
41
2.52406396812455
42
2.73005601344533
0
ELLIPSE
5
C7
100
AcDbEntity
8
SK1
62
256
6
ByLayer
370
18
48
1
60
0
100
AcDbEllipse
10
276.680659
20
0
30
0
11
357.953166032003
21
-4.05596621631686E-13
31
0
210
0
220
0
230
1
40
0.034921
41
-2.73005601344242
42
-2.52406396811705
0
ELLIPSE
5
C8
100
AcDbEntity
8
SK1
62
256
6
ByLayer
370
18
48
1
60
0
100
AcDbEllipse
10
-25.404609
20
0
30
0
11
13.4046088753088
21
-1.51887581674114E-14
31
0
210
0
220
0
230
1
40
0.932515
41
-0.555530755442636
42
0.555530755442635
0
POINT
5
70
100
AcDbEntity
8
81
62
256
6
ByLayer
370
18
48
1
60
0
100
AcDbPoint
10
224.5
20
0
30
0
39
0
210
0
220
0
230
1
50
360
0
POINT
5
72
100
AcDbEntity
8
80
62
256
6
ByLayer
370
18
48
1
60
0
100
AcDbPoint
10
0
20
0
30
0
39
0
210
0
220
0
230
1
50
360
0
POINT
5
74
100
AcDbEntity
8
1
62
256
6
ByLayer
370
18
48
1
60
1
100
AcDbPoint
10
-56
20
-12.5
30
0
39
0
210
0
220
0
230
1
50
360
0
POINT
5
76
100
AcDbEntity
8
1
62
256
6
ByLayer
370
18
48
1
60
1
100
AcDbPoint
10
224.5
20
0
30
0
39
0
210
0
220
0
230
1
50
360
0
POINT
5
77
100
AcDbEntity
8
1
62
256
6
ByLayer
370
18
48
1
60
1
100
AcDbPoint
10
224.5
20
0
30
0
39
0
210
0
220
0
230
1
50
360
0
POINT
5
78
100
AcDbEntity
8
1
62
256
6
ByLayer
370
18
48
1
60
1
100
AcDbPoint
10
3
20
-11.5
30
0
39
0
210
0
220
0
230
1
50
360
0
POINT
5
79
100
AcDbEntity
8
1
62
256
6
ByLayer
370
18
48
1
60
1
100
AcDbPoint
10
-56
20
-12.5
30
0
39
0
210
0
220
0
230
1
50
360
0
POINT
5
7A
100
AcDbEntity
8
1
62
256
6
ByLayer
370
18
48
1
60
1
100
AcDbPoint
10
0
20
-12.5
30
0
39
0
210
0
220
0
230
1
50
360
0
POINT
5
7B
100
AcDbEntity
8
1
62
256
6
ByLayer
370
18
48
1
60
1
100
AcDbPoint
10
224.5
20
0
30
0
39
0
210
0
220
0
230
1
50
360
0
POINT
5
7C
100
AcDbEntity
8
1
62
256
6
ByLayer
370
18
48
1
60
1
100
AcDbPoint
10
24
20
11.5
30
0
39
0
210
0
220
0
230
1
50
360
0
SPLINE
5
C9
100
AcDbEntity
8
1
62
256
6
ByLayer
370
18
48
1
60
0
100
AcDbSpline
70
4
71
3
72
21
73
17
40
0
40
0
40
0
40
0
40
0.249999999999987
40
0.249999999999987
40
0.374999999999987
40
0.374999999999987
40
0.499999999999987
40
0.499999999999987
40
0.624999999999987
40
0.624999999999987
40
0.749999999999987
40
0.749999999999987
40
0.812499999999987
40
0.812499999999987
40
0.874999999999986
40
1
40
1
40
1
40
1
41
1
10
220.314342305938
20
-1.6412820923303
30
0
41
1
10
219.403794770535
20
-1.31328299817679
30
0
41
1
10
218.493717465492
20
-0.984412519385216
30
0
41
1
10
217.129687485551
20
-0.488742317499373
30
0
41
1
10
216.675243639405
20
-0.322981993280706
30
0
41
1
10
215.766317962799
20
0.0082187401510794
30
0
41
1
10
215.31178869564
20
0.173528347960115
30
0
41
1
10
214.402677766752
20
0.503789950778895
30
0
41
1
10
213.948094515006
20
0.668737538512602
30
0
41
1
10
213.03892516712
20
0.998411508092488
30
0
41
1
10
212.584350923807
20
1.16317052879032
30
0
41
1
10
211.902484394923
20
1.41013335952761
30
0
41
1
10
211.675170876491
20
1.49235940343132
30
0
41
1
10
211.220414523626
20
1.65640168122195
30
0
41
1
10
210.538117863755
20
1.90193806660489
30
0
41
1
10
209.855354997859
20
2.14594983915484
30
0
41
1
10
209.4
20
2.30802219011477
30
0
0
SPLINE
5
CA
100
AcDbEntity
8
1
62
256
6
ByLayer
370
18
48
1
60
0
100
AcDbSpline
70
4
71
3
72
93
73
89
40
0
40
0
40
0
40
0
40
0.0312499999999942
40
0.0312499999999942
40
0.0624999999999884
40
0.0624999999999884
40
0.12499999999998
40
0.12499999999998
40
0.140624999999979
40
0.140624999999979
40
0.148437499999981
40
0.148437499999981
40
0.156249999999982
40
0.187499999999988
40
0.187499999999988
40
0.218749999999994
40
0.218749999999994
40
0.249999999999999
40
0.249999999999999
40
0.281250000000005
40
0.281250000000005
40
0.296875000000008
40
0.296875000000008
40
0.304687500000008
40
0.304687500000008
40
0.312500000000008
40
0.312500000000008
40
0.343750000000007
40
0.343750000000007
40
0.375000000000005
40
0.375000000000005
40
0.406250000000003
40
0.406250000000003
40
0.437500000000002
40
0.437500000000002
40
0.445312500000001
40
0.445312500000001
40
0.453125000000001
40
0.468750000000001
40
0.468750000000001
40
0.500000000000002
40
0.500000000000002
40
0.531250000000002
40
0.531250000000002
40
0.535156250000002
40
0.535156250000002
40
0.539062500000002
40
0.539062500000002
40
0.546875000000002
40
0.562500000000001
40
0.562500000000001
40
0.59375
40
0.59375
40
0.624999999999999
40
0.624999999999999
40
0.632812499999999
40
0.632812499999999
40
0.640624999999999
40
0.656250000000002
40
0.656250000000002
40
0.687500000000007
40
0.687500000000007
40
0.718750000000013
40
0.718750000000013
40
0.726562500000015
40
0.726562500000015
40
0.734375000000017
40
0.734375000000017
40
0.750000000000019
40
0.750000000000019
40
0.781250000000022
40
0.781250000000022
40
0.812500000000024
40
0.812500000000024
40
0.843750000000027
40
0.843750000000027
40
0.851562500000027
40
0.851562500000027
40
0.859375000000027
40
0.875000000000025
40
0.875000000000025
40
0.906250000000019
40
0.937500000000013
40
0.968750000000008
40
0.968750000000008
40
0.984375000000004
40
0.984375000000004
40
1
40
1
40
1
40
1
41
1
10
220.314342305939
20
11.1348411324492
30
0
41
1
10
220.386168573239
20
10.9567432681858
30
0
41
1
10
220.458106901814
20
10.7759705575943
30
0
41
1
10
220.60233031634
20
10.4094961866094
30
0
41
1
10
220.674615271551
20
10.2237936246911
30
0
41
1
10
220.892119391378
20
9.65974536896906
30
0
41
1
10
221.038008635737
20
9.27449142912437
30
0
41
1
10
221.221630639316
20
8.78227299576301
30
0
41
1
10
221.25841641147
20
8.68329399003548
30
0
41
1
10
221.313684546035
20
8.53403023310079
30
0
41
1
10
221.332134789661
20
8.48410876433542
30
0
41
1
10
221.368999771931
20
8.38417645066522
30
0
41
1
10
221.461026961745
20
8.13424624736672
30
0
41
1
10
221.552387279832
20
7.88382719579653
30
0
41
1
10
221.697652694465
20
7.48252879340845
30
0
41
1
10
221.769831029545
20
7.28156612366752
30
0
41
1
10
221.913112798782
20
6.87896670342568
30
0
41
1
10
221.98421776405
20
6.67733044706404
30
0
41
1
10
222.125046384146
20
6.27328204638639
30
0
41
1
10
222.19477291178
20
6.07087094956233
30
0
41
1
10
222.297942940637
20
5.76653818020878
30
0
41
1
10
222.332094454729
20
5.66497386944815
30
0
41
1
10
222.382894483742
20
5.51242253503199
30
0
41
1
10
222.399766024788
20
5.46150877386773
30
0
41
1
10
222.43330268928
20
5.35975928629904
30
0
41
1
10
222.449962187817
20
5.30894097920805
30
0
41
1
10
222.532681250526
20
5.05512008091534
30
0
41
1
10
222.597025750903
20
4.85293199388187
30
0
41
1
10
222.720876888412
20
4.44996077909434
30
0
41
1
10
222.78039166191
20
4.24917898359558
30
0
41
1
10
222.892774611111
20
3.84860238150816
30
0
41
1
10
222.945652299949
20
3.64880844287771
30
0
41
1
10
223.04203633799
20
3.24966511923032
30
0
41
1
10
223.085547038591
20
3.05031411897235
30
0
41
1
10
223.131651395832
20
2.80098713278599
30
0
41
1
10
223.140463550217
20
2.75106391398427
30
0
41
1
10
223.157141576723
20
2.65143654922952
30
0
41
1
10
223.180710569381
20
2.50251591714553
30
0
41
1
10
223.199681622399
20
2.35517611242332
30
0
41
1
10
223.230874434461
20
2.06268468106916
30
0
41
1
10
223.242604303215
20
1.87059773125969
30
0
41
1
10
223.245729477223
20
1.49291601174218
30
0
41
1
10
223.237106208546
20
1.30732433101153
30
0
41
1
10
223.21603122591
20
1.10273006658221
30
0
41
1
10
223.213533170181
20
1.08005579568354
30
0
41
1
10
223.208227167966
20
1.03482620828123
30
0
41
1
10
223.205416640688
20
1.01225233946226
30
0
41
1
10
223.196552367066
20
0.94491167110607
30
0
41
1
10
223.177084977
20
0.811657677083304
30
0
41
1
10
223.152701539176
20
0.682633715723313
30
0
41
1
10
223.098195896707
20
0.430091195368362
30
0
41
1
10
223.054238411272
20
0.269059843820969
30
0
41
1
10
222.955036330771
20
-0.0389041405867943
30
0
41
1
10
222.899800157959
20
-0.18584092540047
30
0
41
1
10
222.825531506638
20
-0.360827970086206
30
0
41
1
10
222.810397449651
20
-0.395426284002497
30
0
41
1
10
222.77971923172
20
-0.463568770420579
30
0
41
1
10
222.733126838405
20
-0.564117079497663
30
0
41
1
10
222.684987301063
20
-0.659766426110707
30
0
41
1
10
222.587018594451
20
-0.844727437707633
30
0
41
1
10
222.519475548453
20
-0.959602120952724
30
0
41
1
10
222.381236587464
20
-1.17304055437535
30
0
41
1
10
222.310531369444
20
-1.2716012960978
30
0
41
1
10
222.220603769019
20
-1.38461850502665
30
0
41
1
10
222.20253980212
20
-1.40671156638987
30
0
41
1
10
222.166261669805
20
-1.44987256978462
30
0
41
1
10
222.148043208972
20
-1.47094376053596
30
0
41
1
10
222.093413625167
20
-1.53234648317121
30
0
41
1
10
222.056949081557
20
-1.57096530672092
30
0
41
1
10
221.947478043644
20
-1.68002704833768
30
0
41
1
10
221.874399580893
20
-1.74368921342884
30
0
41
1
10
221.728179917385
20
-1.85337083026627
30
0
41
1
10
221.655036445225
20
-1.89938850563263
30
0
41
1
10
221.508664036133
20
-1.97379620913216
30
0
41
1
10
221.435434062179
20
-2.00218626992063
30
0
41
1
10
221.343766319155
20
-2.02641510183022
30
0
41
1
10
221.325424896675
20
-2.0306954517302
30
0
41
1
10
221.288895538456
20
-2.03809062982722
30
0
41
1
10
221.234267737058
20
-2.0474530141959
30
0
41
1
10
221.180120837596
20
-2.05168138274379
30
0
41
1
10
221.072420982652
20
-2.0534075706978
30
0
41
1
10
220.930404621878
20
-2.03778455338934
30
0
41
1
10
220.721384358265
20
-1.96152386022013
30
0
41
1
10
220.584216755109
20
-1.8753861508099
30
0
41
1
10
220.481973026367
20
-1.79725002002462
30
0
41
1
10
220.448119106365
20
-1.76903805129928
30
0
41
1
10
220.38089393474
20
-1.70836057017496
30
0
41
1
10
220.347511879791
20
-1.67588680340955
30
0
41
1
10
220.314342305939
20
-1.6412820923307
30
0
0
SPLINE
5
CB
100
AcDbEntity
8
1
62
256
6
ByLayer
370
18
48
1
60
0
100
AcDbSpline
70
4
71
3
72
20
73
16
40
0
40
0
40
0
40
0
40
0.0601503582439317
40
0.0601503582439317
40
0.145591234767217
40
0.145591234767217
40
0.31647298781377
40
0.31647298781377
40
0.487354740860323
40
0.487354740860323
40
0.5727956173836
40
0.5727956173836
40
0.658236493906876
40
0.658236493906876
40
1
40
1
40
1
40
1
41
1
10
212.33178276812
20
11.4985630161351
30
0
41
1
10
212.491775398164
20
11.4985910830375
30
0
41
1
10
212.651750325244
20
11.4981745643276
30
0
41
1
10
213.038963784932
20
11.4960907692056
30
0
41
1
10
213.266216008902
20
11.4939726772416
30
0
41
1
10
213.948040280141
20
11.4849538196921
30
0
41
1
10
214.402627650827
20
11.4753868683596
30
0
41
1
10
215.311785241582
20
11.4491594750532
30
0
41
1
10
215.766358098289
20
11.4324995251683
30
0
41
1
10
216.448142384947
20
11.4021418813327
30
0
41
1
10
216.675391056234
20
11.3911272889201
30
0
41
1
10
217.129855283866
20
11.367293039973
30
0
41
1
10
217.357075714526
20
11.3544735117633
30
0
41
1
10
218.493554998232
20
11.2860573818666
30
0
41
1
10
219.403702376068
20
11.217484360245
30
0
41
1
10
220.314342305937
20
11.1348411324493
30
0
0
SPLINE
5
CC
100
AcDbEntity
8
1
62
256
6
ByLayer
370
18
48
1
60
0
100
AcDbSpline
70
4
71
3
72
176
73
172
40
0
40
0
40
0
40
0
40
0.0314970548850864
40
0.0314970548850864
40
0.0472455823276294
40
0.0472455823276294
40
0.055119846048901
40
0.055119846048901
40
0.0629941097701725
40
0.0629941097701725
40
0.0787426372127151
40
0.0787426372127151
40
0.0944911646552577
40
0.0944911646552577
40
0.102365428376529
40
0.102365428376529
40
0.110239692097801
40
0.110239692097801
40
0.125988219540344
40
0.125988219540344
40
0.141736746982887
40
0.141736746982887
40
0.149611010704159
40
0.149611010704159
40
0.15748527442543
40
0.15748527442543
40
0.188982329310516
40
0.188982329310516
40
0.196856593031788
40
0.196856593031788
40
0.204730856753059
40
0.204730856753059
40
0.220479384195602
40
0.220479384195602
40
0.236227911638145
40
0.236227911638145
40
0.251976439080689
40
0.251976439080689
40
0.267724966523232
40
0.267724966523232
40
0.283473493965775
40
0.283473493965775
40
0.291347757687046
40
0.291347757687046
40
0.299222021408318
40
0.299222021408318
40
0.307096285129589
40
0.307096285129589
40
0.314970548850861
40
0.314970548850861
40
0.330719076293403
40
0.330719076293403
40
0.338593340014675
40
0.338593340014675
40
0.346467603735946
40
0.346467603735946
40
0.362216131178489
40
0.362216131178489
40
0.377964658621032
40
0.377964658621032
40
0.385838922342304
40
0.385838922342304
40
0.393713186063575
40
0.393713186063575
40
0.409461713506118
40
0.409461713506118
40
0.425210240948661
40
0.425210240948661
40
0.433084504669933
40
0.433084504669933
40
0.440958768391204
40
0.440958768391204
40
0.456707295833747
40
0.456707295833747
40
0.464581559555018
40
0.464581559555018
40
0.472455823276289
40
0.472455823276289
40
0.480330086997561
40
0.480330086997561
40
0.488204350718832
40
0.488204350718832
40
0.496078614440103
40
0.496078614440103
40
0.503952878161375
40
0.503952878161375
40
0.519701405603918
40
0.519701405603918
40
0.535449933046461
40
0.535449933046461
40
0.543324196767733
40
0.543324196767733
40
0.551198460489004
40
0.551198460489004
40
0.566946987931547
40
0.566946987931547
40
0.58269551537409
40
0.58269551537409
40
0.590569779095361
40
0.590569779095361
40
0.598444042816632
40
0.598444042816632
40
0.606318306537903
40
0.606318306537903
40
0.614192570259173
40
0.614192570259173
40
0.629941097701716
40
0.629941097701716
40
0.637815361422988
40
0.637815361422988
40
0.645689625144259
40
0.645689625144259
40
0.661438152586803
40
0.661438152586803
40
0.677186680029346
40
0.677186680029346
40
0.685060943750619
40
0.685060943750619
40
0.692935207471891
40
0.692935207471891
40
0.724432262356981
40
0.724432262356981
40
0.732306526078253
40
0.732306526078253
40
0.740180789799526
40
0.740180789799526
40
0.755929317242071
40
0.755929317242071
40
0.763803580963345
40
0.763803580963345
40
0.771677844684618
40
0.771677844684618
40
0.787426372127165
40
0.787426372127165
40
0.803174899569711
40
0.803174899569711
40
0.818923427012258
40
0.818923427012258
40
0.826797690733531
40
0.826797690733531
40
0.834671954454804
40
0.834671954454804
40
0.850420481897351
40
0.850420481897351
40
0.866169009339897
40
0.866169009339897
40
0.874043273061171
40
0.874043273061171
40
0.881917536782445
40
0.881917536782445
40
0.897666064224991
40
0.897666064224991
40
0.913414591667538
40
0.913414591667538
40
0.921288855388811
40
0.921288855388811
40
0.929163119110085
40
0.929163119110085
40
0.944911646552633
40
0.944911646552633
40
0.960660173995181
40
0.960660173995181
40
0.968534437716456
40
0.968534437716456
40
0.97640870143773
40
0.97640870143773
40
0.984282965159004
40
0.984282965159004
40
0.992157228880278
40
0.992157228880278
40
1
40
1
40
1
40
1
41
1
10
18.6470642835275
20
11.1789385627553
30
0
41
1
10
19.6421885168944
20
11.1267964115841
30
0
41
1
10
20.6368790432761
20
11.0583784819851
30
0
41
1
10
22.1274777153337
20
10.9313457152706
30
0
41
1
10
22.6241000384197
20
10.8849138966197
30
0
41
1
10
23.3686243108104
20
10.8090501546946
30
0
41
1
10
23.6167587913807
20
10.7827463793497
30
0
41
1
10
24.1131038571615
20
10.7282481734785
30
0
41
1
10
24.361294198697
20
10.7000380484964
30
0
41
1
10
25.1058855818829
20
10.6125126226683
30
0
41
1
10
25.6023037765112
20
10.5503029346387
30
0
41
1
10
26.5950447462857
20
10.4180327676132
30
0
41
1
10
27.0913661393377
20
10.3479694652139
30
0
41
1
10
27.8357184578948
20
10.236857105357
30
0
41
1
10
28.0838301757844
20
10.1988332026246
30
0
41
1
10
28.5801824394737
20
10.1209837048529
30
0
41
1
10
28.8284360607517
20
10.0811762472582
30
0
41
1
10
29.5733581284082
20
9.95903359367895
30
0
41
1
10
30.0701834452343
20
9.87397423174653
30
0
41
1
10
31.0641550398506
20
9.69645838713561
30
0
41
1
10
31.5612992664475
20
9.60399923043158
30
0
41
1
10
32.3071750909385
20
9.45957254437369
30
0
41
1
10
32.5558099435569
20
9.41044432304028
30
0
41
1
10
33.0533072374523
20
9.31054059481477
30
0
41
1
10
33.302203476623
20
9.2597682932348
30
0
41
1
10
34.5462439866297
20
9.00197266041579
30
0
41
1
10
35.5407518377734
20
8.78302942217718
30
0
41
1
10
36.7823060035344
20
8.49227941305526
30
0
41
1
10
37.0305337612876
20
8.43326385598053
30
0
41
1
10
37.5269501050315
20
8.31373764082838
30
0
41
1
10
37.7751522237281
20
8.25325327096235
30
0
41
1
10
38.5198267242586
20
8.0698190114737
30
0
41
1
10
39.0162871450658
20
7.9447366743594
30
0
41
1
10
40.0091027955839
20
7.68876333885768
30
0
41
1
10
40.5054616599666
20
7.55787952811201
30
0
41
1
10
41.4979686278427
20
7.29004471930256
30
0
41
1
10
41.9940355418808
20
7.15290431928898
30
0
41
1
10
42.9868047089437
20
6.87436867108011
30
0
41
1
10
43.4834156589113
20
6.73278863838954
30
0
41
1
10
44.4769197240981
20
6.44464567430222
30
0
41
1
10
44.9738149178953
20
6.29808662984749
30
0
41
1
10
45.719294060952
20
6.07429723581856
30
0
41
1
10
45.9677958400796
20
5.99900750400755
30
0
41
1
10
46.4648879297864
20
5.84720314150516
30
0
41
1
10
46.7134844772027
20
5.77070318379489
30
0
41
1
10
47.2109211798917
20
5.61686322258305
30
0
41
1
10
47.4597792227459
20
5.53949994523472
30
0
41
1
10
47.9575651499704
20
5.38380885311352
30
0
41
1
10
48.2063996314326
20
5.3055201849304
30
0
41
1
10
48.9527100556424
20
5.06928319305734
30
0
41
1
10
49.4499942283196
20
4.90996811642174
30
0
41
1
10
50.195451066175
20
4.66803737045518
30
0
41
1
10
50.4438583407259
20
4.5869002452348
30
0
41
1
10
50.9405034987935
20
4.42360272359116
30
0
41
1
10
51.1887463300959
20
4.34145455907591
30
0
41
1
10
51.9335484296953
20
4.09433418573431
30
0
41
1
10
52.4301073305888
20
3.92849577768604
30
0
41
1
10
53.4231015890687
20
3.59420476840822
30
0
41
1
10
53.91953299661
20
3.42574118254018
30
0
41
1
10
54.6640058116327
20
3.17085992371781
30
0
41
1
10
54.9121317942773
20
3.08552800947737
30
0
41
1
10
55.4083070292328
20
2.91408093879605
30
0
41
1
10
55.6563656613136
20
2.82799084429396
30
0
41
1
10
56.4006560423244
20
2.56917010714818
30
0
41
1
10
56.8970834741713
20
2.39611474325596
30
0
41
1
10
57.8901922880328
20
2.04841986650453
30
0
41
1
10
58.3868836883793
20
1.873807531984
30
0
41
1
10
59.1320441161176
20
1.61050516735429
30
0
41
1
10
59.3804513423293
20
1.52250643366091
30
0
41
1
10
59.8772938261693
20
1.34600650637924
30
0
41
1
10
60.1257115331944
20
1.25745513688469
30
0
41
1
10
60.8711796331875
20
0.991532903708134
30
0
41
1
10
61.3685739360949
20
0.81426446369349
30
0
41
1
10
62.1151784875398
20
0.548080005324948
30
0
41
1
10
62.3641375326814
20
0.459298693939559
30
0
41
1
10
62.8618043130635
20
0.281721366335631
30
0
41
1
10
63.110562423807
20
0.19290882766532
30
0
41
1
10
63.6079166640229
20
0.0152033755375101
30
0
41
1
10
63.8565144491085
20
-0.0736848109241066
30
0
41
1
10
64.3535253375042
20
-0.251605206157194
30
0
41
1
10
64.6019284109194
20
-0.340665820621695
30
0
41
1
10
65.0986422719491
20
-0.51866567061893
30
0
41
1
10
65.3469616770045
20
-0.607580379141893
30
0
41
1
10
65.8436312415433
20
-0.784941432820233
30
0
41
1
10
66.0919628536159
20
-0.873440665376165
30
0
41
1
10
66.8368934542621
20
-1.13855236294225
30
0
41
1
10
67.3334413922502
20
-1.31474203644282
30
0
41
1
10
68.3262868928283
20
-1.66631619837165
30
0
41
1
10
68.8225704399532
20
-1.84173962947949
30
0
41
1
10
69.5667633165297
20
-2.10438339839931
30
0
41
1
10
69.814823992109
20
-2.19175154786836
30
0
41
1
10
70.3110744844773
20
-2.36575251703488
30
0
41
1
10
70.5592449636456
20
-2.4524390970704
30
0
41
1
10
71.3038586806451
20
-2.71165222927027
30
0
41
1
10
71.8004006358399
20
-2.88334267253811
30
0
41
1
10
72.7936098888473
20
-3.22487068634905
30
0
41
1
10
73.2902711578948
20
-3.39472433955359
30
0
41
1
10
74.0353144748322
20
-3.64821655998602
30
0
41
1
10
74.2836881103482
20
-3.73245208592874
30
0
41
1
10
74.7806282290757
20
-3.90001911597869
30
0
41
1
10
75.0292041426052
20
-3.98332564428253
30
0
41
1
10
75.5265133547674
20
-4.14913261898187
30
0
41
1
10
75.7752478230549
20
-4.2316298469139
30
0
41
1
10
76.2728640221765
20
-4.39584534875345
30
0
41
1
10
76.5217872035865
20
-4.47757638185504
30
0
41
1
10
77.2684615559085
20
-4.72155279735733
30
0
41
1
10
77.7659108478514
20
-4.88252003984545
30
0
41
1
10
78.5115013013333
20
-5.1216381065332
30
0
41
1
10
78.7599199638644
20
-5.20098971024976
30
0
41
1
10
79.2567552550672
20
-5.35842323058861
30
0
41
1
10
79.5051672651469
20
-5.43651846350554
30
0
41
1
10
80.2503535910964
20
-5.66903688605936
30
0
41
1
10
80.7470766489216
20
-5.82169921751094
30
0
41
1
10
81.7402300141884
20
-6.1227322387642
30
0
41
1
10
82.2366731536685
20
-6.27107200636891
30
0
41
1
10
82.9810221497048
20
-6.4905592883913
30
0
41
1
10
83.2290864105814
20
-6.56321509219265
30
0
41
1
10
83.7252396703885
20
-6.7072139986721
30
0
41
1
10
83.9733438742169
20
-6.77852296946224
30
0
41
1
10
85.2141030896959
20
-7.13141088108353
30
0
41
1
10
86.2071759500736
20
-7.40273359684676
30
0
41
1
10
87.4485398330746
20
-7.72930113557319
30
0
41
1
10
87.6968011832255
20
-7.7940081582517
30
0
41
1
10
88.1933887475591
20
-7.92202016106893
30
0
41
1
10
88.4417542029196
20
-7.98524521300675
30
0
41
1
10
89.1871314360833
20
-8.17245536388674
30
0
41
1
10
89.6843838785281
20
-8.29406054281324
30
0
41
1
10
90.4306372653641
20
-8.4719263912215
30
0
41
1
10
90.6794510743168
20
-8.53045682649136
30
0
41
1
10
91.1771930138909
20
-8.64601781583821
30
0
41
1
10
91.4260977283584
20
-8.70304005540791
30
0
41
1
10
92.1723616403931
20
-8.87175889177058
30
0
41
1
10
92.6693753444762
20
-8.98129044634379
30
0
41
1
10
93.6633691626695
20
-9.19278900646049
30
0
41
1
10
94.1603026927091
20
-9.29485878575241
30
0
41
1
10
95.1538456801669
20
-9.49203226220547
30
0
41
1
10
95.65047053386
20
-9.58710987256376
30
0
41
1
10
96.3951018443075
20
-9.72457367823847
30
0
41
1
10
96.643260586171
20
-9.76953632953658
30
0
41
1
10
97.1394661887257
20
-9.85774509197685
30
0
41
1
10
97.3875254696717
20
-9.90097180831071
30
0
41
1
10
98.131864386726
20
-10.0276290308837
30
0
41
1
10
98.6282241815207
20
-10.1081577561965
30
0
41
1
10
99.6210377483859
20
-10.2616827350293
30
0
41
1
10
100.117487918193
20
-10.3346819147681
30
0
41
1
10
100.862154452926
20
-10.4385940872991
30
0
41
1
10
101.110370644036
20
-10.4723045442439
30
0
41
1
10
101.60678758729
20
-10.5378618495177
30
0
41
1
10
101.854998335521
20
-10.5696968649292
30
0
41
1
10
102.599841274381
20
-10.6621624866266
30
0
41
1
10
103.096751731173
20
-10.719698820292
30
0
41
1
10
104.091036901474
20
-10.8268298717713
30
0
41
1
10
104.588425899261
20
-10.8764098817292
30
0
41
1
10
105.334798190063
20
-10.9448335159809
30
0
41
1
10
105.583686536112
20
-10.9666536028318
30
0
41
1
10
106.081273396875
20
-11.0082819900995
30
0
41
1
10
106.32993909318
20
-11.0280998049943
30
0
41
1
10
107.075811421123
20
-11.0843945709741
30
0
41
1
10
107.572985609933
20
-11.1176706166746
30
0
41
1
10
108.567025789571
20
-11.1759209760382
30
0
41
1
10
109.063885640952
20
-11.2008969243551
30
0
41
1
10
109.808848495916
20
-11.2321718196318
30
0
41
1
10
110.057117455536
20
-11.2415636727821
30
0
41
1
10
110.553523563621
20
-11.2582796100911
30
0
41
1
10
110.801653078689
20
-11.2656040770435
30
0
41
1
10
111.297885080172
20
-11.2781509388043
30
0
41
1
10
111.545997677753
20
-11.2833716534886
30
0
41
1
10
112.042306796073
20
-11.2917071022612
30
0
41
1
10
112.290484185431
20
-11.2948257388828
30
0
41
1
10
112.785859219717
20
-11.298968874306
30
0
41
1
10
113.033059724201
20
-11.300002158475
30
0
41
1
10
113.280262937159
20
-11.300000873757
30
0
0
SPLINE
5
CD
100
AcDbEntity
8
1
62
256
6
ByLayer
370
18
48
1
60
0
100
AcDbSpline
70
4
71
3
72
48
73
44
40
0
40
0
40
0
40
0
40
0.003395830931867
40
0.003395830931867
40
0.040307096452911
40
0.040307096452911
40
0.114129627494998
40
0.114129627494998
40
0.187952158537084
40
0.187952158537084
40
0.224863424058129
40
0.224863424058129
40
0.261774689579174
40
0.261774689579174
40
0.335597220621258
40
0.335597220621258
40
0.40941975166334
40
0.40941975166334
40
0.446331017184382
40
0.446331017184382
40
0.483242282705424
40
0.483242282705424
40
0.557064813747515
40
0.557064813747515
40
0.630887344789606
40
0.630887344789606
40
0.667798610310647
40
0.667798610310647
40
0.704709875831689
40
0.704709875831689
40
0.741621141352731
40
0.741621141352731
40
0.778532406873773
40
0.778532406873773
40
0.852354937915849
40
0.852354937915849
40
0.889266203436886
40
0.889266203436886
40
0.926177468957924
40
0.926177468957924
40
0.963088734478961
40
0.963088734478961
40
1
40
1
40
1
40
1
41
1
10
189.217791650797
20
8.35839822087664
30
0
41
1
10
189.240625657227
20
8.36390810458227
30
0
41
1
10
189.263459678969
20
8.36941206117984
30
0
41
1
10
189.53449021321
20
8.43467125172847
30
0
41
1
10
189.782713159259
20
8.4936835350918
30
0
41
1
10
190.527697525812
20
8.6680357570832
30
0
41
1
10
191.024692208131
20
8.78085277091566
30
0
41
1
10
192.019185611676
20
8.99999482939845
30
0
41
1
10
192.516682050144
20
9.10632285229281
30
0
41
1
10
193.263231567793
20
9.2610364012223
30
0
41
1
10
193.512067389373
20
9.3118125877223
30
0
41
1
10
194.009429919262
20
9.41167107447706
30
0
41
1
10
194.258010236077
20
9.4607459254016
30
0
41
1
10
195.003655892274
20
9.60508634092042
30
0
41
1
10
195.50065966788
20
9.6974282354289
30
0
41
1
10
196.494236918031
20
9.87480546582833
30
0
41
1
10
196.990830194819
20
9.95980938538591
30
0
41
1
10
197.735343142597
20
10.0818963352257
30
0
41
1
10
197.983451198457
20
10.1216880982735
30
0
41
1
10
198.479528028408
20
10.1994709975476
30
0
41
1
10
198.727479539113
20
10.2374812363302
30
0
41
1
10
199.471389391346
20
10.3484839199043
30
0
41
1
10
199.967418595767
20
10.4184441654655
30
0
41
1
10
200.959481044173
20
10.5505655009666
30
0
41
1
10
201.455509846535
20
10.6127298822093
30
0
41
1
10
202.199466625313
20
10.7001992112649
30
0
41
1
10
202.447440066488
20
10.7283900229839
30
0
41
1
10
202.943332566298
20
10.7828554743754
30
0
41
1
10
203.191250276383
20
10.8091296474231
30
0
41
1
10
203.687155331935
20
10.8596481989197
30
0
41
1
10
203.935155761337
20
10.8838827359958
30
0
41
1
10
204.431312615562
20
10.9302683225624
30
0
41
1
10
204.679450891715
20
10.9524337424771
30
0
41
1
10
205.424006418639
20
11.0158840688204
30
0
41
1
10
205.9205729794
20
11.0541200106153
30
0
41
1
10
206.665637866955
20
11.1054063164535
30
0
41
1
10
206.914028415444
20
11.1214897902113
30
0
41
1
10
207.410867845916
20
11.1516271549094
30
0
41
1
10
207.659306306245
20
11.1656852841805
30
0
41
1
10
208.156286111319
20
11.1917357789787
30
0
41
1
10
208.404865435017
20
11.2037120429272
30
0
41
1
10
208.902271784333
20
11.2255495506334
30
0
41
1
10
209.151085899528
20
11.2354163977591
30
0
41
1
10
209.4
20
11.2442379202006
30
0
0
SPLINE
5
CE
100
AcDbEntity
8
1
62
256
6
ByLayer
370
18
48
1
60
0
100
AcDbSpline
70
4
71
3
72
72
73
68
40
0
40
0
40
0
40
0
40
0.0352063089666913
40
0.0352063089666913
40
0.0528094634500369
40
0.0528094634500369
40
0.0704126179333826
40
0.0704126179333826
40
0.140825235866765
40
0.140825235866765
40
0.158428390350112
40
0.158428390350112
40
0.176031544833458
40
0.176031544833458
40
0.211237853800151
40
0.211237853800151
40
0.246444162766844
40
0.246444162766844
40
0.264047317250189
40
0.264047317250189
40
0.281650471733534
40
0.281650471733534
40
0.316856780700227
40
0.316856780700227
40
0.35206308966692
40
0.35206308966692
40
0.369666244150266
40
0.369666244150266
40
0.387269398633613
40
0.387269398633613
40
0.422475707600306
40
0.422475707600306
40
0.457682016566999
40
0.457682016566999
40
0.475285171050346
40
0.475285171050346
40
0.492888325533693
40
0.492888325533693
40
0.563300943467083
40
0.563300943467083
40
0.580904097950431
40
0.580904097950431
40
0.598507252433779
40
0.598507252433779
40
0.633713561400475
40
0.633713561400475
40
0.651316715883823
40
0.651316715883823
40
0.668919870367171
40
0.668919870367171
40
0.704126179333868
40
0.704126179333868
40
0.77453879726726
40
0.77453879726726
40
0.792141951750608
40
0.792141951750608
40
0.809745106233955
40
0.809745106233955
40
0.844951415200649
40
0.844951415200649
40
0.880157724167344
40
0.880157724167344
40
0.915364033134038
40
0.915364033134038
40
0.985776651067429
40
0.985776651067429
40
1
40
1
40
1
40
1
41
1
10
209.4
20
2.19470332851347
30
0
41
1
10
208.888945673785
20
2.3737645451827
30
0
41
1
10
208.378238629619
20
2.55194225599536
30
0
41
1
10
207.61274762837
20
2.81800875476733
30
0
41
1
10
207.357671003128
20
2.90647477397252
30
0
41
1
10
206.847588195283
20
3.08267513338637
30
0
41
1
10
206.592570176532
20
3.17037737222793
30
0
41
1
10
205.317591149801
20
3.60689733380201
30
0
41
1
10
204.298022566534
20
3.94992946352443
30
0
41
1
10
203.024427677506
20
4.37190479388485
30
0
41
1
10
202.769764676649
20
4.45598979663504
30
0
41
1
10
202.260380494891
20
4.62309703724421
30
0
41
1
10
202.00566058653
20
4.70612338794052
30
0
41
1
10
201.241425755938
20
4.95364870385427
30
0
41
1
10
200.731834475548
20
5.11659205949013
30
0
41
1
10
199.712517480122
20
5.43851347909418
30
0
41
1
10
199.20279829358
20
5.5975079941046
30
0
41
1
10
198.438188049231
20
5.83317410172256
30
0
41
1
10
198.18330660537
20
5.91124270907798
30
0
41
1
10
197.673420082012
20
6.06615949447124
30
0
41
1
10
197.41840262943
20
6.1429782163236
30
0
41
1
10
196.653105711995
20
6.37146802258866
30
0
41
1
10
196.142604681365
20
6.52122940300944
30
0
41
1
10
195.12107073409
20
6.815797159993
30
0
41
1
10
194.609895085282
20
6.96063933686241
30
0
41
1
10
193.843994085431
20
7.17392517488813
30
0
41
1
10
193.58880856587
20
7.24440080283509
30
0
41
1
10
193.078511699751
20
7.3837684518347
30
0
41
1
10
192.823393553985
20
7.45264708569727
30
0
41
1
10
192.058137077685
20
7.65689934567476
30
0
41
1
10
191.548095419349
20
7.78988909267858
30
0
41
1
10
190.528335130856
20
8.04968344951621
30
0
41
1
10
190.018621180964
20
8.17649796647484
30
0
41
1
10
189.254369317075
20
8.36220443943887
30
0
41
1
10
188.999667831515
20
8.42334464823645
30
0
41
1
10
188.49026464367
20
8.5439129354001
30
0
41
1
10
188.235550676435
20
8.60331877352172
30
0
41
1
10
186.961849884604
20
8.8958516271116
30
0
41
1
10
185.94259665152
20
9.11577217861242
30
0
41
1
10
184.66851429135
20
9.37356964646207
30
0
41
1
10
184.413711270332
20
9.42429244931532
30
0
41
1
10
183.903996221654
20
9.5238450073893
30
0
41
1
10
183.649067791506
20
9.57265062392929
30
0
41
1
10
182.884074739895
20
9.71617365770706
30
0
41
1
10
182.373802940246
20
9.80800068713174
30
0
41
1
10
181.608029038084
20
9.94003444072007
30
0
41
1
10
181.352710601958
20
9.98309479177084
30
0
41
1
10
180.841965356347
20
10.0673245806731
30
0
41
1
10
180.586511067298
20
10.1084987219069
30
0
41
1
10
179.820182874551
20
10.2291593093565
30
0
41
1
10
179.309719718986
20
10.3056841402157
30
0
41
1
10
177.778573937344
20
10.5223617769906
30
0
41
1
10
176.758436172552
20
10.6500779949064
30
0
41
1
10
175.484396680527
20
10.7891988341272
30
0
41
1
10
175.229659152918
20
10.8160033874073
30
0
41
1
10
174.720207998242
20
10.8674707025394
30
0
41
1
10
174.46547161875
20
10.8921166025971
30
0
41
1
10
173.701223665383
20
10.9628038795828
30
0
41
1
10
173.191678231529
20
11.0056019107696
30
0
41
1
10
172.172556971852
20
11.0826220949383
30
0
41
1
10
171.662983989129
20
11.1168467886639
30
0
41
1
10
170.643913570949
20
11.1767193003904
30
0
41
1
10
170.134414165635
20
11.2023479150062
30
0
41
1
10
168.604944716424
20
11.2658907039441
30
0
41
1
10
167.584299519319
20
11.2906800607825
30
0
41
1
10
166.356618249173
20
11.2992804930311
30
0
41
1
10
166.150255942921
20
11.300003279082
30
0
41
1
10
165.943888136955
20
11.2999998932152
30
0
0
SPLINE
5
CF
100
AcDbEntity
8
1
62
256
6
ByLayer
370
18
48
1
60
0
100
AcDbSpline
70
4
71
3
72
133
73
129
40
0
40
0
40
0
40
0
40
0.0192546313880482
40
0.0192546313880482
40
0.0292622371902106
40
0.0292622371902106
40
0.0392698429923734
40
0.0392698429923734
40
0.0793002662010244
40
0.0793002662010244
40
0.0893078720031869
40
0.0893078720031869
40
0.0993154778053494
40
0.0993154778053494
40
0.119330689409674
40
0.119330689409674
40
0.139345901013998
40
0.139345901013998
40
0.149353506816161
40
0.149353506816161
40
0.159361112618324
40
0.159361112618324
40
0.199391535826978
40
0.199391535826978
40
0.209399141629141
40
0.209399141629141
40
0.219406747431304
40
0.219406747431304
40
0.239421959035631
40
0.239421959035631
40
0.259437170639957
40
0.259437170639957
40
0.26944477644212
40
0.26944477644212
40
0.279452382244282
40
0.279452382244282
40
0.319482805452933
40
0.319482805452933
40
0.329490411255095
40
0.329490411255095
40
0.339498017057258
40
0.339498017057258
40
0.359513228661583
40
0.359513228661583
40
0.379528440265909
40
0.379528440265909
40
0.389536046068072
40
0.389536046068072
40
0.399543651870234
40
0.399543651870234
40
0.439574075078885
40
0.439574075078885
40
0.449581680881047
40
0.449581680881047
40
0.45958928668321
40
0.45958928668321
40
0.479604498287536
40
0.479604498287536
40
0.499619709891861
40
0.499619709891861
40
0.509627315694024
40
0.509627315694024
40
0.519634921496186
40
0.519634921496186
40
0.529642527298349
40
0.529642527298349
40
0.539650133100512
40
0.559665344704837
40
0.559665344704837
40
0.569672950507
40
0.569672950507
40
0.579680556309163
40
0.579680556309163
40
0.599695767913489
40
0.599695767913489
40
0.619710979517815
40
0.619710979517815
40
0.629718585319977
40
0.629718585319977
40
0.63972619112214
40
0.63972619112214
40
0.659741402726466
40
0.659741402726466
40
0.679756614330791
40
0.679756614330791
40
0.689764220132954
40
0.689764220132954
40
0.699771825935117
40
0.699771825935117
40
0.719787037539442
40
0.719787037539442
40
0.729794643341605
40
0.729794643341605
40
0.739802249143767
40
0.74980985494593
40
0.74980985494593
40
0.759817460748093
40
0.759817460748093
40
0.769825066550256
40
0.769825066550256
40
0.779832672352418
40
0.799847883956744
40
0.799847883956744
40
0.809855489758906
40
0.809855489758906
40
0.819863095561069
40
0.819863095561069
40
0.839878307165394
40
0.839878307165394
40
0.85989351876972
40
0.85989351876972
40
0.869901124571882
40
0.869901124571882
40
0.879908730374045
40
0.879908730374045
40
0.889916336176208
40
0.889916336176208
40
0.89992394197837
40
0.89992394197837
40
0.919939153582696
40
0.919939153582696
40
0.939954365187021
40
0.939954365187021
40
0.949961970989184
40
0.949961970989184
40
0.959969576791347
40
0.959969576791347
40
1
40
1
40
1
40
1
41
1
10
90.0044875171813
20
-8.35930625585075
30
0
41
1
10
89.5138991092135
20
-8.47720945944212
30
0
41
1
10
89.0234444019257
20
-8.59202377520876
30
0
41
1
10
88.2783471770534
20
-8.76193912092387
30
0
41
1
10
88.0235785659768
20
-8.81924349447104
30
0
41
1
10
87.5141275955574
20
-8.93219816439776
30
0
41
1
10
87.2594398994778
20
-8.98783829493647
30
0
41
1
10
85.9859173906573
20
-9.26138699116567
30
0
41
1
10
84.9667122225078
20
-9.46521113055942
30
0
41
1
10
83.6926231194215
20
-9.70192806808285
30
0
41
1
10
83.4378002254735
20
-9.74836353274742
30
0
41
1
10
82.928152705988
20
-9.83942081207613
30
0
41
1
10
82.6733332478445
20
-9.8840482185964
30
0
41
1
10
81.9086273656926
20
-10.014864506783
30
0
41
1
10
81.39853487728
20
-10.0980528160938
30
0
41
1
10
80.377827102327
20
-10.2564896089751
30
0
41
1
10
79.8672105620125
20
-10.3317374465361
30
0
41
1
10
79.1009636966072
20
-10.4387072261444
30
0
41
1
10
78.8454524430314
20
-10.4733884260108
30
0
41
1
10
78.3347036641286
20
-10.5407144773608
30
0
41
1
10
78.0794276464116
20
-10.5733575512065
30
0
41
1
10
76.8032760465334
20
-10.7312114708428
30
0
41
1
10
75.7829001858714
20
-10.8402411840885
30
0
41
1
10
74.5084868712903
20
-10.9555012095435
30
0
41
1
10
74.2536565533088
20
-10.9774974491487
30
0
41
1
10
73.7441094854014
20
-11.0193757540303
30
0
41
1
10
73.4894028368148
20
-11.0392623053581
30
0
41
1
10
72.7252217149463
20
-11.0956034335087
30
0
41
1
10
72.2157093476192
20
-11.1287639931332
30
0
41
1
10
71.1966197868425
20
-11.1863788731337
30
0
41
1
10
70.6870411565354
20
-11.210833573026
30
0
41
1
10
69.9226960679875
20
-11.2409974485919
30
0
41
1
10
69.6679204479056
20
-11.2499653710582
30
0
41
1
10
69.1583794313681
20
-11.2657154526282
30
0
41
1
10
68.9036089545874
20
-11.2724952241448
30
0
41
1
10
67.629498903087
20
-11.3008561126356
30
0
41
1
10
66.6091400461604
20
-11.3058633641079
30
0
41
1
10
65.3327125590204
20
-11.2900577643275
30
0
41
1
10
65.0773777306005
20
-11.2857894539325
30
0
41
1
10
64.5666171804109
20
-11.2750235610484
30
0
41
1
10
64.3111671801668
20
-11.2685202066739
30
0
41
1
10
63.5450780196965
20
-11.2457139355785
30
0
41
1
10
63.0345264362352
20
-11.2261244706949
30
0
41
1
10
62.013817802191
20
-11.1782541901143
30
0
41
1
10
61.5036592067067
20
-11.1499749043999
30
0
41
1
10
60.738786870072
20
-11.101010902253
30
0
41
1
10
60.4838919144566
20
-11.083596974824
30
0
41
1
10
59.974231345135
20
-11.046573088997
30
0
41
1
10
59.7194615235224
20
-11.0269644028838
30
0
41
1
10
58.4456637158086
20
-10.9235872541584
30
0
41
1
10
57.4264883124342
20
-10.8240885914514
30
0
41
1
10
56.1526795025178
20
-10.6786095540347
30
0
41
1
10
55.8979260533565
20
-10.6484545423511
30
0
41
1
10
55.3884443227074
20
-10.5860083431704
30
0
41
1
10
55.1337306408903
20
-10.5537013062111
30
0
41
1
10
54.3694454261235
20
-10.4537459527903
30
0
41
1
10
53.8596880501858
20
-10.3831159377912
30
0
41
1
10
52.8397569557935
20
-10.2338671845744
30
0
41
1
10
52.3295817211259
20
-10.1552512093829
30
0
41
1
10
51.5640739709001
20
-10.0312294914579
30
0
41
1
10
51.3088647476798
20
-9.98887063950107
30
0
41
1
10
50.7983746008339
20
-9.902091923851
30
0
41
1
10
50.5430910893762
20
-9.85767439362678
30
0
41
1
10
50.0323501913131
20
-9.76691125137174
30
0
41
1
10
49.7768531983714
20
-9.72057790051335
30
0
41
1
10
49.2660532599884
20
-9.6261503616243
30
0
41
1
10
48.500020109089
20
-9.48180713379116
30
0
41
1
10
47.7345295230561
20
-9.32933589758926
30
0
41
1
10
46.9694512521358
20
-9.17137273462916
30
0
41
1
10
46.7144938029454
20
-9.11780258648304
30
0
41
1
10
46.204725003435
20
-9.0088110973476
30
0
41
1
10
45.9499280548844
20
-8.95336411182393
30
0
41
1
10
45.1856026141422
20
-8.7845048981381
30
0
41
1
10
44.6760644682645
20
-8.66871222277993
30
0
41
1
10
43.6570528605104
20
-8.43067478582111
30
0
41
1
10
43.1475789451569
20
-8.30843166973656
30
0
41
1
10
42.3834856897138
20
-8.12009494336218
30
0
41
1
10
42.1288081714894
20
-8.05648549777061
30
0
41
1
10
41.6195048507277
20
-7.92757596501849
30
0
41
1
10
41.3648788555986
20
-7.86227539145139
30
0
41
1
10
40.6009353628771
20
-7.66411822645418
30
0
41
1
10
40.0914701334706
20
-7.52917838826252
30
0
41
1
10
39.0721727872898
20
-7.25373046892594
30
0
41
1
10
38.5623598210655
20
-7.11318295272105
30
0
41
1
10
37.7974451944704
20
-6.89800029018022
30
0
41
1
10
37.5424409502292
20
-6.82554565891283
30
0
41
1
10
37.0323751012602
20
-6.67915557271343
30
0
41
1
10
36.7773266469197
20
-6.60518897820404
30
0
41
1
10
36.011972933444
20
-6.38133790243594
30
0
41
1
10
35.5013512497856
20
-6.22976088281942
30
0
41
1
10
34.734855959894
20
-5.99886648023764
30
0
41
1
10
34.4793707486446
20
-5.92134164902805
30
0
41
1
10
33.9686997653198
20
-5.7652337909646
30
0
41
1
10
33.4582468091524
20
-5.60804186692627
30
0
41
1
10
32.9482547387614
20
-5.44861862084881
30
0
41
1
10
32.4385050666851
20
-5.28804756604009
30
0
41
1
10
32.1837538968668
20
-5.20718144207783
30
0
41
1
10
31.6744099600507
20
-5.04451958537524
30
0
41
1
10
31.4198078961633
20
-4.96274826337708
30
0
41
1
10
30.9106838860574
20
-4.79848481793408
30
0
41
1
10
30.1471494587836
20
-4.55092597006461
30
0
41
1
10
29.3841153127452
20
-4.29976968301267
30
0
41
1
10
28.6214649966806
20
-4.04608426859869
30
0
41
1
10
28.3673120669272
20
-3.96110111153678
30
0
41
1
10
27.8591424727872
20
-3.79026764225327
30
0
41
1
10
27.6051370899612
20
-3.70438666455178
30
0
41
1
10
26.8432352261087
20
-3.44568396663567
30
0
41
1
10
26.3353185662129
20
-3.27216845144255
30
0
41
1
10
25.3195002416396
20
-2.92311907743934
30
0
41
1
10
24.8116074929247
20
-2.74756129544258
30
0
41
1
10
24.0498580749414
20
-2.48249555377842
30
0
41
1
10
23.7959572640693
20
-2.39384996648272
30
0
41
1
10
23.2881986367803
20
-2.21594352964348
30
0
41
1
10
23.0343462820803
20
-2.12666719415788
30
0
41
1
10
22.5266125655479
20
-1.9476985125614
30
0
41
1
10
22.2727240709465
20
-1.85802618523104
30
0
41
1
10
21.7648226389401
20
-1.67853576912839
30
0
41
1
10
21.5108208748882
20
-1.58868639952223
30
0
41
1
10
20.7486831278468
20
-1.31876948964722
30
0
41
1
10
20.2404127751694
20
-1.13833923599336
30
0
41
1
10
19.2235839387565
20
-0.776306852287462
30
0
41
1
10
18.7150462837153
20
-0.594644218781269
30
0
41
1
10
17.9519957559517
20
-0.321334955071706
30
0
41
1
10
17.6975664309056
20
-0.230207426340428
30
0
41
1
10
17.1884943094505
20
-0.048065419794284
30
0
41
1
10
16.9338601102637
20
0.0429739680315038
30
0
41
1
10
15.6602154755236
20
0.498060435696772
30
0
41
1
10
14.6397805096063
20
0.861749651329035
30
0
41
1
10
13.6181115933413
20
1.22598420347904
30
0
0
SPLINE
5
D0
100
AcDbEntity
8
1
62
256
6
ByLayer
370
18
48
1
60
0
100
AcDbSpline
70
4
71
3
72
10
73
6
40
0
40
0
40
0
40
0
40
0.931098790314188
40
0.931098790314188
40
1
40
1
40
1
40
1
41
1
10
209.4
20
-11.4486205550299
30
0
41
1
10
210.310695119554
20
-11.4794437265258
30
0
41
1
10
211.220810679683
20
-11.4960079634184
30
0
41
1
10
212.197240090681
20
-11.4984608191127
30
0
41
1
10
212.264512771444
20
-11.4985512148668
30
0
41
1
10
212.331782322645
20
-11.498563016057
30
0
0
SPLINE
5
D1
100
AcDbEntity
8
1
62
256
6
ByLayer
370
18
48
1
60
0
100
AcDbSpline
70
4
71
3
72
226
73
222
40
0
40
0
40
0
40
0
40
0.0014977514443451
40
0.0014977514443451
40
0.0077383904978192
40
0.0077383904978192
40
0.0139790295512934
40
0.0139790295512934
40
0.0264603076582417
40
0.0264603076582417
40
0.0389415857651901
40
0.0389415857651901
40
0.0514228638721384
40
0.0514228638721384
40
0.0576635029256126
40
0.0576635029256126
40
0.0639041419790867
40
0.0639041419790867
40
0.076385420086035
40
0.076385420086035
40
0.0888666981929834
40
0.0888666981929834
40
0.0951073372464572
40
0.0951073372464572
40
0.101347976299931
40
0.101347976299931
40
0.113829254406878
40
0.113829254406878
40
0.126310532513825
40
0.126310532513825
40
0.132551171567299
40
0.132551171567299
40
0.138791810620772
40
0.138791810620772
40
0.151273088727718
40
0.151273088727718
40
0.163754366834665
40
0.163754366834665
40
0.169995005888138
40
0.169995005888138
40
0.176235644941611
40
0.176235644941611
40
0.182476283995085
40
0.182476283995085
40
0.188716923048558
40
0.188716923048558
40
0.201198201155504
40
0.201198201155504
40
0.213679479262451
40
0.213679479262451
40
0.219920118315924
40
0.219920118315924
40
0.226160757369398
40
0.226160757369398
40
0.238642035476344
40
0.238642035476344
40
0.244882674529818
40
0.244882674529818
40
0.251123313583291
40
0.251123313583291
40
0.257363952636765
40
0.257363952636765
40
0.263604591690238
40
0.263604591690238
40
0.276085869797186
40
0.276085869797186
40
0.288567147904133
40
0.288567147904133
40
0.294807786957606
40
0.294807786957606
40
0.30104842601108
40
0.30104842601108
40
0.326010982224974
40
0.326010982224974
40
0.332251621278447
40
0.332251621278447
40
0.33849226033192
40
0.33849226033192
40
0.350973538438866
40
0.350973538438866
40
0.363454816545813
40
0.363454816545813
40
0.369695455599285
40
0.369695455599285
40
0.375936094652758
40
0.375936094652758
40
0.400898650866648
40
0.400898650866648
40
0.413379928973593
40
0.413379928973593
40
0.425861207080537
40
0.425861207080537
40
0.438342485187482
40
0.438342485187482
40
0.444583124240954
40
0.444583124240954
40
0.450823763294427
40
0.450823763294427
40
0.463305041401371
40
0.463305041401371
40
0.475786319508315
40
0.475786319508315
40
0.482026958561787
40
0.482026958561787
40
0.488267597615259
40
0.488267597615259
40
0.500748875722205
40
0.500748875722205
40
0.51323015382915
40
0.51323015382915
40
0.519470792882622
40
0.519470792882622
40
0.525711431936095
40
0.525711431936095
40
0.53819271004304
40
0.53819271004304
40
0.550673988149984
40
0.550673988149984
40
0.556914627203457
40
0.556914627203457
40
0.563155266256929
40
0.563155266256929
40
0.569395905310401
40
0.569395905310401
40
0.575636544363873
40
0.575636544363873
40
0.588117822470819
40
0.588117822470819
40
0.594358461524291
40
0.594358461524291
40
0.600599100577764
40
0.600599100577764
40
0.606839739631237
40
0.606839739631237
40
0.613080378684709
40
0.613080378684709
40
0.619321017738182
40
0.619321017738182
40
0.625561656791654
40
0.625561656791654
40
0.631802295845127
40
0.631802295845127
40
0.6380429348986
40
0.6380429348986
40
0.644283573952072
40
0.644283573952072
40
0.650524213005545
40
0.650524213005545
40
0.675486769219436
40
0.675486769219436
40
0.681727408272909
40
0.681727408272909
40
0.687968047326382
40
0.687968047326382
40
0.700449325433328
40
0.700449325433328
40
0.712930603540274
40
0.712930603540274
40
0.719171242593747
40
0.719171242593747
40
0.725411881647219
40
0.725411881647219
40
0.737893159754164
40
0.737893159754164
40
0.750374437861109
40
0.750374437861109
40
0.756615076914581
40
0.756615076914581
40
0.762855715968053
40
0.762855715968053
40
0.775336994074998
40
0.775336994074998
40
0.787818272181943
40
0.787818272181943
40
0.800299550288887
40
0.800299550288887
40
0.812780828395832
40
0.812780828395832
40
0.825262106502777
40
0.825262106502777
40
0.831502745556249
40
0.831502745556249
40
0.837743384609721
40
0.837743384609721
40
0.850224662716666
40
0.850224662716666
40
0.862705940823611
40
0.862705940823611
40
0.868946579877083
40
0.868946579877083
40
0.875187218930555
40
0.875187218930555
40
0.887668497037498
40
0.887668497037498
40
0.90014977514444
40
0.90014977514444
40
0.906390414197912
40
0.906390414197912
40
0.912631053251384
40
0.912631053251384
40
0.92511233135833
40
0.92511233135833
40
0.937593609465275
40
0.937593609465275
40
0.943834248518748
40
0.943834248518748
40
0.95007488757222
40
0.95007488757222
40
0.956315526625693
40
0.956315526625693
40
0.962556165679165
40
0.962556165679165
40
0.975037443786109
40
0.975037443786109
40
0.981278082839582
40
0.981278082839582
40
0.987518721893055
40
0.987518721893055
40
0.993759360946527
40
0.993759360946527
40
1
40
1
40
1
40
1
41
1
10
90.002796492152
20
8.36981891942148
30
0
41
1
10
90.0624893455969
20
8.38413567366345
30
0
41
1
10
90.1221859423413
20
8.39840852553419
30
0
41
1
10
90.4306372653642
20
8.47192639122153
30
0
41
1
10
90.6794510743169
20
8.53045682649139
30
0
41
1
10
91.177193013891
20
8.64601781583821
30
0
41
1
10
91.4260977283584
20
8.70304005540791
30
0
41
1
10
92.172361640393
20
8.87175889177061
30
0
41
1
10
92.6693753444762
20
8.98129044634385
30
0
41
1
10
93.6633691626696
20
9.19278900646049
30
0
41
1
10
94.1603026927092
20
9.29485878575244
30
0
41
1
10
95.153845680167
20
9.4920322622055
30
0
41
1
10
95.65047053386
20
9.58710987256376
30
0
41
1
10
96.3951018443074
20
9.7245736782385
30
0
41
1
10
96.643260586171
20
9.76953632953661
30
0
41
1
10
97.1394661887257
20
9.85774509197688
30
0
41
1
10
97.3875254696717
20
9.90097180831074
30
0
41
1
10
98.1318643867261
20
10.0276290308837
30
0
41
1
10
98.6282241815208
20
10.1081577561965
30
0
41
1
10
99.6210377483859
20
10.2616827350293
30
0
41
1
10
100.117487918193
20
10.3346819147681
30
0
41
1
10
100.862154452926
20
10.4385940872991
30
0
41
1
10
101.110370644036
20
10.4723045442439
30
0
41
1
10
101.60678758729
20
10.5378618495177
30
0
41
1
10
101.854998335521
20
10.5696968649292
30
0
41
1
10
102.599841274381
20
10.6621624866266
30
0
41
1
10
103.096751731173
20
10.719698820292
30
0
41
1
10
104.091036901474
20
10.8268298717713
30
0
41
1
10
104.588425899261
20
10.8764098817292
30
0
41
1
10
105.334798190063
20
10.9448335159809
30
0
41
1
10
105.583686536112
20
10.9666536028318
30
0
41
1
10
106.081273396875
20
11.0082819900995
30
0
41
1
10
106.32993909318
20
11.0280998049943
30
0
41
1
10
107.075811421123
20
11.0843945709741
30
0
41
1
10
107.572985609933
20
11.1176706166747
30
0
41
1
10
108.567025789571
20
11.1759209760382
30
0
41
1
10
109.063885640952
20
11.2008969243551
30
0
41
1
10
109.808848495916
20
11.2321718196318
30
0
41
1
10
110.057117455536
20
11.2415636727821
30
0
41
1
10
110.55352356362
20
11.2582796100911
30
0
41
1
10
110.801653078689
20
11.2656040770435
30
0
41
1
10
111.297885080172
20
11.2781509388043
30
0
41
1
10
111.545997677753
20
11.2833716534886
30
0
41
1
10
112.042306796073
20
11.2917071022612
30
0
41
1
10
112.290484185431
20
11.2948257388828
30
0
41
1
10
113.035035629205
20
11.3010528945681
30
0
41
1
10
113.531440696409
20
11.3010345137932
30
0
41
1
10
114.524219213169
20
11.2926510529239
30
0
41
1
10
115.020573611399
20
11.2842823094703
30
0
41
1
10
115.765056549701
20
11.2653900694292
30
0
41
1
10
116.013250715737
20
11.2580427015686
30
0
41
1
10
116.50981896895
20
11.2412850781075
30
0
41
1
10
116.758175442931
20
11.2318716341594
30
0
41
1
10
117.503428425975
20
11.2005310228664
30
0
41
1
10
118.000504594962
20
11.1755061246303
30
0
41
1
10
118.74637831372
20
11.131717803613
30
0
41
1
10
118.995048018998
20
11.1160797110426
30
0
41
1
10
119.49246332762
20
11.0827004066686
30
0
41
1
10
119.7411975437
20
11.0649523466229
30
0
41
1
10
120.238765622261
20
11.027348962551
30
0
41
1
10
120.487542606487
20
11.007501972302
30
0
41
1
10
120.984976642013
20
10.9658367341596
30
0
41
1
10
121.233675473274
20
10.9440207589911
30
0
41
1
10
121.979633567041
20
10.875586681577
30
0
41
1
10
122.47676587433
20
10.8259921738744
30
0
41
1
10
123.470584929854
20
10.7188112055333
30
0
41
1
10
123.967269503098
20
10.6612230002675
30
0
41
1
10
124.711876073583
20
10.5687230500511
30
0
41
1
10
124.959998881722
20
10.5368577490212
30
0
41
1
10
125.456310778928
20
10.4712933173509
30
0
41
1
10
125.704488640689
20
10.4375849799982
30
0
41
1
10
126.945431653282
20
10.2643863800409
30
0
41
1
10
127.938335117933
20
10.1109711181589
30
0
41
1
10
129.178975832065
20
9.89968396312653
30
0
41
1
10
129.427082978789
20
9.85644925861706
30
0
41
1
10
129.923385787387
20
9.7682003381797
30
0
41
1
10
130.17159784453
20
9.72321019841675
30
0
41
1
10
130.916450062237
20
9.58571049418146
30
0
41
1
10
131.413243276202
20
9.49058424415233
30
0
41
1
10
132.407167531174
20
9.29325485735507
30
0
41
1
10
132.904299366678
20
9.19105302143487
30
0
41
1
10
133.650171404103
20
9.03225406831584
30
0
41
1
10
133.898809905094
20
8.97837806932765
30
0
41
1
10
134.39622495465
20
8.86891711644955
30
0
41
1
10
134.645088119159
20
8.81338819480277
30
0
41
1
10
135.889164109169
20
8.53212058096963
30
0
41
1
10
136.883751363591
20
8.2952714231744
30
0
41
1
10
138.373825337704
20
7.92078673369278
30
0
41
1
10
138.870137914901
20
7.79257627932785
30
0
41
1
10
139.86298579082
20
7.53139797333145
30
0
41
1
10
140.359451747943
20
7.39830202630199
30
0
41
1
10
141.352282116068
20
7.12674113496979
30
0
41
1
10
141.848659919297
20
6.98830414661396
30
0
41
1
10
142.593084786523
20
6.77645494767373
30
0
41
1
10
142.841201011222
20
6.70513499924522
30
0
41
1
10
143.337381587881
20
6.5610767251508
30
0
41
1
10
143.585464791176
20
6.4883802539548
30
0
41
1
10
144.329958890415
20
6.26890844821389
30
0
41
1
10
144.826530774986
20
6.12056477828796
30
0
41
1
10
145.819985438369
20
5.8194423924659
30
0
41
1
10
146.316865177047
20
5.66665533512733
30
0
41
1
10
147.062341649184
20
5.43393428447138
30
0
41
1
10
147.310853383636
20
5.35575348304246
30
0
41
1
10
147.80792444001
20
5.19818845712581
30
0
41
1
10
148.056493806941
20
5.11882877818255
30
0
41
1
10
148.802509044187
20
4.87954270124629
30
0
41
1
10
149.300481228144
20
4.7184920801769
30
0
41
1
10
150.295640298696
20
4.3933211427246
30
0
41
1
10
150.792974027722
20
4.22920561220846
30
0
41
1
10
151.538522596997
20
3.98051596713313
30
0
41
1
10
151.786963308783
20
3.8971994613386
30
0
41
1
10
152.283680203375
20
3.72968823824257
30
0
41
1
10
152.531938034238
20
3.64544384480058
30
0
41
1
10
153.276702413713
20
3.39203033560588
30
0
41
1
10
153.773251874685
20
3.22232406552879
30
0
41
1
10
154.766256903032
20
2.88093478973315
30
0
41
1
10
155.262707899236
20
2.70923904080871
30
0
41
1
10
156.007222158461
20
2.4499591931162
30
0
41
1
10
156.255368949498
20
2.36324968231321
30
0
41
1
10
156.751584079969
20
2.18918199089944
30
0
41
1
10
156.999647855028
20
2.10181084580074
30
0
41
1
10
157.495812829168
20
1.92673867631166
30
0
41
1
10
157.743925735883
20
1.8390702776824
30
0
41
1
10
158.240286879025
20
1.66367902643549
30
0
41
1
10
158.488516202582
20
1.57590363231421
30
0
41
1
10
159.233306833749
20
1.312218399796
30
0
41
1
10
159.729980874994
20
1.13597834568279
30
0
41
1
10
160.475132601009
20
0.870715371401701
30
0
41
1
10
160.723539665347
20
0.782142899373099
30
0
41
1
10
161.22038693878
20
0.604655109740264
30
0
41
1
10
161.468818167131
20
0.515714080771716
30
0
41
1
10
161.965748119695
20
0.33758378763676
30
0
41
1
10
162.214283295883
20
0.248498689646539
30
0
41
1
10
162.71158230367
20
0.0705437512982598
30
0
41
1
10
162.960331000207
20
-0.0183693292737246
30
0
41
1
10
163.458004614692
20
-0.196129048855113
30
0
41
1
10
163.706969836314
20
-0.284990100041142
30
0
41
1
10
164.204686238625
20
-0.462572519044613
30
0
41
1
10
164.453471718714
20
-0.551307174131779
30
0
41
1
10
164.950885400642
20
-0.728697490631475
30
0
41
1
10
165.199514497754
20
-0.817350595785229
30
0
41
1
10
165.696600172734
20
-0.994619956232867
30
0
41
1
10
165.945044192688
20
-1.0832718266883
30
0
41
1
10
166.441794353932
20
-1.2604374106586
30
0
41
1
10
166.690107276989
20
-1.3489316510977
30
0
41
1
10
167.186753865493
20
-1.52533527799065
30
0
41
1
10
167.435085530964
20
-1.61325086522794
30
0
41
1
10
168.676647678302
20
-2.05179474814497
30
0
41
1
10
169.669652205432
20
-2.39916123040956
30
0
41
1
10
170.910057934364
20
-2.83050165918021
30
0
41
1
10
171.158093704336
20
-2.91663249351518
30
0
41
1
10
171.65429517949
20
-3.08801830834955
30
0
41
1
10
171.902445176225
20
-3.17331668725666
30
0
41
1
10
172.647009001468
20
-3.42812513750275
30
0
41
1
10
173.143534423102
20
-3.59655561468341
30
0
41
1
10
174.136730094409
20
-3.93095035867378
30
0
41
1
10
174.633411558071
20
-4.09688464281899
30
0
41
1
10
175.378452891557
20
-4.34415579305568
30
0
41
1
10
175.626810382982
20
-4.42628815151667
30
0
41
1
10
176.123677935332
20
-4.58962253574654
30
0
41
1
10
176.37220501915
20
-4.67078031830744
30
0
41
1
10
177.118073753893
20
-4.91271047607293
30
0
41
1
10
177.615669066319
20
-5.07207986748475
30
0
41
1
10
178.611347763165
20
-5.38722259960312
30
0
41
1
10
179.108853471465
20
-5.54281447654822
30
0
41
1
10
179.854527670122
20
-5.77342634716177
30
0
41
1
10
180.102971789737
20
-5.8498736995974
30
0
41
1
10
180.59976397396
20
-6.00159351247603
30
0
41
1
10
180.848146103022
20
-6.0767839107221
30
0
41
1
10
181.593257829831
20
-6.30034721983918
30
0
41
1
10
182.089935457802
20
-6.44675740870665
30
0
41
1
10
183.0829991426
20
-6.73473846244815
30
0
41
1
10
183.579392103502
20
-6.87629276533394
30
0
41
1
10
184.571775882431
20
-7.15477687412101
30
0
41
1
10
185.067697601525
20
-7.29184354810457
30
0
41
1
10
186.05998666204
20
-7.55949227243826
30
0
41
1
10
186.55626673996
20
-7.69027694271659
30
0
41
1
10
187.548924489654
20
-7.94616005821825
30
0
41
1
10
188.045313577425
20
-8.07123435552381
30
0
41
1
10
188.789902944672
20
-8.25468620995167
30
0
41
1
10
189.038097225668
20
-8.31514890841891
30
0
41
1
10
189.53449021321
20
-8.4346712517285
30
0
41
1
10
189.782713159259
20
-8.49368353509183
30
0
41
1
10
190.527697525812
20
-8.6680357570832
30
0
41
1
10
191.024692208131
20
-8.78085277091569
30
0
41
1
10
192.019185611676
20
-8.99999482939847
30
0
41
1
10
192.516682050144
20
-9.10632285229286
30
0
41
1
10
193.263231567793
20
-9.26103640122233
30
0
41
1
10
193.512067389373
20
-9.31181258772236
30
0
41
1
10
194.009429919262
20
-9.41167107447706
30
0
41
1
10
194.258010236077
20
-9.4607459254016
30
0
41
1
10
195.003655892273
20
-9.60508634092048
30
0
41
1
10
195.50065966788
20
-9.69742823542893
30
0
41
1
10
196.494236918031
20
-9.87480546582833
30
0
41
1
10
196.990830194819
20
-9.95980938538597
30
0
41
1
10
197.735343142597
20
-10.0818963352257
30
0
41
1
10
197.983451198457
20
-10.1216880982735
30
0
41
1
10
198.479528028408
20
-10.1994709975476
30
0
41
1
10
198.727479539113
20
-10.2374812363302
30
0
41
1
10
199.471389391346
20
-10.3484839199043
30
0
41
1
10
199.967418595767
20
-10.4184441654656
30
0
41
1
10
200.959481044173
20
-10.5505655009666
30
0
41
1
10
201.455509846535
20
-10.6127298822093
30
0
41
1
10
202.199466625313
20
-10.7001992112649
30
0
41
1
10
202.447440066488
20
-10.7283900229839
30
0
41
1
10
202.943332566298
20
-10.7828554743755
30
0
41
1
10
203.191250276383
20
-10.8091296474231
30
0
41
1
10
203.687155331935
20
-10.8596481989197
30
0
41
1
10
203.935155761337
20
-10.8838827359958
30
0
41
1
10
204.431312615562
20
-10.9302683225624
30
0
41
1
10
204.679450891715
20
-10.9524337424771
30
0
41
1
10
205.424006418639
20
-11.0158840688204
30
0
41
1
10
205.9205729794
20
-11.0541200106153
30
0
41
1
10
206.665637866955
20
-11.1054063164535
30
0
41
1
10
206.914028415444
20
-11.1214897902113
30
0
41
1
10
207.410867845915
20
-11.1516271549094
30
0
41
1
10
207.659306306245
20
-11.1656852841805
30
0
41
1
10
208.156286111319
20
-11.1917357789787
30
0
41
1
10
208.404865435017
20
-11.2037120429272
30
0
41
1
10
208.902271784332
20
-11.2255495506334
30
0
41
1
10
209.151085899528
20
-11.2354163977591
30
0
41
1
10
209.4
20
-11.2442379202007
30
0
0
SPLINE
5
D2
100
AcDbEntity
8
1
62
256
6
ByLayer
370
18
48
1
60
0
100
AcDbSpline
70
4
71
3
72
189
73
185
40
0
40
0
40
0
40
0
40
0.0038705506629104
40
0.0038705506629104
40
0.0101133714029137
40
0.0101133714029137
40
0.0350846543629267
40
0.0350846543629267
40
0.0413274751029303
40
0.0413274751029303
40
0.0475702958429339
40
0.0475702958429339
40
0.060055937322941
40
0.060055937322941
40
0.0662987580629443
40
0.0662987580629443
40
0.0725415788029476
40
0.0725415788029476
40
0.0850272202829541
40
0.0850272202829541
40
0.109998503242968
40
0.109998503242968
40
0.116241323982971
40
0.116241323982971
40
0.122484144722974
40
0.122484144722974
40
0.13496978620298
40
0.13496978620298
40
0.147455427682987
40
0.147455427682987
40
0.159941069162993
40
0.159941069162993
40
0.184912352123006
40
0.184912352123006
40
0.191155172863009
40
0.191155172863009
40
0.197397993603013
40
0.197397993603013
40
0.209883635083019
40
0.209883635083019
40
0.222369276563025
40
0.222369276563025
40
0.234854918043031
40
0.234854918043031
40
0.259826201003044
40
0.259826201003044
40
0.266069021743048
40
0.266069021743048
40
0.272311842483052
40
0.272311842483052
40
0.284797483963059
40
0.284797483963059
40
0.297283125443067
40
0.297283125443067
40
0.303525946183071
40
0.303525946183071
40
0.309768766923075
40
0.309768766923075
40
0.334740049883091
40
0.334740049883091
40
0.347225691363099
40
0.347225691363099
40
0.359711332843108
40
0.359711332843108
40
0.372196974323116
40
0.372196974323116
40
0.384682615803124
40
0.384682615803124
40
0.40965389876314
40
0.40965389876314
40
0.422139540243148
40
0.422139540243148
40
0.428382360983152
40
0.428382360983152
40
0.434625181723156
40
0.447110823203165
40
0.447110823203165
40
0.459596464683174
40
0.459596464683174
40
0.484567747643191
40
0.484567747643191
40
0.490810568383195
40
0.490810568383195
40
0.4970533891232
40
0.4970533891232
40
0.509539030603209
40
0.509539030603209
40
0.522024672083218
40
0.522024672083218
40
0.534510313563227
40
0.534510313563227
40
0.540753134303232
40
0.540753134303232
40
0.546995955043236
40
0.546995955043236
40
0.559481596523246
40
0.559481596523246
40
0.565724417263251
40
0.565724417263251
40
0.571967238003256
40
0.571967238003256
40
0.584452879483266
40
0.584452879483266
40
0.596938520963277
40
0.596938520963277
40
0.609424162443287
40
0.609424162443287
40
0.634395445403309
40
0.634395445403309
40
0.640638266143314
40
0.640638266143314
40
0.646881086883319
40
0.646881086883319
40
0.659366728363328
40
0.659366728363328
40
0.665609549103333
40
0.665609549103333
40
0.671852369843338
40
0.671852369843338
40
0.678095190583343
40
0.678095190583343
40
0.684338011323348
40
0.684338011323348
40
0.709309294283366
40
0.709309294283366
40
0.71555211502337
40
0.71555211502337
40
0.721794935763375
40
0.721794935763375
40
0.734280577243385
40
0.734280577243385
40
0.746766218723394
40
0.746766218723394
40
0.753009039463399
40
0.753009039463399
40
0.759251860203404
40
0.759251860203404
40
0.771737501683413
40
0.771737501683413
40
0.777980322423418
40
0.777980322423418
40
0.784223143163423
40
0.784223143163423
40
0.790465963903428
40
0.790465963903428
40
0.796708784643433
40
0.796708784643433
40
0.809194426123442
40
0.809194426123442
40
0.821680067603451
40
0.821680067603451
40
0.827922888343455
40
0.827922888343455
40
0.83416570908346
40
0.83416570908346
40
0.859136992043477
40
0.859136992043477
40
0.865379812783482
40
0.865379812783482
40
0.871622633523486
40
0.871622633523486
40
0.884108275003495
40
0.884108275003495
40
0.896593916483505
40
0.896593916483505
40
0.90283673722351
40
0.90283673722351
40
0.909079557963515
40
0.909079557963515
40
0.934050840923536
40
0.934050840923536
40
0.940293661663541
40
0.940293661663541
40
0.946536482403547
40
0.946536482403547
40
0.959022123883557
40
0.959022123883557
40
0.971507765363568
40
0.971507765363568
40
0.977750586103573
40
0.977750586103573
40
0.983993406843578
40
0.983993406843578
40
1
40
1
40
1
40
1
41
1
10
189.218723034407
20
-8.37053544775944
30
0
41
1
10
189.060796319614
20
-8.40854734715819
30
0
41
1
10
188.902881299431
20
-8.44625260537606
30
0
41
1
10
188.49026464367
20
-8.5439129354001
30
0
41
1
10
188.235550676435
20
-8.60331877352172
30
0
41
1
10
186.961849884604
20
-8.8958516271116
30
0
41
1
10
185.94259665152
20
-9.11577217861242
30
0
41
1
10
184.66851429135
20
-9.37356964646207
30
0
41
1
10
184.413711270332
20
-9.42429244931529
30
0
41
1
10
183.903996221654
20
-9.5238450073893
30
0
41
1
10
183.649067791506
20
-9.57265062392929
30
0
41
1
10
182.884074739895
20
-9.71617365770709
30
0
41
1
10
182.373802940245
20
-9.80800068713177
30
0
41
1
10
181.608029038084
20
-9.94003444072007
30
0
41
1
10
181.352710601958
20
-9.98309479177084
30
0
41
1
10
180.841965356347
20
-10.0673245806731
30
0
41
1
10
180.586511067298
20
-10.1084987219069
30
0
41
1
10
179.820182874551
20
-10.2291593093565
30
0
41
1
10
179.309719718985
20
-10.3056841402157
30
0
41
1
10
177.778573937344
20
-10.5223617769906
30
0
41
1
10
176.758436172552
20
-10.6500779949064
30
0
41
1
10
175.484396680527
20
-10.7891988341272
30
0
41
1
10
175.229659152918
20
-10.8160033874073
30
0
41
1
10
174.720207998242
20
-10.8674707025394
30
0
41
1
10
174.465471618749
20
-10.8921166025971
30
0
41
1
10
173.701223665383
20
-10.9628038795828
30
0
41
1
10
173.191678231529
20
-11.0056019107696
30
0
41
1
10
172.172556971851
20
-11.0826220949383
30
0
41
1
10
171.662983989128
20
-11.1168467886639
30
0
41
1
10
170.643913570948
20
-11.1767193003904
30
0
41
1
10
170.134414165635
20
-11.2023479150062
30
0
41
1
10
168.604944716424
20
-11.2658907039441
30
0
41
1
10
167.584299519319
20
-11.2906800607825
30
0
41
1
10
166.307592709263
20
-11.2996239379012
30
0
41
1
10
166.052180146894
20
-11.3003059828398
30
0
41
1
10
165.541368008511
20
-11.2994428588825
30
0
41
1
10
165.286013799619
20
-11.2978994522452
30
0
41
1
10
164.520080472447
20
-11.2899575216335
30
0
41
1
10
164.009642926567
20
-11.2802503833446
30
0
41
1
10
162.989195318426
20
-11.2520654350257
30
0
41
1
10
162.479187662863
20
-11.2335879455373
30
0
41
1
10
161.459706851059
20
-11.1878003051285
30
0
41
1
10
160.950248244925
20
-11.1604661707638
30
0
41
1
10
159.421606960836
20
-11.0656476735861
30
0
41
1
10
158.402427284001
20
-10.985337402462
30
0
41
1
10
157.128708190665
20
-10.8633405084764
30
0
41
1
10
156.873987337121
20
-10.8378481961535
30
0
41
1
10
156.364517052345
20
-10.7847264850655
30
0
41
1
10
156.109737652227
20
-10.7571221754193
30
0
41
1
10
155.345215939022
20
-10.6712359155375
30
0
41
1
10
154.835312605838
20
-10.6098653900116
30
0
41
1
10
153.815122657103
20
-10.478864369674
30
0
41
1
10
153.304838001382
20
-10.4092328437576
30
0
41
1
10
152.539200091019
20
-10.29845537432
30
0
41
1
10
152.283957782003
20
-10.2604661468241
30
0
41
1
10
151.773330880169
20
-10.1824487698585
30
0
41
1
10
151.517893850046
20
-10.1424221050751
30
0
41
1
10
150.240665735841
20
-9.93759692442978
30
0
41
1
10
149.219717989937
20
-9.75866282280549
30
0
41
1
10
147.689977710863
20
-9.46716408588532
30
0
41
1
10
147.180406440131
20
-9.36602896965198
30
0
41
1
10
146.161151991483
20
-9.15708125272309
30
0
41
1
10
145.651532819679
20
-9.04918003972418
30
0
41
1
10
144.632369353603
20
-8.82646437689104
30
0
41
1
10
144.122826487878
20
-8.71164820954652
30
0
41
1
10
143.10392126977
20
-8.47488199183195
30
0
41
1
10
142.594600884717
20
-8.35283995606613
30
0
41
1
10
141.065901607218
20
-7.97786777470924
30
0
41
1
10
140.045972644994
20
-7.71582555610266
30
0
41
1
10
138.515329308762
20
-7.30369919487666
30
0
41
1
10
138.005058915876
20
-7.16297239986227
30
0
41
1
10
137.238978652325
20
-6.94813887368966
30
0
41
1
10
136.983469400913
20
-6.8758623068056
30
0
41
1
10
136.472523177419
20
-6.73007078579596
30
0
41
1
10
135.706293222157
20
-6.50954878449863
30
0
41
1
10
134.9406649403
20
-6.28346393639885
30
0
41
1
10
133.920464878064
20
-5.97682232338013
30
0
41
1
10
133.41073533067
20
-5.82077203452755
30
0
41
1
10
131.881538386209
20
-5.34715556539734
30
0
41
1
10
130.862192411521
20
-5.02385790556229
30
0
41
1
10
129.588537177109
20
-4.60937035805816
30
0
41
1
10
129.333836828891
20
-4.52594162895895
30
0
41
1
10
128.824472681277
20
-4.35808128039344
30
0
41
1
10
128.569783987546
20
-4.27371390835921
30
0
41
1
10
127.805553585093
20
-4.01968168386489
30
0
41
1
10
127.295898792455
20
-3.84895549762339
30
0
41
1
10
126.276311854166
20
-3.50462197819459
30
0
41
1
10
125.766380036461
20
-3.33101420316913
30
0
41
1
10
124.746340731915
20
-2.9806202392667
30
0
41
1
10
124.236291673715
20
-2.80366632168975
30
0
41
1
10
123.470629521117
20
-2.537093134798
30
0
41
1
10
123.215312125704
20
-2.4480426938411
30
0
41
1
10
122.704502049843
20
-2.26950810989737
30
0
41
1
10
122.44895572104
20
-2.18000840819772
30
0
41
1
10
121.682516214846
20
-1.91098596840055
30
0
41
1
10
121.17185544092
20
-1.73095046001598
30
0
41
1
10
120.406361650186
20
-1.45972734654518
30
0
41
1
10
120.151283293228
20
-1.3691152146142
30
0
41
1
10
119.641286783368
20
-1.18751720885177
30
0
41
1
10
119.386347841912
20
-1.0965902990844
30
0
41
1
10
118.621536093334
20
-0.823915067573125
30
0
41
1
10
118.111724625708
20
-0.642112606390754
30
0
41
1
10
117.092282594414
20
-0.278312186571043
30
0
41
1
10
116.582651896303
20
-0.0963145711546076
30
0
41
1
10
115.56367457575
20
0.268166619353536
30
0
41
1
10
115.054392142474
20
0.450830678255414
30
0
41
1
10
113.526109001243
20
0.997118913111223
30
0
41
1
10
112.506657129863
20
1.35900041880649
30
0
41
1
10
111.231992245165
20
1.80957660606705
30
0
41
1
10
110.977042389556
20
1.89960465674761
30
0
41
1
10
110.467106995454
20
2.07948048720044
30
0
41
1
10
110.21210623314
20
2.16928551165392
30
0
41
1
10
109.446802060721
20
2.43773382389125
30
0
41
1
10
108.936256548035
20
2.61557822151269
30
0
41
1
10
108.16996661817
20
2.88078266686512
30
0
41
1
10
107.914405428424
20
2.96894169503688
30
0
41
1
10
107.403471095274
20
3.14465662748054
30
0
41
1
10
107.148089965608
20
3.23221591450815
30
0
41
1
10
106.637512834959
20
3.40677258829584
30
0
41
1
10
106.382322926832
20
3.49378643526387
30
0
41
1
10
105.872101870967
20
3.6671763642465
30
0
41
1
10
105.617066460382
20
3.75354045604391
30
0
41
1
10
104.341980366432
20
4.18294631512248
30
0
41
1
10
103.322231945198
20
4.51886596474054
30
0
41
1
10
102.04834539519
20
4.9303712261478
30
0
41
1
10
101.793607733502
20
5.01224979994967
30
0
41
1
10
101.284216931567
20
5.17517023428121
30
0
41
1
10
101.029554311246
20
5.25618736730596
30
0
41
1
10
100.265437389503
20
5.49734357763165
30
0
41
1
10
99.7559128074557
20
5.65573841372606
30
0
41
1
10
98.7366923476995
20
5.96793751539087
30
0
41
1
10
98.2269956242962
20
6.12174024252332
30
0
41
1
10
97.4623966110088
20
6.34916628086103
30
0
41
1
10
97.2075264776759
20
6.42444019539019
30
0
41
1
10
96.6977501724979
20
6.57384590371746
30
0
41
1
10
96.4428390070849
20
6.64796563506124
30
0
41
1
10
95.677869691703
20
6.86819057648287
30
0
41
1
10
95.1675576884942
20
7.01212476026851
30
0
41
1
10
94.4016707716474
20
7.22389626471943
30
0
41
1
10
94.1463044792799
20
7.29379613682502
30
0
41
1
10
93.6354387885812
20
7.43223062909323
30
0
41
1
10
93.3798892156912
20
7.50077819229952
30
0
41
1
10
92.8690261834967
20
7.63642380938234
30
0
41
1
10
92.6136908732761
20
7.70352819685448
30
0
41
1
10
92.1032214577417
20
7.83631261390661
30
0
41
1
10
91.8480848821979
20
7.90198583397955
30
0
41
1
10
91.0827244920355
20
8.09635141013277
30
0
41
1
10
90.572602693905
20
8.22250553901995
30
0
41
1
10
89.5526464447966
20
8.46813416689253
30
0
41
1
10
89.0428108708925
20
8.58760735791458
30
0
41
1
10
88.2783471770534
20
8.76193912092384
30
0
41
1
10
88.0235785659768
20
8.81924349447101
30
0
41
1
10
87.5141275955573
20
8.93219816439779
30
0
41
1
10
87.2594398994778
20
8.98783829493644
30
0
41
1
10
85.9859173906574
20
9.26138699116572
30
0
41
1
10
84.9667122225076
20
9.46521113055945
30
0
41
1
10
83.6926231194214
20
9.70192806808285
30
0
41
1
10
83.4378002254735
20
9.74836353274745
30
0
41
1
10
82.928152705988
20
9.83942081207613
30
0
41
1
10
82.6733332478445
20
9.8840482185964
30
0
41
1
10
81.9086273656925
20
10.014864506783
30
0
41
1
10
81.39853487728
20
10.0980528160938
30
0
41
1
10
80.377827102327
20
10.256489608975
30
0
41
1
10
79.8672105620125
20
10.3317374465361
30
0
41
1
10
79.1009636966071
20
10.4387072261444
30
0
41
1
10
78.8454524430313
20
10.4733884260108
30
0
41
1
10
78.3347036641286
20
10.5407144773607
30
0
41
1
10
78.0794276464116
20
10.5733575512065
30
0
41
1
10
76.8032760465334
20
10.7312114708428
30
0
41
1
10
75.7829001858713
20
10.8402411840885
30
0
41
1
10
74.5084868712903
20
10.9555012095435
30
0
41
1
10
74.2536565533088
20
10.9774974491487
30
0
41
1
10
73.7441094854014
20
11.0193757540303
30
0
41
1
10
73.4894028368147
20
11.0392623053581
30
0
41
1
10
72.7252217149462
20
11.0956034335087
30
0
41
1
10
72.2157093476192
20
11.1287639931332
30
0
41
1
10
71.1966197868425
20
11.1863788731337
30
0
41
1
10
70.6870411565355
20
11.210833573026
30
0
41
1
10
69.9226960679875
20
11.2409974485919
30
0
41
1
10
69.6679204479056
20
11.2499653710582
30
0
41
1
10
69.1583794313681
20
11.2657154526282
30
0
41
1
10
68.9036089545874
20
11.2724952241448
30
0
41
1
10
67.9954232780784
20
11.2927108661689
30
0
41
1
10
67.3416196339902
20
11.2999893541006
30
0
41
1
10
66.6874517804481
20
11.3000106952493
30
0
0
SPLINE
5
D3
100
AcDbEntity
8
1
62
256
6
ByLayer
370
18
48
1
60
0
100
AcDbSpline
70
4
71
3
72
99
73
95
40
0
40
0
40
0
40
0
40
0.0624999999999962
40
0.0624999999999962
40
0.0937499999999953
40
0.0937499999999953
40
0.124999999999994
40
0.124999999999994
40
0.156249999999993
40
0.156249999999993
40
0.171874999999992
40
0.171874999999992
40
0.187499999999991
40
0.187499999999991
40
0.218749999999988
40
0.218749999999988
40
0.249999999999986
40
0.249999999999986
40
0.281249999999983
40
0.281249999999983
40
0.289062499999983
40
0.289062499999983
40
0.296874999999983
40
0.296874999999983
40
0.312499999999983
40
0.312499999999983
40
0.343749999999984
40
0.343749999999984
40
0.374999999999985
40
0.374999999999985
40
0.382812499999985
40
0.382812499999985
40
0.386718749999985
40
0.386718749999985
40
0.390624999999985
40
0.406249999999986
40
0.406249999999986
40
0.437499999999987
40
0.437499999999987
40
0.453124999999987
40
0.453124999999987
40
0.457031249999988
40
0.457031249999988
40
0.460937499999988
40
0.460937499999988
40
0.468749999999988
40
0.468749999999988
40
0.49999999999999
40
0.49999999999999
40
0.531249999999992
40
0.531249999999992
40
0.535156249999992
40
0.535156249999992
40
0.539062499999992
40
0.546874999999993
40
0.562499999999994
40
0.562499999999994
40
0.593749999999997
40
0.593749999999997
40
0.601562499999998
40
0.601562499999998
40
0.609374999999998
40
0.609374999999998
40
0.625
40
0.625
40
0.656250000000004
40
0.656250000000004
40
0.687500000000007
40
0.687500000000007
40
0.703125000000009
40
0.703125000000009
40
0.71093750000001
40
0.71093750000001
40
0.71875000000001
40
0.71875000000001
40
0.750000000000011
40
0.750000000000011
40
0.781250000000012
40
0.781250000000012
40
0.812500000000013
40
0.812500000000013
40
0.843750000000013
40
0.843750000000013
40
0.859375000000013
40
0.859375000000013
40
0.875000000000012
40
0.875000000000012
40
0.906250000000009
40
0.906250000000009
40
0.937500000000006
40
0.937500000000006
40
0.968750000000003
40
0.968750000000003
40
1
40
1
40
1
40
1
41
1
10
10
20
11.275136755609
30
0
41
1
10
9.55918118933127
20
11.3207394904826
30
0
41
1
10
9.12819782245631
20
11.3621380027242
30
0
41
1
10
8.49656516226014
20
11.4143031027003
30
0
41
1
10
8.2884994255229
20
11.4300214963951
30
0
41
1
10
7.8774123206735
20
11.4573044930439
30
0
41
1
10
7.6743903384407
20
11.4688707454831
30
0
41
1
10
7.27354391934372
20
11.48685252594
30
0
41
1
10
7.07571852742146
20
11.4932707382565
30
0
41
1
10
6.78306059330518
20
11.498101092879
30
0
41
1
10
6.68618875957708
20
11.4989095342772
30
0
41
1
10
6.49384852289225
20
11.4987353764741
30
0
41
1
10
6.39822938954933
20
11.4977468355835
30
0
41
1
10
6.11570420701997
20
11.4918362864156
30
0
41
1
10
5.93256007808722
20
11.4839890411315
30
0
41
1
10
5.57700006221276
20
11.4591430025836
30
0
41
1
10
5.40458157564174
20
11.4421484551887
30
0
41
1
10
5.07104632566472
20
11.3973483191354
30
0
41
1
10
4.9099248935843
20
11.3695499885399
30
0
41
1
10
4.71617310584493
20
11.3266998454845
30
0
41
1
10
4.67780636585191
20
11.3177231522446
30
0
41
1
10
4.6018598462796
20
11.2989156812416
30
0
41
1
10
4.5642317008211
20
11.2890711644019
30
0
41
1
10
4.45296523889741
20
11.258304290383
30
0
41
1
10
4.38099039435383
20
11.2361692677793
30
0
41
1
10
4.17179059610886
20
11.1645949459431
30
0
41
1
10
4.0412687055682
20
11.1100040941938
30
0
41
1
10
3.79919131986402
20
10.9851292167162
30
0
41
1
10
3.68762486560649
20
10.9148563544494
30
0
41
1
10
3.56119765608574
20
10.8155668453933
30
0
41
1
10
3.53656629263358
20
10.7951342881027
30
0
41
1
10
3.50063112172589
20
10.7635849406381
30
0
41
1
10
3.48881874115443
20
10.7529152389432
30
0
41
1
10
3.46561941192707
20
10.7313478817324
30
0
41
1
10
3.40863173169116
20
10.6768135562683
30
0
41
1
10
3.35669672291706
20
10.6191787611584
30
0
41
1
10
3.24185576832038
20
10.4746977271499
30
0
41
1
10
3.17832952535176
20
10.3701846083171
30
0
41
1
10
3.10359696398063
20
10.2000346143055
30
0
41
1
10
3.08212083115231
20
10.1410838431242
30
0
41
1
10
3.05974844819374
20
10.0644519017214
30
0
41
1
10
3.05549783396413
20
10.0489782244547
30
0
41
1
10
3.04744974383797
20
10.0177320381298
30
0
41
1
10
3.04364959906027
20
10.0019457499989
30
0
41
1
10
3.0329792141462
20
9.95432887643463
30
0
41
1
10
3.02682443423663
20
9.92219134979115
30
0
41
1
10
3.00078699033263
20
9.75955356224495
30
0
41
1
10
2.99506693000103
20
9.62321254511662
30
0
41
1
10
3.01314920875407
20
9.33828149957588
30
0
41
1
10
3.03695430558281
20
9.18969093705627
30
0
41
1
10
3.0805891381718
20
9.01562245337249
30
0
41
1
10
3.08567770900532
20
8.99616579311925
30
0
41
1
10
3.09629662764226
20
8.95716825920567
30
0
41
1
10
3.11288102025726
20
8.89856451588653
30
0
41
1
10
3.15610857092011
20
8.76108573741197
30
0
41
1
10
3.20073053584582
20
8.64203538625554
30
0
41
1
10
3.29964801140315
20
8.40244799920529
30
0
41
1
10
3.37846571158326
20
8.24074269084036
30
0
41
1
10
3.49215160053183
20
8.03652657490164
30
0
41
1
10
3.51564901005582
20
7.99557897576639
30
0
41
1
10
3.56414866941864
20
7.91348425807251
30
0
41
1
10
3.58916530574831
20
7.87231816691832
30
0
41
1
10
3.66593746606553
20
7.74933538241399
30
0
41
1
10
3.71956682723297
20
7.66776708729219
30
0
41
1
10
3.88731277699178
20
7.42430956441325
30
0
41
1
10
4.00826756006634
20
7.26366584968093
30
0
41
1
10
4.2664597032236
20
6.94569804685381
30
0
41
1
10
4.40370651323897
20
6.78837554527627
30
0
41
1
10
4.62072639195623
20
6.55491327788368
30
0
41
1
10
4.6949278732144
20
6.4775129492869
30
0
41
1
10
4.80891109493538
20
6.36204723676062
30
0
41
1
10
4.84726972589027
20
6.32374885045564
30
0
41
1
10
4.9245570482756
20
6.24765450121902
30
0
41
1
10
4.96350699408225
20
6.20983698489684
30
0
41
1
10
5.1597329402606
20
6.02186361314659
30
0
41
1
10
5.32142620002668
20
5.87504434772575
30
0
41
1
10
5.65302928077006
20
5.58776356645848
30
0
41
1
10
5.82294289031901
20
5.44730453195533
30
0
41
1
10
6.17000594496508
20
5.17209583862652
30
0
41
1
10
6.34715753296373
20
5.03734754877104
30
0
41
1
10
6.70784533474301
20
4.77296073575877
30
0
41
1
10
6.89138262841641
20
4.64332279299632
30
0
41
1
10
7.17090091506694
20
4.45226388556239
30
0
41
1
10
7.26477629257957
20
4.38914402948157
30
0
41
1
10
7.45384218428262
20
4.2639660135755
30
0
41
1
10
7.54887119779522
20
4.20201496876092
30
0
41
1
10
7.83514609222937
20
4.01805042167894
30
0
41
1
10
8.02766174367196
20
3.8978662162254
30
0
41
1
10
8.41552403759258
20
3.66166816559792
30
0
41
1
10
8.6108702882492
20
3.54565352818611
30
0
41
1
10
9.00397596250804
20
3.31716479321372
30
0
41
1
10
9.20173472039824
20
3.20468947164556
30
0
41
1
10
9.59934670004955
20
2.98279855422191
30
0
41
1
10
9.79919919478994
20
2.87338163380829
30
0
41
1
10
10
20
2.76534846843637
30
0
0
SPLINE
5
D4
100
AcDbEntity
8
1
62
256
6
ByLayer
370
18
48
1
60
0
100
AcDbSpline
70
4
71
3
72
14
73
10
40
0
40
0
40
0
40
0
40
0.25
40
0.25
40
0.5
40
0.5
40
0.75
40
0.75
40
1
40
1
40
1
40
1
41
1
10
13.6181115933413
20
1.2259842034791
30
0
41
1
10
13.3094979813779
20
1.33948884091205
30
0
41
1
10
13.0030459389279
20
1.45766786330509
30
0
41
1
10
12.3936450575428
20
1.70134125127663
30
0
41
1
10
12.0906924059322
20
1.8268276781495
30
0
41
1
10
11.4878807018343
20
2.08404654173285
30
0
41
1
10
11.1880207380154
20
2.21577807542559
30
0
41
1
10
10.5914814633916
20
2.48554861991647
30
0
41
1
10
10.2948041044754
20
2.62359340367786
30
0
41
1
10
10
20
2.7653484684364
30
0
0
SPLINE
5
D5
100
AcDbEntity
8
1
62
256
6
ByLayer
370
18
48
1
60
0
100
AcDbSpline
70
4
71
4
72
13
73
8
40
0
40
0
40
0
40
0
40
0
40
0.442155279228126
40
0.442155279228126
40
0.442155279228126
40
1
40
1
40
1
40
1
40
1
41
0.99709786085766
10
18.6470642835266
20
11.178938562748
30
0
41
0.994794485706131
10
18.5050018618605
20
9.92370538475365
30
0
41
0.993775309008368
10
18.2370654192413
20
8.46726613405107
30
0
41
1
10
17.8531246787607
20
6.9900053563197
30
0
41
1
10
16.9270709969877
20
4.07293988336195
30
0
41
0.990091798679063
10
16.2663595870712
20
2.4196384017274
30
0
41
0.997323489650059
10
15.5884447160394
20
1.28614973614559
30
0
41
0.999517994745208
10
15.0334886419495
20
0.707409067042316
30
0
0
SPLINE
5
D6
100
AcDbEntity
8
1
62
256
6
ByLayer
370
18
48
1
60
0
100
AcDbSpline
70
4
71
3
72
25
73
21
40
0
40
0
40
0
40
0
40
0.125000000000008
40
0.125000000000008
40
0.250000000000016
40
0.250000000000016
40
0.375000000000024
40
0.375000000000024
40
0.437500000000026
40
0.437500000000026
40
0.468750000000025
40
0.468750000000025
40
0.500000000000023
40
0.625000000000017
40
0.625000000000017
40
0.750000000000012
40
0.750000000000012
40
0.875000000000006
40
0.875000000000006
40
1
40
1
40
1
40
1
41
1
10
10
20
11.275136755609
30
0
41
1
10
10.361546172874
20
11.2807344318532
30
0
41
1
10
10.7242997551124
20
11.284215099497
30
0
41
1
10
11.4520497636734
20
11.2889727300526
30
0
41
1
10
11.8170474039512
20
11.2902402760916
30
0
41
1
10
12.5491713590879
20
11.2914821606503
30
0
41
1
10
12.9162986795259
20
11.2914510953738
30
0
41
1
10
13.4685172582118
20
11.2904585438503
30
0
41
1
10
13.6528448017329
20
11.2899635984988
30
0
41
1
10
13.9297091470549
20
11.2889255072011
30
0
41
1
10
14.0219192573729
20
11.2885302845098
30
0
41
1
10
14.2057742013007
20
11.2876327110439
30
0
41
1
10
14.6643214824231
20
11.2851165660613
30
0
41
1
10
15.1175874542318
20
11.2811204457446
30
0
41
1
10
15.8369208442275
20
11.2718080472216
30
0
41
1
10
16.1936402521154
20
11.265684010382
30
0
41
1
10
16.9020912351365
20
11.2492987565911
30
0
41
1
10
17.253824334778
20
11.2390308948992
30
0
41
1
10
17.9532479860168
20
11.2131988704261
30
0
41
1
10
18.3009431326776
20
11.1976329070433
30
0
41
1
10
18.6470642835274
20
11.1789385627553
30
0
0
SPLINE
5
D7
100
AcDbEntity
8
SK1
62
256
6
ByLayer
370
18
48
1
60
0
100
AcDbSpline
70
4
71
3
72
34
73
30
40
0
40
0
40
0
40
0
40
0.125000000000001
40
0.125000000000001
40
0.250000000000002
40
0.250000000000002
40
0.375000000000003
40
0.375000000000003
40
0.437500000000004
40
0.437500000000004
40
0.500000000000005
40
0.500000000000005
40
0.625000000000005
40
0.625000000000005
40
0.656250000000005
40
0.656250000000005
40
0.687500000000005
40
0.687500000000005
40
0.750000000000005
40
0.750000000000005
40
0.812500000000005
40
0.812500000000005
40
0.843750000000004
40
0.843750000000004
40
0.875000000000004
40
0.875000000000004
40
0.937500000000002
40
0.937500000000002
40
1
40
1
40
1
40
1
41
1
10
-52.5003287739481
20
-3.62059097355461
30
0
41
1
10
-52.4791023107682
20
-3.69580949914169
30
0
41
1
10
-52.456173666836
20
-3.7701328086529
30
0
41
1
10
-52.4062202513366
20
-3.91675156331095
30
0
41
1
10
-52.3792000011183
20
-3.98904864238443
30
0
41
1
10
-52.3201140822394
20
-4.13128549106548
30
0
41
1
10
-52.2880578558644
20
-4.20122868864783
30
0
41
1
10
-52.2351342019209
20
-4.30400502578081
30
0
41
1
10
-52.2166821098451
20
-4.33790583931534
30
0
41
1
10
-52.1779019271959
20
-4.40490146665846
30
0
41
1
10
-52.1575385793023
20
-4.43805147836142
30
0
41
1
10
-52.093380094742
20
-4.53574061166557
30
0
41
1
10
-52.0468993353633
20
-4.59806703723407
30
0
41
1
10
-51.9825062567773
20
-4.67139689881651
30
0
41
1
10
-51.9693089720826
20
-4.68583123022111
30
0
41
1
10
-51.9422155209833
20
-4.71419608571787
30
0
41
1
10
-51.9282893124733
20
-4.72815494045494
30
0
41
1
10
-51.8855899983215
20
-4.7689776324583
30
0
41
1
10
-51.8559681934236
20
-4.79473829352929
30
0
41
1
10
-51.7940523105194
20
-4.84293492664423
30
0
41
1
10
-51.7617609635258
20
-4.86537421079322
30
0
41
1
10
-51.710934585781
20
-4.89608972183805
30
0
41
1
10
-51.693592788252
20
-4.9058359097269
30
0
41
1
10
-51.6580214478988
20
-4.92423937407065
30
0
41
1
10
-51.6397301965266
20
-4.93292309713041
30
0
41
1
10
-51.583780125377
20
-4.9569645106269
30
0
41
1
10
-51.5455987975117
20
-4.97010157811332
30
0
41
1
10
-51.4673083175319
20
-4.99008231274206
30
0
41
1
10
-51.4272005227822
20
-4.99693051090844
30
0
41
1
10
-51.3860020460815
20
-5.00022676868039
30
0
0
SPLINE
5
D8
100
AcDbEntity
8
SK1
62
256
6
ByLayer
370
18
48
1
60
0
100
AcDbSpline
70
4
71
3
72
34
73
30
40
0
40
0
40
0
40
0
40
0.0625000000000001
40
0.0625000000000001
40
0.125
40
0.125
40
0.1875
40
0.1875
40
0.25
40
0.25
40
0.28125
40
0.28125
40
0.312499999999999
40
0.312499999999999
40
0.374999999999998
40
0.374999999999998
40
0.499999999999995
40
0.499999999999995
40
0.531249999999995
40
0.531249999999995
40
0.562499999999995
40
0.562499999999995
40
0.624999999999996
40
0.624999999999996
40
0.749999999999997
40
0.749999999999997
40
0.874999999999999
40
0.874999999999999
40
1
40
1
40
1
40
1
41
1
10
-51.3860020460815
20
5.00022676868039
30
0
41
1
10
-51.4271597094618
20
4.99693377635015
30
0
41
1
10
-51.4672462826171
20
4.9900941818546
30
0
41
1
10
-51.5455242136708
20
4.97012456894885
30
0
41
1
10
-51.5837142752675
20
4.95699014998107
30
0
41
1
10
-51.658355568598
20
4.92492253812571
30
0
41
1
10
-51.6938849422845
20
4.90639169663621
30
0
41
1
10
-51.7618166387264
20
4.86534206803361
30
0
41
1
10
-51.7942559781117
20
4.84279931421437
30
0
41
1
10
-51.8409760500773
20
4.80639681369991
30
0
41
1
10
-51.8562248159031
20
4.79382938651
30
0
41
1
10
-51.8861176712827
20
4.76788296468004
30
0
41
1
10
-51.9007110618413
20
4.75454548912128
30
0
41
1
10
-51.9432559764382
20
4.71379512925466
30
0
41
1
10
-51.9701014783725
20
4.68554212638855
30
0
41
1
10
-52.0468805903312
20
4.59805033156974
30
0
41
1
10
-52.0930959781036
20
4.5361050376323
30
0
41
1
10
-52.146279276313
20
4.45521167958731
30
0
41
1
10
-52.1566830990007
20
4.43885754119347
30
0
41
1
10
-52.1770537162702
20
4.4058167491863
30
0
41
1
10
-52.1870311208955
20
4.38911114781021
30
0
41
1
10
-52.2162315231511
20
4.33872068618709
30
0
41
1
10
-52.2347469485042
20
4.30473232112985
30
0
41
1
10
-52.2878314108395
20
4.20171722667834
30
0
41
1
10
-52.3199565384223
20
4.13164670884206
30
0
41
1
10
-52.3791390929746
20
3.98921323503123
30
0
41
1
10
-52.4061866509714
20
3.91684682729945
30
0
41
1
10
-52.4561716481468
20
3.77014208810513
30
0
41
1
10
-52.4791043925606
20
3.69580212206003
30
0
41
1
10
-52.5003287739482
20
3.62059097355464
30
0
0
SPLINE
5
D9
100
AcDbEntity
8
SK1
62
256
6
ByLayer
370
18
48
1
60
0
100
AcDbSpline
70
4
71
3
72
32
73
28
40
0
40
0
40
0
40
0
40
0.124999999999982
40
0.124999999999982
40
0.249999999999963
40
0.249999999999963
40
0.374999999999945
40
0.374999999999945
40
0.406249999999941
40
0.406249999999941
40
0.437499999999938
40
0.499999999999932
40
0.499999999999932
40
0.624999999999931
40
0.624999999999931
40
0.656249999999931
40
0.656249999999931
40
0.68749999999993
40
0.68749999999993
40
0.749999999999941
40
0.749999999999941
40
0.874999999999977
40
0.874999999999977
40
0.906249999999979
40
0.906249999999979
40
0.937499999999981
40
1
40
1
40
1
40
1
41
1
10
-14.0157764695459
20
6.59242894057729
30
0
41
1
10
-14.0458287908144
20
6.6375753796253
30
0
41
1
10
-14.0777095790597
20
6.68135165141678
30
0
41
1
10
-14.1456160664485
20
6.76590887596987
30
0
41
1
10
-14.1816386907667
20
6.80669170869109
30
0
41
1
10
-14.2584995514322
20
6.88489663469755
30
0
41
1
10
-14.2993317458756
20
6.92232243783545
30
0
41
1
10
-14.35399779722
20
6.96665617585003
30
0
41
1
10
-14.3651284778382
20
6.97541075031074
30
0
41
1
10
-14.3876400333972
20
6.9925614515505
30
0
41
1
10
-14.4218166346372
20
7.01777898878851
30
0
41
1
10
-14.4572545898122
20
7.04143848131534
30
0
41
1
10
-14.529923003083
20
7.08656817107874
30
0
41
1
10
-14.5807455844469
20
7.11375097789289
30
0
41
1
10
-14.6477689594914
20
7.14354340177493
30
0
41
1
10
-14.6613494138678
20
7.1492913738704
30
0
41
1
10
-14.6888796972728
20
7.1603468035685
30
0
41
1
10
-14.7028224503024
20
7.16564964334611
30
0
41
1
10
-14.7448319317882
20
7.18073146134719
30
0
41
1
10
-14.7732044950192
20
7.1897362156873
30
0
41
1
10
-14.8594560991353
20
7.21351895535656
30
0
41
1
10
-14.9184624466539
20
7.22508541231923
30
0
41
1
10
-14.9943023139084
20
7.23365556703433
30
0
41
1
10
-15.009604540326
20
7.23507501753883
30
0
41
1
10
-15.0401948935638
20
7.23728819114979
30
0
41
1
10
-15.0861089470591
20
7.23967813447453
30
0
41
1
10
-15.1321084232236
20
7.23928527151031
30
0
41
1
10
-15.1628130403699
20
7.23777548279986
30
0
0
SPLINE
5
DA
100
AcDbEntity
8
SK1
62
256
6
ByLayer
370
18
48
1
60
0
100
AcDbSpline
70
4
71
3
72
24
73
20
40
0
40
0
40
0
40
0
40
0.124999999999998
40
0.124999999999998
40
0.249999999999995
40
0.249999999999995
40
0.374999999999993
40
0.374999999999993
40
0.49999999999999
40
0.49999999999999
40
0.624999999999988
40
0.624999999999988
40
0.749999999999985
40
0.749999999999985
40
0.812499999999989
40
0.812499999999989
40
0.874999999999992
40
0.874999999999992
40
1
40
1
40
1
40
1
41
1
10
-15.1628130403699
20
-7.23777548279986
30
0
41
1
10
-15.1013368482927
20
-7.2407983526281
30
0
41
1
10
-15.0406973758297
20
-7.23880609117487
30
0
41
1
10
-14.920978556398
20
-7.22545942224767
30
0
41
1
10
-14.8618998887329
20
-7.21410077871741
30
0
41
1
10
-14.7452745335612
20
-7.18212437688828
30
0
41
1
10
-14.6895699451789
20
-7.16201960319464
30
0
41
1
10
-14.5827589175342
20
-7.11474711952985
30
0
41
1
10
-14.5316211412475
20
-7.08755690757022
30
0
41
1
10
-14.4334554488588
20
-7.02672282100497
30
0
41
1
10
-14.38751619038
20
-6.99376703919228
30
0
41
1
10
-14.3007925764322
20
-6.92357765523022
30
0
41
1
10
-14.2600161652162
20
-6.88633798514746
30
0
41
1
10
-14.2021759714483
20
-6.82763631844753
30
0
41
1
10
-14.1834523029509
20
-6.80759363972547
30
0
41
1
10
-14.1470479748901
20
-6.76660288333122
30
0
41
1
10
-14.1293429656042
20
-6.74562348347595
30
0
41
1
10
-14.0779142754528
20
-6.68164973874727
30
0
41
1
10
-14.0458764161971
20
-6.63764692539442
30
0
41
1
10
-14.0157764695459
20
-6.59242894057729
30
0
0
SPLINE
5
DB
100
AcDbEntity
8
1
62
256
6
ByLayer
370
13
48
1
60
0
100
AcDbSpline
70
4
71
3
72
78
73
74
40
0
40
0
40
0
40
0
40
0.0312500000000003
40
0.0312500000000003
40
0.0625000000000005
40
0.0625000000000005
40
0.0937500000000008
40
0.0937500000000008
40
0.125000000000001
40
0.125000000000001
40
0.156250000000001
40
0.156250000000001
40
0.187500000000002
40
0.187500000000002
40
0.218750000000002
40
0.218750000000002
40
0.250000000000002
40
0.250000000000002
40
0.281250000000003
40
0.281250000000003
40
0.312500000000003
40
0.312500000000003
40
0.343750000000003
40
0.343750000000003
40
0.375000000000004
40
0.375000000000004
40
0.406250000000004
40
0.406250000000004
40
0.437500000000004
40
0.437500000000004
40
0.445312500000005
40
0.445312500000005
40
0.453125000000005
40
0.453125000000005
40
0.468750000000005
40
0.468750000000005
40
0.500000000000005
40
0.500000000000005
40
0.531250000000006
40
0.531250000000006
40
0.562500000000006
40
0.562500000000006
40
0.593750000000006
40
0.593750000000006
40
0.625000000000007
40
0.625000000000007
40
0.656250000000007
40
0.656250000000007
40
0.687500000000007
40
0.687500000000007
40
0.718750000000007
40
0.718750000000007
40
0.750000000000008
40
0.750000000000008
40
0.781250000000008
40
0.781250000000008
40
0.812500000000008
40
0.812500000000008
40
0.843750000000008
40
0.843750000000008
40
0.875000000000009
40
0.875000000000009
40
0.890625000000009
40
0.890625000000009
40
0.898437500000009
40
0.898437500000009
40
0.906250000000008
40
0.906250000000008
40
0.937500000000006
40
0.937500000000006
40
0.968750000000003
40
0.968750000000003
40
1
40
1
40
1
40
1
41
1
10
214.283490834144
20
11.5
30
0
41
1
10
214.346312203641
20
11.5
30
0
41
1
10
214.409133573139
20
11.4816851446091
30
0
41
1
10
214.534776312135
20
11.4042940589401
30
0
41
1
10
214.597597681633
20
11.3452053555842
30
0
41
1
10
214.723240420629
20
11.1829850715689
30
0
41
1
10
214.786061790127
20
11.079841657242
30
0
41
1
10
214.911704529122
20
10.8274746603246
30
0
41
1
10
214.97452589862
20
10.6782416725179
30
0
41
1
10
215.100168637616
20
10.3332282062149
30
0
41
1
10
215.162990007114
20
10.1374425427853
30
0
41
1
10
215.288632746109
20
9.70065201370446
30
0
41
1
10
215.351454115607
20
9.45964754840941
30
0
41
1
10
215.477096854603
20
8.93561976684674
30
0
41
1
10
215.539918224101
20
8.65260296456071
30
0
41
1
10
215.665560963097
20
8.04952028758879
30
0
41
1
10
215.728382332595
20
7.72946649540293
30
0
41
1
10
215.85402507159
20
7.05876689317239
30
0
41
1
10
215.916846441088
20
6.70813716418752
30
0
41
1
10
216.042489180084
20
5.98380057125672
30
0
41
1
10
216.105310549582
20
5.61011153406469
30
0
41
1
10
216.230953288577
20
4.84771121208521
30
0
41
1
10
216.293774658075
20
4.45901708862812
30
0
41
1
10
216.419417397071
20
3.67466737784667
30
0
41
1
10
216.482238766569
20
3.27902624426775
30
0
41
1
10
216.607881505565
20
2.48836756236642
30
0
41
1
10
216.670702875062
20
2.09336045139341
30
0
41
1
10
216.796345614058
20
1.31070144596433
30
0
41
1
10
216.859166983556
20
0.923055516662117
30
0
41
1
10
216.937693695428
20
0.446614600655465
30
0
41
1
10
216.953399037803
20
0.351729364194995
30
0
41
1
10
216.984809722552
20
0.162840905463526
30
0
41
1
10
217.000515064926
20
0.068982269812409
30
0
41
1
10
217.04763109205
20
-0.212097038456704
30
0
41
1
10
217.079041776799
20
-0.401367942453391
30
0
41
1
10
217.173273831045
20
-0.973939879273331
30
0
41
1
10
217.236095200543
20
-1.36203645583976
30
0
41
1
10
217.361737939539
20
-2.14532292608018
30
0
41
1
10
217.424559309037
20
-2.54050665933408
30
0
41
1
10
217.550202048033
20
-3.33120103086597
30
0
41
1
10
217.613023417531
20
-3.72670103944492
30
0
41
1
10
217.738666156526
20
-4.51042111118505
30
0
41
1
10
217.801487526024
20
-4.89862656785152
30
0
41
1
10
217.92713026502
20
-5.6596915484771
30
0
41
1
10
217.989951634518
20
-6.03253383458139
30
0
41
1
10
218.115594373513
20
-6.75483109057092
30
0
41
1
10
218.178415743011
20
-7.10426825892526
30
0
41
1
10
218.304058482007
20
-7.77227272237266
30
0
41
1
10
218.366879851505
20
-8.09082406815619
30
0
41
1
10
218.492522590501
20
-8.69064893674417
30
0
41
1
10
218.555343959999
20
-8.97191059558673
30
0
41
1
10
218.680986698994
20
-9.49224820702023
30
0
41
1
10
218.743808068492
20
-9.73131791116779
30
0
41
1
10
218.869450807488
20
-10.1641405666845
30
0
41
1
10
218.932272176986
20
-10.3578933817516
30
0
41
1
10
219.057914915981
20
-10.6988246973551
30
0
41
1
10
219.120736285479
20
-10.846008601841
30
0
41
1
10
219.246379024475
20
-11.09433583576
30
0
41
1
10
219.309200393973
20
-11.1954887163058
30
0
41
1
10
219.434843132969
20
-11.3538485890305
30
0
41
1
10
219.497664502467
20
-11.4110674791506
30
0
41
1
10
219.591896556713
20
-11.4664314258177
30
0
41
1
10
219.623307241462
20
-11.4798171420003
30
0
41
1
10
219.670423268586
20
-11.4926662763686
30
0
41
1
10
219.68612861096
20
-11.4957447967764
30
0
41
1
10
219.717539295709
20
-11.4995592161432
30
0
41
1
10
219.733244638084
20
-11.5002968956435
30
0
41
1
10
219.811771349956
20
-11.4982809672508
30
0
41
1
10
219.874592719454
20
-11.4782553295087
30
0
41
1
10
220.000235458449
20
-11.3972772483333
30
0
41
1
10
220.063056827947
20
-11.3363123259926
30
0
41
1
10
220.188699566943
20
-11.1702212325121
30
0
41
1
10
220.251520936441
20
-11.0650832954915
30
0
41
1
10
220.314342305939
20
-10.9368774528418
30
0
0
SPLINE
5
DC
100
AcDbEntity
8
1
62
256
6
ByLayer
370
13
48
1
60
0
100
AcDbSpline
70
4
71
3
72
68
73
64
40
0
40
0
40
0
40
0
40
0.0312499999999979
40
0.0312499999999979
40
0.0624999999999957
40
0.0624999999999957
40
0.0937499999999935
40
0.0937499999999935
40
0.124999999999991
40
0.124999999999991
40
0.156249999999989
40
0.156249999999989
40
0.187499999999987
40
0.187499999999987
40
0.218749999999985
40
0.218749999999985
40
0.249999999999983
40
0.249999999999983
40
0.28124999999998
40
0.28124999999998
40
0.312499999999978
40
0.312499999999978
40
0.343749999999976
40
0.343749999999976
40
0.374999999999974
40
0.374999999999974
40
0.43749999999997
40
0.43749999999997
40
0.45312499999997
40
0.45312499999997
40
0.46093749999997
40
0.46093749999997
40
0.46874999999997
40
0.46874999999997
40
0.499999999999971
40
0.499999999999971
40
0.562499999999975
40
0.562499999999975
40
0.593749999999976
40
0.593749999999976
40
0.624999999999978
40
0.624999999999978
40
0.65624999999998
40
0.65624999999998
40
0.687499999999982
40
0.687499999999982
40
0.718749999999983
40
0.718749999999983
40
0.749999999999985
40
0.749999999999985
40
0.781249999999987
40
0.781249999999987
40
0.812499999999989
40
0.812499999999989
40
0.84374999999999
40
0.84374999999999
40
0.874999999999992
40
0.874999999999992
40
0.906249999999994
40
0.906249999999994
40
0.937499999999996
40
0.937499999999996
40
1
40
1
40
1
40
1
41
1
10
209.4
20
-11.2291450374353
30
0
41
1
10
209.452647442766
20
-11.1560508586062
30
0
41
1
10
209.505294885532
20
-11.0673672064861
30
0
41
1
10
209.610589771065
20
-10.8576825542474
30
0
41
1
10
209.663237213831
20
-10.7366776229811
30
0
41
1
10
209.768532099363
20
-10.461973860205
30
0
41
1
10
209.821179542129
20
-10.3082725024561
30
0
41
1
10
209.926474427661
20
-9.96866967649851
30
0
41
1
10
209.979121870427
20
-9.78276752102622
30
0
41
1
10
210.084416755959
20
-9.38017699396124
30
0
41
1
10
210.137064198725
20
-9.16349002685007
30
0
41
1
10
210.242359084257
20
-8.70165388903303
30
0
41
1
10
210.295006527024
20
-8.45650822025158
30
0
41
1
10
210.400301412556
20
-7.94091497490007
30
0
41
1
10
210.452948855322
20
-7.67047273387894
30
0
41
1
10
210.558243740854
20
-7.10814907378042
30
0
41
1
10
210.61089118362
20
-6.81627432161716
30
0
41
1
10
210.716186069152
20
-6.21546860391442
30
0
41
1
10
210.768833511918
20
-5.90654497578666
30
0
41
1
10
210.87412839745
20
-5.27633195530751
30
0
41
1
10
210.926775840216
20
-4.95504986096435
30
0
41
1
10
211.032070725749
20
-4.3048955445679
30
0
41
1
10
211.084718168515
20
-3.97602993450767
30
0
41
1
10
211.190013054047
20
-3.31535834162307
30
0
41
1
10
211.242660496813
20
-2.98355779069578
30
0
41
1
10
211.400602825111
20
-1.99025776732199
30
0
41
1
10
211.505897710643
20
-1.33114465429594
30
0
41
1
10
211.637516317559
20
-0.529190582050887
30
0
41
1
10
211.663840038942
20
-0.369875049995414
30
0
41
1
10
211.703325621016
20
-0.132786473833789
30
0
41
1
10
211.716487481708
20
-0.0541869144276177
30
0
41
1
10
211.742811203091
20
0.102849949371063
30
0
41
1
10
211.755973063782
20
0.181698872314428
30
0
41
1
10
211.82178236724
20
0.577490305803224
30
0
41
1
10
211.874429810006
20
0.899096517291952
30
0
41
1
10
212.032372138304
20
1.87421612724137
30
0
41
1
10
212.137667023836
20
2.53827471544852
30
0
41
1
10
212.295609352135
20
3.53191925712153
30
0
41
1
10
212.348256794901
20
3.86266093535755
30
0
41
1
10
212.453551680433
20
4.51867834222818
30
0
41
1
10
212.506199123199
20
4.84394793826368
30
0
41
1
10
212.611494008731
20
5.48427910163895
30
0
41
1
10
212.664141451497
20
5.79933360600819
30
0
41
1
10
212.769436337029
20
6.41447935482904
30
0
41
1
10
212.822083779795
20
6.7145631930741
30
0
41
1
10
212.927378665328
20
7.29521870739484
30
0
41
1
10
212.980026108094
20
7.57578332859191
30
0
41
1
10
213.085320993626
20
8.11327752443216
30
0
41
1
10
213.137968436392
20
8.37020109274775
30
0
41
1
10
213.243263321924
20
8.8569149057715
30
0
41
1
10
213.29591076469
20
9.08670077829157
30
0
41
1
10
213.401205650222
20
9.51642333637494
30
0
41
1
10
213.453853092989
20
9.71635766165224
30
0
41
1
10
213.559147978521
20
10.084545904159
30
0
41
1
10
213.611795421287
20
10.2527995884807
30
0
41
1
10
213.717090306819
20
10.5567190584445
30
0
41
1
10
213.769737749585
20
10.6923865906203
30
0
41
1
10
213.875032635117
20
10.9311264783031
30
0
41
1
10
213.927680077883
20
11.0342021968547
30
0
41
1
10
214.032974963415
20
11.2085731607331
30
0
41
1
10
214.085622406182
20
11.2798728890146
30
0
41
1
10
214.24356473448
20
11.4483768204938
30
0
41
1
10
214.348859620012
20
11.5
30
0
41
1
10
214.454154505544
20
11.5
30
0
0
SPLINE
5
DD
100
AcDbEntity
8
1
62
256
6
ByLayer
370
13
48
1
60
0
100
AcDbSpline
70
4
71
3
72
78
73
74
40
0
40
0
40
0
40
0
40
0.0312499999999999
40
0.0312499999999999
40
0.0624999999999998
40
0.0624999999999998
40
0.0937499999999996
40
0.0937499999999996
40
0.125
40
0.125
40
0.156249999999999
40
0.156249999999999
40
0.187499999999999
40
0.187499999999999
40
0.218749999999999
40
0.218749999999999
40
0.249999999999999
40
0.249999999999999
40
0.281249999999999
40
0.281249999999999
40
0.312499999999999
40
0.312499999999999
40
0.343749999999999
40
0.343749999999999
40
0.374999999999999
40
0.374999999999999
40
0.406249999999999
40
0.406249999999999
40
0.4140625
40
0.4140625
40
0.421875
40
0.421875
40
0.4375
40
0.4375
40
0.46875
40
0.46875
40
0.5
40
0.5
40
0.53125
40
0.53125
40
0.5625
40
0.5625
40
0.59375
40
0.59375
40
0.625
40
0.625
40
0.65625
40
0.65625
40
0.6875
40
0.6875
40
0.71875
40
0.71875
40
0.75
40
0.75
40
0.78125
40
0.78125
40
0.8125
40
0.8125
40
0.828125
40
0.828125
40
0.8359375
40
0.8359375
40
0.84375
40
0.84375
40
0.875
40
0.875
40
0.90625
40
0.90625
40
0.9375
40
0.9375
40
0.96875
40
0.96875
40
1
40
1
40
1
40
1
41
1
10
213.795141805301
20
11.5
30
0
41
1
10
213.86305014385
20
11.5
30
0
41
1
10
213.930958482398
20
11.4785929306576
30
0
41
1
10
214.066775159494
20
11.3877834054021
30
0
41
1
10
214.134683498042
20
11.3183625449163
30
0
41
1
10
214.270500175139
20
11.1275435735617
30
0
41
1
10
214.338408513688
20
11.0061284126301
30
0
41
1
10
214.474225190784
20
10.7091153807725
30
0
41
1
10
214.542133529332
20
10.5335049317775
30
0
41
1
10
214.677950206429
20
10.128129092246
30
0
41
1
10
214.745858544977
20
9.8983585611536
30
0
41
1
10
214.881675222074
20
9.38720031183925
30
0
41
1
10
214.949583560622
20
9.10581683100483
30
0
41
1
10
215.085400237719
20
8.49650009677902
30
0
41
1
10
215.153308576267
20
8.16858063937005
30
0
41
1
10
215.289125253364
20
7.47351726986517
30
0
41
1
10
215.357033591912
20
7.10639487717091
30
0
41
1
10
215.492850269009
20
6.34197009682259
30
0
41
1
10
215.560758607557
20
5.94469349592157
30
0
41
1
10
215.696575284654
20
5.12999966489556
30
0
41
1
10
215.764483623202
20
4.71260833760124
30
0
41
1
10
215.900300300299
20
3.8679276792335
30
0
41
1
10
215.968208638847
20
3.44066061088216
30
0
41
1
10
216.104025315943
20
2.58593808556611
30
0
41
1
10
216.171933654492
20
2.15849873033707
30
0
41
1
10
216.307750331588
20
1.31202436091115
30
0
41
1
10
216.375658670137
20
0.892998339977083
30
0
41
1
10
216.460544093322
20
0.378904270356628
30
0
41
1
10
216.477521177959
20
0.276565944363739
30
0
41
1
10
216.511475347233
20
0.0729449050193125
30
0
41
1
10
216.52845243187
20
-0.0279976805379647
30
0
41
1
10
216.579383685782
20
-0.332958479578167
30
0
41
1
10
216.613337855056
20
-0.538407020665716
30
0
41
1
10
216.715200362878
20
-1.1600135736098
30
0
41
1
10
216.783108701427
20
-1.58148104636473
30
0
41
1
10
216.918925378523
20
-2.43112647726204
30
0
41
1
10
216.986833717072
20
-2.85929392449003
30
0
41
1
10
217.122650394168
20
-3.71348360430917
30
0
41
1
10
217.190558732717
20
-4.13948828931115
30
0
41
1
10
217.326375409813
20
-4.97948553667962
30
0
41
1
10
217.394283748361
20
-5.39345479874098
30
0
41
1
10
217.530100425458
20
-6.19912240222104
30
0
41
1
10
217.598008764006
20
-6.59079452173393
30
0
41
1
10
217.733825441103
20
-7.34197242341065
30
0
41
1
10
217.801733779651
20
-7.70145298676243
30
0
41
1
10
217.937550456748
20
-8.37950332744953
30
0
41
1
10
218.005458795296
20
-8.69805298475114
30
0
41
1
10
218.141275472393
20
-9.28734369640392
30
0
41
1
10
218.209183810941
20
-9.55807290420557
30
0
41
1
10
218.345000488038
20
-10.0471620196181
30
0
41
1
10
218.412908826586
20
-10.2655197706276
30
0
41
1
10
218.548725503683
20
-10.6478560344663
30
0
41
1
10
218.616633842231
20
-10.8118414830579
30
0
41
1
10
218.752450519328
20
-11.0858981172623
30
0
41
1
10
218.820358857876
20
-11.1959831003161
30
0
41
1
10
218.956175534972
20
-11.3648577980423
30
0
41
1
10
219.024083873521
20
-11.4236651027712
30
0
41
1
10
219.125946381343
20
-11.4766220180677
30
0
41
1
10
219.159900550617
20
-11.4884099797576
30
0
41
1
10
219.210831804529
20
-11.4977787448194
30
0
41
1
10
219.227808889166
20
-11.4995166285975
30
0
41
1
10
219.26176305844
20
-11.5003080660664
30
0
41
1
10
219.278740143077
20
-11.4993710304306
30
0
41
1
10
219.363625566262
20
-11.487831402446
30
0
41
1
10
219.431533904811
20
-11.4565987223355
30
0
41
1
10
219.567350581907
20
-11.3451672977388
30
0
41
1
10
219.635258920456
20
-11.2649501952043
30
0
41
1
10
219.771075597552
20
-11.0519025173974
30
0
41
1
10
219.838983936101
20
-10.9190555761527
30
0
41
1
10
219.974800613197
20
-10.5989849699961
30
0
41
1
10
220.042708951746
20
-10.4117500843111
30
0
41
1
10
220.178525628842
20
-9.9834506783356
30
0
41
1
10
220.24643396739
20
-9.74238290360626
30
0
41
1
10
220.314342305939
20
-9.47594270208577
30
0
0
SPLINE
5
DE
100
AcDbEntity
8
1
62
256
6
ByLayer
370
13
48
1
60
0
100
AcDbSpline
70
4
71
3
72
43
73
39
40
0
40
0
40
0
40
0
40
0.0624999999999995
40
0.0624999999999995
40
0.124999999999999
40
0.124999999999999
40
0.187499999999998
40
0.187499999999998
40
0.249999999999998
40
0.249999999999998
40
0.312499999999997
40
0.312499999999997
40
0.374999999999997
40
0.374999999999997
40
0.390624999999997
40
0.398437499999997
40
0.398437499999997
40
0.406249999999997
40
0.406249999999997
40
0.437499999999996
40
0.437499999999996
40
0.499999999999997
40
0.499999999999997
40
0.562499999999997
40
0.562499999999997
40
0.624999999999997
40
0.624999999999997
40
0.687499999999998
40
0.687499999999998
40
0.749999999999998
40
0.749999999999998
40
0.812499999999999
40
0.812499999999999
40
0.874999999999999
40
0.874999999999999
40
0.9375
40
0.9375
40
1
40
1
40
1
40
1
41
1
10
209.4
20
-10.091226809336
30
0
41
1
10
209.495120947431
20
-9.77910841242414
30
0
41
1
10
209.590241894863
20
-9.41430118760991
30
0
41
1
10
209.780483789725
20
-8.5903197579658
30
0
41
1
10
209.875604737156
20
-8.13120853576564
30
0
41
1
10
210.065846632019
20
-7.13863509882489
30
0
41
1
10
210.16096757945
20
-6.60529360707886
30
0
41
1
10
210.351209474313
20
-5.49045993669333
30
0
41
1
10
210.446330421744
20
-4.90910887070837
30
0
41
1
10
210.636572316607
20
-3.72655438571985
30
0
41
1
10
210.731693264038
20
-3.12547097624801
30
0
41
1
10
210.921935158901
20
-1.92977745601453
30
0
41
1
10
211.017056106332
20
-1.33523970423883
30
0
41
1
10
211.135957290621
20
-0.609478713716925
30
0
41
1
10
211.171627645908
20
-0.393034636267799
30
0
41
1
10
211.207298001194
20
-0.178822966816995
30
0
41
1
10
211.231078238052
20
-0.0365423547923172
30
0
41
1
10
211.242968356481
20
0.034195657328155
30
0
41
1
10
211.302418948626
20
0.389868115224687
30
0
41
1
10
211.349979422341
20
0.678643831241487
30
0
41
1
10
211.492660843488
20
1.55441932697724
30
0
41
1
10
211.58778179092
20
2.15104175553486
30
0
41
1
10
211.778023685782
20
3.34788523835581
30
0
41
1
10
211.873144633213
20
3.94802736849709
30
0
41
1
10
212.063386528076
20
5.12524129603264
30
0
41
1
10
212.158507475507
20
5.70218860431194
30
0
41
1
10
212.34874937037
20
6.80477382207448
30
0
41
1
10
212.443870317801
20
7.3302707643056
30
0
41
1
10
212.634112212664
20
8.30426066017424
30
0
41
1
10
212.729233160095
20
8.75263832744241
30
0
41
1
10
212.919475054958
20
9.5532504037983
30
0
41
1
10
213.014596002389
20
9.90543056206121
30
0
41
1
10
213.204837897251
20
10.5037263001875
30
0
41
1
10
213.299958844683
20
10.7498595429738
30
0
41
1
10
213.490200739545
20
11.1359210735314
30
0
41
1
10
213.585321686976
20
11.2759225642077
30
0
41
1
10
213.775563581839
20
11.4579132796987
30
0
41
1
10
213.87068452927
20
11.5
30
0
41
1
10
213.965805476701
20
11.5
30
0
0
SPLINE
5
DF
100
AcDbEntity
8
1
62
256
6
ByLayer
370
13
48
1
60
0
100
AcDbSpline
70
4
71
3
72
80
73
76
40
0
40
0
40
0
40
0
40
0.0312500000000016
40
0.0312500000000016
40
0.0625000000000032
40
0.0625000000000032
40
0.0937500000000048
40
0.0937500000000048
40
0.125000000000006
40
0.125000000000006
40
0.156250000000008
40
0.156250000000008
40
0.187500000000009
40
0.187500000000009
40
0.218750000000011
40
0.218750000000011
40
0.250000000000013
40
0.250000000000013
40
0.281250000000014
40
0.281250000000014
40
0.312500000000016
40
0.312500000000016
40
0.343750000000017
40
0.343750000000017
40
0.375000000000019
40
0.375000000000019
40
0.382812500000019
40
0.386718750000019
40
0.386718750000019
40
0.390625000000019
40
0.390625000000019
40
0.406250000000019
40
0.406250000000019
40
0.437500000000018
40
0.437500000000018
40
0.468750000000017
40
0.468750000000017
40
0.500000000000016
40
0.500000000000016
40
0.531250000000015
40
0.531250000000015
40
0.562500000000014
40
0.562500000000014
40
0.593750000000013
40
0.593750000000013
40
0.625000000000012
40
0.625000000000012
40
0.656250000000011
40
0.656250000000011
40
0.68750000000001
40
0.68750000000001
40
0.718750000000009
40
0.718750000000009
40
0.750000000000008
40
0.750000000000008
40
0.765625000000008
40
0.765625000000008
40
0.773437500000008
40
0.777343750000008
40
0.777343750000008
40
0.781250000000008
40
0.781250000000008
40
0.812500000000006
40
0.812500000000006
40
0.843750000000005
40
0.843750000000005
40
0.875000000000004
40
0.875000000000004
40
0.906250000000003
40
0.906250000000003
40
0.937500000000002
40
0.937500000000002
40
0.968750000000001
40
0.968750000000001
40
1
40
1
40
1
40
1
41
1
10
213.306792776458
20
11.5
30
0
41
1
10
213.379788084057
20
11.5
30
0
41
1
10
213.452783391656
20
11.4752579360249
30
0
41
1
10
213.598774006853
20
11.3699024702809
30
0
41
1
10
213.671769314452
20
11.2892626893851
30
0
41
1
10
213.81775992965
20
11.0673771705692
30
0
41
1
10
213.890755237248
20
10.926107668052
30
0
41
1
10
214.036745852446
20
10.5807004197948
30
0
41
1
10
214.109741160045
20
10.3765467149643
30
0
41
1
10
214.255731775242
20
9.90619741370216
30
0
41
1
10
214.328727082841
20
9.6399982957181
30
0
41
1
10
214.474717698038
20
9.04978200195362
30
0
41
1
10
214.547713005637
20
8.72577616466052
30
0
41
1
10
214.693703620835
20
8.02745700270361
30
0
41
1
10
214.766698928433
20
7.65316891680024
30
0
41
1
10
214.912689543631
20
6.86452660841991
30
0
41
1
10
214.98568485123
20
6.45020715345356
30
0
41
1
10
215.131675466427
20
5.59355424381946
30
0
41
1
10
215.204670774026
20
5.15125856211256
30
0
41
1
10
215.350661389223
20
4.25140148798846
30
0
41
1
10
215.423656696822
20
3.7938742136007
30
0
41
1
10
215.56964731202
20
2.87589497982245
30
0
41
1
10
215.642642619618
20
2.41546854802365
30
0
41
1
10
215.788633234816
20
1.50271314447448
30
0
41
1
10
215.861628542415
20
1.05039887875842
30
0
41
1
10
215.952872676913
20
0.495750534872997
30
0
41
1
10
215.980245917263
20
0.330154098360111
30
0
41
1
10
216.007619157612
20
0.165890259431109
30
0
41
1
10
216.025867984512
20
0.0566912027089188
30
0
41
1
10
216.034992397962
20
0.002353142705914
30
0
41
1
10
216.080614465211
20
-0.270079191374009
30
0
41
1
10
216.11711211901
20
-0.490552703655481
30
0
41
1
10
216.226605080409
20
-1.1581290460166
30
0
41
1
10
216.299600388007
20
-1.61145235989241
30
0
41
1
10
216.445591003205
20
-2.52541283220046
30
0
41
1
10
216.518586310804
20
-2.98603440449716
30
0
41
1
10
216.664576926001
20
-3.90345872733067
30
0
41
1
10
216.7375722336
20
-4.36023514495454
30
0
41
1
10
216.883562848797
20
-5.25757527882638
30
0
41
1
10
216.956558156396
20
-5.69810437219431
30
0
41
1
10
217.102548771593
20
-6.55022150895095
30
0
41
1
10
217.175544079192
20
-6.9617717630814
30
0
41
1
10
217.32153469439
20
-7.74397683403504
30
0
41
1
10
217.394530001989
20
-8.11459742083463
30
0
41
1
10
217.540520617186
20
-8.80486992012314
30
0
41
1
10
217.613515924785
20
-9.12449758286013
30
0
41
1
10
217.759506539982
20
-9.70549298776706
30
0
41
1
10
217.832501847581
20
-9.96685059065499
30
0
41
1
10
217.978492462779
20
-10.4273255429818
30
0
41
1
10
218.051487770377
20
-10.6264475344804
30
0
41
1
10
218.197478385575
20
-10.961863445806
30
0
41
1
10
218.270473693174
20
-11.0981741357825
30
0
41
1
10
218.416464308371
20
-11.3104379425312
30
0
41
1
10
218.48945961597
20
-11.3864152194761
30
0
41
1
10
218.598952577368
20
-11.4587843893698
30
0
41
1
10
218.635450231167
20
-11.475991200643
30
0
41
1
10
218.690196711866
20
-11.492005267961
30
0
41
1
10
218.717569952216
20
-11.4975643497117
30
0
41
1
10
218.744943192566
20
-11.4995685624411
30
0
41
1
10
218.763192019465
20
-11.5001282434464
30
0
41
1
10
218.772316432915
20
-11.5000218350709
30
0
41
1
10
218.854436153964
20
-11.4955632854204
30
0
41
1
10
218.927431461562
20
-11.4665790628813
30
0
41
1
10
219.07342207676
20
-11.3522883459971
30
0
41
1
10
219.146417384359
20
-11.2669555036963
30
0
41
1
10
219.292407999556
20
-11.0354029857734
30
0
41
1
10
219.365403307155
20
-10.889159974961
30
0
41
1
10
219.511393922353
20
-10.5337518360354
30
0
41
1
10
219.584389229951
20
-10.3245715903207
30
0
41
1
10
219.730379845149
20
-9.84438015254491
30
0
41
1
10
219.803375152747
20
-9.57336657553981
30
0
41
1
10
219.949365767945
20
-8.97400468233192
30
0
41
1
10
220.022361075544
20
-8.64566889773667
30
0
41
1
10
220.168351690741
20
-7.93941711960426
30
0
41
1
10
220.24134699834
20
-7.56152732528597
30
0
41
1
10
220.314342305939
20
-7.16405916253117
30
0
0
SPLINE
5
E0
100
AcDbEntity
8
1
62
256
6
ByLayer
370
13
48
1
60
0
100
AcDbSpline
70
4
71
3
72
43
73
39
40
0
40
0
40
0
40
0
40
0.0625000000000001
40
0.0625000000000001
40
0.125
40
0.125
40
0.1875
40
0.1875
40
0.25
40
0.25
40
0.3125
40
0.3125
40
0.328125000000001
40
0.328125000000001
40
0.3359375
40
0.3359375
40
0.34375
40
0.374999999999999
40
0.374999999999999
40
0.4375
40
0.4375
40
0.5
40
0.5
40
0.5625
40
0.5625
40
0.625
40
0.625
40
0.6875
40
0.6875
40
0.75
40
0.75
40
0.8125
40
0.8125
40
0.875
40
0.875
40
0.9375
40
0.9375
40
1
40
1
40
1
40
1
41
1
10
209.4
20
-8.05522345604547
30
0
41
1
10
209.484947009331
20
-7.63187574257884
30
0
41
1
10
209.569894018661
20
-7.17637866205217
30
0
41
1
10
209.739788037321
20
-6.21840475354296
30
0
41
1
10
209.824735046652
20
-5.71600671165831
30
0
41
1
10
209.994629065313
20
-4.68407260312515
30
0
41
1
10
210.079576074643
20
-4.15461354433259
30
0
41
1
10
210.249470093304
20
-3.08838653990978
30
0
41
1
10
210.334417102634
20
-2.55167739270877
30
0
41
1
10
210.504311121295
20
-1.48867205578972
30
0
41
1
10
210.589258130626
20
-0.96240831580397
30
0
41
1
10
210.695441892289
20
-0.319976113679076
30
0
41
1
10
210.716678644621
20
-0.192249999163181
30
0
41
1
10
210.74853377312
20
-0.0019380114557634
30
0
41
1
10
210.759152149286
20
0.0612776113376299
30
0
41
1
10
210.780388901619
20
0.188415727050028
30
0
41
1
10
210.833480782451
20
0.507305125024942
30
0
41
1
10
210.886572663282
20
0.83115974518509
30
0
41
1
10
211.013993177278
20
1.61553809210227
30
0
41
1
10
211.098940186608
20
2.14807034868045
30
0
41
1
10
211.268834205269
20
3.21666147255144
30
0
41
1
10
211.353781214599
20
3.7526766014727
30
0
41
1
10
211.52367523326
20
4.80947284975926
30
0
41
1
10
211.60862224259
20
5.33018610546046
30
0
41
1
10
211.778516261251
20
6.33628487085196
30
0
41
1
10
211.863463270581
20
6.82159030298072
30
0
41
1
10
212.033357289242
20
7.7377207007344
30
0
41
1
10
212.118304298572
20
8.16847194601203
30
0
41
1
10
212.288198317233
20
8.95966505985245
30
0
41
1
10
212.373145326564
20
9.32005807958271
30
0
41
1
10
212.543039345225
20
9.95993592464814
30
0
41
1
10
212.627986354555
20
10.2394076465257
30
0
41
1
10
212.797880373216
20
10.713035384752
30
0
41
1
10
212.882827382546
20
10.9072133060238
30
0
41
1
10
213.052721401207
20
11.2118912092684
30
0
41
1
10
213.137668410537
20
11.3224374995927
30
0
41
1
10
213.307562429198
20
11.4664639285356
30
0
41
1
10
213.392509438529
20
11.5
30
0
41
1
10
213.477456447859
20
11.5
30
0
0
SPLINE
5
E1
100
AcDbEntity
8
1
62
256
6
ByLayer
370
13
48
1
60
0
100
AcDbSpline
70
4
71
3
72
79
73
75
40
0
40
0
40
0
40
0
40
0.0312500000000014
40
0.0312500000000014
40
0.0625000000000029
40
0.0625000000000029
40
0.0937500000000043
40
0.0937500000000043
40
0.125000000000006
40
0.125000000000006
40
0.156250000000007
40
0.156250000000007
40
0.187500000000009
40
0.187500000000009
40
0.21875000000001
40
0.21875000000001
40
0.250000000000011
40
0.250000000000011
40
0.281250000000013
40
0.281250000000013
40
0.312500000000014
40
0.312500000000014
40
0.343750000000016
40
0.343750000000016
40
0.359375000000017
40
0.359375000000017
40
0.367187500000017
40
0.367187500000017
40
0.375000000000017
40
0.375000000000017
40
0.406250000000016
40
0.406250000000016
40
0.437500000000015
40
0.437500000000015
40
0.468750000000014
40
0.468750000000014
40
0.500000000000013
40
0.500000000000013
40
0.531250000000012
40
0.531250000000012
40
0.562500000000011
40
0.562500000000011
40
0.593750000000011
40
0.593750000000011
40
0.62500000000001
40
0.62500000000001
40
0.656250000000009
40
0.656250000000009
40
0.687500000000008
40
0.687500000000008
40
0.718750000000007
40
0.718750000000007
40
0.726562500000007
40
0.726562500000007
40
0.730468750000008
40
0.730468750000008
40
0.734375000000008
40
0.750000000000007
40
0.750000000000007
40
0.781250000000006
40
0.781250000000006
40
0.812500000000005
40
0.812500000000005
40
0.843750000000005
40
0.843750000000005
40
0.875000000000004
40
0.875000000000004
40
0.906250000000003
40
0.906250000000003
40
0.937500000000002
40
0.937500000000002
40
0.968750000000001
40
0.968750000000001
40
1
40
1
40
1
40
1
41
1
10
212.818443747616
20
11.5
30
0
41
1
10
212.896526024265
20
11.5
30
0
41
1
10
212.974608300914
20
11.471679612282
30
0
41
1
10
213.130772854212
20
11.3506402029747
30
0
41
1
10
213.208855130862
20
11.2578843163178
30
0
41
1
10
213.36501968416
20
11.0024468278885
30
0
41
1
10
213.443101960809
20
10.8397330760841
30
0
41
1
10
213.599266514108
20
10.4422175624251
30
0
41
1
10
213.677348790757
20
10.207396667394
30
0
41
1
10
213.833513344055
20
9.66767092555887
30
0
41
1
10
213.911595620704
20
9.36276680633426
30
0
41
1
10
214.067760174003
20
8.68934471554408
30
0
41
1
10
214.145842450652
20
8.32084979995145
30
0
41
1
10
214.30200700395
20
7.53082960264371
30
0
41
1
10
214.3800892806
20
7.10934616932028
30
0
41
1
10
214.536253833898
20
6.22705257172697
30
0
41
1
10
214.614336110547
20
5.7662943086751
30
0
41
1
10
214.770500663846
20
4.82083079570677
30
0
41
1
10
214.848582940495
20
4.33617658054919
30
0
41
1
10
215.004747493793
20
3.35839030883193
30
0
41
1
10
215.082829770442
20
2.86529903726222
30
0
41
1
10
215.238994323741
20
1.88478643804984
30
0
41
1
10
215.31707660039
20
1.39739039247306
30
0
41
1
10
215.434200015364
20
0.679413385736012
30
0
41
1
10
215.473241153689
20
0.44225342611341
30
0
41
1
10
215.531802861175
20
0.0906700709270467
30
0
41
1
10
215.551323430338
20
-0.0253692045669425
30
0
41
1
10
215.590364568662
20
-0.259237361548827
30
0
41
1
10
215.609885137825
20
-0.376875756491131
30
0
41
1
10
215.707487983636
20
-0.968230435969133
30
0
41
1
10
215.785570260285
20
-1.45154399888025
30
0
41
1
10
215.941734813583
20
-2.42766398512435
30
0
41
1
10
216.019817090233
20
-2.92045002712112
30
0
41
1
10
216.175981643531
20
-3.90200689880459
30
0
41
1
10
216.25406392018
20
-4.39074121371897
30
0
41
1
10
216.410228473479
20
-5.34900991810403
30
0
41
1
10
216.488310750128
20
-5.81849548793167
30
0
41
1
10
216.644475303427
20
-6.72270510512251
30
0
41
1
10
216.722557580076
20
-7.15737637059735
30
0
41
1
10
216.878722133374
20
-7.97757918960315
30
0
41
1
10
216.956804410023
20
-8.36306483030796
30
0
41
1
10
217.112968963322
20
-9.07322497138443
30
0
41
1
10
217.191051239971
20
-9.39787019827162
30
0
41
1
10
217.347215793269
20
-9.97854769558344
30
0
41
1
10
217.425298069918
20
-10.2345726133871
30
0
41
1
10
217.581462623217
20
-10.6746416970718
30
0
41
1
10
217.659544899866
20
-10.8586996717597
30
0
41
1
10
217.815709453164
20
-11.1557956178157
30
0
41
1
10
217.893791729814
20
-11.2688627368419
30
0
41
1
10
218.049956283112
20
-11.428595642299
30
0
41
1
10
218.128038559761
20
-11.4752977299209
30
0
41
1
10
218.225641405573
20
-11.4967134392277
30
0
41
1
10
218.245161974735
20
-11.4991533804199
30
0
41
1
10
218.274442828478
20
-11.5001457491205
30
0
41
1
10
218.28420311306
20
-11.5000344322497
30
0
41
1
10
218.303723682222
20
-11.4989214337214
30
0
41
1
10
218.352525105128
20
-11.493906762755
30
0
41
1
10
218.401326528033
20
-11.4775163715701
30
0
41
1
10
218.518449943007
20
-11.4148640107522
30
0
41
1
10
218.596532219656
20
-11.3419259653186
30
0
41
1
10
218.752696772955
20
-11.1274580555911
30
0
41
1
10
218.830779049604
20
-10.9858937882854
30
0
41
1
10
218.986943602902
20
-10.6309124976026
30
0
41
1
10
219.065025879552
20
-10.4174716400556
30
0
41
1
10
219.22119043285
20
-9.91944726766289
30
0
41
1
10
219.299272709499
20
-9.6348580845742
30
0
41
1
10
219.455437262798
20
-8.99968818532523
30
0
41
1
10
219.533519539447
20
-8.64912399088738
30
0
41
1
10
219.689684092745
20
-7.8914441478565
30
0
41
1
10
219.767766369394
20
-7.48436549228376
30
0
41
1
10
219.923930922693
20
-6.6265702874459
30
0
41
1
10
220.002013199342
20
-6.17590377105992
30
0
41
1
10
220.15817775264
20
-5.24598093352895
30
0
41
1
10
220.23626002929
20
-4.76677701819858
30
0
41
1
10
220.314342305939
20
-4.28107981742349
30
0
0
SPLINE
5
E2
100
AcDbEntity
8
1
62
256
6
ByLayer
370
13
48
1
60
0
100
AcDbSpline
70
4
71
3
72
44
73
40
40
0
40
0
40
0
40
0
40
0.0624999999999991
40
0.0624999999999991
40
0.124999999999998
40
0.124999999999998
40
0.187499999999997
40
0.187499999999997
40
0.218749999999997
40
0.218749999999997
40
0.234374999999997
40
0.234374999999997
40
0.242187499999997
40
0.242187499999997
40
0.249999999999997
40
0.249999999999997
40
0.312499999999997
40
0.312499999999997
40
0.374999999999997
40
0.374999999999997
40
0.437499999999997
40
0.437499999999997
40
0.499999999999998
40
0.499999999999998
40
0.562499999999998
40
0.562499999999998
40
0.624999999999998
40
0.624999999999998
40
0.687499999999999
40
0.687499999999999
40
0.749999999999999
40
0.749999999999999
40
0.812499999999999
40
0.812499999999999
40
0.874999999999999
40
0.874999999999999
40
0.9375
40
0.9375
40
1
40
1
40
1
40
1
41
1
10
209.4
20
-5.32932587369152
30
0
41
1
10
209.474773071229
20
-4.87721093712202
30
0
41
1
10
209.549546142459
20
-4.41397902240143
30
0
41
1
10
209.699092284918
20
-3.47880415243958
30
0
41
1
10
209.773865356148
20
-3.0068947947388
30
0
41
1
10
209.923411498607
20
-2.06692951017317
30
0
41
1
10
209.998184569836
20
-1.59889540601301
30
0
41
1
10
210.11034417668
20
-0.907743831234939
30
0
41
1
10
210.147730712295
20
-0.679159860511191
30
0
41
1
10
210.203810515717
20
-0.339819757405309
30
0
41
1
10
210.222503783525
20
-0.227294525132777
30
0
41
1
10
210.250543685236
20
-0.0594826919313505
30
0
41
1
10
210.25989031914
20
-0.0038192795575469
30
0
41
1
10
210.278583586947
20
0.10780708365067
30
0
41
1
10
210.287930220851
20
0.16378568256556
30
0
41
1
10
210.372049925984
20
0.669013840740405
30
0
41
1
10
210.446822997213
20
1.12830740671603
30
0
41
1
10
210.596369139672
20
2.05819836894165
30
0
41
1
10
210.671142210902
20
2.52878247654834
30
0
41
1
10
210.820688353361
20
3.46991249931494
30
0
41
1
10
210.89546142459
20
3.94043249047635
30
0
41
1
10
211.045007567049
20
4.86843998774796
30
0
41
1
10
211.119780638279
20
5.32589077055363
30
0
41
1
10
211.269326780738
20
6.21406351646209
30
0
41
1
10
211.344099851967
20
6.64474314439869
30
0
41
1
10
211.493645994426
20
7.46618439202388
30
0
41
1
10
211.568419065656
20
7.85690568455544
30
0
41
1
10
211.717965208115
20
8.58701929624957
30
0
41
1
10
211.792738279344
20
8.92638120524779
30
0
41
1
10
211.942284421803
20
9.54523412771718
30
0
41
1
10
212.017057493033
20
9.82471030706731
30
0
41
1
10
212.166603635492
20
10.3188163034844
30
0
41
1
10
212.241376706721
20
10.5334485193685
30
0
41
1
10
212.39092284918
20
10.8966463440405
30
0
41
1
10
212.46569592041
20
11.0452290723419
30
0
41
1
10
212.615242062869
20
11.2785568421336
30
0
41
1
10
212.690015134098
20
11.3633283813725
30
0
41
1
10
212.839561276557
20
11.4740350940114
30
0
41
1
10
212.914334347787
20
11.5
30
0
41
1
10
212.989107419016
20
11.5
30
0
0
SPLINE
5
E3
100
AcDbEntity
8
1
62
256
6
ByLayer
370
13
48
1
60
0
100
AcDbSpline
70
4
71
3
72
79
73
75
40
0
40
0
40
0
40
0
40
0.0312500000000016
40
0.0312500000000016
40
0.0625000000000032
40
0.0625000000000032
40
0.0937500000000047
40
0.0937500000000047
40
0.125000000000006
40
0.125000000000006
40
0.156250000000008
40
0.156250000000008
40
0.187500000000009
40
0.187500000000009
40
0.218750000000011
40
0.218750000000011
40
0.250000000000012
40
0.250000000000012
40
0.281250000000014
40
0.281250000000014
40
0.312500000000015
40
0.312500000000015
40
0.328125000000016
40
0.328125000000016
40
0.335937500000016
40
0.339843750000016
40
0.339843750000016
40
0.343750000000016
40
0.343750000000016
40
0.375000000000016
40
0.375000000000016
40
0.406250000000015
40
0.406250000000015
40
0.437500000000014
40
0.437500000000014
40
0.468750000000013
40
0.468750000000013
40
0.500000000000013
40
0.500000000000013
40
0.531250000000012
40
0.531250000000012
40
0.562500000000011
40
0.562500000000011
40
0.59375000000001
40
0.59375000000001
40
0.62500000000001
40
0.62500000000001
40
0.656250000000009
40
0.656250000000009
40
0.671875000000008
40
0.671875000000008
40
0.679687500000009
40
0.679687500000009
40
0.687500000000009
40
0.687500000000009
40
0.718750000000008
40
0.718750000000008
40
0.750000000000007
40
0.750000000000007
40
0.781250000000006
40
0.781250000000006
40
0.812500000000005
40
0.812500000000005
40
0.843750000000004
40
0.843750000000004
40
0.875000000000003
40
0.875000000000003
40
0.906250000000003
40
0.906250000000003
40
0.937500000000002
40
0.937500000000002
40
0.968750000000001
40
0.968750000000001
40
1
40
1
40
1
40
1
41
1
10
212.330094718773
20
11.5
30
0
41
1
10
212.413263964473
20
11.5
30
0
41
1
10
212.496433210172
20
11.4678573519568
30
0
41
1
10
212.662771701572
20
11.3299858533118
30
0
41
1
10
212.745940947271
20
11.2242066162332
30
0
41
1
10
212.912279438671
20
10.9327184560528
30
0
41
1
10
212.99544868437
20
10.7469672101585
30
0
41
1
10
213.161787175769
20
10.2936811104718
30
0
41
1
10
213.244956421469
20
10.0261248012551
30
0
41
1
10
213.411294912868
20
9.41287002824035
30
0
41
1
10
213.494464158568
20
9.06718054033416
30
0
41
1
10
213.660802649967
20
8.30701462625353
30
0
41
1
10
213.743971895667
20
7.89257908988301
30
0
41
1
10
213.910310387066
20
7.00923818317469
30
0
41
1
10
213.993479632766
20
6.54039719146849
30
0
41
1
10
214.159818124165
20
5.5659035860559
30
0
41
1
10
214.242987369865
20
5.06032333453234
30
0
41
1
10
214.409325861264
20
4.03123512335489
30
0
41
1
10
214.492495106964
20
3.50779104270552
30
0
41
1
10
214.658833598363
20
2.46097955409465
30
0
41
1
10
214.742002844063
20
1.9376560261633
30
0
41
1
10
214.866756712612
20
1.16433102470646
30
0
41
1
10
214.908341335462
20
0.908475566720284
30
0
41
1
10
214.970718269737
20
0.528776548394518
30
0
41
1
10
215.001906736874
20
0.33994543425618
30
0
41
1
10
215.033095204011
20
0.152843417771294
30
0
41
1
10
215.053887515436
20
0.0285136571500288
30
0
41
1
10
215.064283671149
20
-0.0333505908277232
30
0
41
1
10
215.157849072561
20
-0.592929183792705
30
0
41
1
10
215.241018318261
20
-1.10342886328255
30
0
41
1
10
215.40735680966
20
-2.13821994008879
30
0
41
1
10
215.49052605536
20
-2.66248827023523
30
0
41
1
10
215.656864546759
20
-3.70899934379699
30
0
41
1
10
215.740033792458
20
-4.23119526275499
30
0
41
1
10
215.906372283858
20
-5.2553768964363
30
0
41
1
10
215.989541529557
20
-5.7572968525775
30
0
41
1
10
216.155880020957
20
-6.72209006421122
30
0
41
1
10
216.239049266656
20
-7.18489101443566
30
0
41
1
10
216.405387758055
20
-8.05408349195847
30
0
41
1
10
216.488557003755
20
-8.46041288260122
30
0
41
1
10
216.654895495155
20
-9.20285629293389
30
0
41
1
10
216.738064740854
20
-9.53893324488976
30
0
41
1
10
216.904403232253
20
-10.1321634485782
30
0
41
1
10
216.987572477953
20
-10.3893119161707
30
0
41
1
10
217.153910969352
20
-10.8217209174256
30
0
41
1
10
217.237080215052
20
-10.9970062391811
30
0
41
1
10
217.403418706451
20
-11.2681492481067
30
0
41
1
10
217.486587952151
20
-11.3640510156839
30
0
41
1
10
217.6113418207
20
-11.4534381946931
30
0
41
1
10
217.65292644355
20
-11.4741858307942
30
0
41
1
10
217.715303377825
20
-11.4925824696375
30
0
41
1
10
217.73609568925
20
-11.4965951289842
30
0
41
1
10
217.7776803121
20
-11.5005355627383
30
0
41
1
10
217.798472623525
20
-11.5004840082568
30
0
41
1
10
217.902434180649
20
-11.4901019011727
30
0
41
1
10
217.985603426349
20
-11.4489916193316
30
0
41
1
10
218.151941917748
20
-11.2921684665564
30
0
41
1
10
218.235111163448
20
-11.1764055455543
30
0
41
1
10
218.401449654847
20
-10.8644342323625
30
0
41
1
10
218.484618900547
20
-10.6681854925161
30
0
41
1
10
218.650957391946
20
-10.1940506350277
30
0
41
1
10
218.734126637645
20
-9.91614655908077
30
0
41
1
10
218.900465129045
20
-9.28308270790134
30
0
41
1
10
218.983634374745
20
-8.92793612751242
30
0
41
1
10
219.149972866144
20
-8.15044143304374
30
0
41
1
10
219.233142111843
20
-7.72813788817925
30
0
41
1
10
219.399480603242
20
-6.83118047229789
30
0
41
1
10
219.482649848942
20
-6.35659295789301
30
0
41
1
10
219.648988340342
20
-5.37300612919347
30
0
41
1
10
219.732157586041
20
-4.86407895459109
30
0
41
1
10
219.898496077441
20
-3.83069579634485
30
0
41
1
10
219.98166532314
20
-3.30630161894351
30
0
41
1
10
220.148003814539
20
-2.25974319531301
30
0
41
1
10
220.231173060239
20
-1.7376198234526
30
0
41
1
10
220.314342305939
20
-1.22414144107685
30
0
0
SPLINE
5
E4
100
AcDbEntity
8
1
62
256
6
ByLayer
370
13
48
1
60
0
100
AcDbSpline
70
4
71
3
72
42
73
38
40
0
40
0
40
0
40
0
40
0.0625
40
0.0625
40
0.09375
40
0.09375
40
0.109374999999999
40
0.109374999999999
40
0.124999999999999
40
0.124999999999999
40
0.187499999999999
40
0.187499999999999
40
0.249999999999999
40
0.249999999999999
40
0.312499999999999
40
0.312499999999999
40
0.374999999999999
40
0.374999999999999
40
0.437499999999999
40
0.437499999999999
40
0.499999999999999
40
0.499999999999999
40
0.562499999999999
40
0.562499999999999
40
0.625
40
0.625
40
0.6875
40
0.6875
40
0.75
40
0.75
40
0.8125
40
0.8125
40
0.875
40
0.875
40
0.9375
40
0.9375
40
1
40
1
40
1
40
1
41
1
10
209.4
20
-2.28752007146593
30
0
41
1
10
209.464599133129
20
-1.88221073786446
30
0
41
1
10
209.529198266257
20
-1.47909989746933
30
0
41
1
10
209.62609696595
20
-0.882761330342845
30
0
41
1
10
209.658396532515
20
-0.685360216594603
30
0
41
1
10
209.706845882361
20
-0.391864256700302
30
0
41
1
10
209.722995665643
20
-0.294465901054394
30
0
41
1
10
209.755295232207
20
-0.100618198403708
30
0
41
1
10
209.77144501549
20
-0.0045018720911969
30
0
41
1
10
209.8521939319
20
0.478368063755539
30
0
41
1
10
209.916793065029
20
0.872535988725616
30
0
41
1
10
210.045991331286
20
1.67099973202551
30
0
41
1
10
210.110590464415
20
2.07529053535214
30
0
41
1
10
210.239788730672
20
2.88709033764306
30
0
41
1
10
210.304387863801
20
3.29458907190587
30
0
41
1
10
210.433586130058
20
4.10482963580859
30
0
41
1
10
210.498185263187
20
4.50755617285563
30
0
41
1
10
210.627383529444
20
5.29959704416675
30
0
41
1
10
210.691982662572
20
5.68889232720528
30
0
41
1
10
210.82118092883
20
6.44525637271693
30
0
41
1
10
210.885780061958
20
6.81230458576198
30
0
41
1
10
211.014978328215
20
7.5158048248145
30
0
41
1
10
211.079577461344
20
7.85223767138999
30
0
41
1
10
211.208775727601
20
8.487189591434
30
0
41
1
10
211.27337486073
20
8.78569369243218
30
0
41
1
10
211.402573126987
20
9.33904557290845
30
0
41
1
10
211.467172260116
20
9.59388469907677
30
0
41
1
10
211.596370526373
20
10.0561007444445
30
0
41
1
10
211.660969659501
20
10.2634762174879
30
0
41
1
10
211.790167925759
20
10.6290493806683
30
0
41
1
10
211.854767058887
20
10.7872523655963
30
0
41
1
10
211.983965325145
20
11.0547945148982
30
0
41
1
10
212.048564458273
20
11.1641441517408
30
0
41
1
10
212.17776272453
20
11.3360796809896
30
0
41
1
10
212.242361857659
20
11.3986790721358
30
0
41
1
10
212.371560123916
20
11.480632061288
30
0
41
1
10
212.436159257045
20
11.5
30
0
41
1
10
212.500758390174
20
11.5
30
0
0
SPLINE
5
E5
100
AcDbEntity
8
1
62
256
6
ByLayer
370
13
48
1
60
0
100
AcDbSpline
70
4
71
3
72
84
73
80
40
0
40
0
40
0
40
0
40
0.0312499999999991
40
0.0312499999999991
40
0.0624999999999981
40
0.0624999999999981
40
0.0937499999999971
40
0.0937499999999971
40
0.124999999999996
40
0.124999999999996
40
0.156249999999995
40
0.156249999999995
40
0.187499999999994
40
0.187499999999994
40
0.218749999999993
40
0.218749999999993
40
0.249999999999992
40
0.249999999999992
40
0.281249999999991
40
0.281249999999991
40
0.31249999999999
40
0.31249999999999
40
0.32031249999999
40
0.32031249999999
40
0.32421874999999
40
0.32421874999999
40
0.32812499999999
40
0.34374999999999
40
0.34374999999999
40
0.374999999999989
40
0.374999999999989
40
0.406249999999989
40
0.406249999999989
40
0.437499999999988
40
0.437499999999988
40
0.468749999999988
40
0.468749999999988
40
0.499999999999988
40
0.499999999999988
40
0.531249999999987
40
0.531249999999987
40
0.562499999999986
40
0.562499999999986
40
0.593749999999986
40
0.593749999999986
40
0.624999999999985
40
0.624999999999985
40
0.640624999999985
40
0.640624999999985
40
0.648437499999985
40
0.648437499999985
40
0.656249999999985
40
0.656249999999985
40
0.687499999999987
40
0.687499999999987
40
0.718749999999989
40
0.718749999999989
40
0.74999999999999
40
0.74999999999999
40
0.781249999999992
40
0.781249999999992
40
0.812499999999993
40
0.812499999999993
40
0.843749999999995
40
0.843749999999995
40
0.874999999999997
40
0.874999999999997
40
0.906249999999998
40
0.906249999999998
40
0.9375
40
0.9375
40
0.953125
40
0.953125
40
0.9609375
40
0.96484375
40
0.96484375
40
0.96875
40
0.96875
40
1
40
1
40
1
40
1
41
1
10
211.84174568993
20
11.5
30
0
41
1
10
211.930001904681
20
11.5
30
0
41
1
10
212.01825811943
20
11.4637904859287
30
0
41
1
10
212.194770548931
20
11.3079289820191
30
0
41
1
10
212.283026763681
20
11.1882094705474
30
0
41
1
10
212.459539193181
20
10.8581631068029
30
0
41
1
10
212.547795407931
20
10.6477819402948
30
0
41
1
10
212.724307837431
20
10.1351325874009
30
0
41
1
10
212.812564052181
20
9.83284239850536
30
0
41
1
10
212.989076481682
20
9.14219734753394
30
0
41
1
10
213.077332696432
20
8.75386539347096
30
0
41
1
10
213.253845125932
20
7.90408547390936
30
0
41
1
10
213.342101340682
20
7.44270387592655
30
0
41
1
10
213.518613770182
20
6.46553897604105
30
0
41
1
10
213.606869984932
20
5.94984879471571
30
0
41
1
10
213.783382414432
20
4.88607698166447
30
0
41
1
10
213.871638629182
20
4.33809017985175
30
0
41
1
10
214.048151058683
20
3.23211225029979
30
0
41
1
10
214.136407273433
20
2.67419516292893
30
0
41
1
10
214.312919702933
20
1.56850766051079
30
0
41
1
10
214.401175917683
20
1.02077862763008
30
0
41
1
10
214.511496186121
20
0.352552301042096
30
0
41
1
10
214.533560239808
20
0.219717723990556
30
0
41
1
10
214.566656320339
20
0.0218362444641684
30
0
41
1
10
214.577688347183
20
-0.0438095607015612
30
0
41
1
10
214.599752400871
20
-0.175831798547876
30
0
41
1
10
214.654912535089
20
-0.507018933346842
30
0
41
1
10
214.710072669308
20
-0.84357943823855
30
0
41
1
10
214.842456991433
20
-1.65893933191086
30
0
41
1
10
214.930713206183
20
-2.21279283052615
30
0
41
1
10
215.107225635684
20
-3.32331992388302
30
0
41
1
10
215.195481850434
20
-3.87993884299823
30
0
41
1
10
215.371994279934
20
-4.97477088209286
30
0
41
1
10
215.460250494684
20
-5.51289977384573
30
0
41
1
10
215.636762924184
20
-6.54819439611308
30
0
41
1
10
215.725019138934
20
-7.04526291025974
30
0
41
1
10
215.901531568434
20
-7.97734535803011
30
0
41
1
10
215.989787783185
20
-8.41227382778493
30
0
41
1
10
216.166300212685
20
-9.20329060158102
30
0
41
1
10
216.254556427435
20
-9.55932822001819
30
0
41
1
10
216.431068856935
20
-10.1822077341516
30
0
41
1
10
216.519325071685
20
-10.4490449034904
30
0
41
1
10
216.695837501185
20
-10.8904577275876
30
0
41
1
10
216.784093715935
20
-11.0650700096564
30
0
41
1
10
216.960606145436
20
-11.3257465099098
30
0
41
1
10
217.048862360186
20
-11.4118725062905
30
0
41
1
10
217.181246682311
20
-11.4813605502861
30
0
41
1
10
217.225374789686
20
-11.4946076862785
30
0
41
1
10
217.291566950748
20
-11.5006789895704
30
0
41
1
10
217.313631004436
20
-11.5004305959219
30
0
41
1
10
217.357759111811
20
-11.4953579693477
30
0
41
1
10
217.379823165498
20
-11.490512573671
30
0
41
1
10
217.490143433936
20
-11.4542825013319
30
0
41
1
10
217.578399648686
20
-11.3867465791035
30
0
41
1
10
217.754912078186
20
-11.1648594691823
30
0
41
1
10
217.843168292936
20
-11.0104435895348
30
0
41
1
10
218.019680722437
20
-10.6097191506695
30
0
41
1
10
218.107936937187
20
-10.3633667270805
30
0
41
1
10
218.284449366687
20
-9.78016348960912
30
0
41
1
10
218.372705581437
20
-9.44330729308973
30
0
41
1
10
218.549218010937
20
-8.68776409171196
30
0
41
1
10
218.637474225687
20
-8.26911797305655
30
0
41
1
10
218.813986655187
20
-7.36541973776949
30
0
41
1
10
218.902242869937
20
-6.88044706312414
30
0
41
1
10
219.078755299437
20
-5.86442726484176
30
0
41
1
10
219.167011514188
20
-5.3334770034794
30
0
41
1
10
219.343523943688
20
-4.24800456640023
30
0
41
1
10
219.431780158438
20
-3.69357133899683
30
0
41
1
10
219.608292587938
20
-2.58292265855999
30
0
41
1
10
219.696548802688
20
-2.02676924956165
30
0
41
1
10
219.828933124813
20
-1.20526359981324
30
0
41
1
10
219.873061232188
20
-0.933519618614213
30
0
41
1
10
219.939253393251
20
-0.53048892625506
30
0
41
1
10
219.972349473782
20
-0.330116552863132
30
0
41
1
10
220.005445554314
20
-0.131699307089661
30
0
41
1
10
220.027509608001
20
0.0001198197382166
30
0
41
1
10
220.038541634845
20
0.0658000288418066
30
0
41
1
10
220.137829876439
20
0.660352980302321
30
0
41
1
10
220.226086091189
20
1.20346794439055
30
0
41
1
10
220.314342305939
20
1.75367798989544
30
0
0
SPLINE
5
E6
100
AcDbEntity
8
1
62
256
6
ByLayer
370
13
48
1
60
0
100
AcDbSpline
70
4
71
3
72
38
73
34
40
0
40
0
40
0
40
0
40
0.0625
40
0.0625
40
0.125
40
0.125
40
0.1875
40
0.1875
40
0.25
40
0.25
40
0.3125
40
0.3125
40
0.375
40
0.375
40
0.4375
40
0.4375
40
0.5
40
0.5
40
0.5625
40
0.5625
40
0.625
40
0.625
40
0.6875
40
0.6875
40
0.75
40
0.75
40
0.8125
40
0.8125
40
0.875
40
0.875
40
0.9375
40
0.9375
40
1
40
1
40
1
40
1
41
1
10
209.4
20
0.700549776161125
30
0
41
1
10
209.454425195028
20
1.03226426323502
30
0
41
1
10
209.508850390056
20
1.36857752762449
30
0
41
1
10
209.617700780111
20
2.04669294366664
30
0
41
1
10
209.672125975139
20
2.3884921755164
30
0
41
1
10
209.780976365194
20
3.07324936434583
30
0
41
1
10
209.835401560222
20
3.41620250285291
30
0
41
1
10
209.944251950277
20
4.09843396093086
30
0
41
1
10
209.998677145305
20
4.43770568974412
30
0
41
1
10
210.107527535361
20
5.10740929444603
30
0
41
1
10
210.161952730388
20
5.43783320576622
30
0
41
1
10
210.270803120444
20
6.08456481138472
30
0
41
1
10
210.325228315471
20
6.40086382347008
30
0
41
1
10
210.434078705527
20
7.01421042976017
30
0
41
1
10
210.488503900555
20
7.31124946276677
30
0
41
1
10
210.59735429061
20
7.88134412518374
30
0
41
1
10
210.651779485638
20
8.15439220787874
30
0
41
1
10
210.760629875693
20
8.67242128878581
30
0
41
1
10
210.815055070721
20
8.9173965497593
30
0
41
1
10
210.923905460776
20
9.37604680723803
30
0
41
1
10
210.978330655804
20
9.5897184320481
30
0
41
1
10
211.08718104586
20
9.98351725939438
30
0
41
1
10
211.141606240887
20
10.1636436822351
30
0
41
1
10
211.250456630943
20
10.4891597875274
30
0
41
1
10
211.30488182597
20
10.6345511602954
30
0
41
1
10
211.413732216026
20
10.8904422330725
30
0
41
1
10
211.468157411054
20
11.0009456757899
30
0
41
1
10
211.577007801109
20
11.187859977499
30
0
41
1
10
211.631432996137
20
11.264276022104
30
0
41
1
10
211.740283386192
20
11.3846322081683
30
0
41
1
10
211.79470858122
20
11.4285782997448
30
0
41
1
10
211.903558971276
20
11.4862591563827
30
0
41
1
10
211.957984166303
20
11.5
30
0
41
1
10
212.012409361331
20
11.5
30
0
0
SPLINE
5
E7
100
AcDbEntity
8
1
62
256
6
ByLayer
370
13
48
1
60
0
100
AcDbSpline
70
4
71
3
72
84
73
80
40
0
40
0
40
0
40
0
40
0.0312500000000019
40
0.0312500000000019
40
0.0625000000000037
40
0.0625000000000037
40
0.0937500000000056
40
0.0937500000000056
40
0.125000000000007
40
0.125000000000007
40
0.156250000000009
40
0.156250000000009
40
0.187500000000011
40
0.187500000000011
40
0.218750000000013
40
0.218750000000013
40
0.250000000000015
40
0.250000000000015
40
0.281250000000017
40
0.281250000000017
40
0.296875000000017
40
0.296875000000017
40
0.304687500000017
40
0.304687500000017
40
0.312500000000018
40
0.312500000000018
40
0.343750000000017
40
0.343750000000017
40
0.375000000000016
40
0.375000000000016
40
0.406250000000016
40
0.406250000000016
40
0.437500000000015
40
0.437500000000015
40
0.468750000000015
40
0.468750000000015
40
0.500000000000014
40
0.500000000000014
40
0.531250000000014
40
0.531250000000014
40
0.562500000000013
40
0.562500000000013
40
0.593750000000013
40
0.593750000000013
40
0.601562500000013
40
0.601562500000013
40
0.609375000000013
40
0.609375000000013
40
0.625000000000012
40
0.625000000000012
40
0.656250000000011
40
0.656250000000011
40
0.68750000000001
40
0.68750000000001
40
0.718750000000009
40
0.718750000000009
40
0.750000000000008
40
0.750000000000008
40
0.781250000000007
40
0.781250000000007
40
0.812500000000006
40
0.812500000000006
40
0.843750000000005
40
0.843750000000005
40
0.875000000000004
40
0.875000000000004
40
0.906250000000003
40
0.906250000000003
40
0.910156250000003
40
0.910156250000003
40
0.914062500000003
40
0.914062500000003
40
0.921875000000003
40
0.921875000000003
40
0.937500000000002
40
0.937500000000002
40
0.968750000000001
40
0.968750000000001
40
1
40
1
40
1
40
1
41
1
10
211.353396661088
20
11.5
30
0
41
1
10
211.446739844888
20
11.5
30
0
41
1
10
211.540083028689
20
11.4594782808448
30
0
41
1
10
211.72676939629
20
11.2844594711603
30
0
41
1
10
211.82011258009
20
11.1498734805508
30
0
41
1
10
212.006798947691
20
10.7787571599929
30
0
41
1
10
212.100142131492
20
10.5421587923662
30
0
41
1
10
212.286828499093
20
9.96664128854991
30
0
41
1
10
212.380171682894
20
9.62770262550146
30
0
41
1
10
212.566858050494
20
8.85613635100037
30
0
41
1
10
212.660201234295
20
8.4235532375742
30
0
41
1
10
212.846887601896
20
7.48200445171526
30
0
41
1
10
212.940230785697
20
6.97313966173198
30
0
41
1
10
213.126917153298
20
5.90277343019028
30
0
41
1
10
213.220260337098
20
5.34139968898086
30
0
41
1
10
213.406946704699
20
4.19264194635224
30
0
41
1
10
213.5002898885
20
3.60537514108594
30
0
41
1
10
213.686976256101
20
2.43052189549832
30
0
41
1
10
213.780319439902
20
1.84301439044998
30
0
41
1
10
213.920334215602
20
0.977804015346464
30
0
41
1
10
213.967005807503
20
0.692037408865076
30
0
41
1
10
214.037013195353
20
0.268982401231881
30
0
41
1
10
214.060348991303
20
0.128991676421265
30
0
41
1
10
214.107020583204
20
-0.149291129683405
30
0
41
1
10
214.130356379154
20
-0.289475967969452
30
0
41
1
10
214.247035358904
20
-0.995017862317496
30
0
41
1
10
214.340378542705
20
-1.57444969030857
30
0
41
1
10
214.527064910306
20
-2.74433580361546
30
0
41
1
10
214.620408094106
20
-3.33473427887066
30
0
41
1
10
214.807094461707
20
-4.50258854511091
30
0
41
1
10
214.900437645508
20
-5.07994342617897
30
0
41
1
10
215.087124013109
20
-6.19514411840072
30
0
41
1
10
215.180467196909
20
-6.73286293120748
30
0
41
1
10
215.367153564511
20
-7.74313556455888
30
0
41
1
10
215.460496748311
20
-8.21557081210895
30
0
41
1
10
215.647183115912
20
-9.07435771877209
30
0
41
1
10
215.740526299713
20
-9.4606348537155
30
0
41
1
10
215.927212667314
20
-10.1339504401637
30
0
41
1
10
216.020555851114
20
-10.4209778366
30
0
41
1
10
216.207242218715
20
-10.8917391342661
30
0
41
1
10
216.300585402516
20
-11.0755204568316
30
0
41
1
10
216.487271770117
20
-11.3442477491234
30
0
41
1
10
216.580614953918
20
-11.4292760679798
30
0
41
1
10
216.697293933668
20
-11.4806157549289
30
0
41
1
10
216.720629729618
20
-11.4881484608979
30
0
41
1
10
216.767301321519
20
-11.4979541945789
30
0
41
1
10
216.790637117469
20
-11.5002278202148
30
0
41
1
10
216.860644505319
20
-11.4994905919625
30
0
41
1
10
216.907316097219
20
-11.4888754394283
30
0
41
1
10
217.04733087292
20
-11.4240697619632
30
0
41
1
10
217.140674056721
20
-11.3367485981946
30
0
41
1
10
217.327360424322
20
-11.0632392189096
30
0
41
1
10
217.420703608122
20
-10.876969158971
30
0
41
1
10
217.607389975723
20
-10.4012197100847
30
0
41
1
10
217.700733159524
20
-10.1116940921625
30
0
41
1
10
217.887419527125
20
-9.4335923018244
30
0
41
1
10
217.980762710925
20
-9.0450287665509
30
0
41
1
10
218.167449078527
20
-8.1820922769997
30
0
41
1
10
218.260792262327
20
-7.70779524203567
30
0
41
1
10
218.447478629928
20
-6.69438025999006
30
0
41
1
10
218.540821813729
20
-6.15538154634268
30
0
41
1
10
218.72750818133
20
-5.03827258628073
30
0
41
1
10
218.82085136513
20
-4.46028907196651
30
0
41
1
10
219.007537732731
20
-3.29180546410112
30
0
41
1
10
219.100880916532
20
-2.70140532954457
30
0
41
1
10
219.287567284133
20
-1.53204583235828
30
0
41
1
10
219.380910467933
20
-0.953141112419104
30
0
41
1
10
219.485921549709
20
-0.318966459086454
30
0
41
1
10
219.497589447684
20
-0.248736355401149
30
0
41
1
10
219.520925243634
20
-0.10877406023917
30
0
41
1
10
219.532593141609
20
-0.0391610028663933
30
0
41
1
10
219.567596835535
20
0.169702809861178
30
0
41
1
10
219.590932631485
20
0.30998322500082
30
0
41
1
10
219.660940019335
20
0.733576706135892
30
0
41
1
10
219.707611611235
20
1.01965334332283
30
0
41
1
10
219.847626386936
20
1.88562042148794
30
0
41
1
10
219.940969570737
20
2.47339983427366
30
0
41
1
10
220.127655938338
20
3.64821164564961
30
0
41
1
10
220.220999122138
20
4.23516399183612
30
0
41
1
10
220.314342305939
20
4.80890353474888
30
0
0
SPLINE
5
E8
100
AcDbEntity
8
1
62
256
6
ByLayer
370
13
48
1
60
0
100
AcDbSpline
70
4
71
3
72
22
73
18
40
0
40
0
40
0
40
0
40
0.125
40
0.125
40
0.25
40
0.25
40
0.375
40
0.375
40
0.5
40
0.5
40
0.625
40
0.625
40
0.75
40
0.75
40
0.875
40
0.875
40
1
40
1
40
1
40
1
41
1
10
209.4
20
3.74805596982952
30
0
41
1
10
209.488502513854
20
4.30280918475407
30
0
41
1
10
209.577005027707
20
4.85277516159468
30
0
41
1
10
209.754010055415
20
5.92077118664514
30
0
41
1
10
209.842512569268
20
6.43870529960799
30
0
41
1
10
210.019517596976
20
7.42040616654003
30
0
41
1
10
210.10802011083
20
7.88407825393995
30
0
41
1
10
210.285025138537
20
8.73825769123744
30
0
41
1
10
210.37352765239
20
9.128697220872
30
0
41
1
10
210.550532680098
20
9.82318175988968
30
0
41
1
10
210.639035193952
20
10.127203009301
30
0
41
1
10
210.816040221659
20
10.642816330806
30
0
41
1
10
210.904542735513
20
10.8544303666651
30
0
41
1
10
211.08154776322
20
11.1864073642429
30
0
41
1
10
211.170050277074
20
11.3068252660284
30
0
41
1
10
211.347055304781
20
11.4635873570537
30
0
41
1
10
211.435557818635
20
11.5
30
0
41
1
10
211.524060332488
20
11.5
30
0
0
SPLINE
5
E9
100
AcDbEntity
8
1
62
256
6
ByLayer
370
13
48
1
60
0
100
AcDbSpline
70
4
71
3
72
86
73
82
40
0
40
0
40
0
40
0
40
0.0312499999999985
40
0.0312499999999985
40
0.0624999999999969
40
0.0624999999999969
40
0.0937499999999954
40
0.0937499999999954
40
0.124999999999994
40
0.124999999999994
40
0.156249999999992
40
0.156249999999992
40
0.187499999999991
40
0.187499999999991
40
0.218749999999989
40
0.218749999999989
40
0.249999999999987
40
0.249999999999987
40
0.281249999999986
40
0.281249999999986
40
0.289062499999986
40
0.289062499999986
40
0.296874999999985
40
0.296874999999985
40
0.312499999999985
40
0.312499999999985
40
0.343749999999985
40
0.343749999999985
40
0.374999999999985
40
0.374999999999985
40
0.406249999999985
40
0.406249999999985
40
0.437499999999984
40
0.437499999999984
40
0.468749999999984
40
0.468749999999984
40
0.499999999999984
40
0.499999999999984
40
0.531249999999984
40
0.531249999999984
40
0.562499999999983
40
0.562499999999983
40
0.570312499999984
40
0.570312499999984
40
0.574218749999984
40
0.574218749999984
40
0.578124999999984
40
0.578124999999984
40
0.593749999999984
40
0.593749999999984
40
0.624999999999984
40
0.624999999999984
40
0.656249999999985
40
0.656249999999985
40
0.687499999999986
40
0.687499999999986
40
0.718749999999986
40
0.718749999999986
40
0.749999999999987
40
0.749999999999987
40
0.781249999999988
40
0.781249999999988
40
0.812499999999988
40
0.812499999999988
40
0.843749999999989
40
0.843749999999989
40
0.859374999999989
40
0.859374999999989
40
0.863281249999989
40
0.863281249999989
40
0.867187499999989
40
0.867187499999989
40
0.87499999999999
40
0.87499999999999
40
0.906249999999992
40
0.906249999999992
40
0.937499999999995
40
0.937499999999995
40
0.968749999999997
40
0.968749999999997
40
1
40
1
40
1
40
1
41
1
10
210.865047632245
20
11.5
30
0
41
1
10
210.963477785096
20
11.5
30
0
41
1
10
211.061907937947
20
11.4549199365626
30
0
41
1
10
211.258768243649
20
11.2595675345307
30
0
41
1
10
211.3571983965
20
11.1091799977375
30
0
41
1
10
211.554058702202
20
10.6944825003522
30
0
41
1
10
211.652488855053
20
10.4300892882501
30
0
41
1
10
211.849349160755
20
9.78830466576841
30
0
41
1
10
211.947779313606
20
9.41090083832736
30
0
41
1
10
212.144639619308
20
8.55524899396838
30
0
41
1
10
212.243069772159
20
8.07707692752408
30
0
41
1
10
212.439930077861
20
7.04235526877085
30
0
41
1
10
212.538360230712
20
6.48595117687998
30
0
41
1
10
212.735220536414
20
5.3241138267885
30
0
41
1
10
212.833650689265
20
4.71884748752998
30
0
41
1
10
213.030510994967
20
3.49062608427977
30
0
41
1
10
213.128941147818
20
2.86780768552941
30
0
41
1
10
213.32580145352
20
1.63307198022804
30
0
41
1
10
213.42423160637
20
1.02123068544549
30
0
41
1
10
213.547269297434
20
0.277341226764406
30
0
41
1
10
213.571876835647
20
0.129761027107065
30
0
41
1
10
213.621091912073
20
-0.163759571616822
30
0
41
1
10
213.645699450285
20
-0.311678172411746
30
0
41
1
10
213.719522064923
20
-0.758485337862709
30
0
41
1
10
213.768737141349
20
-1.06043924863604
30
0
41
1
10
213.916382370625
20
-1.97464774755409
30
0
41
1
10
214.014812523476
20
-2.59543238608401
30
0
41
1
10
214.211672829178
20
-3.83386451396834
30
0
41
1
10
214.310102982029
20
-4.4514025357428
30
0
41
1
10
214.506963287731
20
-5.65289584679195
30
0
41
1
10
214.605393440582
20
-6.23669319875071
30
0
41
1
10
214.802253746284
20
-7.33976943329134
30
0
41
1
10
214.900683899135
20
-7.85888558992406
30
0
41
1
10
215.097544204837
20
-8.80617415659947
30
0
41
1
10
215.195974357688
20
-9.23423257608289
30
0
41
1
10
215.39283466339
20
-9.98184416599884
30
0
41
1
10
215.491264816241
20
-10.3013673606271
30
0
41
1
10
215.688125121943
20
-10.8254765615481
30
0
41
1
10
215.786555274794
20
-11.0301158424166
30
0
41
1
10
215.983415580496
20
-11.3287667552091
30
0
41
1
10
216.081845733347
20
-11.4228834937346
30
0
41
1
10
216.20488342441
20
-11.4792210012533
30
0
41
1
10
216.229490962623
20
-11.4874383335808
30
0
41
1
10
216.266402269942
20
-11.4953738622338
30
0
41
1
10
216.278706039049
20
-11.4972874265635
30
0
41
1
10
216.303313577262
20
-11.4996835833715
30
0
41
1
10
216.315617346368
20
-11.5001668523162
30
0
41
1
10
216.3771361919
20
-11.4990811542494
30
0
41
1
10
216.426351268325
20
-11.486937729441
30
0
41
1
10
216.573996497602
20
-11.4136625362465
30
0
41
1
10
216.672426650453
20
-11.3154680366587
30
0
41
1
10
216.869286956155
20
-11.0083191549901
30
0
41
1
10
216.967717109006
20
-10.7992608964422
30
0
41
1
10
217.164577414708
20
-10.2663467152947
30
0
41
1
10
217.263007567559
20
-9.94244028954046
30
0
41
1
10
217.45986787326
20
-9.18653311158667
30
0
41
1
10
217.558298026111
20
-8.75456581108824
30
0
41
1
10
217.755158331813
20
-7.8003329062222
30
0
41
1
10
217.853588484664
20
-7.27818402960619
30
0
41
1
10
218.050448790366
20
-6.17018401587794
30
0
41
1
10
218.148878943217
20
-5.58449643731817
30
0
41
1
10
218.345739248919
20
-4.38044097271009
30
0
41
1
10
218.44416940177
20
-3.76222981764465
30
0
41
1
10
218.641029707472
20
-2.52356097230219
30
0
41
1
10
218.739459860323
20
-1.90321035743031
30
0
41
1
10
218.8871050896
20
-0.990307880277527
30
0
41
1
10
218.936320166025
20
-0.688897729442687
30
0
41
1
10
218.997839011557
20
-0.317351968599638
30
0
41
1
10
219.010142780663
20
-0.243302559322729
30
0
41
1
10
219.034750318876
20
-0.0957588660795068
30
0
41
1
10
219.047054087983
20
-0.0224402895425442
30
0
41
1
10
219.083965395302
20
0.197967093172082
30
0
41
1
10
219.108572933514
20
0.346053257835393
30
0
41
1
10
219.231610624578
20
1.09151216463556
30
0
41
1
10
219.330040777429
20
1.70424043547905
30
0
41
1
10
219.526901083131
20
2.9397479792373
30
0
41
1
10
219.625331235982
20
3.56244869677198
30
0
41
1
10
219.822191541684
20
4.78925210804505
30
0
41
1
10
219.920621694535
20
5.39321621650106
30
0
41
1
10
220.117482000237
20
6.5512459733412
30
0
41
1
10
220.215912153088
20
7.10514449969068
30
0
41
1
10
220.314342305939
20
7.61948582738989
30
0
0
SPLINE
5
EA
100
AcDbEntity
8
1
62
256
6
ByLayer
370
13
48
1
60
0
100
AcDbSpline
70
4
71
3
72
22
73
18
40
0
40
0
40
0
40
0
40
0.125
40
0.125
40
0.25
40
0.25
40
0.375
40
0.375
40
0.5
40
0.5
40
0.625
40
0.625
40
0.75
40
0.75
40
0.875
40
0.875
40
1
40
1
40
1
40
1
41
1
10
209.4
20
6.69087440355571
30
0
41
1
10
209.468154637652
20
7.07534471252538
30
0
41
1
10
209.536309275304
20
7.4447564880567
30
0
41
1
10
209.672618550607
20
8.14432608453754
30
0
41
1
10
209.74077318826
20
8.47446183510615
30
0
41
1
10
209.877082463563
20
9.0880101721531
30
0
41
1
10
209.945237101215
20
9.3714085130924
30
0
41
1
10
210.081546376519
20
9.88629060389931
30
0
41
1
10
210.149701014171
20
10.1177698578522
30
0
41
1
10
210.286010289475
20
10.5261868430242
30
0
41
1
10
210.354164927127
20
10.7031296799923
30
0
41
1
10
210.49047420243
20
11.0023997071759
30
0
41
1
10
210.558628840082
20
11.1247396369189
30
0
41
1
10
210.694938115386
20
11.3170057684614
30
0
41
1
10
210.763092753038
20
11.3869493093612
30
0
41
1
10
210.899402028342
20
11.478437055097
30
0
41
1
10
210.967556665994
20
11.5
30
0
41
1
10
211.035711303646
20
11.5
30
0
0
SPLINE
5
EB
100
AcDbEntity
8
1
62
256
6
ByLayer
370
13
48
1
60
0
100
AcDbSpline
70
4
71
3
72
123
73
119
40
0
40
0
40
0
40
0
40
0.0312500000000005
40
0.0312500000000005
40
0.062500000000001
40
0.062500000000001
40
0.0781250000000012
40
0.0781250000000012
40
0.0937500000000014
40
0.0937500000000014
40
0.109375000000002
40
0.109375000000002
40
0.125000000000002
40
0.125000000000002
40
0.140625000000002
40
0.140625000000002
40
0.156250000000002
40
0.156250000000002
40
0.171875000000003
40
0.171875000000003
40
0.187500000000003
40
0.187500000000003
40
0.203125000000003
40
0.203125000000003
40
0.218750000000003
40
0.218750000000003
40
0.250000000000004
40
0.250000000000004
40
0.265625000000004
40
0.265625000000004
40
0.273437500000005
40
0.273437500000005
40
0.277343750000005
40
0.277343750000005
40
0.281250000000005
40
0.281250000000005
40
0.312500000000006
40
0.312500000000006
40
0.343750000000007
40
0.343750000000007
40
0.359375000000007
40
0.359375000000007
40
0.375000000000008
40
0.375000000000008
40
0.390625000000008
40
0.390625000000008
40
0.406250000000008
40
0.406250000000008
40
0.421875000000008
40
0.421875000000008
40
0.437500000000009
40
0.437500000000009
40
0.453125000000009
40
0.453125000000009
40
0.468750000000009
40
0.468750000000009
40
0.48437500000001
40
0.48437500000001
40
0.50000000000001
40
0.50000000000001
40
0.53125000000001
40
0.53125000000001
40
0.54687500000001
40
0.54687500000001
40
0.55078125000001
40
0.55078125000001
40
0.55468750000001
40
0.562500000000011
40
0.562500000000011
40
0.59375000000001
40
0.59375000000001
40
0.62500000000001
40
0.62500000000001
40
0.64062500000001
40
0.64062500000001
40
0.65625000000001
40
0.65625000000001
40
0.67187500000001
40
0.67187500000001
40
0.68750000000001
40
0.68750000000001
40
0.703125000000009
40
0.703125000000009
40
0.718750000000009
40
0.718750000000009
40
0.734375000000009
40
0.734375000000009
40
0.750000000000009
40
0.750000000000009
40
0.781250000000008
40
0.781250000000008
40
0.812500000000007
40
0.812500000000007
40
0.820312500000007
40
0.820312500000007
40
0.824218750000007
40
0.824218750000007
40
0.828125000000007
40
0.828125000000007
40
0.843750000000006
40
0.843750000000006
40
0.875000000000005
40
0.875000000000005
40
0.890625000000005
40
0.890625000000005
40
0.906250000000004
40
0.906250000000004
40
0.921875000000003
40
0.921875000000003
40
0.937500000000003
40
0.937500000000003
40
0.953125000000002
40
0.953125000000002
40
0.968750000000001
40
0.968750000000001
40
0.984375000000001
40
0.984375000000001
40
1
40
1
40
1
40
1
41
1
10
210.376698603403
20
11.5
30
0
41
1
10
210.480215725304
20
11.5
30
0
41
1
10
210.583732847205
20
11.4501145836231
30
0
41
1
10
210.790767091008
20
11.2332437279994
30
0
41
1
10
210.89428421291
20
11.0661111555631
30
0
41
1
10
211.049559895762
20
10.7205228011727
30
0
41
1
10
211.101318456712
20
10.5895905832581
30
0
41
1
10
211.204835578614
20
10.2962018463571
30
0
41
1
10
211.256594139564
20
10.1337435823401
30
0
41
1
10
211.360111261466
20
9.7780802188685
30
0
41
1
10
211.411869822417
20
9.58487513892857
30
0
41
1
10
211.515386944318
20
9.16935857216876
30
0
41
1
10
211.567145505269
20
8.9470490228577
30
0
41
1
10
211.67066262717
20
8.47579794679024
30
0
41
1
10
211.722421188121
20
8.22686020157767
30
0
41
1
10
211.825938310022
20
7.70557485737129
30
0
41
1
10
211.877696870973
20
7.43323257807333
30
0
41
1
10
211.981213992875
20
6.86897005660035
30
0
41
1
10
212.032972553825
20
6.57705617536635
30
0
41
1
10
212.136489675727
20
5.97791480456098
30
0
41
1
10
212.188248236677
20
5.67069410758637
30
0
41
1
10
212.291765358579
20
5.04543617474945
30
0
41
1
10
212.343523919529
20
4.72740553814739
30
0
41
1
10
212.447041041431
20
4.08505422183961
30
0
41
1
10
212.498799602382
20
3.76073940090296
30
0
41
1
10
212.654075285234
20
2.78491041086025
30
0
41
1
10
212.757592407135
20
2.13074654668682
30
0
41
1
10
212.912868089987
20
1.16702662828899
30
0
41
1
10
212.964626650938
20
0.848653923462649
30
0
41
1
10
213.042264492364
20
0.377706620040726
30
0
41
1
10
213.068143772839
20
0.221821900419997
30
0
41
1
10
213.106962693552
20
-0.0101087661231816
30
0
41
1
10
213.11990233379
20
-0.0871625073782525
30
0
41
1
10
213.145781614266
20
-0.242306089129045
30
0
41
1
10
213.158721254503
20
-0.320185298390498
30
0
41
1
10
213.275178016642
20
-1.02367835752196
30
0
41
1
10
213.378695138544
20
-1.6677046461113
30
0
41
1
10
213.585729382346
20
-2.96701435344363
30
0
41
1
10
213.689246504248
20
-3.62219693064043
30
0
41
1
10
213.8445221871
20
-4.588323586863
30
0
41
1
10
213.896280748051
20
-4.90754452012308
30
0
41
1
10
213.999797869952
20
-5.53584232941182
30
0
41
1
10
214.051556430903
20
-5.84491268253245
30
0
41
1
10
214.155073552804
20
-6.448396103498
30
0
41
1
10
214.206832113755
20
-6.74280236893082
30
0
41
1
10
214.310349235657
20
-7.3126461478287
30
0
41
1
10
214.362107796607
20
-7.58807719848025
30
0
41
1
10
214.465624918508
20
-8.1160622876705
30
0
41
1
10
214.517383479459
20
-8.3686108210085
30
0
41
1
10
214.620900601361
20
-8.8475077086178
30
0
41
1
10
214.672659162311
20
-9.07385203409865
30
0
41
1
10
214.776176284213
20
-9.49774732955893
30
0
41
1
10
214.827934845164
20
-9.69529608431725
30
0
41
1
10
214.931451967065
20
-10.0598318256667
30
0
41
1
10
214.983210528015
20
-10.2268185190069
30
0
41
1
10
215.086727649917
20
-10.5293243114532
30
0
41
1
10
215.138486210868
20
-10.6648449168464
30
0
41
1
10
215.242003332769
20
-10.9043564125966
30
0
41
1
10
215.29376189372
20
-11.008350295625
30
0
41
1
10
215.449037576572
20
-11.2741064585643
30
0
41
1
10
215.552554698473
20
-11.3893875202807
30
0
41
1
10
215.707830381325
20
-11.4793527576735
30
0
41
1
10
215.759588942276
20
-11.4955855187348
30
0
41
1
10
215.824287143465
20
-11.5001195096498
30
0
41
1
10
215.837226783702
20
-11.5002431912787
30
0
41
1
10
215.863106064178
20
-11.498933498906
30
0
41
1
10
215.901924984891
20
-11.4946172348527
30
0
41
1
10
215.940743905604
20
-11.48307304996
30
0
41
1
10
216.070140307981
20
-11.427806408301
30
0
41
1
10
216.173657429882
20
-11.3295807886961
30
0
41
1
10
216.380691673685
20
-11.0107408225028
30
0
41
1
10
216.484208795586
20
-10.7899923629537
30
0
41
1
10
216.639484478438
20
-10.363607351472
30
0
41
1
10
216.691243039389
20
-10.2056938627842
30
0
41
1
10
216.79476016129
20
-9.85895382232712
30
0
41
1
10
216.846518722241
20
-9.67012701964617
30
0
41
1
10
216.950035844143
20
-9.26307603275694
30
0
41
1
10
217.001794405093
20
-9.04485350679812
30
0
41
1
10
217.105311526995
20
-8.58136855720633
30
0
41
1
10
217.157070087945
20
-8.33610966136314
30
0
41
1
10
217.260587209847
20
-7.82167308196011
30
0
41
1
10
217.312345770797
20
-7.55250052199816
30
0
41
1
10
217.415862892699
20
-6.99399029132431
30
0
41
1
10
217.46762145365
20
-6.70465886668353
30
0
41
1
10
217.571138575551
20
-6.11004459265888
30
0
41
1
10
217.622897136502
20
-5.80476851274261
30
0
41
1
10
217.726414258403
20
-5.18274097174188
30
0
41
1
10
217.778172819354
20
-4.86599617463705
30
0
41
1
10
217.933448502206
20
-3.90535040184787
30
0
41
1
10
218.036965624108
20
-3.25120529016249
30
0
41
1
10
218.24399986791
20
-1.94947056811805
30
0
41
1
10
218.347516989812
20
-1.30199464553334
30
0
41
1
10
218.476913392189
20
-0.513976811690839
30
0
41
1
10
218.502792672664
20
-0.357419353810059
30
0
41
1
10
218.541611593377
20
-0.124409817846953
30
0
41
1
10
218.554551233615
20
-0.0471784459074343
30
0
41
1
10
218.58043051409
20
0.107238464466519
30
0
41
1
10
218.593370154327
20
0.184765861449847
30
0
41
1
10
218.658068355516
20
0.573897091312347
30
0
41
1
10
218.709826916467
20
0.890005379245338
30
0
41
1
10
218.865102599319
20
1.84835747998821
30
0
41
1
10
218.96861972122
20
2.50085825546699
30
0
41
1
10
219.123895404072
20
3.47785121295448
30
0
41
1
10
219.175653965023
20
3.80316063727369
30
0
41
1
10
219.279171086925
20
4.44879156919282
30
0
41
1
10
219.330929647875
20
4.76910751540572
30
0
41
1
10
219.434446769777
20
5.40025459726056
30
0
41
1
10
219.486205330727
20
5.71107929759651
30
0
41
1
10
219.589722452629
20
6.3187183963739
30
0
41
1
10
219.641481013579
20
6.61552599577331
30
0
41
1
10
219.744998135481
20
7.19077744844594
30
0
41
1
10
219.796756696432
20
7.46921475020912
30
0
41
1
10
219.900273818333
20
8.00374691793331
30
0
41
1
10
219.952032379284
20
8.25983610424959
30
0
41
1
10
220.055549501185
20
8.74625397859649
30
0
41
1
10
220.107308062136
20
8.97657839776656
30
0
41
1
10
220.210825184037
20
9.40876050824662
30
0
41
1
10
220.262583744988
20
9.61061570890666
30
0
41
1
10
220.314342305939
20
9.79729166282948
30
0
0
SPLINE
5
EC
100
AcDbEntity
8
1
62
256
6
ByLayer
370
13
48
1
60
0
100
AcDbSpline
70
4
71
3
72
14
73
10
40
0
40
0
40
0
40
0
40
0.25
40
0.25
40
0.5
40
0.5
40
0.75
40
0.75
40
1
40
1
40
1
40
1
41
1
10
209.4
20
9.12800760787189
30
0
41
1
10
209.4956135229
20
9.53237069487236
30
0
41
1
10
209.591227045801
20
9.88825841940795
30
0
41
1
10
209.782454091601
20
10.4929382603284
30
0
41
1
10
209.878067614501
20
10.7417474130892
30
0
41
1
10
210.069294660302
20
11.1320041514935
30
0
41
1
10
210.164908183202
20
11.2735264017013
30
0
41
1
10
210.356135229003
20
11.4574743322868
30
0
41
1
10
210.451748751903
20
11.5
30
0
41
1
10
210.547362274803
20
11.5
30
0
0
SPLINE
5
ED
100
AcDbEntity
8
1
62
256
6
ByLayer
370
13
48
1
60
0
100
AcDbSpline
70
4
71
3
72
140
73
136
40
0
40
0
40
0
40
0
40
0.015625
40
0.015625
40
0.03125
40
0.03125
40
0.046875
40
0.046875
40
0.0625000000000001
40
0.0625000000000001
40
0.0781250000000001
40
0.0781250000000001
40
0.0937500000000001
40
0.0937500000000001
40
0.109375
40
0.109375
40
0.125
40
0.125
40
0.140625
40
0.140625
40
0.15625
40
0.15625
40
0.171875
40
0.171875
40
0.1875
40
0.1875
40
0.203125
40
0.203125
40
0.21875
40
0.21875
40
0.234375
40
0.234375
40
0.25
40
0.25
40
0.2578125
40
0.2578125
40
0.265625
40
0.265625
40
0.28125
40
0.28125
40
0.296875
40
0.296875
40
0.3125
40
0.3125
40
0.328125
40
0.328125
40
0.34375
40
0.34375
40
0.359375
40
0.359375
40
0.375
40
0.375
40
0.390625
40
0.390625
40
0.40625
40
0.40625
40
0.421875
40
0.421875
40
0.4375
40
0.4375
40
0.453125
40
0.453125
40
0.46875
40
0.46875
40
0.484375
40
0.484375
40
0.5
40
0.5
40
0.515625
40
0.515625
40
0.5234375
40
0.5234375
40
0.53125
40
0.53125
40
0.546875
40
0.546875
40
0.5625
40
0.5625
40
0.578125
40
0.578125
40
0.59375
40
0.59375
40
0.609375
40
0.609375
40
0.625
40
0.625
40
0.640625
40
0.640625
40
0.65625
40
0.65625
40
0.671875
40
0.671875
40
0.6875
40
0.6875
40
0.703125
40
0.703125
40
0.71875
40
0.71875
40
0.734375
40
0.734375
40
0.75
40
0.75
40
0.765625
40
0.765625
40
0.78125
40
0.78125
40
0.7890625
40
0.7890625
40
0.796875
40
0.796875
40
0.8125
40
0.8125
40
0.828125
40
0.828125
40
0.84375
40
0.84375
40
0.859375
40
0.859375
40
0.875
40
0.875
40
0.890625
40
0.890625
40
0.90625
40
0.90625
40
0.921875
40
0.921875
40
0.9375
40
0.9375
40
0.953125
40
0.953125
40
0.96875
40
0.96875
40
0.984375
40
0.984375
40
1
40
1
40
1
40
1
41
1
10
209.88834957456
20
11.5
30
0
41
1
10
209.942651620036
20
11.5
30
0
41
1
10
209.996953665512
20
11.4863213431627
30
0
41
1
10
210.105557756464
20
11.4289071983514
30
0
41
1
10
210.159859801939
20
11.3851657005167
30
0
41
1
10
210.268463892891
20
11.2653745400286
30
0
41
1
10
210.322765938367
20
11.1893189922105
30
0
41
1
10
210.431370029319
20
11.0032883889544
30
0
41
1
10
210.485672074795
20
10.8933081987584
30
0
41
1
10
210.594276165747
20
10.6386247908948
30
0
41
1
10
210.648578211223
20
10.4939178567293
30
0
41
1
10
210.757182302175
20
10.1699206354757
30
0
41
1
10
210.811484347651
20
9.9906286512819
30
0
41
1
10
210.920088438602
20
9.59862762651974
30
0
41
1
10
210.974390484079
20
9.38591932212475
30
0
41
1
10
211.08299457503
20
8.92929436641182
30
0
41
1
10
211.137296620506
20
8.68538100909007
30
0
41
1
10
211.245900711458
20
8.1695367841121
30
0
41
1
10
211.300202756934
20
7.89761155085728
30
0
41
1
10
211.408806847886
20
7.32978142484581
30
0
41
1
10
211.463108893362
20
7.03388396479613
30
0
41
1
10
211.571712984314
20
6.42279584274837
30
0
41
1
10
211.62601502979
20
6.10761363271325
30
0
41
1
10
211.734619120741
20
5.46304959331357
30
0
41
1
10
211.788921166217
20
5.13367635616217
30
0
41
1
10
211.897525257169
20
4.46597185064462
30
0
41
1
10
211.951827302645
20
4.12764848615953
30
0
41
1
10
212.060431393597
20
3.44718275569403
30
0
41
1
10
212.114733439073
20
3.10504695324946
30
0
41
1
10
212.223337530025
20
2.42177347200433
30
0
41
1
10
212.277639575501
20
2.08064061623159
30
0
41
1
10
212.386243666453
20
1.40369614109915
30
0
41
1
10
212.440545711929
20
1.06788747173843
30
0
41
1
10
212.521998780142
20
0.57094956646003
30
0
41
1
10
212.54914980288
20
0.406427745328244
30
0
41
1
10
212.603451848357
20
0.0800334203814543
30
0
41
1
10
212.630602871094
20
-0.0811359323147087
30
0
41
1
10
212.712055939308
20
-0.570745387664459
30
0
41
1
10
212.766357984784
20
-0.902469614835695
30
0
41
1
10
212.874962075736
20
-1.57317674809457
30
0
41
1
10
212.929264121212
20
-1.91215761330935
30
0
41
1
10
213.037868212164
20
-2.59335229158307
30
0
41
1
10
213.09217025764
20
-2.93556221526836
30
0
41
1
10
213.200774348591
20
-3.61862985429332
30
0
41
1
10
213.255076394068
20
-3.95948184137839
30
0
41
1
10
213.363680485019
20
-4.63483356123581
30
0
41
1
10
213.417982530495
20
-4.96932599194696
30
0
41
1
10
213.526586621447
20
-5.62674042226331
30
0
41
1
10
213.580888666923
20
-5.94965407804699
30
0
41
1
10
213.689492757875
20
-6.57871167022782
30
0
41
1
10
213.743794803351
20
-6.88484697456053
30
0
41
1
10
213.852398894303
20
-7.47542522301973
30
0
41
1
10
213.906700939779
20
-7.75986011877953
30
0
41
1
10
214.015305030731
20
-8.3026452206841
30
0
41
1
10
214.069607076206
20
-8.56098880996575
30
0
41
1
10
214.178211167159
20
-9.0479524738563
30
0
41
1
10
214.232513212634
20
-9.27656803817811
30
0
41
1
10
214.341117303586
20
-9.70135964441144
30
0
41
1
10
214.395419349062
20
-9.89753366881789
30
0
41
1
10
214.504023440014
20
-10.2557481146739
30
0
41
1
10
214.55832548549
20
-10.4177890549612
30
0
41
1
10
214.666929576442
20
-10.7070874988753
30
0
41
1
10
214.721231621918
20
-10.8343477778073
30
0
41
1
10
214.82983571287
20
-11.0544285289057
30
0
41
1
10
214.884137758345
20
-11.1472535104376
30
0
41
1
10
214.992741849297
20
-11.2996892709834
30
0
41
1
10
215.047043894773
20
-11.3593056438976
30
0
41
1
10
215.155647985725
20
-11.4472776165302
30
0
41
1
10
215.209950031201
20
-11.4756392360167
30
0
41
1
10
215.291403099415
20
-11.4966144725578
30
0
41
1
10
215.318554122153
20
-11.5000154166162
30
0
41
1
10
215.372856167629
20
-11.4999844783151
30
0
41
1
10
215.400007190367
20
-11.4965517871407
30
0
41
1
10
215.481460258581
20
-11.4754790049373
30
0
41
1
10
215.535762304057
20
-11.4470492770322
30
0
41
1
10
215.644366395008
20
-11.358935973115
30
0
41
1
10
215.698668440485
20
-11.2992463776053
30
0
41
1
10
215.807272531436
20
-11.146660507591
30
0
41
1
10
215.861574576912
20
-11.0537586408807
30
0
41
1
10
215.970178667864
20
-10.8335222871985
30
0
41
1
10
216.02448071334
20
-10.7061832940781
30
0
41
1
10
216.133084804292
20
-10.4167277299811
30
0
41
1
10
216.187386849768
20
-10.2546083882891
30
0
41
1
10
216.29599094072
20
-9.89623977864485
30
0
41
1
10
216.350292986196
20
-9.69998999739187
30
0
41
1
10
216.458897077147
20
-9.27505188388952
30
0
41
1
10
216.513199122623
20
-9.0463655749694
30
0
41
1
10
216.621803213575
20
-8.5592676591057
30
0
41
1
10
216.676105259051
20
-8.30086056777955
30
0
41
1
10
216.784709350003
20
-7.75795762279523
30
0
41
1
10
216.839011395479
20
-7.47346839009458
30
0
41
1
10
216.947615486431
20
-6.88279210138973
30
0
41
1
10
217.001917531907
20
-6.57661309606942
30
0
41
1
10
217.110521622859
20
-5.94747965899023
30
0
41
1
10
217.164823668335
20
-5.62453385960833
30
0
41
1
10
217.273427759286
20
-4.96706703342394
30
0
41
1
10
217.327729804762
20
-4.63255434886736
30
0
41
1
10
217.436333895714
20
-3.95717377742747
30
0
41
1
10
217.49063594119
20
-3.61631318954622
30
0
41
1
10
217.599240032142
20
-2.93323927167094
30
0
41
1
10
217.653542077618
20
-2.59103166596498
30
0
41
1
10
217.76214616857
20
-1.90985142260738
30
0
41
1
10
217.816448214046
20
-1.57088267006631
30
0
41
1
10
217.925052304998
20
-0.900208172707835
30
0
41
1
10
217.979354350474
20
-0.568504464733309
30
0
41
1
10
218.060807418688
20
-0.0789309510824978
30
0
41
1
10
218.087958441426
20
0.0822384868695281
30
0
41
1
10
218.142260486901
20
0.40865676516151
30
0
41
1
10
218.169411509639
20
0.573189702853284
30
0
41
1
10
218.250864577853
20
1.07015808928796
30
0
41
1
10
218.305166623329
20
1.40598325005732
30
0
41
1
10
218.413770714281
20
2.08295158507448
30
0
41
1
10
218.468072759757
20
2.42409180511888
30
0
41
1
10
218.576676850709
20
3.10736962001002
30
0
41
1
10
218.630978896185
20
3.44950238764099
30
0
41
1
10
218.739582987137
20
4.12995070921855
30
0
41
1
10
218.793885032613
20
4.46825969604024
30
0
41
1
10
218.902489123564
20
5.13592360922041
30
0
41
1
10
218.95679116904
20
5.46527062931767
30
0
41
1
10
219.065395259992
20
6.10977043834842
30
0
41
1
10
219.119697305468
20
6.42491463440453
30
0
41
1
10
219.22830139642
20
7.03591555895801
30
0
41
1
10
219.282603441896
20
7.33176383681615
30
0
41
1
10
219.391207532848
20
7.89948563248959
30
0
41
1
10
219.445509578324
20
8.17135172085563
30
0
41
1
10
219.554113669276
20
8.6870694012658
30
0
41
1
10
219.608415714751
20
8.93091536370602
30
0
41
1
10
219.717019805704
20
9.38739937093996
30
0
41
1
10
219.771321851179
20
9.60003412741455
30
0
41
1
10
219.879925942131
20
9.99188421871534
30
0
41
1
10
219.934227987607
20
10.1710988231419
30
0
41
1
10
220.042832078559
20
10.4949398185041
30
0
41
1
10
220.097134124035
20
10.6395679116777
30
0
41
1
10
220.205738214987
20
10.8940944262825
30
0
41
1
10
220.260040260463
20
11.0039965681498
30
0
41
1
10
220.314342305939
20
11.0969352162707
30
0
0
SPLINE
5
EE
100
AcDbEntity
8
1
62
256
6
ByLayer
370
13
48
1
60
0
100
AcDbSpline
70
4
71
3
72
8
73
4
40
0
40
0
40
0
40
0
40
1
40
1
40
1
40
1
41
1
10
220.143679180255
20
11.5
30
0
41
1
10
220.200566888816
20
11.5
30
0
41
1
10
220.257454597377
20
11.4849859325512
30
0
41
1
10
220.314342305939
20
11.4534112492933
30
0
0
SPLINE
5
EF
100
AcDbEntity
8
1
62
256
6
ByLayer
370
13
48
1
60
0
100
AcDbSpline
70
4
71
3
72
14
73
10
40
0
40
0
40
0
40
0
40
0.25
40
0.25
40
0.5
40
0.5
40
0.75
40
0.75
40
1
40
1
40
1
40
1
41
1
10
209.4
20
10.7485325991177
30
0
41
1
10
209.454917770497
20
10.878907878144
30
0
41
1
10
209.509835540993
20
10.991517205675
30
0
41
1
10
209.619671081987
20
11.1819881665898
30
0
41
1
10
209.674588852484
20
11.2598551922592
30
0
41
1
10
209.784424393477
20
11.382485458162
30
0
41
1
10
209.839342163973
20
11.4272549138225
30
0
41
1
10
209.949177704967
20
11.4860090049348
30
0
41
1
10
210.004095475464
20
11.5
30
0
41
1
10
210.05901324596
20
11.5
30
0
0
SPLINE
5
F0
100
AcDbEntity
8
1
62
256
6
ByLayer
370
13
48
1
60
0
100
AcDbSpline
70
4
71
3
72
134
73
130
40
0
40
0
40
0
40
0
40
0.0156250000000001
40
0.0156250000000001
40
0.0312500000000001
40
0.0312500000000001
40
0.0468750000000001
40
0.0468750000000001
40
0.0625000000000002
40
0.0625000000000002
40
0.0781250000000002
40
0.0781250000000002
40
0.0937500000000003
40
0.0937500000000003
40
0.109375
40
0.109375
40
0.125
40
0.125
40
0.140625000000001
40
0.140625000000001
40
0.156250000000001
40
0.156250000000001
40
0.171875000000001
40
0.171875000000001
40
0.187500000000001
40
0.187500000000001
40
0.203125000000001
40
0.203125000000001
40
0.218750000000001
40
0.218750000000001
40
0.234375000000001
40
0.234375000000001
40
0.250000000000001
40
0.250000000000001
40
0.265625000000001
40
0.265625000000001
40
0.281250000000001
40
0.281250000000001
40
0.296875000000001
40
0.296875000000001
40
0.312500000000001
40
0.312500000000001
40
0.328125000000001
40
0.328125000000001
40
0.343750000000001
40
0.343750000000001
40
0.359375000000001
40
0.359375000000001
40
0.375000000000001
40
0.375000000000001
40
0.390625000000001
40
0.390625000000001
40
0.406250000000001
40
0.406250000000001
40
0.421875000000001
40
0.421875000000001
40
0.437500000000001
40
0.437500000000001
40
0.453125000000001
40
0.453125000000001
40
0.468750000000001
40
0.468750000000001
40
0.484375000000001
40
0.484375000000001
40
0.500000000000001
40
0.500000000000001
40
0.515625000000001
40
0.515625000000001
40
0.531250000000001
40
0.531250000000001
40
0.546875000000001
40
0.546875000000001
40
0.562500000000001
40
0.562500000000001
40
0.578125000000001
40
0.578125000000001
40
0.593750000000001
40
0.593750000000001
40
0.609375000000001
40
0.609375000000001
40
0.625000000000001
40
0.625000000000001
40
0.640625000000001
40
0.640625000000001
40
0.656250000000001
40
0.656250000000001
40
0.671875000000001
40
0.671875000000001
40
0.687500000000001
40
0.687500000000001
40
0.703125000000001
40
0.703125000000001
40
0.718750000000001
40
0.718750000000001
40
0.734375000000001
40
0.734375000000001
40
0.750000000000001
40
0.750000000000001
40
0.765625000000001
40
0.765625000000001
40
0.781250000000001
40
0.781250000000001
40
0.796875000000001
40
0.796875000000001
40
0.812500000000001
40
0.812500000000001
40
0.828125000000001
40
0.828125000000001
40
0.843750000000001
40
0.843750000000001
40
0.859375000000001
40
0.859375000000001
40
0.875
40
0.875
40
0.890625
40
0.890625
40
0.90625
40
0.90625
40
0.921875
40
0.921875
40
0.9375
40
0.9375
40
0.953125
40
0.953125
40
0.96875
40
0.96875
40
0.984375
40
0.984375
40
1
40
1
40
1
40
1
41
1
10
209.400000545717
20
11.5
30
0
41
1
10
209.456846075718
20
11.5
30
0
41
1
10
209.513691605719
20
11.4850082174351
30
0
41
1
10
209.627382665722
20
11.4219546901192
30
0
41
1
10
209.684228195723
20
11.3738853845031
30
0
41
1
10
209.797919255725
20
11.2421381286023
30
0
41
1
10
209.854764785726
20
11.1584528365304
30
0
41
1
10
209.968455845729
20
10.9537232938996
30
0
41
1
10
210.02530137573
20
10.8326727920293
30
0
41
1
10
210.138992435732
20
10.5524583005353
30
0
41
1
10
210.195837965733
20
10.3932900651047
30
0
41
1
10
210.309529025735
20
10.0372423590153
30
0
41
1
10
210.366374555737
20
9.84036143828666
30
0
41
1
10
210.480065615739
20
9.41053570658551
30
0
41
1
10
210.53691114574
20
9.17759272722552
30
0
41
1
10
210.650602205743
20
8.67853111101059
30
0
41
1
10
210.707447735744
20
8.4124176295077
30
0
41
1
10
210.821138795746
20
7.85103901143725
30
0
41
1
10
210.877984325747
20
7.55578190084151
30
0
41
1
10
210.991675385749
20
6.94107583619402
30
0
41
1
10
211.048520915751
20
6.62163689277051
30
0
41
1
10
211.162211975753
20
5.9641884212605
30
0
41
1
10
211.219057505754
20
5.62618973438271
30
0
41
1
10
211.332748565757
20
4.93758704209986
30
0
41
1
10
211.389594095758
20
4.58699350766631
30
0
41
1
10
211.50328515576
20
3.87918608631017
30
0
41
1
10
211.560130685761
20
3.52198126782997
30
0
41
1
10
211.673821745763
20
2.80665906849185
30
0
41
1
10
211.730667275764
20
2.44854864352584
30
0
41
1
10
211.844358335767
20
1.73660305703925
30
0
41
1
10
211.901203865768
20
1.38277241412564
30
0
41
1
10
212.01489492577
20
0.68388123002677
30
0
41
1
10
212.071740455772
20
0.338822805474109
30
0
41
1
10
212.185431515774
20
-0.33882117912853
30
0
41
1
10
212.242277045775
20
-0.683879566618799
30
0
41
1
10
212.355968105777
20
-1.38277072285589
30
0
41
1
10
212.412813635778
20
-1.73660135512606
30
0
41
1
10
212.526504695781
20
-2.4485469281002
30
0
41
1
10
212.583350225782
20
-2.80665735020111
30
0
41
1
10
212.697041285784
20
-3.52197955257407
30
0
41
1
10
212.753886815785
20
-3.87918437695791
30
0
41
1
10
212.867577875788
20
-4.58699181954282
30
0
41
1
10
212.924423405789
20
-4.9375853693044
30
0
41
1
10
213.038114465791
20
-5.62618810188505
30
0
41
1
10
213.094959995792
20
-5.9641868137341
30
0
41
1
10
213.208651055794
20
-6.62163534454405
30
0
41
1
10
213.265496585795
20
-6.94107432229589
30
0
41
1
10
213.379187645798
20
-7.55578046415027
30
0
41
1
10
213.436033175799
20
-7.8510376176223
30
0
41
1
10
213.549724235801
20
-8.41241632870501
30
0
41
1
10
213.606569765803
20
-8.67852986033989
30
0
41
1
10
213.720260825805
20
-9.17759158240017
30
0
41
1
10
213.777106355806
20
-9.41053461746841
30
0
41
1
10
213.890797415808
20
-9.84036046423992
30
0
41
1
10
213.947642945809
20
-10.0372414443253
30
0
41
1
10
214.061334005812
20
-10.3932892707655
30
0
41
1
10
214.118179535813
20
-10.5524575671854
30
0
41
1
10
214.231870595815
20
-10.8326721803493
30
0
41
1
10
214.288716125816
20
-10.9537227428965
30
0
41
1
10
214.402407185819
20
-11.1584524048314
30
0
41
1
10
214.45925271582
20
-11.2421377555281
30
0
41
1
10
214.572943775822
20
-11.3738851251901
30
0
41
1
10
214.629789305823
20
-11.4219544859416
30
0
41
1
10
214.743480365826
20
-11.4850081189555
30
0
41
1
10
214.800325895827
20
-11.4999999520832
30
0
41
1
10
214.914016955829
20
-11.5000000479166
30
0
41
1
10
214.97086248583
20
-11.4850083159145
30
0
41
1
10
215.084553545833
20
-11.4219548942965
30
0
41
1
10
215.141399075834
20
-11.3738856438158
30
0
41
1
10
215.255090135836
20
-11.2421385016762
30
0
41
1
10
215.311935665837
20
-11.1584532682291
30
0
41
1
10
215.425626725839
20
-10.9537238449024
30
0
41
1
10
215.482472255841
20
-10.8326734037089
30
0
41
1
10
215.596163315843
20
-10.552459033885
30
0
41
1
10
215.653008845844
20
-10.3932908594437
30
0
41
1
10
215.766699905846
20
-10.0372432737052
30
0
41
1
10
215.823545435848
20
-9.84036241233315
30
0
41
1
10
215.93723649585
20
-9.41053679570231
30
0
41
1
10
215.994082025851
20
-9.17759387205061
30
0
41
1
10
216.107773085853
20
-8.67853236168105
30
0
41
1
10
216.164618615855
20
-8.41241893031017
30
0
41
1
10
216.278309675857
20
-7.85104040525198
30
0
41
1
10
216.335155205858
20
-7.55578333753252
30
0
41
1
10
216.44884626586
20
-6.94107735009197
30
0
41
1
10
216.505691795861
20
-6.62163844099683
30
0
41
1
10
216.619382855864
20
-5.96419002878679
30
0
41
1
10
216.676228385865
20
-5.62619136688025
30
0
41
1
10
216.789919445867
20
-4.93758871489521
30
0
41
1
10
216.846764975868
20
-4.58699519578974
30
0
41
1
10
216.96045603587
20
-3.87918779566238
30
0
41
1
10
217.017301565872
20
-3.52198298308585
30
0
41
1
10
217.130992625874
20
-2.80666078678257
30
0
41
1
10
217.187838155875
20
-2.44855035895154
30
0
41
1
10
217.301529215878
20
-1.73660475895247
30
0
41
1
10
217.358374745879
20
-1.38277410539541
30
0
41
1
10
217.472065805881
20
-0.683882893434799
30
0
41
1
10
217.528911335882
20
-0.338824451667477
30
0
41
1
10
217.642602395885
20
0.338819572630598
30
0
41
1
10
217.699447925886
20
0.683877903210941
30
0
41
1
10
217.813138985888
20
1.38276903158621
30
0
41
1
10
217.869984515889
20
1.73659965321292
30
0
41
1
10
217.983675575891
20
2.44854521267453
30
0
41
1
10
218.040521105893
20
2.80665563191039
30
0
41
1
10
218.154212165895
20
3.52197783731816
30
0
41
1
10
218.211057695896
20
3.87918266760559
30
0
41
1
10
218.324748755898
20
4.58699013141927
30
0
41
1
10
218.381594285899
20
4.93758369650888
30
0
41
1
10
218.495285345902
20
5.62618646938731
30
0
41
1
10
218.552130875903
20
5.96418520620756
30
0
41
1
10
218.665821935905
20
6.62163379631741
30
0
41
1
10
218.722667465906
20
6.94107280839756
30
0
41
1
10
218.836358525909
20
7.55577902745887
30
0
41
1
10
218.89320405591
20
7.85103622380714
30
0
41
1
10
219.006895115912
20
8.41241502790209
30
0
41
1
10
219.063740645913
20
8.67852860966894
30
0
41
1
10
219.177431705916
20
9.17759043757454
30
0
41
1
10
219.234277235917
20
9.41053352835107
30
0
41
1
10
219.347968295919
20
9.8403594901929
30
0
41
1
10
219.40481382592
20
10.0372405296349
30
0
41
1
10
219.518504885923
20
10.393288476426
30
0
41
1
10
219.575350415924
20
10.5524568338351
30
0
41
1
10
219.689041475926
20
10.8326715686691
30
0
41
1
10
219.745887005927
20
10.9537221918931
30
0
41
1
10
219.859578065929
20
11.1584519731321
30
0
41
1
10
219.916423595931
20
11.2421373824537
30
0
41
1
10
220.030114655933
20
11.3738848658769
30
0
41
1
10
220.086960185934
20
11.4219542817638
30
0
41
1
10
220.200651245936
20
11.4850080204756
30
0
41
1
10
220.257496775938
20
11.4999999041662
30
0
41
1
10
220.314342305939
20
11.4999999999996
30
0
0
SPLINE
5
F1
100
AcDbEntity
8
1
62
256
6
ByLayer
370
13
48
1
60
0
100
AcDbSpline
70
4
71
3
72
14
73
10
40
0
40
0
40
0
40
0
40
0.25
40
0.25
40
0.5
40
0.5
40
0.75
40
0.75
40
1
40
1
40
1
40
1
41
1
10
219.655330151413
20
11.5
30
0
41
1
10
219.710247830956
20
11.5
30
0
41
1
10
219.765165510501
20
11.4860090513338
30
0
41
1
10
219.875000869588
20
11.4272551593426
30
0
41
1
10
219.929918549132
20
11.382485856457
30
0
41
1
10
220.039753908219
20
11.2598560125383
30
0
41
1
10
220.094671587763
20
11.1819892561278
30
0
41
1
10
220.204506946851
20
10.9915189551953
30
0
41
1
10
220.259424626395
20
10.8789100184265
30
0
41
1
10
220.314342305939
20
10.7485351901899
30
0
0
SPLINE
5
F2
100
AcDbEntity
8
1
62
256
6
ByLayer
370
13
48
1
60
0
100
AcDbSpline
70
4
71
3
72
8
73
4
40
0
40
0
40
0
40
0
40
1
40
1
40
1
40
1
41
1
10
209.4
20
11.4534106435068
30
0
41
1
10
209.456888072373
20
11.4849857402605
30
0
41
1
10
209.513776144745
20
11.5
30
0
41
1
10
209.570664217118
20
11.5
30
0
0
SPLINE
5
F3
100
AcDbEntity
8
1
62
256
6
ByLayer
370
13
48
1
60
0
100
AcDbSpline
70
4
71
3
72
140
73
136
40
0
40
0
40
0
40
0
40
0.0156249999999991
40
0.0156249999999991
40
0.0312499999999982
40
0.0312499999999982
40
0.0468749999999973
40
0.0468749999999973
40
0.0624999999999965
40
0.0624999999999965
40
0.0781249999999956
40
0.0781249999999956
40
0.0937499999999947
40
0.0937499999999947
40
0.109374999999994
40
0.109374999999994
40
0.124999999999993
40
0.124999999999993
40
0.140624999999992
40
0.140624999999992
40
0.156249999999991
40
0.156249999999991
40
0.171874999999991
40
0.171874999999991
40
0.18749999999999
40
0.18749999999999
40
0.203124999999989
40
0.203124999999989
40
0.210937499999989
40
0.210937499999989
40
0.218749999999989
40
0.218749999999989
40
0.234374999999989
40
0.234374999999989
40
0.249999999999989
40
0.249999999999989
40
0.265624999999989
40
0.265624999999989
40
0.281249999999989
40
0.281249999999989
40
0.296874999999989
40
0.296874999999989
40
0.312499999999989
40
0.312499999999989
40
0.328124999999989
40
0.328124999999989
40
0.343749999999989
40
0.343749999999989
40
0.359374999999989
40
0.359374999999989
40
0.374999999999988
40
0.374999999999988
40
0.390624999999988
40
0.390624999999988
40
0.406249999999988
40
0.406249999999988
40
0.421874999999988
40
0.421874999999988
40
0.437499999999988
40
0.437499999999988
40
0.453124999999988
40
0.453124999999988
40
0.468749999999988
40
0.468749999999988
40
0.476562499999988
40
0.476562499999988
40
0.484374999999988
40
0.484374999999988
40
0.499999999999989
40
0.499999999999989
40
0.515624999999989
40
0.515624999999989
40
0.531249999999989
40
0.531249999999989
40
0.54687499999999
40
0.54687499999999
40
0.56249999999999
40
0.56249999999999
40
0.57812499999999
40
0.57812499999999
40
0.593749999999991
40
0.593749999999991
40
0.609374999999991
40
0.609374999999991
40
0.624999999999992
40
0.624999999999992
40
0.640624999999992
40
0.640624999999992
40
0.656249999999993
40
0.656249999999993
40
0.671874999999993
40
0.671874999999993
40
0.687499999999994
40
0.687499999999994
40
0.703124999999994
40
0.703124999999994
40
0.718749999999994
40
0.718749999999994
40
0.734374999999995
40
0.734374999999995
40
0.742187499999995
40
0.742187499999995
40
0.749999999999995
40
0.749999999999995
40
0.765624999999995
40
0.765624999999995
40
0.781249999999995
40
0.781249999999995
40
0.796874999999996
40
0.796874999999996
40
0.812499999999996
40
0.812499999999996
40
0.828124999999996
40
0.828124999999996
40
0.843749999999997
40
0.843749999999997
40
0.859374999999997
40
0.859374999999997
40
0.874999999999997
40
0.874999999999997
40
0.890624999999998
40
0.890624999999998
40
0.906249999999998
40
0.906249999999998
40
0.921874999999998
40
0.921874999999998
40
0.937499999999999
40
0.937499999999999
40
0.953124999999999
40
0.953124999999999
40
0.968749999999999
40
0.968749999999999
40
0.984375
40
0.984375
40
1
40
1
40
1
40
1
41
1
10
209.4
20
11.0969370842721
30
0
41
1
10
209.454302051161
20
11.0039986532413
30
0
41
1
10
209.508604102321
20
10.8940967290353
30
0
41
1
10
209.617208204642
20
10.6395706447958
30
0
41
1
10
209.671510255803
20
10.4949427643128
30
0
41
1
10
209.780114358124
20
10.1711021829071
30
0
41
1
10
209.834416409284
20
9.9918877797308
30
0
41
1
10
209.943020511605
20
9.60003807313171
30
0
41
1
10
209.997322562765
20
9.38740350009257
30
0
41
1
10
210.105926665086
20
8.93091983612936
30
0
41
1
10
210.160228716247
20
8.68707403351041
30
0
41
1
10
210.268832818568
20
8.17135664437214
30
0
41
1
10
210.323134869728
20
7.89949068744662
30
0
41
1
10
210.431738972049
20
7.33176912291412
30
0
41
1
10
210.48604102321
20
7.03592094475152
30
0
41
1
10
210.594645125531
20
6.42492018611031
30
0
41
1
10
210.648947176691
20
6.1097760562719
30
0
41
1
10
210.757551279012
20
5.46527634614984
30
0
41
1
10
210.811853330173
20
5.13592935874982
30
0
41
1
10
210.920457432494
20
4.46826547897084
30
0
41
1
10
210.974759483654
20
4.12995649286333
30
0
41
1
10
211.083363585975
20
3.4495081435839
30
0
41
1
10
211.137665637136
20
3.10737534754929
30
0
41
1
10
211.246269739456
20
2.42409745056784
30
0
41
1
10
211.300571790617
20
2.08295717684953
30
0
41
1
10
211.409175892938
20
1.40598871364796
30
0
41
1
10
211.463477944099
20
1.07016347837975
30
0
41
1
10
211.544931020839
20
0.573194968074603
30
0
41
1
10
211.572082046419
20
0.408661987072946
30
0
41
1
10
211.62638409758
20
0.0822436186986408
30
0
41
1
10
211.653535123161
20
-0.078925836656083
30
0
41
1
10
211.734988199901
20
-0.568499318439251
30
0
41
1
10
211.789290251061
20
-0.900203014243715
30
0
41
1
10
211.897894353382
20
-1.57087750782824
30
0
41
1
10
211.952196404543
20
-1.90984626877344
30
0
41
1
10
212.060800506864
20
-2.59102655135425
30
0
41
1
10
212.115102558024
20
-2.93323418788671
30
0
41
1
10
212.223706660345
20
-3.61630819085988
30
0
41
1
10
212.278008711506
20
-3.95716883301816
30
0
41
1
10
212.386612813827
20
-4.63254953646748
30
0
41
1
10
212.440914864987
20
-4.96706229875917
30
0
41
1
10
212.549518967308
20
-5.62452930273116
30
0
41
1
10
212.603821018469
20
-5.94747520216453
30
0
41
1
10
212.71242512079
20
-6.57660885935039
30
0
41
1
10
212.76672717195
20
-6.88278798472078
30
0
41
1
10
212.875331274271
20
-7.47346453013324
30
0
41
1
10
212.929633325431
20
-7.75795389948254
30
0
41
1
10
213.038237427753
20
-8.30085713010374
30
0
41
1
10
213.092539478913
20
-8.55926437040665
30
0
41
1
10
213.201143581234
20
-9.04636259173216
30
0
41
1
10
213.255445632394
20
-9.27504905712485
30
0
41
1
10
213.364049734715
20
-9.6999874860503
30
0
41
1
10
213.418351785876
20
-9.89623742624201
30
0
41
1
10
213.526955888197
20
-10.2546063513832
30
0
41
1
10
213.581257939357
20
-10.4167258496237
30
0
41
1
10
213.689862041678
20
-10.7061817200794
30
0
41
1
10
213.744164092839
20
-10.8335208630034
30
0
41
1
10
213.85276819516
20
-11.0537575059456
30
0
41
1
10
213.90707024632
20
-11.1466595121091
30
0
41
1
10
214.015674348641
20
-11.2992456479702
30
0
41
1
10
214.069976399802
20
-11.3589353698736
30
0
41
1
10
214.178580502123
20
-11.4470489117472
30
0
41
1
10
214.232882553283
20
-11.4754787512177
30
0
41
1
10
214.314335630024
20
-11.4965516889895
30
0
41
1
10
214.341486655604
20
-11.4999844300635
30
0
41
1
10
214.395788706765
20
-11.5000154642158
30
0
41
1
10
214.422939732345
20
-11.4966145686034
30
0
41
1
10
214.504392809086
20
-11.4756394786865
30
0
41
1
10
214.558694860246
20
-11.4472779586322
30
0
41
1
10
214.667298962567
20
-11.359306185883
30
0
41
1
10
214.721601013728
20
-11.2996899134164
30
0
41
1
10
214.830205116049
20
-11.1472543520584
30
0
41
1
10
214.884507167209
20
-11.0544294692611
30
0
41
1
10
214.99311126953
20
-10.8343489109541
30
0
41
1
10
215.047413320691
20
-10.707088726072
30
0
41
1
10
215.156017423011
20
-10.4177904625504
30
0
41
1
10
215.210319474172
20
-10.255749608598
30
0
41
1
10
215.318923576493
20
-9.89753532483468
30
0
41
1
10
215.373225627653
20
-9.70136137617857
30
0
41
1
10
215.481829729974
20
-9.27656990838847
30
0
41
1
10
215.536131781135
20
-9.04795440675329
30
0
41
1
10
215.644735883456
20
-8.56099085329629
30
0
41
1
10
215.699037934616
20
-8.30264731175757
30
0
41
1
10
215.807642036937
20
-7.75986228927258
30
0
41
1
10
215.861944088098
20
-7.4754274251882
30
0
41
1
10
215.970548190419
20
-6.88484922372467
30
0
41
1
10
216.024850241579
20
-6.57871393471387
30
0
41
1
10
216.1334543439
20
-5.94965635736517
30
0
41
1
10
216.187756395061
20
-5.62674270109591
30
0
41
1
10
216.296360497382
20
-4.96932825528344
30
0
41
1
10
216.350662548542
20
-4.63483580956773
30
0
41
1
10
216.459266650863
20
-3.95948404705138
30
0
41
1
10
216.513568702023
20
-3.61863203231866
30
0
41
1
10
216.622172804345
20
-2.93556432761653
30
0
41
1
10
216.676474855505
20
-2.5933543659084
30
0
41
1
10
216.785078957826
20
-1.91215960366299
30
0
41
1
10
216.839381008987
20
-1.57317869250511
30
0
41
1
10
216.947985111307
20
-0.902471461888268
30
0
41
1
10
217.002287162468
20
-0.570747183306594
30
0
41
1
10
217.083740239209
20
-0.0811376484608104
30
0
41
1
10
217.110891264789
20
0.0800317211090089
30
0
41
1
10
217.165193315949
20
0.406426061944018
30
0
41
1
10
217.19234434153
20
0.570947891953608
30
0
41
1
10
217.273797418271
20
1.06788582669429
30
0
41
1
10
217.328099469431
20
1.40369451948007
30
0
41
1
10
217.436703571752
20
2.08063904891543
30
0
41
1
10
217.491005622912
20
2.42177193556742
30
0
41
1
10
217.599609725233
20
3.10504548551987
30
0
41
1
10
217.653911776394
20
3.44718132579271
30
0
41
1
10
217.762515878715
20
4.12764713794076
30
0
41
1
10
217.816817929875
20
4.46597054627878
30
0
41
1
10
217.925422032196
20
5.1336751442017
30
0
41
1
10
217.979724083357
20
5.46304842990267
30
0
41
1
10
218.088328185678
20
6.10761256943206
30
0
41
1
10
218.142630236838
20
6.42279483104315
30
0
41
1
10
218.251234339159
20
7.03388305736758
30
0
41
1
10
218.30553639032
20
7.32978057011286
30
0
41
1
10
218.414140492641
20
7.8976108006371
30
0
41
1
10
218.468442543801
20
8.16953608570384
30
0
41
1
10
218.577046646122
20
8.68538041148346
30
0
41
1
10
218.631348697283
20
8.92929381779024
30
0
41
1
10
218.739952799603
20
9.38591886691881
30
0
41
1
10
218.794254850764
20
9.59862721574089
30
0
41
1
10
218.902858953085
20
9.99062832340877
30
0
41
1
10
218.957161004245
20
10.1699203460792
30
0
41
1
10
219.065765106566
20
10.4939176373661
30
0
41
1
10
219.120067157727
20
10.638624603088
30
0
41
1
10
219.228671260048
20
10.89330806663
30
0
41
1
10
219.282973311208
20
11.0032882809492
30
0
41
1
10
219.391577413529
20
11.1893189249459
30
0
41
1
10
219.44587946469
20
11.2653744893835
30
0
41
1
10
219.554483567011
20
11.3851656759205
30
0
41
1
10
219.608785618171
20
11.4289071831876
30
0
41
1
10
219.717389720492
20
11.4863213402954
30
0
41
1
10
219.771691771653
20
11.5
30
0
41
1
10
219.825993822813
20
11.5
30
0
0
SPLINE
5
F4
100
AcDbEntity
8
1
62
256
6
ByLayer
370
13
48
1
60
0
100
AcDbSpline
70
4
71
3
72
14
73
10
40
0
40
0
40
0
40
0
40
0.25
40
0.25
40
0.5
40
0.5
40
0.75
40
0.75
40
1
40
1
40
1
40
1
41
1
10
219.16698112257
20
11.5
30
0
41
1
10
219.262594554517
20
11.5
30
0
41
1
10
219.358207986465
20
11.4574744135506
30
0
41
1
10
219.54943485036
20
11.2735268453813
30
0
41
1
10
219.645048282307
20
11.1320048767905
30
0
41
1
10
219.836275146202
20
10.7417489151934
30
0
41
1
10
219.931888578149
20
10.4929402578939
30
0
41
1
10
220.123115442044
20
9.88826159868287
30
0
41
1
10
220.218728873991
20
9.532374560275
30
0
41
1
10
220.314342305939
20
9.12801222369919
30
0
0
SPLINE
5
F5
100
AcDbEntity
8
1
62
256
6
ByLayer
370
13
48
1
60
0
100
AcDbSpline
70
4
71
3
72
124
73
120
40
0
40
0
40
0
40
0
40
0.0156249999999999
40
0.0156249999999999
40
0.0312499999999998
40
0.0312499999999998
40
0.0468749999999996
40
0.0468749999999996
40
0.0624999999999995
40
0.0624999999999995
40
0.0781249999999994
40
0.0781249999999994
40
0.0937499999999992
40
0.0937499999999992
40
0.109374999999999
40
0.109374999999999
40
0.124999999999999
40
0.124999999999999
40
0.156249999999999
40
0.156249999999999
40
0.171874999999999
40
0.171874999999999
40
0.175781249999999
40
0.175781249999999
40
0.179687499999999
40
0.179687499999999
40
0.187499999999999
40
0.187499999999999
40
0.218749999999999
40
0.218749999999999
40
0.249999999999998
40
0.249999999999998
40
0.265624999999998
40
0.265624999999998
40
0.281249999999998
40
0.281249999999998
40
0.296874999999997
40
0.296874999999997
40
0.312499999999997
40
0.312499999999997
40
0.328124999999997
40
0.328124999999997
40
0.343749999999996
40
0.343749999999996
40
0.359374999999996
40
0.359374999999996
40
0.374999999999996
40
0.374999999999996
40
0.406249999999995
40
0.406249999999995
40
0.437499999999995
40
0.437499999999995
40
0.445312499999995
40
0.445312499999995
40
0.449218749999994
40
0.449218749999994
40
0.453124999999994
40
0.453124999999994
40
0.468749999999995
40
0.468749999999995
40
0.499999999999997
40
0.499999999999997
40
0.515624999999997
40
0.515624999999997
40
0.531249999999998
40
0.531249999999998
40
0.546874999999999
40
0.546874999999999
40
0.562499999999999
40
0.562499999999999
40
0.578125
40
0.578125
40
0.593750000000001
40
0.593750000000001
40
0.609375000000001
40
0.609375000000001
40
0.625000000000002
40
0.625000000000002
40
0.640625000000003
40
0.640625000000003
40
0.656250000000004
40
0.656250000000004
40
0.687500000000005
40
0.687500000000005
40
0.718750000000007
40
0.718750000000007
40
0.722656250000007
40
0.722656250000007
40
0.726562500000006
40
0.726562500000006
40
0.734375000000006
40
0.734375000000006
40
0.750000000000006
40
0.750000000000006
40
0.781250000000005
40
0.781250000000005
40
0.796875000000004
40
0.796875000000004
40
0.812500000000004
40
0.812500000000004
40
0.828125000000004
40
0.828125000000004
40
0.843750000000003
40
0.843750000000003
40
0.859375000000003
40
0.859375000000003
40
0.875000000000003
40
0.875000000000003
40
0.890625000000002
40
0.890625000000002
40
0.906250000000002
40
0.906250000000002
40
0.921875000000002
40
0.921875000000002
40
0.937500000000001
40
0.937500000000001
40
0.968750000000001
40
0.968750000000001
40
1
40
1
40
1
40
1
41
1
10
209.4
20
9.79729559926824
30
0
41
1
10
209.451758566635
20
9.61061983773652
30
0
41
1
10
209.503517133271
20
9.40876482097957
30
0
41
1
10
209.607034266541
20
8.97658305606822
30
0
41
1
10
209.658792833176
20
8.74625879855211
30
0
41
1
10
209.762309966447
20
8.25984122086294
30
0
41
1
10
209.814068533082
20
8.00375216954166
30
0
41
1
10
209.917585666353
20
7.46922024193168
30
0
41
1
10
209.969344232988
20
7.19078304528301
30
0
41
1
10
210.072861366259
20
6.61553177113066
30
0
41
1
10
210.124619932894
20
6.31872424513688
30
0
41
1
10
210.228137066164
20
5.71108526109501
30
0
41
1
10
210.2798956328
20
5.40026060209308
30
0
41
1
10
210.38341276607
20
4.76911357186771
30
0
41
1
10
210.435171332705
20
4.44879763595782
30
0
41
1
10
210.538688465976
20
3.80316669586634
30
0
41
1
10
210.590447032611
20
3.47785725308154
30
0
41
1
10
210.745722732517
20
2.50086420185556
30
0
41
1
10
210.849239865787
20
1.84836331262912
30
0
41
1
10
211.004515565693
20
0.890010988511762
30
0
41
1
10
211.056274132329
20
0.573902617375893
30
0
41
1
10
211.120972340623
20
0.184771275214473
30
0
41
1
10
211.133911982281
20
0.10724385535633
30
0
41
1
10
211.159791265599
20
-0.0471731015327634
30
0
41
1
10
211.172730907258
20
-0.124404449226319
30
0
41
1
10
211.211549832234
20
-0.357413968701337
30
0
41
1
10
211.237429115552
20
-0.513971417736229
30
0
41
1
10
211.36682553214
20
-1.30198921880393
30
0
41
1
10
211.470342665411
20
-1.94946515217359
30
0
41
1
10
211.677376931952
20
-3.25119998356175
30
0
41
1
10
211.780894065222
20
-3.90534519398545
30
0
41
1
10
211.936169765128
20
-4.86599118213132
30
0
41
1
10
211.987928331763
20
-5.1827360621154
30
0
41
1
10
212.091445465034
20
-5.80476378978284
30
0
41
1
10
212.143204031669
20
-6.11003997348502
30
0
41
1
10
212.246721164939
20
-6.70465447370319
30
0
41
1
10
212.298479731575
20
-6.9939860207468
30
0
41
1
10
212.401996864845
20
-7.55249651164559
30
0
41
1
10
212.453755431481
20
-7.82166920942211
30
0
41
1
10
212.557272564751
20
-8.33610607594187
30
0
41
1
10
212.609031131386
20
-8.58136512107768
30
0
41
1
10
212.712548264657
20
-9.04485037634123
30
0
41
1
10
212.764306831292
20
-9.26307305866888
30
0
41
1
10
212.867823964563
20
-9.67012436081347
30
0
41
1
10
212.919582531198
20
-9.85895132237118
30
0
41
1
10
213.023099664469
20
-10.2056916786696
30
0
41
1
10
213.074858231104
20
-10.3636053243139
30
0
41
1
10
213.23013393101
20
-10.7899907977718
30
0
41
1
10
213.33365106428
20
-11.0107395530497
30
0
41
1
10
213.540685330821
20
-11.3295800621421
30
0
41
1
10
213.644202464092
20
-11.4278059289003
30
0
41
1
10
213.77359888068
20
-11.483072842038
30
0
41
1
10
213.799478163997
20
-11.490769017753
30
0
41
1
10
213.838297088974
20
-11.4974945592492
30
0
41
1
10
213.851236730633
20
-11.4989334441303
30
0
41
1
10
213.87711601395
20
-11.5002431852085
30
0
41
1
10
213.890055655609
20
-11.5001195273744
30
0
41
1
10
213.954753863903
20
-11.495585656977
30
0
41
1
10
214.006512430538
20
-11.4793529942843
30
0
41
1
10
214.161788130444
20
-11.3893880548914
30
0
41
1
10
214.265305263715
20
-11.2741071958282
30
0
41
1
10
214.42058096362
20
-11.0083513279941
30
0
41
1
10
214.472339530256
20
-10.9043575418177
30
0
41
1
10
214.575856663526
20
-10.6648462340016
30
0
41
1
10
214.627615230162
20
-10.5293257196847
30
0
41
1
10
214.731132363432
20
-10.2268201009063
30
0
41
1
10
214.782890930067
20
-10.0598334901513
30
0
41
1
10
214.886408063338
20
-9.69529790299231
30
0
41
1
10
214.938166629973
20
-9.49774921983322
30
0
41
1
10
215.041683763244
20
-9.07385405450123
30
0
41
1
10
215.093442329879
20
-8.84750978754474
30
0
41
1
10
215.19695946315
20
-8.36861300239056
30
0
41
1
10
215.248718029785
20
-8.11606451298056
30
0
41
1
10
215.352235163055
20
-7.58807949620933
30
0
41
1
10
215.403993729691
20
-7.31264847404836
30
0
41
1
10
215.507510862961
20
-6.7428047365824
30
0
41
1
10
215.559269429596
20
-6.44839848409271
30
0
41
1
10
215.662786562867
20
-5.84491507406429
30
0
41
1
10
215.714545129502
20
-5.53584471894138
30
0
41
1
10
215.818062262773
20
-4.90754689192875
30
0
41
1
10
215.869820829408
20
-4.58832594295211
30
0
41
1
10
216.025096529314
20
-3.62219922159127
30
0
41
1
10
216.128613662584
20
-2.9670165769183
30
0
41
1
10
216.335647929125
20
-1.66770670366478
30
0
41
1
10
216.439165062396
20
-1.02368031678336
30
0
41
1
10
216.555621837325
20
-0.320187139595362
30
0
41
1
10
216.568561478984
20
-0.242307917111191
30
0
41
1
10
216.594440762302
20
-0.0871643087353675
30
0
41
1
10
216.60738040396
20
-0.0101105528378014
30
0
41
1
10
216.646199328937
20
0.221820124615277
30
0
41
1
10
216.672078612255
20
0.377704852393691
30
0
41
1
10
216.749716462207
20
0.848652182977503
30
0
41
1
10
216.801475028843
20
1.16702490950664
30
0
41
1
10
216.956750728748
20
2.13074490375448
30
0
41
1
10
217.060267862019
20
2.78490883300054
30
0
41
1
10
217.215543561925
20
3.76073793918704
30
0
41
1
10
217.26730212856
20
4.08505280188191
30
0
41
1
10
217.37081926183
20
4.72740420672008
30
0
41
1
10
217.422577828466
20
5.04543489009248
30
0
41
1
10
217.526094961736
20
5.67069292008742
30
0
41
1
10
217.577853528372
20
5.97791366744673
30
0
41
1
10
217.681370661642
20
6.57705514099274
30
0
41
1
10
217.733129228277
20
6.86896907457884
30
0
41
1
10
217.836646361548
20
7.43323170093547
30
0
41
1
10
217.888404928183
20
7.70557403276067
30
0
41
1
10
217.991922061454
20
8.22685948038782
30
0
41
1
10
218.043680628089
20
8.47579727648971
30
0
41
1
10
218.14719776136
20
8.94704845099761
30
0
41
1
10
218.198956327995
20
9.16935804785621
30
0
41
1
10
218.302473461265
20
9.58487470489627
30
0
41
1
10
218.3542320279
20
9.77807982756636
30
0
41
1
10
218.457749161171
20
10.1337432705282
30
0
41
1
10
218.509507727806
20
10.2962015713039
30
0
41
1
10
218.613024861077
20
10.5895903749757
30
0
41
1
10
218.664783427712
20
10.7205226229023
30
0
41
1
10
218.820059127618
20
11.0661110566392
30
0
41
1
10
218.923576260888
20
11.2332436675602
30
0
41
1
10
219.13061052743
20
11.4501145726067
30
0
41
1
10
219.2341276607
20
11.5
30
0
41
1
10
219.33764479397
20
11.5
30
0
0
SPLINE
5
F6
100
AcDbEntity
8
1
62
256
6
ByLayer
370
13
48
1
60
0
100
AcDbSpline
70
4
71
3
72
22
73
18
40
0
40
0
40
0
40
0
40
0.125
40
0.125
40
0.25
40
0.25
40
0.375
40
0.375
40
0.5
40
0.5
40
0.625
40
0.625
40
0.75
40
0.75
40
0.875
40
0.875
40
1
40
1
40
1
40
1
41
1
10
218.678632093727
20
11.5
30
0
41
1
10
218.746786685903
20
11.5
30
0
41
1
10
218.814941278078
20
11.4784370839303
30
0
41
1
10
218.951250462429
20
11.3869494636645
30
0
41
1
10
219.019405054605
20
11.3170060194638
30
0
41
1
10
219.155714238956
20
11.1247401556578
30
0
41
1
10
219.223868831131
20
11.0024003970058
30
0
41
1
10
219.360178015482
20
10.7031307873627
30
0
41
1
10
219.428332607658
20
10.5261881968741
30
0
41
1
10
219.564641792009
20
10.1177717742135
30
0
41
1
10
219.632796384184
20
9.88629283628575
30
0
41
1
10
219.769105568535
20
9.37141143405799
30
0
41
1
10
219.83726016071
20
9.08801346562419
30
0
41
1
10
219.973569345061
20
8.47446591069456
30
0
41
1
10
220.041723937237
20
8.14433056965379
30
0
41
1
10
220.178033121588
20
7.44476180553443
30
0
41
1
10
220.246187713763
20
7.0753504527342
30
0
41
1
10
220.314342305939
20
6.69088056049492
30
0
0
SPLINE
5
F7
100
AcDbEntity
8
1
62
256
6
ByLayer
370
13
48
1
60
0
100
AcDbSpline
70
4
71
3
72
85
73
81
40
0
40
0
40
0
40
0
40
0.0312499999999969
40
0.0312499999999969
40
0.0624999999999938
40
0.0624999999999938
40
0.0937499999999907
40
0.0937499999999907
40
0.124999999999988
40
0.124999999999988
40
0.132812499999987
40
0.132812499999987
40
0.136718749999986
40
0.136718749999986
40
0.140624999999985
40
0.140624999999985
40
0.156249999999985
40
0.156249999999985
40
0.187499999999983
40
0.187499999999983
40
0.218749999999981
40
0.218749999999981
40
0.249999999999979
40
0.249999999999979
40
0.281249999999978
40
0.281249999999978
40
0.312499999999976
40
0.312499999999976
40
0.343749999999975
40
0.343749999999975
40
0.374999999999973
40
0.374999999999973
40
0.406249999999971
40
0.406249999999971
40
0.421874999999971
40
0.421874999999971
40
0.42578124999997
40
0.42578124999997
40
0.42968749999997
40
0.43749999999997
40
0.43749999999997
40
0.468749999999971
40
0.468749999999971
40
0.499999999999972
40
0.499999999999972
40
0.531249999999972
40
0.531249999999972
40
0.562499999999973
40
0.562499999999973
40
0.593749999999974
40
0.593749999999974
40
0.624999999999974
40
0.624999999999974
40
0.656249999999975
40
0.656249999999975
40
0.687499999999976
40
0.687499999999976
40
0.703124999999976
40
0.703124999999976
40
0.710937499999976
40
0.710937499999976
40
0.718749999999977
40
0.718749999999977
40
0.749999999999979
40
0.749999999999979
40
0.781249999999982
40
0.781249999999982
40
0.812499999999985
40
0.812499999999985
40
0.843749999999987
40
0.843749999999987
40
0.87499999999999
40
0.87499999999999
40
0.906249999999992
40
0.906249999999992
40
0.937499999999995
40
0.937499999999995
40
0.968749999999997
40
0.968749999999997
40
1
40
1
40
1
40
1
41
1
10
209.4
20
7.61949153061744
30
0
41
1
10
209.49843016422
20
7.1051504343458
30
0
41
1
10
209.59686032844
20
6.55125208131264
30
0
41
1
10
209.79372065688
20
5.39322254796787
30
0
41
1
10
209.8921508211
20
4.78925848980194
30
0
41
1
10
210.089011149541
20
3.56245506811106
30
0
41
1
10
210.187441313761
20
2.93975429011832
30
0
41
1
10
210.384301642201
20
1.70424654005853
30
0
41
1
10
210.482731806421
20
1.09151812363748
30
0
41
1
10
210.605769511696
20
0.346059000797368
30
0
41
1
10
210.630377052751
20
0.197972791224799
30
0
41
1
10
210.667288364334
20
-0.0224346610536088
30
0
41
1
10
210.679592134861
20
-0.0957532223253281
30
0
41
1
10
210.704199675916
20
-0.243296904277344
30
0
41
1
10
210.716503446444
20
-0.317346308416205
30
0
41
1
10
210.778022299081
20
-0.688892046190205
30
0
41
1
10
210.827237381191
20
-0.990302186971945
30
0
41
1
10
210.974882627521
20
-1.90320466208777
30
0
41
1
10
211.073312791741
20
-2.52355531341669
30
0
41
1
10
211.270173120182
20
-3.76222431694663
30
0
41
1
10
211.368603284402
20
-4.38043559386767
30
0
41
1
10
211.565463612842
20
-5.58449138564066
30
0
41
1
10
211.663893777062
20
-6.17017916951238
30
0
41
1
10
211.860754105502
20
-7.2781796614988
30
0
41
1
10
211.959184269722
20
-7.80032881091043
30
0
41
1
10
212.156044598162
20
-8.75456230135558
30
0
41
1
10
212.254474762383
20
-9.18652991438412
30
0
41
1
10
212.451335090823
20
-9.94243772424576
30
0
41
1
10
212.549765255043
20
-10.2663444691297
30
0
41
1
10
212.746625583483
20
-10.7992592647106
30
0
41
1
10
212.845055747703
20
-11.0083178184155
30
0
41
1
10
213.041916076143
20
-11.3154672446105
30
0
41
1
10
213.140346240363
20
-11.4136619935518
30
0
41
1
10
213.287991486693
20
-11.4869375183621
30
0
41
1
10
213.337206568803
20
-11.4990810467275
30
0
41
1
10
213.398725421441
20
-11.5001668652762
30
0
41
1
10
213.411029191968
20
-11.4996836202409
30
0
41
1
10
213.435636733023
20
-11.4972875117469
30
0
41
1
10
213.472548044606
20
-11.4915471577356
30
0
41
1
10
213.509459356189
20
-11.4792212329457
30
0
41
1
10
213.632497061464
20
-11.4228839725222
30
0
41
1
10
213.730927225684
20
-11.3287674363953
30
0
41
1
10
213.927787554124
20
-11.0301169204979
30
0
41
1
10
214.026217718344
20
-10.825477834005
30
0
41
1
10
214.223078046784
20
-10.3013689939387
30
0
41
1
10
214.321508211004
20
-9.9818459656278
30
0
41
1
10
214.518368539444
20
-9.23423466230901
30
0
41
1
10
214.616798703664
20
-8.80617636296682
30
0
41
1
10
214.813659032105
20
-7.85888797902408
30
0
41
1
10
214.912089196325
20
-7.33977188493245
30
0
41
1
10
215.108949524765
20
-6.23669571610122
30
0
41
1
10
215.207379688985
20
-5.65289836737014
30
0
41
1
10
215.404240017425
20
-4.45140501115978
30
0
41
1
10
215.502670181645
20
-3.83386694112926
30
0
41
1
10
215.699530510085
20
-2.59543467938303
30
0
41
1
10
215.797960674305
20
-1.97464995538866
30
0
41
1
10
215.945605920636
20
-1.06044131256934
30
0
41
1
10
215.994821002746
20
-0.758487351214114
30
0
41
1
10
216.068643625911
20
-0.311680107400719
30
0
41
1
10
216.093251166966
20
-0.163761480068985
30
0
41
1
10
216.142466249076
20
0.129759172338027
30
0
41
1
10
216.167073790131
20
0.277339362199086
30
0
41
1
10
216.290111495406
20
1.02122886408421
30
0
41
1
10
216.388541659626
20
1.63307020720518
30
0
41
1
10
216.585401988066
20
2.86780603573737
30
0
41
1
10
216.683832152286
20
3.49062450939709
30
0
41
1
10
216.880692480726
20
4.71884608325058
30
0
41
1
10
216.979122644946
20
5.32411251816507
30
0
41
1
10
217.175982973386
20
6.48595006995347
30
0
41
1
10
217.274413137607
20
7.04235426779383
30
0
41
1
10
217.471273466047
20
8.07707613577892
30
0
41
1
10
217.569703630267
20
8.55524830539406
30
0
41
1
10
217.766563958707
20
9.41090034092397
30
0
41
1
10
217.864994122927
20
9.78830425628203
30
0
41
1
10
218.061854451367
20
10.4300890305765
30
0
41
1
10
218.160284615587
20
10.6944823065518
30
0
41
1
10
218.357144944028
20
11.1091799041419
30
0
41
1
10
218.455575108248
20
11.2595674773019
30
0
41
1
10
218.652435436688
20
11.4549199260992
30
0
41
1
10
218.750865600908
20
11.5
30
0
41
1
10
218.849295765128
20
11.5
30
0
0
SPLINE
5
F8
100
AcDbEntity
8
1
62
256
6
ByLayer
370
13
48
1
60
0
100
AcDbSpline
70
4
71
3
72
22
73
18
40
0
40
0
40
0
40
0
40
0.125
40
0.125
40
0.25
40
0.25
40
0.375
40
0.375
40
0.5
40
0.5
40
0.625
40
0.625
40
0.75
40
0.75
40
0.875
40
0.875
40
1
40
1
40
1
40
1
41
1
10
218.190283064885
20
11.5
30
0
41
1
10
218.278785533262
20
11.5
30
0
41
1
10
218.367288001639
20
11.4635873946123
30
0
41
1
10
218.544292938394
20
11.3068254701232
30
0
41
1
10
218.632795406771
20
11.1864076974882
30
0
41
1
10
218.809800343525
20
10.8544310569245
30
0
41
1
10
218.898302811903
20
10.6428172490446
30
0
41
1
10
219.075307748657
20
10.1272044755619
30
0
41
1
10
219.163810217034
20
9.82318354618579
30
0
41
1
10
219.340815153789
20
9.1286997168497
30
0
41
1
10
219.429317622166
20
8.73826057670249
30
0
41
1
10
219.606322558921
20
7.8840819521894
30
0
41
1
10
219.694825027298
20
7.42041028781637
30
0
41
1
10
219.871829964052
20
6.43871025825788
30
0
41
1
10
219.96033243243
20
5.92077655935509
30
0
41
1
10
220.137337369184
20
4.85278131331853
30
0
41
1
10
220.225839837562
20
4.30281570122776
30
0
41
1
10
220.314342305939
20
3.74806281117887
30
0
0
SPLINE
5
F9
100
AcDbEntity
8
1
62
256
6
ByLayer
370
13
48
1
60
0
100
AcDbSpline
70
4
71
3
72
84
73
80
40
0
40
0
40
0
40
0
40
0.031249999999999
40
0.031249999999999
40
0.0624999999999979
40
0.0624999999999979
40
0.0781249999999972
40
0.0781249999999972
40
0.0859374999999965
40
0.0859374999999965
40
0.0898437499999962
40
0.0898437499999962
40
0.0937499999999959
40
0.0937499999999959
40
0.124999999999996
40
0.124999999999996
40
0.156249999999997
40
0.156249999999997
40
0.187499999999997
40
0.187499999999997
40
0.218749999999998
40
0.218749999999998
40
0.249999999999998
40
0.249999999999998
40
0.281249999999999
40
0.281249999999999
40
0.312499999999999
40
0.312499999999999
40
0.34375
40
0.34375
40
0.375
40
0.375
40
0.390625000000001
40
0.390625000000001
40
0.398437500000001
40
0.398437500000001
40
0.40625
40
0.40625
40
0.437499999999999
40
0.437499999999999
40
0.468749999999998
40
0.468749999999998
40
0.499999999999997
40
0.499999999999997
40
0.531249999999996
40
0.531249999999996
40
0.562499999999995
40
0.562499999999995
40
0.593749999999994
40
0.593749999999994
40
0.624999999999993
40
0.624999999999993
40
0.656249999999992
40
0.656249999999992
40
0.687499999999991
40
0.687499999999991
40
0.695312499999991
40
0.695312499999991
40
0.703124999999991
40
0.703124999999991
40
0.718749999999992
40
0.718749999999992
40
0.749999999999992
40
0.749999999999992
40
0.781249999999993
40
0.781249999999993
40
0.812499999999994
40
0.812499999999994
40
0.843749999999995
40
0.843749999999995
40
0.874999999999996
40
0.874999999999996
40
0.906249999999997
40
0.906249999999997
40
0.937499999999998
40
0.937499999999998
40
0.968749999999999
40
0.968749999999999
40
1
40
1
40
1
40
1
41
1
10
209.4
20
4.80891024331484
30
0
41
1
10
209.49334319517
20
4.23517073423704
30
0
41
1
10
209.586686390339
20
3.64821836660667
30
0
41
1
10
209.773372780679
20
2.47340642077043
30
0
41
1
10
209.866715975848
20
1.88562689518992
30
0
41
1
10
210.006730768603
20
1.0196595991255
30
0
41
1
10
210.053402366188
20
0.733582881222247
30
0
41
1
10
210.123409762565
20
0.309989269465831
30
0
41
1
10
210.146745561357
20
0.169708809194447
30
0
41
1
10
210.181749259546
20
-0.039155073301572
30
0
41
1
10
210.193417158942
20
-0.108768107823096
30
0
41
1
10
210.216752957735
20
-0.248730391778537
30
0
41
1
10
210.228420857131
20
-0.318960490342533
30
0
41
1
10
210.333431951696
20
-0.953135102056535
30
0
41
1
10
210.426775146866
20
-1.53203981703814
30
0
41
1
10
210.613461537205
20
-2.70139938101261
30
0
41
1
10
210.706804732375
20
-3.29179958744533
30
0
41
1
10
210.893491122714
20
-4.4602834206911
30
0
41
1
10
210.986834317884
20
-5.03826708857827
30
0
41
1
10
211.173520708223
20
-6.15537643114928
30
0
41
1
10
211.266863903393
20
-6.69437537369203
30
0
41
1
10
211.453550293732
20
-7.70779087086214
30
0
41
1
10
211.546893488902
20
-8.18208819190178
30
0
41
1
10
211.733579879241
20
-9.04502528410106
30
0
41
1
10
211.826923074411
20
-9.43358913573405
30
0
41
1
10
212.01360946475
20
-10.1116915593944
30
0
41
1
10
212.10695265992
20
-10.401217494089
30
0
41
1
10
212.293639050259
20
-10.8769675505413
30
0
41
1
10
212.386982245428
20
-11.0632379011688
30
0
41
1
10
212.573668635768
20
-11.3367478172037
30
0
41
1
10
212.667011830937
20
-11.4240692270288
30
0
41
1
10
212.807026623692
20
-11.4888752332984
30
0
41
1
10
212.853698221277
20
-11.4994904887948
30
0
41
1
10
212.923705617654
20
-11.5002278612918
30
0
41
1
10
212.947041416446
20
-11.4979542838025
30
0
41
1
10
212.993713014031
20
-11.4881486475627
30
0
41
1
10
213.017048812824
20
-11.4806159906932
30
0
41
1
10
213.133727806786
20
-11.4292765506311
30
0
41
1
10
213.227071001955
20
-11.3442484338775
30
0
41
1
10
213.413757392295
20
-11.0755215395347
30
0
41
1
10
213.507100587464
20
-10.8917404127208
30
0
41
1
10
213.693786977803
20
-10.420979482395
30
0
41
1
10
213.787130172973
20
-10.133952257418
30
0
41
1
10
213.973816563312
20
-9.46063697289998
30
0
41
1
10
214.067159758482
20
-9.07435996830765
30
0
41
1
10
214.253846148821
20
-8.21557326954488
30
0
41
1
10
214.347189343991
20
-7.74313809948396
30
0
41
1
10
214.53387573433
20
-6.73286556439001
30
0
41
1
10
214.6272189295
20
-6.19514677237626
30
0
41
1
10
214.813905319839
20
-5.07994606958587
30
0
41
1
10
214.907248515009
20
-4.50259115724978
30
0
41
1
10
215.093934905348
20
-3.33473678749698
30
0
41
1
10
215.187278100518
20
-2.74433824011533
30
0
41
1
10
215.373964490857
20
-1.57445195601034
30
0
41
1
10
215.467307686026
20
-0.995020029445868
30
0
41
1
10
215.583986679988
20
-0.289478004216306
30
0
41
1
10
215.607322478781
20
-0.149293139366677
30
0
41
1
10
215.653994076366
20
0.128989720440046
30
0
41
1
10
215.677329875158
20
0.268980434600792
30
0
41
1
10
215.747337271536
20
0.692035467972318
30
0
41
1
10
215.79400886912
20
0.977802094843412
30
0
41
1
10
215.934023661875
20
1.8430125408413
30
0
41
1
10
216.027366857045
20
2.43052010625203
30
0
41
1
10
216.214053247384
20
3.60537349602944
30
0
41
1
10
216.307396442553
20
4.19264038511994
30
0
41
1
10
216.494082832892
20
5.34139831194472
30
0
41
1
10
216.587426028062
20
5.90277215347811
30
0
41
1
10
216.774112418402
20
6.97313859179243
30
0
41
1
10
216.867455613571
20
7.48200348814129
30
0
41
1
10
217.05414200391
20
8.42355248095259
30
0
41
1
10
217.14748519908
20
8.85613569487751
30
0
41
1
10
217.334171589419
20
9.62770215391228
30
0
41
1
10
217.427514784589
20
9.96664090093728
30
0
41
1
10
217.614201174928
20
10.5421585491017
30
0
41
1
10
217.707544370098
20
10.7787569770898
30
0
41
1
10
217.894230760437
20
11.1498733922442
30
0
41
1
10
217.987573955607
20
11.2844594171212
30
0
41
1
10
218.174260345946
20
11.4594782709325
30
0
41
1
10
218.267603541116
20
11.5
30
0
41
1
10
218.360946736285
20
11.5
30
0
0
SPLINE
5
FA
100
AcDbEntity
8
1
62
256
6
ByLayer
370
13
48
1
60
0
100
AcDbSpline
70
4
71
3
72
38
73
34
40
0
40
0
40
0
40
0
40
0.0625
40
0.0625
40
0.125
40
0.125
40
0.1875
40
0.1875
40
0.25
40
0.25
40
0.3125
40
0.3125
40
0.375
40
0.375
40
0.4375
40
0.4375
40
0.499999999999999
40
0.499999999999999
40
0.562499999999999
40
0.562499999999999
40
0.625
40
0.625
40
0.6875
40
0.6875
40
0.75
40
0.75
40
0.8125
40
0.8125
40
0.875
40
0.875
40
0.9375
40
0.9375
40
1
40
1
40
1
40
1
41
1
10
217.701934036042
20
11.5
30
0
41
1
10
217.756359208332
20
11.5
30
0
41
1
10
217.810784380621
20
11.4862591678778
30
0
41
1
10
217.9196347252
20
11.4285783605448
30
0
41
1
10
217.97405989749
20
11.3846323067907
30
0
41
1
10
218.082910242069
20
11.264276225182
30
0
41
1
10
218.137335414358
20
11.1878602472225
30
0
41
1
10
218.246185758937
20
11.0009461088819
30
0
41
1
10
218.300610931227
20
10.890442762897
30
0
41
1
10
218.409461275806
20
10.6345519133703
30
0
41
1
10
218.463886448095
20
10.4891606671249
30
0
41
1
10
218.572736792674
20
10.1636448425898
30
0
41
1
10
218.627161964964
20
9.98351857398222
30
0
41
1
10
218.736012309543
20
9.58972007890179
30
0
41
1
10
218.790437481832
20
9.37604863211621
30
0
41
1
10
218.899287826411
20
8.91739874887378
30
0
41
1
10
218.953712998701
20
8.67242368409762
30
0
41
1
10
219.06256334328
20
8.15439500680242
30
0
41
1
10
219.116988515569
20
7.88134713150288
30
0
41
1
10
219.225838860148
20
7.31125288727722
30
0
41
1
10
219.280264032438
20
7.01421406504531
30
0
41
1
10
219.389114377017
20
6.40086787565602
30
0
41
1
10
219.443539549307
20
6.08456906967652
30
0
41
1
10
219.552389893886
20
5.43783786397233
30
0
41
1
10
219.606815066175
20
5.107414146444
30
0
41
1
10
219.715665410754
20
4.4377109103427
30
0
41
1
10
219.770090583044
20
4.09843935632708
30
0
41
1
10
219.878940927623
20
3.41620822356234
30
0
41
1
10
219.933366099912
20
3.07325523556582
30
0
41
1
10
220.042216444491
20
2.38849831980681
30
0
41
1
10
220.096641616781
20
2.04669921051786
30
0
41
1
10
220.20549196136
20
1.36858400966651
30
0
41
1
10
220.259917133649
20
1.03227083791271
30
0
41
1
10
220.314342305939
20
0.70055642831133
30
0
0
SPLINE
5
FB
100
AcDbEntity
8
1
62
256
6
ByLayer
370
13
48
1
60
0
100
AcDbSpline
70
4
71
3
72
85
73
81
40
0
40
0
40
0
40
0
40
0.0312500000000033
40
0.0312500000000033
40
0.0351562500000039
40
0.0351562500000039
40
0.0390625000000044
40
0.046875000000005
40
0.046875000000005
40
0.0625000000000056
40
0.0625000000000056
40
0.0937500000000068
40
0.0937500000000068
40
0.125000000000008
40
0.125000000000008
40
0.156250000000009
40
0.156250000000009
40
0.18750000000001
40
0.18750000000001
40
0.218750000000012
40
0.218750000000012
40
0.250000000000013
40
0.250000000000013
40
0.281250000000014
40
0.281250000000014
40
0.312500000000015
40
0.312500000000015
40
0.343750000000017
40
0.343750000000017
40
0.351562500000017
40
0.351562500000017
40
0.359375000000017
40
0.359375000000017
40
0.375000000000017
40
0.375000000000017
40
0.406250000000019
40
0.406250000000019
40
0.43750000000002
40
0.43750000000002
40
0.468750000000021
40
0.468750000000021
40
0.500000000000023
40
0.500000000000023
40
0.531250000000024
40
0.531250000000024
40
0.562500000000025
40
0.562500000000025
40
0.593750000000027
40
0.593750000000027
40
0.625000000000028
40
0.625000000000028
40
0.656250000000029
40
0.656250000000029
40
0.67187500000003
40
0.67187500000003
40
0.67578125000003
40
0.67578125000003
40
0.67968750000003
40
0.67968750000003
40
0.687500000000029
40
0.687500000000029
40
0.718750000000026
40
0.718750000000026
40
0.750000000000023
40
0.750000000000023
40
0.78125000000002
40
0.78125000000002
40
0.812500000000017
40
0.812500000000017
40
0.843750000000015
40
0.843750000000015
40
0.875000000000012
40
0.875000000000012
40
0.906250000000009
40
0.906250000000009
40
0.937500000000006
40
0.937500000000006
40
0.968750000000003
40
0.968750000000003
40
1
40
1
40
1
40
1
41
1
10
209.4
20
1.75368479415388
30
0
41
1
10
209.488256226119
20
1.20347462084243
30
0
41
1
10
209.576512452238
20
0.660359495058913
30
0
41
1
10
209.675800706623
20
0.0658063373597884
30
0
41
1
10
209.686832734888
20
0.0001261050245205
30
0
41
1
10
209.708896791417
20
-0.131693009566476
30
0
41
1
10
209.741992876212
20
-0.330110238327961
30
0
41
1
10
209.775088961007
20
-0.530482598862477
30
0
41
1
10
209.841281130596
20
-0.93351327136071
30
0
41
1
10
209.885409243656
20
-1.20525724713377
30
0
41
1
10
210.017793582834
20
-2.02676290627662
30
0
41
1
10
210.106049808954
20
-2.58291635600122
30
0
41
1
10
210.282562261192
20
-3.69356519420305
30
0
41
1
10
210.370818487311
20
-4.24799853872673
30
0
41
1
10
210.54733093955
20
-5.33347128544622
30
0
41
1
10
210.635587165669
20
-5.86442173934074
30
0
41
1
10
210.812099617907
20
-6.88044198710148
30
0
41
1
10
210.900355844026
20
-7.36541491861536
30
0
41
1
10
211.076868296265
20
-8.26911371193211
30
0
41
1
10
211.165124522384
20
-8.68776013159854
30
0
41
1
10
211.341636974622
20
-9.44330395355806
30
0
41
1
10
211.429893200742
20
-9.78016046947658
30
0
41
1
10
211.60640565298
20
-10.3633643380053
30
0
41
1
10
211.694661879099
20
-10.6097170731177
30
0
41
1
10
211.871174331337
20
-11.0104421052314
30
0
41
1
10
211.959430557457
20
-11.1648582665414
30
0
41
1
10
212.135943009695
20
-11.3867458952413
30
0
41
1
10
212.224199235814
20
-11.4542820545963
30
0
41
1
10
212.334519518463
20
-11.4905123913244
30
0
41
1
10
212.356583574993
20
-11.4953578382964
30
0
41
1
10
212.400711688053
20
-11.500430564262
30
0
41
1
10
212.422775744583
20
-11.5006790054098
30
0
41
1
10
212.488967914172
20
-11.4946078469944
30
0
41
1
10
212.533096027231
20
-11.4813608092151
30
0
41
1
10
212.66548036641
20
-11.4118730625986
30
0
41
1
10
212.753736592529
20
-11.3257472682119
30
0
41
1
10
212.930249044768
20
-11.0650711654225
30
0
41
1
10
213.018505270887
20
-10.8904590787467
30
0
41
1
10
213.195017723125
20
-10.449046622905
30
0
41
1
10
213.283273949244
20
-10.1822096263254
30
0
41
1
10
213.459786401483
20
-9.55933042002815
30
0
41
1
10
213.548042627602
20
-9.20329293656997
30
0
41
1
10
213.724555079841
20
-8.41227638391095
30
0
41
1
10
213.81281130596
20
-7.97734800025813
30
0
41
1
10
213.989323758198
20
-7.0452656711916
30
0
41
1
10
214.077579984317
20
-6.54819718965413
30
0
41
1
10
214.254092436556
20
-5.51290258167447
30
0
41
1
10
214.342348662675
20
-4.97477367166465
30
0
41
1
10
214.518861114913
20
-3.87994155381188
30
0
41
1
10
214.607117341032
20
-3.3233225742884
30
0
41
1
10
214.783629793271
20
-2.21279533018557
30
0
41
1
10
214.87188601939
20
-1.65894174131987
30
0
41
1
10
215.004270358569
20
-0.843581699659893
30
0
41
1
10
215.048398471628
20
-0.574333244313038
30
0
41
1
10
215.103558612953
20
-0.242071943831121
30
0
41
1
10
215.114590641218
20
-0.175833929275569
30
0
41
1
10
215.136654697748
20
-0.0438116647210052
30
0
41
1
10
215.147686726012
20
0.0218341505297133
30
0
41
1
10
215.180782810807
20
0.219715641083695
30
0
41
1
10
215.202846867337
20
0.352550226241476
30
0
41
1
10
215.313167149986
20
1.0207765971769
30
0
41
1
10
215.401423376105
20
1.56850567787069
30
0
41
1
10
215.577935828344
20
2.67419329985316
30
0
41
1
10
215.666192054463
20
3.23211045898842
30
0
41
1
10
215.842704506701
20
4.33808855185103
30
0
41
1
10
215.93096073282
20
4.88607544519223
30
0
41
1
10
216.107473185059
20
5.94984745346605
30
0
41
1
10
216.195729411178
20
6.46553773843451
30
0
41
1
10
216.372241863416
20
7.4427028477339
30
0
41
1
10
216.460498089535
20
7.90408455141645
30
0
41
1
10
216.637010541774
20
8.75386467394259
30
0
41
1
10
216.725266767893
20
9.14219672520386
30
0
41
1
10
216.901779220131
20
9.8328419532142
30
0
41
1
10
216.99003544625
20
10.1351322219115
30
0
41
1
10
217.166547898489
20
10.6477817114319
30
0
41
1
10
217.254804124608
20
10.8581629347631
30
0
41
1
10
217.431316576847
20
11.1882093874892
30
0
41
1
10
217.519572802966
20
11.3079289311483
30
0
41
1
10
217.696085255204
20
11.4637904765655
30
0
41
1
10
217.784341481324
20
11.5
30
0
41
1
10
217.872597707443
20
11.5
30
0
0
SPLINE
5
FC
100
AcDbEntity
8
1
62
256
6
ByLayer
370
13
48
1
60
0
100
AcDbSpline
70
4
71
3
72
41
73
37
40
0
40
0
40
0
40
0
40
0.0624999999999996
40
0.0624999999999996
40
0.124999999999999
40
0.124999999999999
40
0.187499999999999
40
0.187499999999999
40
0.249999999999998
40
0.249999999999998
40
0.312499999999998
40
0.312499999999998
40
0.374999999999998
40
0.374999999999998
40
0.437499999999997
40
0.437499999999997
40
0.499999999999997
40
0.499999999999997
40
0.562499999999996
40
0.562499999999996
40
0.624999999999996
40
0.624999999999996
40
0.687499999999995
40
0.687499999999995
40
0.749999999999995
40
0.749999999999995
40
0.812499999999994
40
0.812499999999994
40
0.874999999999994
40
0.874999999999994
40
0.890624999999994
40
0.890624999999994
40
0.906249999999994
40
0.937499999999996
40
0.937499999999996
40
1
40
1
40
1
40
1
41
1
10
217.213585007199
20
11.5
30
0
41
1
10
217.27818411759
20
11.5
30
0
41
1
10
217.34278322798
20
11.4806320749466
30
0
41
1
10
217.471981448761
20
11.3986791450169
30
0
41
1
10
217.536580559152
20
11.3360797994599
30
0
41
1
10
217.665778779932
20
11.1641443963875
30
0
41
1
10
217.730377890323
20
11.0547948401544
30
0
41
1
10
217.859576111104
20
10.787252887888
30
0
41
1
10
217.924175221494
20
10.6290500193996
30
0
41
1
10
218.053373442275
20
10.263477122891
30
0
41
1
10
218.117972552665
20
10.0561018000804
30
0
41
1
10
218.247170773446
20
9.593886083868
30
0
41
1
10
218.311769883836
20
9.33904713660706
30
0
41
1
10
218.440968104617
20
8.7856956346653
30
0
41
1
10
218.505567215007
20
8.48719173326433
30
0
41
1
10
218.634765435788
20
7.8522402229828
30
0
41
1
10
218.699364546179
20
7.51580758653296
30
0
41
1
10
218.82856276696
20
6.81230776703455
30
0
41
1
10
218.89316187735
20
6.44525976337624
30
0
41
1
10
219.022360098131
20
5.68889612481357
30
0
41
1
10
219.086959208521
20
5.29960103930156
30
0
41
1
10
219.216157429302
20
4.50756054142099
30
0
41
1
10
219.280756539692
20
4.10483418025427
30
0
41
1
10
219.409954760473
20
3.29459393893205
30
0
41
1
10
219.474553870864
20
2.88709535136027
30
0
41
1
10
219.603752091644
20
2.07529580845357
30
0
41
1
10
219.668351202035
20
1.67100511782442
30
0
41
1
10
219.797549422816
20
0.872541563908783
30
0
41
1
10
219.862148533206
20
0.478373715639719
30
0
41
1
10
219.942897421194
20
-0.0044961465265487
30
0
41
1
10
219.959047198792
20
-0.10061241768642
30
0
41
1
10
219.991346753987
20
-0.294460014041931
30
0
41
1
10
220.03979608678
20
-0.586653614643865
30
0
41
1
10
220.088245419572
20
-0.882755132202846
30
0
41
1
10
220.185144085158
20
-1.47909340231163
30
0
41
1
10
220.249743195548
20
-1.88220405682372
30
0
41
1
10
220.314342305939
20
-2.28751322356507
30
0
0
SPLINE
5
FD
100
AcDbEntity
8
1
62
256
6
ByLayer
370
13
48
1
60
0
100
AcDbSpline
70
4
71
3
72
79
73
75
40
0
40
0
40
0
40
0
40
0.03125
40
0.03125
40
0.0624999999999999
40
0.0624999999999999
40
0.0937499999999999
40
0.0937499999999999
40
0.125
40
0.125
40
0.15625
40
0.15625
40
0.1875
40
0.1875
40
0.21875
40
0.21875
40
0.25
40
0.25
40
0.28125
40
0.28125
40
0.3125
40
0.3125
40
0.3203125
40
0.3203125
40
0.328124999999999
40
0.328124999999999
40
0.343749999999999
40
0.343749999999999
40
0.374999999999999
40
0.374999999999999
40
0.406249999999999
40
0.406249999999999
40
0.437499999999999
40
0.437499999999999
40
0.468749999999999
40
0.468749999999999
40
0.499999999999999
40
0.499999999999999
40
0.531249999999999
40
0.531249999999999
40
0.562499999999999
40
0.562499999999999
40
0.593749999999999
40
0.593749999999999
40
0.624999999999999
40
0.624999999999999
40
0.656249999999999
40
0.656249999999999
40
0.660156249999999
40
0.660156249999999
40
0.6640625
40
0.671874999999999
40
0.671874999999999
40
0.687499999999999
40
0.687499999999999
40
0.718749999999999
40
0.718749999999999
40
0.749999999999999
40
0.749999999999999
40
0.78125
40
0.78125
40
0.8125
40
0.8125
40
0.84375
40
0.84375
40
0.875
40
0.875
40
0.90625
40
0.90625
40
0.9375
40
0.9375
40
0.96875
40
0.96875
40
1
40
1
40
1
40
1
41
1
10
209.4
20
-1.22413470267463
30
0
41
1
10
209.483169257069
20
-1.73761308081129
30
0
41
1
10
209.566338514138
20
-2.25973648004967
30
0
41
1
10
209.732677028275
20
-3.3062950293567
30
0
41
1
10
209.815846285344
20
-3.83068930512883
30
0
41
1
10
209.982184799481
20
-4.86407273223827
30
0
41
1
10
210.06535405655
20
-5.37300007736013
30
0
41
1
10
210.231692570688
20
-6.35658731215827
30
0
41
1
10
210.314861827756
20
-6.83117506210431
30
0
41
1
10
210.481200341894
20
-7.72813299890535
30
0
41
1
10
210.564369598962
20
-8.15043682904823
30
0
41
1
10
210.7307081131
20
-8.92793212263783
30
0
41
1
10
210.813877370169
20
-9.28307901673529
30
0
41
1
10
210.980215884306
20
-9.91614350021425
30
0
41
1
10
211.063385141375
20
-10.194047894626
30
0
41
1
10
211.229723655512
20
-10.6681833719027
30
0
41
1
10
211.312892912581
20
-10.8644324129893
30
0
41
1
10
211.479231426719
20
-11.1764042944134
30
0
41
1
10
211.562400683788
20
-11.2921674823815
30
0
41
1
10
211.728739197925
20
-11.4489911243181
30
0
41
1
10
211.811908454994
20
-11.490101628378
30
0
41
1
10
211.91587002633
20
-11.500483982786
30
0
41
1
10
211.936662340597
20
-11.5005355847275
30
0
41
1
10
211.978246969131
20
-11.4965952475813
30
0
41
1
10
211.999039283399
20
-11.4925826369193
30
0
41
1
10
212.0614162262
20
-11.4741861450443
30
0
41
1
10
212.103000854734
20
-11.4534386081473
30
0
41
1
10
212.227754740338
20
-11.3640517283781
30
0
41
1
10
212.310923997406
20
-11.2681501625294
30
0
41
1
10
212.477262511544
20
-10.9970075486462
30
0
41
1
10
212.560431768612
20
-10.8217224201393
30
0
41
1
10
212.72677028275
20
-10.3893137827046
30
0
41
1
10
212.809939539819
20
-10.1321654856014
30
0
41
1
10
212.976278053956
20
-9.53893558692201
30
0
41
1
10
213.059447311025
20
-9.20285876940937
30
0
41
1
10
213.225785825162
20
-8.4604155821583
30
0
41
1
10
213.308955082231
20
-8.05408628010883
30
0
41
1
10
213.475293596369
20
-7.18489392951287
30
0
41
1
10
213.558462853438
20
-6.72209301762391
30
0
41
1
10
213.724801367575
20
-5.75729983402212
30
0
41
1
10
213.807970624644
20
-5.25537986762347
30
0
41
1
10
213.974309138781
20
-4.23119817173699
30
0
41
1
10
214.05747839585
20
-3.70900220090263
30
0
41
1
10
214.223816909988
20
-2.6624909923305
30
0
41
1
10
214.306986167056
20
-2.1382225791223
30
0
41
1
10
214.473324681194
20
-1.10343131660491
30
0
41
1
10
214.556493938262
20
-0.592931534520261
30
0
41
1
10
214.650059352465
20
-0.0333528212730698
30
0
41
1
10
214.660455509598
20
0.0285114355318967
30
0
41
1
10
214.681247823866
20
0.152841203515891
30
0
41
1
10
214.712436295266
20
0.339943231577791
30
0
41
1
10
214.743624766667
20
0.528774358903036
30
0
41
1
10
214.806001709469
20
0.908473405766188
30
0
41
1
10
214.847586338003
20
1.16432888566726
30
0
41
1
10
214.972340223606
20
1.93765396150246
30
0
41
1
10
215.055509480675
20
2.46097755062468
30
0
41
1
10
215.221847994812
20
3.50778918254301
30
0
41
1
10
215.305017251881
20
4.03123334530758
30
0
41
1
10
215.471355766019
20
5.06032173638548
30
0
41
1
10
215.554525023088
20
5.56590208566763
30
0
41
1
10
215.720863537225
20
6.54039589440973
30
0
41
1
10
215.804032794294
20
7.00923699163823
30
0
41
1
10
215.970371308431
20
7.8925781078955
30
0
41
1
10
216.0535405655
20
8.30701374823545
30
0
41
1
10
216.219879079638
20
9.06717985964971
30
0
41
1
10
216.303048336706
20
9.41286944087233
30
0
41
1
10
216.469386850844
20
10.0261243826514
30
0
41
1
10
216.552556107912
20
10.2936807672918
30
0
41
1
10
216.71889462205
20
10.7469669956669
30
0
41
1
10
216.802063879119
20
10.9327182948294
30
0
41
1
10
216.968402393256
20
11.2242065383807
30
0
41
1
10
217.051571650325
20
11.3299858055869
30
0
41
1
10
217.217910164462
20
11.4678573431412
30
0
41
1
10
217.301079421531
20
11.5
30
0
41
1
10
217.3842486786
20
11.5
30
0
0
SPLINE
5
FE
100
AcDbEntity
8
1
62
256
6
ByLayer
370
13
48
1
60
0
100
AcDbSpline
70
4
71
3
72
44
73
40
40
0
40
0
40
0
40
0
40
0.0625000000000025
40
0.0625000000000025
40
0.125000000000005
40
0.125000000000005
40
0.187500000000007
40
0.187500000000007
40
0.25000000000001
40
0.25000000000001
40
0.312500000000012
40
0.312500000000012
40
0.375000000000015
40
0.375000000000015
40
0.437500000000017
40
0.437500000000017
40
0.50000000000002
40
0.50000000000002
40
0.562500000000022
40
0.562500000000022
40
0.625000000000025
40
0.625000000000025
40
0.687500000000027
40
0.687500000000027
40
0.75000000000003
40
0.75000000000003
40
0.757812500000029
40
0.757812500000029
40
0.765625000000029
40
0.765625000000029
40
0.781250000000028
40
0.781250000000028
40
0.812500000000023
40
0.812500000000023
40
0.875000000000016
40
0.875000000000016
40
0.937500000000008
40
0.937500000000008
40
1
40
1
40
1
40
1
41
1
10
216.725235978357
20
11.5
30
0
41
1
10
216.800009026848
20
11.5
30
0
41
1
10
216.874782075339
20
11.4740351098421
30
0
41
1
10
217.024328172322
20
11.3633284665382
30
0
41
1
10
217.099101220813
20
11.2785569808486
30
0
41
1
10
217.248647317796
20
11.0452293593515
30
0
41
1
10
217.323420366287
20
10.8966467258317
30
0
41
1
10
217.47296646327
20
10.5334491316011
30
0
41
1
10
217.547739511761
20
10.3188170513914
30
0
41
1
10
217.697285608744
20
9.82471136222958
30
0
41
1
10
217.772058657235
20
9.54523535444372
30
0
41
1
10
217.921604754217
20
8.92638280138391
30
0
41
1
10
217.996377802709
20
8.58702109018242
30
0
41
1
10
218.145923899691
20
7.85690788706907
30
0
41
1
10
218.220696948183
20
7.46618680525123
30
0
41
1
10
218.370243045165
20
6.64474597691256
30
0
41
1
10
218.445016093656
20
6.21406655747458
30
0
41
1
10
218.594562190639
20
5.3258942117013
30
0
41
1
10
218.669335239131
20
4.86844362047307
30
0
41
1
10
218.818881336113
20
3.94043647724888
30
0
41
1
10
218.893654384604
20
3.46991664852573
30
0
41
1
10
219.043200481587
20
2.52878691316167
30
0
41
1
10
219.117973530078
20
2.0582029305173
30
0
41
1
10
219.267519627061
20
1.12831217676134
30
0
41
1
10
219.342292675552
20
0.669018694314587
30
0
41
1
10
219.426412355105
20
0.163790606837352
30
0
41
1
10
219.435758986166
20
0.107812015456801
30
0
41
1
10
219.454452248289
20
-0.0038143333207756
30
0
41
1
10
219.46379887935
20
-0.0594777175982131
30
0
41
1
10
219.491838772534
20
-0.227289470699901
30
0
41
1
10
219.510532034658
20
-0.339814650072782
30
0
41
1
10
219.566611821026
20
-0.679154596368079
30
0
41
1
10
219.603998345272
20
-0.907738465064938
30
0
41
1
10
219.716157918008
20
-1.59888974457752
30
0
41
1
10
219.7909309665
20
-2.06692366629684
30
0
41
1
10
219.940477063482
20
-3.00688863333761
30
0
41
1
10
220.015250111974
20
-3.4787978560415
30
0
41
1
10
220.164796208956
20
-4.41397252155508
30
0
41
1
10
220.239569257447
20
-4.87720436692214
30
0
41
1
10
220.314342305939
20
-5.32931927434018
30
0
0
SPLINE
5
FF
100
AcDbEntity
8
1
62
256
6
ByLayer
370
13
48
1
60
0
100
AcDbSpline
70
4
71
3
72
80
73
76
40
0
40
0
40
0
40
0
40
0.0312499999999992
40
0.0312499999999992
40
0.0624999999999984
40
0.0624999999999984
40
0.0937499999999976
40
0.0937499999999976
40
0.124999999999997
40
0.124999999999997
40
0.156249999999996
40
0.156249999999996
40
0.187499999999995
40
0.187499999999995
40
0.218749999999994
40
0.218749999999994
40
0.249999999999993
40
0.249999999999993
40
0.265624999999993
40
0.265624999999993
40
0.269531249999993
40
0.269531249999993
40
0.273437499999993
40
0.273437499999993
40
0.281249999999993
40
0.281249999999993
40
0.312499999999992
40
0.312499999999992
40
0.343749999999991
40
0.343749999999991
40
0.37499999999999
40
0.37499999999999
40
0.406249999999989
40
0.406249999999989
40
0.437499999999988
40
0.437499999999988
40
0.468749999999987
40
0.468749999999987
40
0.499999999999986
40
0.499999999999986
40
0.531249999999985
40
0.531249999999985
40
0.562499999999984
40
0.562499999999984
40
0.593749999999983
40
0.593749999999983
40
0.624999999999983
40
0.624999999999983
40
0.632812499999983
40
0.632812499999983
40
0.640624999999983
40
0.640624999999983
40
0.656249999999983
40
0.656249999999983
40
0.687499999999985
40
0.687499999999985
40
0.718749999999986
40
0.718749999999986
40
0.749999999999988
40
0.749999999999988
40
0.781249999999989
40
0.781249999999989
40
0.812499999999991
40
0.812499999999991
40
0.843749999999992
40
0.843749999999992
40
0.874999999999994
40
0.874999999999994
40
0.906249999999995
40
0.906249999999995
40
0.937499999999997
40
0.937499999999997
40
0.968749999999998
40
0.968749999999998
40
1
40
1
40
1
40
1
41
1
10
209.4
20
-4.2810730283467
30
0
41
1
10
209.478082288018
20
-4.7667703604954
30
0
41
1
10
209.556164576037
20
-5.24597444109543
30
0
41
1
10
209.712329152073
20
-6.17589767123056
30
0
41
1
10
209.790411440092
20
-6.62656441492709
30
0
41
1
10
209.946576016128
20
-7.48436012392858
30
0
41
1
10
210.024658304146
20
-7.89143905628347
30
0
41
1
10
210.180822880183
20
-8.64911948449938
30
0
41
1
10
210.258905168201
20
-8.99968398723905
30
0
41
1
10
210.415069744238
20
-9.63485451405182
30
0
41
1
10
210.493152032256
20
-9.91944401629925
30
0
41
1
10
210.649316608293
20
-10.4174690177468
30
0
41
1
10
210.727398896311
20
-10.6309101851116
30
0
41
1
10
210.883563472348
20
-10.985892069206
30
0
41
1
10
210.961645760366
20
-11.1274566200672
30
0
41
1
10
211.117810336403
20
-11.3419250587829
30
0
41
1
10
211.195892624421
20
-11.4148633496509
30
0
41
1
10
211.313016056449
20
-11.4775160453029
30
0
41
1
10
211.352057200458
20
-11.4906284643523
30
0
41
1
10
211.400858630469
20
-11.4979182020206
30
0
41
1
10
211.410618916471
20
-11.498921363861
30
0
41
1
10
211.430139488476
20
-11.5000344111941
30
0
41
1
10
211.439899774478
20
-11.5001457519653
30
0
41
1
10
211.469180632485
20
-11.4991534553546
30
0
41
1
10
211.48870120449
20
-11.4967135626006
30
0
41
1
10
211.586304064513
20
-11.4752980970521
30
0
41
1
10
211.664386352531
20
-11.4285962095481
30
0
41
1
10
211.820550928567
20
-11.2688637046042
30
0
41
1
10
211.898633216586
20
-11.1557967859373
30
0
41
1
10
212.054797792622
20
-10.8587012289161
30
0
41
1
10
212.132880080641
20
-10.6746434428476
30
0
41
1
10
212.289044656677
20
-10.2345747121636
30
0
41
1
10
212.367126944696
20
-9.97854995867596
30
0
41
1
10
212.523291520732
20
-9.39787275447475
30
0
41
1
10
212.601373808751
20
-9.073227656325
30
0
41
1
10
212.757538384787
20
-8.36306772908975
30
0
41
1
10
212.835620672805
20
-7.97758217345691
30
0
41
1
10
212.991785248842
20
-7.15737947741587
30
0
41
1
10
213.06986753686
20
-6.72270824983673
30
0
41
1
10
213.226032112897
20
-5.8184986627387
30
0
41
1
10
213.304114400915
20
-5.34901308514335
30
0
41
1
10
213.460278976952
20
-4.3907443254364
30
0
41
1
10
213.53836126497
20
-3.90200996302246
30
0
41
1
10
213.694525841007
20
-2.92045296549236
30
0
41
1
10
213.772608129025
20
-2.42766684520569
30
0
41
1
10
213.928772705062
20
-1.45154668175809
30
0
41
1
10
214.00685499308
20
-0.968233019979323
30
0
41
1
10
214.104457853103
20
-0.376878210222486
30
0
41
1
10
214.123978425108
20
-0.259239788887214
30
0
41
1
10
214.163019569117
20
-0.0253715785865154
30
0
41
1
10
214.182540141121
20
0.090667708285423
30
0
41
1
10
214.241101857135
20
0.442251086899745
30
0
41
1
10
214.280143001144
20
0.679411064825871
30
0
41
1
10
214.397266433172
20
1.39738813462335
30
0
41
1
10
214.47534872119
20
1.88478423318117
30
0
41
1
10
214.631513297226
20
2.86529695912876
30
0
41
1
10
214.709595585245
20
3.35838830445829
30
0
41
1
10
214.865760161281
20
4.3361747409389
30
0
41
1
10
214.9438424493
20
4.8208290470883
30
0
41
1
10
215.100007025336
20
5.76629275337081
30
0
41
1
10
215.178089313354
20
6.22705111871505
30
0
41
1
10
215.334253889391
20
7.1093449245536
30
0
41
1
10
215.412336177409
20
7.53082846378749
30
0
41
1
10
215.568500753446
20
8.32084886826306
30
0
41
1
10
215.646583041465
20
8.68934388506955
30
0
41
1
10
215.802747617501
20
9.36276616601259
30
0
41
1
10
215.880829905519
20
9.6676703741438
30
0
41
1
10
216.036994481556
20
10.207396275773
30
0
41
1
10
216.115076769574
20
10.4422172416783
30
0
41
1
10
216.271241345611
20
10.8397328759116
30
0
41
1
10
216.349323633629
20
11.0024466774227
30
0
41
1
10
216.505488209666
20
11.257884243627
30
0
41
1
10
216.583570497684
20
11.3506401583729
30
0
41
1
10
216.739735073721
20
11.4716796040123
30
0
41
1
10
216.817817361739
20
11.5
30
0
41
1
10
216.895899649757
20
11.5
30
0
0
SPLINE
5
100
100
AcDbEntity
8
1
62
256
6
ByLayer
370
13
48
1
60
0
100
AcDbSpline
70
4
71
3
72
44
73
40
40
0
40
0
40
0
40
0
40
0.0625000000000007
40
0.0625000000000007
40
0.125000000000001
40
0.125000000000001
40
0.187500000000002
40
0.187500000000002
40
0.250000000000003
40
0.250000000000003
40
0.312500000000004
40
0.312500000000004
40
0.375000000000004
40
0.375000000000004
40
0.437500000000005
40
0.437500000000005
40
0.500000000000006
40
0.500000000000006
40
0.562500000000006
40
0.562500000000006
40
0.625000000000007
40
0.625000000000007
40
0.656250000000007
40
0.656250000000007
40
0.664062500000007
40
0.664062500000007
40
0.671875000000008
40
0.671875000000008
40
0.687500000000008
40
0.687500000000008
40
0.750000000000006
40
0.750000000000006
40
0.812500000000005
40
0.812500000000005
40
0.875000000000003
40
0.875000000000003
40
0.937500000000002
40
0.937500000000002
40
1
40
1
40
1
40
1
41
1
10
216.236886949514
20
11.5
30
0
41
1
10
216.321833936106
20
11.5
30
0
41
1
10
216.406780922699
20
11.4664639465492
30
0
41
1
10
216.576674895883
20
11.3224375972361
30
0
41
1
10
216.661621882475
20
11.211891368602
30
0
41
1
10
216.831515855659
20
10.9072136360186
30
0
41
1
10
216.916462842251
20
10.7130358237703
30
0
41
1
10
217.086356815436
20
10.2394083485131
30
0
41
1
10
217.171303802028
20
9.95993678058525
30
0
41
1
10
217.341197775212
20
9.32005927899891
30
0
41
1
10
217.426144761805
20
8.95966644874045
30
0
41
1
10
217.596038734989
20
8.16847373386599
30
0
41
1
10
217.680985721581
20
7.73772269797456
30
0
41
1
10
217.850879694765
20
6.82159271979808
30
0
41
1
10
217.935826681358
20
6.33628749773592
30
0
41
1
10
218.105720654542
20
5.33018913403876
30
0
41
1
10
218.190667641134
20
4.8094760698653
30
0
41
1
10
218.360561614318
20
3.75268017044346
30
0
41
1
10
218.445508600911
20
3.21666519881077
30
0
41
1
10
218.615402574095
20
2.1480743453771
30
0
41
1
10
218.700349560687
20
1.61554220195421
30
0
41
1
10
218.827770040576
20
0.831163989019728
30
0
41
1
10
218.870243533872
20
0.572080331643036
30
0
41
1
10
218.923335400492
20
0.252198423388421
30
0
41
1
10
218.933953773816
20
0.188420058602731
30
0
41
1
10
218.955190520464
20
0.0612819578762185
30
0
41
1
10
218.965808893788
20
-0.0019336572336215
30
0
41
1
10
218.99766401376
20
-0.192245564621373
30
0
41
1
10
219.018900760408
20
-0.319971626137544
30
0
41
1
10
219.125084493648
20
-0.962403566828556
30
0
41
1
10
219.210031480241
20
-1.48866710897255
30
0
41
1
10
219.379925453425
20
-2.55167209607802
30
0
41
1
10
219.464872440017
20
-3.08838109143832
30
0
41
1
10
219.634766413202
20
-4.15460786210284
30
0
41
1
10
219.719713399794
20
-4.68406683913932
30
0
41
1
10
219.889607372978
20
-5.71600087426737
30
0
41
1
10
219.97455435957
20
-6.2183989246472
30
0
41
1
10
220.144448332755
20
-7.17637295177957
30
0
41
1
10
220.229395319347
20
-7.6318701425067
30
0
41
1
10
220.314342305939
20
-8.05521801669769
30
0
0
SPLINE
5
101
100
AcDbEntity
8
1
62
256
6
ByLayer
370
13
48
1
60
0
100
AcDbSpline
70
4
71
3
72
80
73
76
40
0
40
0
40
0
40
0
40
0.0312500000000002
40
0.0312500000000002
40
0.0625000000000004
40
0.0625000000000004
40
0.0937500000000007
40
0.0937500000000007
40
0.125000000000001
40
0.125000000000001
40
0.156250000000001
40
0.156250000000001
40
0.187500000000001
40
0.187500000000001
40
0.218750000000002
40
0.218750000000002
40
0.222656250000001
40
0.222656250000001
40
0.226562500000001
40
0.234375
40
0.234375
40
0.249999999999999
40
0.249999999999999
40
0.281249999999997
40
0.281249999999997
40
0.312499999999995
40
0.312499999999995
40
0.343749999999992
40
0.343749999999992
40
0.37499999999999
40
0.37499999999999
40
0.406249999999988
40
0.406249999999988
40
0.437499999999986
40
0.437499999999986
40
0.468749999999983
40
0.468749999999983
40
0.499999999999981
40
0.499999999999981
40
0.531249999999979
40
0.531249999999979
40
0.562499999999977
40
0.562499999999977
40
0.593749999999974
40
0.593749999999974
40
0.609374999999973
40
0.609374999999973
40
0.613281249999973
40
0.613281249999973
40
0.617187499999973
40
0.624999999999973
40
0.624999999999973
40
0.656249999999976
40
0.656249999999976
40
0.687499999999978
40
0.687499999999978
40
0.71874999999998
40
0.71874999999998
40
0.749999999999982
40
0.749999999999982
40
0.781249999999985
40
0.781249999999985
40
0.812499999999987
40
0.812499999999987
40
0.843749999999989
40
0.843749999999989
40
0.874999999999991
40
0.874999999999991
40
0.906249999999993
40
0.906249999999993
40
0.937499999999996
40
0.937499999999996
40
0.968749999999998
40
0.968749999999998
40
1
40
1
40
1
40
1
41
1
10
209.4
20
-7.16405321954022
30
0
41
1
10
209.472995318968
20
-7.56152163847693
30
0
41
1
10
209.545990637936
20
-7.93941171142052
30
0
41
1
10
209.691981275872
20
-8.64566407595814
30
0
41
1
10
209.764976594839
20
-8.97400016825577
30
0
41
1
10
209.910967232775
20
-9.5733626879925
30
0
41
1
10
209.983962551743
20
-9.84437658374469
30
0
41
1
10
210.129953189679
20
-10.3245686523532
30
0
41
1
10
210.202948508647
20
-10.5337492100907
30
0
41
1
10
210.348939146582
20
-10.8891579510617
30
0
41
1
10
210.42193446555
20
-11.0354012518617
30
0
41
1
10
210.567925103486
20
-11.2669543163737
30
0
41
1
10
210.640920422454
20
-11.3522874152705
30
0
41
1
10
210.786911060389
20
-11.4665786051337
30
0
41
1
10
210.859906379357
20
-11.4955630440738
30
0
41
1
10
210.942026113196
20
-11.5000218131561
30
0
41
1
10
210.951150528067
20
-11.5001282454426
30
0
41
1
10
210.969399357809
20
-11.4995686124838
30
0
41
1
10
210.996772602422
20
-11.4975644720898
30
0
41
1
10
211.024145847035
20
-11.4920054634102
30
0
41
1
10
211.078892336261
20
-11.475991543039
30
0
41
1
10
211.115389995745
20
-11.4587848308072
30
0
41
1
10
211.224882974197
20
-11.3864159597061
30
0
41
1
10
211.297878293165
20
-11.310438884229
30
0
41
1
10
211.4438689311
20
-11.098175475246
30
0
41
1
10
211.516864250068
20
-10.9618649815316
30
0
41
1
10
211.662854888004
20
-10.6264494466868
30
0
41
1
10
211.735850206972
20
-10.4273276353596
30
0
41
1
10
211.881840844907
20
-9.96685301660511
30
0
41
1
10
211.954836163875
20
-9.70549556706894
30
0
41
1
10
212.100826801811
20
-9.12450043300024
30
0
41
1
10
212.173822120779
20
-8.80487288771067
30
0
41
1
10
212.319812758715
20
-8.11460058135941
30
0
41
1
10
212.392808077682
20
-7.74398007003126
30
0
41
1
10
212.538798715618
20
-6.9617751058704
30
0
41
1
10
212.611794034586
20
-6.55022488306824
30
0
41
1
10
212.757784672521
20
-5.69810776670775
30
0
41
1
10
212.830779991489
20
-5.25757866243683
30
0
41
1
10
212.976770629425
20
-4.36023846991006
30
0
41
1
10
213.049765948393
20
-3.90346200457634
30
0
41
1
10
213.195756586329
20
-2.9860375572984
30
0
41
1
10
213.268751905297
20
-2.52541590831095
30
0
41
1
10
213.414742543232
20
-1.6114552625003
30
0
41
1
10
213.4877378622
20
-1.15813185184891
30
0
41
1
10
213.597230840652
20
-0.490555355796175
30
0
41
1
10
213.633728500136
20
-0.270081790858143
30
0
41
1
10
213.679350574491
20
0.0023506102021997
30
0
41
1
10
213.688474989362
20
0.0566886733176943
30
0
41
1
10
213.706723819104
20
0.165887737481142
30
0
41
1
10
213.734097063717
20
0.330151588040195
30
0
41
1
10
213.76147030833
20
0.495748037595774
30
0
41
1
10
213.852714457039
20
1.05039642811934
30
0
41
1
10
213.925709776007
20
1.5027107413355
30
0
41
1
10
214.071700413943
20
2.41546625979217
30
0
41
1
10
214.144695732911
20
2.87589275900575
30
0
41
1
10
214.290686370847
20
3.7938721451265
30
0
41
1
10
214.363681689815
20
4.25139950443804
30
0
41
1
10
214.50967232775
20
5.15125676150993
30
0
41
1
10
214.582667646718
20
5.59355254122354
30
0
41
1
10
214.728658284654
20
6.45020565385622
30
0
41
1
10
214.801653603622
20
6.8645252137857
30
0
41
1
10
214.947644241557
20
7.6531677319627
30
0
41
1
10
215.020639560525
20
8.02745592266555
30
0
41
1
10
215.166630198461
20
8.72577528694566
30
0
41
1
10
215.239625517429
20
9.04978122173151
30
0
41
1
10
215.385616155365
20
9.63999769703673
30
0
41
1
10
215.458611474333
20
9.90619689904838
30
0
41
1
10
215.604602112268
20
10.3765463505284
30
0
41
1
10
215.677597431236
20
10.5807001215432
30
0
41
1
10
215.823588069172
20
10.9261074821253
30
0
41
1
10
215.89658338814
20
11.0673770307905
30
0
41
1
10
216.042574026075
20
11.2892626218102
30
0
41
1
10
216.115569345043
20
11.3699024287784
30
0
41
1
10
216.261559982979
20
11.4752579282996
30
0
41
1
10
216.334555301947
20
11.5
30
0
41
1
10
216.407550620915
20
11.5
30
0
0
SPLINE
5
102
100
AcDbEntity
8
1
62
256
6
ByLayer
370
13
48
1
60
0
100
AcDbSpline
70
4
71
3
72
43
73
39
40
0
40
0
40
0
40
0
40
0.0625000000000039
40
0.0625000000000039
40
0.125000000000008
40
0.125000000000008
40
0.187500000000011
40
0.187500000000011
40
0.250000000000015
40
0.250000000000015
40
0.312500000000019
40
0.312500000000019
40
0.375000000000023
40
0.375000000000023
40
0.437500000000027
40
0.437500000000027
40
0.500000000000031
40
0.500000000000031
40
0.562500000000035
40
0.562500000000035
40
0.593750000000036
40
0.593750000000036
40
0.601562500000036
40
0.601562500000036
40
0.609375000000036
40
0.625000000000035
40
0.625000000000035
40
0.687500000000029
40
0.687500000000029
40
0.750000000000023
40
0.750000000000023
40
0.812500000000017
40
0.812500000000017
40
0.875000000000012
40
0.875000000000012
40
0.937500000000006
40
0.937500000000006
40
1
40
1
40
1
40
1
41
1
10
215.748537920672
20
11.5
30
0
41
1
10
215.843658845365
20
11.5
30
0
41
1
10
215.938779770058
20
11.457913299908
30
0
41
1
10
216.129021619444
20
11.2759226745104
30
0
41
1
10
216.224142544137
20
11.1359212538322
30
0
41
1
10
216.414384393523
20
10.74985991639
30
0
41
1
10
216.509505318216
20
10.5037267967883
30
0
41
1
10
216.699747167602
20
9.90543135263812
30
0
41
1
10
216.794868092295
20
9.55325136513892
30
0
41
1
10
216.985109941681
20
8.75263966269191
30
0
41
1
10
217.080230866374
20
8.30426219843602
30
0
41
1
10
217.270472715761
20
7.33027271845867
30
0
41
1
10
217.365593640454
20
6.80477598891426
30
0
41
1
10
217.55583548984
20
5.70219118169192
30
0
41
1
10
217.650956414533
20
5.12524407109308
30
0
41
1
10
217.841198263919
20
3.94803050299234
30
0
41
1
10
217.936319188612
20
3.34788853451502
30
0
41
1
10
218.126561037998
20
2.15104532577033
30
0
41
1
10
218.221681962691
20
1.55442300963171
30
0
41
1
10
218.364363349731
20
0.678647642364268
30
0
41
1
10
218.411923812077
20
0.389871962545641
30
0
41
1
10
218.471374390011
20
0.0341995417419412
30
0
41
1
10
218.483264505597
20
-0.0365384531748987
30
0
41
1
10
218.50704473677
20
-0.178819011776739
30
0
41
1
10
218.542715083531
20
-0.393030601568256
30
0
41
1
10
218.57838543029
20
-0.609474601014313
30
0
41
1
10
218.697286586157
20
-1.33523533628249
30
0
41
1
10
218.79240751085
20
-1.92977289897828
30
0
41
1
10
218.982649360236
20
-3.12546610106327
30
0
41
1
10
219.077770284929
20
-3.7265493816933
30
0
41
1
10
219.268012134315
20
-4.90910369810834
30
0
41
1
10
219.363133059008
20
-5.49045472461336
30
0
41
1
10
219.553374908394
20
-6.60528842582448
30
0
41
1
10
219.648495833087
20
-7.13862998804842
30
0
41
1
10
219.838737682473
20
-8.13120368120016
30
0
41
1
10
219.933858607166
20
-8.59031508913753
30
0
41
1
10
220.124100456553
20
-9.41429699283566
30
0
41
1
10
220.219221381246
20
-9.77910450579139
30
0
41
1
10
220.314342305939
20
-10.0912232280332
30
0
0
SPLINE
5
103
100
AcDbEntity
8
1
62
256
6
ByLayer
370
13
48
1
60
0
100
AcDbSpline
70
4
71
3
72
77
73
73
40
0
40
0
40
0
40
0
40
0.0312500000000028
40
0.0312500000000028
40
0.0625000000000057
40
0.0625000000000057
40
0.0937500000000084
40
0.0937500000000084
40
0.125000000000011
40
0.125000000000011
40
0.156250000000014
40
0.156250000000014
40
0.164062500000014
40
0.164062500000014
40
0.171875000000015
40
0.187500000000015
40
0.187500000000015
40
0.218750000000014
40
0.218750000000014
40
0.250000000000013
40
0.250000000000013
40
0.281250000000013
40
0.281250000000013
40
0.312500000000012
40
0.312500000000012
40
0.343750000000011
40
0.343750000000011
40
0.375000000000011
40
0.375000000000011
40
0.40625000000001
40
0.40625000000001
40
0.43750000000001
40
0.43750000000001
40
0.468750000000009
40
0.468750000000009
40
0.500000000000008
40
0.500000000000008
40
0.531250000000008
40
0.531250000000008
40
0.562500000000007
40
0.562500000000007
40
0.578125000000007
40
0.578125000000007
40
0.585937500000007
40
0.585937500000007
40
0.593750000000007
40
0.593750000000007
40
0.625000000000007
40
0.625000000000007
40
0.656250000000006
40
0.656250000000006
40
0.687500000000005
40
0.687500000000005
40
0.718750000000005
40
0.718750000000005
40
0.750000000000004
40
0.750000000000004
40
0.781250000000003
40
0.781250000000003
40
0.812500000000003
40
0.812500000000003
40
0.843750000000002
40
0.843750000000002
40
0.875000000000002
40
0.875000000000002
40
0.906250000000001
40
0.906250000000001
40
0.937500000000001
40
0.937500000000001
40
0.96875
40
0.96875
40
1
40
1
40
1
40
1
41
1
10
209.4
20
-9.475938419812
30
0
41
1
10
209.467908349917
20
-9.74237893666395
30
0
41
1
10
209.535816699835
20
-9.98344702988427
30
0
41
1
10
209.67163339967
20
-10.4117470641737
30
0
41
1
10
209.739541749587
20
-10.5989822596376
30
0
41
1
10
209.875358449422
20
-10.9190534637929
30
0
41
1
10
209.943266799339
20
-11.0519006932333
30
0
41
1
10
210.079083499174
20
-11.2649489162397
30
0
41
1
10
210.146991849092
20
-11.3451662757746
30
0
41
1
10
210.282808548927
20
-11.4565981772201
30
0
41
1
10
210.350716898844
20
-11.4878310771922
30
0
41
1
10
210.435602336241
20
-11.4993709552548
30
0
41
1
10
210.45257942372
20
-11.5003080393158
30
0
41
1
10
210.486533598679
20
-11.4995166978784
30
0
41
1
10
210.537464861117
20
-11.4943041749253
30
0
41
1
10
210.588396123555
20
-11.4766223799904
30
0
41
1
10
210.690258648431
20
-11.4236657620121
30
0
41
1
10
210.758166998348
20
-11.3648586583635
30
0
41
1
10
210.893983698183
20
-11.1959843604473
30
0
41
1
10
210.961892048101
20
-11.0858995760991
30
0
41
1
10
211.097708747936
20
-10.8118433277316
30
0
41
1
10
211.165617097853
20
-10.6478580662381
30
0
41
1
10
211.301433797688
20
-10.2655221555524
30
0
41
1
10
211.369342147605
20
-10.0471645705607
30
0
41
1
10
211.50515884744
20
-9.55807575750742
30
0
41
1
10
211.573067197357
20
-9.28734668601336
30
0
41
1
10
211.708883897192
20
-8.69805621060129
30
0
41
1
10
211.77679224711
20
-8.37950665320994
30
0
41
1
10
211.912608946944
20
-7.70145647208741
30
0
41
1
10
211.980517296862
20
-7.34197596838348
30
0
41
1
10
212.116333996697
20
-6.59079814513782
30
0
41
1
10
212.184242346614
20
-6.19912604441933
30
0
41
1
10
212.320059046449
20
-5.39345844025607
30
0
41
1
10
212.387967396366
20
-4.97948915874233
30
0
41
1
10
212.523784096201
20
-4.13949183942952
30
0
41
1
10
212.591692446119
20
-3.71348710196813
30
0
41
1
10
212.727509145953
20
-2.85929729117092
30
0
41
1
10
212.795417495871
20
-2.4311297654568
30
0
41
1
10
212.931234195706
20
-1.58148415925316
30
0
41
1
10
212.999142545623
20
-1.16001658970484
30
0
41
1
10
213.101005070499
20
-0.538409883490488
30
0
41
1
10
213.134959245458
20
-0.332961289962327
30
0
41
1
10
213.185890507896
20
-0.0280004108864205
30
0
41
1
10
213.202867595375
20
0.0729421871883176
30
0
41
1
10
213.236821770334
20
0.276563241899026
30
0
41
1
10
213.253798857814
20
0.378901576157261
30
0
41
1
10
213.33868429521
20
0.892995690040038
30
0
41
1
10
213.406592645128
20
1.31202175583215
30
0
41
1
10
213.542409344962
20
2.15849623366191
30
0
41
1
10
213.61031769488
20
2.58593565244348
30
0
41
1
10
213.746134394715
20
3.44065832182724
30
0
41
1
10
213.814042744632
20
3.86792547069302
30
0
41
1
10
213.949859444467
20
4.71260630368872
30
0
41
1
10
214.017767794384
20
5.12999772508658
30
0
41
1
10
214.153584494219
20
5.94469175307219
30
0
41
1
10
214.221492844136
20
6.3419684568106
30
0
41
1
10
214.357309543971
20
7.10639344569191
30
0
41
1
10
214.425217893889
20
7.47351594405734
30
0
41
1
10
214.561034593724
20
8.16857952148317
30
0
41
1
10
214.628942943641
20
8.49649908111672
30
0
41
1
10
214.764759643476
20
9.10581601047184
30
0
41
1
10
214.832667993393
20
9.38719958419046
30
0
41
1
10
214.968484693228
20
9.89835800514274
30
0
41
1
10
215.036393043146
20
10.1281286149772
30
0
41
1
10
215.17220974298
20
10.5335045946376
30
0
41
1
10
215.240118092898
20
10.7091151050182
30
0
41
1
10
215.375934792733
20
11.0061282408553
30
0
41
1
10
215.44384314265
20
11.1275434443883
30
0
41
1
10
215.579659842485
20
11.31836248241
30
0
41
1
10
215.647568192402
20
11.3877833669746
30
0
41
1
10
215.783384892237
20
11.4785929234755
30
0
41
1
10
215.851293242155
20
11.5
30
0
41
1
10
215.919201592072
20
11.5
30
0
0
SPLINE
5
104
100
AcDbEntity
8
1
62
256
6
ByLayer
370
13
48
1
60
0
100
AcDbSpline
70
4
71
3
72
68
73
64
40
0
40
0
40
0
40
0
40
0.0625000000000035
40
0.0625000000000035
40
0.0937500000000052
40
0.0937500000000052
40
0.125000000000007
40
0.125000000000007
40
0.156250000000009
40
0.156250000000009
40
0.18750000000001
40
0.18750000000001
40
0.218750000000012
40
0.218750000000012
40
0.250000000000014
40
0.250000000000014
40
0.281250000000015
40
0.281250000000015
40
0.312500000000017
40
0.312500000000017
40
0.343750000000019
40
0.343750000000019
40
0.375000000000021
40
0.375000000000021
40
0.406250000000023
40
0.406250000000023
40
0.437500000000025
40
0.437500000000025
40
0.500000000000029
40
0.500000000000029
40
0.531250000000031
40
0.531250000000031
40
0.539062500000031
40
0.539062500000031
40
0.546875000000031
40
0.546875000000031
40
0.56250000000003
40
0.56250000000003
40
0.625000000000026
40
0.625000000000026
40
0.656250000000024
40
0.656250000000024
40
0.687500000000022
40
0.687500000000022
40
0.718750000000019
40
0.718750000000019
40
0.750000000000017
40
0.750000000000017
40
0.781250000000015
40
0.781250000000015
40
0.812500000000013
40
0.812500000000013
40
0.843750000000011
40
0.843750000000011
40
0.875000000000009
40
0.875000000000009
40
0.906250000000006
40
0.906250000000006
40
0.937500000000004
40
0.937500000000004
40
0.968750000000002
40
0.968750000000002
40
1
40
1
40
1
40
1
41
1
10
215.260188891829
20
11.5
30
0
41
1
10
215.365483754623
20
11.5
30
0
41
1
10
215.470778617417
20
11.4483768429142
30
0
41
1
10
215.628720911608
20
11.2798729869687
30
0
41
1
10
215.681368343005
20
11.2085732908052
30
0
41
1
10
215.786663205799
20
11.0342024056781
30
0
41
1
10
215.839310637196
20
10.931126733764
30
0
41
1
10
215.94460549999
20
10.692386953824
30
0
41
1
10
215.997252931387
20
10.5567194827559
30
0
41
1
10
216.102547794181
20
10.2528001486309
30
0
41
1
10
216.155195225578
20
10.0845465390405
30
0
41
1
10
216.260490088372
20
9.71635845794148
30
0
41
1
10
216.313137519768
20
9.51642421933781
30
0
41
1
10
216.418432382562
20
9.08670184408012
30
0
41
1
10
216.471079813959
20
8.85691606770632
30
0
41
1
10
216.576374676753
20
8.37020245332886
30
0
41
1
10
216.62902210815
20
8.11327898750537
30
0
41
1
10
216.734316970944
20
7.57578499942895
30
0
41
1
10
216.786964402341
20
7.29522048349446
30
0
41
1
10
216.892259265135
20
6.71456517871493
30
0
41
1
10
216.944906696532
20
6.41448144473938
30
0
41
1
10
217.050201559326
20
5.7993358997995
30
0
41
1
10
217.102848990723
20
5.48428149503374
30
0
41
1
10
217.208143853517
20
4.84395052288352
30
0
41
1
10
217.260791284914
20
4.51868101846372
30
0
41
1
10
217.366086147708
20
3.86266378408033
30
0
41
1
10
217.418733579105
20
3.53192218671254
30
0
41
1
10
217.576675873296
20
2.53827786843678
30
0
41
1
10
217.68197073609
20
1.87421940317498
30
0
41
1
10
217.839913030281
20
0.899099933126848
30
0
41
1
10
217.892560461678
20
0.577493760948215
30
0
41
1
10
217.958369750924
20
0.18170236751584
30
0
41
1
10
217.971531608773
20
0.102853452131171
30
0
41
1
10
217.997855324472
20
-0.0541833974476162
30
0
41
1
10
218.011017182321
20
-0.132782916470006
30
0
41
1
10
218.050502755869
20
-0.369871412978228
30
0
41
1
10
218.076826471567
20
-0.529186892686653
30
0
41
1
10
218.20844505006
20
-1.33114070827895
30
0
41
1
10
218.313739912854
20
-1.99025363211703
30
0
41
1
10
218.471682207044
20
-2.98355342326579
30
0
41
1
10
218.524329638441
20
-3.31535390540768
30
0
41
1
10
218.629624501236
20
-3.97602538247108
30
0
41
1
10
218.682271932632
20
-4.30489094550754
30
0
41
1
10
218.787566795427
20
-4.95504519365858
30
0
41
1
10
218.840214226823
20
-5.27632726679181
30
0
41
1
10
218.945509089617
20
-5.90654027387083
30
0
41
1
10
218.998156521014
20
-6.21546390981814
30
0
41
1
10
219.103451383808
20
-6.81626967423395
30
0
41
1
10
219.156098815205
20
-7.10814446529696
30
0
41
1
10
219.261393677999
20
-7.67046823491322
30
0
41
1
10
219.314041109396
20
-7.94091054655399
30
0
41
1
10
219.41933597219
20
-8.45650396397428
30
0
41
1
10
219.471983403587
20
-8.70164973420151
30
0
41
1
10
219.577278266381
20
-9.16348610334146
30
0
41
1
10
219.629925697778
20
-9.38017320032182
30
0
41
1
10
219.735220560572
20
-9.78276401182058
30
0
41
1
10
219.787867991969
20
-9.96866632184603
30
0
41
1
10
219.893162854763
20
-10.3082694768269
30
0
41
1
10
219.94581028616
20
-10.4619710090327
30
0
41
1
10
220.051105148954
20
-10.7366751351955
30
0
41
1
10
220.103752580351
20
-10.8576802553784
30
0
41
1
10
220.209047443145
20
-11.0673652942209
30
0
41
1
10
220.261694874542
20
-11.1560491440161
30
0
41
1
10
220.314342305939
20
-11.2291435221176
30
0
0
SPLINE
5
105
100
AcDbEntity
8
1
62
256
6
ByLayer
370
13
48
1
60
0
100
AcDbSpline
70
4
71
3
72
77
73
73
40
0
40
0
40
0
40
0
40
0.0312500000000005
40
0.0312500000000005
40
0.062500000000001
40
0.062500000000001
40
0.0937500000000015
40
0.0937500000000015
40
0.101562500000002
40
0.101562500000002
40
0.109375000000002
40
0.125000000000003
40
0.125000000000003
40
0.156250000000003
40
0.156250000000003
40
0.187500000000002
40
0.187500000000002
40
0.218750000000002
40
0.218750000000002
40
0.250000000000002
40
0.250000000000002
40
0.281250000000002
40
0.281250000000002
40
0.312500000000002
40
0.312500000000002
40
0.343750000000001
40
0.343750000000001
40
0.375000000000001
40
0.375000000000001
40
0.406250000000001
40
0.406250000000001
40
0.437500000000001
40
0.437500000000001
40
0.468750000000001
40
0.468750000000001
40
0.500000000000001
40
0.500000000000001
40
0.53125
40
0.53125
40
0.546875
40
0.546875
40
0.554687500000001
40
0.554687500000001
40
0.562500000000001
40
0.562500000000001
40
0.593750000000001
40
0.593750000000001
40
0.625000000000001
40
0.625000000000001
40
0.656250000000001
40
0.656250000000001
40
0.687500000000001
40
0.687500000000001
40
0.718750000000001
40
0.718750000000001
40
0.750000000000001
40
0.750000000000001
40
0.781250000000001
40
0.781250000000001
40
0.812500000000001
40
0.812500000000001
40
0.84375
40
0.84375
40
0.875
40
0.875
40
0.90625
40
0.90625
40
0.9375
40
0.9375
40
0.96875
40
0.96875
40
1
40
1
40
1
40
1
41
1
10
209.4
20
-10.9368752254407
30
0
41
1
10
209.462821380867
20
-11.0650813577685
30
0
41
1
10
209.525642761734
20
-11.1702195725339
30
0
41
1
10
209.651285523468
20
-11.3363111905392
30
0
41
1
10
209.714106904335
20
-11.3972763596616
30
0
41
1
10
209.839749666069
20
-11.478254899225
30
0
41
1
10
209.902571046936
20
-11.4982807485851
30
0
41
1
10
209.98109777302
20
-11.5002969185676
30
0
41
1
10
209.996803118236
20
-11.4995592868154
30
0
41
1
10
210.02821380867
20
-11.4957449642598
30
0
41
1
10
210.07532984432
20
-11.4865103136303
30
0
41
1
10
210.12244587997
20
-11.4664318875459
30
0
41
1
10
210.216677951271
20
-11.4110682389652
30
0
41
1
10
210.279499332138
20
-11.3538495498794
30
0
41
1
10
210.405142093872
20
-11.195490076849
30
0
41
1
10
210.467963474739
20
-11.0943373949455
30
0
41
1
10
210.593606236473
20
-10.8460105480549
30
0
41
1
10
210.656427617339
20
-10.6988268319311
30
0
41
1
10
210.782070379073
20
-10.3578958746797
30
0
41
1
10
210.84489175994
20
-10.1641432295754
30
0
41
1
10
210.970534521674
20
-9.73132088804462
30
0
41
1
10
211.033355902541
20
-9.49225132789448
30
0
41
1
10
211.158998664275
20
-8.97191397231427
30
0
41
1
10
211.221820045142
20
-8.690652425308
30
0
41
1
10
211.347462806876
20
-8.09082774411439
30
0
41
1
10
211.410284187743
20
-7.77227647387974
30
0
41
1
10
211.535926949477
20
-7.10427212362566
30
0
41
1
10
211.598748330344
20
-6.7548349929186
30
0
41
1
10
211.724391092078
20
-6.03253777530372
30
0
41
1
10
211.787212472945
20
-5.65969548994059
30
0
41
1
10
211.912855234679
20
-4.89863047721659
30
0
41
1
10
211.975676615546
20
-4.51042498773188
30
0
41
1
10
212.10131937728
20
-3.72670482192586
30
0
41
1
10
212.164140758147
20
-3.3312047521236
30
0
41
1
10
212.289783519881
20
-2.54051023597381
30
0
41
1
10
212.352604900748
20
-2.14532641934829
30
0
41
1
10
212.478247662482
20
-1.36203976683009
30
0
41
1
10
212.541069043349
20
-0.973943091376015
30
0
41
1
10
212.635301114649
20
-0.401370999360239
30
0
41
1
10
212.666711805083
20
-0.212100042483854
30
0
41
1
10
212.713827840733
20
0.0689793462777288
30
0
41
1
10
212.72953318595
20
0.162837974724084
30
0
41
1
10
212.760943876383
20
0.351726449450894
30
0
41
1
10
212.7766492216
20
0.446611694449047
30
0
41
1
10
212.855175947684
20
0.923052655862676
30
0
41
1
10
212.917997328551
20
1.31069863023325
30
0
41
1
10
213.043640090285
20
2.09335774309341
30
0
41
1
10
213.106461471152
20
2.48836491643414
30
0
41
1
10
213.232104232885
20
3.27902373897561
30
0
41
1
10
213.294925613752
20
3.67466495082698
30
0
41
1
10
213.420568375486
20
4.45901483137027
30
0
41
1
10
213.483389756353
20
4.84770904631065
30
0
41
1
10
213.609032518087
20
5.61010956057387
30
0
41
1
10
213.671853898954
20
5.98379869855407
30
0
41
1
10
213.797496660688
20
6.70813549754317
30
0
41
1
10
213.860318041555
20
7.05876533178127
30
0
41
1
10
213.985960803289
20
7.72946514367493
30
0
41
1
10
214.048782184156
20
8.04951904025188
30
0
41
1
10
214.17442494589
20
8.65260191989501
30
0
41
1
10
214.237246326757
20
8.93561882044395
30
0
41
1
10
214.362889088491
20
9.459646787764
30
0
41
1
10
214.425710469358
20
9.70065134054104
30
0
41
1
10
214.551353231092
20
10.1374420302252
30
0
41
1
10
214.614174611959
20
10.3332277667703
30
0
41
1
10
214.739817373692
20
10.6782413626961
30
0
41
1
10
214.80263875456
20
10.8274744070113
30
0
41
1
10
214.928281516294
20
11.0798414995059
30
0
41
1
10
214.991102897161
20
11.1829849529083
30
0
41
1
10
215.116745658895
20
11.3452052980977
30
0
41
1
10
215.179567039762
20
11.4042940235625
30
0
41
1
10
215.305209801495
20
11.4816851379691
30
0
41
1
10
215.368031182362
20
11.5
30
0
41
1
10
215.430852563229
20
11.5
30
0
0
SPLINE
5
106
100
AcDbEntity
8
1
62
256
6
ByLayer
370
13
48
1
60
0
100
AcDbSpline
70
4
71
3
72
74
73
70
40
0
40
0
40
0
40
0
40
0.0312499999999998
40
0.0312499999999998
40
0.0624999999999996
40
0.0624999999999996
40
0.0937499999999994
40
0.0937499999999994
40
0.124999999999999
40
0.124999999999999
40
0.156249999999999
40
0.156249999999999
40
0.187499999999999
40
0.187499999999999
40
0.218749999999999
40
0.218749999999999
40
0.249999999999999
40
0.249999999999999
40
0.281249999999999
40
0.281249999999999
40
0.312499999999999
40
0.312499999999999
40
0.343749999999999
40
0.343749999999999
40
0.374999999999999
40
0.374999999999999
40
0.406249999999999
40
0.406249999999999
40
0.437499999999999
40
0.437499999999999
40
0.468749999999999
40
0.468749999999999
40
0.484374999999999
40
0.484374999999999
40
0.499999999999999
40
0.499999999999999
40
0.531249999999999
40
0.531249999999999
40
0.562499999999999
40
0.562499999999999
40
0.593749999999999
40
0.593749999999999
40
0.624999999999999
40
0.624999999999999
40
0.656249999999999
40
0.656249999999999
40
0.687499999999999
40
0.687499999999999
40
0.718749999999999
40
0.718749999999999
40
0.749999999999999
40
0.749999999999999
40
0.781249999999999
40
0.781249999999999
40
0.812499999999999
40
0.812499999999999
40
0.843749999999999
40
0.843749999999999
40
0.875
40
0.875
40
0.90625
40
0.90625
40
0.9375
40
0.9375
40
0.96875
40
0.96875
40
0.984375
40
0.984375
40
1
40
1
40
1
40
1
41
1
10
214.771839862986
20
11.5
30
0
41
1
10
214.829574263434
20
11.5
30
0
41
1
10
214.887308663881
20
11.4845350698873
30
0
41
1
10
215.002777464776
20
11.4194457714383
30
0
41
1
10
215.060511865223
20
11.3698132307306
30
0
41
1
10
215.175980666118
20
11.2337454405728
30
0
41
1
10
215.233715066566
20
11.1473022804776
30
0
41
1
10
215.349183867461
20
10.935816142852
30
0
41
1
10
215.406918267908
20
10.8107664911088
30
0
41
1
10
215.522387068803
20
10.5213391291677
30
0
41
1
10
215.58012146925
20
10.3569569983555
30
0
41
1
10
215.695590270145
20
9.98937565229872
30
0
41
1
10
215.753324670592
20
9.78617513457846
30
0
41
1
10
215.868793471487
20
9.34279617109564
30
0
41
1
10
215.926527871935
20
9.1026200479964
30
0
41
1
10
216.041996672829
20
8.58844344784518
30
0
41
1
10
216.099731073277
20
8.31444891405323
30
0
41
1
10
216.215199874172
20
7.7369789322772
30
0
41
1
10
216.272934274619
20
7.43351248487551
30
0
41
1
10
216.388403075514
20
6.80240510019436
30
0
41
1
10
216.446137475962
20
6.47477518469009
30
0
41
1
10
216.561606276856
20
5.80130551650433
30
0
41
1
10
216.619340677304
20
5.45547749850712
30
0
41
1
10
216.734809478199
20
4.75188791074498
30
0
41
1
10
216.792543878646
20
4.39413746565231
30
0
41
1
10
216.908012679541
20
3.67294299581792
30
0
41
1
10
216.965747079988
20
3.30950838785029
30
0
41
1
10
217.081215880883
20
2.58283714878357
30
0
41
1
10
217.138950281331
20
2.21960751372546
30
0
41
1
10
217.254419082225
20
1.49864079128986
30
0
41
1
10
217.312153482673
20
1.1409080036826
30
0
41
1
10
217.398755083344
20
0.611823838381355
30
0
41
1
10
217.427622283568
20
0.436708575313958
30
0
41
1
10
217.485356684015
20
0.0894559482259183
30
0
41
1
10
217.514223884239
20
-0.0818600893956045
30
0
41
1
10
217.60082548491
20
-0.602608037655102
30
0
41
1
10
217.658559885357
20
-0.955769361019634
30
0
41
1
10
217.774028686252
20
-1.66999073005778
30
0
41
1
10
217.8317630867
20
-2.03104782040114
30
0
41
1
10
217.947231887594
20
-2.75614457766571
30
0
41
1
10
218.004966288042
20
-3.12017860861437
30
0
41
1
10
218.120435088937
20
-3.84561946004348
30
0
41
1
10
218.178169489384
20
-4.20701803030423
30
0
41
1
10
218.293638290279
20
-4.9210934768798
30
0
41
1
10
218.351372690726
20
-5.27375997944637
30
0
41
1
10
218.466841491621
20
-5.96407382628763
30
0
41
1
10
218.524575892068
20
-6.30170958924563
30
0
41
1
10
218.640044692963
20
-6.955794801651
30
0
41
1
10
218.697779093411
20
-7.27223269703299
30
0
41
1
10
218.813247894306
20
-7.87823740763076
30
0
41
1
10
218.870982294753
20
-8.16779404454016
30
0
41
1
10
218.986451095648
20
-8.71516509961455
30
0
41
1
10
219.044185496095
20
-8.97297191978492
30
0
41
1
10
219.15965429699
20
-9.45305691303179
30
0
41
1
10
219.217388697438
20
-9.67533089050883
30
0
41
1
10
219.332857498333
20
-10.081828132833
30
0
41
1
10
219.39059189878
20
-10.2660508948177
30
0
41
1
10
219.506060699675
20
-10.5952590717706
30
0
41
1
10
219.563795100122
20
-10.7402474155239
30
0
41
1
10
219.679263901017
20
-10.9910976512349
30
0
41
1
10
219.736998301464
20
-11.0969651965726
30
0
41
1
10
219.852467102359
20
-11.2708504247886
30
0
41
1
10
219.910201502807
20
-11.3388755196012
30
0
41
1
10
220.025670303702
20
-11.4393182335968
30
0
41
1
10
220.083404704149
20
-11.4717440052524
30
0
41
1
10
220.17000630482
20
-11.4959051436939
30
0
41
1
10
220.198873505044
20
-11.4998841767823
30
0
41
1
10
220.256607905491
20
-11.5001108367733
30
0
41
1
10
220.285475105715
20
-11.4963646071657
30
0
41
1
10
220.314342305939
20
-11.4885497308377
30
0
0
SPLINE
5
107
100
AcDbEntity
8
1
62
256
6
ByLayer
370
13
48
1
60
0
100
AcDbSpline
70
4
71
3
72
74
73
70
40
0
40
0
40
0
40
0
40
0.015625
40
0.015625
40
0.0312499999999999
40
0.0312499999999999
40
0.0624999999999999
40
0.0624999999999999
40
0.0937499999999998
40
0.0937499999999998
40
0.125
40
0.125
40
0.15625
40
0.15625
40
0.1875
40
0.1875
40
0.21875
40
0.21875
40
0.249999999999999
40
0.249999999999999
40
0.281249999999999
40
0.281249999999999
40
0.312499999999999
40
0.312499999999999
40
0.343749999999999
40
0.343749999999999
40
0.374999999999999
40
0.374999999999999
40
0.406249999999999
40
0.406249999999999
40
0.437499999999999
40
0.437499999999999
40
0.468749999999999
40
0.468749999999999
40
0.499999999999999
40
0.499999999999999
40
0.515624999999999
40
0.515624999999999
40
0.53125
40
0.53125
40
0.5625
40
0.5625
40
0.59375
40
0.59375
40
0.625
40
0.625
40
0.65625
40
0.65625
40
0.6875
40
0.6875
40
0.71875
40
0.71875
40
0.75
40
0.75
40
0.78125
40
0.78125
40
0.8125
40
0.8125
40
0.84375
40
0.84375
40
0.875
40
0.875
40
0.90625
40
0.90625
40
0.9375
40
0.9375
40
0.96875
40
0.96875
40
1
40
1
40
1
40
1
41
1
10
209.4
20
-11.4885494353646
30
0
41
1
10
209.428867205908
20
-11.4963644157594
30
0
41
1
10
209.457734411817
20
-11.5001107451224
30
0
41
1
10
209.515468823633
20
-11.4998842768655
30
0
41
1
10
209.544336029541
20
-11.4959053407949
30
0
41
1
10
209.630937647266
20
-11.4717444960015
30
0
41
1
10
209.688672059083
20
-11.4393189236017
30
0
41
1
10
209.804140882716
20
-11.3388766097262
30
0
41
1
10
209.861875294532
20
-11.2708517157685
30
0
41
1
10
209.977344118165
20
-11.0969668846103
30
0
41
1
10
210.035078529982
20
-10.9910995354612
30
0
41
1
10
210.150547353615
20
-10.7402496806956
30
0
41
1
10
210.208281765431
20
-10.5952615216812
30
0
41
1
10
210.323750589064
20
-10.2660536959676
30
0
41
1
10
210.381485000881
20
-10.0818311004637
30
0
41
1
10
210.496953824514
20
-9.67533416660174
30
0
41
1
10
210.554688236331
20
-9.45306033108795
30
0
41
1
10
210.670157059964
20
-8.97297559213152
30
0
41
1
10
210.72789147178
20
-8.71516888427448
30
0
41
1
10
210.843360295413
20
-8.16779802066921
30
0
41
1
10
210.90109470723
20
-7.87824146290848
30
0
41
1
10
211.016563530863
20
-7.27223687586542
30
0
41
1
10
211.074297942679
20
-6.95579902489027
30
0
41
1
10
211.189766766312
20
-6.30171386700357
30
0
41
1
10
211.247501178129
20
-5.96407811416569
30
0
41
1
10
211.362970001762
20
-5.27376425560985
30
0
41
1
10
211.420704413579
20
-4.92109773122252
30
0
41
1
10
211.536173237212
20
-4.20702221294107
30
0
41
1
10
211.593907649028
20
-3.84562359281219
30
0
41
1
10
211.709376472661
20
-3.12018261854737
30
0
41
1
10
211.767110884478
20
-2.75614851464834
30
0
41
1
10
211.882579708111
20
-2.03105159389821
30
0
41
1
10
211.940314119927
20
-1.66999441303477
30
0
41
1
10
212.05578294356
20
-0.955772850941372
30
0
41
1
10
212.113517355377
20
-0.602611425053169
30
0
41
1
10
212.200118973102
20
-0.0818633179106314
30
0
41
1
10
212.22898617901
20
0.0894527524571913
30
0
41
1
10
212.286720590826
20
0.436705411624217
30
0
41
1
10
212.315587796735
20
0.611820692718084
30
0
41
1
10
212.40218941446
20
1.14090491811692
30
0
41
1
10
212.459923826276
20
1.49863775384236
30
0
41
1
10
212.575392649909
20
2.21960458829159
30
0
41
1
10
212.633127061726
20
2.58283428724843
30
0
41
1
10
212.748595885359
20
3.30950566861387
30
0
41
1
10
212.806330297175
20
3.67294035498139
30
0
41
1
10
212.921799120808
20
4.39413499383292
30
0
41
1
10
212.979533532625
20
4.75188552953864
30
0
41
1
10
213.095002356258
20
5.45547530751548
30
0
41
1
10
213.152736768074
20
5.80130342510603
30
0
41
1
10
213.268205591707
20
6.4747732974819
30
0
41
1
10
213.325940003524
20
6.80240331757133
30
0
41
1
10
213.441408827157
20
7.43351091198707
30
0
41
1
10
213.499143238973
20
7.7369774645249
30
0
41
1
10
213.614612062607
20
8.31444765262441
30
0
41
1
10
213.672346474423
20
8.58844228759074
30
0
41
1
10
213.787815298056
20
9.10261908195687
30
0
41
1
10
213.845549709873
20
9.342795298086
30
0
41
1
10
213.961018533506
20
9.78617443599791
30
0
41
1
10
214.018752945322
20
9.98937503511067
30
0
41
1
10
214.134221768955
20
10.356956529777
30
0
41
1
10
214.191956180772
20
10.5213387278042
30
0
41
1
10
214.307425004405
20
10.8107662085409
30
0
41
1
10
214.365159416221
20
10.935815911867
30
0
41
1
10
214.480628239855
20
11.1473021366484
30
0
41
1
10
214.538362651671
20
11.2337453323219
30
0
41
1
10
214.653831475304
20
11.369813178214
30
0
41
1
10
214.711565887121
20
11.419445739085
30
0
41
1
10
214.827034710754
20
11.4845350637883
30
0
41
1
10
214.88476912257
20
11.5
30
0
41
1
10
214.942503534387
20
11.5
30
0
0
SPLINE
5
108
100
AcDbEntity
8
1
62
256
6
ByLayer
370
13
48
1
60
0
100
AcDbSpline
70
4
71
3
72
8
73
4
40
0
40
0
40
0
40
0
40
1
40
1
40
1
40
1
41
1
10
220.314342305939
20
-10.5139149324546
30
0
41
1
10
221.709561537293
20
-7.01577714445182
30
0
41
1
10
223.104780768646
20
-3.51110811453799
30
0
41
1
10
224.5
20
5.684E-13
30
0
0
SPLINE
5
109
100
AcDbEntity
8
1
62
256
6
ByLayer
370
13
48
1
60
0
100
AcDbSpline
70
4
71
3
72
8
73
4
40
0
40
0
40
0
40
0
40
1
40
1
40
1
40
1
41
1
10
220.314342305939
20
4.69508222496165
30
0
41
1
10
221.709561537292
20
3.11540792483677
30
0
41
1
10
223.104780768646
20
1.55036684987533
30
0
41
1
10
224.5
20
-2.558E-13
30
0
0
SPLINE
5
10A
100
AcDbEntity
8
1
62
256
6
ByLayer
370
13
48
1
60
0
100
AcDbSpline
70
4
71
3
72
8
73
4
40
0
40
0
40
0
40
0
40
1
40
1
40
1
40
1
41
1
10
220.314342305939
20
6.77936043265547
30
0
41
1
10
221.709561537292
20
4.50661307352271
30
0
41
1
10
223.104780768646
20
2.24680650508276
30
0
41
1
10
224.5
20
-3.695E-13
30
0
0
SPLINE
5
10B
100
AcDbEntity
8
1
62
256
6
ByLayer
370
13
48
1
60
0
100
AcDbSpline
70
4
71
3
72
8
73
4
40
0
40
0
40
0
40
0
40
1
40
1
40
1
40
1
41
1
10
220.314342305939
20
3.62756734650739
30
0
41
1
10
221.709561537293
20
2.43360407860106
30
0
41
1
10
223.104780768646
20
1.22440432632169
30
0
41
1
10
224.5
20
0
30
0
0
SPLINE
5
10C
100
AcDbEntity
8
1
62
256
6
ByLayer
370
13
48
1
60
0
100
AcDbSpline
70
4
71
3
72
8
73
4
40
0
40
0
40
0
40
0
40
1
40
1
40
1
40
1
41
1
10
220.314342305939
20
11.4476540155185
30
0
41
1
10
221.709561537293
20
7.63329850493739
30
0
41
1
10
223.104780768646
20
3.81738040204641
30
0
41
1
10
224.5
20
0
30
0
0
SPLINE
5
10D
100
AcDbEntity
8
1
62
256
6
ByLayer
370
13
48
1
60
0
100
AcDbSpline
70
4
71
3
72
8
73
4
40
0
40
0
40
0
40
0
40
1
40
1
40
1
40
1
41
1
10
220.314342305939
20
-11.4334868391715
30
0
41
1
10
221.709561537293
20
-7.6206013768801
30
0
41
1
10
223.104780768646
20
-3.80940571696891
30
0
41
1
10
224.5
20
0
30
0
0
SPLINE
5
10E
100
AcDbEntity
8
1
62
256
6
ByLayer
370
13
48
1
60
0
100
AcDbSpline
70
4
71
3
72
8
73
4
40
0
40
0
40
0
40
0
40
1
40
1
40
1
40
1
41
1
10
220.314342305939
20
1.27416961690838
30
0
41
1
10
221.709561537293
20
0.865392643534705
30
0
41
1
10
223.104780768646
20
0.440665670823762
30
0
41
1
10
224.5
20
0
30
0
0
SPLINE
5
10F
100
AcDbEntity
8
1
62
256
6
ByLayer
370
13
48
1
60
0
100
AcDbSpline
70
4
71
3
72
8
73
4
40
0
40
0
40
0
40
0
40
1
40
1
40
1
40
1
41
1
10
220.314342305939
20
1.21343040693989
30
0
41
1
10
221.709561537292
20
0.792998152575052
30
0
41
1
10
223.104780768646
20
0.388517853693827
30
0
41
1
10
224.5
20
-5.68E-14
30
0
0
SPLINE
5
110
100
AcDbEntity
8
1
62
256
6
ByLayer
370
13
48
1
60
0
100
AcDbSpline
70
4
71
3
72
8
73
4
40
0
40
0
40
0
40
0
40
1
40
1
40
1
40
1
41
1
10
220.314342305939
20
3.56953805609419
30
0
41
1
10
221.709561537292
20
2.36443951517654
30
0
41
1
10
223.104780768646
20
1.17458311813959
30
0
41
1
10
224.5
20
-1.99E-13
30
0
0
SPLINE
5
111
100
AcDbEntity
8
1
62
256
6
ByLayer
370
13
48
1
60
0
100
AcDbSpline
70
4
71
3
72
8
73
4
40
0
40
0
40
0
40
0
40
1
40
1
40
1
40
1
41
1
10
220.314342305939
20
6.82861687664422
30
0
41
1
10
221.709561537293
20
4.56532136411315
30
0
41
1
10
223.104780768646
20
2.2890957616429
30
0
41
1
10
224.5
20
0
30
0
0
SPLINE
5
112
100
AcDbEntity
8
1
62
256
6
ByLayer
370
13
48
1
60
0
100
AcDbSpline
70
4
71
3
72
8
73
4
40
0
40
0
40
0
40
0
40
1
40
1
40
1
40
1
41
1
10
220.314342305939
20
-1.13515737586442
30
0
41
1
10
221.709561537293
20
-0.74080492168784
30
0
41
1
10
223.104780768646
20
-0.362415861751231
30
0
41
1
10
224.5
20
0
30
0
0
SPLINE
5
113
100
AcDbEntity
8
1
62
256
6
ByLayer
370
13
48
1
60
0
100
AcDbSpline
70
4
71
3
72
8
73
4
40
0
40
0
40
0
40
0
40
1
40
1
40
1
40
1
41
1
10
220.314342305939
20
-10.489013382971
30
0
41
1
10
221.709561537293
20
-6.98609722270294
30
0
41
1
10
223.104780768646
20
-3.48972882018484
30
0
41
1
10
224.5
20
0
30
0
0
SPLINE
5
114
100
AcDbEntity
8
1
62
256
6
ByLayer
370
13
48
1
60
0
100
AcDbSpline
70
4
71
3
72
8
73
4
40
0
40
0
40
0
40
0
40
1
40
1
40
1
40
1
41
1
10
220.314342305939
20
4.75078946672684
30
0
41
1
10
221.709561537293
20
3.18180486039887
30
0
41
1
10
223.104780768646
20
1.59819445675245
30
0
41
1
10
224.5
20
0
30
0
0
SPLINE
5
115
100
AcDbEntity
8
1
62
256
6
ByLayer
370
13
48
1
60
0
100
AcDbSpline
70
4
71
3
72
8
73
4
40
0
40
0
40
0
40
0
40
1
40
1
40
1
40
1
41
1
10
220.314342305939
20
-10.9441372903254
30
0
41
1
10
221.709561537293
20
-7.30101960612205
30
0
41
1
10
223.104780768646
20
-3.65294187194814
30
0
41
1
10
224.5
20
0
30
0
0
SPLINE
5
116
100
AcDbEntity
8
1
62
256
6
ByLayer
370
13
48
1
60
0
100
AcDbSpline
70
4
71
3
72
8
73
4
40
0
40
0
40
0
40
0
40
1
40
1
40
1
40
1
41
1
10
220.314342305939
20
11.2698574990745
30
0
41
1
10
221.709561537293
20
7.51643223058275
30
0
41
1
10
223.104780768646
20
3.7597801474692
30
0
41
1
10
224.5
20
0
30
0
0
SPLINE
5
117
100
AcDbEntity
8
1
62
256
6
ByLayer
370
13
48
1
60
0
100
AcDbSpline
70
4
71
3
72
8
73
4
40
0
40
0
40
0
40
0
40
1
40
1
40
1
40
1
41
1
10
220.314342305939
20
5.76896198692793
30
0
41
1
10
221.709561537292
20
3.8320945700934
30
0
41
1
10
223.104780768646
20
1.90909043656137
30
0
41
1
10
224.5
20
-3.126E-13
30
0
0
SPLINE
5
118
100
AcDbEntity
8
1
62
256
6
ByLayer
370
13
48
1
60
0
100
AcDbSpline
70
4
71
3
72
8
73
4
40
0
40
0
40
0
40
0
40
1
40
1
40
1
40
1
41
1
10
220.314342305939
20
-11.241200841192
30
0
41
1
10
221.709561537293
20
-7.49074911307807
30
0
41
1
10
223.104780768646
20
-3.74364935214413
30
0
41
1
10
224.5
20
0
30
0
0
SPLINE
5
119
100
AcDbEntity
8
1
62
256
6
ByLayer
370
13
48
1
60
0
100
AcDbSpline
70
4
71
3
72
8
73
4
40
0
40
0
40
0
40
0
40
1
40
1
40
1
40
1
41
1
10
220.314342305939
20
-11.4398871374462
30
0
41
1
10
221.709561537293
20
-7.62822983197239
30
0
41
1
10
223.104780768646
20
-3.81490071079872
30
0
41
1
10
224.5
20
0
30
0
0
SPLINE
5
11A
100
AcDbEntity
8
1
62
256
6
ByLayer
370
13
48
1
60
0
100
AcDbSpline
70
4
71
3
72
8
73
4
40
0
40
0
40
0
40
0
40
1
40
1
40
1
40
1
41
1
10
220.314342305939
20
0.0087933957661335
30
0
41
1
10
221.709561537292
20
-0.0101827526258944
30
0
41
1
10
223.104780768646
20
-0.0131138633735191
30
0
41
1
10
224.5
20
0
30
0
0
SPLINE
5
11B
100
AcDbEntity
8
1
62
256
6
ByLayer
370
13
48
1
60
0
100
AcDbSpline
70
4
71
3
72
8
73
4
40
0
40
0
40
0
40
0
40
1
40
1
40
1
40
1
41
1
10
220.314342305939
20
2.46442768992299
30
0
41
1
10
221.709561537293
20
1.65862406156756
30
0
41
1
10
223.104780768646
20
0.83714092315671
30
0
41
1
10
224.5
20
0
30
0
0
SPLINE
5
11C
100
AcDbEntity
8
1
62
256
6
ByLayer
370
13
48
1
60
0
100
AcDbSpline
70
4
71
3
72
8
73
4
40
0
40
0
40
0
40
0
40
1
40
1
40
1
40
1
41
1
10
220.314342305939
20
7.7603578765102
30
0
41
1
10
221.709561537293
20
5.18541295231324
30
0
41
1
10
223.104780768646
20
2.59860429903813
30
0
41
1
10
224.5
20
0
30
0
0
SPLINE
5
11D
100
AcDbEntity
8
1
62
256
6
ByLayer
370
13
48
1
60
0
100
AcDbSpline
70
4
71
3
72
8
73
4
40
0
40
0
40
0
40
0
40
1
40
1
40
1
40
1
41
1
10
220.314342305939
20
-11.4999594247219
30
0
41
1
10
221.709561537293
20
-7.66659699419503
30
0
41
1
10
223.104780768646
20
-3.83324360676321
30
0
41
1
10
224.5
20
0
30
0
0
SPLINE
5
11E
100
AcDbEntity
8
1
62
256
6
ByLayer
370
13
48
1
60
0
100
AcDbSpline
70
4
71
3
72
8
73
4
40
0
40
0
40
0
40
0
40
1
40
1
40
1
40
1
41
1
10
220.314342305939
20
-9.93738894899769
30
0
41
1
10
221.709561537293
20
-6.61685075566115
30
0
41
1
10
223.104780768646
20
-3.30435877955441
30
0
41
1
10
224.5
20
0
30
0
0
SPLINE
5
11F
100
AcDbEntity
8
1
62
256
6
ByLayer
370
13
48
1
60
0
100
AcDbSpline
70
4
71
3
72
8
73
4
40
0
40
0
40
0
40
0
40
1
40
1
40
1
40
1
41
1
10
220.314342305939
20
2.40471490173877
30
0
41
1
10
221.709561537292
20
1.58745295304271
30
0
41
1
10
223.104780768646
20
0.785874343295518
30
0
41
1
10
224.5
20
-1.137E-13
30
0
0
SPLINE
5
120
100
AcDbEntity
8
1
62
256
6
ByLayer
370
13
48
1
60
0
100
AcDbSpline
70
4
71
3
72
8
73
4
40
0
40
0
40
0
40
0
40
1
40
1
40
1
40
1
41
1
10
220.314342305939
20
-3.55281574575693
30
0
41
1
10
221.709561537292
20
-2.38380395117235
30
0
41
1
10
223.104780768646
20
-1.19952161731413
30
0
41
1
10
224.5
20
-1.99E-13
30
0
0
SPLINE
5
121
100
AcDbEntity
8
1
62
256
6
ByLayer
370
13
48
1
60
0
100
AcDbSpline
70
4
71
3
72
8
73
4
40
0
40
0
40
0
40
0
40
1
40
1
40
1
40
1
41
1
10
220.314342305939
20
5.82173418085409
30
0
41
1
10
221.709561537293
20
3.89499324984416
30
0
41
1
10
223.104780768646
20
1.95439814997835
30
0
41
1
10
224.5
20
0
30
0
0
SPLINE
5
122
100
AcDbEntity
8
1
62
256
6
ByLayer
370
13
48
1
60
0
100
AcDbSpline
70
4
71
3
72
8
73
4
40
0
40
0
40
0
40
0
40
1
40
1
40
1
40
1
41
1
10
220.314342305939
20
10.0070033348984
30
0
41
1
10
221.709561537293
20
6.67924164787328
30
0
41
1
10
223.104780768646
20
3.34354462653113
30
0
41
1
10
224.5
20
8.53E-14
30
0
0
SPLINE
5
123
100
AcDbEntity
8
1
62
256
6
ByLayer
370
13
48
1
60
0
100
AcDbSpline
70
4
71
3
72
8
73
4
40
0
40
0
40
0
40
0
40
1
40
1
40
1
40
1
41
1
10
220.314342305939
20
-10.9252173345238
30
0
41
1
10
221.709561537293
20
-7.27846908941385
30
0
41
1
10
223.104780768646
20
-3.63669809143533
30
0
41
1
10
224.5
20
0
30
0
0
SPLINE
5
124
100
AcDbEntity
8
1
62
256
6
ByLayer
370
13
48
1
60
0
100
AcDbSpline
70
4
71
3
72
8
73
4
40
0
40
0
40
0
40
0
40
1
40
1
40
1
40
1
41
1
10
220.314342305939
20
11.4416696015719
30
0
41
1
10
221.709561537292
20
7.62616573844915
30
0
41
1
10
223.104780768646
20
3.81224246685889
30
0
41
1
10
224.5
20
-5.969E-13
30
0
0
SPLINE
5
125
100
AcDbEntity
8
1
62
256
6
ByLayer
370
13
48
1
60
0
100
AcDbSpline
70
4
71
3
72
8
73
4
40
0
40
0
40
0
40
0
40
1
40
1
40
1
40
1
41
1
10
220.314342305939
20
8.60670435763933
30
0
41
1
10
221.709561537293
20
5.74844456331115
30
0
41
1
10
223.104780768646
20
2.87951794853836
30
0
41
1
10
224.5
20
0
30
0
0
SPLINE
5
126
100
AcDbEntity
8
1
62
256
6
ByLayer
370
13
48
1
60
0
100
AcDbSpline
70
4
71
3
72
8
73
4
40
0
40
0
40
0
40
0
40
1
40
1
40
1
40
1
41
1
10
220.314342305939
20
-7.65662957232217
30
0
41
1
10
221.709561537293
20
-5.09244795144156
30
0
41
1
10
223.104780768646
20
-2.54021577197625
30
0
41
1
10
224.5
20
0
30
0
0
SPLINE
5
127
100
AcDbEntity
8
1
62
256
6
ByLayer
370
13
48
1
60
0
100
AcDbSpline
70
4
71
3
72
8
73
4
40
0
40
0
40
0
40
0
40
1
40
1
40
1
40
1
41
1
10
220.314342305939
20
-9.27641407522455
30
0
41
1
10
221.709561537293
20
-6.17479285455605
30
0
41
1
10
223.104780768646
20
-3.08262777049905
30
0
41
1
10
224.5
20
0
30
0
0
SPLINE
5
128
100
AcDbEntity
8
1
62
256
6
ByLayer
370
13
48
1
60
0
100
AcDbSpline
70
4
71
3
72
8
73
4
40
0
40
0
40
0
40
0
40
1
40
1
40
1
40
1
41
1
10
220.314342305939
20
-7.70210846832777
30
0
41
1
10
221.709561537293
20
-5.14665381825213
30
0
41
1
10
223.104780768646
20
-2.57926180424104
30
0
41
1
10
224.5
20
0
30
0
0
SPLINE
5
129
100
AcDbEntity
8
1
62
256
6
ByLayer
370
13
48
1
60
0
100
AcDbSpline
70
4
71
3
72
8
73
4
40
0
40
0
40
0
40
0
40
1
40
1
40
1
40
1
41
1
10
220.314342305939
20
-4.67902242386981
30
0
41
1
10
221.709561537292
20
-3.13400517510146
30
0
41
1
10
223.104780768646
20
-1.57431732849878
30
0
41
1
10
224.5
20
2.558E-13
30
0
0
SPLINE
5
12A
100
AcDbEntity
8
1
62
256
6
ByLayer
370
13
48
1
60
0
100
AcDbSpline
70
4
71
3
72
8
73
4
40
0
40
0
40
0
40
0
40
1
40
1
40
1
40
1
41
1
10
220.314342305939
20
-6.76514657851499
30
0
41
1
10
221.709561537293
20
-4.52307271714821
30
0
41
1
10
223.104780768646
20
-2.2680040658617
30
0
41
1
10
224.5
20
0
30
0
0
SPLINE
5
12B
100
AcDbEntity
8
1
62
256
6
ByLayer
370
13
48
1
60
0
100
AcDbSpline
70
4
71
3
72
8
73
4
40
0
40
0
40
0
40
0
40
1
40
1
40
1
40
1
41
1
10
220.314342305939
20
10.5455470239665
30
0
41
1
10
221.709561537293
20
7.03676468541295
30
0
41
1
10
223.104780768646
20
3.52155153292469
30
0
41
1
10
224.5
20
0
30
0
0
SPLINE
5
12C
100
AcDbEntity
8
1
62
256
6
ByLayer
370
13
48
1
60
0
100
AcDbSpline
70
4
71
3
72
8
73
4
40
0
40
0
40
0
40
0
40
1
40
1
40
1
40
1
41
1
10
220.314342305939
20
10.5210277956302
30
0
41
1
10
221.709561537293
20
7.00754044862919
30
0
41
1
10
223.104780768647
20
3.50050048145079
30
0
41
1
10
224.500000000001
20
-1.7053E-12
30
0
0
SPLINE
5
12D
100
AcDbEntity
8
1
62
256
6
ByLayer
370
13
48
1
60
0
100
AcDbSpline
70
4
71
3
72
8
73
4
40
0
40
0
40
0
40
0
40
1
40
1
40
1
40
1
41
1
10
220.314342305939
20
11.25753648879
30
0
41
1
10
221.709561537292
20
7.50174693473971
30
0
41
1
10
223.104780768646
20
3.74920190992714
30
0
41
1
10
224.5
20
6.253E-13
30
0
0
SPLINE
5
12E
100
AcDbEntity
8
1
62
256
6
ByLayer
370
13
48
1
60
0
100
AcDbSpline
70
4
71
3
72
8
73
4
40
0
40
0
40
0
40
0
40
1
40
1
40
1
40
1
41
1
10
220.314342305939
20
-4.62314480282211
30
0
41
1
10
221.709561537293
20
-3.06740516608147
30
0
41
1
10
223.104780768646
20
-1.52634344201687
30
0
41
1
10
224.5
20
0
30
0
0
SPLINE
5
12F
100
AcDbEntity
8
1
62
256
6
ByLayer
370
13
48
1
60
0
100
AcDbSpline
70
4
71
3
72
8
73
4
40
0
40
0
40
0
40
0
40
1
40
1
40
1
40
1
41
1
10
220.314342305939
20
-2.38751409346923
30
0
41
1
10
221.709561537292
20
-1.60737148966183
30
0
41
1
10
223.104780768646
20
-0.8115264412518
30
0
41
1
10
224.5
20
1.421E-13
30
0
0
SPLINE
5
130
100
AcDbEntity
8
1
62
256
6
ByLayer
370
13
48
1
60
0
100
AcDbSpline
70
4
71
3
72
8
73
4
40
0
40
0
40
0
40
0
40
1
40
1
40
1
40
1
41
1
10
220.314342305939
20
-6.71564395598767
30
0
41
1
10
221.709561537293
20
-4.46407100868197
30
0
41
1
10
223.104780768646
20
-2.22550345203513
30
0
41
1
10
224.5
20
0
30
0
0
SPLINE
5
131
100
AcDbEntity
8
1
62
256
6
ByLayer
370
13
48
1
60
0
100
AcDbSpline
70
4
71
3
72
8
73
4
40
0
40
0
40
0
40
0
40
1
40
1
40
1
40
1
41
1
10
220.314342305939
20
9.35834317344859
30
0
41
1
10
221.709561537293
20
6.24822063058531
30
0
41
1
10
223.104780768646
20
3.12874555297179
30
0
41
1
10
224.5
20
0
30
0
0
SPLINE
5
132
100
AcDbEntity
8
1
62
256
6
ByLayer
370
13
48
1
60
0
100
AcDbSpline
70
4
71
3
72
8
73
4
40
0
40
0
40
0
40
0
40
1
40
1
40
1
40
1
41
1
10
220.314342305939
20
-9.31239396068602
30
0
41
1
10
221.709561537293
20
-6.21767694037339
30
0
41
1
10
223.104780768646
20
-3.11351840092331
30
0
41
1
10
224.5
20
0
30
0
0
SPLINE
5
133
100
AcDbEntity
8
1
62
256
6
ByLayer
370
13
48
1
60
0
100
AcDbSpline
70
4
71
3
72
8
73
4
40
0
40
0
40
0
40
0
40
1
40
1
40
1
40
1
41
1
10
220.314342305939
20
-8.51336209003941
30
0
41
1
10
221.709561537293
20
-5.66478789836597
30
0
41
1
10
223.104780768646
20
-2.82697570791814
30
0
41
1
10
224.5
20
0
30
0
0
SPLINE
5
134
100
AcDbEntity
8
1
62
256
6
ByLayer
370
13
48
1
60
0
100
AcDbSpline
70
4
71
3
72
8
73
4
40
0
40
0
40
0
40
0
40
1
40
1
40
1
40
1
41
1
10
220.314342305939
20
-1.19594037741419
30
0
41
1
10
221.709561537292
20
-0.813251607419659
30
0
41
1
10
223.104780768646
20
-0.414601276264534
30
0
41
1
10
224.5
20
5.68E-14
30
0
0
SPLINE
5
135
100
AcDbEntity
8
1
62
256
6
ByLayer
370
13
48
1
60
0
100
AcDbSpline
70
4
71
3
72
8
73
4
40
0
40
0
40
0
40
0
40
1
40
1
40
1
40
1
41
1
10
220.314342305939
20
-5.75374141618218
30
0
41
1
10
221.709561537292
20
-3.84971999158597
30
0
41
1
10
223.104780768646
20
-1.93178934498491
30
0
41
1
10
224.5
20
3.126E-13
30
0
0
SPLINE
5
136
100
AcDbEntity
8
1
62
256
6
ByLayer
370
13
48
1
60
0
100
AcDbSpline
70
4
71
3
72
8
73
4
40
0
40
0
40
0
40
0
40
1
40
1
40
1
40
1
41
1
10
220.314342305939
20
8.56606080710276
30
0
41
1
10
221.709561537292
20
5.70000189911721
30
0
41
1
10
223.104780768646
20
2.8446233155324
30
0
41
1
10
224.5
20
-4.547E-13
30
0
0
SPLINE
5
137
100
AcDbEntity
8
1
62
256
6
ByLayer
370
13
48
1
60
0
100
AcDbSpline
70
4
71
3
72
8
73
4
40
0
40
0
40
0
40
0
40
1
40
1
40
1
40
1
41
1
10
220.314342305939
20
10.9680481377746
30
0
41
1
10
221.709561537293
20
7.31685558086104
30
0
41
1
10
223.104780768646
20
3.66080749469094
30
0
41
1
10
224.5
20
-5.68E-14
30
0
0
SPLINE
5
138
100
AcDbEntity
8
1
62
256
6
ByLayer
370
13
48
1
60
0
100
AcDbSpline
70
4
71
3
72
8
73
4
40
0
40
0
40
0
40
0
40
1
40
1
40
1
40
1
41
1
10
220.314342305939
20
9.97675671331774
30
0
41
1
10
221.709561537292
20
6.64319098515108
30
0
41
1
10
223.104780768646
20
3.31757630570834
30
0
41
1
10
224.5
20
5.4E-13
30
0
0
SPLINE
5
139
100
AcDbEntity
8
1
62
256
6
ByLayer
370
13
48
1
60
0
100
AcDbSpline
70
4
71
3
72
8
73
4
40
0
40
0
40
0
40
0
40
1
40
1
40
1
40
1
41
1
10
220.314342305939
20
10.9495261108201
30
0
41
1
10
221.709561537292
20
7.29477935178863
30
0
41
1
10
223.104780768646
20
3.64490535709251
30
0
41
1
10
224.5
20
-5.684E-13
30
0
0
SPLINE
5
13A
100
AcDbEntity
8
1
62
256
6
ByLayer
370
13
48
1
60
0
100
AcDbSpline
70
4
71
3
72
8
73
4
40
0
40
0
40
0
40
0
40
1
40
1
40
1
40
1
41
1
10
220.314342305939
20
-3.49465700281724
30
0
41
1
10
221.709561537293
20
-2.31448509450379
30
0
41
1
10
223.104780768646
20
-1.14958926730665
30
0
41
1
10
224.5
20
0
30
0
0
SPLINE
5
13B
100
AcDbEntity
8
1
62
256
6
ByLayer
370
13
48
1
60
0
100
AcDbSpline
70
4
71
3
72
8
73
4
40
0
40
0
40
0
40
0
40
1
40
1
40
1
40
1
41
1
10
220.314342305939
20
-5.70075979106105
30
0
41
1
10
221.709561537293
20
-3.78657169277159
30
0
41
1
10
223.104780768646
20
-1.88630182383557
30
0
41
1
10
224.5
20
0
30
0
0
SPLINE
5
13C
100
AcDbEntity
8
1
62
256
6
ByLayer
370
13
48
1
60
0
100
AcDbSpline
70
4
71
3
72
8
73
4
40
0
40
0
40
0
40
0
40
1
40
1
40
1
40
1
41
1
10
220.314342305939
20
-9.9679980769865
30
0
41
1
10
221.709561537293
20
-6.65333348634888
30
0
41
1
10
223.104780768646
20
-3.33063833125902
30
0
41
1
10
224.5
20
0
30
0
0
SPLINE
5
13D
100
AcDbEntity
8
1
62
256
6
ByLayer
370
13
48
1
60
0
100
AcDbSpline
70
4
71
3
72
8
73
4
40
0
40
0
40
0
40
0
40
1
40
1
40
1
40
1
41
1
10
220.314342305939
20
-8.55431681244357
30
0
41
1
10
221.709561537293
20
-5.7136014453709
30
0
41
1
10
223.104780768646
20
-2.86213749839325
30
0
41
1
10
224.5
20
0
30
0
0
SPLINE
5
13E
100
AcDbEntity
8
1
62
256
6
ByLayer
370
13
48
1
60
0
100
AcDbSpline
70
4
71
3
72
8
73
4
40
0
40
0
40
0
40
0
40
1
40
1
40
1
40
1
41
1
10
220.314342305939
20
7.71515919745303
30
0
41
1
10
221.709561537292
20
5.13154107343783
30
0
41
1
10
223.104780768646
20
2.55979884781087
30
0
41
1
10
224.5
20
-3.979E-13
30
0
0
SPLINE
5
13F
100
AcDbEntity
8
1
62
256
6
ByLayer
370
13
48
1
60
0
100
AcDbSpline
70
4
71
3
72
8
73
4
40
0
40
0
40
0
40
0
40
1
40
1
40
1
40
1
41
1
10
220.314342305939
20
9.32270199065707
30
0
41
1
10
221.709561537292
20
6.20574024128234
30
0
41
1
10
223.104780768646
20
3.09814571666334
30
0
41
1
10
224.5
20
-4.832E-13
30
0
0
SPLINE
5
140
100
AcDbEntity
8
1
62
256
6
ByLayer
370
13
48
1
60
0
100
AcDbSpline
70
4
71
3
72
8
73
4
40
0
40
0
40
0
40
0
40
1
40
1
40
1
40
1
41
1
10
220.314342305939
20
0.0698906568475479
30
0
41
1
10
221.709561537293
20
0.062638496075067
30
0
41
1
10
223.104780768646
20
0.0393413595321022
30
0
41
1
10
224.5
20
0
30
0
0
SPLINE
5
141
100
AcDbEntity
8
1
62
256
6
ByLayer
370
13
48
1
60
0
100
AcDbSpline
70
4
71
3
72
8
73
4
40
0
40
0
40
0
40
0
40
1
40
1
40
1
40
1
41
1
10
220.314342305939
20
-2.32771420400246
30
0
41
1
10
221.709561537293
20
-1.53609656594077
30
0
41
1
10
223.104780768646
20
-0.760185080343291
30
0
41
1
10
224.5
20
0
30
0
0
SPLINE
5
142
100
AcDbEntity
8
1
62
256
6
ByLayer
370
13
48
1
60
0
100
AcDbSpline
70
4
71
3
72
8
73
4
40
0
40
0
40
0
40
0
40
1
40
1
40
1
40
1
41
1
10
220.314342305939
20
-11.2539310092381
30
0
41
1
10
221.709561537293
20
-7.50592208019435
30
0
41
1
10
223.104780768646
20
-3.75457887321696
30
0
41
1
10
224.5
20
0
30
0
0
LINE
5
7D
100
AcDbEntity
8
80
62
256
6
ByLayer
370
18
48
1
60
0
100
AcDbLine
10
0
20
0
30
0
11
-5
21
0
31
0
39
0
210
0
220
0
230
1
0
LINE
5
7E
100
AcDbEntity
8
4
62
256
6
ByLayer
370
18
48
0.05
60
0
100
AcDbLine
10
-5
20
0
30
0
11
229.5
21
0
31
0
39
0
210
0
220
0
230
1
0
LINE
5
80
100
AcDbEntity
8
SK4
62
256
6
ByLayer
370
18
48
0.05
60
0
100
AcDbLine
10
-61
20
0
30
0
11
229.5
21
0
31
0
39
0
210
0
220
0
230
1
0
LINE
5
82
100
AcDbEntity
8
81
62
256
6
ByLayer
370
18
48
1
60
0
100
AcDbLine
10
224.5
20
0
30
0
11
229.5
21
0
31
0
39
0
210
0
220
0
230
1
0
LINE
5
83
100
AcDbEntity
8
1
62
256
6
ByLayer
370
18
48
1
60
0
100
AcDbLine
10
66.684628
20
11.3
30
0
11
10
21
11.3
31
0
39
0
210
0
220
0
230
1
0
LINE
5
84
100
AcDbEntity
8
1
62
256
6
ByLayer
370
18
48
1
60
0
100
AcDbLine
10
113.278628
20
-11.3
30
0
11
165.945452
21
-11.3
31
0
39
0
210
0
220
0
230
1
0
LINE
5
85
100
AcDbEntity
8
1
62
256
6
ByLayer
370
18
48
1
60
0
100
AcDbLine
10
165.945452
20
11.3
30
0
11
113.278628
21
11.3
31
0
39
0
210
0
220
0
230
1
0
LINE
5
86
100
AcDbEntity
8
1
62
256
6
ByLayer
370
18
48
1
60
0
100
AcDbLine
10
10
20
-11.3
30
0
11
66.684628
21
-11.3
31
0
39
0
210
0
220
0
230
1
0
LINE
5
87
100
AcDbEntity
8
1
62
256
6
ByLayer
370
18
48
1
60
0
100
AcDbLine
10
224.5
20
0
30
0
11
220.314342
21
11.5
31
0
39
0
210
0
220
0
230
1
0
LINE
5
88
100
AcDbEntity
8
1
62
256
6
ByLayer
370
18
48
1
60
0
100
AcDbLine
10
220.314342
20
-11.5
30
0
11
224.5
21
0
31
0
39
0
210
0
220
0
230
1
0
LINE
5
89
100
AcDbEntity
8
1
62
256
6
ByLayer
370
18
48
1
60
0
100
AcDbLine
10
10
20
11.3
30
0
11
0
21
12.5
31
0
39
0
210
0
220
0
230
1
0
LINE
5
8A
100
AcDbEntity
8
1
62
256
6
ByLayer
370
18
48
1
60
0
100
AcDbLine
10
0
20
-12.5
30
0
11
10
21
-11.3
31
0
39
0
210
0
220
0
230
1
0
LINE
5
8B
100
AcDbEntity
8
1
62
256
6
ByLayer
370
18
48
1
60
0
100
AcDbLine
10
224.5
20
0
30
0
11
220.314342
21
11.5
31
0
39
0
210
0
220
0
230
1
0
LINE
5
8C
100
AcDbEntity
8
1
62
256
6
ByLayer
370
18
48
1
60
0
100
AcDbLine
10
220.314342
20
-11.5
30
0
11
224.5
21
0
31
0
39
0
210
0
220
0
230
1
0
LINE
5
8D
100
AcDbEntity
8
1
62
256
6
ByLayer
370
18
48
1
60
0
100
AcDbLine
10
220.314342
20
11.5
30
0
11
209.4
21
11.5
31
0
39
0
210
0
220
0
230
1
0
LINE
5
8E
100
AcDbEntity
8
1
62
256
6
ByLayer
370
18
48
1
60
0
100
AcDbLine
10
209.4
20
-11.5
30
0
11
220.314342
21
-11.5
31
0
39
0
210
0
220
0
230
1
0
LINE
5
8F
100
AcDbEntity
8
SK1
62
256
6
ByLayer
370
18
48
1
60
0
100
AcDbLine
10
-56
20
-11.5
30
0
11
-55
21
-12.5
31
0
39
0
210
0
220
0
230
1
0
LINE
5
91
100
AcDbEntity
8
SK1
62
256
6
ByLayer
370
18
48
1
60
0
100
AcDbLine
10
-55
20
12.5
30
0
11
-56
21
11.5
31
0
39
0
210
0
220
0
230
1
0
LINE
5
92
100
AcDbEntity
8
SK1
62
256
6
ByLayer
370
18
48
1
60
0
100
AcDbLine
10
-55
20
-12.5
30
0
11
0
21
-12.5
31
0
39
0
210
0
220
0
230
1
0
LINE
5
93
100
AcDbEntity
8
SK1
62
256
6
ByLayer
370
18
48
1
60
0
100
AcDbLine
10
0
20
12.5
30
0
11
-55
21
12.5
31
0
39
0
210
0
220
0
230
1
0
LINE
5
94
100
AcDbEntity
8
1
62
256
6
ByLayer
370
18
48
1
60
0
100
AcDbLine
10
0
20
12.5
30
0
11
0
21
-12.5
31
0
39
0
210
0
220
0
230
1
0
LINE
5
95
100
AcDbEntity
8
1
62
256
6
ByLayer
370
18
48
1
60
0
100
AcDbLine
10
220.314342
20
11.5
30
0
11
220.314342
21
11.134841
31
0
39
0
210
0
220
0
230
1
0
LINE
5
96
100
AcDbEntity
8
1
62
256
6
ByLayer
370
18
48
1
60
0
100
AcDbLine
10
220.314342
20
-11.5
30
0
11
220.314342
21
-1.641282
31
0
39
0
210
0
220
0
230
1
0
LINE
5
97
100
AcDbEntity
8
1
62
256
6
ByLayer
370
18
48
1
60
0
100
AcDbLine
10
10
20
11.3
30
0
11
10
21
11.275137
31
0
39
0
210
0
220
0
230
1
0
LINE
5
98
100
AcDbEntity
8
1
62
256
6
ByLayer
370
18
48
1
60
0
100
AcDbLine
10
10
20
-11.3
30
0
11
10
21
2.765348
31
0
39
0
210
0
220
0
230
1
0
LINE
5
99
100
AcDbEntity
8
SK1
62
256
6
ByLayer
370
13
48
1
60
0
100
AcDbLine
10
-15.162813
20
-7.237775
30
0
11
-15.162813
21
7.237775
31
0
39
0
210
0
220
0
230
1
0
LINE
5
9A
100
AcDbEntity
8
SK1
62
256
6
ByLayer
370
13
48
1
60
0
100
AcDbLine
10
-51.386002
20
5.000227
30
0
11
-51.386002
21
-5.000227
31
0
39
0
210
0
220
0
230
1
0
LINE
5
9B
100
AcDbEntity
8
SK1
62
256
6
ByLayer
370
18
48
1
60
0
100
AcDbLine
10
-56
20
-11.5
30
0
11
-56
21
11.5
31
0
39
0
210
0
220
0
230
1
0
LINE
5
9C
100
AcDbEntity
8
SK1
62
256
6
ByLayer
370
13
48
1
60
0
100
AcDbLine
10
-52.500329
20
-3.620591
30
0
11
-52.500329
21
3.620591
31
0
39
0
210
0
220
0
230
1
0
LINE
5
9D
100
AcDbEntity
8
SK1
62
256
6
ByLayer
370
18
48
1
60
0
100
AcDbLine
10
-55
20
-12.5
30
0
11
-55
21
12.5
31
0
39
0
210
0
220
0
230
1
0
LINE
5
9E
100
AcDbEntity
8
SK1
62
256
6
ByLayer
370
18
48
1
60
0
100
AcDbLine
10
0
20
12.5
30
0
11
0
21
-12.5
31
0
39
0
210
0
220
0
230
1
0
LINE
5
9F
100
AcDbEntity
8
SK1
62
256
6
ByLayer
370
13
48
1
60
0
100
AcDbLine
10
-14.015776
20
6.592429
30
0
11
-14.015776
21
-6.592429
31
0
39
0
210
0
220
0
230
1
0
LINE
5
A0
100
AcDbEntity
8
1
62
256
6
ByLayer
370
18
48
1
60
0
100
AcDbLine
10
220.314342
20
11.5
30
0
11
220.314342
21
-11.5
31
0
39
0
210
0
220
0
230
1
0
LINE
5
A1
100
AcDbEntity
8
1
62
256
6
ByLayer
370
18
48
1
60
0
100
AcDbLine
10
220.314342
20
11.5
30
0
11
220.314342
21
-11.5
31
0
39
0
210
0
220
0
230
1
0
LINE
5
A2
100
AcDbEntity
8
1
62
256
6
ByLayer
370
18
48
1
60
0
100
AcDbLine
10
220.314342
20
11.5
30
0
11
220.314342
21
-11.5
31
0
39
0
210
0
220
0
230
1
0
LINE
5
A3
100
AcDbEntity
8
1
62
256
6
ByLayer
370
18
48
1
60
0
100
AcDbLine
10
209.4
20
11.5
30
0
11
209.4
21
-11.5
31
0
39
0
210
0
220
0
230
1
0
LINE
5
A4
100
AcDbEntity
8
1
62
256
6
ByLayer
370
18
48
1
60
0
100
AcDbLine
10
209.4
20
11.5
30
0
11
209.4
21
-11.5
31
0
39
0
210
0
220
0
230
1
0
LINE
5
A5
100
AcDbEntity
8
1
62
256
6
ByLayer
370
18
48
1
60
0
100
AcDbLine
10
220.314342
20
11.5
30
0
11
220.314342
21
-11.5
31
0
39
0
210
0
220
0
230
1
0
LINE
5
A6
100
AcDbEntity
8
1
62
256
6
ByLayer
370
18
48
1
60
0
100
AcDbLine
10
209.4
20
11.5
30
0
11
209.4
21
-11.5
31
0
39
0
210
0
220
0
230
1
0
LINE
5
A7
100
AcDbEntity
8
1
62
256
6
ByLayer
370
18
48
1
60
0
100
AcDbLine
10
220.314342
20
11.5
30
0
11
220.314342
21
-11.5
31
0
39
0
210
0
220
0
230
1
0
LINE
5
A8
100
AcDbEntity
8
SK2
62
256
6
ByLayer
370
13
48
1
60
0
100
AcDbLine
10
-62.5
20
-12.5
30
0
11
-62.5
21
41.524569
31
0
39
0
210
0
220
0
230
1
0
LINE
5
AA
100
AcDbEntity
8
SK2
62
256
6
ByLayer
370
13
48
1
60
0
100
AcDbLine
10
-57.5875
20
12.5
30
0
11
-64.5
21
12.5
31
0
39
0
210
0
220
0
230
1
0
LINE
5
AB
100
AcDbEntity
8
SK2
62
256
6
ByLayer
370
13
48
1
60
0
100
AcDbLine
10
-57.5875
20
-12.5
30
0
11
-64.5
21
-12.5
31
0
39
0
210
0
220
0
230
1
0
LINE
5
AC
100
AcDbEntity
8
1
62
256
6
ByLayer
370
18
48
1
60
1
100
AcDbLine
10
-62.5
20
12.5
30
0
11
-62.039216
21
9.000002
31
0
39
0
210
0
220
0
230
1
0
LINE
5
AD
100
AcDbEntity
8
1
62
256
6
ByLayer
370
18
48
1
60
1
100
AcDbLine
10
-62.039216
20
9.000002
30
0
11
-62.960784
21
8.999998
31
0
39
0
210
0
220
0
230
1
0
LINE
5
AE
100
AcDbEntity
8
1
62
256
6
ByLayer
370
18
48
1
60
1
100
AcDbLine
10
-62.960784
20
8.999998
30
0
11
-62.5
21
12.5
31
0
39
0
210
0
220
0
230
1
0
LINE
5
AF
100
AcDbEntity
8
1
62
256
6
ByLayer
370
18
48
1
60
1
100
AcDbLine
10
-62.5
20
-12.5
30
0
11
-62.960784
21
-9.000002
31
0
39
0
210
0
220
0
230
1
0
LINE
5
B0
100
AcDbEntity
8
1
62
256
6
ByLayer
370
18
48
1
60
1
100
AcDbLine
10
-62.960784
20
-9.000002
30
0
11
-62.039216
21
-8.999998
31
0
39
0
210
0
220
0
230
1
0
LINE
5
B1
100
AcDbEntity
8
1
62
256
6
ByLayer
370
18
48
1
60
1
100
AcDbLine
10
-62.039216
20
-8.999998
30
0
11
-62.5
21
-12.5
31
0
39
0
210
0
220
0
230
1
0
LINE
5
B2
100
AcDbEntity
8
2
62
256
6
ByLayer
370
13
48
1
60
0
100
AcDbLine
10
232
20
-11.5
30
0
11
232
21
40.524569
31
0
39
0
210
0
220
0
230
1
0
LINE
5
B4
100
AcDbEntity
8
2
62
256
6
ByLayer
370
13
48
1
60
0
100
AcDbLine
10
221.901842
20
11.5
30
0
11
234
21
11.5
31
0
39
0
210
0
220
0
230
1
0
LINE
5
B5
100
AcDbEntity
8
2
62
256
6
ByLayer
370
13
48
1
60
0
100
AcDbLine
10
221.901842
20
-11.5
30
0
11
234
21
-11.5
31
0
39
0
210
0
220
0
230
1
0
LINE
5
B6
100
AcDbEntity
8
1
62
256
6
ByLayer
370
18
48
1
60
1
100
AcDbLine
10
232
20
11.5
30
0
11
232.460784
21
8.000002
31
0
39
0
210
0
220
0
230
1
0
LINE
5
B7
100
AcDbEntity
8
1
62
256
6
ByLayer
370
18
48
1
60
1
100
AcDbLine
10
232.460784
20
8.000002
30
0
11
231.539216
21
7.999998
31
0
39
0
210
0
220
0
230
1
0
LINE
5
B8
100
AcDbEntity
8
1
62
256
6
ByLayer
370
18
48
1
60
1
100
AcDbLine
10
231.539216
20
7.999998
30
0
11
232
21
11.5
31
0
39
0
210
0
220
0
230
1
0
LINE
5
B9
100
AcDbEntity
8
1
62
256
6
ByLayer
370
18
48
1
60
1
100
AcDbLine
10
232
20
-11.5
30
0
11
231.539216
21
-8.000002
31
0
39
0
210
0
220
0
230
1
0
LINE
5
BA
100
AcDbEntity
8
1
62
256
6
ByLayer
370
18
48
1
60
1
100
AcDbLine
10
231.539216
20
-8.000002
30
0
11
232.460784
21
-7.999998
31
0
39
0
210
0
220
0
230
1
0
LINE
5
BB
100
AcDbEntity
8
1
62
256
6
ByLayer
370
18
48
1
60
1
100
AcDbLine
10
232.460784
20
-7.999998
30
0
11
232
21
-11.5
31
0
39
0
210
0
220
0
230
1
0
LINE
5
BC
100
AcDbEntity
8
SK2
62
256
6
ByLayer
370
13
48
1
60
0
100
AcDbLine
10
225.042957
20
-1.491762
30
0
11
231.682423
21
-19.733545
31
0
39
0
210
0
220
0
230
1
0
LINE
5
BD
100
AcDbEntity
8
SK2
62
256
6
ByLayer
370
13
48
1
60
0
100
AcDbLine
10
225.042957
20
1.491762
30
0
11
231.682423
21
19.733545
31
0
39
0
210
0
220
0
230
1
0
LINE
5
BE
100
AcDbEntity
8
1
62
256
6
ByLayer
370
18
48
1
60
1
100
AcDbLine
10
230.998383
20
-17.85416
30
0
11
234.051575
21
-16.082064
31
0
39
0
210
0
220
0
230
1
0
LINE
5
BF
100
AcDbEntity
8
1
62
256
6
ByLayer
370
18
48
1
60
1
100
AcDbLine
10
234.051575
20
-16.082064
30
0
11
234.406196
21
-16.93267
31
0
39
0
210
0
220
0
230
1
0
LINE
5
C0
100
AcDbEntity
8
1
62
256
6
ByLayer
370
18
48
1
60
1
100
AcDbLine
10
234.406196
20
-16.93267
30
0
11
230.998383
21
-17.85416
31
0
39
0
210
0
220
0
230
1
0
LINE
5
C1
100
AcDbEntity
8
1
62
256
6
ByLayer
370
18
48
1
60
1
100
AcDbLine
10
230.998383
20
17.85416
30
0
11
234.406193
21
16.932671
31
0
39
0
210
0
220
0
230
1
0
LINE
5
C2
100
AcDbEntity
8
1
62
256
6
ByLayer
370
18
48
1
60
1
100
AcDbLine
10
234.406193
20
16.932671
30
0
11
234.051579
21
16.082063
31
0
39
0
210
0
220
0
230
1
0
LINE
5
C3
100
AcDbEntity
8
1
62
256
6
ByLayer
370
18
48
1
60
1
100
AcDbLine
10
234.051579
20
16.082063
30
0
11
230.998383
21
17.85416
31
0
39
0
210
0
220
0
230
1
0
LINE
5
147
100
AcDbEntity
8
1
62
256
6
ByLayer
370
18
48
1
60
1
100
AcDbLine
10
-62.5
20
12.5
30
0
11
-62.039216
21
9.000002
31
0
39
0
210
0
220
0
230
1
0
LINE
5
148
100
AcDbEntity
8
1
62
256
6
ByLayer
370
18
48
1
60
1
100
AcDbLine
10
-62.039216
20
9.000002
30
0
11
-62.960784
21
8.999998
31
0
39
0
210
0
220
0
230
1
0
LINE
5
149
100
AcDbEntity
8
1
62
256
6
ByLayer
370
18
48
1
60
1
100
AcDbLine
10
-62.960784
20
8.999998
30
0
11
-62.5
21
12.5
31
0
39
0
210
0
220
0
230
1
0
LINE
5
14B
100
AcDbEntity
8
1
62
256
6
ByLayer
370
18
48
1
60
1
100
AcDbLine
10
-62.5
20
-12.5
30
0
11
-62.960784
21
-9.000002
31
0
39
0
210
0
220
0
230
1
0
LINE
5
14C
100
AcDbEntity
8
1
62
256
6
ByLayer
370
18
48
1
60
1
100
AcDbLine
10
-62.960784
20
-9.000002
30
0
11
-62.039216
21
-8.999998
31
0
39
0
210
0
220
0
230
1
0
LINE
5
14D
100
AcDbEntity
8
1
62
256
6
ByLayer
370
18
48
1
60
1
100
AcDbLine
10
-62.039216
20
-8.999998
30
0
11
-62.5
21
-12.5
31
0
39
0
210
0
220
0
230
1
0
LINE
5
151
100
AcDbEntity
8
1
62
256
6
ByLayer
370
18
48
1
60
1
100
AcDbLine
10
232
20
11.5
30
0
11
232.460784
21
8.000002
31
0
39
0
210
0
220
0
230
1
0
LINE
5
152
100
AcDbEntity
8
1
62
256
6
ByLayer
370
18
48
1
60
1
100
AcDbLine
10
232.460784
20
8.000002
30
0
11
231.539216
21
7.999998
31
0
39
0
210
0
220
0
230
1
0
LINE
5
153
100
AcDbEntity
8
1
62
256
6
ByLayer
370
18
48
1
60
1
100
AcDbLine
10
231.539216
20
7.999998
30
0
11
232
21
11.5
31
0
39
0
210
0
220
0
230
1
0
LINE
5
155
100
AcDbEntity
8
1
62
256
6
ByLayer
370
18
48
1
60
1
100
AcDbLine
10
232
20
-11.5
30
0
11
231.539216
21
-8.000002
31
0
39
0
210
0
220
0
230
1
0
LINE
5
156
100
AcDbEntity
8
1
62
256
6
ByLayer
370
18
48
1
60
1
100
AcDbLine
10
231.539216
20
-8.000002
30
0
11
232.460784
21
-7.999998
31
0
39
0
210
0
220
0
230
1
0
LINE
5
157
100
AcDbEntity
8
1
62
256
6
ByLayer
370
18
48
1
60
1
100
AcDbLine
10
232.460784
20
-7.999998
30
0
11
232
21
-11.5
31
0
39
0
210
0
220
0
230
1
0
LINE
5
15A
100
AcDbEntity
8
1
62
256
6
ByLayer
370
18
48
1
60
1
100
AcDbLine
10
230.998383
20
-17.85416
30
0
11
234.051575
21
-16.082064
31
0
39
0
210
0
220
0
230
1
0
LINE
5
15B
100
AcDbEntity
8
1
62
256
6
ByLayer
370
18
48
1
60
1
100
AcDbLine
10
234.051575
20
-16.082064
30
0
11
234.406196
21
-16.93267
31
0
39
0
210
0
220
0
230
1
0
LINE
5
15C
100
AcDbEntity
8
1
62
256
6
ByLayer
370
18
48
1
60
1
100
AcDbLine
10
234.406196
20
-16.93267
30
0
11
230.998383
21
-17.85416
31
0
39
0
210
0
220
0
230
1
0
LINE
5
15E
100
AcDbEntity
8
1
62
256
6
ByLayer
370
18
48
1
60
1
100
AcDbLine
10
230.998383
20
17.85416
30
0
11
234.406193
21
16.932671
31
0
39
0
210
0
220
0
230
1
0
LINE
5
15F
100
AcDbEntity
8
1
62
256
6
ByLayer
370
18
48
1
60
1
100
AcDbLine
10
234.406193
20
16.932671
30
0
11
234.051579
21
16.082063
31
0
39
0
210
0
220
0
230
1
0
LINE
5
160
100
AcDbEntity
8
1
62
256
6
ByLayer
370
18
48
1
60
1
100
AcDbLine
10
234.051579
20
16.082063
30
0
11
230.998383
21
17.85416
31
0
39
0
210
0
220
0
230
1
0
MTEXT
5
143
100
AcDbEntity
8
SK2
62
256
6
ByLayer
370
18
48
1
60
0
100
AcDbMText
10
-63.841114
20
24.158438
30
0
210
0
220
0
230
1
1
%%c
40
3
41
0
44
1.084337
50
90
71
7
72
5
7
iso_b_vert
0
MTEXT
5
146
100
AcDbEntity
8
SK2
62
256
6
ByLayer
370
18
48
1
60
0
100
AcDbMText
10
-63.841114
20
30.135
30
0
210
0
220
0
230
1
1
\W0.7513;25.000
40
3
41
0
44
1.084337
50
90
71
7
72
5
7
iso_b_vert
0
MTEXT
5
14F
100
AcDbEntity
8
2
62
256
6
ByLayer
370
18
48
1
60
0
100
AcDbMText
10
230.658886
20
23.158438
30
0
210
0
220
0
230
1
1
%%c
40
3
41
0
44
1.084337
50
90
71
7
72
5
7
iso_b_vert
0
MTEXT
5
150
100
AcDbEntity
8
2
62
256
6
ByLayer
370
18
48
1
60
0
100
AcDbMText
10
230.658886
20
29.135
30
0
210
0
220
0
230
1
1
\W0.7513;23.000
40
3
41
0
44
1.084337
50
90
71
7
72
5
7
iso_b_vert
0
MTEXT
5
159
100
AcDbEntity
8
SK2
62
256
6
ByLayer
370
18
48
1
60
0
100
AcDbMText
10
244.409114
20
3.734657
30
0
210
0
220
0
230
1
1
\W0.7071;140%%d
40
3
41
0
44
1.084337
50
270
71
7
72
5
7
iso_b_vert
0
MTEXT
5
162
100
AcDbEntity
8
SK6
62
256
6
ByLayer
370
18
48
1
60
0
100
AcDbMText
10
59.96286
20
-67.114886
30
0
210
0
220
0
230
1
1
\W0.7680;H85823.0
40
3
41
0
44
1.084337
50
0
71
7
72
5
7
iso_b_vert
0
HATCH
5
14A
100
AcDbEntity
8
SK2
62
256
6
ByLayer
370
13
48
1
60
0
100
AcDbHatch
10
0
20
0
30
0
210
0
220
0
230
1
2
ANSI31
70
0
71
0
91
1
92
5
93
3
72
1
10
-62.5
20
12.5
11
-62.0392162584472
21
9.00000169255318
72
1
10
-62.0392162584472
20
9.00000169255318
11
-62.9607837415528
21
8.99999830744682
72
1
10
-62.9607837415528
20
8.99999830744682
11
-62.5
21
12.5
97
0
75
0
76
1
52
0
41
0.0062
77
0
78
1
53
45
43
0
44
0
45
-0.0139193969876572
46
0.0139193969876572
79
0
47
0
98
1
10
0
20
0
0
HATCH
5
14E
100
AcDbEntity
8
SK2
62
256
6
ByLayer
370
13
48
1
60
0
100
AcDbHatch
10
0
20
0
30
0
210
0
220
0
230
1
2
ANSI31
70
0
71
0
91
1
92
5
93
3
72
1
10
-62.5
20
-12.5
11
-62.9607837415528
21
-9.00000169255318
72
1
10
-62.9607837415528
20
-9.00000169255318
11
-62.0392162584472
21
-8.99999830744682
72
1
10
-62.0392162584472
20
-8.99999830744682
11
-62.5
21
-12.5
97
0
75
0
76
1
52
0
41
0.0062
77
0
78
1
53
45
43
0
44
0
45
-0.0139193969876572
46
0.0139193969876572
79
0
47
0
98
1
10
0
20
0
0
HATCH
5
154
100
AcDbEntity
8
2
62
256
6
ByLayer
370
13
48
1
60
0
100
AcDbHatch
10
0
20
0
30
0
210
0
220
0
230
1
2
ANSI31
70
0
71
0
91
1
92
5
93
3
72
1
10
232
20
11.5
11
232.460783741553
21
8.00000169255318
72
1
10
232.460783741553
20
8.00000169255318
11
231.539216258447
21
7.99999830744682
72
1
10
231.539216258447
20
7.99999830744682
11
232
21
11.5
97
0
75
0
76
1
52
0
41
0.0062
77
0
78
1
53
45
43
0
44
0
45
-0.0139193969876572
46
0.0139193969876572
79
0
47
0
98
1
10
0
20
0
0
HATCH
5
158
100
AcDbEntity
8
2
62
256
6
ByLayer
370
13
48
1
60
0
100
AcDbHatch
10
0
20
0
30
0
210
0
220
0
230
1
2
ANSI31
70
0
71
0
91
1
92
5
93
3
72
1
10
232
20
-11.5
11
231.539216258447
21
-8.00000169255318
72
1
10
231.539216258447
20
-8.00000169255318
11
232.460783741553
21
-7.99999830744682
72
1
10
232.460783741553
20
-7.99999830744682
11
232
21
-11.5
97
0
75
0
76
1
52
0
41
0.0062
77
0
78
1
53
45
43
0
44
0
45
-0.0139193969876572
46
0.0139193969876572
79
0
47
0
98
1
10
0
20
0
0
HATCH
5
15D
100
AcDbEntity
8
SK2
62
256
6
ByLayer
370
13
48
1
60
0
100
AcDbHatch
10
0
20
0
30
0
210
0
220
0
230
1
2
ANSI31
70
0
71
0
91
1
92
5
93
3
72
1
10
230.998382723188
20
-17.8541597949323
11
234.051575425693
21
-16.0820638240608
72
1
10
234.051575425693
20
-16.0820638240608
11
234.406195833975
21
-16.9326700737196
72
1
10
234.406195833975
20
-16.9326700737196
11
230.998382723188
21
-17.8541597949323
97
0
75
0
76
1
52
0
41
0.0062
77
0
78
1
53
45
43
0
44
0
45
-0.0139193969876572
46
0.0139193969876572
79
0
47
0
98
1
10
0
20
0
0
HATCH
5
161
100
AcDbEntity
8
SK2
62
256
6
ByLayer
370
13
48
1
60
0
100
AcDbHatch
10
0
20
0
30
0
210
0
220
0
230
1
2
ANSI31
70
0
71
0
91
1
92
5
93
3
72
1
10
230.998382723188
20
17.8541597949323
11
234.406192709519
21
16.9326713763016
72
1
10
234.406192709519
20
16.9326713763016
11
234.051578550149
21
16.0820625214788
72
1
10
234.051578550149
20
16.0820625214788
11
230.998382723188
21
17.8541597949323
97
0
75
0
76
1
52
0
41
0.0062
77
0
78
1
53
45
43
0
44
0
45
-0.0139193969876572
46
0.0139193969876572
79
0
47
0
98
1
10
0
20
0
0
DIMENSION
5
165
100
AcDbEntity
8
SK2
62
256
6
ByLayer
370
18
48
1
60
0
100
AcDbDimension
2
_U0
10
224.5
20
-46.705169
30
0
11
84.25
21
-46.705169
31
0
70
32
71
1
72
1
41
1
210
0
220
0
230
1
3
Standard
100
AcDbAlignedDimension
13
-56
23
-12.5
33
0
14
224.5
24
0
34
0
50
0
100
AcDbRotatedDimension
1001
ACAD
1000
DSTYLE
1002
{
1070
   371
1070
    13
1070
   372
1070
    13
1070
     3
1000

1070
   170
1070
     0
1070
   144
1040
1.0
1070
   277
1070
     2
1070
   284
1070
     8
1070
   278
1070
    46
1070
   146
1040
1.166667
1070
   345
1005
16
1070
   347
1005
16
1070
   346
1005
16
1070
   344
1005
0
1070
   343
1005
0
1070
   172
1070
     1
1070
    76
1070
     0
1070
    75
1070
     0
1070
   282
1070
     0
1070
   281
1070
     0
1070
    71
1070
     0
1070
    74
1070
     0
1070
   279
1070
     0
1070
   173
1070
     1
1070
   340
1005
144
1070
   271
1070
     2
1070
   272
1070
     3
1070
    77
1070
     1
1070
    73
1070
     1
1070
   171
1070
     3
1070
   274
1070
     4
1070
   177
1070
     2
1070
   176
1070
     2
1070
   178
1070
     2
1070
    78
1070
     8
1070
    48
1040
-0.1
1070
    41
1040
3.5
1070
   147
1040
1.5
1070
    42
1040
1.5875
1070
    44
1040
2.0
1070
   140
1040
3.0
1002
}
1001
ACAD_DSTYLE_DIM_LINETYPE
1070
   380
1005
16
1001
ACAD_DSTYLE_DIM_EXT1_LINETYPE
1070
   381
1005
16
1001
ACAD_DSTYLE_DIM_EXT2_LINETYPE
1070
   382
1005
16
0
DIMENSION
5
17E
100
AcDbEntity
8
SK2
62
256
6
ByLayer
370
18
48
1
60
0
100
AcDbDimension
2
_U1
10
3
20
-36.705169
30
0
11
113.75
21
-36.705169
31
0
70
32
71
1
72
1
41
1
210
0
220
0
230
1
3
Standard
100
AcDbAlignedDimension
13
224.5
23
0
33
0
14
3
24
-11.5
34
0
50
0
100
AcDbRotatedDimension
1001
ACAD
1000
DSTYLE
1002
{
1070
   371
1070
    13
1070
   372
1070
    13
1070
     3
1000

1070
   170
1070
     0
1070
   144
1040
1.0
1070
   277
1070
     2
1070
   284
1070
     8
1070
   278
1070
    46
1070
   146
1040
1.166667
1070
   345
1005
16
1070
   347
1005
16
1070
   346
1005
16
1070
   344
1005
0
1070
   343
1005
0
1070
   172
1070
     1
1070
    76
1070
     0
1070
    75
1070
     0
1070
   282
1070
     0
1070
   281
1070
     0
1070
    71
1070
     0
1070
    74
1070
     0
1070
   279
1070
     0
1070
   173
1070
     1
1070
   340
1005
144
1070
   271
1070
     2
1070
   272
1070
     3
1070
    77
1070
     1
1070
    73
1070
     1
1070
   171
1070
     3
1070
   274
1070
     4
1070
   177
1070
     2
1070
   176
1070
     2
1070
   178
1070
     2
1070
    78
1070
     8
1070
    48
1040
-0.1
1070
    41
1040
3.5
1070
   147
1040
1.5
1070
    42
1040
1.5875
1070
    44
1040
2.0
1070
   140
1040
3.0
1002
}
1001
ACAD_DSTYLE_DIM_LINETYPE
1070
   380
1005
16
1001
ACAD_DSTYLE_DIM_EXT1_LINETYPE
1070
   381
1005
16
1001
ACAD_DSTYLE_DIM_EXT2_LINETYPE
1070
   382
1005
16
0
DIMENSION
5
196
100
AcDbEntity
8
SK2
62
256
6
ByLayer
370
18
48
1
60
0
100
AcDbDimension
2
_U2
10
0
20
-36.705169
30
0
11
-28
21
-36.705169
31
0
70
32
71
1
72
1
41
1
210
0
220
0
230
1
3
Standard
100
AcDbAlignedDimension
13
-56
23
-12.5
33
0
14
0
24
-12.5
34
0
50
0
100
AcDbRotatedDimension
1001
ACAD
1000
DSTYLE
1002
{
1070
   371
1070
    13
1070
   372
1070
    13
1070
     3
1000

1070
   170
1070
     0
1070
   144
1040
1.0
1070
   277
1070
     2
1070
   284
1070
     8
1070
   278
1070
    46
1070
   146
1040
1.166667
1070
   345
1005
16
1070
   347
1005
16
1070
   346
1005
16
1070
   344
1005
0
1070
   343
1005
0
1070
   172
1070
     1
1070
    76
1070
     0
1070
    75
1070
     0
1070
   282
1070
     0
1070
   281
1070
     0
1070
    71
1070
     0
1070
    74
1070
     0
1070
   279
1070
     0
1070
   173
1070
     1
1070
   340
1005
144
1070
   271
1070
     2
1070
   272
1070
     3
1070
    77
1070
     1
1070
    73
1070
     1
1070
   171
1070
     3
1070
   274
1070
     4
1070
   177
1070
     2
1070
   176
1070
     2
1070
   178
1070
     2
1070
    78
1070
     8
1070
    48
1040
-0.1
1070
    41
1040
3.5
1070
   147
1040
1.5
1070
    42
1040
1.5875
1070
    44
1040
2.0
1070
   140
1040
3.0
1002
}
1001
ACAD_DSTYLE_DIM_LINETYPE
1070
   380
1005
16
1001
ACAD_DSTYLE_DIM_EXT1_LINETYPE
1070
   381
1005
16
1001
ACAD_DSTYLE_DIM_EXT2_LINETYPE
1070
   382
1005
16
0
DIMENSION
5
1AE
100
AcDbEntity
8
SK2
62
256
6
ByLayer
370
18
48
1
60
0
100
AcDbDimension
2
_U3
10
24
20
33.705169
30
0
11
124.25
21
33.705169
31
0
70
32
71
1
72
1
41
1
210
0
220
0
230
1
3
Standard
100
AcDbAlignedDimension
13
224.5
23
0
33
0
14
24
24
11.5
34
0
50
0
100
AcDbRotatedDimension
1001
ACAD
1000
DSTYLE
1002
{
1070
   371
1070
    13
1070
   372
1070
    13
1070
     3
1000

1070
   170
1070
     0
1070
   144
1040
1.0
1070
   277
1070
     2
1070
   284
1070
     8
1070
   278
1070
    46
1070
   146
1040
1.166667
1070
   345
1005
16
1070
   347
1005
16
1070
   346
1005
16
1070
   344
1005
0
1070
   343
1005
0
1070
   172
1070
     1
1070
    76
1070
     0
1070
    75
1070
     0
1070
   282
1070
     0
1070
   281
1070
     0
1070
    71
1070
     0
1070
    74
1070
     0
1070
   279
1070
     0
1070
   173
1070
     1
1070
   340
1005
144
1070
   271
1070
     2
1070
   272
1070
     3
1070
    77
1070
     1
1070
    73
1070
     1
1070
   171
1070
     3
1070
   274
1070
     4
1070
   177
1070
     2
1070
   176
1070
     2
1070
   178
1070
     2
1070
    78
1070
     8
1070
    48
1040
-0.1
1070
    41
1040
3.5
1070
   147
1040
1.5
1070
    42
1040
1.5875
1070
    44
1040
2.0
1070
   140
1040
3.0
1002
}
1001
ACAD_DSTYLE_DIM_LINETYPE
1070
   380
1005
16
1001
ACAD_DSTYLE_DIM_EXT1_LINETYPE
1070
   381
1005
16
1001
ACAD_DSTYLE_DIM_EXT2_LINETYPE
1070
   382
1005
16
0
ENDSEC
0
SECTION
2
OBJECTS
0
DICTIONARY
5
236
330
0
100
AcDbDictionary
280
0
281
1
3
ACAD_GROUP
350
237
3
ACAD_MLINESTYLE
350
238
0
DICTIONARY
5
237
330
0
100
AcDbDictionary
280
0
281
1
0
DICTIONARY
5
238
330
0
100
AcDbDictionary
280
0
281
1
3
Standard
350
18
0
MLINESTYLE
5
18
330
238
100
AcDbMlineStyle
2
Standard
70
0
3

62
256
51
90
52
90
71
2
49
-0.5
62
256
6
ByLayer
49
0.5
62
256
6
ByLayer
0
RASTERVARIABLES
5
224
330

100
AcDbRasterVariables
90
0
70
1
71
1
72
1
0
ENDSEC
0
EOF
