0
SECTION
2
HEADER
9
$ACADVER
1
AC1015
9
$DWGCODEPAGE
3
ANSI_1252
9
$HANDSEED
5
22c
9
$ANGBASE
50
0
9
$ANGDIR
70
0
9
$ATTMODE
70
1
9
$AUNITS
70
0
9
$AUPREC
70
0
9
$CECOLOR
62
256
9
$CELTSCALE
40
1
9
$CELTYPE
6
ByLayer
9
$CELWEIGHT
370
18
9
$CLAYER
8
0
9
$CMLJUST
70
0
9
$CMLSCALE
40
1
9
$CMLSTYLE
2
Standard
9
$DIMSTYLE
2
Standard
9
$TEXTSIZE
40
0.2
9
$TEXTSTYLE
7
Standard
9
$LUNITS
70
2
9
$LUPREC
70
4
9
$EXTNAMES
290
1
9
$INSUNITS
70
4
9
$LTSCALE
40
1
9
$LWDISPLAY
290
1
9
$PDMODE
70
0
9
$PDSIZE
40
0
9
$PLINEGEN
70
0
0
ENDSEC
0
SECTION
2
CLASSES
0
CLASS
1
RASTERVARIABLES
2
AcDbRasterVariables
3
ISM
90
0
280
0
281
0
0
ENDSEC
0
SECTION
2
TABLES
0
TABLE
2
VPORT
5
222
100
AcDbSymbolTable
0
VPORT
5
1
100
AcDbSymbolTableRecord
100
AcDbViewportTableRecord
2
*Active
70
0
10
0
20
0
11
1
21
1
12
-1
22
1
13
0
23
0
14
0.5
24
0.5
15
10
25
10
16
0
26
0
36
1
17
0
27
0
37
0
0
ENDTAB
0
TABLE
2
LTYPE
5
223
100
AcDbSymbolTable
0
LTYPE
5
14
100
AcDbSymbolTableRecord
100
AcDbLinetypeTableRecord
70
0
2
ByBlock
3

72
65
73
0
40
0
0
LTYPE
5
15
100
AcDbSymbolTableRecord
100
AcDbLinetypeTableRecord
70
0
2
ByLayer
3

72
65
73
0
40
0
0
LTYPE
5
16
100
AcDbSymbolTableRecord
100
AcDbLinetypeTableRecord
70
0
2
Continuous
3
Solid line
72
65
73
0
40
0
0
LTYPE
5
6E
100
AcDbSymbolTableRecord
100
AcDbLinetypeTableRecord
70
0
2
CENTER
3
____ _ ____ _ ____ _ ____
72
65
73
4
40
47.5
49
22
74
0
49
-8.5
74
0
49
8.5
74
0
49
-8.5
74
0
0
LTYPE
5
6F
100
AcDbSymbolTableRecord
100
AcDbLinetypeTableRecord
70
0
2
DASHED
3
__ __ __ __ __ __ __ __ __
72
65
73
2
40
25.72
49
12.86
74
0
49
-12.86
74
0
0
ENDTAB
0
TABLE
2
LAYER
5
224
100
AcDbSymbolTable
0
LAYER
5
10
100
AcDbSymbolTableRecord
100
AcDbLayerTableRecord
2
0
70
0
62
7
6
Continuous
290
1
370
-3
390
0
0
LAYER
5
71
100
AcDbSymbolTableRecord
100
AcDbLayerTableRecord
2
80
70
0
62
-6
6
Continuous
290
1
370
-3
390
0
0
LAYER
5
73
100
AcDbSymbolTableRecord
100
AcDbLayerTableRecord
2
81
70
0
62
-3
6
Continuous
290
1
370
-3
390
0
0
LAYER
5
75
100
AcDbSymbolTableRecord
100
AcDbLayerTableRecord
2
1
70
0
62
4
6
Continuous
290
1
370
-3
390
0
0
LAYER
5
7E
100
AcDbSymbolTableRecord
100
AcDbLayerTableRecord
2
4
70
0
62
-2
6
CENTER
290
1
370
-3
390
0
0
LAYER
5
B1
100
AcDbSymbolTableRecord
100
AcDbLayerTableRecord
2
2
70
0
62
7
6
Continuous
290
1
370
-3
390
0
0
LAYER
5
151
100
AcDbSymbolTableRecord
100
AcDbLayerTableRecord
2
Defpoints
70
0
62
7
6
Continuous
290
0
370
-3
390
0
0
LAYER
5
20e
100
AcDbSymbolTableRecord
100
AcDbLayerTableRecord
2
SK4
70
0
62
2
6
CENTER
290
1
370
-3
390
0
0
LAYER
5
20f
100
AcDbSymbolTableRecord
100
AcDbLayerTableRecord
2
SK1
70
0
62
4
6
Continuous
290
1
370
-3
390
0
0
LAYER
5
210
100
AcDbSymbolTableRecord
100
AcDbLayerTableRecord
2
SK2
70
0
62
7
6
Continuous
290
1
370
-3
390
0
0
LAYER
5
211
100
AcDbSymbolTableRecord
100
AcDbLayerTableRecord
2
SK6
70
0
62
5
6
Continuous
290
1
370
-3
390
0
0
ENDTAB
0
TABLE
2
STYLE
5
225
100
AcDbSymbolTable
0
STYLE
5
11
100
AcDbSymbolTableRecord
100
AcDbTextStyleTableRecord
2
Standard
3
txt
70
0
71
0
40
0
41
1
42
0
50
0
0
STYLE
5
12D
100
AcDbSymbolTableRecord
100
AcDbTextStyleTableRecord
2
iso_b_vert
3
simplex.shx
70
0
71
0
40
0
41
1
42
0
50
0
0
STYLE
5
12E
100
AcDbSymbolTableRecord
100
AcDbTextStyleTableRecord
2
DWGDirectTextStyle
3
simplex
70
0
71
0
40
0
41
1
42
0
50
0
0
ENDTAB
0
TABLE
2
DIMSTYLE
5
226
100
AcDbSymbolTable
100
AcDbDimStyleTable
0
DIMSTYLE
105
27
100
AcDbSymbolTableRecord
100
AcDbDimStyleTableRecord
2
Standard
70
0
3
<>
41
0.18
42
0.0625
44
0.18
140
0.18
147
0.09
73
0
74
0
77
1
271
2
275
0
278
52
280
0
340
11
0
ENDTAB
0
TABLE
2
VIEW
5
227
100
AcDbSymbolTable
0
ENDTAB
0
TABLE
2
UCS
5
228
100
AcDbSymbolTable
0
ENDTAB
0
TABLE
2
APPID
5
229
100
AcDbSymbolTable
0
APPID
5
12
100
AcDbSymbolTableRecord
100
AcDbRegAppTableRecord
2
ACAD
70
0
0
APPID
5
14D
100
AcDbSymbolTableRecord
100
AcDbRegAppTableRecord
2
ACAD_DSTYLE_DIMBREAK
70
0
0
APPID
5
1CD
100
AcDbSymbolTableRecord
100
AcDbRegAppTableRecord
2
ACAD_DSTYLE_DIM_LINETYPE
70
0
0
APPID
5
1CE
100
AcDbSymbolTableRecord
100
AcDbRegAppTableRecord
2
ACAD_DSTYLE_DIM_EXT1_LINETYPE
70
0
0
APPID
5
1CF
100
AcDbSymbolTableRecord
100
AcDbRegAppTableRecord
2
ACAD_DSTYLE_DIM_EXT2_LINETYPE
70
0
0
APPID
5
20A
100
AcDbSymbolTableRecord
100
AcDbRegAppTableRecord
2
ACAD_MLEADERVER
70
0
0
ENDTAB
0
TABLE
2
BLOCK_RECORD
5
22a
100
AcDbSymbolTable
0
BLOCK_RECORD
5
1F
100
AcDbSymbolTableRecord
100
AcDbBlockTableRecord
2
*Model_Space
340
0
70
0
0
BLOCK_RECORD
5
1B
100
AcDbSymbolTableRecord
100
AcDbBlockTableRecord
2
*Paper_Space
340
0
70
0
0
BLOCK_RECORD
5
23
100
AcDbSymbolTableRecord
100
AcDbBlockTableRecord
2
*Paper_Space0
340
0
70
0
0
BLOCK_RECORD
5
152
100
AcDbSymbolTableRecord
100
AcDbBlockTableRecord
2
*D1
340
0
70
0
0
BLOCK_RECORD
5
15E
100
AcDbSymbolTableRecord
100
AcDbBlockTableRecord
2
_U0
340
0
70
0
0
BLOCK_RECORD
5
16A
100
AcDbSymbolTableRecord
100
AcDbBlockTableRecord
2
*D3
340
0
70
0
0
BLOCK_RECORD
5
176
100
AcDbSymbolTableRecord
100
AcDbBlockTableRecord
2
_U1
340
0
70
0
0
BLOCK_RECORD
5
182
100
AcDbSymbolTableRecord
100
AcDbBlockTableRecord
2
*D5
340
0
70
0
0
BLOCK_RECORD
5
18E
100
AcDbSymbolTableRecord
100
AcDbBlockTableRecord
2
_U2
340
0
70
0
0
BLOCK_RECORD
5
19A
100
AcDbSymbolTableRecord
100
AcDbBlockTableRecord
2
*D7
340
0
70
0
0
BLOCK_RECORD
5
1A6
100
AcDbSymbolTableRecord
100
AcDbBlockTableRecord
2
_U3
340
0
70
0
0
ENDTAB
0
ENDSEC
0
SECTION
2
BLOCKS
0
BLOCK
5
20
100
AcDbEntity
8
0
100
AcDbBlockBegin
2
*Model_Space
70
0
10
0
20
0
30
0
3
*Model_Space
0
ENDBLK
5
21
100
AcDbEntity
8
0
100
AcDbBlockEnd
0
BLOCK
5
1C
100
AcDbEntity
8
0
100
AcDbBlockBegin
2
*Paper_Space
70
0
10
0
20
0
30
0
3
*Paper_Space
0
ENDBLK
5
1D
100
AcDbEntity
8
0
100
AcDbBlockEnd
0
BLOCK
5
24
100
AcDbEntity
8
0
100
AcDbBlockBegin
2
*Paper_Space0
70
0
10
0
20
0
30
0
3
*Paper_Space0
0
ENDBLK
5
25
100
AcDbEntity
8
0
100
AcDbBlockEnd
0
BLOCK
5
153
100
AcDbEntity
8
0
100
AcDbBlockBegin
2
*D1
70
1
10
0
20
0
30
0
3
*D1
0
LINE
5
155
100
AcDbEntity
8
0
62
256
6
ByLayer
370
-2
48
1
60
0
100
AcDbLine
10
-50
20
-11.5875
30
0
11
-50
21
-48.633367
31
0
39
0
210
0
220
0
230
1
0
LINE
5
156
100
AcDbEntity
8
0
62
256
6
ByLayer
370
-2
48
1
60
0
100
AcDbLine
10
171.5
20
-1.5875
30
0
11
171.5
21
-48.633367
31
0
39
0
210
0
220
0
230
1
0
LINE
5
157
100
AcDbEntity
8
0
62
256
6
ByLayer
370
-2
48
1
60
0
100
AcDbLine
10
-46.5
20
-46.633367
30
0
11
168
21
-46.633367
31
0
39
0
210
0
220
0
230
1
0
SOLID
5
158
100
AcDbEntity
8
0
62
256
6
ByLayer
370
-1
48
1
60
0
100
AcDbTrace
10
-46.5
20
-46.050034
30
0
11
-46.5
21
-47.2167
31
0
12
-50
22
-46.633367
32
0
13
-50
23
-46.633367
33
0
39
0
210
0
220
0
230
1
0
SOLID
5
159
100
AcDbEntity
8
0
62
256
6
ByLayer
370
-1
48
1
60
0
100
AcDbTrace
10
168
20
-47.2167
30
0
11
168
21
-46.050034
31
0
12
171.5
22
-46.633367
32
0
13
171.5
23
-46.633367
33
0
39
0
210
0
220
0
230
1
0
MTEXT
5
15A
100
AcDbEntity
8
0
62
256
6
ByLayer
370
18
48
1
60
0
100
AcDbMText
10
60.75
20
-40.633367
30
0
210
0
220
0
230
1
1
\A1;221.5
40
3
41
0
44
1
50
0
71
5
72
5
7
iso_b_vert
0
POINT
5
15B
100
AcDbEntity
8
Defpoints
62
0
6
ByLayer
370
-1
48
1
60
0
100
AcDbPoint
10
-50
20
-10
30
0
39
0
210
0
220
0
230
1
50
360
0
POINT
5
15C
100
AcDbEntity
8
Defpoints
62
0
6
ByLayer
370
-1
48
1
60
0
100
AcDbPoint
10
171.5
20
0
30
0
39
0
210
0
220
0
230
1
50
360
0
POINT
5
15D
100
AcDbEntity
8
Defpoints
62
0
6
ByLayer
370
-1
48
1
60
0
100
AcDbPoint
10
171.5
20
-46.633367
30
0
39
0
210
0
220
0
230
1
50
360
0
ENDBLK
5
154
100
AcDbEntity
8
0
100
AcDbBlockEnd
0
BLOCK
5
165
100
AcDbEntity
8
0
100
AcDbBlockBegin
2
_U0
70
0
10
0
20
0
30
0
3
_U0
0
MTEXT
5
15F
100
AcDbEntity
8
SK2
62
256
6
ByLayer
370
18
48
1
60
0
100
AcDbMText
10
55.521658
20
-45.748252
30
0
210
0
220
0
230
1
1
\W0.7022;221.50
40
3
41
0
44
1.084337
50
0
71
7
72
5
7
iso_b_vert
0
LINE
5
160
100
AcDbEntity
8
SK2
62
256
6
ByLayer
370
13
48
1
60
0
100
AcDbLine
10
-50
20
-11.5875
30
0
11
-50
21
-48.633367
31
0
39
0
210
0
220
0
230
1
0
LINE
5
161
100
AcDbEntity
8
SK2
62
256
6
ByLayer
370
13
48
1
60
0
100
AcDbLine
10
171.5
20
-1.5875
30
0
11
171.5
21
-48.633367
31
0
39
0
210
0
220
0
230
1
0
LINE
5
162
100
AcDbEntity
8
SK2
62
256
6
ByLayer
370
13
48
1
60
0
100
AcDbLine
10
-50
20
-46.633367
30
0
11
171.5
21
-46.633367
31
0
39
0
210
0
220
0
230
1
0
SOLID
5
163
100
AcDbEntity
8
SK2
62
256
6
ByLayer
370
18
48
1
60
0
100
AcDbTrace
10
-50
20
-46.633367
30
0
11
-46.500002
21
-46.172583
31
0
12
-46.499998
22
-47.094151
32
0
13
-46.499998
23
-47.094151
33
0
39
0
210
0
220
0
230
1
0
SOLID
5
164
100
AcDbEntity
8
SK2
62
256
6
ByLayer
370
18
48
1
60
0
100
AcDbTrace
10
171.5
20
-46.633367
30
0
11
168.000002
21
-47.094151
31
0
12
167.999998
22
-46.172583
32
0
13
167.999998
23
-46.172583
33
0
39
0
210
0
220
0
230
1
0
ENDBLK
5
166
100
AcDbEntity
8
0
100
AcDbBlockEnd
0
BLOCK
5
16B
100
AcDbEntity
8
0
100
AcDbBlockBegin
2
*D3
70
1
10
0
20
0
30
0
3
*D3
0
LINE
5
16D
100
AcDbEntity
8
0
62
256
6
ByLayer
370
-2
48
1
60
0
100
AcDbLine
10
171.5
20
-1.5875
30
0
11
171.5
21
-38.633367
31
0
39
0
210
0
220
0
230
1
0
LINE
5
16E
100
AcDbEntity
8
0
62
256
6
ByLayer
370
-2
48
1
60
0
100
AcDbLine
10
3
20
-10.0875
30
0
11
3
21
-38.633367
31
0
39
0
210
0
220
0
230
1
0
LINE
5
16F
100
AcDbEntity
8
0
62
256
6
ByLayer
370
-2
48
1
60
0
100
AcDbLine
10
168
20
-36.633367
30
0
11
6.5
21
-36.633367
31
0
39
0
210
0
220
0
230
1
0
SOLID
5
170
100
AcDbEntity
8
0
62
256
6
ByLayer
370
-1
48
1
60
0
100
AcDbTrace
10
168
20
-37.2167
30
0
11
168
21
-36.050034
31
0
12
171.5
22
-36.633367
32
0
13
171.5
23
-36.633367
33
0
39
0
210
0
220
0
230
1
0
SOLID
5
171
100
AcDbEntity
8
0
62
256
6
ByLayer
370
-1
48
1
60
0
100
AcDbTrace
10
6.5
20
-36.050034
30
0
11
6.5
21
-37.2167
31
0
12
3
22
-36.633367
32
0
13
3
23
-36.633367
33
0
39
0
210
0
220
0
230
1
0
MTEXT
5
172
100
AcDbEntity
8
0
62
256
6
ByLayer
370
18
48
1
60
0
100
AcDbMText
10
87.25
20
-30.633367
30
0
210
0
220
0
230
1
1
\A1;168.5
40
3
41
0
44
1
50
0
71
5
72
5
7
iso_b_vert
0
POINT
5
173
100
AcDbEntity
8
Defpoints
62
0
6
ByLayer
370
-1
48
1
60
0
100
AcDbPoint
10
171.5
20
0
30
0
39
0
210
0
220
0
230
1
50
360
0
POINT
5
174
100
AcDbEntity
8
Defpoints
62
0
6
ByLayer
370
-1
48
1
60
0
100
AcDbPoint
10
3
20
-8.5
30
0
39
0
210
0
220
0
230
1
50
360
0
POINT
5
175
100
AcDbEntity
8
Defpoints
62
0
6
ByLayer
370
-1
48
1
60
0
100
AcDbPoint
10
3
20
-36.633367
30
0
39
0
210
0
220
0
230
1
50
360
0
ENDBLK
5
16C
100
AcDbEntity
8
0
100
AcDbBlockEnd
0
BLOCK
5
17D
100
AcDbEntity
8
0
100
AcDbBlockBegin
2
_U1
70
0
10
0
20
0
30
0
3
_U1
0
MTEXT
5
177
100
AcDbEntity
8
SK2
62
256
6
ByLayer
370
18
48
1
60
0
100
AcDbMText
10
82.021658
20
-35.748252
30
0
210
0
220
0
230
1
1
\W0.7022;168.50
40
3
41
0
44
1.084337
50
0
71
7
72
5
7
iso_b_vert
0
LINE
5
178
100
AcDbEntity
8
SK2
62
256
6
ByLayer
370
13
48
1
60
0
100
AcDbLine
10
171.5
20
-1.5875
30
0
11
171.5
21
-38.633367
31
0
39
0
210
0
220
0
230
1
0
LINE
5
179
100
AcDbEntity
8
SK2
62
256
6
ByLayer
370
13
48
1
60
0
100
AcDbLine
10
3
20
-10.0875
30
0
11
3
21
-38.633367
31
0
39
0
210
0
220
0
230
1
0
LINE
5
17A
100
AcDbEntity
8
SK2
62
256
6
ByLayer
370
13
48
1
60
0
100
AcDbLine
10
171.5
20
-36.633367
30
0
11
3
21
-36.633367
31
0
39
0
210
0
220
0
230
1
0
SOLID
5
17B
100
AcDbEntity
8
SK2
62
256
6
ByLayer
370
18
48
1
60
0
100
AcDbTrace
10
171.5
20
-36.633367
30
0
11
168.000002
21
-37.094151
31
0
12
167.999998
22
-36.172583
32
0
13
167.999998
23
-36.172583
33
0
39
0
210
0
220
0
230
1
0
SOLID
5
17C
100
AcDbEntity
8
SK2
62
256
6
ByLayer
370
18
48
1
60
0
100
AcDbTrace
10
3
20
-36.633367
30
0
11
6.499998
21
-36.172583
31
0
12
6.500002
22
-37.094151
32
0
13
6.500002
23
-37.094151
33
0
39
0
210
0
220
0
230
1
0
ENDBLK
5
17E
100
AcDbEntity
8
0
100
AcDbBlockEnd
0
BLOCK
5
183
100
AcDbEntity
8
0
100
AcDbBlockBegin
2
*D5
70
1
10
0
20
0
30
0
3
*D5
0
LINE
5
185
100
AcDbEntity
8
0
62
256
6
ByLayer
370
-2
48
1
60
0
100
AcDbLine
10
-50
20
-11.5875
30
0
11
-50
21
-38.633367
31
0
39
0
210
0
220
0
230
1
0
LINE
5
186
100
AcDbEntity
8
0
62
256
6
ByLayer
370
-2
48
1
60
0
100
AcDbLine
10
0
20
-11.5875
30
0
11
0
21
-38.633367
31
0
39
0
210
0
220
0
230
1
0
LINE
5
187
100
AcDbEntity
8
0
62
256
6
ByLayer
370
-2
48
1
60
0
100
AcDbLine
10
-46.5
20
-36.633367
30
0
11
-3.5
21
-36.633367
31
0
39
0
210
0
220
0
230
1
0
SOLID
5
188
100
AcDbEntity
8
0
62
256
6
ByLayer
370
-1
48
1
60
0
100
AcDbTrace
10
-46.5
20
-36.050034
30
0
11
-46.5
21
-37.2167
31
0
12
-50
22
-36.633367
32
0
13
-50
23
-36.633367
33
0
39
0
210
0
220
0
230
1
0
SOLID
5
189
100
AcDbEntity
8
0
62
256
6
ByLayer
370
-1
48
1
60
0
100
AcDbTrace
10
-3.5
20
-37.2167
30
0
11
-3.5
21
-36.050034
31
0
12
0
22
-36.633367
32
0
13
0
23
-36.633367
33
0
39
0
210
0
220
0
230
1
0
MTEXT
5
18A
100
AcDbEntity
8
0
62
256
6
ByLayer
370
18
48
1
60
0
100
AcDbMText
10
-25
20
-30.633367
30
0
210
0
220
0
230
1
1
\A1;50
40
3
41
0
44
1
50
0
71
5
72
5
7
iso_b_vert
0
POINT
5
18B
100
AcDbEntity
8
Defpoints
62
0
6
ByLayer
370
-1
48
1
60
0
100
AcDbPoint
10
-50
20
-10
30
0
39
0
210
0
220
0
230
1
50
360
0
POINT
5
18C
100
AcDbEntity
8
Defpoints
62
0
6
ByLayer
370
-1
48
1
60
0
100
AcDbPoint
10
0
20
-10
30
0
39
0
210
0
220
0
230
1
50
360
0
POINT
5
18D
100
AcDbEntity
8
Defpoints
62
0
6
ByLayer
370
-1
48
1
60
0
100
AcDbPoint
10
0
20
-36.633367
30
0
39
0
210
0
220
0
230
1
50
360
0
ENDBLK
5
184
100
AcDbEntity
8
0
100
AcDbBlockEnd
0
BLOCK
5
195
100
AcDbEntity
8
0
100
AcDbBlockBegin
2
_U2
70
0
10
0
20
0
30
0
3
_U2
0
MTEXT
5
18F
100
AcDbEntity
8
SK2
62
256
6
ByLayer
370
18
48
1
60
0
100
AcDbMText
10
-29.48237
20
-35.748252
30
0
210
0
220
0
230
1
1
\W0.7468;50.00
40
3
41
0
44
1.084337
50
0
71
7
72
5
7
iso_b_vert
0
LINE
5
190
100
AcDbEntity
8
SK2
62
256
6
ByLayer
370
13
48
1
60
0
100
AcDbLine
10
-50
20
-11.5875
30
0
11
-50
21
-38.633367
31
0
39
0
210
0
220
0
230
1
0
LINE
5
191
100
AcDbEntity
8
SK2
62
256
6
ByLayer
370
13
48
1
60
0
100
AcDbLine
10
0
20
-11.5875
30
0
11
0
21
-38.633367
31
0
39
0
210
0
220
0
230
1
0
LINE
5
192
100
AcDbEntity
8
SK2
62
256
6
ByLayer
370
13
48
1
60
0
100
AcDbLine
10
-50
20
-36.633367
30
0
11
0
21
-36.633367
31
0
39
0
210
0
220
0
230
1
0
SOLID
5
193
100
AcDbEntity
8
SK2
62
256
6
ByLayer
370
18
48
1
60
0
100
AcDbTrace
10
-50
20
-36.633367
30
0
11
-46.500002
21
-36.172583
31
0
12
-46.499998
22
-37.094151
32
0
13
-46.499998
23
-37.094151
33
0
39
0
210
0
220
0
230
1
0
SOLID
5
194
100
AcDbEntity
8
SK2
62
256
6
ByLayer
370
18
48
1
60
0
100
AcDbTrace
10
0
20
-36.633367
30
0
11
-3.499998
21
-37.094151
31
0
12
-3.500002
22
-36.172583
32
0
13
-3.500002
23
-36.172583
33
0
39
0
210
0
220
0
230
1
0
ENDBLK
5
196
100
AcDbEntity
8
0
100
AcDbBlockEnd
0
BLOCK
5
19B
100
AcDbEntity
8
0
100
AcDbBlockBegin
2
*D7
70
1
10
0
20
0
30
0
3
*D7
0
LINE
5
19D
100
AcDbEntity
8
0
62
256
6
ByLayer
370
-2
48
1
60
0
100
AcDbLine
10
171.5
20
1.5875
30
0
11
171.5
21
35.633367
31
0
39
0
210
0
220
0
230
1
0
LINE
5
19E
100
AcDbEntity
8
0
62
256
6
ByLayer
370
-2
48
1
60
0
100
AcDbLine
10
21
20
10.0875
30
0
11
21
21
35.633367
31
0
39
0
210
0
220
0
230
1
0
LINE
5
19F
100
AcDbEntity
8
0
62
256
6
ByLayer
370
-2
48
1
60
0
100
AcDbLine
10
168
20
33.633367
30
0
11
24.5
21
33.633367
31
0
39
0
210
0
220
0
230
1
0
SOLID
5
1A0
100
AcDbEntity
8
0
62
256
6
ByLayer
370
-1
48
1
60
0
100
AcDbTrace
10
168
20
33.050034
30
0
11
168
21
34.2167
31
0
12
171.5
22
33.633367
32
0
13
171.5
23
33.633367
33
0
39
0
210
0
220
0
230
1
0
SOLID
5
1A1
100
AcDbEntity
8
0
62
256
6
ByLayer
370
-1
48
1
60
0
100
AcDbTrace
10
24.5
20
34.2167
30
0
11
24.5
21
33.050034
31
0
12
21
22
33.633367
32
0
13
21
23
33.633367
33
0
39
0
210
0
220
0
230
1
0
MTEXT
5
1A2
100
AcDbEntity
8
0
62
256
6
ByLayer
370
18
48
1
60
0
100
AcDbMText
10
96.25
20
39.633367
30
0
210
0
220
0
230
1
1
\A1;150.5
40
3
41
0
44
1
50
0
71
5
72
5
7
iso_b_vert
0
POINT
5
1A3
100
AcDbEntity
8
Defpoints
62
0
6
ByLayer
370
-1
48
1
60
0
100
AcDbPoint
10
171.5
20
0
30
0
39
0
210
0
220
0
230
1
50
360
0
POINT
5
1A4
100
AcDbEntity
8
Defpoints
62
0
6
ByLayer
370
-1
48
1
60
0
100
AcDbPoint
10
21
20
8.5
30
0
39
0
210
0
220
0
230
1
50
360
0
POINT
5
1A5
100
AcDbEntity
8
Defpoints
62
0
6
ByLayer
370
-1
48
1
60
0
100
AcDbPoint
10
21
20
33.633367
30
0
39
0
210
0
220
0
230
1
50
360
0
ENDBLK
5
19C
100
AcDbEntity
8
0
100
AcDbBlockEnd
0
BLOCK
5
1AD
100
AcDbEntity
8
0
100
AcDbBlockBegin
2
_U3
70
0
10
0
20
0
30
0
3
_U3
0
MTEXT
5
1A7
100
AcDbEntity
8
SK2
62
256
6
ByLayer
370
18
48
1
60
0
100
AcDbMText
10
91.021658
20
34.518481
30
0
210
0
220
0
230
1
1
\W0.7022;150.50
40
3
41
0
44
1.084337
50
0
71
7
72
5
7
iso_b_vert
0
LINE
5
1A8
100
AcDbEntity
8
SK2
62
256
6
ByLayer
370
13
48
1
60
0
100
AcDbLine
10
171.5
20
1.5875
30
0
11
171.5
21
35.633367
31
0
39
0
210
0
220
0
230
1
0
LINE
5
1A9
100
AcDbEntity
8
SK2
62
256
6
ByLayer
370
13
48
1
60
0
100
AcDbLine
10
21
20
10.0875
30
0
11
21
21
35.633367
31
0
39
0
210
0
220
0
230
1
0
LINE
5
1AA
100
AcDbEntity
8
SK2
62
256
6
ByLayer
370
13
48
1
60
0
100
AcDbLine
10
171.5
20
33.633367
30
0
11
21
21
33.633367
31
0
39
0
210
0
220
0
230
1
0
SOLID
5
1AB
100
AcDbEntity
8
SK2
62
256
6
ByLayer
370
18
48
1
60
0
100
AcDbTrace
10
171.5
20
33.633367
30
0
11
168.000002
21
33.172583
31
0
12
167.999998
22
34.094151
32
0
13
167.999998
23
34.094151
33
0
39
0
210
0
220
0
230
1
0
SOLID
5
1AC
100
AcDbEntity
8
SK2
62
256
6
ByLayer
370
18
48
1
60
0
100
AcDbTrace
10
21
20
33.633367
30
0
11
24.499998
21
34.094151
31
0
12
24.500002
22
33.172583
32
0
13
24.500002
23
33.172583
33
0
39
0
210
0
220
0
230
1
0
ENDBLK
5
1AE
100
AcDbEntity
8
0
100
AcDbBlockEnd
0
ENDSEC
0
SECTION
2
ENTITIES
0
ARC
5
C2
100
AcDbEntity
8
SK2
62
256
6
ByLayer
370
13
48
1
60
0
100
AcDbCircle
39
0
10
171.5
20
0
30
0
40
19
210
0
220
0
230
1
100
AcDbArc
50
290
51
70
0
ELLIPSE
5
C3
100
AcDbEntity
8
SK1
62
256
6
ByLayer
370
18
48
1
60
0
100
AcDbEllipse
10
209.817277
20
0
30
0
11
286.362532830084
21
-3.24477297310427E-13
31
0
210
0
220
0
230
1
40
0.034921
41
2.47357625657654
42
2.64710298745217
0
ELLIPSE
5
C4
100
AcDbEntity
8
SK1
62
256
6
ByLayer
370
18
48
1
60
0
100
AcDbEllipse
10
-22.723687
20
0
30
0
11
10.7236871002449
21
-1.21510065339267E-14
31
0
210
0
220
0
230
1
40
0.932515
41
-0.59537570803654
42
0.595375708036542
0
ELLIPSE
5
C5
100
AcDbEntity
8
SK1
62
256
6
ByLayer
370
18
48
1
60
0
100
AcDbEllipse
10
209.817277
20
0
30
0
11
286.362532824103
21
-3.2447729730365E-13
31
0
210
0
220
0
230
1
40
0.034921
41
-2.64710298745053
42
-2.47357625657208
0
ELLIPSE
5
C6
100
AcDbEntity
8
SK1
62
256
6
ByLayer
370
18
48
1
60
0
100
AcDbEllipse
10
-34.674849
20
0
30
0
11
-1.83690953073338E-15
21
-9.99999999999897
31
0
210
0
220
0
230
1
40
0.932515
41
-1.94446667349865
42
-1.19712598009114
0
POINT
5
70
100
AcDbEntity
8
80
62
256
6
ByLayer
370
18
48
1
60
0
100
AcDbPoint
10
0
20
0
30
0
39
0
210
0
220
0
230
1
50
360
0
POINT
5
72
100
AcDbEntity
8
81
62
256
6
ByLayer
370
18
48
1
60
0
100
AcDbPoint
10
171.5
20
0
30
0
39
0
210
0
220
0
230
1
50
360
0
POINT
5
74
100
AcDbEntity
8
1
62
256
6
ByLayer
370
18
48
1
60
1
100
AcDbPoint
10
-50
20
-10
30
0
39
0
210
0
220
0
230
1
50
360
0
POINT
5
76
100
AcDbEntity
8
1
62
256
6
ByLayer
370
18
48
1
60
1
100
AcDbPoint
10
171.5
20
0
30
0
39
0
210
0
220
0
230
1
50
360
0
POINT
5
77
100
AcDbEntity
8
1
62
256
6
ByLayer
370
18
48
1
60
1
100
AcDbPoint
10
171.5
20
0
30
0
39
0
210
0
220
0
230
1
50
360
0
POINT
5
78
100
AcDbEntity
8
1
62
256
6
ByLayer
370
18
48
1
60
1
100
AcDbPoint
10
3
20
-8.5
30
0
39
0
210
0
220
0
230
1
50
360
0
POINT
5
79
100
AcDbEntity
8
1
62
256
6
ByLayer
370
18
48
1
60
1
100
AcDbPoint
10
-50
20
-10
30
0
39
0
210
0
220
0
230
1
50
360
0
POINT
5
7A
100
AcDbEntity
8
1
62
256
6
ByLayer
370
18
48
1
60
1
100
AcDbPoint
10
0
20
-10
30
0
39
0
210
0
220
0
230
1
50
360
0
POINT
5
7B
100
AcDbEntity
8
1
62
256
6
ByLayer
370
18
48
1
60
1
100
AcDbPoint
10
171.5
20
0
30
0
39
0
210
0
220
0
230
1
50
360
0
POINT
5
7C
100
AcDbEntity
8
1
62
256
6
ByLayer
370
18
48
1
60
1
100
AcDbPoint
10
21
20
8.5
30
0
39
0
210
0
220
0
230
1
50
360
0
SPLINE
5
C7
100
AcDbEntity
8
1
62
256
6
ByLayer
370
18
48
1
60
0
100
AcDbSpline
70
4
71
3
72
25
73
21
40
0
40
0
40
0
40
0
40
0.138739562172836
40
0.138739562172836
40
0.277479124345673
40
0.277479124345673
40
0.416218686518509
40
0.416218686518509
40
0.554958248691346
40
0.554958248691346
40
0.624328029777764
40
0.624328029777764
40
0.659012920320973
40
0.659012920320973
40
0.693697810864182
40
0.832437373037012
40
0.832437373037012
40
0.971176935209842
40
0.971176935209842
40
1
40
1
40
1
40
1
41
1
10
10
20
-8.06149467831645
30
0
41
1
10
10.2890881686817
20
-8.0580706828886
30
0
41
1
10
10.5775951394623
20
-8.05561136696562
30
0
41
1
10
11.1535418201268
20
-8.05302044593421
30
0
41
1
10
11.4409809993853
20
-8.05288499689627
30
0
41
1
10
12.0148659893872
20
-8.05480476422619
30
0
41
1
10
12.3013114028763
20
-8.05685722190091
30
0
41
1
10
12.8732765770293
20
-8.06258629661747
30
0
41
1
10
13.158796023413
20
-8.06626002334045
30
0
41
1
10
13.5864350199705
20
-8.07230211501056
30
0
41
1
10
13.7288747203021
20
-8.07440226314026
30
0
41
1
10
13.9423819350981
20
-8.07757756411908
30
0
41
1
10
14.0135496564947
20
-8.07864041815051
30
0
41
1
10
14.1555400055129
20
-8.0807513533527
30
0
41
1
10
14.5098203367023
20
-8.08599440180231
30
0
41
1
10
14.8607485130226
20
-8.09083073704355
30
0
41
1
10
15.4186064775848
20
-8.09685089343725
30
0
41
1
10
15.6957228044043
20
-8.09899840961018
30
0
41
1
10
16.0286251647077
20
-8.09987802606818
30
0
41
1
10
16.0858252328455
20
-8.09996799791972
30
0
41
1
10
16.1429644424916
20
-8.09999239812731
30
0
0
SPLINE
5
C8
100
AcDbEntity
8
1
62
256
6
ByLayer
370
18
48
1
60
0
100
AcDbSpline
70
4
71
3
72
14
73
10
40
0
40
0
40
0
40
0
40
0.177509540013261
40
0.177509540013261
40
0.355019080026522
40
0.355019080026522
40
0.710038160053044
40
0.710038160053044
40
1
40
1
40
1
40
1
41
1
10
159.3
20
-8.41823690220247
30
0
41
1
10
159.490018442776
20
-8.42773768230651
30
0
41
1
10
159.67996745303
20
-8.43640776631682
30
0
41
1
10
160.059719282429
20
-8.45208253154249
30
0
41
1
10
160.249510679993
20
-8.45908975500734
30
0
41
1
10
160.818759222662
20
-8.47757567377656
30
0
41
1
10
161.198240508964
20
-8.48648850554153
30
0
41
1
10
161.887579262594
20
-8.49657953004328
30
0
41
1
10
162.197443470692
20
-8.49887786965971
30
0
41
1
10
162.507230866398
20
-8.4989385059518
30
0
0
SPLINE
5
C9
100
AcDbEntity
8
1
62
256
6
ByLayer
370
18
48
1
60
0
100
AcDbSpline
70
4
71
3
72
189
73
185
40
0
40
0
40
0
40
0
40
0.0043908969207439
40
0.0043908969207439
40
0.01715511619099
40
0.01715511619099
40
0.0299193354612362
40
0.0299193354612362
40
0.0426835547314824
40
0.0426835547314824
40
0.0490656643666054
40
0.0490656643666054
40
0.0554477740017284
40
0.0554477740017284
40
0.0809762125422208
40
0.0809762125422208
40
0.0937404318124665
40
0.0937404318124665
40
0.106504651082712
40
0.106504651082712
40
0.119268870352958
40
0.119268870352958
40
0.125650979988081
40
0.125650979988081
40
0.132033089623204
40
0.132033089623204
40
0.157561528163694
40
0.157561528163694
40
0.17032574743394
40
0.17032574743394
40
0.183089966704186
40
0.183089966704186
40
0.195854185974431
40
0.195854185974431
40
0.208618405244677
40
0.208618405244677
40
0.2150005148798
40
0.2150005148798
40
0.221382624514923
40
0.221382624514923
40
0.234146843785168
40
0.234146843785168
40
0.246911063055413
40
0.246911063055413
40
0.259675282325658
40
0.259675282325658
40
0.272439501595903
40
0.272439501595903
40
0.285203720866147
40
0.285203720866147
40
0.29158583050127
40
0.29158583050127
40
0.297967940136393
40
0.310732159406639
40
0.310732159406639
40
0.323496378676885
40
0.323496378676885
40
0.33626059794713
40
0.33626059794713
40
0.349024817217376
40
0.349024817217376
40
0.361789036487622
40
0.361789036487622
40
0.368171146122745
40
0.368171146122745
40
0.374553255757868
40
0.374553255757868
40
0.387317475028113
40
0.387317475028113
40
0.393699584663237
40
0.393699584663237
40
0.40008169429836
40
0.40008169429836
40
0.412845913568607
40
0.412845913568607
40
0.41922802320373
40
0.41922802320373
40
0.425610132838854
40
0.425610132838854
40
0.438374352109102
40
0.438374352109102
40
0.444756461744226
40
0.444756461744226
40
0.45113857137935
40
0.45113857137935
40
0.463902790649598
40
0.463902790649598
40
0.476667009919847
40
0.476667009919847
40
0.489431229190095
40
0.489431229190095
40
0.502195448460343
40
0.502195448460343
40
0.514959667730591
40
0.514959667730591
40
0.52772388700084
40
0.52772388700084
40
0.534105996635964
40
0.534105996635964
40
0.540488106271088
40
0.553252325541336
40
0.553252325541336
40
0.566016544811585
40
0.566016544811585
40
0.578780764081833
40
0.578780764081833
40
0.591544983352081
40
0.591544983352081
40
0.60430920262233
40
0.60430920262233
40
0.610691312257453
40
0.610691312257453
40
0.617073421892577
40
0.617073421892577
40
0.629837641162825
40
0.629837641162825
40
0.642601860433073
40
0.642601860433073
40
0.655366079703322
40
0.655366079703322
40
0.66813029897357
40
0.66813029897357
40
0.674512408608694
40
0.674512408608694
40
0.680894518243817
40
0.687276627878941
40
0.687276627878941
40
0.693658737514065
40
0.693658737514065
40
0.719187176054558
40
0.719187176054558
40
0.731951395324805
40
0.731951395324805
40
0.738333504959928
40
0.738333504959928
40
0.744715614595052
40
0.744715614595052
40
0.757479833865299
40
0.757479833865299
40
0.770244053135546
40
0.770244053135546
40
0.77662616277067
40
0.77662616277067
40
0.783008272405794
40
0.783008272405794
40
0.79577249167604
40
0.79577249167604
40
0.808536710946287
40
0.808536710946287
40
0.821300930216534
40
0.821300930216534
40
0.834065149486781
40
0.834065149486781
40
0.846829368757028
40
0.846829368757028
40
0.853211478392152
40
0.853211478392152
40
0.859593588027275
40
0.859593588027275
40
0.872357807297523
40
0.872357807297523
40
0.885122026567771
40
0.885122026567771
40
0.897886245838019
40
0.897886245838019
40
0.923414684378516
40
0.923414684378516
40
0.92979679401364
40
0.92979679401364
40
0.936178903648763
40
0.936178903648763
40
0.942561013283887
40
0.942561013283887
40
0.948943122919011
40
0.948943122919011
40
0.961707342189259
40
0.961707342189259
40
0.974471561459507
40
0.974471561459507
40
0.98085367109463
40
0.98085367109463
40
0.987235780729754
40
0.987235780729754
40
1
40
1
40
1
40
1
41
1
10
72.0806808850942
20
5.93849160491462
30
0
41
1
10
72.2086794774667
20
5.96870129646234
30
0
41
1
10
72.3366476673237
20
5.99865334671998
30
0
41
1
10
72.8365039279652
20
6.11465228010115
30
0
41
1
10
73.2082028911567
20
6.19869425376183
30
0
41
1
10
73.9515313665214
20
6.3615752221649
30
0
41
1
10
74.3231837550498
20
6.44038332288713
30
0
41
1
10
75.0662556216923
20
6.59315250629831
30
0
41
1
10
75.4376807956815
20
6.66710062985314
30
0
41
1
10
75.9946074664583
20
6.77441433354466
30
0
41
1
10
76.1802046394532
20
6.80959884159023
30
0
41
1
10
76.5513814892742
20
6.87867237629774
30
0
41
1
10
76.7369889485471
20
6.91251852762375
30
0
41
1
10
77.665186852542
20
7.07822086417076
30
0
41
1
10
78.4081404407715
20
7.19973207191512
30
0
41
1
10
79.5224895769784
20
7.36630453066621
30
0
41
1
10
79.8939601294906
20
7.41914921151383
30
0
41
1
10
80.6372863268062
20
7.51905027691456
30
0
41
1
10
81.0091904516778
20
7.56605918776401
30
0
41
1
10
81.7534347500588
20
7.65428029873291
30
0
41
1
10
82.125739777815
20
7.69552887544074
30
0
41
1
10
82.6844206596932
20
7.75312197168535
30
0
41
1
10
82.8707252854198
20
7.77160904981727
30
0
41
1
10
83.2431822408572
20
7.80712690146927
30
0
41
1
10
83.4293187978583
20
7.82415919107345
30
0
41
1
10
84.3599419028828
20
7.90538406896493
30
0
41
1
10
85.1041063940983
20
7.95798109719976
30
0
41
1
10
86.2191158535155
20
8.01896010383538
30
0
41
1
10
86.5905637641496
20
8.03628295305688
30
0
41
1
10
87.3333350833346
20
8.06476983346164
30
0
41
1
10
87.7046876430409
20
8.07592727597694
30
0
41
1
10
88.4475288212882
20
8.09208417837948
30
0
41
1
10
88.8189602230716
20
8.09710174045722
30
0
41
1
10
89.5617159015268
20
8.10102030948411
30
0
41
1
10
89.9330300819043
20
8.09991729541338
30
0
41
1
10
90.4899555412516
20
8.09361581420393
30
0
41
1
10
90.6756247121308
20
8.09074349759644
30
0
41
1
10
91.0470773851468
20
8.08347250498261
30
0
41
1
10
91.2328504058031
20
8.07907298523381
30
0
41
1
10
91.7902851234708
20
8.06358812906757
30
0
41
1
10
92.1620627794332
20
8.05022003106728
30
0
41
1
10
92.9058042221744
20
8.01734256547715
30
0
41
1
10
93.2777342596386
20
7.99781297465731
30
0
41
1
10
94.0219106612617
20
7.95258969369885
30
0
41
1
10
94.3941737816194
20
7.92690056453094
30
0
41
1
10
95.1394099949606
20
7.8696020695092
30
0
41
1
10
95.5119652173071
20
7.83801873707088
30
0
41
1
10
96.2565008306651
20
7.7689003814655
30
0
41
1
10
96.6285348176452
20
7.73136844007914
30
0
41
1
10
97.1861906938933
20
7.67054248758262
30
0
41
1
10
97.3719988110024
20
7.64949974876126
30
0
41
1
10
97.7436172531324
20
7.60603013038224
30
0
41
1
10
98.3010490958762
20
7.53875432476008
30
0
41
1
10
98.8584201684083
20
7.46525175561766
30
0
41
1
10
99.6014062011435
20
7.36160670237985
30
0
41
1
10
99.9727911989586
20
7.30693664410384
30
0
41
1
10
100.715357917142
20
7.19187287888877
30
0
41
1
10
101.086569139362
20
7.13151044526811
30
0
41
1
10
101.829205815329
20
7.00562189678843
30
0
41
1
10
102.200673179366
20
6.94016629880721
30
0
41
1
10
102.943737280479
20
6.80401985330391
30
0
41
1
10
103.315325097081
20
6.73331299447455
30
0
41
1
10
103.872746513708
20
6.62319533529765
30
0
41
1
10
104.058556195756
20
6.58580557820642
30
0
41
1
10
104.430202682457
20
6.50968531294788
30
0
41
1
10
104.616061358456
20
6.47099199558326
30
0
41
1
10
105.173883126053
20
6.35326821553534
30
0
41
1
10
105.546037038213
20
6.27250292373549
30
0
41
1
10
106.104582565182
20
6.14777538203202
30
0
41
1
10
106.290817187527
20
6.10560279192993
30
0
41
1
10
106.663376412888
20
6.02002898168496
30
0
41
1
10
106.849727782072
20
5.97661940837901
30
0
41
1
10
107.408442010576
20
5.84460713022457
30
0
41
1
10
107.780605793826
20
5.75421252135828
30
0
41
1
10
108.338632070562
20
5.61556076912566
30
0
41
1
10
108.52460548451
20
5.5688367538462
30
0
41
1
10
108.896528426893
20
5.47448135151208
30
0
41
1
10
109.082476425683
20
5.42684714828948
30
0
41
1
10
109.640236688759
20
5.28248786310138
30
0
41
1
10
110.011953639414
20
5.18428171418398
30
0
41
1
10
110.569276514683
20
5.03386512175163
30
0
41
1
10
110.755009775737
20
4.98321035871544
30
0
41
1
10
111.126387102103
20
4.8808480894464
30
0
41
1
10
111.312018065835
20
4.82910931558192
30
0
41
1
10
111.868937427139
20
4.67268394365564
30
0
41
1
10
112.240309205098
20
4.56692812872905
30
0
41
1
10
112.983112471001
20
4.35221471232623
30
0
41
1
10
113.35454440505
20
4.24325819521974
30
0
41
1
10
114.09734277804
20
4.02182391389528
30
0
41
1
10
114.468681119574
20
3.90927045858106
30
0
41
1
10
115.211520903527
20
3.68118829281997
30
0
41
1
10
115.583042879112
20
3.56571258408869
30
0
41
1
10
116.326578013644
20
3.33266920446204
30
0
41
1
10
116.698538429795
20
3.21496684969756
30
0
41
1
10
117.442689504392
20
2.97677283348315
30
0
41
1
10
117.814887207825
20
2.85629888553049
30
0
41
1
10
118.373347343553
20
2.67342970572187
30
0
41
1
10
118.559572207177
20
2.61215127004118
30
0
41
1
10
118.932106805427
20
2.48935445881443
30
0
41
1
10
119.49081720805
20
2.30473316624099
30
0
41
1
10
120.049185607239
20
2.11864536724101
30
0
41
1
10
120.79325299079
20
1.86888322383987
30
0
41
1
10
121.165043488216
20
1.74308935972402
30
0
41
1
10
121.908262258646
20
1.49003041375724
30
0
41
1
10
122.279712057088
20
1.36282696542722
30
0
41
1
10
123.022663517404
20
1.10814581709059
30
0
41
1
10
123.394173299338
20
0.980692530706222
30
0
41
1
10
124.137046164336
20
0.724941007211356
30
0
41
1
10
124.508418896162
20
0.596670509204472
30
0
41
1
10
125.065338271209
20
0.403541538952226
30
0
41
1
10
125.250942675935
20
0.339009337046292
30
0
41
1
10
125.622183298434
20
0.209931524069759
30
0
41
1
10
125.807843140947
20
0.145454861283952
30
0
41
1
10
126.364942421664
20
-0.0477838336356626
30
0
41
1
10
126.736490004514
20
-0.176388178567379
30
0
41
1
10
127.47975776006
20
-0.43351350279508
30
0
41
1
10
127.851466828419
20
-0.562067120340203
30
0
41
1
10
128.594984081283
20
-0.819311030910342
30
0
41
1
10
128.966821864996
20
-0.947914982195584
30
0
41
1
10
129.711002652527
20
-1.20406685872675
30
0
41
1
10
130.083393582225
20
-1.3314727284868
30
0
41
1
10
130.64236153745
20
-1.52177914076327
30
0
41
1
10
130.828700280039
20
-1.5850850751888
30
0
41
1
10
131.201030201136
20
-1.71134105572489
30
0
41
1
10
131.57311861178
20
-1.83727448453342
30
0
41
1
10
131.944709760605
20
-1.96260800028975
30
0
41
1
10
132.316046998188
20
-2.08765485402427
30
0
41
1
10
132.50159378889
20
-2.15001702335937
30
0
41
1
10
133.429048078759
20
-2.45997884405844
30
0
41
1
10
134.16992842722
20
-2.7027028243599
30
0
41
1
10
135.278977283664
20
-3.06110917269851
30
0
41
1
10
135.648273453884
20
-3.17963893923948
30
0
41
1
10
136.201862871785
20
-3.3553645800252
30
0
41
1
10
136.386334449476
20
-3.41359303422783
30
0
41
1
10
136.7552054436
20
-3.52923661776723
30
0
41
1
10
136.939609576864
20
-3.58663895936491
30
0
41
1
10
137.492700964132
20
-3.75767442065185
30
0
41
1
10
137.861250943515
20
-3.87018308062829
30
0
41
1
10
138.597883824415
20
-4.09247880355522
30
0
41
1
10
138.965953122472
20
-4.20229912060466
30
0
41
1
10
139.517747416769
20
-4.36485197405042
30
0
41
1
10
139.701662047688
20
-4.4185832881891
30
0
41
1
10
140.069504847547
20
-4.52502731497319
30
0
41
1
10
140.253424289959
20
-4.57776261010878
30
0
41
1
10
140.805154481316
20
-4.73457305095894
30
0
41
1
10
141.172937572671
20
-4.83725370638174
30
0
41
1
10
141.908313217494
20
-5.03918289008621
30
0
41
1
10
142.275873521696
20
-5.13850403897405
30
0
41
1
10
143.01091919901
20
-5.33340470879747
30
0
41
1
10
143.378419754926
20
-5.42894668623467
30
0
41
1
10
144.113725835772
20
-5.6154493490603
30
0
41
1
10
144.481514429183
20
-5.70645576236339
30
0
41
1
10
145.217170553631
20
-5.88440436766896
30
0
41
1
10
145.58504902844
20
-5.97132130111402
30
0
41
1
10
146.136903153349
20
-6.09865843488942
30
0
41
1
10
146.320848542727
20
-6.14062073570759
30
0
41
1
10
146.688853582557
20
-6.22332259959842
30
0
41
1
10
146.872925982899
20
-6.26403807947619
30
0
41
1
10
147.425332028514
20
-6.38432838514714
30
0
41
1
10
147.793852490708
20
-6.46205321290037
30
0
41
1
10
148.531278607262
20
-6.61278677279154
30
0
41
1
10
148.900171030784
20
-6.68581840310623
30
0
41
1
10
149.638290559259
20
-6.8272044946884
30
0
41
1
10
150.007545997781
20
-6.89550394565902
30
0
41
1
10
151.116385669133
20
-7.0923780400544
30
0
41
1
10
151.857207330418
20
-7.21272823234122
30
0
41
1
10
152.784691975613
20
-7.35026930860823
30
0
41
1
10
152.970264445905
20
-7.37712577761576
30
0
41
1
10
153.34155999513
20
-7.42952478007143
30
0
41
1
10
153.527291716229
20
-7.45505436293504
30
0
41
1
10
153.899045891805
20
-7.50461064678851
30
0
41
1
10
154.085055437422
20
-7.52865546880668
30
0
41
1
10
154.457324628033
20
-7.57530071799997
30
0
41
1
10
154.643614247153
20
-7.59790464830854
30
0
41
1
10
155.20263535081
20
-7.6635484068747
30
0
41
1
10
155.575241008147
20
-7.70439110013524
30
0
41
1
10
156.320171763126
20
-7.78032994846183
30
0
41
1
10
156.69249701602
20
-7.81541553877148
30
0
41
1
10
157.251027466442
20
-7.86350102489789
30
0
41
1
10
157.437212373597
20
-7.87877268157584
30
0
41
1
10
157.809646448092
20
-7.90777613216048
30
0
41
1
10
157.995899381591
20
-7.92150631561503
30
0
41
1
10
158.55472597344
20
-7.96041836695829
30
0
41
1
10
158.927352608614
20
-7.98333291374067
30
0
41
1
10
159.3
20
-8.00323670037997
30
0
0
SPLINE
5
CA
100
AcDbEntity
8
1
62
256
6
ByLayer
370
18
48
1
60
0
100
AcDbSpline
70
4
71
3
72
177
73
173
40
0
40
0
40
0
40
0
40
0.0237125323533165
40
0.0237125323533165
40
0.0362854553410852
40
0.0362854553410852
40
0.048858378328854
40
0.048858378328854
40
0.0614313013166228
40
0.0614313013166228
40
0.0740042243043916
40
0.0740042243043916
40
0.0865771472921603
40
0.0865771472921603
40
0.0991500702799291
40
0.0991500702799291
40
0.105436531773813
40
0.105436531773813
40
0.111722993267697
40
0.111722993267697
40
0.124295916255465
40
0.124295916255465
40
0.136868839243233
40
0.136868839243233
40
0.149441762231001
40
0.149441762231001
40
0.162014685218769
40
0.162014685218769
40
0.174587608206537
40
0.174587608206537
40
0.180874069700421
40
0.180874069700421
40
0.187160531194305
40
0.187160531194305
40
0.199733454182073
40
0.199733454182073
40
0.212306377169841
40
0.212306377169841
40
0.224879300157609
40
0.224879300157609
40
0.237452223145377
40
0.237452223145377
40
0.250025146133145
40
0.250025146133145
40
0.262598069120912
40
0.262598069120912
40
0.275170992108681
40
0.275170992108681
40
0.287743915096448
40
0.287743915096448
40
0.300316838084216
40
0.300316838084216
40
0.312889761071984
40
0.312889761071984
40
0.325462684059752
40
0.325462684059752
40
0.33803560704752
40
0.33803560704752
40
0.344322068541404
40
0.344322068541404
40
0.350608530035288
40
0.350608530035288
40
0.363181453023056
40
0.363181453023056
40
0.375754376010824
40
0.375754376010824
40
0.388327298998592
40
0.388327298998592
40
0.40090022198636
40
0.40090022198636
40
0.413473144974128
40
0.413473144974128
40
0.419759606468012
40
0.419759606468012
40
0.426046067961895
40
0.438618990949663
40
0.438618990949663
40
0.451191913937431
40
0.451191913937431
40
0.463764836925199
40
0.463764836925199
40
0.476337759912967
40
0.476337759912967
40
0.488910682900735
40
0.488910682900735
40
0.49519714439462
40
0.49519714439462
40
0.501483605888504
40
0.514056528876274
40
0.514056528876274
40
0.526629451864043
40
0.526629451864043
40
0.539202374851813
40
0.539202374851813
40
0.551775297839582
40
0.551775297839582
40
0.564348220827352
40
0.564348220827352
40
0.576921143815122
40
0.576921143815122
40
0.589494066802891
40
0.589494066802891
40
0.595780528296776
40
0.595780528296776
40
0.602066989790661
40
0.602066989790661
40
0.614639912778431
40
0.614639912778431
40
0.627212835766202
40
0.627212835766202
40
0.639785758753972
40
0.639785758753972
40
0.646072220247858
40
0.646072220247858
40
0.652358681741744
40
0.652358681741744
40
0.677504527717286
40
0.677504527717286
40
0.690077450705057
40
0.690077450705057
40
0.702650373692828
40
0.702650373692828
40
0.715223296680598
40
0.715223296680598
40
0.721509758174484
40
0.721509758174484
40
0.727796219668369
40
0.727796219668369
40
0.734082681162255
40
0.734082681162255
40
0.74036914265614
40
0.74036914265614
40
0.752942065643912
40
0.752942065643912
40
0.765514988631684
40
0.765514988631684
40
0.778087911619455
40
0.778087911619455
40
0.790660834607227
40
0.790660834607227
40
0.796947296101112
40
0.796947296101112
40
0.803233757594998
40
0.803233757594998
40
0.828379603570541
40
0.828379603570541
40
0.853525449546084
40
0.853525449546084
40
0.85981191103997
40
0.85981191103997
40
0.866098372533856
40
0.866098372533856
40
0.878671295521627
40
0.878671295521627
40
0.891244218509399
40
0.891244218509399
40
0.90381714149717
40
0.90381714149717
40
0.916390064484942
40
0.916390064484942
40
0.928962987472713
40
0.928962987472713
40
0.954108833448255
40
0.954108833448255
40
0.960395294942141
40
0.960395294942141
40
0.966681756436026
40
0.979254679423798
40
0.979254679423798
40
0.991827602411569
40
0.991827602411569
40
1
40
1
40
1
40
1
41
1
10
145.433954234188
20
-5.9398060219491
30
0
41
1
10
144.716781980528
20
-6.10899896009335
30
0
41
1
10
144.000499962198
20
-6.26903891412226
30
0
41
1
10
142.906017493762
20
-6.5005476766527
30
0
41
1
10
142.527124897389
20
-6.57838534674295
30
0
41
1
10
141.769510260705
20
-6.72836993920717
30
0
41
1
10
141.390812627244
20
-6.8005724197653
30
0
41
1
10
140.633682509249
20
-6.93952025192488
30
0
41
1
10
140.255253788189
20
-7.00627094119832
30
0
41
1
10
139.49868840387
20
-7.13434308902697
30
0
41
1
10
139.120546513615
20
-7.19565134029148
30
0
41
1
10
138.364314689843
20
-7.31248375919211
30
0
41
1
10
137.986187021178
20
-7.36796150985666
30
0
41
1
10
137.229850371598
20
-7.47300577405284
30
0
41
1
10
136.851665043927
20
-7.52260285193779
30
0
41
1
10
136.284393335291
20
-7.59263324763094
30
0
41
1
10
136.095303657823
20
-7.61524851103621
30
0
41
1
10
135.717131081658
20
-7.65902011379603
30
0
41
1
10
135.528051935987
20
-7.68017883781519
30
0
41
1
10
134.960660327003
20
-7.74130334805679
30
0
41
1
10
134.582219046353
20
-7.77894863541212
30
0
41
1
10
133.825021359831
20
-7.84809894445527
30
0
41
1
10
133.446267979098
20
-7.87960615699731
30
0
41
1
10
132.688484177665
20
-7.93647724649162
30
0
41
1
10
132.309458653585
20
-7.96183893800671
30
0
41
1
10
131.550936666128
20
-8.0062511503281
30
0
41
1
10
131.171411660476
20
-8.02528789099415
30
0
41
1
10
130.411681505875
20
-8.05696730198375
30
0
41
1
10
130.03150829739
20
-8.06962694899175
30
0
41
1
10
129.460822031491
20
-8.08382964606855
30
0
41
1
10
129.270521634863
20
-8.08776534829983
30
0
41
1
10
128.889781359798
20
-8.09402973196558
30
0
41
1
10
128.699350186467
20
-8.09635869709521
30
0
41
1
10
128.127758393107
20
-8.1009085458264
30
0
41
1
10
127.746237484327
20
-8.1006938344398
30
0
41
1
10
126.98230301264
20
-8.09378103671068
30
0
41
1
10
126.5997335372
20
-8.08707547525137
30
0
41
1
10
125.835519658922
20
-8.06717975006376
30
0
41
1
10
125.45370050131
20
-8.05398243746299
30
0
41
1
10
124.690455668869
20
-8.02113395790687
30
0
41
1
10
124.309009558247
20
-8.00148918730454
30
0
41
1
10
123.546234818655
20
-7.95591191793167
30
0
41
1
10
123.164940428557
20
-7.92996891220051
30
0
41
1
10
122.402602074345
20
-7.87174860803251
30
0
41
1
10
122.021569784723
20
-7.83946103528447
30
0
41
1
10
121.259724347184
20
-7.76852578004218
30
0
41
1
10
120.878771822961
20
-7.72998674724869
30
0
41
1
10
120.116738521134
20
-7.64687469844299
30
0
41
1
10
119.73567712471
20
-7.60228646334474
30
0
41
1
10
118.973510161713
20
-7.50699608407146
30
0
41
1
10
118.592419614056
20
-7.45627363233348
30
0
41
1
10
117.83007120968
20
-7.34880636452755
30
0
41
1
10
117.448802933863
20
-7.29207078017094
30
0
41
1
10
116.68579002182
20
-7.17297390862072
30
0
41
1
10
116.304073442115
20
-7.11058375860227
30
0
41
1
10
115.540294126285
20
-6.980007928916
30
0
41
1
10
115.158230040646
20
-6.91182308658057
30
0
41
1
10
114.584886385279
20
-6.80512277242531
30
0
41
1
10
114.393782937749
20
-6.76884930686461
30
0
41
1
10
114.011688443009
20
-6.69507916448441
30
0
41
1
10
113.82067981996
20
-6.65756084172222
30
0
41
1
10
113.247776959394
20
-6.54310395825752
30
0
41
1
10
112.866006547146
20
-6.46426373572527
30
0
41
1
10
112.10284317075
20
-6.3014443213805
30
0
41
1
10
111.721464755762
20
-6.21743594281318
30
0
41
1
10
110.958999375869
20
-6.0444227580133
30
0
41
1
10
110.577907121627
20
-5.9554248833575
30
0
41
1
10
109.815689628575
20
-5.77308389297284
30
0
41
1
10
109.434576604703
20
-5.67972261002598
30
0
41
1
10
108.672425578822
20
-5.48846096746777
30
0
41
1
10
108.29138325661
20
-5.39056905629732
30
0
41
1
10
107.719900841237
20
-5.24024773782659
30
0
41
1
10
107.52942507439
20
-5.18954791189779
30
0
41
1
10
107.148387680135
20
-5.08723628674818
30
0
41
1
10
106.576721466662
20
-4.93236102171846
30
0
41
1
10
106.004748854264
20
-4.77323372797318
30
0
41
1
10
105.24189912669
20
-4.55716203995809
30
0
41
1
10
104.860376087424
20
-4.44714522957733
30
0
41
1
10
104.097057553492
20
-4.22330206188121
30
0
41
1
10
103.715255739314
20
-4.10948769676565
30
0
41
1
10
102.951066080359
20
-3.87883504044783
30
0
41
1
10
102.568545229937
20
-3.76199699969956
30
0
41
1
10
101.804250900505
20
-3.52554681840564
30
0
41
1
10
101.422342725312
20
-3.40590295544348
30
0
41
1
10
100.84987019656
20
-3.22422145728032
30
0
41
1
10
100.659121042332
20
-3.16326398673945
30
0
41
1
10
100.277678122528
20
-3.0408118732438
30
0
41
1
10
99.7055615984835
20
-2.8564245173244
30
0
41
1
10
99.133601759239
20
-2.66988667029727
30
0
41
1
10
98.37118110226
20
-2.41911867985505
30
0
41
1
10
97.9900755355372
20
-2.29268505538997
30
0
41
1
10
97.2280379790287
20
-2.03781280836938
30
0
41
1
10
96.8470982613605
20
-1.90939452403939
30
0
41
1
10
96.0850925565749
20
-1.65139826749365
30
0
41
1
10
95.703995721624
20
-1.52190995323809
30
0
41
1
10
94.9416759482883
20
-1.26178302317913
30
0
41
1
10
94.5604566791567
20
-1.1311337351604
30
0
41
1
10
93.7979388729997
20
-0.868539476307063
30
0
41
1
10
93.4166809509435
20
-0.736472883943378
30
0
41
1
10
92.6536091854691
20
-0.47243152081785
30
0
41
1
10
92.2718433103033
20
-0.340318950828191
30
0
41
1
10
91.6988891240596
20
-0.141896600186357
30
0
41
1
10
91.5078536531368
20
-0.0757129581049014
30
0
41
1
10
91.1256845713183
20
0.056751266468865
30
0
41
1
10
90.9345193390583
20
0.123048573855982
30
0
41
1
10
90.3611036604177
20
0.321977016408823
30
0
41
1
10
89.9791244028678
20
0.454579559297343
30
0
41
1
10
89.215501959823
20
0.718980545248598
30
0
41
1
10
88.8338199020777
20
0.850665478590429
30
0
41
1
10
88.0707213421574
20
1.1130411534073
30
0
41
1
10
87.689318807268
20
1.24377296522928
30
0
41
1
10
87.1174655399921
20
1.43927244448693
30
0
41
1
10
86.9268918770625
20
1.50434578396258
30
0
41
1
10
86.5458232882466
20
1.63427705582305
30
0
41
1
10
86.3553140547304
20
1.69909371780059
30
0
41
1
10
85.4026881768782
20
2.02185024695845
30
0
41
1
10
84.6405022763618
20
2.27631010844314
30
0
41
1
10
83.4973456695847
20
2.65309413734772
30
0
41
1
10
83.1163042406462
20
2.77784038688262
30
0
41
1
10
82.3540030233546
20
3.02496977197137
30
0
41
1
10
81.9727039002564
20
3.14724658415034
30
0
41
1
10
81.2097496063774
20
3.38907233337199
30
0
41
1
10
80.8281190495824
20
3.50868825030514
30
0
41
1
10
80.2554747558042
20
3.68624412400123
30
0
41
1
10
80.0645600791324
20
3.74511747764797
30
0
41
1
10
79.6826689728292
20
3.8622499285552
30
0
41
1
10
79.4916936251925
20
3.92051145668069
30
0
41
1
10
79.1095654511875
20
4.03611541528619
30
0
41
1
10
78.9183789090294
20
4.09349266874278
30
0
41
1
10
78.5361080642157
20
4.20731130561603
30
0
41
1
10
78.3450213135647
20
4.2637537221014
30
0
41
1
10
77.7719163081185
20
4.43171084023518
30
0
41
1
10
77.3900554433517
20
4.5418622454429
30
0
41
1
10
76.626785783417
20
4.75860935153943
30
0
41
1
10
76.2453792205877
20
4.86520608326256
30
0
41
1
10
75.4828036464197
20
5.07432139620292
30
0
41
1
10
75.1016005614383
20
5.17676246532872
30
0
41
1
10
74.339230981134
20
5.37714628465366
30
0
41
1
10
73.9580962837768
20
5.47516263095881
30
0
41
1
10
73.3865078161907
20
5.61900410083763
30
0
41
1
10
73.1959968506274
20
5.66641946363839
30
0
41
1
10
72.8150173262928
20
5.76019298689704
30
0
41
1
10
72.6245588315067
20
5.80657100784484
30
0
41
1
10
71.6721580891833
20
6.03537149593407
30
0
41
1
10
70.9097721158187
20
6.20833259005323
30
0
41
1
10
69.3844385162557
20
6.53487058828057
30
0
41
1
10
68.6215526296188
20
6.68848193238148
30
0
41
1
10
67.6664834594574
20
6.86634866326119
30
0
41
1
10
67.4754056776187
20
6.90123223135024
30
0
41
1
10
67.0931336652329
20
6.96963704372993
30
0
41
1
10
66.9018940564505
20
7.00316485155437
30
0
41
1
10
66.3286969545164
20
7.10158955850395
30
0
41
1
10
65.9470939648286
20
7.16439580070048
30
0
41
1
10
65.1848450809541
20
7.28422094042938
30
0
41
1
10
64.8040773039459
20
7.34105751318612
30
0
41
1
10
64.0432329811641
20
7.44865165516234
30
0
41
1
10
63.6631664791902
20
7.49942404632432
30
0
41
1
10
62.9037800996644
20
7.59499792001188
30
0
41
1
10
62.5244737166871
20
7.63980986191928
30
0
41
1
10
61.7664825286675
20
7.72331854316323
30
0
41
1
10
61.3877854114516
20
7.76200034194648
30
0
41
1
10
60.2522053371748
20
7.86856503045234
30
0
41
1
10
59.4959717071226
20
7.92715023142861
30
0
41
1
10
58.5519070229479
20
7.9849373239646
30
0
41
1
10
58.3631393874758
20
7.99571005434493
30
0
41
1
10
57.98561353107
20
8.01565218950535
30
0
41
1
10
57.4193676361789
20
8.04317583839671
30
0
41
1
10
56.8532752095587
20
8.06358505762432
30
0
41
1
10
56.0986680992591
20
8.08450246135618
30
0
41
1
10
55.7214695164488
20
8.09181324103423
30
0
41
1
10
55.0991768546029
20
8.09864291290742
30
0
41
1
10
54.8540511644805
20
8.09999126687242
30
0
41
1
10
54.6089045936791
20
8.09999913605623
30
0
0
SPLINE
5
CB
100
AcDbEntity
8
1
62
256
6
ByLayer
370
18
48
1
60
0
100
AcDbSpline
70
4
71
3
72
21
73
17
40
0
40
0
40
0
40
0
40
0.124999999999998
40
0.124999999999998
40
0.249999999999996
40
0.249999999999996
40
0.5
40
0.5
40
0.562500000000003
40
0.562500000000003
40
0.625000000000006
40
0.750000000000004
40
0.750000000000004
40
0.875000000000002
40
0.875000000000002
40
1
40
1
40
1
40
1
41
1
10
168.406253008737
20
-1.21286176875472
30
0
41
1
10
168.026227540935
20
-1.07609635572868
30
0
41
1
10
167.646467292239
20
-0.938770417014069
30
0
41
1
10
166.887328039012
20
-0.663414139966818
30
0
41
1
10
166.507940192777
20
-0.525408626428032
30
0
41
1
10
165.36981779182
20
-0.11180808663434
30
0
41
1
10
164.611232278146
20
0.163674532945521
30
0
41
1
10
163.663533028086
20
0.50862236558865
30
0
41
1
10
163.474020521307
20
0.577643369573735
30
0
41
1
10
163.09491451911
20
0.715373861171798
30
0
41
1
10
162.526161467292
20
0.921578174323798
30
0
41
1
10
161.957158274001
20
1.12669867394899
30
0
41
1
10
161.198331063948
20
1.39941131599582
30
0
41
1
10
160.818854560883
20
1.53541866392351
30
0
41
1
10
160.059686576195
20
1.80648801369429
30
0
41
1
10
159.679984856184
20
1.94152166387423
30
0
41
1
10
159.3
20
2.07560145345511
30
0
0
SPLINE
5
CC
100
AcDbEntity
8
1
62
256
6
ByLayer
370
18
48
1
60
0
100
AcDbSpline
70
4
71
3
72
84
73
80
40
0
40
0
40
0
40
0
40
0.0312499999999954
40
0.0312499999999954
40
0.0624999999999908
40
0.0624999999999908
40
0.124999999999983
40
0.124999999999983
40
0.140624999999981
40
0.140624999999981
40
0.156249999999978
40
0.156249999999978
40
0.187499999999974
40
0.187499999999974
40
0.249999999999967
40
0.249999999999967
40
0.281249999999964
40
0.281249999999964
40
0.296874999999964
40
0.296874999999964
40
0.312499999999963
40
0.312499999999963
40
0.343749999999961
40
0.343749999999961
40
0.374999999999958
40
0.374999999999958
40
0.406249999999955
40
0.406249999999955
40
0.437499999999953
40
0.437499999999953
40
0.453124999999951
40
0.453124999999951
40
0.46874999999995
40
0.46874999999995
40
0.499999999999947
40
0.499999999999947
40
0.531249999999945
40
0.531249999999945
40
0.539062499999944
40
0.539062499999944
40
0.546874999999943
40
0.562499999999942
40
0.562499999999942
40
0.593749999999939
40
0.593749999999939
40
0.624999999999937
40
0.624999999999937
40
0.632812499999937
40
0.632812499999937
40
0.640624999999938
40
0.656249999999939
40
0.656249999999939
40
0.687499999999941
40
0.687499999999941
40
0.718749999999943
40
0.718749999999943
40
0.726562499999944
40
0.726562499999944
40
0.734374999999946
40
0.734374999999946
40
0.749999999999948
40
0.749999999999948
40
0.781249999999953
40
0.781249999999953
40
0.812499999999959
40
0.843749999999964
40
0.843749999999964
40
0.851562499999966
40
0.851562499999966
40
0.859374999999967
40
0.874999999999971
40
0.874999999999971
40
0.906249999999978
40
0.937499999999986
40
0.968749999999993
40
0.968749999999993
40
0.984374999999996
40
0.984374999999996
40
1
40
1
40
1
40
1
41
1
10
168.406253008737
20
8.23010335920836
30
0
41
1
10
168.459342116734
20
8.09846439535357
30
0
41
1
10
168.512514505866
20
7.96485029921067
30
0
41
1
10
168.619116099286
20
7.69398318346344
30
0
41
1
10
168.672545210731
20
7.55672946597156
30
0
41
1
10
168.833312703193
20
7.13984674928423
30
0
41
1
10
168.941145869239
20
6.85512534343053
30
0
41
1
10
169.07687139531
20
6.49135370593373
30
0
41
1
10
169.104062033163
20
6.41820351935158
30
0
41
1
10
169.158532033403
20
6.27111782666125
30
0
41
1
10
169.18582181462
20
6.19715307043884
30
0
41
1
10
169.267330602987
20
5.9754127437198
30
0
41
1
10
169.321353324103
20
5.82735579809022
30
0
41
1
10
169.48240512158
20
5.3824896773491
30
0
41
1
10
169.588471451317
20
5.08500560193522
30
0
41
1
10
169.744579403742
20
4.63709486357519
30
0
41
1
10
169.796105431243
20
4.48750609474129
30
0
41
1
10
169.872343069314
20
4.26259525211179
30
0
41
1
10
169.89757900044
20
4.18753650554623
30
0
41
1
10
169.947629214108
20
4.03721773377603
30
0
41
1
10
169.972453305735
20
3.9619256937516
30
0
41
1
10
170.045809975554
20
3.73679959367624
30
0
41
1
10
170.093358769737
20
3.5873626286739
30
0
41
1
10
170.184878195225
20
3.28953494055625
30
0
41
1
10
170.228854825877
20
3.14114517788059
30
0
41
1
10
170.311896608327
20
2.84510216020792
30
0
41
1
10
170.350968782758
20
2.69744951939151
30
0
41
1
10
170.422192654093
20
2.40248138718977
30
0
41
1
10
170.454347425283
20
2.25516483525738
30
0
41
1
10
170.495239314438
20
2.03407837159153
30
0
41
1
10
170.507648824712
20
1.96025480227735
30
0
41
1
10
170.529382426639
20
1.8139678377205
30
0
41
1
10
170.538738150027
20
1.74134718935252
30
0
41
1
10
170.561815732868
20
1.52511469712445
30
0
41
1
10
170.570498890742
20
1.38312489365046
30
0
41
1
10
170.572838312085
20
1.10398099427647
30
0
41
1
10
170.566480960344
20
0.966829225203753
30
0
41
1
10
170.549200642716
20
0.798858555880884
30
0
41
1
10
170.545277737942
20
0.765403499865585
30
0
41
1
10
170.536546861908
20
0.699008336447548
30
0
41
1
10
170.52216425288
20
0.600475093135003
30
0
41
1
10
170.504145749325
20
0.505081079646857
30
0
41
1
10
170.463866060586
20
0.318376894707057
30
0
41
1
10
170.431379293934
20
0.199344969386374
30
0
41
1
10
170.358068590118
20
-0.0282706412368157
30
0
41
1
10
170.317250819968
20
-0.136857403905907
30
0
41
1
10
170.262373847588
20
-0.266161136490666
30
0
41
1
10
170.251194197868
20
-0.291720608355121
30
0
41
1
10
170.228514847301
20
-0.342097842166623
30
0
41
1
10
170.194071166249
20
-0.416430155266482
30
0
41
1
10
170.158485415025
20
-0.487134603616539
30
0
41
1
10
170.086067554838
20
-0.623851845226568
30
0
41
1
10
170.03614365621
20
-0.708754176426112
30
0
41
1
10
169.933973871317
20
-0.866492005221971
30
0
41
1
10
169.881721079105
20
-0.939325234881608
30
0
41
1
10
169.81526824283
20
-1.02283741235806
30
0
41
1
10
169.801919988234
20
-1.03916249623217
30
0
41
1
10
169.77511307038
20
-1.07105485392498
30
0
41
1
10
169.761645103159
20
-1.08663172851124
30
0
41
1
10
169.721255083019
20
-1.13202892289422
30
0
41
1
10
169.694296384055
20
-1.16057970373305
30
0
41
1
10
169.613366402822
20
-1.24120565782292
30
0
41
1
10
169.559345252473
20
-1.28826480965193
30
0
41
1
10
169.451265422384
20
-1.36933928760325
30
0
41
1
10
169.34314546352
20
-1.4373672354105
30
0
41
1
10
169.234914796839
20
-1.47934308778244
30
0
41
1
10
169.167180225546
20
-1.49726253072833
30
0
41
1
10
169.153620063727
20
-1.50043073457405
30
0
41
1
10
169.126610466957
20
-1.50590563122597
30
0
41
1
10
169.086219880265
20
-1.51283830803698
30
0
41
1
10
169.046187482933
20
-1.51597470770963
30
0
41
1
10
168.966565181723
20
-1.51727187225362
30
0
41
1
10
168.861581772391
20
-1.50575051397024
30
0
41
1
10
168.70709251837
20
-1.44943333255191
30
0
41
1
10
168.605727464851
20
-1.38581680904809
30
0
41
1
10
168.530177275233
20
-1.32811259637572
30
0
41
1
10
168.505142016348
20
-1.30726084929646
30
0
41
1
10
168.455447686735
20
-1.26242697289322
30
0
41
1
10
168.430771522227
20
-1.23843189340386
30
0
41
1
10
168.406253008737
20
-1.21286176875466
30
0
0
SPLINE
5
CD
100
AcDbEntity
8
1
62
256
6
ByLayer
370
18
48
1
60
0
100
AcDbSpline
70
4
71
3
72
20
73
16
40
0
40
0
40
0
40
0
40
0.0353543232376322
40
0.0353543232376322
40
0.228283458590103
40
0.228283458590103
40
0.421212593942574
40
0.421212593942574
40
0.614141729295046
40
0.614141729295046
40
0.807070864647517
40
0.807070864647517
40
0.903535432323758
40
0.903535432323758
40
1
40
1
40
1
40
1
41
1
10
162.507230497029
20
8.49893850587952
30
0
41
1
10
162.576736017772
20
8.49895211095432
30
0
41
1
10
162.646237671798
20
8.49885307058736
30
0
41
1
10
163.094983324743
20
8.49748625144187
30
0
41
1
10
163.474068704734
20
8.49296623410069
30
0
41
1
10
164.232209604657
20
8.47717584602808
30
0
41
1
10
164.611288917283
20
8.46590807690825
30
0
41
1
10
165.369814250098
20
8.43676015915207
30
0
41
1
10
165.749200486831
20
8.41887427389403
30
0
41
1
10
166.508041589526
20
8.37640628768631
30
0
41
1
10
166.887502860993
20
8.35182324845897
30
0
41
1
10
167.456748363745
20
8.30985373786376
30
0
41
1
10
167.646529922353
20
8.29502652880936
30
0
41
1
10
168.026280224662
20
8.26377627954895
30
0
41
1
10
168.216232632278
20
8.24734447890228
30
0
41
1
10
168.406253008737
20
8.23010335920836
30
0
0
SPLINE
5
CE
100
AcDbEntity
8
1
62
256
6
ByLayer
370
18
48
1
60
0
100
AcDbSpline
70
4
71
3
72
153
73
149
40
0
40
0
40
0
40
0
40
0.0306194310263661
40
0.0306194310263661
40
0.0459291465395494
40
0.0459291465395494
40
0.0535840042961413
40
0.0535840042961413
40
0.0612388620527332
40
0.076548577565917
40
0.076548577565917
40
0.0918582930791009
40
0.0918582930791009
40
0.107168008592285
40
0.107168008592285
40
0.122477724105469
40
0.122477724105469
40
0.137787439618652
40
0.137787439618652
40
0.145442297375244
40
0.145442297375244
40
0.153097155131836
40
0.153097155131836
40
0.168406870645019
40
0.168406870645019
40
0.183716586158203
40
0.183716586158203
40
0.199026301671387
40
0.199026301671387
40
0.214336017184571
40
0.214336017184571
40
0.229645732697755
40
0.229645732697755
40
0.237300590454347
40
0.237300590454347
40
0.244955448210939
40
0.244955448210939
40
0.275574879237308
40
0.275574879237308
40
0.290884594750492
40
0.290884594750492
40
0.298539452507084
40
0.298539452507084
40
0.306194310263676
40
0.306194310263676
40
0.321504025776859
40
0.321504025776859
40
0.329158883533452
40
0.329158883533452
40
0.336813741290044
40
0.336813741290044
40
0.352123456803229
40
0.352123456803229
40
0.367433172316413
40
0.367433172316413
40
0.382742887829598
40
0.382742887829598
40
0.398052603342783
40
0.398052603342783
40
0.413362318855968
40
0.413362318855968
40
0.428672034369153
40
0.428672034369153
40
0.436326892125745
40
0.436326892125745
40
0.443981749882337
40
0.443981749882337
40
0.459291465395523
40
0.459291465395523
40
0.474601180908708
40
0.474601180908708
40
0.489910896421893
40
0.489910896421893
40
0.505220611935079
40
0.505220611935079
40
0.520530327448264
40
0.520530327448264
40
0.528185185204857
40
0.528185185204857
40
0.535840042961449
40
0.535840042961449
40
0.551149758474635
40
0.551149758474635
40
0.56645947398782
40
0.56645947398782
40
0.581769189501005
40
0.581769189501005
40
0.589424047257598
40
0.589424047257598
40
0.597078905014191
40
0.597078905014191
40
0.612388620527375
40
0.612388620527375
40
0.620043478283968
40
0.620043478283968
40
0.627698336040561
40
0.627698336040561
40
0.643008051553746
40
0.643008051553746
40
0.658317767066931
40
0.658317767066931
40
0.673627482580117
40
0.673627482580117
40
0.688937198093302
40
0.688937198093302
40
0.704246913606487
40
0.704246913606487
40
0.719556629119673
40
0.719556629119673
40
0.727211486876265
40
0.727211486876265
40
0.734866344632857
40
0.734866344632857
40
0.750176060146042
40
0.750176060146042
40
0.765485775659227
40
0.765485775659227
40
0.780795491172412
40
0.780795491172412
40
0.796105206685597
40
0.796105206685597
40
0.811414922198781
40
0.811414922198781
40
0.819069779955373
40
0.819069779955373
40
0.826724637711965
40
0.826724637711965
40
0.857344068738336
40
0.857344068738336
40
0.872653784251522
40
0.872653784251522
40
0.887963499764707
40
0.887963499764707
40
0.903273215277893
40
0.903273215277893
40
0.910928073034486
40
0.910928073034486
40
0.918582930791079
40
0.918582930791079
40
0.94920236181745
40
0.94920236181745
40
0.964512077330635
40
0.964512077330635
40
0.97982179284382
40
0.97982179284382
40
0.995131508357004
40
0.995131508357004
40
1
40
1
40
1
40
1
41
1
10
16.7941660956094
20
8.09717577774651
30
0
41
1
10
17.5391222631024
20
8.09032732103114
30
0
41
1
10
18.2837852539666
20
8.07114639496609
30
0
41
1
10
19.3997519689285
20
8.02409926688156
30
0
41
1
10
19.7715697368001
20
8.00535788377107
30
0
41
1
10
20.3289918983314
20
7.97259407195631
30
0
41
1
10
20.5147621468027
20
7.96090203874994
30
0
41
1
10
20.8863627990592
20
7.93605395292775
30
0
41
1
10
21.4438096021193
20
7.89656433073114
30
0
41
1
10
22.0013209257014
20
7.85043518529736
30
0
41
1
10
22.7446036245067
20
7.78295412674581
30
0
41
1
10
23.1161819118085
20
7.7461976225363
30
0
41
1
10
23.8593222571474
20
7.66668731344257
30
0
41
1
10
24.2309078977961
20
7.62394875592798
30
0
41
1
10
24.9744805539027
20
7.53288078957294
30
0
41
1
10
25.3464825063751
20
7.48458005617729
30
0
41
1
10
26.0907017851613
20
7.38222928086586
30
0
41
1
10
26.4629273902504
20
7.32818539630895
30
0
41
1
10
27.0213983580831
20
7.24271356119738
30
0
41
1
10
27.2075662947478
20
7.21347231677626
30
0
41
1
10
27.5800142458902
20
7.15360010171278
30
0
41
1
10
27.7663034218928
20
7.12300759534276
30
0
41
1
10
28.3249984477307
20
7.02936082092623
30
0
41
1
10
28.6973552568235
20
6.96439541089231
30
0
41
1
10
29.4417359231665
20
6.82925775753819
30
0
41
1
10
29.813749910374
20
6.75906913540189
30
0
41
1
10
30.557361482217
20
6.61332240032996
30
0
41
1
10
30.9289876908603
20
6.53780435575305
30
0
41
1
10
31.672229305742
20
6.38207718248626
30
0
41
1
10
32.0438942762168
20
6.30196272806444
30
0
41
1
10
32.7872354862541
20
6.13713827877413
30
0
41
1
10
33.1588817966454
20
6.05237231615638
30
0
41
1
10
33.7162639551964
20
5.92157471391613
30
0
41
1
10
33.9020437496392
20
5.87736749576888
30
0
41
1
10
34.2735682817893
20
5.78771579178508
30
0
41
1
10
34.459314937217
20
5.74227376205007
30
0
41
1
10
35.3883576246716
20
5.51278120979302
30
0
41
1
10
36.1323742883619
20
5.32153006024919
30
0
41
1
10
37.2488199785251
20
5.02154281416097
30
0
41
1
10
37.6210308032797
20
4.919325199414
30
0
41
1
10
38.1796864157183
20
4.76321212196194
30
0
41
1
10
38.3659926478786
20
4.71070420295553
30
0
41
1
10
38.7385021359528
20
4.60495662298686
30
0
41
1
10
38.9247339598253
20
4.55172308766547
30
0
41
1
10
39.4833311402667
20
4.39087752413056
30
0
41
1
10
39.8555807770823
20
4.28207878201803
30
0
41
1
10
40.4136440210199
20
4.11630803585254
30
0
41
1
10
40.5996151345283
20
4.06062677503516
30
0
41
1
10
40.9714500698752
20
3.94839430298342
30
0
41
1
10
41.1573046405712
20
3.89181919619173
30
0
41
1
10
41.7147772168092
20
3.72096296730658
30
0
41
1
10
42.0864489136229
20
3.60592567851475
30
0
41
1
10
42.8298237632143
20
3.37357737775292
30
0
41
1
10
43.201509786437
20
3.25622228938292
30
0
41
1
10
43.9447539579958
20
3.01881710569424
30
0
41
1
10
44.3162778337088
20
2.89867202275533
30
0
41
1
10
45.0593522756728
20
2.65608080547983
30
0
41
1
10
45.4309191454778
20
2.533678064751
30
0
41
1
10
46.1744675143377
20
2.2876547030875
30
0
41
1
10
46.5464140618487
20
2.16394148151204
30
0
41
1
10
47.2904640762087
20
1.91458442027186
30
0
41
1
10
47.6625796568419
20
1.78897385623347
30
0
41
1
10
48.2208488834634
20
1.59902170655752
30
0
41
1
10
48.4069476869944
20
1.53542722682059
30
0
41
1
10
48.7793252245716
20
1.40815459102197
30
0
41
1
10
48.9656422263688
20
1.34444021938023
30
0
41
1
10
49.5244822940591
20
1.15315473523532
30
0
41
1
10
49.8966948558001
20
1.0255090189693
30
0
41
1
10
50.640322077163
20
0.769617663362993
30
0
41
1
10
51.0117149698813
20
0.641302683043506
30
0
41
1
10
51.7536956216053
20
0.384057527533173
30
0
41
1
10
52.1243086358904
20
0.255210388867795
30
0
41
1
10
52.8651183862039
20
-0.0018748368832746
30
0
41
1
10
53.2353500630981
20
-0.130006966041208
30
0
41
1
10
53.9752966433919
20
-0.386004338987334
30
0
41
1
10
54.3450086330607
20
-0.513877682094062
30
0
41
1
10
54.8991414037407
20
-0.705627215524345
30
0
41
1
10
55.083774362431
20
-0.769549918227312
30
0
41
1
10
55.4529159617097
20
-0.897309232794811
30
0
41
1
10
55.6374479605118
20
-0.961074831772208
30
0
41
1
10
56.1910376072878
20
-1.15170206357274
30
0
41
1
10
56.5600424368951
20
-1.27803639886838
30
0
41
1
10
57.2978255441438
20
-1.52957071646725
30
0
41
1
10
57.6666027520357
20
-1.65477379881841
30
0
41
1
10
58.4038173102377
20
-1.90436998388895
30
0
41
1
10
58.7722710351308
20
-2.02871212459098
30
0
41
1
10
59.3249620873061
20
-2.21383880221069
30
0
41
1
10
59.5091952896306
20
-2.27531372467442
30
0
41
1
10
59.8777122761741
20
-2.39766911616107
30
0
41
1
10
60.061994972492
20
-2.45855295568353
30
0
41
1
10
60.6148733870683
20
-2.6404466383174
30
0
41
1
10
60.9834880520286
20
-2.76073158805997
30
0
41
1
10
61.5363872483274
20
-2.93987405203009
30
0
41
1
10
61.720684311097
20
-2.99937065382264
30
0
41
1
10
62.089266627044
20
-3.11794389139533
30
0
41
1
10
62.2735395991821
20
-3.17705422481131
30
0
41
1
10
62.8264758381628
20
-3.3533778420728
30
0
41
1
10
63.1953337549003
20
-3.46937328822784
30
0
41
1
10
63.933407014753
20
-3.69857661308632
30
0
41
1
10
64.3026208386823
20
-3.81178870385904
30
0
41
1
10
65.0412853985295
20
-4.03574131040006
30
0
41
1
10
65.4107071801261
20
-4.14655646783541
30
0
41
1
10
66.1499842912095
20
-4.36516969191217
30
0
41
1
10
66.519856110525
20
-4.47292404103712
30
0
41
1
10
67.260363433809
20
-4.68456265610479
30
0
41
1
10
67.6309540844759
20
-4.78856620661838
30
0
41
1
10
68.3726539487938
20
-4.99333215924568
30
0
41
1
10
68.7437736544065
20
-5.09406715311576
30
0
41
1
10
69.3008286305872
20
-5.24274654224038
30
0
41
1
10
69.486581764713
20
-5.29188786333745
30
0
41
1
10
69.8583590191017
20
-5.38900042854414
30
0
41
1
10
70.0443705813497
20
-5.43700319705837
30
0
41
1
10
70.6027510400122
20
-5.57940999806371
30
0
41
1
10
70.9756237276141
20
-5.6722515264845
30
0
41
1
10
71.7205114213766
20
-5.85351366914267
30
0
41
1
10
72.092670444892
20
-5.94203487497165
30
0
41
1
10
72.8365039279651
20
-6.11465228010113
30
0
41
1
10
73.2082028911566
20
-6.1986942537618
30
0
41
1
10
73.9515313665213
20
-6.36157522216487
30
0
41
1
10
74.3231837550497
20
-6.44038332288707
30
0
41
1
10
75.0662556216922
20
-6.59315250629828
30
0
41
1
10
75.4376807956815
20
-6.66710062985314
30
0
41
1
10
75.9946074664583
20
-6.77441433354463
30
0
41
1
10
76.1802046394531
20
-6.80959884159017
30
0
41
1
10
76.5513814892742
20
-6.87867237629774
30
0
41
1
10
76.7369889485471
20
-6.91251852762372
30
0
41
1
10
77.6651868525419
20
-7.07822086417076
30
0
41
1
10
78.4081404407713
20
-7.19973207191512
30
0
41
1
10
79.5224895769784
20
-7.36630453066621
30
0
41
1
10
79.8939601294907
20
-7.4191492115138
30
0
41
1
10
80.6372863268061
20
-7.51905027691456
30
0
41
1
10
81.0091904516778
20
-7.56605918776401
30
0
41
1
10
81.7534347500587
20
-7.65428029873291
30
0
41
1
10
82.125739777815
20
-7.69552887544072
30
0
41
1
10
82.6844206596931
20
-7.75312197168532
30
0
41
1
10
82.8707252854198
20
-7.77160904981727
30
0
41
1
10
83.2431822408571
20
-7.80712690146925
30
0
41
1
10
83.4293187978582
20
-7.82415919107345
30
0
41
1
10
84.3599419028826
20
-7.90538406896493
30
0
41
1
10
85.1041063940982
20
-7.95798109719976
30
0
41
1
10
86.2191158535154
20
-8.01896010383538
30
0
41
1
10
86.5905637641496
20
-8.03628295305688
30
0
41
1
10
87.3333350833346
20
-8.06476983346164
30
0
41
1
10
87.704687643041
20
-8.07592727597694
30
0
41
1
10
88.4475288212881
20
-8.09208417837948
30
0
41
1
10
88.8189602230715
20
-8.09710174045722
30
0
41
1
10
89.3084362663524
20
-8.09968407771595
30
0
41
1
10
89.4265280329625
20
-8.09999745831078
30
0
41
1
10
89.5446144271219
20
-8.10000001954319
30
0
0
SPLINE
5
CF
100
AcDbEntity
8
1
62
256
6
ByLayer
370
18
48
1
60
0
100
AcDbSpline
70
4
71
3
72
38
73
34
40
0
40
0
40
0
40
0
40
0.03769044633117
40
0.03769044633117
40
0.0777866777340357
40
0.0777866777340357
40
0.117882909136901
40
0.117882909136901
40
0.198075371942637
40
0.198075371942637
40
0.278267834748374
40
0.278267834748374
40
0.35846029755411
40
0.35846029755411
40
0.51884522316558
40
0.51884522316558
40
0.558941454568451
40
0.558941454568451
40
0.599037685971321
40
0.599037685971321
40
0.639133917374191
40
0.639133917374191
40
0.679230148777062
40
0.679230148777062
40
0.759422611582798
40
0.759422611582798
40
0.839615074388534
40
0.839615074388534
40
0.879711305791399
40
0.879711305791399
40
0.919807537194265
40
0.919807537194265
40
1
40
1
40
1
40
1
41
1
10
145.434227855727
20
5.93517024049683
30
0
41
1
10
145.607128658461
20
5.97596737505273
30
0
41
1
10
145.780037537233
20
6.01631376689102
30
0
41
1
10
146.136903153348
20
6.09865843488939
30
0
41
1
10
146.320848542727
20
6.14062073570759
30
0
41
1
10
146.688853582557
20
6.22332259959839
30
0
41
1
10
146.872925982899
20
6.26403807947619
30
0
41
1
10
147.425332028514
20
6.38432838514714
30
0
41
1
10
147.793852490708
20
6.46205321290037
30
0
41
1
10
148.531278607262
20
6.61278677279154
30
0
41
1
10
148.900171030784
20
6.68581840310623
30
0
41
1
10
149.638290559259
20
6.82720449468837
30
0
41
1
10
150.007545997781
20
6.89550394565902
30
0
41
1
10
151.116385669133
20
7.09237804005434
30
0
41
1
10
151.857207330418
20
7.21272823234122
30
0
41
1
10
152.784691975614
20
7.35026930860823
30
0
41
1
10
152.970264445905
20
7.37712577761573
30
0
41
1
10
153.34155999513
20
7.42952478007143
30
0
41
1
10
153.527291716229
20
7.45505436293504
30
0
41
1
10
153.899045891805
20
7.50461064678851
30
0
41
1
10
154.085055437422
20
7.52865546880665
30
0
41
1
10
154.457324628033
20
7.57530071799997
30
0
41
1
10
154.643614247153
20
7.59790464830854
30
0
41
1
10
155.20263535081
20
7.6635484068747
30
0
41
1
10
155.575241008147
20
7.70439110013524
30
0
41
1
10
156.320171763126
20
7.78032994846183
30
0
41
1
10
156.69249701602
20
7.81541553877145
30
0
41
1
10
157.251027466442
20
7.86350102489789
30
0
41
1
10
157.437212373597
20
7.87877268157581
30
0
41
1
10
157.809646448091
20
7.90777613216048
30
0
41
1
10
157.99589938159
20
7.92150631561501
30
0
41
1
10
158.554725973439
20
7.96041836695827
30
0
41
1
10
158.927352608614
20
7.98333291374064
30
0
41
1
10
159.3
20
8.00323670037997
30
0
0
SPLINE
5
D0
100
AcDbEntity
8
1
62
256
6
ByLayer
370
18
48
1
60
0
100
AcDbSpline
70
4
71
3
72
63
73
59
40
0
40
0
40
0
40
0
40
0.0728066983070916
40
0.0728066983070916
40
0.0910083728838645
40
0.0910083728838645
40
0.109210047460637
40
0.145613396614181
40
0.145613396614181
40
0.182016745767724
40
0.182016745767724
40
0.218420094921268
40
0.218420094921268
40
0.291226793228352
40
0.291226793228352
40
0.327630142381896
40
0.327630142381896
40
0.345831816958666
40
0.345831816958666
40
0.364033491535437
40
0.364033491535437
40
0.400436840688975
40
0.400436840688975
40
0.436840189842514
40
0.436840189842514
40
0.509646888149592
40
0.509646888149592
40
0.54605023730313
40
0.54605023730313
40
0.582453586456669
40
0.582453586456669
40
0.618856935610208
40
0.618856935610208
40
0.655260284763747
40
0.655260284763747
40
0.691663633917285
40
0.691663633917285
40
0.728066983070824
40
0.728066983070824
40
0.746268657647593
40
0.746268657647593
40
0.764470332224363
40
0.764470332224363
40
0.800873681377901
40
0.800873681377901
40
0.83727703053144
40
0.83727703053144
40
0.873680379684979
40
0.873680379684979
40
0.910083728838518
40
0.910083728838518
40
0.946487077992056
40
0.946487077992056
40
0.964688752568826
40
0.964688752568826
40
0.982890427145595
40
0.982890427145595
40
1
40
1
40
1
40
1
41
1
10
159.3
20
1.84215909740306
30
0
41
1
10
158.535325439537
20
2.10046806042095
30
0
41
1
10
157.771296025365
20
2.3547425495791
30
0
41
1
10
156.817355456334
20
2.66838781825135
30
0
41
1
10
156.626631086422
20
2.73092975739931
30
0
41
1
10
156.24519944105
20
2.85533394359135
30
0
41
1
10
155.673063335359
20
3.04088275699473
30
0
41
1
10
155.100980648659
20
3.22333454884029
30
0
41
1
10
154.33830487217
20
3.46400548130452
30
0
41
1
10
153.957027207982
20
3.58306639308196
30
0
41
1
10
153.194543478169
20
3.81849697746728
30
0
41
1
10
152.813330053082
20
3.93484503901601
30
0
41
1
10
151.669336642693
20
4.2786671834115
30
0
41
1
10
150.906116409554
20
4.50073194978347
30
0
41
1
10
149.760796080296
20
4.823923145252
30
0
41
1
10
149.378965718076
20
4.93005075219597
30
0
41
1
10
148.805723482176
20
5.08586182115175
30
0
41
1
10
148.614523643357
20
5.13728235727575
30
0
41
1
10
148.232243521851
20
5.23901230115857
30
0
41
1
10
148.041205967202
20
5.28931076348675
30
0
41
1
10
147.468409450432
20
5.43853839326479
30
0
41
1
10
147.086971820159
20
5.5358134208094
30
0
41
1
10
146.324936066278
20
5.72591893729253
30
0
41
1
10
145.944331048654
20
5.81872738338919
30
0
41
1
10
144.803377686828
20
6.08961963443869
30
0
41
1
10
144.043733170009
20
6.25989407468509
30
0
41
1
10
142.906017493762
20
6.50054767665273
30
0
41
1
10
142.527124897389
20
6.57838534674298
30
0
41
1
10
141.769510260705
20
6.7283699392072
30
0
41
1
10
141.390812627244
20
6.8005724197653
30
0
41
1
10
140.633682509249
20
6.9395202519249
30
0
41
1
10
140.255253788189
20
7.00627094119832
30
0
41
1
10
139.498688403869
20
7.134343089027
30
0
41
1
10
139.120546513615
20
7.19565134029151
30
0
41
1
10
138.364314689843
20
7.31248375919213
30
0
41
1
10
137.986187021178
20
7.36796150985668
30
0
41
1
10
137.229850371598
20
7.47300577405287
30
0
41
1
10
136.851665043927
20
7.52260285193779
30
0
41
1
10
136.284393335291
20
7.59263324763094
30
0
41
1
10
136.095303657823
20
7.61524851103621
30
0
41
1
10
135.717131081658
20
7.65902011379603
30
0
41
1
10
135.528051935987
20
7.68017883781522
30
0
41
1
10
134.960660327003
20
7.74130334805679
30
0
41
1
10
134.582219046353
20
7.77894863541215
30
0
41
1
10
133.825021359831
20
7.8480989444553
30
0
41
1
10
133.446267979098
20
7.87960615699731
30
0
41
1
10
132.688484177665
20
7.93647724649162
30
0
41
1
10
132.309458653585
20
7.96183893800671
30
0
41
1
10
131.550936666128
20
8.00625115032813
30
0
41
1
10
131.171411660476
20
8.02528789099415
30
0
41
1
10
130.411681505875
20
8.05696730198375
30
0
41
1
10
130.03150829739
20
8.06962694899175
30
0
41
1
10
129.460822031491
20
8.08382964606855
30
0
41
1
10
129.270521634863
20
8.08776534829983
30
0
41
1
10
128.889781359798
20
8.09402973196558
30
0
41
1
10
128.699350186467
20
8.09635869709521
30
0
41
1
10
128.329720839822
20
8.09930093250406
30
0
41
1
10
128.150520540331
20
8.10000908097206
30
0
41
1
10
127.971220079997
20
8.10000040830059
30
0
0
SPLINE
5
D1
100
AcDbEntity
8
1
62
256
6
ByLayer
370
18
48
1
60
0
100
AcDbSpline
70
4
71
3
72
104
73
100
40
0
40
0
40
0
40
0
40
0.0326949039865555
40
0.0326949039865555
40
0.0713871078270927
40
0.0713871078270927
40
0.0810601587872269
40
0.0810601587872269
40
0.0907332097473611
40
0.0907332097473611
40
0.110079311667629
40
0.110079311667629
40
0.129425413587897
40
0.129425413587897
40
0.148771515508165
40
0.148771515508165
40
0.168117617428432
40
0.168117617428432
40
0.1874637193487
40
0.1874637193487
40
0.226155923189236
40
0.226155923189236
40
0.23582897414937
40
0.23582897414937
40
0.245502025109505
40
0.264848127029773
40
0.264848127029773
40
0.284194228950042
40
0.284194228950042
40
0.303540330870311
40
0.303540330870311
40
0.342232534710848
40
0.342232534710848
40
0.351905585670983
40
0.351905585670983
40
0.361578636631117
40
0.380924738551386
40
0.380924738551386
40
0.400270840471655
40
0.400270840471655
40
0.419616942391924
40
0.419616942391924
40
0.458309146232462
40
0.458309146232462
40
0.477655248152731
40
0.477655248152731
40
0.497001350073
40
0.497001350073
40
0.516347451993269
40
0.516347451993269
40
0.535693553913538
40
0.535693553913538
40
0.574385757754077
40
0.574385757754077
40
0.593731859674347
40
0.593731859674347
40
0.613077961594616
40
0.613077961594616
40
0.632424063514886
40
0.632424063514886
40
0.651770165435155
40
0.651770165435155
40
0.671116267355425
40
0.671116267355425
40
0.690462369275694
40
0.690462369275694
40
0.700135420235829
40
0.700135420235829
40
0.709808471195963
40
0.709808471195963
40
0.729154573116233
40
0.729154573116233
40
0.748500675036502
40
0.748500675036502
40
0.767846776956772
40
0.767846776956772
40
0.787192878877041
40
0.787192878877041
40
0.80653898079731
40
0.80653898079731
40
0.816212031757445
40
0.816212031757445
40
0.82588508271758
40
0.82588508271758
40
0.845231184637849
40
0.845231184637849
40
0.864577286558118
40
0.864577286558118
40
0.883923388478386
40
0.883923388478386
40
0.903269490398655
40
0.903269490398655
40
0.922615592318924
40
0.922615592318924
40
0.941961694239193
40
0.941961694239193
40
0.961307796159462
40
0.961307796159462
40
1
40
1
40
1
40
1
41
1
10
72.0797522639461
20
-5.93671997884962
30
0
41
1
10
71.4358113651105
20
-6.08875665572296
30
0
41
1
10
70.7915585990643
20
-6.23363931976499
30
0
41
1
10
69.3844385162556
20
-6.53487058828054
30
0
41
1
10
68.6215526296188
20
-6.68848193238148
30
0
41
1
10
67.6664834594574
20
-6.86634866326119
30
0
41
1
10
67.4754056776188
20
-6.90123223135026
30
0
41
1
10
67.0931336652329
20
-6.96963704372993
30
0
41
1
10
66.9018940564505
20
-7.00316485155437
30
0
41
1
10
66.3286969545164
20
-7.10158955850397
30
0
41
1
10
65.9470939648285
20
-7.16439580070045
30
0
41
1
10
65.1848450809541
20
-7.28422094042941
30
0
41
1
10
64.8040773039459
20
-7.34105751318614
30
0
41
1
10
64.0432329811642
20
-7.44865165516234
30
0
41
1
10
63.6631664791902
20
-7.49942404632432
30
0
41
1
10
62.9037800996644
20
-7.59499792001188
30
0
41
1
10
62.5244737166871
20
-7.63980986191928
30
0
41
1
10
61.7664825286675
20
-7.72331854316323
30
0
41
1
10
61.3877854114516
20
-7.76200034194648
30
0
41
1
10
60.2522053371749
20
-7.86856503045234
30
0
41
1
10
59.4959717071227
20
-7.92715023142861
30
0
41
1
10
58.5519070229479
20
-7.9849373239646
30
0
41
1
10
58.3631393874758
20
-7.99571005434493
30
0
41
1
10
57.9856135310699
20
-8.01565218950537
30
0
41
1
10
57.4193676361789
20
-8.04317583839671
30
0
41
1
10
56.8532752095586
20
-8.06358505762432
30
0
41
1
10
56.098668099259
20
-8.08450246135618
30
0
41
1
10
55.7214695164488
20
-8.09181324103423
30
0
41
1
10
54.967175295301
20
-8.10009163212277
30
0
41
1
10
54.5900751933922
20
-8.1010542048576
30
0
41
1
10
53.4584708500614
20
-8.0944299435819
30
0
41
1
10
52.7037187907331
20
-8.07740050272687
30
0
41
1
10
51.7601087120002
20
-8.04019850892038
30
0
41
1
10
51.5713852248355
20
-8.03195544740998
30
0
41
1
10
51.1938233158957
20
-8.01390363483662
30
0
41
1
10
50.6273093613882
20
-7.98447995208269
30
0
41
1
10
50.060303513608
20
-7.94804351011783
30
0
41
1
10
49.3039082938706
20
-7.89319750514318
30
0
41
1
10
48.9255259730081
20
-7.86263414749951
30
0
41
1
10
48.1683398605861
20
-7.79520637729354
30
0
41
1
10
47.7895291085836
20
-7.75834169368744
30
0
41
1
10
46.6520390483229
20
-7.63861567264348
30
0
41
1
10
45.8922281747333
20
-7.5467700272591
30
0
41
1
10
44.7505780746989
20
-7.39039301156123
30
0
41
1
10
44.3697284783089
20
-7.33510925018783
30
0
41
1
10
43.6069342543807
20
-7.21887570399483
30
0
41
1
10
43.2250381098323
20
-7.15787041936389
30
0
41
1
10
42.4602911476534
20
-7.02999108302697
30
0
41
1
10
42.0781467691581
20
-6.96322329474668
30
0
41
1
10
41.3144409960806
20
-6.82406557508318
30
0
41
1
10
40.9328495236939
20
-6.75167940866717
30
0
41
1
10
39.7884600026322
20
-6.52676229110327
30
0
41
1
10
39.0258773713837
20
-6.36680610305564
30
0
41
1
10
37.8828114441091
20
-6.11140772415351
30
0
41
1
10
37.5019800673527
20
-6.02357522671531
30
0
41
1
10
36.7401485603683
20
-5.84357193816689
30
0
41
1
10
36.3591758754458
20
-5.75135694199744
30
0
41
1
10
35.597167567698
20
-5.5624202471798
30
0
41
1
10
35.216136184269
20
-5.46568911425459
30
0
41
1
10
34.4540352958553
20
-5.26764369057193
30
0
41
1
10
34.072959553557
20
-5.16633856910039
30
0
41
1
10
33.3105126549481
20
-4.95969542460276
30
0
41
1
10
32.9291018390625
20
-4.85445193618193
30
0
41
1
10
32.1658647064265
20
-4.64023541340003
30
0
41
1
10
31.7840605364805
20
-4.53121071529168
30
0
41
1
10
31.2111058568388
20
-4.36470317395936
30
0
41
1
10
31.0200795621826
20
-4.3087051530994
30
0
41
1
10
30.6379480080613
20
-4.19570009030312
30
0
41
1
10
30.4467928872381
20
-4.13868697363466
30
0
41
1
10
29.8735918770518
20
-3.96675324597527
30
0
41
1
10
29.4917303033503
20
-3.85080966765327
30
0
41
1
10
28.7285903657702
20
-3.61618852107688
30
0
41
1
10
28.3473150131055
20
-3.49750259144218
30
0
41
1
10
27.5853837790029
20
-3.25729776901775
30
0
41
1
10
27.2047280404528
20
-3.13577742297227
30
0
41
1
10
26.443819715157
20
-2.89050578136712
30
0
41
1
10
26.0635324739283
20
-2.76685207248264
30
0
41
1
10
25.3031766065479
20
-2.51784342162756
30
0
41
1
10
24.9231375437716
20
-2.39240552973621
30
0
41
1
10
24.3533233191894
20
-2.20274612979904
30
0
41
1
10
24.1634256496594
20
-2.13927672570287
30
0
41
1
10
23.7837164895169
20
-2.01182239358417
30
0
41
1
10
23.5939145659057
20
-1.94780982979549
30
0
41
1
10
23.0245017583236
20
-1.75538922427935
30
0
41
1
10
22.6448683557755
20
-1.62664410121235
30
0
41
1
10
21.8855949211381
20
-1.36810873097338
30
0
41
1
10
21.5059580591437
20
-1.23830926090554
30
0
41
1
10
20.74672128887
20
-0.977536123783949
30
0
41
1
10
20.3671311389107
20
-0.846532994095298
30
0
41
1
10
19.6078117719089
20
-0.583862255172761
30
0
41
1
10
19.2280580688038
20
-0.452266814532777
30
0
41
1
10
18.4681631022101
20
-0.189151091822964
30
0
41
1
10
18.0880562453564
20
-0.0575295842508012
30
0
41
1
10
17.3275822084056
20
0.206018013808091
30
0
41
1
10
16.9472335358181
20
0.338000228300842
30
0
41
1
10
16.1862075363907
20
0.602076433701797
30
0
41
1
10
15.8054002033874
20
0.733777263352437
30
0
41
1
10
14.6620481623933
20
1.12771791757513
30
0
41
1
10
13.8986078376032
20
1.38889255392579
30
0
41
1
10
13.1341422412815
20
1.64921432059455
30
0
0
SPLINE
5
D2
100
AcDbEntity
8
1
62
256
6
ByLayer
370
18
48
1
60
0
100
AcDbSpline
70
4
71
3
72
14
73
10
40
0
40
0
40
0
40
0
40
0.25
40
0.25
40
0.5
40
0.5
40
0.75
40
0.75
40
1
40
1
40
1
40
1
41
1
10
13.1341422412816
20
1.64921432059452
30
0
41
1
10
12.8680200961449
20
1.74269940624666
30
0
41
1
10
12.6034850589383
20
1.83950383673758
30
0
41
1
10
12.0769282649604
20
2.03797073905594
30
0
41
1
10
11.8149040385539
20
2.13962816143209
30
0
41
1
10
11.2929305419004
20
2.346590972195
30
0
41
1
10
11.0329798326453
20
2.45189426261436
30
0
41
1
10
10.5150043982488
20
2.6656347612699
30
0
41
1
10
10.2569794948701
20
2.77407315528367
30
0
41
1
10
10
20
2.88417616658452
30
0
0
SPLINE
5
D3
100
AcDbEntity
8
1
62
256
6
ByLayer
370
18
48
1
60
0
100
AcDbSpline
70
4
71
4
72
13
73
8
40
0
40
0
40
0
40
0
40
0
40
0.469678292834314
40
0.469678292834314
40
0.469678292834314
40
1
40
1
40
1
40
1
40
1
41
0.996555275575431
10
16.7941660956093
20
8.09717577774651
30
0
41
0.99468484496594
10
16.6793718020618
20
7.15645423710491
30
0
41
0.994532533510353
10
16.4837260566602
20
6.12175369634896
30
0
41
1
10
16.2168504265507
20
5.11366118230939
30
0
41
1
10
15.6129494379878
20
3.2674896982374
30
0
41
0.993029499537022
10
15.2188349740395
20
2.30810181923657
30
0
41
0.995048773534651
10
14.8024629767959
20
1.59976835008745
30
0
41
0.997655391350891
10
14.4280253563156
20
1.18193786072433
30
0
0
SPLINE
5
D4
100
AcDbEntity
8
1
62
256
6
ByLayer
370
18
48
1
60
0
100
AcDbSpline
70
4
71
3
72
25
73
21
40
0
40
0
40
0
40
0
40
0.125000000000007
40
0.125000000000007
40
0.250000000000015
40
0.250000000000015
40
0.375000000000022
40
0.375000000000022
40
0.500000000000029
40
0.500000000000029
40
0.562500000000033
40
0.562500000000033
40
0.593750000000032
40
0.593750000000032
40
0.625000000000031
40
0.75000000000002
40
0.75000000000002
40
0.87500000000001
40
0.87500000000001
40
1
40
1
40
1
40
1
41
1
10
10
20
8.06149467831642
30
0
41
1
10
10.2890881686817
20
8.0580706828886
30
0
41
1
10
10.5775951394623
20
8.05561136696562
30
0
41
1
10
11.1535418201268
20
8.05302044593421
30
0
41
1
10
11.4409809993853
20
8.05288499689627
30
0
41
1
10
12.0148659893872
20
8.05480476422619
30
0
41
1
10
12.3013114028762
20
8.05685722190091
30
0
41
1
10
12.8732765770293
20
8.06258629661747
30
0
41
1
10
13.1587960234129
20
8.06626002334039
30
0
41
1
10
13.5864350199704
20
8.0723021150105
30
0
41
1
10
13.728874720302
20
8.07440226314023
30
0
41
1
10
13.9423819350981
20
8.07757756411905
30
0
41
1
10
14.0135496564947
20
8.07864041815051
30
0
41
1
10
14.1555400055129
20
8.08075135335272
30
0
41
1
10
14.5098203367023
20
8.08599440180225
30
0
41
1
10
14.8607485130226
20
8.09083073704355
30
0
41
1
10
15.4186064775848
20
8.09685089343725
30
0
41
1
10
15.6957228044043
20
8.09899840961015
30
0
41
1
10
16.2470000020935
20
8.100455030391
30
0
41
1
10
16.5211628460938
20
8.09976224568166
30
0
41
1
10
16.7941660956094
20
8.09717577774651
30
0
0
SPLINE
5
D5
100
AcDbEntity
8
1
62
256
6
ByLayer
370
18
48
1
60
0
100
AcDbSpline
70
4
71
3
72
103
73
99
40
0
40
0
40
0
40
0
40
0.0624999999999948
40
0.0624999999999948
40
0.0937499999999927
40
0.0937499999999927
40
0.124999999999991
40
0.124999999999991
40
0.156249999999989
40
0.156249999999989
40
0.187499999999987
40
0.187499999999987
40
0.203124999999986
40
0.203124999999986
40
0.210937499999986
40
0.210937499999986
40
0.218749999999985
40
0.218749999999985
40
0.249999999999983
40
0.249999999999983
40
0.281249999999981
40
0.281249999999981
40
0.296874999999981
40
0.296874999999981
40
0.304687499999981
40
0.304687499999981
40
0.312499999999981
40
0.312499999999981
40
0.343749999999981
40
0.343749999999981
40
0.37499999999998
40
0.37499999999998
40
0.37890624999998
40
0.37890624999998
40
0.38281249999998
40
0.38281249999998
40
0.39062499999998
40
0.39062499999998
40
0.406249999999981
40
0.406249999999981
40
0.421874999999981
40
0.421874999999981
40
0.437499999999981
40
0.437499999999981
40
0.445312499999981
40
0.445312499999981
40
0.453124999999982
40
0.453124999999982
40
0.468749999999982
40
0.484374999999982
40
0.484374999999982
40
0.492187499999982
40
0.492187499999982
40
0.496093749999982
40
0.496093749999982
40
0.499999999999982
40
0.499999999999982
40
0.531249999999983
40
0.531249999999983
40
0.539062499999983
40
0.539062499999983
40
0.546874999999983
40
0.546874999999983
40
0.562499999999983
40
0.562499999999983
40
0.593749999999983
40
0.593749999999983
40
0.601562499999984
40
0.601562499999984
40
0.609374999999984
40
0.609374999999984
40
0.624999999999985
40
0.624999999999985
40
0.656249999999987
40
0.656249999999987
40
0.687499999999989
40
0.687499999999989
40
0.70312499999999
40
0.70312499999999
40
0.718749999999991
40
0.718749999999991
40
0.749999999999992
40
0.749999999999992
40
0.781249999999993
40
0.781249999999993
40
0.812499999999994
40
0.812499999999994
40
0.843749999999995
40
0.843749999999995
40
0.874999999999996
40
0.874999999999996
40
0.906249999999997
40
0.906249999999997
40
0.937499999999998
40
0.937499999999998
40
0.968749999999999
40
0.968749999999999
40
1
40
1
40
1
40
1
41
1
10
10
20
8.06149467831642
30
0
41
1
10
9.59931714329559
20
8.14252880243467
30
0
41
1
10
9.20404874134863
20
8.22383020411326
30
0
41
1
10
8.61942778391924
20
8.34421160439172
30
0
41
1
10
8.42593536035179
20
8.38406654305834
30
0
41
1
10
8.04176047349756
20
8.46275971719047
30
0
41
1
10
7.85107767989726
20
8.50159890694411
30
0
41
1
10
7.47259339819203
20
8.57766819906104
30
0
41
1
10
7.2847914270406
20
8.61489991214796
30
0
41
1
10
6.91217635336847
20
8.68700338972772
30
0
41
1
10
6.72736247998736
20
8.72187792260371
30
0
41
1
10
6.45250479195369
20
8.77169024676695
30
0
41
1
10
6.36127990979287
20
8.78787579663245
30
0
41
1
10
6.22505502137403
20
8.81141253038948
30
0
41
1
10
6.17974758778391
20
8.81913425575826
30
0
41
1
10
6.08968100284835
20
8.83425292147936
30
0
41
1
10
6.04487948369288
20
8.84165725329038
30
0
41
1
10
5.82204558217046
20
8.87785703207152
30
0
41
1
10
5.64752480247756
20
8.90420099847901
30
0
41
1
10
5.30649538547237
20
8.95024967991898
30
0
41
1
10
5.13998186041187
20
8.96996221202224
30
0
41
1
10
4.89684017714137
20
8.99314729590856
30
0
41
1
10
4.81690057057091
20
8.99980733659271
30
0
41
1
10
4.69876481230435
20
9.00796562211698
30
0
41
1
10
4.65963432558124
20
9.01038168814384
30
0
41
1
10
4.58225496455321
20
9.01454454462487
30
0
41
1
10
4.54401739854956
20
9.01629162252419
30
0
41
1
10
4.35513743566412
20
9.02327240672722
30
0
41
1
10
4.21138283124628
20
9.02327786242648
30
0
41
1
10
3.94030063158078
20
9.00950073056637
30
0
41
1
10
3.81294687732128
20
8.99574606806706
30
0
41
1
10
3.68058693175274
20
8.97032646905913
30
0
41
1
10
3.6660330324475
20
8.9673627081234
30
0
41
1
10
3.63723893771245
20
8.96114640638862
30
0
41
1
10
3.62298414757146
20
8.95789024224391
30
0
41
1
10
3.58082448752867
20
8.94770227783329
30
0
41
1
10
3.55354036975587
20
8.94035695583838
30
0
41
1
10
3.47420871013674
20
8.91659697275477
30
0
41
1
10
3.42467767947275
20
8.89846108276654
30
0
41
1
10
3.3327059737953
20
8.85719719586402
30
0
41
1
10
3.2902638752584
20
8.83407027776175
30
0
41
1
10
3.21299535078165
20
8.78232376213259
30
0
41
1
10
3.1781666881717
20
8.75370582253197
30
0
41
1
10
3.13218225129609
20
8.70617767548924
30
0
41
1
10
3.11801407593714
20
8.6896814796458
30
0
41
1
10
3.09207979231212
20
8.6554607783292
30
0
41
1
10
3.08029983142296
20
8.63772205756177
30
0
41
1
10
3.04853067378258
20
8.58260209790558
30
0
41
1
10
3.01568379435864
20
8.50403576015108
30
0
41
1
10
3.00219104534082
20
8.41503906552808
30
0
41
1
10
2.99957695147157
20
8.3442262104206
30
0
41
1
10
2.99995791936041
20
8.31994380189701
30
0
41
1
10
3.0024519885136
20
8.28247850024761
30
0
41
1
10
3.00360676876738
20
8.26979434651156
30
0
41
1
10
3.0065492054562
20
8.24420732321562
30
0
41
1
10
3.00833545555378
20
8.23130455338062
30
0
41
1
10
3.02720093503285
20
8.114212952315
30
0
41
1
10
3.06368966307656
20
8.00328541442224
30
0
41
1
10
3.13174484350924
20
7.85699146899449
30
0
41
1
10
3.14648438518253
20
7.82734942824092
30
0
41
1
10
3.17818818357017
20
7.76731641606966
30
0
41
1
10
3.19520129816493
20
7.7368460959826
30
0
41
1
10
3.24904119266643
20
7.64516249032943
30
0
41
1
10
3.28869998271602
20
7.58356475067902
30
0
41
1
10
3.41784713577147
20
7.39756931751853
30
0
41
1
10
3.5174529398669
20
7.27197786973136
30
0
41
1
10
3.65627420558104
20
7.11357148869521
30
0
41
1
10
3.68475866958437
20
7.08181865846419
30
0
41
1
10
3.74311953201479
20
7.01818173476315
30
0
41
1
10
3.77305135013609
20
6.98624059613985
30
0
41
1
10
3.86434846076477
20
6.89077566163238
30
0
41
1
10
3.927233039942
20
6.82757450380311
30
0
41
1
10
4.12127564079094
20
6.63921133260541
30
0
41
1
10
4.25779469801142
20
6.51528718946423
30
0
41
1
10
4.54253927717139
20
6.27038891009511
30
0
41
1
10
4.69078023327239
20
6.1494172446653
30
0
41
1
10
4.92054705392721
20
5.96995237849265
30
0
41
1
10
4.99837457578835
20
5.91046305183039
30
0
41
1
10
5.15631538799144
20
5.79211233024634
30
0
41
1
10
5.23596956183593
20
5.73359423540359
30
0
41
1
10
5.47674423939338
20
5.55983495261472
30
0
41
1
10
5.63968261678355
20
5.44637402018338
30
0
41
1
10
5.9694919525877
20
5.22332485978907
30
0
41
1
10
6.13636565653661
20
5.11373884164843
30
0
41
1
10
6.4733301618316
20
4.89770940323635
30
0
41
1
10
6.64342224337668
20
4.79126684044707
30
0
41
1
10
6.98623676614739
20
4.58089694239197
30
0
41
1
10
7.1589596683697
20
4.47696966110445
30
0
41
1
10
7.50655385276355
20
4.27109383166658
30
0
41
1
10
7.68142510853107
20
4.16914482283357
30
0
41
1
10
8.03293340818598
20
3.96678703728483
30
0
41
1
10
8.20957015265549
20
3.86637749099785
30
0
41
1
10
8.56433190065547
20
3.6667773583504
30
0
41
1
10
8.74245650492682
20
3.56758588510854
30
0
41
1
10
9.10003264651237
20
3.37024345716333
30
0
41
1
10
9.2795376139884
20
3.272063280949
30
0
41
1
10
9.63916733026863
20
3.07709637074632
30
0
41
1
10
9.81936809226801
20
2.98026676387292
30
0
41
1
10
10
20
2.88417616658452
30
0
0
SPLINE
5
D6
100
AcDbEntity
8
1
62
256
6
ByLayer
370
18
48
1
60
0
100
AcDbSpline
70
4
71
3
72
16
73
12
40
0
40
0
40
0
40
0
40
0.377572249023195
40
0.377572249023195
40
0.566358373534792
40
0.566358373534792
40
0.755144498046389
40
0.755144498046389
40
0.943930622557986
40
0.943930622557986
40
1
40
1
40
1
40
1
41
1
10
10
20
-8.06149467831642
30
0
41
1
10
9.59931714329556
20
-8.14252880243467
30
0
41
1
10
9.20404874134863
20
-8.22383020411326
30
0
41
1
10
8.61942778391926
20
-8.34421160439172
30
0
41
1
10
8.42593536035182
20
-8.38406654305837
30
0
41
1
10
8.04176047349759
20
-8.46275971719049
30
0
41
1
10
7.85107767989729
20
-8.50159890694411
30
0
41
1
10
7.47259339819206
20
-8.57766819906107
30
0
41
1
10
7.2847914270406
20
-8.61489991214796
30
0
41
1
10
7.04315065196906
20
-8.66165899796812
30
0
41
1
10
6.98794916781608
20
-8.67226250521804
30
0
41
1
10
6.93288157945884
20
-8.68274935899538
30
0
0
SPLINE
5
D7
100
AcDbEntity
8
SK1
62
256
6
ByLayer
370
18
48
1
60
0
100
AcDbSpline
70
4
71
3
72
32
73
28
40
0
40
0
40
0
40
0
40
0.124999999999998
40
0.124999999999998
40
0.249999999999995
40
0.249999999999995
40
0.374999999999994
40
0.374999999999994
40
0.437499999999993
40
0.437499999999993
40
0.499999999999992
40
0.499999999999992
40
0.624999999999988
40
0.624999999999988
40
0.656249999999988
40
0.656249999999988
40
0.687499999999988
40
0.687499999999988
40
0.74999999999999
40
0.74999999999999
40
0.874999999999995
40
0.874999999999995
40
0.906249999999996
40
0.906249999999996
40
0.937499999999998
40
0.937499999999998
40
1
40
1
40
1
40
1
41
1
10
-43.3565069115799
20
-3.65034953143106
30
0
41
1
10
-43.3331458400142
20
-3.71424193668162
30
0
41
1
10
-43.3079887114829
20
-3.77702079626832
30
0
41
1
10
-43.2534212788423
20
-3.90009490817781
30
0
41
1
10
-43.2240149751524
20
-3.96039186522651
30
0
41
1
10
-43.1600568886594
20
-4.07814914960466
30
0
41
1
10
-43.1255132756746
20
-4.13561297938583
30
0
41
1
10
-43.0688646453433
20
-4.21928792338744
30
0
41
1
10
-43.0491724017425
20
-4.24675781820287
30
0
41
1
10
-43.0079384175976
20
-4.30075945417201
30
0
41
1
10
-42.9863407519915
20
-4.32734895814056
30
0
41
1
10
-42.9191284528728
20
-4.40464696643178
30
0
41
1
10
-42.8709653357112
20
-4.45314968312832
30
0
41
1
10
-42.8054200814028
20
-4.509129269905
30
0
41
1
10
-42.7920414880158
20
-4.52009075475445
30
0
41
1
10
-42.7647046009874
20
-4.54151368998052
30
0
41
1
10
-42.7507137384423
20
-4.55199803198428
30
0
41
1
10
-42.7080552923505
20
-4.58246627252342
30
0
41
1
10
-42.6787844981831
20
-4.60141919352105
30
0
41
1
10
-42.588250922941
20
-4.65388326760876
30
0
41
1
10
-42.5243097226538
20
-4.68306815187688
30
0
41
1
10
-42.4386823815538
20
-4.71050598268181
30
0
41
1
10
-42.4212064346087
20
-4.71554997578619
30
0
41
1
10
-42.3860524535981
20
-4.72455026306568
30
0
41
1
10
-42.3683576016114
20
-4.72851630488563
30
0
41
1
10
-42.3149119913326
20
-4.73878190613445
30
0
41
1
10
-42.2788010667419
20
-4.74345326345804
30
0
41
1
10
-42.2421801837133
20
-4.74582511601491
30
0
0
SPLINE
5
D8
100
AcDbEntity
8
SK1
62
256
6
ByLayer
370
18
48
1
60
0
100
AcDbSpline
70
4
71
3
72
32
73
28
40
0
40
0
40
0
40
0
40
0.125000000000003
40
0.125000000000003
40
0.156250000000003
40
0.156250000000003
40
0.187500000000004
40
0.187500000000004
40
0.250000000000005
40
0.250000000000005
40
0.312500000000005
40
0.312500000000005
40
0.343750000000005
40
0.343750000000005
40
0.375000000000006
40
0.375000000000006
40
0.500000000000003
40
0.500000000000003
40
0.625
40
0.625
40
0.6875
40
0.6875
40
0.749999999999999
40
0.749999999999999
40
0.875
40
0.875
40
1
40
1
40
1
40
1
41
1
10
-42.2421801837133
20
4.74582511601491
30
0
41
1
10
-42.3153322469605
20
4.74108722075121
30
0
41
1
10
-42.3858382182456
20
4.7272872503076
30
0
41
1
10
-42.4711061087408
20
4.70015187597528
30
0
41
1
10
-42.48801508965
20
4.69422552159884
30
0
41
1
10
-42.5215500807622
20
4.68139247012627
30
0
41
1
10
-42.538108088977
20
4.67450874413797
30
0
41
1
10
-42.5867495214037
20
4.65272655031879
30
0
41
1
10
-42.6179919315484
20
4.63663028483114
30
0
41
1
10
-42.6784054316375
20
4.60165673094545
30
0
41
1
10
-42.707575323895
20
4.58277786641952
30
0
41
1
10
-42.7499378830322
20
4.55256723042981
30
0
41
1
10
-42.7638261651476
20
4.54218093900309
30
0
41
1
10
-42.7911594285605
20
4.52080182261719
30
0
41
1
10
-42.8046315534326
20
4.50978473494575
30
0
41
1
10
-42.8704332773146
20
4.45367358335039
30
0
41
1
10
-42.9183823606968
20
4.40538606397868
30
0
41
1
10
-43.007200043589
20
4.30347549467811
30
0
41
1
10
-43.0480454261384
20
4.2498368571521
30
0
41
1
10
-43.1050091824334
20
4.16599396786131
30
0
41
1
10
-43.1233071500575
20
4.13742383693679
30
0
41
1
10
-43.1584042823022
20
4.07953032751405
30
0
41
1
10
-43.1751994309136
20
4.05022195040382
30
0
41
1
10
-43.2235710813646
20
3.96130068776944
30
0
41
1
10
-43.2531438067293
20
3.90069540381026
30
0
41
1
10
-43.3079263511211
20
3.77718661911314
30
0
41
1
10
-43.3331314373585
20
3.7142813278675
30
0
41
1
10
-43.3565069115799
20
3.65034953143106
30
0
0
SPLINE
5
D9
100
AcDbEntity
8
SK1
62
256
6
ByLayer
370
18
48
1
60
0
100
AcDbSpline
70
4
71
3
72
30
73
26
40
0
40
0
40
0
40
0
40
0.124999999999979
40
0.124999999999979
40
0.249999999999958
40
0.249999999999958
40
0.374999999999936
40
0.374999999999936
40
0.437499999999926
40
0.437499999999926
40
0.499999999999916
40
0.499999999999916
40
0.624999999999908
40
0.624999999999908
40
0.656249999999909
40
0.656249999999909
40
0.68749999999991
40
0.68749999999991
40
0.749999999999925
40
0.749999999999925
40
0.874999999999955
40
0.874999999999955
40
0.937499999999978
40
0.937499999999978
40
1
40
1
40
1
40
1
41
1
10
-13.8451406288876
20
5.60819856978108
30
0
41
1
10
-13.8759395902576
20
5.65059861248182
30
0
41
1
10
-13.9086043985849
20
5.69152013904011
30
0
41
1
10
-13.97811386775
20
5.77019024979575
30
0
41
1
10
-14.014955839279
20
5.80794050815649
30
0
41
1
10
-14.0934302354091
20
5.87995203844818
30
0
41
1
10
-14.1350574932389
20
5.91421654427231
30
0
41
1
10
-14.2017568377706
20
5.9626308553903
30
0
41
1
10
-14.2245427507748
20
5.97815093867465
30
0
41
1
10
-14.271111369383
20
6.00780504420359
30
0
41
1
10
-14.2949186549204
20
6.02195716348245
30
0
41
1
10
-14.3679929543377
20
6.06230994483028
30
0
41
1
10
-14.4189025587777
20
6.08641928516369
30
0
41
1
10
-14.4856782999412
20
6.11265441828212
30
0
41
1
10
-14.4991911565357
20
6.11770540783806
30
0
41
1
10
-14.5265457311327
20
6.12740066932034
30
0
41
1
10
-14.5403907312758
20
6.13204445753533
30
0
41
1
10
-14.5820565255816
20
6.14522762072318
30
0
41
1
10
-14.6101298025697
20
6.1530644585383
30
0
41
1
10
-14.6952537679042
20
6.17368858860661
30
0
41
1
10
-14.7532042147282
20
6.18360487337517
30
0
41
1
10
-14.8420639597241
20
6.19236276786617
30
0
41
1
10
-14.8721089186227
20
6.1942576600421
30
0
41
1
10
-14.9321260265236
20
6.19588455534111
30
0
41
1
10
-14.9621459212296
20
6.19562887243725
30
0
41
1
10
-14.9921771997116
20
6.19429975368809
30
0
0
SPLINE
5
DA
100
AcDbEntity
8
SK1
62
256
6
ByLayer
370
18
48
1
60
0
100
AcDbSpline
70
4
71
3
72
29
73
25
40
0
40
0
40
0
40
0
40
0.125000000000045
40
0.125000000000045
40
0.25000000000009
40
0.25000000000009
40
0.281250000000093
40
0.281250000000093
40
0.312500000000097
40
0.375000000000092
40
0.375000000000092
40
0.500000000000084
40
0.500000000000084
40
0.562500000000073
40
0.562500000000073
40
0.625000000000062
40
0.625000000000062
40
0.750000000000038
40
0.750000000000038
40
0.875000000000015
40
0.875000000000015
40
0.937500000000008
40
0.937500000000008
40
1
40
1
40
1
40
1
41
1
10
-14.9921771997116
20
-6.19429975368809
30
0
41
1
10
-14.9320573843484
20
-6.19696052531805
30
0
41
1
10
-14.8726744232101
20
-6.19530622075879
30
0
41
1
10
-14.7552923361598
20
-6.18388224594813
30
0
41
1
10
-14.6972937188803
20
-6.17410945589265
30
0
41
1
10
-14.6256493001772
20
-6.15684175670819
30
0
41
1
10
-14.6113371248737
20
-6.15312631775188
30
0
41
1
10
-14.5830607924918
20
-6.14526136952958
30
0
41
1
10
-14.5410867139313
20
-6.13279564418732
30
0
41
1
10
-14.500383626949
20
-6.118393573753
30
0
41
1
10
-14.4205661285236
20
-6.08714648466275
30
0
41
1
10
-14.3694669105832
20
-6.06306708368854
30
0
41
1
10
-14.2956992221607
20
-6.02241573888855
30
0
41
1
10
-14.2715415923124
20
-6.00806907471573
30
0
41
1
10
-14.2247924605031
20
-5.97831973436635
30
0
41
1
10
-14.2021202056678
20
-5.96287721339851
30
0
41
1
10
-14.1360355381032
20
-5.91496059376203
30
0
41
1
10
-14.0945476428777
20
-5.88090305019935
30
0
41
1
10
-14.0160214797599
20
-5.80899071657845
30
0
41
1
10
-13.9789867514485
20
-5.77113330484545
30
0
41
1
10
-13.9264169069796
20
-5.71170203449847
30
0
41
1
10
-13.9093970751005
20
-5.69145219620981
30
0
41
1
10
-13.8764815896183
20
-5.65032851626569
30
0
41
1
10
-13.8605603440826
20
-5.62942644739971
30
0
41
1
10
-13.845140628887
20
-5.60819856978154
30
0
0
SPLINE
5
DB
100
AcDbEntity
8
1
62
256
6
ByLayer
370
13
48
1
60
0
100
AcDbSpline
70
4
71
3
72
84
73
80
40
0
40
0
40
0
40
0
40
0.0312500000000013
40
0.0312500000000013
40
0.0625000000000026
40
0.0625000000000026
40
0.0937500000000039
40
0.0937500000000039
40
0.125000000000005
40
0.125000000000005
40
0.156250000000006
40
0.156250000000006
40
0.187500000000008
40
0.187500000000008
40
0.203125000000008
40
0.203125000000008
40
0.210937500000009
40
0.210937500000009
40
0.218750000000009
40
0.218750000000009
40
0.25000000000001
40
0.25000000000001
40
0.281250000000011
40
0.281250000000011
40
0.312500000000012
40
0.312500000000012
40
0.343750000000013
40
0.343750000000013
40
0.375000000000014
40
0.375000000000014
40
0.406250000000015
40
0.406250000000015
40
0.437500000000016
40
0.437500000000016
40
0.468750000000017
40
0.468750000000017
40
0.472656250000017
40
0.472656250000017
40
0.476562500000017
40
0.484375000000016
40
0.484375000000016
40
0.500000000000016
40
0.500000000000016
40
0.531250000000015
40
0.531250000000015
40
0.562500000000014
40
0.562500000000014
40
0.593750000000013
40
0.593750000000013
40
0.625000000000011
40
0.625000000000011
40
0.65625000000001
40
0.65625000000001
40
0.687500000000009
40
0.687500000000009
40
0.718750000000009
40
0.718750000000009
40
0.734375000000008
40
0.734375000000008
40
0.738281250000008
40
0.738281250000008
40
0.742187500000008
40
0.750000000000007
40
0.750000000000007
40
0.781250000000007
40
0.781250000000007
40
0.812500000000006
40
0.812500000000006
40
0.843750000000005
40
0.843750000000005
40
0.875000000000004
40
0.875000000000004
40
0.906250000000003
40
0.906250000000003
40
0.937500000000002
40
0.937500000000002
40
0.968750000000001
40
0.968750000000001
40
1
40
1
40
1
40
1
41
1
10
159.3
20
8.05064260968047
30
0
41
1
10
159.389683850174
20
7.88184513773729
30
0
41
1
10
159.479367700349
20
7.66265870398644
30
0
41
1
10
159.658735400697
20
7.12520251215471
30
0
41
1
10
159.748419250871
20
6.80692928807557
30
0
41
1
10
159.92778695122
20
6.08463371565847
30
0
41
1
10
160.017470801394
20
5.68071732465324
30
0
41
1
10
160.196838501743
20
4.81078269113917
30
0
41
1
10
160.286522351917
20
4.34494462800359
30
0
41
1
10
160.465890052266
20
3.38064876708936
30
0
41
1
10
160.55557390244
20
2.88237490862738
30
0
41
1
10
160.734941602788
20
1.88277788321196
30
0
41
1
10
160.824625452963
20
1.3815805510481
30
0
41
1
10
160.959151228224
20
0.646098911810725
30
0
41
1
10
161.003993153311
20
0.403608440200116
30
0
41
1
10
161.071256040942
20
0.0456833755215484
30
0
41
1
10
161.093677003485
20
-0.0722338430922775
30
0
41
1
10
161.138518928572
20
-0.311136281230859
30
0
41
1
10
161.160939891116
20
-0.431542072034944
30
0
41
1
10
161.273044703834
20
-1.03762330506618
30
0
41
1
10
161.362728554008
20
-1.53573008346822
30
0
41
1
10
161.542096254357
20
-2.53540799000442
30
0
41
1
10
161.631780104531
20
-3.03687155471658
30
0
41
1
10
161.81114780488
20
-4.01456793492184
30
0
41
1
10
161.900831655054
20
-4.49062592122419
30
0
41
1
10
162.080199355402
20
-5.3875233647932
30
0
41
1
10
162.169883205577
20
-5.80817507972603
30
0
41
1
10
162.349250905925
20
-6.56866362828933
30
0
41
1
10
162.4389347561
20
-6.90837231945986
30
0
41
1
10
162.618302456448
20
-7.49078383645397
30
0
41
1
10
162.707986306622
20
-7.73346459037819
30
0
41
1
10
162.887354006971
20
-8.11742186489968
30
0
41
1
10
162.977037857145
20
-8.25877558452058
30
0
41
1
10
163.156405557494
20
-8.44656894131109
30
0
41
1
10
163.246089407668
20
-8.49313741216665
30
0
41
1
10
163.346983739114
20
-8.50005919303899
30
0
41
1
10
163.358194220386
20
-8.50020298190717
30
0
41
1
10
163.380615182929
20
-8.49925093076337
30
0
41
1
10
163.414246626745
20
-8.49594963181522
30
0
41
1
10
163.44787807056
20
-8.48688561613662
30
0
41
1
10
163.515140958191
20
-8.46071515674643
30
0
41
1
10
163.559982883278
20
-8.43253302386628
30
0
41
1
10
163.694508658539
20
-8.31327718040183
30
0
41
1
10
163.784192508713
20
-8.18720526386915
30
0
41
1
10
163.963560209062
20
-7.83418845845748
30
0
41
1
10
164.053244059236
20
-7.6071547278714
30
0
41
1
10
164.232611759585
20
-7.05460967962898
30
0
41
1
10
164.322295609759
20
-6.72910331794975
30
0
41
1
10
164.501663310108
20
-5.99383998730357
30
0
41
1
10
164.591347160282
20
-5.58419662330562
30
0
41
1
10
164.77071486063
20
-4.70494547701014
30
0
41
1
10
164.860398710805
20
-4.23552084622744
30
0
41
1
10
165.039766411153
20
-3.26640177569723
30
0
41
1
10
165.129450261327
20
-2.76688860242507
30
0
41
1
10
165.308817961676
20
-1.76694432349097
30
0
41
1
10
165.39850181185
20
-1.2666330658997
30
0
41
1
10
165.533027587112
20
-0.533697681957449
30
0
41
1
10
165.577869512199
20
-0.292257192407135
30
0
41
1
10
165.633921918558
20
0.0044957686862688
30
0
41
1
10
165.64513239983
20
0.0636216556378599
30
0
41
1
10
165.667553362373
20
0.182702759926826
30
0
41
1
10
165.701184806189
20
0.362058581302705
30
0
41
1
10
165.734816250004
20
0.543465525746541
30
0
41
1
10
165.846921062721
20
1.15197019881043
30
0
41
1
10
165.936604912896
20
1.65125020252037
30
0
41
1
10
166.115972613244
20
2.65121984229535
30
0
41
1
10
166.205656463419
20
3.15179572771129
30
0
41
1
10
166.385024163767
20
4.1253814465816
30
0
41
1
10
166.474708013941
20
4.59821305571347
30
0
41
1
10
166.65407571429
20
5.48645337213389
30
0
41
1
10
166.743759564464
20
5.90167640555657
30
0
41
1
10
166.923127264813
20
6.64967375613492
30
0
41
1
10
167.012811114987
20
6.98232706526412
30
0
41
1
10
167.192178815335
20
7.54986084762072
30
0
41
1
10
167.28186266551
20
7.78472784385903
30
0
41
1
10
167.461230365859
20
8.15320198759309
30
0
41
1
10
167.550914216033
20
8.28689231230575
30
0
41
1
10
167.730281916381
20
8.46022609575184
30
0
41
1
10
167.819965766555
20
8.5
30
0
41
1
10
167.90964961673
20
8.5
30
0
0
SPLINE
5
DC
100
AcDbEntity
8
1
62
256
6
ByLayer
370
13
48
1
60
0
100
AcDbSpline
70
4
71
3
72
85
73
81
40
0
40
0
40
0
40
0
40
0.0312499999999953
40
0.0312499999999953
40
0.0624999999999906
40
0.0624999999999906
40
0.0937499999999859
40
0.0937499999999859
40
0.124999999999981
40
0.124999999999981
40
0.156249999999976
40
0.156249999999976
40
0.160156249999976
40
0.160156249999976
40
0.164062499999976
40
0.171874999999975
40
0.171874999999975
40
0.187499999999974
40
0.187499999999974
40
0.218749999999973
40
0.218749999999973
40
0.249999999999972
40
0.249999999999972
40
0.281249999999971
40
0.281249999999971
40
0.312499999999969
40
0.312499999999969
40
0.343749999999968
40
0.343749999999968
40
0.374999999999967
40
0.374999999999967
40
0.406249999999966
40
0.406249999999966
40
0.437499999999964
40
0.437499999999964
40
0.441406249999964
40
0.441406249999964
40
0.445312499999965
40
0.453124999999965
40
0.453124999999965
40
0.468749999999966
40
0.468749999999966
40
0.499999999999968
40
0.499999999999968
40
0.53124999999997
40
0.53124999999997
40
0.562499999999972
40
0.562499999999972
40
0.593749999999975
40
0.593749999999975
40
0.624999999999977
40
0.624999999999977
40
0.656249999999979
40
0.656249999999979
40
0.687499999999981
40
0.687499999999981
40
0.718749999999983
40
0.718749999999983
40
0.722656249999983
40
0.722656249999983
40
0.726562499999984
40
0.734374999999984
40
0.734374999999984
40
0.749999999999985
40
0.749999999999985
40
0.781249999999987
40
0.781249999999987
40
0.812499999999989
40
0.812499999999989
40
0.843749999999991
40
0.843749999999991
40
0.874999999999992
40
0.874999999999992
40
0.906249999999994
40
0.906249999999994
40
0.937499999999996
40
0.937499999999996
40
0.968749999999998
40
0.968749999999998
40
1
40
1
40
1
40
1
41
1
10
159.3
20
6.60983435009146
30
0
41
1
10
159.384510893431
20
6.28204987146063
30
0
41
1
10
159.469021786863
20
5.91506358754287
30
0
41
1
10
159.638043573725
20
5.12097866587433
30
0
41
1
10
159.722554467157
20
4.69400643459161
30
0
41
1
10
159.891576254019
20
3.80385884549258
30
0
41
1
10
159.976087147451
20
3.34082507378051
30
0
41
1
10
160.145108934314
20
2.40374249502818
30
0
41
1
10
160.229619827745
20
1.92980492790318
30
0
41
1
10
160.398641614608
20
0.993425469336216
30
0
41
1
10
160.483152508039
20
0.531040134016536
30
0
41
1
10
160.578227263149
20
0.0270248034751432
30
0
41
1
10
160.588791124828
20
-0.0286447037055666
30
0
41
1
10
160.609918848186
20
-0.140656641487169
30
0
41
1
10
160.641610433223
20
-0.309336030573718
30
0
41
1
10
160.673302018259
20
-0.479874802207888
30
0
41
1
10
160.736685188333
20
-0.823064610879925
30
0
41
1
10
160.778940635049
20
-1.05468539788336
30
0
41
1
10
160.905706975196
20
-1.75467678921737
30
0
41
1
10
160.990217868627
20
-2.22831269482708
30
0
41
1
10
161.15923965549
20
-3.16778037164221
30
0
41
1
10
161.243750548921
20
-3.63350691728766
30
0
41
1
10
161.412772335784
20
-4.53217420908931
30
0
41
1
10
161.497283229215
20
-4.96497492864893
30
0
41
1
10
161.666305016078
20
-5.77346797872468
30
0
41
1
10
161.750815909509
20
-6.1490293266248
30
0
41
1
10
161.919837696372
20
-6.82362949703435
30
0
41
1
10
162.004348589803
20
-7.12259228384806
30
0
41
1
10
162.173370376666
20
-7.63276014954138
30
0
41
1
10
162.257881270097
20
-7.84396626076901
30
0
41
1
10
162.42690305696
20
-8.17674300189205
30
0
41
1
10
162.511413950391
20
-8.29837982392502
30
0
41
1
10
162.680435737254
20
-8.45841376761732
30
0
41
1
10
162.764946630685
20
-8.49690828213559
30
0
41
1
10
162.860021385796
20
-8.50018398329962
30
0
41
1
10
162.870585247475
20
-8.49999841829074
30
0
41
1
10
162.891712970832
20
-8.49851516779037
30
0
41
1
10
162.923404555869
20
-8.49461643798412
30
0
41
1
10
162.955096140906
20
-8.48557726514463
30
0
41
1
10
163.018479310979
20
-8.46034619663672
30
0
41
1
10
163.060734757695
20
-8.43397916883796
30
0
41
1
10
163.187501097842
20
-8.3241388579502
30
0
41
1
10
163.272011991274
20
-8.20970350913197
30
0
41
1
10
163.441033778136
20
-7.89158085326707
30
0
41
1
10
163.525544671568
20
-7.68782334582454
30
0
41
1
10
163.69456645843
20
-7.19205702761019
30
0
41
1
10
163.779077351862
20
-6.90004092560335
30
0
41
1
10
163.948099138724
20
-6.23807752510476
30
0
41
1
10
164.032610032156
20
-5.86820027647968
30
0
41
1
10
164.201631819018
20
-5.06923828203878
30
0
41
1
10
164.28614271245
20
-4.64028154878662
30
0
41
1
10
164.455164499312
20
-3.74720899435366
30
0
41
1
10
164.539675392744
20
-3.28323431914649
30
0
41
1
10
164.708697179607
20
-2.34527517298801
30
0
41
1
10
164.793208073038
20
-1.87139997652758
30
0
41
1
10
164.962229859901
20
-0.935972724908453
30
0
41
1
10
165.046740753332
20
-0.474474851895763
30
0
41
1
10
165.141815508442
20
0.0282156916568113
30
0
41
1
10
165.152379370121
20
0.0840367667947532
30
0
41
1
10
165.173507093479
20
0.196336907412189
30
0
41
1
10
165.205198678516
20
0.365434803281118
30
0
41
1
10
165.236890263552
20
0.536348463572011
30
0
41
1
10
165.300273433626
20
0.880224043260171
30
0
41
1
10
165.342528880342
20
1.11221657569956
30
0
41
1
10
165.469295220489
20
1.81302242487402
30
0
41
1
10
165.55380611392
20
2.2867969604136
30
0
41
1
10
165.722827900783
20
3.22555100259032
30
0
41
1
10
165.807338794214
20
3.69042324020069
30
0
41
1
10
165.976360581077
20
4.58633574060028
30
0
41
1
10
166.060871474508
20
5.01723537760159
30
0
41
1
10
166.229893261371
20
5.82100032527651
30
0
41
1
10
166.314404154802
20
6.19373609767001
30
0
41
1
10
166.483425941665
20
6.86204362710876
30
0
41
1
10
166.567936835096
20
7.15754232297877
30
0
41
1
10
166.736958621959
20
7.66051978495787
30
0
41
1
10
166.82146951539
20
7.86800272514208
30
0
41
1
10
166.990491302253
20
8.19344760656205
30
0
41
1
10
167.075002195684
20
8.31147777504808
30
0
41
1
10
167.244023982547
20
8.46470503522906
30
0
41
1
10
167.328534875978
20
8.5
30
0
41
1
10
167.41304576941
20
8.5
30
0
0
SPLINE
5
DD
100
AcDbEntity
8
1
62
256
6
ByLayer
370
13
48
1
60
0
100
AcDbSpline
70
4
71
3
72
84
73
80
40
0
40
0
40
0
40
0
40
0.0312500000000008
40
0.0312500000000008
40
0.0625000000000015
40
0.0625000000000015
40
0.0937500000000023
40
0.0937500000000023
40
0.101562500000003
40
0.101562500000003
40
0.105468750000003
40
0.105468750000003
40
0.109375000000003
40
0.125000000000004
40
0.125000000000004
40
0.156250000000005
40
0.156250000000005
40
0.187500000000006
40
0.187500000000006
40
0.218750000000007
40
0.218750000000007
40
0.250000000000008
40
0.250000000000008
40
0.281250000000009
40
0.281250000000009
40
0.312500000000011
40
0.312500000000011
40
0.343750000000012
40
0.343750000000012
40
0.375000000000013
40
0.375000000000013
40
0.390625000000013
40
0.390625000000013
40
0.398437500000014
40
0.398437500000014
40
0.406250000000014
40
0.406250000000014
40
0.437500000000015
40
0.437500000000015
40
0.468750000000016
40
0.468750000000016
40
0.500000000000017
40
0.500000000000017
40
0.531250000000018
40
0.531250000000018
40
0.56250000000002
40
0.56250000000002
40
0.593750000000021
40
0.593750000000021
40
0.625000000000022
40
0.625000000000022
40
0.656250000000023
40
0.656250000000023
40
0.687500000000024
40
0.687500000000024
40
0.695312500000024
40
0.699218750000024
40
0.699218750000024
40
0.703125000000024
40
0.703125000000024
40
0.718750000000023
40
0.718750000000023
40
0.750000000000021
40
0.750000000000021
40
0.781250000000018
40
0.781250000000018
40
0.812500000000015
40
0.812500000000015
40
0.843750000000013
40
0.843750000000013
40
0.87500000000001
40
0.87500000000001
40
0.906250000000008
40
0.906250000000008
40
0.937500000000005
40
0.937500000000005
40
0.968750000000003
40
0.968750000000003
40
1
40
1
40
1
40
1
41
1
10
159.3
20
4.30393514341014
30
0
41
1
10
159.379337936688
20
3.88751731720586
30
0
41
1
10
159.458675873377
20
3.45480772524735
30
0
41
1
10
159.617351746754
20
2.57746202010549
30
0
41
1
10
159.696689683442
20
2.13291055937287
30
0
41
1
10
159.855365556819
20
1.25093687090407
30
0
41
1
10
159.934703493507
20
0.813562777454223
30
0
41
1
10
160.033875914368
20
0.280802742585507
30
0
41
1
10
160.05371039854
20
0.174937699113059
30
0
41
1
10
160.083462124798
20
0.0173139951046721
30
0
41
1
10
160.093379366884
20
-0.0349578246404576
30
0
41
1
10
160.113213851056
20
-0.14012769959524
30
0
41
1
10
160.162800061487
20
-0.404020631891399
30
0
41
1
10
160.212386271917
20
-0.672493001909544
30
0
41
1
10
160.33139317695
20
-1.32309324613738
30
0
41
1
10
160.410731113638
20
-1.76530527285991
30
0
41
1
10
160.569406987015
20
-2.64994296174226
30
0
41
1
10
160.648744923704
20
-3.0923052838356
30
0
41
1
10
160.80742079708
20
-3.95724384225031
30
0
41
1
10
160.886758733769
20
-4.37972505555675
30
0
41
1
10
161.045434607146
20
-5.18411462896737
30
0
41
1
10
161.124772543834
20
-5.56591961821007
30
0
41
1
10
161.283448417211
20
-6.27046298126413
30
0
41
1
10
161.362786353899
20
-6.59312099131321
30
0
41
1
10
161.521462227276
20
-7.16604777776345
30
0
41
1
10
161.600800163964
20
-7.41628347755076
30
0
41
1
10
161.759476037341
20
-7.83799533673115
30
0
41
1
10
161.83881397403
20
-8.00949092891466
30
0
41
1
10
161.997489847407
20
-8.27450878556451
30
0
41
1
10
162.076827784095
20
-8.3680887998205
30
0
41
1
10
162.195834689128
20
-8.45501547955979
30
0
41
1
10
162.235503657472
20
-8.47512407996294
30
0
41
1
10
162.295007109988
20
-8.49289917288678
30
0
41
1
10
162.31484159416
20
-8.49676123591249
30
0
41
1
10
162.354510562505
20
-8.5005286524418
30
0
41
1
10
162.374345046677
20
-8.50045709208294
30
0
41
1
10
162.473517467537
20
-8.49029840482191
30
0
41
1
10
162.552855404226
20
-8.45034267406027
30
0
41
1
10
162.711531277603
20
-8.29711119044865
30
0
41
1
10
162.790869214291
20
-8.18376444913787
30
0
41
1
10
162.949545087668
20
-7.87835438299751
30
0
41
1
10
163.028883024356
20
-7.6862411323811
30
0
41
1
10
163.187558897733
20
-7.22421264926246
30
0
41
1
10
163.266896834422
20
-6.95429090266813
30
0
41
1
10
163.425572707798
20
-6.34479793036729
30
0
41
1
10
163.504910644487
20
-6.00527342805557
30
0
41
1
10
163.663586517864
20
-5.2713820755045
30
0
41
1
10
163.742924454552
20
-4.8771044508178
30
0
41
1
10
163.901600327929
20
-4.05306724059184
30
0
41
1
10
163.980938264617
20
-3.62341178694081
30
0
41
1
10
164.139614137994
20
-2.74951499290378
30
0
41
1
10
164.218952074683
20
-2.30536210908878
30
0
41
1
10
164.37762794806
20
-1.42190003449943
30
0
41
1
10
164.456965884748
20
-0.982644104855666
30
0
41
1
10
164.556138305609
20
-0.446461800035451
30
0
41
1
10
164.585890031867
20
-0.286557707962174
30
0
41
1
10
164.615641758125
20
-0.128305273434137
30
0
41
1
10
164.635476242297
20
-0.0231936051415573
30
0
41
1
10
164.645393484383
20
0.0290748828253413
30
0
41
1
10
164.694979694813
20
0.291926891671267
30
0
41
1
10
164.734648663158
20
0.505334367658691
30
0
41
1
10
164.85365556819
20
1.15252092080041
30
0
41
1
10
164.932993504879
20
1.59339268552603
30
0
41
1
10
165.091669378256
20
2.47774792556066
30
0
41
1
10
165.171007314944
20
2.92117305919834
30
0
41
1
10
165.329683188321
20
3.79093604860125
30
0
41
1
10
165.409021125009
20
4.21718197921908
30
0
41
1
10
165.567696998386
20
5.03173467924597
30
0
41
1
10
165.647034935075
20
5.41993742468242
30
0
41
1
10
165.805710808451
20
6.13943621640158
30
0
41
1
10
165.88504874514
20
6.47064723897955
30
0
41
1
10
166.043724618517
20
7.06203829656883
30
0
41
1
10
166.123062555205
20
7.32217836295922
30
0
41
1
10
166.281738428582
20
7.76410944687063
30
0
41
1
10
166.36107636527
20
7.94591354669203
30
0
41
1
10
166.519752238647
20
8.23107451290625
30
0
41
1
10
166.599090175336
20
8.33448542010336
30
0
41
1
10
166.757766048713
20
8.46891218838402
30
0
41
1
10
166.837103985401
20
8.5
30
0
41
1
10
166.916441922089
20
8.5
30
0
0
SPLINE
5
DE
100
AcDbEntity
8
1
62
256
6
ByLayer
370
13
48
1
60
0
100
AcDbSpline
70
4
71
3
72
8
73
4
40
0
40
0
40
0
40
0
40
1
40
1
40
1
40
1
41
1
10
168.238869707075
20
8.5
30
0
41
1
10
168.294664140962
20
8.5
30
0
41
1
10
168.35045857485
20
8.48465723476752
30
0
41
1
10
168.406253008737
20
8.45214044740885
30
0
0
SPLINE
5
DF
100
AcDbEntity
8
1
62
256
6
ByLayer
370
13
48
1
60
0
100
AcDbSpline
70
4
71
3
72
84
73
80
40
0
40
0
40
0
40
0
40
0.0312500000000013
40
0.0312500000000013
40
0.0390625000000015
40
0.0390625000000015
40
0.0429687500000015
40
0.0429687500000015
40
0.0468750000000014
40
0.0625000000000002
40
0.0625000000000002
40
0.093749999999998
40
0.093749999999998
40
0.124999999999996
40
0.124999999999996
40
0.156249999999994
40
0.156249999999994
40
0.187499999999991
40
0.187499999999991
40
0.218749999999989
40
0.218749999999989
40
0.249999999999987
40
0.249999999999987
40
0.281249999999984
40
0.281249999999984
40
0.312499999999982
40
0.312499999999982
40
0.34374999999998
40
0.34374999999998
40
0.359374999999979
40
0.359374999999979
40
0.363281249999978
40
0.363281249999978
40
0.367187499999978
40
0.374999999999978
40
0.374999999999978
40
0.406249999999979
40
0.406249999999979
40
0.43749999999998
40
0.43749999999998
40
0.468749999999981
40
0.468749999999981
40
0.499999999999982
40
0.499999999999982
40
0.531249999999983
40
0.531249999999983
40
0.562499999999984
40
0.562499999999984
40
0.593749999999984
40
0.593749999999984
40
0.624999999999985
40
0.624999999999985
40
0.656249999999986
40
0.656249999999986
40
0.671874999999987
40
0.671874999999987
40
0.679687499999987
40
0.679687499999987
40
0.687499999999987
40
0.687499999999987
40
0.718749999999988
40
0.718749999999988
40
0.74999999999999
40
0.74999999999999
40
0.781249999999991
40
0.781249999999991
40
0.812499999999992
40
0.812499999999992
40
0.843749999999994
40
0.843749999999994
40
0.874999999999995
40
0.874999999999995
40
0.906249999999996
40
0.906249999999996
40
0.937499999999997
40
0.937499999999997
40
0.968749999999999
40
0.968749999999999
40
1
40
1
40
1
40
1
41
1
10
159.3
20
1.57763664802087
30
0
41
1
10
159.374164979946
20
1.16601740570789
30
0
41
1
10
159.448329959891
20
0.758181017312296
30
0
41
1
10
159.541036184823
20
0.26070632663658
30
0
41
1
10
159.559577429809
20
0.161819020889567
30
0
41
1
10
159.587389297289
20
0.0145160688461488
30
0
41
1
10
159.596659919782
20
-0.0343545611530374
30
0
41
1
10
159.615201164769
20
-0.132648582066736
30
0
41
1
10
159.661554277235
20
-0.379231295712373
30
0
41
1
10
159.7079073897
20
-0.629837541561301
30
0
41
1
10
159.819154859619
20
-1.23697395244471
30
0
41
1
10
159.893319839564
20
-1.64940333833681
30
0
41
1
10
160.041649799455
20
-2.47617740186229
30
0
41
1
10
160.115814779401
20
-2.89047984253378
30
0
41
1
10
160.264144739292
20
-3.70493714458613
30
0
41
1
10
160.338309719237
20
-4.10502712053324
30
0
41
1
10
160.486639679128
20
-4.87402410255055
30
0
41
1
10
160.560804659074
20
-5.24285662612914
30
0
41
1
10
160.709134618965
20
-5.93348083927631
30
0
41
1
10
160.78329959891
20
-6.25520774166625
30
0
41
1
10
160.931629558801
20
-6.83910691574462
30
0
41
1
10
161.005794538747
20
-7.10124176778342
30
0
41
1
10
161.154124498638
20
-7.55838270544919
30
0
41
1
10
161.228289478583
20
-7.75338691781587
30
0
41
1
10
161.376619438474
20
-8.0742415162066
30
0
41
1
10
161.45078441842
20
-8.20012143394871
30
0
41
1
10
161.599114378311
20
-8.38580964888385
30
0
41
1
10
161.673279358257
20
-8.44566598252021
30
0
41
1
10
161.784526828175
20
-8.49112491047697
30
0
41
1
10
161.821609318148
20
-8.49891580274104
30
0
41
1
10
161.867962430613
20
-8.50013892387372
30
0
41
1
10
161.877233053106
20
-8.49996071199089
30
0
41
1
10
161.895774298093
20
-8.49874785603748
30
0
41
1
10
161.923586165572
20
-8.49564082156436
30
0
41
1
10
161.951398033052
20
-8.48859011046517
30
0
41
1
10
162.044104257984
20
-8.45598412406594
30
0
41
1
10
162.11826923793
20
-8.40065481145075
30
0
41
1
10
162.266599197821
20
-8.22441232338323
30
0
41
1
10
162.340764177766
20
-8.10345037038803
30
0
41
1
10
162.489094137657
20
-7.79249780084166
30
0
41
1
10
162.563259117603
20
-7.6024758226593
30
0
41
1
10
162.711589077494
20
-7.15497239723015
30
0
41
1
10
162.785754057439
20
-6.89749028241917
30
0
41
1
10
162.93408401733
20
-6.32217665178507
30
0
41
1
10
163.008248997276
20
-6.00438011929023
30
0
41
1
10
163.156578957167
20
-5.32058191970629
30
0
41
1
10
163.230743937112
20
-4.95464358268714
30
0
41
1
10
163.379073897003
20
-4.19022521597219
30
0
41
1
10
163.453238876949
20
-3.79181964776879
30
0
41
1
10
163.60156883684
20
-2.97950949163274
30
0
41
1
10
163.675733816785
20
-2.56567102526512
30
0
41
1
10
163.824063776676
20
-1.73873495511239
30
0
41
1
10
163.898228756622
20
-1.32568145084409
30
0
41
1
10
164.00947622654
20
-0.716961032426383
30
0
41
1
10
164.046558716513
20
-0.515840609615879
30
0
41
1
10
164.102182451472
20
-0.217885976707492
30
0
41
1
10
164.120723696458
20
-0.119187038298861
30
0
41
1
10
164.157806186431
20
0.0768189243773065
30
0
41
1
10
164.176347431418
20
0.175146125719095
30
0
41
1
10
164.26905365635
20
0.670836868749007
30
0
41
1
10
164.343218636295
20
1.07761759827429
30
0
41
1
10
164.491548596186
20
1.89973417189159
30
0
41
1
10
164.565713576132
20
2.31504001454988
30
0
41
1
10
164.714043536023
20
3.13919280770443
30
0
41
1
10
164.788208515968
20
3.547984328908
30
0
41
1
10
164.936538475859
20
4.34227925650166
30
0
41
1
10
165.010703455805
20
4.72771046697892
30
0
41
1
10
165.159033415696
20
5.45859825324521
30
0
41
1
10
165.233198395641
20
5.80398303610372
30
0
41
1
10
165.381528355532
20
6.44046673210428
30
0
41
1
10
165.455693335478
20
6.73151379235964
30
0
41
1
10
165.604023295369
20
7.24931451376352
30
0
41
1
10
165.678188275314
20
7.47604959320043
30
0
41
1
10
165.826518235205
20
7.86062096969434
30
0
41
1
10
165.900683215151
20
8.01847344487433
30
0
41
1
10
166.049013175042
20
8.2661061250636
30
0
41
1
10
166.123178154987
20
8.35592767326273
30
0
41
1
10
166.271508114878
20
8.47284876207988
30
0
41
1
10
166.345673094824
20
8.5
30
0
41
1
10
166.419838074769
20
8.5
30
0
0
SPLINE
5
E0
100
AcDbEntity
8
1
62
256
6
ByLayer
370
13
48
1
60
0
100
AcDbSpline
70
4
71
3
72
14
73
10
40
0
40
0
40
0
40
0
40
0.25
40
0.25
40
0.5
40
0.5
40
0.75
40
0.75
40
1
40
1
40
1
40
1
41
1
10
167.742265859755
20
8.5
30
0
41
1
10
167.79759812217
20
8.5
30
0
41
1
10
167.852930384585
20
8.48491083882905
30
0
41
1
10
167.963594909416
20
8.42097911027705
30
0
41
1
10
168.018927171831
20
8.37212445656394
30
0
41
1
10
168.129591696661
20
8.23788492651454
30
0
41
1
10
168.184923959077
20
8.15248876492458
30
0
41
1
10
168.295588483907
20
7.94356755412227
30
0
41
1
10
168.350920746322
20
7.82003396788107
30
0
41
1
10
168.406253008737
20
7.67737823155002
30
0
0
SPLINE
5
E1
100
AcDbEntity
8
1
62
256
6
ByLayer
370
13
48
1
60
0
100
AcDbSpline
70
4
71
3
72
70
73
66
40
0
40
0
40
0
40
0
40
0.03125
40
0.03125
40
0.0625
40
0.0625
40
0.09375
40
0.09375
40
0.125
40
0.125
40
0.15625
40
0.15625
40
0.1875
40
0.1875
40
0.21875
40
0.21875
40
0.25
40
0.25
40
0.28125
40
0.28125
40
0.3125
40
0.3125
40
0.34375
40
0.34375
40
0.375
40
0.375
40
0.40625
40
0.40625
40
0.4375
40
0.4375
40
0.46875
40
0.46875
40
0.5
40
0.5
40
0.53125
40
0.53125
40
0.5625
40
0.5625
40
0.59375
40
0.59375
40
0.625
40
0.625
40
0.65625
40
0.65625
40
0.6875
40
0.6875
40
0.71875
40
0.71875
40
0.75
40
0.75
40
0.78125
40
0.78125
40
0.8125
40
0.8125
40
0.84375
40
0.84375
40
0.875
40
0.875
40
0.90625
40
0.90625
40
0.9375
40
0.9375
40
0.96875
40
0.96875
40
1
40
1
40
1
40
1
41
1
10
159.3
20
-1.11504327720391
30
0
41
1
10
159.368992023203
20
-1.49452104445879
30
0
41
1
10
159.437984046405
20
-1.87939340580124
30
0
41
1
10
159.57596809281
20
-2.64863438893289
30
0
41
1
10
159.644960116013
20
-3.03297066624842
30
0
41
1
10
159.782944162418
20
-3.78802835135517
30
0
41
1
10
159.851936185621
20
-4.15870339910362
30
0
41
1
10
159.989920232026
20
-4.87273772589069
30
0
41
1
10
160.058912255229
20
-5.21604502522598
30
0
41
1
10
160.196896301634
20
-5.86256573841186
30
0
41
1
10
160.265888324836
20
-6.16573330972844
30
0
41
1
10
160.403872371242
20
-6.72163366243504
30
0
41
1
10
160.472864394444
20
-6.97433764910087
30
0
41
1
10
160.610848440849
20
-7.42256589525891
30
0
41
1
10
160.679840464052
20
-7.61808421263859
30
0
41
1
10
160.817824510457
20
-7.9493293322349
30
0
41
1
10
160.88681653366
20
-8.08507184326959
30
0
41
1
10
161.024800580065
20
-8.29812902514018
30
0
41
1
10
161.093792603268
20
-8.37547419598818
30
0
41
1
10
161.231776649673
20
-8.47635221646232
30
0
41
1
10
161.300768672875
20
-8.49992125905695
30
0
41
1
10
161.438752719281
20
-8.50007834589059
30
0
41
1
10
161.507744742483
20
-8.47667904546392
30
0
41
1
10
161.645728788888
20
-8.37616038379844
30
0
41
1
10
161.714720812091
20
-8.29900480424934
30
0
41
1
10
161.852704858496
20
-8.08633744083085
30
0
41
1
10
161.921696881699
20
-7.95079512246855
30
0
41
1
10
162.059680928104
20
-7.619948715215
30
0
41
1
10
162.128672951306
20
-7.42462885412368
30
0
41
1
10
162.266656997712
20
-6.97678191119772
30
0
41
1
10
162.335649020914
20
-6.724260692987
30
0
41
1
10
162.473633067319
20
-6.16869689770306
30
0
41
1
10
162.542625090522
20
-5.86568304466968
30
0
41
1
10
162.680609136927
20
-5.21943031574938
30
0
41
1
10
162.74960116013
20
-4.87623724165039
30
0
41
1
10
162.887585206535
20
-4.16238608808143
30
0
41
1
10
162.956577229738
20
-3.79177998823619
30
0
41
1
10
163.094561276143
20
-3.0368143838663
30
0
41
1
10
163.163553299345
20
-2.65250127502051
30
0
41
1
10
163.301537345751
20
-1.88326499648437
30
0
41
1
10
163.370529368953
20
-1.49837422638277
30
0
41
1
10
163.508513415358
20
-0.739347714674608
30
0
41
1
10
163.577505438561
20
-0.365227369743877
30
0
41
1
10
163.715489484966
20
0.363394940705604
30
0
41
1
10
163.784481508169
20
0.737456553444673
30
0
41
1
10
163.922465554574
20
1.4964476050348
30
0
41
1
10
163.991457577776
20
1.88132918678636
30
0
41
1
10
164.129441624182
20
2.65056785224911
30
0
41
1
10
164.198433647384
20
3.03489256392498
30
0
41
1
10
164.33641769379
20
3.78990424671861
30
0
41
1
10
164.405409716992
20
4.16054483996356
30
0
41
1
10
164.543393763397
20
4.87448761773794
30
0
41
1
10
164.6123857866
20
5.21773782258629
30
0
41
1
10
164.750369833005
20
5.86412457642956
30
0
41
1
10
164.819361856208
20
6.16721530324767
30
0
41
1
10
164.957345902613
20
6.72294740139657
30
0
41
1
10
165.026337925816
20
6.97556001333695
30
0
41
1
10
165.164321972221
20
7.42359762098849
30
0
41
1
10
165.233313995423
20
7.6190167138333
30
0
41
1
10
165.371298041829
20
7.95006247882185
30
0
41
1
10
165.440290065031
20
8.08570489148474
30
0
41
1
10
165.578274111436
20
8.29856715545287
30
0
41
1
10
165.647266134639
20
8.3758175240238
30
0
41
1
10
165.785250181044
20
8.47651584872258
30
0
41
1
10
165.854242204247
20
8.5
30
0
41
1
10
165.923234227449
20
8.5
30
0
0
SPLINE
5
E2
100
AcDbEntity
8
1
62
256
6
ByLayer
370
13
48
1
60
0
100
AcDbSpline
70
4
71
3
72
20
73
16
40
0
40
0
40
0
40
0
40
0.250000000000002
40
0.250000000000002
40
0.375000000000002
40
0.375000000000002
40
0.500000000000002
40
0.500000000000002
40
0.625000000000001
40
0.625000000000001
40
0.750000000000001
40
0.750000000000001
40
0.875000000000001
40
0.875000000000001
40
1
40
1
40
1
40
1
41
1
10
167.245662012435
20
8.5
30
0
41
1
10
167.342377928793
20
8.5
30
0
41
1
10
167.439093845152
20
8.45369921378227
30
0
41
1
10
167.58416771969
20
8.30161451647646
30
0
41
1
10
167.632525677869
20
8.23719959061296
30
0
41
1
10
167.729241594227
20
8.07960466981226
30
0
41
1
10
167.777599552407
20
7.98641966057934
30
0
41
1
10
167.874315468765
20
7.77075183783222
30
0
41
1
10
167.922673426945
20
7.64826572509349
30
0
41
1
10
168.019389343303
20
7.37439483481899
30
0
41
1
10
168.067747301482
20
7.22300912655118
30
0
41
1
10
168.164463217841
20
6.89273586327411
30
0
41
1
10
168.21282117602
20
6.71385012433169
30
0
41
1
10
168.309537092379
20
6.33095915447356
30
0
41
1
10
168.357895050558
20
6.12695847303215
30
0
41
1
10
168.406253008737
20
5.91203401532886
30
0
0
SPLINE
5
E3
100
AcDbEntity
8
1
62
256
6
ByLayer
370
13
48
1
60
0
100
AcDbSpline
70
4
71
3
72
78
73
74
40
0
40
0
40
0
40
0
40
0.031250000000001
40
0.031250000000001
40
0.062500000000002
40
0.062500000000002
40
0.093750000000003
40
0.093750000000003
40
0.125000000000004
40
0.125000000000004
40
0.156250000000005
40
0.156250000000005
40
0.187500000000006
40
0.187500000000006
40
0.218750000000007
40
0.218750000000007
40
0.250000000000008
40
0.250000000000008
40
0.257812500000008
40
0.257812500000008
40
0.265625000000008
40
0.265625000000008
40
0.281250000000008
40
0.281250000000008
40
0.312500000000007
40
0.312500000000007
40
0.343750000000007
40
0.343750000000007
40
0.375000000000007
40
0.375000000000007
40
0.406250000000006
40
0.406250000000006
40
0.437500000000006
40
0.437500000000006
40
0.468750000000006
40
0.468750000000006
40
0.500000000000005
40
0.500000000000005
40
0.531250000000005
40
0.531250000000005
40
0.562500000000004
40
0.562500000000004
40
0.593750000000004
40
0.593750000000004
40
0.625000000000004
40
0.625000000000004
40
0.632812500000004
40
0.632812500000004
40
0.640625000000004
40
0.640625000000004
40
0.656250000000003
40
0.656250000000003
40
0.687500000000003
40
0.687500000000003
40
0.718750000000003
40
0.718750000000003
40
0.750000000000002
40
0.750000000000002
40
0.781250000000002
40
0.781250000000002
40
0.812500000000002
40
0.812500000000002
40
0.843750000000001
40
0.843750000000001
40
0.875000000000001
40
0.875000000000001
40
0.906250000000001
40
0.906250000000001
40
0.937500000000001
40
0.937500000000001
40
0.96875
40
0.96875
40
1
40
1
40
1
40
1
41
1
10
159.3
20
-3.85906385724348
30
0
41
1
10
159.36381906646
20
-4.20222000493217
30
0
41
1
10
159.427638132919
20
-4.53716833719872
30
0
41
1
10
159.555276265839
20
-5.17999892209158
30
0
41
1
10
159.619095332299
20
-5.48784635046914
30
0
41
1
10
159.746733465218
20
-6.06680684076889
30
0
41
1
10
159.810552531678
20
-6.33789108752188
30
0
41
1
10
159.938190664597
20
-6.83568857312034
30
0
41
1
10
160.002009731056
20
-7.06238483400372
30
0
41
1
10
160.129647863976
20
-7.46650864866467
30
0
41
1
10
160.193466930436
20
-7.64393375842988
30
0
41
1
10
160.321105063355
20
-7.94765472369176
30
0
41
1
10
160.384924129814
20
-8.07396156375177
30
0
41
1
10
160.512562262734
20
-8.27648675025813
30
0
41
1
10
160.576381329194
20
-8.35272543641148
30
0
41
1
10
160.704019462113
20
-8.45856864405511
30
0
41
1
10
160.767838528573
20
-8.48819756200038
30
0
41
1
10
160.847612361647
20
-8.4993223529967
30
0
41
1
10
160.863567128262
20
-8.5002561854167
30
0
41
1
10
160.895476661492
20
-8.49962483625751
30
0
41
1
10
160.911431428107
20
-8.49805075328032
30
0
41
1
10
160.959295727952
20
-8.48941770424372
30
0
41
1
10
160.991205261181
20
-8.47844551173696
30
0
41
1
10
161.086933860871
20
-8.4288697396033
30
0
41
1
10
161.150752927331
20
-8.37354957779002
30
0
41
1
10
161.27839106025
20
-8.21411730285689
30
0
41
1
10
161.34221012671
20
-8.10998242032363
30
0
41
1
10
161.469848259629
20
-7.85073492318648
30
0
41
1
10
161.533667326089
20
-7.69560661695087
30
0
41
1
10
161.661305459008
20
-7.3349003737062
30
0
41
1
10
161.725124525468
20
-7.12931866596529
30
0
41
1
10
161.852762658387
20
-6.67125702901075
30
0
41
1
10
161.916581724847
20
-6.41878782956846
30
0
41
1
10
162.044219857766
20
-5.87342848967418
30
0
41
1
10
162.108038924226
20
-5.58056255630174
30
0
41
1
10
162.235677057145
20
-4.9632810552223
30
0
41
1
10
162.299496123605
20
-4.63889853197651
30
0
41
1
10
162.427134256524
20
-3.96896936506261
30
0
41
1
10
162.490953322984
20
-3.62345782377608
30
0
41
1
10
162.618591455903
20
-2.92212079234852
30
0
41
1
10
162.682410522363
20
-2.56632582106289
30
0
41
1
10
162.810048655282
20
-1.85472783685589
30
0
41
1
10
162.873867721742
20
-1.4989462238315
30
0
41
1
10
163.001505854661
20
-0.796342784385445
30
0
41
1
10
163.065324921121
20
-0.449531663381094
30
0
41
1
10
163.145098754196
20
-0.0260831299115409
30
0
41
1
10
163.161053520811
20
0.0579264741177212
30
0
41
1
10
163.19296305404
20
0.227554913249321
30
0
41
1
10
163.208917820655
20
0.312861575721172
30
0
41
1
10
163.2567821205
20
0.570107676191299
30
0
41
1
10
163.28869165373
20
0.743377002648089
30
0
41
1
10
163.384420253419
20
1.26715311168681
30
0
41
1
10
163.448239319879
20
1.62168098889828
30
0
41
1
10
163.575877452798
20
2.33286312682958
30
0
41
1
10
163.639696519258
20
2.68949829352667
30
0
41
1
10
163.767334652178
20
3.3948431153525
30
0
41
1
10
163.831153718637
20
3.74352395595503
30
0
41
1
10
163.958791851557
20
4.42215959126116
30
0
41
1
10
164.022610918016
20
4.7520797669072
30
0
41
1
10
164.150249050936
20
5.38261454701654
30
0
41
1
10
164.214068117395
20
5.68319504643341
30
0
41
1
10
164.341706250315
20
6.24574906024017
30
0
41
1
10
164.405525316774
20
6.50769593392778
30
0
41
1
10
164.533163449694
20
6.98589708379444
30
0
41
1
10
164.596982516153
20
7.20213746086534
30
0
41
1
10
164.724620649073
20
7.58468175650148
30
0
41
1
10
164.788439715532
20
7.75098638540479
30
0
41
1
10
164.916077848452
20
8.03245846764946
30
0
41
1
10
164.979896914911
20
8.14763937035599
30
0
41
1
10
165.107535047831
20
8.32848354664691
30
0
41
1
10
165.17135411429
20
8.39416850506288
30
0
41
1
10
165.29899224721
20
8.47991443126679
30
0
41
1
10
165.36281131367
20
8.5
30
0
41
1
10
165.426630380129
20
8.5
30
0
0
SPLINE
5
E4
100
AcDbEntity
8
1
62
256
6
ByLayer
370
13
48
1
60
0
100
AcDbSpline
70
4
71
3
72
22
73
18
40
0
40
0
40
0
40
0
40
0.125
40
0.125
40
0.25
40
0.25
40
0.375
40
0.375
40
0.5
40
0.5
40
0.625
40
0.625
40
0.75
40
0.75
40
0.875
40
0.875
40
1
40
1
40
1
40
1
41
1
10
166.749058165114
20
8.5
30
0
41
1
10
166.818107950266
20
8.5
30
0
41
1
10
166.887157735417
20
8.47647638559604
30
0
41
1
10
167.025257305718
20
8.37560395256062
30
0
41
1
10
167.094307090869
20
8.2982187887489
30
0
41
1
10
167.232406661171
20
8.08498348573025
30
0
41
1
10
167.301456446322
20
7.94910271935203
30
0
41
1
10
167.439556016624
20
7.61748090566459
30
0
41
1
10
167.508605801775
20
7.42172410010593
30
0
41
1
10
167.646705372077
20
6.97293031412497
30
0
41
1
10
167.715755157228
20
6.71989934014877
30
0
41
1
10
167.85385472753
20
6.16328162257449
30
0
41
1
10
167.922904512681
20
5.85972384703516
30
0
41
1
10
168.061004082982
20
5.21239443067154
30
0
41
1
10
168.130053868134
20
4.86866886440691
30
0
41
1
10
168.268153438435
20
4.15380841405042
30
0
41
1
10
168.337203223586
20
3.78272572655317
30
0
41
1
10
168.406253008737
20
3.40481209422808
30
0
0
SPLINE
5
E5
100
AcDbEntity
8
1
62
256
6
ByLayer
370
13
48
1
60
0
100
AcDbSpline
70
4
71
3
72
76
73
72
40
0
40
0
40
0
40
0
40
0.0312500000000007
40
0.0312500000000007
40
0.0625000000000015
40
0.0625000000000015
40
0.0937500000000022
40
0.0937500000000022
40
0.125000000000003
40
0.125000000000003
40
0.156250000000004
40
0.156250000000004
40
0.187500000000004
40
0.187500000000004
40
0.195312500000004
40
0.195312500000004
40
0.203125000000004
40
0.218750000000004
40
0.218750000000004
40
0.250000000000004
40
0.250000000000004
40
0.281250000000003
40
0.281250000000003
40
0.312500000000003
40
0.312500000000003
40
0.343750000000003
40
0.343750000000003
40
0.375000000000003
40
0.375000000000003
40
0.406250000000002
40
0.406250000000002
40
0.437500000000002
40
0.437500000000002
40
0.468750000000002
40
0.468750000000002
40
0.500000000000001
40
0.500000000000001
40
0.531250000000001
40
0.531250000000001
40
0.562500000000001
40
0.562500000000001
40
0.593750000000001
40
0.593750000000001
40
0.601562500000001
40
0.601562500000001
40
0.609375000000002
40
0.625000000000002
40
0.625000000000002
40
0.656250000000002
40
0.656250000000002
40
0.687500000000001
40
0.687500000000001
40
0.718750000000001
40
0.718750000000001
40
0.750000000000001
40
0.750000000000001
40
0.781250000000001
40
0.781250000000001
40
0.812500000000001
40
0.812500000000001
40
0.843750000000001
40
0.843750000000001
40
0.875000000000001
40
0.875000000000001
40
0.90625
40
0.90625
40
0.9375
40
0.9375
40
0.96875
40
0.96875
40
1
40
1
40
1
40
1
41
1
10
159.3
20
-6.27278087769992
30
0
41
1
10
159.358646109717
20
-6.51748414780832
30
0
41
1
10
159.417292219434
20
-6.74463294106786
30
0
41
1
10
159.534584438867
20
-7.15905637864626
30
0
41
1
10
159.593230548584
20
-7.34632471560707
30
0
41
1
10
159.710522768017
20
-7.6782949064492
30
0
41
1
10
159.769168877734
20
-7.82299919545747
30
0
41
1
10
159.886461097168
20
-8.06930885992452
30
0
41
1
10
159.945107206884
20
-8.17092397870638
30
0
41
1
10
160.062399426318
20
-8.33249300627233
30
0
41
1
10
160.121045536035
20
-8.3924613329111
30
0
41
1
10
160.238337755468
20
-8.47377122065402
30
0
41
1
10
160.296983865185
20
-8.49512891572309
30
0
41
1
10
160.370291502331
20
-8.50028523042369
30
0
41
1
10
160.38495302976
20
-8.50025078650688
30
0
41
1
10
160.414276084618
20
-8.49804698741025
30
0
41
1
10
160.458260666906
20
-8.49151374799214
30
0
41
1
10
160.502245249194
20
-8.47498009324892
30
0
41
1
10
160.590214413769
20
-8.42780374208485
30
0
41
1
10
160.648860523485
20
-8.37750022353413
30
0
41
1
10
160.766152742919
20
-8.23586640348344
30
0
41
1
10
160.824798852636
20
-8.1445210037686
30
0
41
1
10
160.94209107207
20
-7.91893232832629
30
0
41
1
10
161.000737181786
20
-7.78467791052967
30
0
41
1
10
161.11802940122
20
-7.473288075775
30
0
41
1
10
161.176675510936
20
-7.29614826589616
30
0
41
1
10
161.29396773037
20
-6.90113585000131
30
0
41
1
10
161.352613840087
20
-6.68326739848212
30
0
41
1
10
161.46990605952
20
-6.21108640127031
30
0
41
1
10
161.528552169237
20
-5.95678663088594
30
0
41
1
10
161.64584438867
20
-5.41791661895689
30
0
41
1
10
161.704490498387
20
-5.13336589761062
30
0
41
1
10
161.821782717821
20
-4.54155900070413
30
0
41
1
10
161.880428827537
20
-4.23432571553371
30
0
41
1
10
161.997721046971
20
-3.60545977074119
30
0
41
1
10
162.056367156688
20
-3.28384946784649
30
0
41
1
10
162.173659376121
20
-2.63458275924953
30
0
41
1
10
162.232305485838
20
-2.30694482239983
30
0
41
1
10
162.349597705272
20
-1.65339882904129
30
0
41
1
10
162.408243814988
20
-1.32750330826747
30
0
41
1
10
162.525536034422
20
-0.68416923324682
30
0
41
1
10
162.584182144139
20
-0.366736764096629
30
0
41
1
10
162.657489781285
20
0.021394329954262
30
0
41
1
10
162.672151308714
20
0.0987737839084275
30
0
41
1
10
162.701474363572
20
0.2548933061328
30
0
41
1
10
162.74545894586
20
0.490302127981835
30
0
41
1
10
162.789443528147
20
0.729054436332945
30
0
41
1
10
162.877412692722
20
1.20997411102169
30
0
41
1
10
162.936058802439
20
1.53517907494927
30
0
41
1
10
163.053351021873
20
2.18821880299373
30
0
41
1
10
163.111997131589
20
2.51604181276625
30
0
41
1
10
163.229289351023
20
3.16665917603717
30
0
41
1
10
163.28793546074
20
3.48943569981654
30
0
41
1
10
163.405227680173
20
4.12165427375649
30
0
41
1
10
163.46387378989
20
4.43107427984063
30
0
41
1
10
163.581166009324
20
5.02823353128343
30
0
41
1
10
163.63981211904
20
5.31594974472466
30
0
41
1
10
163.757104338474
20
5.86200445262446
30
0
41
1
10
163.81575044819
20
6.12032281922544
30
0
41
1
10
163.933042667624
20
6.60119691707749
30
0
41
1
10
163.991688777341
20
6.82373892131491
30
0
41
1
10
164.108980996774
20
7.22850793063103
30
0
41
1
10
164.167627106491
20
7.41072970368856
30
0
41
1
10
164.284919325925
20
7.73242926086661
30
0
41
1
10
164.343565435641
20
7.87191047130381
30
0
41
1
10
164.460857655075
20
8.10784912255519
30
0
41
1
10
164.519503764792
20
8.20431702649896
30
0
41
1
10
164.636795984225
20
8.3558824110201
30
0
41
1
10
164.695442093942
20
8.41099467157295
30
0
41
1
10
164.812734313376
20
8.48304538829836
30
0
41
1
10
164.871380423092
20
8.5
30
0
41
1
10
164.930026532809
20
8.5
30
0
0
SPLINE
5
E6
100
AcDbEntity
8
1
62
256
6
ByLayer
370
13
48
1
60
0
100
AcDbSpline
70
4
71
3
72
22
73
18
40
0
40
0
40
0
40
0
40
0.125
40
0.125
40
0.25
40
0.25
40
0.375
40
0.375
40
0.5
40
0.5
40
0.625
40
0.625
40
0.75
40
0.75
40
0.875
40
0.875
40
1
40
1
40
1
40
1
41
1
10
166.252454317794
20
8.5
30
0
41
1
10
166.342195929917
20
8.5
30
0
41
1
10
166.43193754204
20
8.4601745440458
30
0
41
1
10
166.611420766285
20
8.28660883483596
30
0
41
1
10
166.701162378408
20
8.15273773096416
30
0
41
1
10
166.880645602653
20
7.78376768029545
30
0
41
1
10
166.970387214775
20
7.54858538895658
30
0
41
1
10
167.149870439021
20
6.98031169770172
30
0
41
1
10
167.239612051143
20
6.64723403422556
30
0
41
1
10
167.419095275388
20
5.8983334206041
30
0
41
1
10
167.508836887511
20
5.48263210944566
30
0
41
1
10
167.688320111756
20
4.59345131374727
30
0
41
1
10
167.778061723879
20
4.12015819283258
30
0
41
1
10
167.957544948124
20
3.14573084767503
30
0
41
1
10
168.047286560247
20
2.64477525639387
30
0
41
1
10
168.226769784492
20
1.6441699551799
30
0
41
1
10
168.316511396615
20
1.14463400118436
30
0
41
1
10
168.406253008737
20
0.65764267096813
30
0
0
SPLINE
5
E7
100
AcDbEntity
8
1
62
256
6
ByLayer
370
13
48
1
60
0
100
AcDbSpline
70
4
71
3
72
78
73
74
40
0
40
0
40
0
40
0
40
0.0312499999999983
40
0.0312499999999983
40
0.0624999999999967
40
0.0624999999999967
40
0.093749999999995
40
0.093749999999995
40
0.109374999999994
40
0.109374999999994
40
0.117187499999994
40
0.117187499999994
40
0.124999999999993
40
0.124999999999993
40
0.156249999999992
40
0.156249999999992
40
0.187499999999991
40
0.187499999999991
40
0.21874999999999
40
0.21874999999999
40
0.249999999999989
40
0.249999999999989
40
0.281249999999988
40
0.281249999999988
40
0.312499999999987
40
0.312499999999987
40
0.343749999999985
40
0.343749999999985
40
0.374999999999984
40
0.374999999999984
40
0.406249999999983
40
0.406249999999983
40
0.437499999999982
40
0.437499999999982
40
0.468749999999981
40
0.468749999999981
40
0.49999999999998
40
0.49999999999998
40
0.531249999999978
40
0.531249999999978
40
0.546874999999978
40
0.546874999999978
40
0.554687499999978
40
0.554687499999978
40
0.562499999999978
40
0.562499999999978
40
0.59374999999998
40
0.59374999999998
40
0.624999999999981
40
0.624999999999981
40
0.656249999999983
40
0.656249999999983
40
0.687499999999985
40
0.687499999999985
40
0.718749999999986
40
0.718749999999986
40
0.749999999999988
40
0.749999999999988
40
0.781249999999989
40
0.781249999999989
40
0.812499999999991
40
0.812499999999991
40
0.843749999999992
40
0.843749999999992
40
0.874999999999994
40
0.874999999999994
40
0.906249999999995
40
0.906249999999995
40
0.937499999999997
40
0.937499999999997
40
0.968749999999998
40
0.968749999999998
40
1
40
1
40
1
40
1
41
1
10
159.3
20
-7.87858422624524
30
0
41
1
10
159.353473152974
20
-7.99782471555656
30
0
41
1
10
159.406946305948
20
-8.09914361975032
30
0
41
1
10
159.513892611896
20
-8.26670626371771
30
0
41
1
10
159.567365764869
20
-8.33295850582644
30
0
41
1
10
159.674312070817
20
-8.43234749132426
30
0
41
1
10
159.727785223791
20
-8.46549423820915
30
0
41
1
10
159.807994953251
20
-8.49252027847706
30
0
41
1
10
159.834731529738
20
-8.4977526489364
30
0
41
1
10
159.874836394469
20
-8.50024737268186
30
0
41
1
10
159.888204682712
20
-8.50019409283064
30
0
41
1
10
159.914941259199
20
-8.49831289434957
30
0
41
1
10
159.928309547443
20
-8.49647860105355
30
0
41
1
10
159.99515098866
20
-8.48270704469113
30
0
41
1
10
160.048624141634
20
-8.45694411734132
30
0
41
1
10
160.155570447582
20
-8.3729243145516
30
0
41
1
10
160.209043600555
20
-8.31465730309981
30
0
41
1
10
160.315989906503
20
-8.16342976804523
30
0
41
1
10
160.369463059477
20
-8.07046024867043
30
0
41
1
10
160.476409365425
20
-7.84874362027685
30
0
41
1
10
160.529882518398
20
-7.71999021692071
30
0
41
1
10
160.636828824346
20
-7.42697270266044
30
0
41
1
10
160.69030197732
20
-7.26270640376021
30
0
41
1
10
160.797248283268
20
-6.90041330566714
30
0
41
1
10
160.850721436242
20
-6.70238928593372
30
0
41
1
10
160.957667742189
20
-6.27580805038141
30
0
41
1
10
161.011140895163
20
-6.04725859319078
30
0
41
1
10
161.118087201111
20
-5.56417193493351
30
0
41
1
10
161.171560354085
20
-5.30964654144611
30
0
41
1
10
161.278506660032
20
-4.78017361639789
30
0
41
1
10
161.331979813006
20
-4.50524025069711
30
0
41
1
10
161.438926118954
20
-3.94114038128578
30
0
41
1
10
161.492399271927
20
-3.65198835557371
30
0
41
1
10
161.599345577875
20
-3.06582581860349
30
0
41
1
10
161.652818730849
20
-2.76882818056495
30
0
41
1
10
161.759765036797
20
-2.17311732046281
30
0
41
1
10
161.813238189771
20
-1.8744139763626
30
0
41
1
10
161.920184495718
20
-1.28085679267187
30
0
41
1
10
161.973657648692
20
-0.986009168546047
30
0
41
1
10
162.053867378153
20
-0.550182839485927
30
0
41
1
10
162.08060395464
20
-0.40597460703691
30
0
41
1
10
162.12070881937
20
-0.191640897267462
30
0
41
1
10
162.134077107614
20
-0.120525628501639
30
0
41
1
10
162.160813684101
20
0.0209890470397909
30
0
41
1
10
162.174181972344
20
0.0915535848314164
30
0
41
1
10
162.241023413561
20
0.447198934471089
30
0
41
1
10
162.294496566535
20
0.73724052899081
30
0
41
1
10
162.401442872483
20
1.32421763523149
30
0
41
1
10
162.454916025457
20
1.62114921423927
30
0
41
1
10
162.561862331404
20
2.21683399756495
30
0
41
1
10
162.615335484378
20
2.51557955356174
30
0
41
1
10
162.722281790326
20
3.10907834095565
30
0
41
1
10
162.7757549433
20
3.40382042846707
30
0
41
1
10
162.882701249248
20
3.98304010619708
30
0
41
1
10
162.936174402221
20
4.26750400952682
30
0
41
1
10
163.043120708169
20
4.81981383944
30
0
41
1
10
163.096593861143
20
5.08764516364997
30
0
41
1
10
163.203540167091
20
5.60068630081909
30
0
41
1
10
163.257013320064
20
5.84588261731622
30
0
41
1
10
163.363959626012
20
6.30842969952553
30
0
41
1
10
163.417432778986
20
6.52577004155094
30
0
41
1
10
163.524379084934
20
6.92852680626814
30
0
41
1
10
163.577852237908
20
7.11393731583527
30
0
41
1
10
163.684798543855
20
7.45015166634798
30
0
41
1
10
163.738271696829
20
7.60095468093414
30
0
41
1
10
163.845218002777
20
7.86676933926577
30
0
41
1
10
163.89869115575
20
7.9817848817946
30
0
41
1
10
164.005637461698
20
8.17628960213864
30
0
41
1
10
164.059110614672
20
8.25578629091689
30
0
41
1
10
164.16605692062
20
8.38079197365482
30
0
41
1
10
164.219530073594
20
8.42631058050185
30
0
41
1
10
164.326476379541
20
8.48590949917923
30
0
41
1
10
164.379949532515
20
8.5
30
0
41
1
10
164.433422685489
20
8.5
30
0
0
SPLINE
5
E8
100
AcDbEntity
8
1
62
256
6
ByLayer
370
13
48
1
60
0
100
AcDbSpline
70
4
71
3
72
42
73
38
40
0
40
0
40
0
40
0
40
0.0624999999999998
40
0.0624999999999998
40
0.125
40
0.125
40
0.1875
40
0.1875
40
0.249999999999999
40
0.249999999999999
40
0.312499999999999
40
0.312499999999999
40
0.374999999999999
40
0.374999999999999
40
0.437499999999999
40
0.437499999999999
40
0.499999999999999
40
0.499999999999999
40
0.562499999999999
40
0.562499999999999
40
0.624999999999998
40
0.624999999999998
40
0.687499999999998
40
0.687499999999998
40
0.749999999999998
40
0.749999999999998
40
0.812499999999998
40
0.812499999999998
40
0.843749999999999
40
0.843749999999999
40
0.859374999999999
40
0.859374999999999
40
0.875
40
0.875
40
0.9375
40
0.9375
40
1
40
1
40
1
40
1
41
1
10
165.755850470474
20
8.5
30
0
41
1
10
165.811067190021
20
8.5
30
0
41
1
10
165.866283909569
20
8.48497390757564
30
0
41
1
10
165.976717348663
20
8.42131610066491
30
0
41
1
10
166.03193406821
20
8.37267242536595
30
0
41
1
10
166.142367507304
20
8.23901693631154
30
0
41
1
10
166.197584226852
20
8.15399394705346
30
0
41
1
10
166.308017665946
20
7.94598425345762
30
0
41
1
10
166.363234385493
20
7.82298907730555
30
0
41
1
10
166.473667824587
20
7.5389087365804
30
0
41
1
10
166.528884544134
20
7.37781966335302
30
0
41
1
10
166.639317983229
20
7.0190872088468
30
0
41
1
10
166.694534702776
20
6.82144577114289
30
0
41
1
10
166.80496814187
20
6.39283990690663
30
0
41
1
10
166.860184861417
20
6.16188354390522
30
0
41
1
10
166.970618300512
20
5.67142456602051
30
0
41
1
10
167.025835020059
20
5.41193518515286
30
0
41
1
10
167.136268459153
20
4.87040799564744
30
0
41
1
10
167.1914851787
20
4.58838659858085
30
0
41
1
10
167.301918617794
20
4.008561028835
30
0
41
1
10
167.357135337342
20
3.71077391099894
30
0
41
1
10
167.467568776436
20
3.10643829479923
30
0
41
1
10
167.522785495983
20
2.79990506195279
30
0
41
1
10
167.633218935077
20
2.18486045978878
30
0
41
1
10
167.688435654624
20
1.87636078177729
30
0
41
1
10
167.798869093719
20
1.26351786834624
30
0
41
1
10
167.854085813266
20
0.959181892120711
30
0
41
1
10
167.936910892587
20
0.509694671041274
30
0
41
1
10
167.96451925236
20
0.36102709542817
30
0
41
1
10
168.005931792021
20
0.140179037053315
30
0
41
1
10
168.019735971907
20
0.0669618927696263
30
0
41
1
10
168.047344331681
20
-0.0788592626341256
30
0
41
1
10
168.061148511567
20
-0.152157558555359
30
0
41
1
10
168.130169411002
20
-0.520432023303329
30
0
41
1
10
168.185386130549
20
-0.820799674448836
30
0
41
1
10
168.295819569643
20
-1.42835977412599
30
0
41
1
10
168.35103628919
20
-1.73554715083662
30
0
41
1
10
168.406253008737
20
-2.04329794152846
30
0
0
SPLINE
5
E9
100
AcDbEntity
8
1
62
256
6
ByLayer
370
13
48
1
60
0
100
AcDbSpline
70
4
71
3
72
74
73
70
40
0
40
0
40
0
40
0
40
0.0156249999999999
40
0.0156249999999999
40
0.0234374999999999
40
0.0234374999999999
40
0.0312499999999999
40
0.0312499999999999
40
0.0624999999999998
40
0.0624999999999998
40
0.0937499999999997
40
0.0937499999999997
40
0.125
40
0.125
40
0.15625
40
0.15625
40
0.187499999999999
40
0.187499999999999
40
0.21875
40
0.21875
40
0.25
40
0.25
40
0.28125
40
0.28125
40
0.3125
40
0.3125
40
0.34375
40
0.34375
40
0.375
40
0.375
40
0.40625
40
0.40625
40
0.4375
40
0.4375
40
0.5
40
0.5
40
0.5078125
40
0.5078125
40
0.515624999999999
40
0.515624999999999
40
0.53125
40
0.53125
40
0.5625
40
0.5625
40
0.59375
40
0.59375
40
0.625
40
0.625
40
0.65625
40
0.65625
40
0.6875
40
0.6875
40
0.71875
40
0.71875
40
0.75
40
0.75
40
0.78125
40
0.78125
40
0.8125
40
0.8125
40
0.84375
40
0.84375
40
0.875
40
0.875
40
0.90625
40
0.90625
40
0.9375
40
0.9375
40
1
40
1
40
1
40
1
41
1
10
159.3
20
-8.48826901971671
30
0
41
1
10
159.324150098115
20
-8.49510812607915
30
0
41
1
10
159.348300196231
20
-8.4988977317789
30
0
41
1
10
159.384525343404
20
-8.50023932210064
30
0
41
1
10
159.396600392462
20
-8.49996880073056
30
0
41
1
10
159.420750490577
20
-8.4979707951185
30
0
41
1
10
159.432825539635
20
-8.49624064034143
30
0
41
1
10
159.493200784924
20
-8.48383726004218
30
0
41
1
10
159.541500981155
20
-8.46188965298452
30
0
41
1
10
159.638101373617
20
-8.39170667062854
30
0
41
1
10
159.686401569848
20
-8.34346517430257
30
0
41
1
10
159.783001962309
20
-8.21897252295497
30
0
41
1
10
159.83130215854
20
-8.14271574477024
30
0
41
1
10
159.927902551002
20
-7.96117752660433
30
0
41
1
10
159.976202747233
20
-7.85589172505763
30
0
41
1
10
160.072803139695
20
-7.61614014223773
30
0
41
1
10
160.121103335926
20
-7.48167199683465
30
0
41
1
10
160.217703728388
20
-7.1843637499706
30
0
41
1
10
160.266003924619
20
-7.02152383373914
30
0
41
1
10
160.36260431708
20
-6.66927799052181
30
0
41
1
10
160.410904513311
20
-6.47987502187269
30
0
41
1
10
160.507504905773
20
-6.07726028302403
30
0
41
1
10
160.555805102004
20
-5.86405405432845
30
0
41
1
10
160.652405494466
20
-5.41741261187565
30
0
41
1
10
160.700705690697
20
-5.18398492717986
30
0
41
1
10
160.797306083159
20
-4.70110425575714
30
0
41
1
10
160.84560627939
20
-4.4516598916037
30
0
41
1
10
160.942206671852
20
-3.9413274360405
30
0
41
1
10
160.990506868082
20
-3.68044804601055
30
0
41
1
10
161.087107260544
20
-3.15194116454245
30
0
41
1
10
161.135407456775
20
-2.88432151372692
30
0
41
1
10
161.232007849237
20
-2.3468921464183
30
0
41
1
10
161.280308045468
20
-2.0770887041468
30
0
41
1
10
161.425208634161
20
-1.2707026432642
30
0
41
1
10
161.521809026623
20
-0.737462883660584
30
0
41
1
10
161.630484468142
20
-0.157697832284413
30
0
41
1
10
161.6425595172
20
-0.0935527291950109
30
0
41
1
10
161.666709615315
20
0.0341492109817807
30
0
41
1
10
161.678784664373
20
0.0979746003100956
30
0
41
1
10
161.715009811546
20
0.290714858470636
30
0
41
1
10
161.739159909662
20
0.420329060270234
30
0
41
1
10
161.811610204008
20
0.81199593388493
30
0
41
1
10
161.859910400239
20
1.07689201963066
30
0
41
1
10
161.956510792701
20
1.61091066212265
30
0
41
1
10
162.004810988932
20
1.88003007392132
30
0
41
1
10
162.101411381394
20
2.41857318302402
30
0
41
1
10
162.149711577624
20
2.68799170849366
30
0
41
1
10
162.246311970087
20
3.22275893589719
30
0
41
1
10
162.294612166317
20
3.48810063537187
30
0
41
1
10
162.391212558779
20
4.01007188038736
30
0
41
1
10
162.43951275501
20
4.26669311923385
30
0
41
1
10
162.536113147472
20
4.76654490766632
30
0
41
1
10
162.584413343703
20
5.00976666593161
30
0
41
1
10
162.681013736165
20
5.47836466764537
30
0
41
1
10
162.729313932396
20
5.70373262908382
30
0
41
1
10
162.825914324858
20
6.1326519920429
30
0
41
1
10
162.874214521088
20
6.33619660878531
30
0
41
1
10
162.97081491355
20
6.71821177341252
30
0
41
1
10
163.019115109781
20
6.89667782035966
30
0
41
1
10
163.115715502243
20
7.22616394858238
30
0
41
1
10
163.164015698474
20
7.37718224464035
30
0
41
1
10
163.260616090936
20
7.65038217445266
30
0
41
1
10
163.308916287167
20
7.77256474895771
30
0
41
1
10
163.405516679629
20
7.98769604328538
30
0
41
1
10
163.45381687586
20
8.08064805259895
30
0
41
1
10
163.550417268321
20
8.23784927846165
30
0
41
1
10
163.598717464552
20
8.30210348427167
30
0
41
1
10
163.743618053245
20
8.45381053525472
30
0
41
1
10
163.840218445707
20
8.5
30
0
41
1
10
163.936818838169
20
8.5
30
0
0
SPLINE
5
EA
100
AcDbEntity
8
1
62
256
6
ByLayer
370
13
48
1
60
0
100
AcDbSpline
70
4
71
3
72
42
73
38
40
0
40
0
40
0
40
0
40
0.0624999999999998
40
0.0624999999999998
40
0.125
40
0.125
40
0.187499999999999
40
0.187499999999999
40
0.249999999999999
40
0.249999999999999
40
0.312499999999999
40
0.312499999999999
40
0.374999999999999
40
0.374999999999999
40
0.437499999999999
40
0.437499999999999
40
0.499999999999999
40
0.499999999999999
40
0.562499999999999
40
0.562499999999999
40
0.624999999999999
40
0.624999999999999
40
0.687499999999999
40
0.687499999999999
40
0.718749999999999
40
0.718749999999999
40
0.734375
40
0.734375
40
0.75
40
0.75
40
0.8125
40
0.8125
40
0.875
40
0.875
40
0.9375
40
0.9375
40
1
40
1
40
1
40
1
41
1
10
165.259246623154
20
8.5
30
0
41
1
10
165.324809256187
20
8.5
30
0
41
1
10
165.39037188922
20
8.47879886681707
30
0
41
1
10
165.521497155286
20
8.38815429994739
30
0
41
1
10
165.587059788319
20
8.31868274522716
30
0
41
1
10
165.718185054385
20
8.12735358600855
30
0
41
1
10
165.783747687418
20
8.00547154144812
30
0
41
1
10
165.914872953484
20
7.70773804738144
30
0
41
1
10
165.980435586517
20
7.53187225074154
30
0
41
1
10
166.111560852583
20
7.12775502896372
30
0
41
1
10
166.177123485616
20
6.89950458967647
30
0
41
1
10
166.308248751682
20
6.39558739818168
30
0
41
1
10
166.373811384715
20
6.11993876000281
30
0
41
1
10
166.504936650781
20
5.52929620174945
30
0
41
1
10
166.570499283814
20
5.21433464387317
30
0
41
1
10
166.70162454988
20
4.55546607173119
30
0
41
1
10
166.767187182913
20
4.21159880276889
30
0
41
1
10
166.898312448979
20
3.50653625638768
30
0
41
1
10
166.963875082012
20
3.14537966784388
30
0
41
1
10
167.095000348078
20
2.41736419419325
30
0
41
1
10
167.160562981111
20
2.05053582019332
30
0
41
1
10
167.291688247177
20
1.32174750833946
30
0
41
1
10
167.35725088021
20
0.959806056461218
30
0
41
1
10
167.455594829759
20
0.427122206932324
30
0
41
1
10
167.488376146276
20
0.25124991392687
30
0
41
1
10
167.53754812105
20
-0.0093556618718935
30
0
41
1
10
167.553938779309
20
-0.0957734500544802
30
0
41
1
10
167.586720095825
20
-0.270353896468407
30
0
41
1
10
167.603110754083
20
-0.358155706034751
30
0
41
1
10
167.685064045375
20
-0.799445825361062
30
0
41
1
10
167.750626678408
20
-1.15985928041834
30
0
41
1
10
167.881751944473
20
-1.88702178220976
30
0
41
1
10
167.947314577506
20
-2.25375423406041
30
0
41
1
10
168.078439843572
20
-2.983238654746
30
0
41
1
10
168.144002476605
20
-3.34596175205141
30
0
41
1
10
168.275127742671
20
-4.05591577488156
30
0
41
1
10
168.340690375704
20
-4.40310884333971
30
0
41
1
10
168.406253008737
20
-4.73671092200394
30
0
0
SPLINE
5
EB
100
AcDbEntity
8
1
62
256
6
ByLayer
370
13
48
1
60
0
100
AcDbSpline
70
4
71
3
72
44
73
40
40
0
40
0
40
0
40
0
40
0.0624999999999993
40
0.0624999999999993
40
0.124999999999999
40
0.124999999999999
40
0.187499999999998
40
0.187499999999998
40
0.249999999999997
40
0.249999999999997
40
0.312499999999996
40
0.312499999999996
40
0.374999999999996
40
0.374999999999996
40
0.437499999999995
40
0.437499999999995
40
0.445312499999995
40
0.445312499999995
40
0.453124999999996
40
0.453124999999996
40
0.468749999999996
40
0.468749999999996
40
0.499999999999996
40
0.499999999999996
40
0.562499999999996
40
0.562499999999996
40
0.624999999999997
40
0.624999999999997
40
0.687499999999997
40
0.687499999999997
40
0.749999999999998
40
0.749999999999998
40
0.812499999999998
40
0.812499999999998
40
0.874999999999999
40
0.874999999999999
40
0.937499999999999
40
0.937499999999999
40
1
40
1
40
1
40
1
41
1
10
159.3
20
-8.19373914981631
30
0
41
1
10
159.386254478976
20
-8.06104325079193
30
0
41
1
10
159.472508957952
20
-7.88256363941551
30
0
41
1
10
159.645017915904
20
-7.43230682292426
30
0
41
1
10
159.73127239488
20
-7.16049681427489
30
0
41
1
10
159.903781352832
20
-6.53156947313622
30
0
41
1
10
159.990035831808
20
-6.17450545098427
30
0
41
1
10
160.16254478976
20
-5.39273062274768
30
0
41
1
10
160.248799268736
20
-4.96814840347173
30
0
41
1
10
160.421308226688
20
-4.07585683709613
30
0
41
1
10
160.507562705664
20
-3.60830525952085
30
0
41
1
10
160.680071663616
20
-2.6569568074616
30
0
41
1
10
160.766326142592
20
-2.17329225191753
30
0
41
1
10
160.938835100544
20
-1.21440794520836
30
0
41
1
10
161.02508957952
20
-0.739261379215634
30
0
41
1
10
161.122125868368
20
-0.220336013135182
30
0
41
1
10
161.132907678241
20
-0.162890464269026
30
0
41
1
10
161.154471297984
20
-0.0484553906546807
30
0
41
1
10
161.165253107856
20
0.0083796979466513
30
0
41
1
10
161.197598537472
20
0.179709416882162
30
0
41
1
10
161.219162157216
20
0.294855852179666
30
0
41
1
10
161.283853016448
20
0.642705387606384
30
0
41
1
10
161.326980255936
20
0.877831177871286
30
0
41
1
10
161.4563619744
20
1.58947123241276
30
0
41
1
10
161.542616453376
20
2.07240535254115
30
0
41
1
10
161.715125411328
20
3.03271656967695
30
0
41
1
10
161.801379890304
20
3.50998299584347
30
0
41
1
10
161.973888848257
20
4.43255305656538
30
0
41
1
10
162.060143327233
20
4.87770329356974
30
0
41
1
10
162.232652285185
20
5.70997016419028
30
0
41
1
10
162.318906764161
20
6.0969396142238
30
0
41
1
10
162.491415722112
20
6.79182624699607
30
0
41
1
10
162.577670201088
20
7.09965602332281
30
0
41
1
10
162.75017915904
20
7.62401019173174
30
0
41
1
10
162.836433638017
20
7.84053395066584
30
0
41
1
10
163.008942595969
20
8.18017620843244
30
0
41
1
10
163.095197074945
20
8.30336793596527
30
0
41
1
10
163.267706032897
20
8.46322580246076
30
0
41
1
10
163.353960511873
20
8.5
30
0
41
1
10
163.440214990849
20
8.5
30
0
0
SPLINE
5
EC
100
AcDbEntity
8
1
62
256
6
ByLayer
370
13
48
1
60
0
100
AcDbSpline
70
4
71
3
72
38
73
34
40
0
40
0
40
0
40
0
40
0.0625
40
0.0625
40
0.125
40
0.125
40
0.1875
40
0.1875
40
0.25
40
0.25
40
0.3125
40
0.3125
40
0.375
40
0.375
40
0.4375
40
0.4375
40
0.5
40
0.5
40
0.5625
40
0.5625
40
0.625
40
0.625
40
0.6875
40
0.6875
40
0.75
40
0.75
40
0.8125
40
0.8125
40
0.875
40
0.875
40
0.9375
40
0.9375
40
1
40
1
40
1
40
1
41
1
10
164.762642775834
20
8.5
30
0
41
1
10
164.838551322353
20
8.5
30
0
41
1
10
164.914459868872
20
8.47155208389194
30
0
41
1
10
165.066276961909
20
8.34887457205579
30
0
41
1
10
165.142185508428
20
8.25458702767489
30
0
41
1
10
165.294002601466
20
7.99461345600309
30
0
41
1
10
165.369911147985
20
7.8288820019489
30
0
41
1
10
165.521728241022
20
7.42539892997502
30
0
41
1
10
165.597636787541
20
7.18763168218399
30
0
41
1
10
165.749453880579
20
6.64543082639756
30
0
41
1
10
165.825362427098
20
6.34102189224436
30
0
41
1
10
165.977179520135
20
5.67676098886727
30
0
41
1
10
166.053088066654
20
5.31697084801777
30
0
41
1
10
166.204905159692
20
4.55771563501654
30
0
41
1
10
166.28081370621
20
4.15833258373399
30
0
41
1
10
166.432630799248
20
3.33797030210312
30
0
41
1
10
166.508539345767
20
2.91707014749693
30
0
41
1
10
166.660356438804
20
2.07155635304906
30
0
41
1
10
166.736264985323
20
1.64699998438081
30
0
41
1
10
166.888082078361
20
0.809750412151402
30
0
41
1
10
166.96399062488
20
0.39722698829911
30
0
41
1
10
167.115807717917
20
-0.404547576684763
30
0
41
1
10
167.191716264436
20
-0.817325879518648
30
0
41
1
10
167.343533357474
20
-1.65471615007542
30
0
41
1
10
167.419441903993
20
-2.07930047715766
30
0
41
1
10
167.57125899703
20
-2.92476686526535
30
0
41
1
10
167.647167543549
20
-3.34559148589653
30
0
41
1
10
167.798984636587
20
-4.1656909431214
30
0
41
1
10
167.874893183106
20
-4.56488662000268
30
0
41
1
10
168.026710276143
20
-5.32366144604862
30
0
41
1
10
168.102618822662
20
-5.68315862806986
30
0
41
1
10
168.2544359157
20
-6.34674925952032
30
0
41
1
10
168.330344462219
20
-6.65078106688748
30
0
41
1
10
168.406253008737
20
-6.92147857186748
30
0
0
SPLINE
5
ED
100
AcDbEntity
8
1
62
256
6
ByLayer
370
13
48
1
60
0
100
AcDbSpline
70
4
71
3
72
38
73
34
40
0
40
0
40
0
40
0
40
0.0625000000000001
40
0.0625000000000001
40
0.125
40
0.125
40
0.1875
40
0.1875
40
0.25
40
0.25
40
0.3125
40
0.3125
40
0.375
40
0.375
40
0.4375
40
0.4375
40
0.5
40
0.5
40
0.5625
40
0.5625
40
0.625
40
0.625
40
0.6875
40
0.6875
40
0.75
40
0.75
40
0.8125
40
0.8125
40
0.875
40
0.875
40
0.9375
40
0.9375
40
1
40
1
40
1
40
1
41
1
10
159.3
20
-6.92148181924719
30
0
41
1
10
159.37590856549
20
-6.65078451138771
30
0
41
1
10
159.45181713098
20
-6.34675286746233
30
0
41
1
10
159.603634261961
20
-5.68316248324771
30
0
41
1
10
159.679542827451
20
-5.32366538498226
30
0
41
1
10
159.831359958431
20
-4.56489064577809
30
0
41
1
10
159.907268523921
20
-4.16569497205356
30
0
41
1
10
160.059085654902
20
-3.34559545049947
30
0
41
1
10
160.134994220392
20
-2.92477076252547
30
0
41
1
10
160.286811351372
20
-2.07930418677873
30
0
41
1
10
160.362719916862
20
-1.65471973955516
30
0
41
1
10
160.514537047843
20
-0.817329196405979
30
0
41
1
10
160.590445613333
20
-0.404550741237955
30
0
41
1
10
160.742262744313
20
0.397224141373044
30
0
41
1
10
160.818171309804
20
0.809747508758363
30
0
41
1
10
160.969988440784
20
1.64699723805967
30
0
41
1
10
161.045897006274
20
2.07155370394025
30
0
41
1
10
161.197714137255
20
2.91706772506714
30
0
41
1
10
161.273622702745
20
3.3379680091243
30
0
41
1
10
161.425439833725
20
4.15833057112161
30
0
41
1
10
161.501348399215
20
4.55771377324547
30
0
41
1
10
161.653165530196
20
5.3169692941801
30
0
41
1
10
161.729074095686
20
5.67675959200662
30
0
41
1
10
161.880891226666
20
6.34102079888458
30
0
41
1
10
161.956799792156
20
6.64542987944665
30
0
41
1
10
162.108616923137
20
7.18763100302726
30
0
41
1
10
162.184525488627
20
7.42539837213155
30
0
41
1
10
162.336342619607
20
7.82888165223167
30
0
41
1
10
162.412251185097
20
7.99461319309046
30
0
41
1
10
162.564068316078
20
8.25458690074581
30
0
41
1
10
162.639976881568
20
8.34887449435121
30
0
41
1
10
162.791794012548
20
8.47155206961637
30
0
41
1
10
162.867702578038
20
8.5
30
0
41
1
10
162.943611143529
20
8.5
30
0
0
SPLINE
5
EE
100
AcDbEntity
8
1
62
256
6
ByLayer
370
13
48
1
60
0
100
AcDbSpline
70
4
71
3
72
44
73
40
40
0
40
0
40
0
40
0
40
0.0624999999999996
40
0.0624999999999996
40
0.124999999999999
40
0.124999999999999
40
0.187499999999999
40
0.187499999999999
40
0.249999999999998
40
0.249999999999998
40
0.312499999999998
40
0.312499999999998
40
0.374999999999998
40
0.374999999999998
40
0.437499999999997
40
0.437499999999997
40
0.499999999999997
40
0.499999999999997
40
0.531249999999997
40
0.531249999999997
40
0.546874999999997
40
0.546874999999997
40
0.554687499999997
40
0.554687499999997
40
0.562499999999997
40
0.562499999999997
40
0.624999999999998
40
0.624999999999998
40
0.687499999999998
40
0.687499999999998
40
0.749999999999999
40
0.749999999999999
40
0.812499999999999
40
0.812499999999999
40
0.874999999999999
40
0.874999999999999
40
0.9375
40
0.9375
40
1
40
1
40
1
40
1
41
1
10
164.266038928514
20
8.5
30
0
41
1
10
164.352293388519
20
8.5
30
0
41
1
10
164.438547848523
20
8.46322581872391
30
0
41
1
10
164.611056768533
20
8.30336802518255
30
0
41
1
10
164.697311228537
20
8.18017635445574
30
0
41
1
10
164.869820148546
20
7.840534252861
30
0
41
1
10
164.956074608551
20
7.62401059334758
30
0
41
1
10
165.128583528561
20
7.09965665967505
30
0
41
1
10
165.214837988565
20
6.79182701860594
30
0
41
1
10
165.387346908574
20
6.09694067666732
30
0
41
1
10
165.473601368579
20
5.70997138204413
30
0
41
1
10
165.646110288588
20
4.87770482152692
30
0
41
1
10
165.732364748593
20
4.43255473901638
30
0
41
1
10
165.904873668602
20
3.50998496587923
30
0
41
1
10
165.991128128607
20
3.0327186726646
30
0
41
1
10
166.163637048616
20
2.07240768510988
30
0
41
1
10
166.249891508621
20
1.58947366157983
30
0
41
1
10
166.379273198628
20
0.877833719831472
30
0
41
1
10
166.42240042863
20
0.642707961881257
30
0
41
1
10
166.487091273634
20
0.294858466962893
30
0
41
1
10
166.508654888635
20
0.179712043844546
30
0
41
1
10
166.541000311137
20
0.0083823412175548
30
0
41
1
10
166.551782118637
20
-0.0484527297986688
30
0
41
1
10
166.573345733638
20
-0.162887764004893
30
0
41
1
10
166.584127541139
20
-0.2203332932975
30
0
41
1
10
166.681163808644
20
-0.739258484595524
30
0
41
1
10
166.767418268649
20
-1.2144049048965
30
0
41
1
10
166.939927188658
20
-2.17328896513567
30
0
41
1
10
167.026181648663
20
-2.65695342012535
30
0
41
1
10
167.198690568672
20
-3.60830174175058
30
0
41
1
10
167.284945028677
20
-4.07585328970578
30
0
41
1
10
167.457453948686
20
-4.9681448856345
30
0
41
1
10
167.543708408691
20
-5.39272716425469
30
0
41
1
10
167.7162173287
20
-6.17450220348255
30
0
41
1
10
167.802471788705
20
-6.53156637726045
30
0
41
1
10
167.974980708714
20
-7.16049410027614
30
0
41
1
10
168.061235168719
20
-7.4323043389648
30
0
41
1
10
168.233744088728
20
-7.88256166691596
30
0
41
1
10
168.319998548733
20
-8.06104155942072
30
0
41
1
10
168.406253008737
20
-8.19373774888749
30
0
0
SPLINE
5
EF
100
AcDbEntity
8
1
62
256
6
ByLayer
370
13
48
1
60
0
100
AcDbSpline
70
4
71
3
72
42
73
38
40
0
40
0
40
0
40
0
40
0.0625000000000021
40
0.0625000000000021
40
0.125000000000004
40
0.125000000000004
40
0.187500000000006
40
0.187500000000006
40
0.250000000000008
40
0.250000000000008
40
0.265625000000009
40
0.265625000000009
40
0.281250000000009
40
0.281250000000009
40
0.312500000000008
40
0.312500000000008
40
0.375000000000007
40
0.375000000000007
40
0.437500000000007
40
0.437500000000007
40
0.500000000000006
40
0.500000000000006
40
0.562500000000005
40
0.562500000000005
40
0.625000000000005
40
0.625000000000005
40
0.687500000000004
40
0.687500000000004
40
0.750000000000003
40
0.750000000000003
40
0.812500000000002
40
0.812500000000002
40
0.875000000000002
40
0.875000000000002
40
0.937500000000001
40
0.937500000000001
40
1
40
1
40
1
40
1
41
1
10
159.3
20
-4.736715555534
30
0
41
1
10
159.365562652004
20
-4.40311350597608
30
0
41
1
10
159.431125304009
20
-4.0559204324
30
0
41
1
10
159.562250608017
20
-3.3459663390617
30
0
41
1
10
159.627813260022
20
-2.98324317644719
30
0
41
1
10
159.75893856403
20
-2.25375857794387
30
0
41
1
10
159.824501216035
20
-1.88702601367186
30
0
41
1
10
159.955626520043
20
-1.15986325508212
30
0
41
1
10
160.021189172048
20
-0.79944965571957
30
0
41
1
10
160.103142487053
20
-0.358159345384905
30
0
41
1
10
160.119533150054
20
-0.270357497082131
30
0
41
1
10
160.152314476056
20
-0.0957769723403885
30
0
41
1
10
160.168705139058
20
-0.0093591416703589
30
0
41
1
10
160.217877128061
20
0.25124646702028
30
0
41
1
10
160.250658454063
20
0.427118785933544
30
0
41
1
10
160.34900243207
20
0.959802725307128
30
0
41
1
10
160.414565084074
20
1.32174425335413
30
0
41
1
10
160.545690388082
20
2.050532748661
30
0
41
1
10
160.611253040087
20
2.41736122995522
30
0
41
1
10
160.742378344095
20
3.14537694425383
30
0
41
1
10
160.8079409961
20
3.50653366613523
30
0
41
1
10
160.939066300109
20
4.21159649657508
30
0
41
1
10
161.004628952113
20
4.55546391621434
30
0
41
1
10
161.135754256121
20
5.21433279570223
30
0
41
1
10
161.201316908126
20
5.5292945101838
30
0
41
1
10
161.332442212135
20
6.11993737519276
30
0
41
1
10
161.398004864139
20
6.39558616345562
30
0
41
1
10
161.529130168148
20
6.89950363718199
30
0
41
1
10
161.594692820152
20
7.12775420856687
30
0
41
1
10
161.72581812416
20
7.53187166790229
30
0
41
1
10
161.791380776165
20
7.70773756998108
30
0
41
1
10
161.922506080174
20
8.00547124347247
30
0
41
1
10
161.988068732178
20
8.12735336202795
30
0
41
1
10
162.119194036187
20
8.31868263702694
30
0
41
1
10
162.184756688191
20
8.38815423356371
30
0
41
1
10
162.3158819922
20
8.47879885451334
30
0
41
1
10
162.381444644204
20
8.5
30
0
41
1
10
162.447007296208
20
8.5
30
0
0
SPLINE
5
F0
100
AcDbEntity
8
1
62
256
6
ByLayer
370
13
48
1
60
0
100
AcDbSpline
70
4
71
3
72
74
73
70
40
0
40
0
40
0
40
0
40
0.0624999999999997
40
0.0624999999999997
40
0.0937499999999993
40
0.0937499999999993
40
0.124999999999999
40
0.124999999999999
40
0.156249999999999
40
0.156249999999999
40
0.187499999999998
40
0.187499999999998
40
0.218749999999998
40
0.218749999999998
40
0.249999999999997
40
0.249999999999997
40
0.281249999999997
40
0.281249999999997
40
0.312499999999996
40
0.312499999999996
40
0.343749999999996
40
0.343749999999996
40
0.374999999999996
40
0.374999999999996
40
0.406249999999995
40
0.406249999999995
40
0.437499999999995
40
0.437499999999995
40
0.468749999999994
40
0.468749999999994
40
0.484374999999994
40
0.484374999999994
40
0.492187499999994
40
0.492187499999994
40
0.499999999999995
40
0.499999999999995
40
0.562499999999995
40
0.562499999999995
40
0.593749999999995
40
0.593749999999995
40
0.624999999999995
40
0.624999999999995
40
0.656249999999996
40
0.656249999999996
40
0.687499999999996
40
0.687499999999996
40
0.718749999999996
40
0.718749999999996
40
0.749999999999996
40
0.749999999999996
40
0.781249999999996
40
0.781249999999996
40
0.812499999999997
40
0.812499999999997
40
0.843749999999997
40
0.843749999999997
40
0.874999999999997
40
0.874999999999997
40
0.906249999999998
40
0.906249999999998
40
0.937499999999998
40
0.937499999999998
40
0.968749999999998
40
0.968749999999998
40
0.976562499999998
40
0.976562499999998
40
0.984374999999999
40
0.984374999999999
40
1
40
1
40
1
40
1
41
1
10
163.769435081194
20
8.5
30
0
41
1
10
163.866035454684
20
8.5
30
0
41
1
10
163.962635828175
20
8.45381055352468
30
0
41
1
10
164.107536388411
20
8.30210356451798
30
0
41
1
10
164.155836575156
20
8.23784938508393
30
0
41
1
10
164.252436948646
20
8.08064822383153
30
0
41
1
10
164.300737135391
20
7.98769625275642
30
0
41
1
10
164.397337508882
20
7.7725650464825
30
0
41
1
10
164.445637695627
20
7.65038252179431
30
0
41
1
10
164.542238069118
20
7.37718270210499
30
0
41
1
10
164.590538255863
20
7.22616446635146
30
0
41
1
10
164.687138629354
20
6.89667846733107
30
0
41
1
10
164.735438816099
20
6.71821248927674
30
0
41
1
10
164.832039189589
20
6.33619746842478
30
0
41
1
10
164.880339376334
20
6.13265292655689
30
0
41
1
10
164.976939749825
20
5.70373371622199
30
0
41
1
10
165.02523993657
20
5.47836583252351
30
0
41
1
10
165.121840310061
20
5.00976798580942
30
0
41
1
10
165.170140496806
20
4.76654630479388
30
0
41
1
10
165.266740870296
20
4.26669466708432
30
0
41
1
10
165.315041057041
20
4.01007350170238
30
0
41
1
10
165.411641430532
20
3.48810239688612
30
0
41
1
10
165.459941617277
20
3.22276076413996
30
0
41
1
10
165.556541990768
20
2.68799366107828
30
0
41
1
10
165.604842177513
20
2.41857519321889
30
0
41
1
10
165.701442551004
20
1.88003218854317
30
0
41
1
10
165.749742737749
20
1.61091282356122
30
0
41
1
10
165.846343111239
20
1.07689426298299
30
0
41
1
10
165.894643297984
20
0.811998212336789
30
0
41
1
10
165.967093578102
20
0.420331382421665
30
0
41
1
10
165.991243671475
20
0.290717193702306
30
0
41
1
10
166.027468811534
20
0.097976952956202
30
0
41
1
10
166.03954385822
20
0.034151561169125
30
0
41
1
10
166.063693951593
20
-0.0935503393768045
30
0
41
1
10
166.075768998279
20
-0.157695422785878
30
0
41
1
10
166.184444418456
20
-0.737460298508637
30
0
41
1
10
166.281044791947
20
-1.2706999122365
30
0
41
1
10
166.425945352182
20
-2.07708579377243
30
0
41
1
10
166.474245538927
20
-2.34688918287932
30
0
41
1
10
166.570845912418
20
-2.88431846115503
30
0
41
1
10
166.619146099163
20
-3.15193807611519
30
0
41
1
10
166.715746472654
20
-3.68044490682661
30
0
41
1
10
166.764046659399
20
-3.94132428196789
30
0
41
1
10
166.86064703289
20
-4.4516567315487
30
0
41
1
10
166.908947219635
20
-4.7011011046186
30
0
41
1
10
167.005547593125
20
-5.18398181934086
30
0
41
1
10
167.05384777987
20
-5.41740953842563
30
0
41
1
10
167.150448153361
20
-5.86405107537638
30
0
41
1
10
167.198748340106
20
-6.07725736418118
30
0
41
1
10
167.295348713597
20
-6.47987224770662
30
0
41
1
10
167.343648900342
20
-6.66927530091775
30
0
41
1
10
167.440249273832
20
-7.02152133502176
30
0
41
1
10
167.488549460578
20
-7.18436135756735
30
0
41
1
10
167.585149834068
20
-7.48166983494093
30
0
41
1
10
167.633450020813
20
-7.61613810452567
30
0
41
1
10
167.730050394304
20
-7.85588994889554
30
0
41
1
10
167.778350581049
20
-7.96117588779595
30
0
41
1
10
167.87495095454
20
-8.14271438878217
30
0
41
1
10
167.923251141285
20
-8.21897131242014
30
0
41
1
10
168.019851514775
20
-8.34346425776096
30
0
41
1
10
168.06815170152
20
-8.39170590261642
30
0
41
1
10
168.164752075011
20
-8.46188918050208
30
0
41
1
10
168.213052261756
20
-8.48383693455312
30
0
41
1
10
168.273427495188
20
-8.49624049517323
30
0
41
1
10
168.285502541874
20
-8.49797068584533
30
0
41
1
10
168.309652635247
20
-8.49996876285539
30
0
41
1
10
168.321727681933
20
-8.50023931939842
30
0
41
1
10
168.357952821992
20
-8.4988978367729
30
0
41
1
10
168.382102915365
20
-8.49510830598001
30
0
41
1
10
168.406253008737
20
-8.48826927759674
30
0
0
SPLINE
5
F1
100
AcDbEntity
8
1
62
256
6
ByLayer
370
13
48
1
60
0
100
AcDbSpline
70
4
71
3
72
42
73
38
40
0
40
0
40
0
40
0
40
0.0625
40
0.0625
40
0.125
40
0.125
40
0.140625
40
0.140625
40
0.15625
40
0.15625
40
0.1875
40
0.1875
40
0.25
40
0.25
40
0.3125
40
0.3125
40
0.375
40
0.375
40
0.4375
40
0.4375
40
0.5
40
0.5
40
0.5625
40
0.5625
40
0.625
40
0.625
40
0.6875
40
0.6875
40
0.75
40
0.75
40
0.8125
40
0.8125
40
0.875
40
0.875
40
0.9375
40
0.9375
40
1
40
1
40
1
40
1
41
1
10
159.3
20
-2.04330301690519
30
0
41
1
10
159.355216738518
20
-1.73555211469755
30
0
41
1
10
159.410433477037
20
-1.42836460998475
30
0
41
1
10
159.520866954074
20
-0.820804232137874
30
0
41
1
10
159.576083692593
20
-0.520436430856336
30
0
41
1
10
159.645104615741
20
-0.152161771000607
30
0
41
1
10
159.65890880037
20
-0.0788634356832176
30
0
41
1
10
159.68651716963
20
0.0669577991146753
30
0
41
1
10
159.700321354259
20
0.140174927586372
30
0
41
1
10
159.741733908148
20
0.361023021969317
30
0
41
1
10
159.769342277407
20
0.509690624958438
30
0
41
1
10
159.852167385185
20
0.959177938371568
30
0
41
1
10
159.907384123704
20
1.26351398982598
30
0
41
1
10
160.017817600741
20
1.87635708011746
30
0
41
1
10
160.073034339259
20
2.18485685976677
30
0
41
1
10
160.183467816296
20
2.79990168851305
30
0
41
1
10
160.238684554815
20
3.10643504629965
30
0
41
1
10
160.349118031852
20
3.71077093036939
30
0
41
1
10
160.40433477037
20
4.00855819111894
30
0
41
1
10
160.514768247407
20
4.58838405745189
30
0
41
1
10
160.569984985926
20
4.8704056081649
30
0
41
1
10
160.680418462963
20
5.41193310724509
30
0
41
1
10
160.735635201481
20
5.67142264400761
30
0
41
1
10
160.846068678518
20
6.16188192716788
30
0
41
1
10
160.901285417037
20
6.39283843951694
30
0
41
1
10
161.011718894074
20
6.82144458784498
30
0
41
1
10
161.066935632592
20
7.01908616026714
30
0
41
1
10
161.177369109629
20
7.37781886313294
30
0
41
1
10
161.232585848148
20
7.53890804998764
30
0
41
1
10
161.343019325185
20
7.8229885926462
30
0
41
1
10
161.398236063703
20
7.94598385710367
30
0
41
1
10
161.50866954074
20
8.15399370019554
30
0
41
1
10
161.563886279259
20
8.239016750655
30
0
41
1
10
161.674319756296
20
8.37267233549434
30
0
41
1
10
161.729536494814
20
8.4213160453948
30
0
41
1
10
161.839969971851
20
8.48497389723107
30
0
41
1
10
161.89518671037
20
8.5
30
0
41
1
10
161.950403448888
20
8.5
30
0
0
SPLINE
5
F2
100
AcDbEntity
8
1
62
256
6
ByLayer
370
13
48
1
60
0
100
AcDbSpline
70
4
71
3
72
77
73
73
40
0
40
0
40
0
40
0
40
0.03125
40
0.03125
40
0.0625
40
0.0625
40
0.09375
40
0.09375
40
0.125
40
0.125
40
0.15625
40
0.15625
40
0.1875
40
0.1875
40
0.21875
40
0.21875
40
0.25
40
0.25
40
0.28125
40
0.28125
40
0.3125
40
0.3125
40
0.34375
40
0.34375
40
0.375
40
0.375
40
0.40625
40
0.40625
40
0.4375
40
0.4375
40
0.4453125
40
0.4453125
40
0.453125
40
0.46875
40
0.46875
40
0.5
40
0.5
40
0.53125
40
0.53125
40
0.5625
40
0.5625
40
0.59375
40
0.59375
40
0.625
40
0.625
40
0.65625
40
0.65625
40
0.6875
40
0.6875
40
0.71875
40
0.71875
40
0.75
40
0.75
40
0.78125
40
0.78125
40
0.8125
40
0.8125
40
0.84375
40
0.84375
40
0.875
40
0.875
40
0.8828125
40
0.8828125
40
0.890625
40
0.890625
40
0.90625
40
0.90625
40
0.9375
40
0.9375
40
0.96875
40
0.96875
40
1
40
1
40
1
40
1
41
1
10
163.272831233874
20
8.5
30
0
41
1
10
163.326304377362
20
8.5
30
0
41
1
10
163.37977752085
20
8.48590950418694
30
0
41
1
10
163.486723807826
20
8.42631060721115
30
0
41
1
10
163.540196951314
20
8.38079201706702
30
0
41
1
10
163.647143238291
20
8.2557863805543
30
0
41
1
10
163.700616381779
20
8.17628972130632
30
0
41
1
10
163.807562668755
20
7.98178507315814
30
0
41
1
10
163.861035812243
20
7.86676957329993
30
0
41
1
10
163.96798209922
20
7.60095501273887
30
0
41
1
10
164.021455242708
20
7.45015205325302
30
0
41
1
10
164.128401529684
20
7.11393782355341
30
0
41
1
10
164.181874673172
20
6.9285273796938
30
0
41
1
10
164.288820960149
20
6.52577075414607
30
0
41
1
10
164.342294103637
20
6.30843048557205
30
0
41
1
10
164.449240390613
20
5.84588355435938
30
0
41
1
10
164.502713534101
20
5.60068731539343
30
0
41
1
10
164.609659821078
20
5.08764633329415
30
0
41
1
10
164.663132964566
20
4.81981508660797
30
0
41
1
10
164.770079251542
20
4.26750540768484
30
0
41
1
10
164.82355239503
20
3.98304157780837
30
0
41
1
10
164.930498682007
20
3.40382203931421
30
0
41
1
10
164.983971825495
20
3.1090800175765
30
0
41
1
10
165.090918112471
20
2.51558135123395
30
0
41
1
10
165.144391255959
20
2.21683585051105
30
0
41
1
10
165.251337542936
20
1.6211511653911
30
0
41
1
10
165.304810686424
20
1.32421962931636
30
0
41
1
10
165.4117569734
20
0.737242595770084
30
0
41
1
10
165.465230116888
20
0.44720103101659
30
0
41
1
10
165.532071546248
20
0.091555710409807
30
0
41
1
10
165.545439832121
20
0.0209911736015158
30
0
41
1
10
165.572176403865
20
-0.120523462366265
30
0
41
1
10
165.612281261481
20
-0.333868265775351
30
0
41
1
10
165.652386119097
20
-0.550180557232835
30
0
41
1
10
165.732595834329
20
-0.986006774984787
30
0
41
1
10
165.786068977817
20
-1.28085432906264
30
0
41
1
10
165.893015264794
20
-1.87441138595744
30
0
41
1
10
165.946488408282
20
-2.17311467332587
30
0
41
1
10
166.053434695258
20
-2.76882543832724
30
0
41
1
10
166.106907838746
20
-3.06582303801599
30
0
41
1
10
166.213854125723
20
-3.65198552122905
30
0
41
1
10
166.267327269211
20
-3.94113753155287
30
0
41
1
10
166.374273556187
20
-4.50523739663947
30
0
41
1
10
166.427746699675
20
-4.780170773419
30
0
41
1
10
166.534692986652
20
-5.30964374898613
30
0
41
1
10
166.58816613014
20
-5.56416918192139
30
0
41
1
10
166.695112417116
20
-6.047255947389
30
0
41
1
10
166.748585560604
20
-6.27580547234021
30
0
41
1
10
166.855531847581
20
-6.70238686963057
30
0
41
1
10
166.909004991069
20
-6.90041098333012
30
0
41
1
10
167.015951278045
20
-7.26270429162443
30
0
41
1
10
167.069424421533
20
-7.42697070674134
30
0
41
1
10
167.176370708509
20
-7.7199884703642
30
0
41
1
10
167.229843851998
20
-7.8487420068445
30
0
41
1
10
167.336790138974
20
-8.07045891230314
30
0
41
1
10
167.390263282462
20
-8.16342857559798
30
0
41
1
10
167.497209569438
20
-8.31465640308008
30
0
41
1
10
167.550682712927
20
-8.3729235630226
30
0
41
1
10
167.657628999903
20
-8.45694366161214
30
0
41
1
10
167.711102143391
20
-8.48270673626021
30
0
41
1
10
167.777943572751
20
-8.49647847295159
30
0
41
1
10
167.791311858623
20
-8.49831280212621
30
0
41
1
10
167.818048430367
20
-8.50019407192463
30
0
41
1
10
167.831416716239
20
-8.50024738690678
30
0
41
1
10
167.871521573856
20
-8.49775277183286
30
0
41
1
10
167.8982581456
20
-8.49252047726245
30
0
41
1
10
167.978467860832
20
-8.46549467482353
30
0
41
1
10
168.03194100432
20
-8.43234810010878
30
0
41
1
10
168.138887291296
20
-8.33295948380714
30
0
41
1
10
168.192360434785
20
-8.26670743872941
30
0
41
1
10
168.299306721761
20
-8.09914520908421
30
0
41
1
10
168.352779865249
20
-7.99782652217655
30
0
41
1
10
168.406253008737
20
-7.87858625685882
30
0
0
SPLINE
5
F3
100
AcDbEntity
8
1
62
256
6
ByLayer
370
13
48
1
60
0
100
AcDbSpline
70
4
71
3
72
22
73
18
40
0
40
0
40
0
40
0
40
0.125
40
0.125
40
0.25
40
0.25
40
0.375
40
0.375
40
0.5
40
0.5
40
0.625
40
0.625
40
0.75
40
0.75
40
0.875
40
0.875
40
1
40
1
40
1
40
1
41
1
10
159.3
20
0.657637729374471
30
0
41
1
10
159.389741650065
20
1.14462918258855
30
0
41
1
10
159.479483300131
20
1.64416530449961
30
0
41
1
10
159.658966600261
20
2.64477102290769
30
0
41
1
10
159.748708250327
20
3.14572686346455
30
0
41
1
10
159.928191550457
20
4.12015476126714
30
0
41
1
10
160.017933200523
20
4.59344818528294
30
0
41
1
10
160.197416500654
20
5.48262959872957
30
0
41
1
10
160.287158150719
20
5.89833122408166
30
0
41
1
10
160.466641450849
20
6.64723243112849
30
0
41
1
10
160.556383100915
20
6.98031037342119
30
0
41
1
10
160.735866401045
20
7.54858455084351
30
0
41
1
10
160.825608051111
20
7.78376704936238
30
0
41
1
10
161.005091351241
20
8.15273742589463
30
0
41
1
10
161.094833001307
20
8.28660864855988
30
0
41
1
10
161.274316301437
20
8.4601745101713
30
0
41
1
10
161.364057951503
20
8.5
30
0
41
1
10
161.453799601568
20
8.5
30
0
0
SPLINE
5
F4
100
AcDbEntity
8
1
62
256
6
ByLayer
370
13
48
1
60
0
100
AcDbSpline
70
4
71
3
72
78
73
74
40
0
40
0
40
0
40
0
40
0.0312500000000007
40
0.0312500000000007
40
0.0625000000000014
40
0.0625000000000014
40
0.0937500000000022
40
0.0937500000000022
40
0.125000000000003
40
0.125000000000003
40
0.156250000000004
40
0.156250000000004
40
0.187500000000004
40
0.187500000000004
40
0.218750000000005
40
0.218750000000005
40
0.250000000000006
40
0.250000000000006
40
0.281250000000006
40
0.281250000000006
40
0.312500000000007
40
0.312500000000007
40
0.343750000000008
40
0.343750000000008
40
0.375000000000008
40
0.375000000000008
40
0.390625000000008
40
0.390625000000008
40
0.398437500000008
40
0.398437500000008
40
0.406250000000008
40
0.406250000000008
40
0.437500000000008
40
0.437500000000008
40
0.468750000000008
40
0.468750000000008
40
0.500000000000008
40
0.500000000000008
40
0.531250000000007
40
0.531250000000007
40
0.562500000000007
40
0.562500000000007
40
0.593750000000007
40
0.593750000000007
40
0.625000000000006
40
0.625000000000006
40
0.656250000000006
40
0.656250000000006
40
0.687500000000006
40
0.687500000000006
40
0.718750000000006
40
0.718750000000006
40
0.750000000000005
40
0.750000000000005
40
0.781250000000005
40
0.781250000000005
40
0.796875000000005
40
0.796875000000005
40
0.804687500000005
40
0.804687500000005
40
0.812500000000005
40
0.812500000000005
40
0.843750000000004
40
0.843750000000004
40
0.875000000000003
40
0.875000000000003
40
0.906250000000002
40
0.906250000000002
40
0.937500000000001
40
0.937500000000001
40
0.968750000000001
40
0.968750000000001
40
1
40
1
40
1
40
1
41
1
10
162.776227386554
20
8.5
30
0
41
1
10
162.834873486785
20
8.5
30
0
41
1
10
162.893519587016
20
8.48304539379473
30
0
41
1
10
163.010811787478
20
8.41099470103799
30
0
41
1
10
163.069457887709
20
8.35588245897046
30
0
41
1
10
163.186750088171
20
8.20431712563772
30
0
41
1
10
163.245396188402
20
8.10784925440811
30
0
41
1
10
163.362688388864
20
7.87191068290667
30
0
41
1
10
163.421334489095
20
7.73242951951099
30
0
41
1
10
163.538626689558
20
7.41073006944137
30
0
41
1
10
163.597272789789
20
7.22850835644834
30
0
41
1
10
163.714564990251
20
6.82373947753436
30
0
41
1
10
163.773211090482
20
6.60119754362313
30
0
41
1
10
163.890503290944
20
6.12032359269622
30
0
41
1
10
163.949149391175
20
5.86200530267558
30
0
41
1
10
164.066441591637
20
5.31595074942061
30
0
41
1
10
164.125087691868
20
5.02823461402218
30
0
41
1
10
164.242379892331
20
4.43107551519375
30
0
41
1
10
164.301025992562
20
4.12165558366144
30
0
41
1
10
164.418318193024
20
3.48943715087256
30
0
41
1
10
164.476964293255
20
3.16666069367875
30
0
41
1
10
164.594256493717
20
2.51604345213616
30
0
41
1
10
164.652902593948
20
2.18822049750076
30
0
41
1
10
164.77019479441
20
1.53518086608449
30
0
41
1
10
164.828840894641
20
1.20997594365002
30
0
41
1
10
164.916810044988
20
0.729056320317255
30
0
41
1
10
164.946133095104
20
0.569888130064697
30
0
41
1
10
164.990117670277
20
0.333365282041399
30
0
41
1
10
165.004779195334
20
0.254895232009005
30
0
41
1
10
165.03410224545
20
0.098775721505632
30
0
41
1
10
165.048763770508
20
0.0213962688512765
30
0
41
1
10
165.122071395797
20
-0.366734726312188
30
0
41
1
10
165.180717496028
20
-0.684167119022106
30
0
41
1
10
165.29800969649
20
-1.32750105215351
30
0
41
1
10
165.356655796721
20
-1.65339650749741
30
0
41
1
10
165.473947997183
20
-2.30694238711044
30
0
41
1
10
165.532594097414
20
-2.63458027567029
30
0
41
1
10
165.649886297876
20
-3.28384691069331
30
0
41
1
10
165.708532398108
20
-3.60545718833217
30
0
41
1
10
165.82582459857
20
-4.23432311044951
30
0
41
1
10
165.884470698801
20
-4.54155639822517
30
0
41
1
10
166.001762899263
20
-5.13336333113048
30
0
41
1
10
166.060408999494
20
-5.41791408588469
30
0
41
1
10
166.177701199956
20
-5.95678419588239
30
0
41
1
10
166.236347300187
20
-6.21108403092717
30
0
41
1
10
166.35363950065
20
-6.68326518646609
30
0
41
1
10
166.41228560088
20
-6.90113373163646
30
0
41
1
10
166.529577801343
20
-7.29614635912361
30
0
41
1
10
166.588223901574
20
-7.4732862869167
30
0
41
1
10
166.705516102036
20
-7.78467637525918
30
0
41
1
10
166.764162202267
20
-7.91893092869782
30
0
41
1
10
166.881454402729
20
-8.14451988574359
30
0
41
1
10
166.94010050296
20
-8.23586543139069
30
0
41
1
10
167.057392703422
20
-8.37749954621464
30
0
41
1
10
167.116038803654
20
-8.42780321358472
30
0
41
1
10
167.204007954
20
-8.47497978520929
30
0
41
1
10
167.233331004116
20
-8.48600229473851
30
0
41
1
10
167.277315579289
20
-8.4958688185458
30
0
41
1
10
167.291977104347
20
-8.49804689666311
30
0
41
1
10
167.321300154462
20
-8.50025076710853
30
0
41
1
10
167.33596167952
20
-8.50028524613623
30
0
41
1
10
167.409269304809
20
-8.49512911307795
30
0
41
1
10
167.46791540504
20
-8.4737715785021
30
0
41
1
10
167.585207605502
20
-8.3924620403258
30
0
41
1
10
167.643853705733
20
-8.33249390277197
30
0
41
1
10
167.761145906195
20
-8.17092527736659
30
0
41
1
10
167.819792006426
20
-8.06931037165762
30
0
41
1
10
167.937084206889
20
-7.82300114973279
30
0
41
1
10
167.99573030712
20
-7.67829709017303
30
0
41
1
10
168.113022507582
20
-7.34632736436907
30
0
41
1
10
168.171668607813
20
-7.15905926295963
30
0
41
1
10
168.288960808275
20
-6.74463629060392
30
0
41
1
10
168.347606908506
20
-6.51748772696607
30
0
41
1
10
168.406253008737
20
-6.27278467731941
30
0
0
SPLINE
5
F5
100
AcDbEntity
8
1
62
256
6
ByLayer
370
13
48
1
60
0
100
AcDbSpline
70
4
71
3
72
22
73
18
40
0
40
0
40
0
40
0
40
0.125
40
0.125
40
0.25
40
0.25
40
0.375
40
0.375
40
0.5
40
0.5
40
0.625
40
0.625
40
0.75
40
0.75
40
0.875
40
0.875
40
1
40
1
40
1
40
1
41
1
10
159.3
20
3.40480711032066
30
0
41
1
10
159.369049823094
20
3.78272101036654
30
0
41
1
10
159.438099646187
20
4.15380398816097
30
0
41
1
10
159.576199292375
20
4.86866504119271
30
0
41
1
10
159.645249115468
20
5.21239091969281
30
0
41
1
10
159.783348761656
20
5.85972095530042
30
0
41
1
10
159.852398584749
20
6.16327903768217
30
0
41
1
10
159.990498230937
20
6.71989733713491
30
0
41
1
10
160.05954805403
20
6.97292858600969
30
0
41
1
10
160.197647700218
20
7.42172286888481
30
0
41
1
10
160.266697523311
20
7.61747989637078
30
0
41
1
10
160.404797169499
20
7.9491020886156
30
0
41
1
10
160.473846992592
20
8.0849830116355
30
0
41
1
10
160.61194663878
20
8.29821855980919
30
0
41
1
10
160.680996461873
20
8.37560381220652
30
0
41
1
10
160.819096108061
20
8.47647635966246
30
0
41
1
10
160.888145931154
20
8.5
30
0
41
1
10
160.957195754248
20
8.5
30
0
0
SPLINE
5
F6
100
AcDbEntity
8
1
62
256
6
ByLayer
370
13
48
1
60
0
100
AcDbSpline
70
4
71
3
72
78
73
74
40
0
40
0
40
0
40
0
40
0.03125
40
0.03125
40
0.0625000000000001
40
0.0625000000000001
40
0.0937500000000001
40
0.0937500000000001
40
0.125
40
0.125
40
0.15625
40
0.15625
40
0.1875
40
0.1875
40
0.21875
40
0.21875
40
0.25
40
0.25
40
0.28125
40
0.28125
40
0.3125
40
0.3125
40
0.34375
40
0.34375
40
0.359375
40
0.359375
40
0.3671875
40
0.3671875
40
0.375
40
0.375
40
0.40625
40
0.40625
40
0.4375
40
0.4375
40
0.46875
40
0.46875
40
0.5
40
0.5
40
0.53125
40
0.53125
40
0.5625
40
0.5625
40
0.59375
40
0.59375
40
0.625
40
0.625
40
0.65625
40
0.65625
40
0.6875
40
0.6875
40
0.71875
40
0.71875
40
0.734375
40
0.734375
40
0.7421875
40
0.7421875
40
0.75
40
0.75
40
0.78125
40
0.78125
40
0.8125
40
0.8125
40
0.84375
40
0.84375
40
0.875
40
0.875
40
0.90625
40
0.90625
40
0.9375
40
0.9375
40
0.96875
40
0.96875
40
1
40
1
40
1
40
1
41
1
10
162.279623539233
20
8.5
30
0
41
1
10
162.343442596207
20
8.5
30
0
41
1
10
162.407261653182
20
8.47991443725317
30
0
41
1
10
162.534899767129
20
8.39416853731078
30
0
41
1
10
162.598718824104
20
8.3284835991881
30
0
41
1
10
162.726356938052
20
8.14763947909231
30
0
41
1
10
162.790175995025
20
8.03245861230195
30
0
41
1
10
162.917814108973
20
7.75098661727904
30
0
41
1
10
162.981633165948
20
7.58468203968636
30
0
41
1
10
163.109271279896
20
7.20213785998925
30
0
41
1
10
163.173090336869
20
6.98589754753871
30
0
41
1
10
163.300728450818
20
6.50769653633731
30
0
41
1
10
163.364547507791
20
6.24574973667362
30
0
41
1
10
163.49218562174
20
5.68319587506312
30
0
41
1
10
163.556004678713
20
5.38261545378953
30
0
41
1
10
163.683642792661
20
4.75208082823053
30
0
41
1
10
163.747461849635
20
4.4221607289621
30
0
41
1
10
163.875099963583
20
3.74352523909312
30
0
41
1
10
163.938919020557
20
3.394844467528
30
0
41
1
10
164.066557134505
20
2.68949977198221
30
0
41
1
10
164.130376191479
20
2.33286466251741
30
0
41
1
10
164.258014305427
20
1.62168262438482
30
0
41
1
10
164.321833362401
20
1.26715478974143
30
0
41
1
10
164.417561947862
20
0.743378732700961
30
0
41
1
10
164.449471476349
20
0.570109421614518
30
0
41
1
10
164.49733576908
20
0.312863341259458
30
0
41
1
10
164.513290533323
20
0.227556685003236
30
0
41
1
10
164.54520006181
20
0.0579282573328044
30
0
41
1
10
164.561154826054
20
-0.0260813369696393
30
0
41
1
10
164.640928647271
20
-0.449529771957828
30
0
41
1
10
164.704747704245
20
-0.796340817246488
30
0
41
1
10
164.832385818193
20
-1.49894411817226
30
0
41
1
10
164.896204875167
20
-1.85472566842043
30
0
41
1
10
165.023842989115
20
-2.56632354725829
30
0
41
1
10
165.087662046089
20
-2.92211847598856
30
0
41
1
10
165.215300160037
20
-3.62345544922363
30
0
41
1
10
165.279119217011
20
-3.96896697491206
30
0
41
1
10
165.406757330959
20
-4.63889614256416
30
0
41
1
10
165.470576387933
20
-4.96327868217585
30
0
41
1
10
165.598214501881
20
-5.58056025014918
30
0
41
1
10
165.662033558855
20
-5.87342623405985
30
0
41
1
10
165.789671672804
20
-6.4187857080006
30
0
41
1
10
165.853490729777
20
-6.67125499093783
30
0
41
1
10
165.981128843725
20
-7.12931682327698
30
0
41
1
10
166.044947900699
20
-7.33489864287421
30
0
41
1
10
166.172586014647
20
-7.69560513098989
30
0
41
1
10
166.236405071621
20
-7.85073357019664
30
0
41
1
10
166.364043185569
20
-8.10998134573424
30
0
41
1
10
166.427862242543
20
-8.21411637365489
30
0
41
1
10
166.555500356491
20
-8.37354894298522
30
0
41
1
10
166.619319413465
20
-8.42886925377712
30
0
41
1
10
166.715047998926
20
-8.47844524621252
30
0
41
1
10
166.746957527413
20
-8.48941751163616
30
0
41
1
10
166.794821820144
20
-8.49805066865682
30
0
41
1
10
166.810776584387
20
-8.49962478739766
30
0
41
1
10
166.842686112874
20
-8.50025620753064
30
0
41
1
10
166.858640877118
20
-8.49932241102999
30
0
41
1
10
166.938414698335
20
-8.48819780607747
30
0
41
1
10
167.002233755309
20
-8.4585690534696
30
0
41
1
10
167.129871869257
20
-8.35272620688713
30
0
41
1
10
167.193690926231
20
-8.27648771647017
30
0
41
1
10
167.321329040179
20
-8.07396294550276
30
0
41
1
10
167.385148097153
20
-7.94765632523422
30
0
41
1
10
167.512786211101
20
-7.64393581348799
30
0
41
1
10
167.576605268075
20
-7.46651093740789
30
0
41
1
10
167.704243382023
20
-7.06238759084562
30
0
41
1
10
167.768062438997
20
-6.83569156431324
30
0
41
1
10
167.895700552945
20
-6.33789453342234
30
0
41
1
10
167.959519609919
20
-6.06681050695377
30
0
41
1
10
168.087157723867
20
-5.48785042906877
30
0
41
1
10
168.150976780841
20
-5.18000319275868
30
0
41
1
10
168.278614894789
20
-4.53717295234975
30
0
41
1
10
168.342433951763
20
-4.2022247724623
30
0
41
1
10
168.406253008737
20
-3.85906875368971
30
0
0
SPLINE
5
F7
100
AcDbEntity
8
1
62
256
6
ByLayer
370
13
48
1
60
0
100
AcDbSpline
70
4
71
3
72
20
73
16
40
0
40
0
40
0
40
0
40
0.125
40
0.125
40
0.25
40
0.25
40
0.375
40
0.375
40
0.5
40
0.5
40
0.625
40
0.625
40
0.75
40
0.75
40
1
40
1
40
1
40
1
41
1
10
159.3
20
5.91202996810031
30
0
41
1
10
159.348357996122
20
6.12695473116034
30
0
41
1
10
159.396715992244
20
6.330955712264
30
0
41
1
10
159.493431984488
20
6.71384725762033
30
0
41
1
10
159.54178998061
20
6.89273327236668
30
0
41
1
10
159.638505972854
20
7.22300705294242
30
0
41
1
10
159.686863968976
20
7.3743930026846
30
0
41
1
10
159.78357996122
20
7.64826433394947
30
0
41
1
10
159.831937957342
20
7.77075064619757
30
0
41
1
10
159.928653949586
20
7.98641882160035
30
0
41
1
10
159.977011945708
20
8.07960398398592
30
0
41
1
10
160.073727937952
20
8.23719916356677
30
0
41
1
10
160.122085934074
20
8.30161419507431
30
0
41
1
10
160.26715992244
20
8.45369914061223
30
0
41
1
10
160.363875914684
20
8.5
30
0
41
1
10
160.460591906928
20
8.5
30
0
0
SPLINE
5
F8
100
AcDbEntity
8
1
62
256
6
ByLayer
370
13
48
1
60
0
100
AcDbSpline
70
4
71
3
72
70
73
66
40
0
40
0
40
0
40
0
40
0.03125
40
0.03125
40
0.0625
40
0.0625
40
0.09375
40
0.09375
40
0.125
40
0.125
40
0.15625
40
0.15625
40
0.1875
40
0.1875
40
0.21875
40
0.21875
40
0.25
40
0.25
40
0.28125
40
0.28125
40
0.3125
40
0.3125
40
0.34375
40
0.34375
40
0.375
40
0.375
40
0.40625
40
0.40625
40
0.4375
40
0.4375
40
0.46875
40
0.46875
40
0.5
40
0.5
40
0.53125
40
0.53125
40
0.5625
40
0.5625
40
0.59375
40
0.59375
40
0.625
40
0.625
40
0.65625
40
0.65625
40
0.6875
40
0.6875
40
0.71875
40
0.71875
40
0.75
40
0.75
40
0.78125
40
0.78125
40
0.8125
40
0.8125
40
0.84375
40
0.84375
40
0.875
40
0.875
40
0.90625
40
0.90625
40
0.9375
40
0.9375
40
0.96875
40
0.96875
40
1
40
1
40
1
40
1
41
1
10
161.783019691913
20
8.5
30
0
41
1
10
161.85201170563
20
8.5
30
0
41
1
10
161.921003719347
20
8.47651585520046
30
0
41
1
10
162.058987746781
20
8.37581755908082
30
0
41
1
10
162.127979760498
20
8.29856721263567
30
0
41
1
10
162.265963787932
20
8.08570500989993
30
0
41
1
10
162.334955801649
20
7.95006263636162
30
0
41
1
10
162.472939829082
20
7.61901696593142
30
0
41
1
10
162.541931842799
20
7.42359792852332
30
0
41
1
10
162.679915870233
20
6.97556044500777
30
0
41
1
10
162.74890788395
20
6.72294790174976
30
0
41
1
10
162.886891911384
20
6.16721594900449
30
0
41
1
10
162.955883925101
20
5.86412529887343
30
0
41
1
10
163.093867952535
20
5.21773869982761
30
0
41
1
10
163.162859966252
20
4.87448857304824
30
0
41
1
10
163.300843993685
20
4.16054594600578
30
0
41
1
10
163.369836007403
20
3.78990542538813
30
0
41
1
10
163.507820034836
20
3.03489387660403
30
0
41
1
10
163.576812048553
20
2.6505692262904
30
0
41
1
10
163.714796075987
20
1.88133066832592
30
0
41
1
10
163.783788089704
20
1.49644913270862
30
0
41
1
10
163.921772117138
20
0.737458156370337
30
0
41
1
10
163.990764130855
20
0.363396514219545
30
0
41
1
10
164.128748158288
20
-0.365225637386231
30
0
41
1
10
164.197740172005
20
-0.739345905839201
30
0
41
1
10
164.335724199439
20
-1.49837227832342
30
0
41
1
10
164.404716213156
20
-1.88326298571707
30
0
41
1
10
164.54270024059
20
-2.65249916107274
30
0
41
1
10
164.611692254307
20
-3.03681222949757
30
0
41
1
10
164.749676281741
20
-3.79177778301076
30
0
41
1
10
164.818668295458
20
-4.16238387247253
30
0
41
1
10
164.956652322892
20
-4.87623504064166
30
0
41
1
10
165.025644336608
20
-5.21942813975977
30
0
41
1
10
165.163628364042
20
-5.86568095571582
30
0
41
1
10
165.232620377759
20
-6.16869487077039
30
0
41
1
10
165.370604405193
20
-6.72425882432472
30
0
41
1
10
165.43959641891
20
-6.976780138755
30
0
41
1
10
165.577580446344
20
-7.42462730155529
30
0
41
1
10
165.646572460061
20
-7.61994728624748
30
0
41
1
10
165.784556487495
20
-7.95079395862385
30
0
41
1
10
165.853548501211
20
-8.08633641844801
30
0
41
1
10
165.991532528645
20
-8.29900407225884
30
0
41
1
10
166.060524542362
20
-8.37615980068938
30
0
41
1
10
166.198508569796
20
-8.47667875789512
30
0
41
1
10
166.267500583513
20
-8.5000782048765
30
0
41
1
10
166.405484610947
20
-8.49992140149519
30
0
41
1
10
166.474476624664
20
-8.47635251855689
30
0
41
1
10
166.612460652097
20
-8.37547485089925
30
0
41
1
10
166.681452665814
20
-8.29812987323206
30
0
41
1
10
166.819436693248
20
-8.08507310428112
30
0
41
1
10
166.888428706965
20
-7.94933081297216
30
0
41
1
10
167.026412734399
20
-7.61808614760412
30
0
41
1
10
167.095404748116
20
-7.42256806467267
30
0
41
1
10
167.23338877555
20
-6.97434028656642
30
0
41
1
10
167.302380789267
20
-6.72163653341639
30
0
41
1
10
167.440364816701
20
-6.16573662961324
30
0
41
1
10
167.509356830417
20
-5.86256927358633
30
0
41
1
10
167.647340857851
20
-5.21604895679471
30
0
41
1
10
167.716332871568
20
-4.87274183848584
30
0
41
1
10
167.854316899002
20
-4.15870782749164
30
0
41
1
10
167.923308912719
20
-3.78803291447403
30
0
41
1
10
168.061292940153
20
-3.03297544625539
30
0
41
1
10
168.13028495387
20
-2.64863925110925
30
0
41
1
10
168.268268981303
20
-1.87939837954406
30
0
41
1
10
168.33726099502
20
-1.49452604764656
30
0
41
1
10
168.406253008737
20
-1.11504828592888
30
0
0
SPLINE
5
F9
100
AcDbEntity
8
1
62
256
6
ByLayer
370
13
48
1
60
0
100
AcDbSpline
70
4
71
3
72
14
73
10
40
0
40
0
40
0
40
0
40
0.25
40
0.25
40
0.5
40
0.5
40
0.75
40
0.75
40
1
40
1
40
1
40
1
41
1
10
159.3
20
7.6773758838055
30
0
41
1
10
159.355332338301
20
7.82003202484421
30
0
41
1
10
159.410664676601
20
7.94356596509058
30
0
41
1
10
159.521329353203
20
8.15248777522908
30
0
41
1
10
159.576661691503
20
8.23788418219291
30
0
41
1
10
159.687326368104
20
8.37212409626778
30
0
41
1
10
159.742658706405
20
8.42097888870484
30
0
41
1
10
159.853323383007
20
8.48491079736351
30
0
41
1
10
159.908655721307
20
8.5
30
0
41
1
10
159.963988059608
20
8.5
30
0
0
SPLINE
5
FA
100
AcDbEntity
8
1
62
256
6
ByLayer
370
13
48
1
60
0
100
AcDbSpline
70
4
71
3
72
85
73
81
40
0
40
0
40
0
40
0
40
0.0312499999999997
40
0.0312499999999997
40
0.0624999999999994
40
0.0624999999999994
40
0.093749999999999
40
0.093749999999999
40
0.124999999999999
40
0.124999999999999
40
0.156249999999998
40
0.156249999999998
40
0.187499999999998
40
0.187499999999998
40
0.218749999999998
40
0.218749999999998
40
0.249999999999998
40
0.249999999999998
40
0.281249999999997
40
0.281249999999997
40
0.312499999999997
40
0.312499999999997
40
0.320312499999997
40
0.320312499999997
40
0.328124999999997
40
0.328124999999997
40
0.343749999999997
40
0.343749999999997
40
0.374999999999998
40
0.374999999999998
40
0.406249999999999
40
0.406249999999999
40
0.4375
40
0.4375
40
0.468750000000001
40
0.468750000000001
40
0.500000000000001
40
0.500000000000001
40
0.531250000000002
40
0.531250000000002
40
0.562500000000003
40
0.562500000000003
40
0.593750000000004
40
0.593750000000004
40
0.625000000000005
40
0.625000000000005
40
0.632812500000005
40
0.636718750000005
40
0.636718750000005
40
0.640625000000005
40
0.640625000000005
40
0.656250000000004
40
0.656250000000004
40
0.687500000000004
40
0.687500000000004
40
0.718750000000003
40
0.718750000000003
40
0.750000000000002
40
0.750000000000002
40
0.781250000000002
40
0.781250000000002
40
0.812500000000001
40
0.812500000000001
40
0.84375
40
0.84375
40
0.875
40
0.875
40
0.906249999999999
40
0.906249999999999
40
0.937499999999998
40
0.937499999999998
40
0.953124999999998
40
0.953124999999998
40
0.957031249999998
40
0.957031249999998
40
0.960937499999998
40
0.960937499999998
40
0.968749999999998
40
0.968749999999998
40
1
40
1
40
1
40
1
41
1
10
161.286415844593
20
8.5
30
0
41
1
10
161.360580815053
20
8.5
30
0
41
1
10
161.434745785513
20
8.47284876905098
30
0
41
1
10
161.583075726432
20
8.35592771115412
30
0
41
1
10
161.657240696892
20
8.26610618693667
30
0
41
1
10
161.805570637812
20
8.01847357303416
30
0
41
1
10
161.879735608272
20
7.86062114018085
30
0
41
1
10
162.028065549192
20
7.47604986539301
30
0
41
1
10
162.102230519651
20
7.2493148453336
30
0
41
1
10
162.250560460571
20
6.7315142555083
30
0
41
1
10
162.324725431031
20
6.44046726742366
30
0
41
1
10
162.47305537195
20
5.80398372187554
30
0
41
1
10
162.54722034241
20
5.45859901724768
30
0
41
1
10
162.69555028333
20
4.72771138562251
30
0
41
1
10
162.76971525379
20
4.34228025150199
30
0
41
1
10
162.918045194709
20
3.54798546729961
30
0
41
1
10
162.992210165169
20
3.13919401309295
30
0
41
1
10
163.140540106089
20
2.31504133897519
30
0
41
1
10
163.214705076549
20
1.89973554834475
30
0
41
1
10
163.363035017468
20
1.07761906083007
30
0
41
1
10
163.437199987928
20
0.670838365390807
30
0
41
1
10
163.529906201003
20
0.1751476535199
30
0
41
1
10
163.548447443618
20
0.076820446299962
30
0
41
1
10
163.585529928848
20
-0.119185476721412
30
0
41
1
10
163.604071171463
20
-0.217884395508008
30
0
41
1
10
163.659694899308
20
-0.515838970367497
30
0
41
1
10
163.696777384538
20
-0.716959355565791
30
0
41
1
10
163.808024840228
20
-1.32567966612422
30
0
41
1
10
163.882189810687
20
-1.73873310512064
30
0
41
1
10
164.030519751607
20
-2.56566906772082
30
0
41
1
10
164.104684722067
20
-2.97950749187532
30
0
41
1
10
164.253014662987
20
-3.79181759565074
30
0
41
1
10
164.327179633446
20
-4.1902231537764
30
0
41
1
10
164.475509574366
20
-4.9546415385891
30
0
41
1
10
164.549674544826
20
-5.3205799038293
30
0
41
1
10
164.698004485746
20
-6.00437819957486
30
0
41
1
10
164.772169456205
20
-6.32217480001049
30
0
41
1
10
164.920499397125
20
-6.89748860223537
30
0
41
1
10
164.994664367585
20
-7.15497082064888
30
0
41
1
10
165.142994308505
20
-7.60247448022599
30
0
41
1
10
165.217159278964
20
-7.79249658887719
30
0
41
1
10
165.365489219884
20
-8.10344943473115
30
0
41
1
10
165.439654190344
20
-8.22441153348788
30
0
41
1
10
165.587984131264
20
-8.40065431648716
30
0
41
1
10
165.662149101723
20
-8.45598377821796
30
0
41
1
10
165.754855314798
20
-8.48858994670866
30
0
41
1
10
165.782667178721
20
-8.49564071212154
30
0
41
1
10
165.810479042643
20
-8.49874780028793
30
0
41
1
10
165.829020285258
20
-8.4999606918837
30
0
41
1
10
165.838290906566
20
-8.50013892138625
30
0
41
1
10
165.884644013103
20
-8.49891588965505
30
0
41
1
10
165.921726498333
20
-8.49112507369526
30
0
41
1
10
166.032973954023
20
-8.44566638866894
30
0
41
1
10
166.107138924482
20
-8.38581023586474
30
0
41
1
10
166.255468865402
20
-8.20012241443129
30
0
41
1
10
166.329633835862
20
-8.07424270935871
30
0
41
1
10
166.477963776782
20
-7.75338855622965
30
0
41
1
10
166.552128747242
20
-7.55838457639766
30
0
41
1
10
166.700458688161
20
-7.10124410654325
30
0
41
1
10
166.774623658621
20
-6.83910948967116
30
0
41
1
10
166.922953599541
20
-6.25521076877837
30
0
41
1
10
166.99711857
20
-5.93348408427639
30
0
41
1
10
167.14544851092
20
-5.24286027091759
30
0
41
1
10
167.21961348138
20
-4.87402792913318
30
0
41
1
10
167.3679434223
20
-4.10503126066374
30
0
41
1
10
167.442108392759
20
-3.70494141642442
30
0
41
1
10
167.590438333679
20
-2.89048432087907
30
0
41
1
10
167.664603304139
20
-2.47618195502869
30
0
41
1
10
167.812933245059
20
-1.64940798491324
30
0
41
1
10
167.887098215518
20
-1.23697861767943
30
0
41
1
10
167.998345671208
20
-0.629842197676254
30
0
41
1
10
168.035428156438
20
-0.429357191812812
30
0
41
1
10
168.081781262976
20
-0.181970190001664
30
0
41
1
10
168.091051884283
20
-0.132653206559354
30
0
41
1
10
168.109593126898
20
-0.0343591769178886
30
0
41
1
10
168.118863748206
20
0.0145114512574196
30
0
41
1
10
168.146675612128
20
0.16181435214412
30
0
41
1
10
168.165216854743
20
0.260701624777994
30
0
41
1
10
168.257923067818
20
0.758176155552349
30
0
41
1
10
168.332088038278
20
1.16601243416457
30
0
41
1
10
168.406253008737
20
1.57763159400651
30
0
0
SPLINE
5
FB
100
AcDbEntity
8
1
62
256
6
ByLayer
370
13
48
1
60
0
100
AcDbSpline
70
4
71
3
72
8
73
4
40
0
40
0
40
0
40
0
40
1
40
1
40
1
40
1
41
1
10
159.3
20
8.45213991669831
30
0
41
1
10
159.355794737429
20
8.48465706750838
30
0
41
1
10
159.411589474858
20
8.5
30
0
41
1
10
159.467384212288
20
8.5
30
0
0
SPLINE
5
FC
100
AcDbEntity
8
1
62
256
6
ByLayer
370
13
48
1
60
0
100
AcDbSpline
70
4
71
3
72
85
73
81
40
0
40
0
40
0
40
0
40
0.0312499999999998
40
0.0312499999999998
40
0.0624999999999995
40
0.0624999999999995
40
0.0937499999999993
40
0.0937499999999993
40
0.124999999999999
40
0.124999999999999
40
0.156249999999999
40
0.156249999999999
40
0.187499999999999
40
0.187499999999999
40
0.218749999999998
40
0.218749999999998
40
0.249999999999998
40
0.249999999999998
40
0.281249999999998
40
0.281249999999998
40
0.296874999999998
40
0.296874999999998
40
0.300781249999998
40
0.300781249999998
40
0.304687499999998
40
0.312499999999997
40
0.312499999999997
40
0.343749999999996
40
0.343749999999996
40
0.374999999999996
40
0.374999999999996
40
0.406249999999995
40
0.406249999999995
40
0.437499999999994
40
0.437499999999994
40
0.468749999999993
40
0.468749999999993
40
0.499999999999992
40
0.499999999999992
40
0.531249999999991
40
0.531249999999991
40
0.56249999999999
40
0.56249999999999
40
0.593749999999989
40
0.593749999999989
40
0.601562499999989
40
0.601562499999989
40
0.609374999999989
40
0.609374999999989
40
0.624999999999989
40
0.624999999999989
40
0.656249999999989
40
0.656249999999989
40
0.68749999999999
40
0.68749999999999
40
0.71874999999999
40
0.71874999999999
40
0.74999999999999
40
0.74999999999999
40
0.78124999999999
40
0.78124999999999
40
0.81249999999999
40
0.81249999999999
40
0.843749999999991
40
0.843749999999991
40
0.874999999999991
40
0.874999999999991
40
0.890624999999991
40
0.890624999999991
40
0.894531249999991
40
0.894531249999991
40
0.898437499999991
40
0.898437499999991
40
0.906249999999992
40
0.906249999999992
40
0.937499999999995
40
0.937499999999995
40
0.968749999999997
40
0.968749999999997
40
1
40
1
40
1
40
1
41
1
10
160.789811997273
20
8.5
30
0
41
1
10
160.869149924476
20
8.5
30
0
41
1
10
160.948487851679
20
8.46891219585027
30
0
41
1
10
161.107163706084
20
8.33448546085347
30
0
41
1
10
161.186501633287
20
8.23107457951605
30
0
41
1
10
161.345177487692
20
7.94591368464606
30
0
41
1
10
161.424515414895
20
7.76410963033402
30
0
41
1
10
161.5831912693
20
7.32217865503313
30
0
41
1
10
161.662529196503
20
7.06203865173367
30
0
41
1
10
161.821205050909
20
6.47064773229849
30
0
41
1
10
161.900542978112
20
6.13943678473467
30
0
41
1
10
162.059218832517
20
5.41993814670334
30
0
41
1
10
162.13855675972
20
5.03173547986958
30
0
41
1
10
162.297232614125
20
4.21718293158469
30
0
41
1
10
162.376570541328
20
3.7909370740422
30
0
41
1
10
162.535246395734
20
2.92117421753181
30
0
41
1
10
162.614584322936
20
2.47774914367778
30
0
41
1
10
162.773260177342
20
1.5933940050229
30
0
41
1
10
162.852598104545
20
1.15252228189581
30
0
41
1
10
162.971604995349
20
0.505335776314894
30
0
41
1
10
163.01127395895
20
0.291928313733649
30
0
41
1
10
163.060860163452
20
0.029076318632093
30
0
41
1
10
163.070777404352
20
-0.0231921635045467
30
0
41
1
10
163.090611886153
20
-0.128303812048245
30
0
41
1
10
163.120363608854
20
-0.286556217127696
30
0
41
1
10
163.150115331555
20
-0.446460280362118
30
0
41
1
10
163.249287740558
20
-0.982642490805006
30
0
41
1
10
163.328625667761
20
-1.42189835051738
30
0
41
1
10
163.487301522167
20
-2.30536030737559
30
0
41
1
10
163.566639449369
20
-2.74951314347445
30
0
41
1
10
163.725315303775
20
-3.62340987496404
30
0
41
1
10
163.804653230978
20
-4.05306531387663
30
0
41
1
10
163.963329085383
20
-4.87710253516437
30
0
41
1
10
164.042667012586
20
-5.27138018571506
30
0
41
1
10
164.201342866991
20
-6.00527163258033
30
0
41
1
10
164.280680794194
20
-6.34479620334415
30
0
41
1
10
164.4393566486
20
-6.954289350484
30
0
41
1
10
164.518694575802
20
-7.22421120340078
30
0
41
1
10
164.677370430208
20
-7.68623992670575
30
0
41
1
10
164.756708357411
20
-7.87835331108391
30
0
41
1
10
164.915384211816
20
-8.18376365878714
30
0
41
1
10
164.994722139019
20
-8.29711054780185
30
0
41
1
10
165.153397993424
20
-8.45034232740304
30
0
41
1
10
165.232735920627
20
-8.49029820638901
30
0
41
1
10
165.331908329631
20
-8.50045707245962
30
0
41
1
10
165.351742811431
20
-8.50052866782244
30
0
41
1
10
165.391411775033
20
-8.49676132458109
30
0
41
1
10
165.411246256833
20
-8.49289929947375
30
0
41
1
10
165.470749702236
20
-8.47512432408382
30
0
41
1
10
165.510418665837
20
-8.45501580708867
30
0
41
1
10
165.629425556641
20
-8.36808939192014
30
0
41
1
10
165.708763483844
20
-8.27450957341
30
0
41
1
10
165.867439338249
20
-8.00949213726406
30
0
41
1
10
165.946777265452
20
-7.83799676980499
30
0
41
1
10
166.105453119857
20
-7.41628537219944
30
0
41
1
10
166.18479104706
20
-7.1660499091476
30
0
41
1
10
166.343466901466
20
-6.59312358638527
30
0
41
1
10
166.422804828668
20
-6.27046580312168
30
0
41
1
10
166.581480683074
20
-5.56592286130899
30
0
41
1
10
166.660818610277
20
-5.18411806636644
30
0
41
1
10
166.819494464682
20
-4.37972883114548
30
0
41
1
10
166.898832391885
20
-3.95724776164576
30
0
41
1
10
167.057508246291
20
-3.09230943061067
30
0
41
1
10
167.136846173493
20
-2.64994719210321
30
0
41
1
10
167.295522027899
20
-1.76530960968157
30
0
41
1
10
167.374859955102
20
-1.32309760591915
30
0
41
1
10
167.493866845906
20
-0.672497356048353
30
0
41
1
10
167.533535809507
20
-0.457719451523559
30
0
41
1
10
167.583122014009
20
-0.192911184199858
30
0
41
1
10
167.593039254909
20
-0.14013202316454
30
0
41
1
10
167.61287373671
20
-0.0349621395188251
30
0
41
1
10
167.62279097761
20
0.0173096776570105
30
0
41
1
10
167.652542700311
20
0.174933330571804
30
0
41
1
10
167.672377182112
20
0.280798341045426
30
0
41
1
10
167.771549591115
20
0.813558217048922
30
0
41
1
10
167.850887518318
20
1.25093220304188
30
0
41
1
10
168.009563372724
20
2.13290573680933
30
0
41
1
10
168.088901299926
20
2.57745715046835
30
0
41
1
10
168.247577154332
20
3.4548028395696
30
0
41
1
10
168.326915081535
20
3.88751246272469
30
0
41
1
10
168.406253008737
20
4.30393036384726
30
0
0
SPLINE
5
FD
100
AcDbEntity
8
1
62
256
6
ByLayer
370
13
48
1
60
0
100
AcDbSpline
70
4
71
3
72
85
73
81
40
0
40
0
40
0
40
0
40
0.0312499999999999
40
0.0312499999999999
40
0.0624999999999998
40
0.0624999999999998
40
0.0937499999999997
40
0.0937499999999997
40
0.125
40
0.125
40
0.156249999999999
40
0.156249999999999
40
0.187499999999999
40
0.187499999999999
40
0.218749999999999
40
0.218749999999999
40
0.249999999999999
40
0.249999999999999
40
0.265624999999999
40
0.265624999999999
40
0.273437499999999
40
0.277343749999999
40
0.277343749999999
40
0.281249999999999
40
0.281249999999999
40
0.312499999999998
40
0.312499999999998
40
0.343749999999998
40
0.343749999999998
40
0.374999999999997
40
0.374999999999997
40
0.406249999999997
40
0.406249999999997
40
0.437499999999996
40
0.437499999999996
40
0.468749999999995
40
0.468749999999995
40
0.499999999999995
40
0.499999999999995
40
0.531249999999994
40
0.531249999999994
40
0.546874999999994
40
0.546874999999994
40
0.554687499999994
40
0.558593749999994
40
0.558593749999994
40
0.562499999999993
40
0.562499999999993
40
0.593749999999993
40
0.593749999999993
40
0.624999999999992
40
0.624999999999992
40
0.656249999999992
40
0.656249999999992
40
0.687499999999991
40
0.687499999999991
40
0.718749999999991
40
0.718749999999991
40
0.74999999999999
40
0.74999999999999
40
0.78124999999999
40
0.78124999999999
40
0.812499999999989
40
0.812499999999989
40
0.828124999999989
40
0.828124999999989
40
0.835937499999989
40
0.839843749999989
40
0.839843749999989
40
0.843749999999989
40
0.843749999999989
40
0.874999999999991
40
0.874999999999991
40
0.906249999999993
40
0.906249999999993
40
0.937499999999996
40
0.937499999999996
40
0.968749999999998
40
0.968749999999998
40
1
40
1
40
1
40
1
41
1
10
160.293208149953
20
8.5
30
0
41
1
10
160.377719033899
20
8.5
30
0
41
1
10
160.462229917844
20
8.46470504319254
30
0
41
1
10
160.631251685735
20
8.31147781868023
30
0
41
1
10
160.715762569681
20
8.19344767795275
30
0
41
1
10
160.884784337573
20
7.86800287292306
30
0
41
1
10
160.969295221518
20
7.66051998139767
30
0
41
1
10
161.13831698941
20
7.15754263463617
30
0
41
1
10
161.222827873355
20
6.86204400530167
30
0
41
1
10
161.391849641247
20
6.19373661962393
30
0
41
1
10
161.476360525192
20
5.82100092438267
30
0
41
1
10
161.645382293084
20
5.01723613173934
30
0
41
1
10
161.729893177029
20
4.586336572525
30
0
41
1
10
161.898914944921
20
3.69042421833967
30
0
41
1
10
161.983425828866
20
3.22555204908733
30
0
41
1
10
162.152447596758
20
2.28679812663876
30
0
41
1
10
162.236958480703
20
1.81302364244797
30
0
41
1
10
162.363724806622
20
1.11221785475067
30
0
41
1
10
162.405980248595
20
0.880225340244607
30
0
41
1
10
162.469363411554
20
0.536349783542988
30
0
41
1
10
162.501054993033
20
0.365436133769663
30
0
41
1
10
162.532746574513
20
0.196338246963364
30
0
41
1
10
162.5538742955
20
0.0840381120667644
30
0
41
1
10
162.564438155993
20
0.0282170359006102
30
0
41
1
10
162.659512900432
20
-0.474473418469444
30
0
41
1
10
162.744023784377
20
-0.935971215900395
30
0
41
1
10
162.913045552269
20
-1.87139833570615
30
0
41
1
10
162.997556436214
20
-2.34527347602992
30
0
41
1
10
163.166578204106
20
-3.28323254191395
30
0
41
1
10
163.251089088051
20
-3.74720719310378
30
0
41
1
10
163.420110855943
20
-4.64027974138415
30
0
41
1
10
163.504621739888
20
-5.06923649259545
30
0
41
1
10
163.67364350778
20
-5.86819856851301
30
0
41
1
10
163.758154391725
20
-6.23807588067154
30
0
41
1
10
163.927176159617
20
-6.90003944942924
30
0
41
1
10
164.011687043562
20
-7.19205565608544
30
0
41
1
10
164.180708811454
20
-7.68782221328522
30
0
41
1
10
164.2652196954
20
-7.89157985493321
30
0
41
1
10
164.434241463291
20
-8.20970279354074
30
0
41
1
10
164.518752347236
20
-8.32413829077259
30
0
41
1
10
164.645518673155
20
-8.43397882366205
30
0
41
1
10
164.687774115128
20
-8.46034592537202
30
0
41
1
10
164.751157278087
20
-8.48557710341757
30
0
41
1
10
164.782848859567
20
-8.49461633069635
30
0
41
1
10
164.814540441046
20
-8.49851511425021
30
0
41
1
10
164.835668162033
20
-8.49999840040874
30
0
41
1
10
164.846232022526
20
-8.50018398301478
30
0
41
1
10
164.941306766965
20
-8.49690844324459
30
0
41
1
10
165.025817650911
20
-8.45841409425466
30
0
41
1
10
165.194839418802
20
-8.29838052115164
30
0
41
1
10
165.279350302747
20
-8.17674390420748
30
0
41
1
10
165.448372070639
20
-7.84396759954581
30
0
41
1
10
165.532882954584
20
-7.63276171961513
30
0
41
1
10
165.701904722476
20
-7.12259432129852
30
0
41
1
10
165.786415606421
20
-6.82363177038491
30
0
41
1
10
165.955437374313
20
-6.14903205069641
30
0
41
1
10
166.039948258259
20
-5.77347091739796
30
0
41
1
10
166.20897002615
20
-4.96497825151451
30
0
41
1
10
166.293480910096
20
-4.53217770138477
30
0
41
1
10
166.462502677987
20
-3.63351068750927
30
0
41
1
10
166.547013561932
20
-3.16778425032365
30
0
41
1
10
166.716035329824
20
-2.2283167247322
30
0
41
1
10
166.80054621377
20
-1.7546808619677
30
0
41
1
10
166.927312539688
20
-1.05468948985165
30
0
41
1
10
166.969567981661
20
-0.823068701817647
30
0
41
1
10
167.03295114462
20
-0.479878881474207
30
0
41
1
10
167.0646427261
20
-0.309340101477289
30
0
41
1
10
167.096334307579
20
-0.140660700462917
30
0
41
1
10
167.117462028566
20
-0.0286487539640063
30
0
41
1
10
167.128025889059
20
0.0270207472970014
30
0
41
1
10
167.223100633498
20
0.531035924958729
30
0
41
1
10
167.307611517443
20
0.993421142608412
30
0
41
1
10
167.476633285335
20
1.9298004261309
30
0
41
1
10
167.561144169281
20
2.40373793609419
30
0
41
1
10
167.730165937172
20
3.34082048204414
30
0
41
1
10
167.814676821118
20
3.80385427833105
30
0
41
1
10
167.983698589009
20
4.69400200966891
30
0
41
1
10
168.068209472954
20
5.12097435872718
30
0
41
1
10
168.237231240846
20
5.91505960562037
30
0
41
1
10
168.321742124792
20
6.28204609691886
30
0
41
1
10
168.406253008737
20
6.60983081813305
30
0
0
SPLINE
5
FE
100
AcDbEntity
8
1
62
256
6
ByLayer
370
13
48
1
60
0
100
AcDbSpline
70
4
71
3
72
86
73
82
40
0
40
0
40
0
40
0
40
0.0312499999999996
40
0.0312499999999996
40
0.0624999999999992
40
0.0624999999999992
40
0.0937499999999988
40
0.0937499999999988
40
0.124999999999998
40
0.124999999999998
40
0.156249999999998
40
0.156249999999998
40
0.187499999999998
40
0.187499999999998
40
0.218749999999997
40
0.218749999999997
40
0.249999999999997
40
0.249999999999997
40
0.257812499999997
40
0.257812499999997
40
0.261718749999997
40
0.261718749999997
40
0.265624999999997
40
0.265624999999997
40
0.281249999999997
40
0.281249999999997
40
0.312499999999996
40
0.312499999999996
40
0.343749999999995
40
0.343749999999995
40
0.374999999999994
40
0.374999999999994
40
0.406249999999994
40
0.406249999999994
40
0.437499999999993
40
0.437499999999993
40
0.468749999999992
40
0.468749999999992
40
0.499999999999991
40
0.499999999999991
40
0.515624999999991
40
0.515624999999991
40
0.52343749999999
40
0.52343749999999
40
0.52734374999999
40
0.52734374999999
40
0.53124999999999
40
0.53124999999999
40
0.562499999999991
40
0.562499999999991
40
0.593749999999991
40
0.593749999999991
40
0.624999999999992
40
0.624999999999992
40
0.656249999999992
40
0.656249999999992
40
0.687499999999993
40
0.687499999999993
40
0.718749999999993
40
0.718749999999993
40
0.749999999999994
40
0.749999999999994
40
0.781249999999994
40
0.781249999999994
40
0.789062499999994
40
0.789062499999994
40
0.796874999999995
40
0.796874999999995
40
0.812499999999995
40
0.812499999999995
40
0.843749999999996
40
0.843749999999996
40
0.874999999999997
40
0.874999999999997
40
0.906249999999997
40
0.906249999999997
40
0.937499999999998
40
0.937499999999998
40
0.968749999999999
40
0.968749999999999
40
1
40
1
40
1
40
1
41
1
10
159.796604302633
20
8.5
30
0
41
1
10
159.886288143321
20
8.5
30
0
41
1
10
159.97597198401
20
8.46022610421488
30
0
41
1
10
160.155339665387
20
8.28689235884221
30
0
41
1
10
160.245023506076
20
8.15320206380639
30
0
41
1
10
160.424391187453
20
7.78472800148233
30
0
41
1
10
160.514075028141
20
7.54986105700468
30
0
41
1
10
160.693442709519
20
6.98232739612226
30
0
41
1
10
160.783126550207
20
6.64967415666405
30
0
41
1
10
160.962494231584
20
5.90167695439746
30
0
41
1
10
161.052178072273
20
5.48645399951212
30
0
41
1
10
161.23154575365
20
4.59821383754601
30
0
41
1
10
161.321229594339
20
4.12538230421799
30
0
41
1
10
161.500597275716
20
3.15179672361046
30
0
41
1
10
161.590281116405
20
2.65122090058631
30
0
41
1
10
161.769648797782
20
1.65125136528965
30
0
41
1
10
161.85933263847
20
1.15197140366522
30
0
41
1
10
161.971437439331
20
0.543466769180355
30
0
41
1
10
161.993858399503
20
0.422528813243247
30
0
41
1
10
162.027489839762
20
0.242489449258528
30
0
41
1
10
162.038700319847
20
0.182704022893205
30
0
41
1
10
162.06112128002
20
0.0636229242601871
30
0
41
1
10
162.072331760106
20
0.004497039384546
30
0
41
1
10
162.128384160536
20
-0.292255872260142
30
0
41
1
10
162.17322608088
20
-0.533696323275194
30
0
41
1
10
162.307751841913
20
-1.26663159712501
30
0
41
1
10
162.397435682602
20
-1.7669427886685
30
0
41
1
10
162.576803363979
20
-2.76688696438484
30
0
41
1
10
162.666487204668
20
-3.26640010063321
30
0
41
1
10
162.845854886045
20
-4.23551913873294
30
0
41
1
10
162.935538726733
20
-4.70494377424737
30
0
41
1
10
163.114906408111
20
-5.58419497818974
30
0
41
1
10
163.204590248799
20
-5.99383839515372
30
0
41
1
10
163.383957930176
20
-6.72910187717366
30
0
41
1
10
163.473641770865
20
-7.05460833718604
30
0
41
1
10
163.653009452242
20
-7.60715361576751
30
0
41
1
10
163.742693292931
20
-7.83418747819957
30
0
41
1
10
163.922060974308
20
-8.18720456392191
30
0
41
1
10
164.011744814996
20
-8.31327662875964
30
0
41
1
10
164.146270576029
20
-8.43253269424119
30
0
41
1
10
164.191112496374
20
-8.4607149010684
30
0
41
1
10
164.25837537689
20
-8.48688546994339
30
0
41
1
10
164.280796337062
20
-8.49292818332023
30
0
41
1
10
164.314427777321
20
-8.49815035056849
30
0
41
1
10
164.325638257406
20
-8.49925089258929
30
0
41
1
10
164.348059217579
20
-8.50020297929839
30
0
41
1
10
164.359269697665
20
-8.50005920807416
30
0
41
1
10
164.460164018439
20
-8.49313759057966
30
0
41
1
10
164.549847859128
20
-8.44656928839765
30
0
41
1
10
164.729215540505
20
-8.25877631000932
30
0
41
1
10
164.818899381194
20
-8.11742280014082
30
0
41
1
10
164.998267062571
20
-7.73346596992792
30
0
41
1
10
165.087950903259
20
-7.49078545044043
30
0
41
1
10
165.267318584637
20
-6.90837440150165
30
0
41
1
10
165.357002425325
20
-6.56866594370138
30
0
41
1
10
165.536370106702
20
-5.80817783173922
30
0
41
1
10
165.626053947391
20
-5.3875263197686
30
0
41
1
10
165.805421628768
20
-4.49062922720816
30
0
41
1
10
165.895105469457
20
-4.01457138879812
30
0
41
1
10
166.074473150834
20
-3.0368752360591
30
0
41
1
10
166.164156991523
20
-2.53541175094142
30
0
41
1
10
166.3435246729
20
-1.53573393537326
30
0
41
1
10
166.433208513588
20
-1.03762716849292
30
0
41
1
10
166.545313314449
20
-0.431545913977857
30
0
41
1
10
166.567734274621
20
-0.311140117101502
30
0
41
1
10
166.612576194966
20
-0.0722376634957413
30
0
41
1
10
166.634997155138
20
0.0456795475137426
30
0
41
1
10
166.702260035654
20
0.403604511970912
30
0
41
1
10
166.747101955998
20
0.646094921793065
30
0
41
1
10
166.881627717031
20
1.38157639578023
30
0
41
1
10
166.97131155772
20
1.88277364476011
30
0
41
1
10
167.150679239097
20
2.88237058332481
30
0
41
1
10
167.240363079786
20
3.38064443840571
30
0
41
1
10
167.419730761163
20
4.34494038938951
30
0
41
1
10
167.509414601851
20
4.81077854616771
30
0
41
1
10
167.688782283229
20
5.68071346464578
30
0
41
1
10
167.778466123917
20
6.08463004693976
30
0
41
1
10
167.957833805294
20
6.80692608117454
30
0
41
1
10
168.047517645983
20
7.12519957551885
30
0
41
1
10
168.22688532736
20
7.66265635397295
30
0
41
1
10
168.316569168049
20
7.88184310372375
30
0
41
1
10
168.406253008737
20
8.05064089575541
30
0
0
SPLINE
5
FF
100
AcDbEntity
8
1
62
256
6
ByLayer
370
13
48
1
60
0
100
AcDbSpline
70
4
71
3
72
118
73
114
40
0
40
0
40
0
40
0
40
0.0312499999999999
40
0.0312499999999999
40
0.0468749999999999
40
0.0468749999999999
40
0.0624999999999998
40
0.0624999999999998
40
0.0781249999999998
40
0.0781249999999998
40
0.0937499999999998
40
0.0937499999999998
40
0.109375
40
0.109375
40
0.125
40
0.125
40
0.140625
40
0.140625
40
0.15625
40
0.15625
40
0.171875
40
0.171875
40
0.1875
40
0.1875
40
0.203125
40
0.203125
40
0.21875
40
0.21875
40
0.25
40
0.25
40
0.281250000000001
40
0.281250000000001
40
0.296875000000001
40
0.296875000000001
40
0.312500000000001
40
0.312500000000001
40
0.328125000000001
40
0.328125000000001
40
0.343750000000001
40
0.343750000000001
40
0.359375000000001
40
0.359375000000001
40
0.375000000000001
40
0.375000000000001
40
0.390625000000001
40
0.390625000000001
40
0.406250000000002
40
0.406250000000002
40
0.421875000000002
40
0.421875000000002
40
0.437500000000002
40
0.437500000000002
40
0.453125000000002
40
0.453125000000002
40
0.468750000000002
40
0.468750000000002
40
0.500000000000002
40
0.500000000000002
40
0.531250000000002
40
0.531250000000002
40
0.546875000000002
40
0.546875000000002
40
0.562500000000002
40
0.562500000000002
40
0.578125000000002
40
0.578125000000002
40
0.593750000000002
40
0.593750000000002
40
0.609375000000002
40
0.609375000000002
40
0.625000000000002
40
0.625000000000002
40
0.640625000000002
40
0.640625000000002
40
0.656250000000002
40
0.656250000000002
40
0.671875000000002
40
0.671875000000002
40
0.687500000000002
40
0.687500000000002
40
0.703125000000002
40
0.703125000000002
40
0.718750000000002
40
0.718750000000002
40
0.750000000000002
40
0.750000000000002
40
0.781250000000002
40
0.781250000000002
40
0.796875000000002
40
0.796875000000002
40
0.812500000000001
40
0.812500000000001
40
0.828125000000001
40
0.828125000000001
40
0.843750000000001
40
0.843750000000001
40
0.859375000000001
40
0.859375000000001
40
0.875000000000001
40
0.875000000000001
40
0.890625000000001
40
0.890625000000001
40
0.906250000000001
40
0.906250000000001
40
0.921875
40
0.921875
40
0.9375
40
0.9375
40
0.953125
40
0.953125
40
0.96875
40
0.96875
40
1
40
1
40
1
40
1
41
1
10
159.300000455313
20
8.5
30
0
41
1
10
159.394857252744
20
8.5
30
0
41
1
10
159.489714050176
20
8.455474052683
30
0
41
1
10
159.631999246323
20
8.30940644287998
30
0
41
1
10
159.679427645039
20
8.24755209656595
30
0
41
1
10
159.77428444247
20
8.09623026070841
30
0
41
1
10
159.821712841186
20
8.00675815063033
30
0
41
1
10
159.916569638617
20
7.7996430917
30
0
41
1
10
159.963998037333
20
7.68199700464262
30
0
41
1
10
160.058854834765
20
7.41883130883744
30
0
41
1
10
160.10628323348
20
7.27331062829884
30
0
41
1
10
160.201140030912
20
6.95561334834579
30
0
41
1
10
160.248568429628
20
6.78343810273191
30
0
41
1
10
160.343425227059
20
6.41456647335565
30
0
41
1
10
160.390853625775
20
6.21787390007091
30
0
41
1
10
160.485710423207
20
5.80294187801883
30
0
41
1
10
160.533138821922
20
5.58470836149155
30
0
41
1
10
160.627995619354
20
5.13036040066513
30
0
41
1
10
160.675424018069
20
4.89425335552605
30
0
41
1
10
160.770280815501
20
4.40831318093166
30
0
41
1
10
160.817709214217
20
4.15848806454375
30
0
41
1
10
160.912566011648
20
3.64952085720424
30
0
41
1
10
160.959994410364
20
3.39038650566641
30
0
41
1
10
161.054851207796
20
2.86722449857706
30
0
41
1
10
161.102279606511
20
2.60320354578738
30
0
41
1
10
161.197136403943
20
2.07448713758092
30
0
41
1
10
161.244564802659
20
1.80979682347564
30
0
41
1
10
161.386849998806
20
1.0204658471535
30
0
41
1
10
161.481706796237
20
0.500867894007911
30
0
41
1
10
161.6714203911
20
-0.500866691926404
30
0
41
1
10
161.766277188532
20
-1.02046459421143
30
0
41
1
10
161.908562384679
20
-1.80979555555231
30
0
41
1
10
161.955990783395
20
-2.07448586753995
30
0
41
1
10
162.050847580826
20
-2.60320227798954
30
0
41
1
10
162.098275979542
20
-2.8672232351428
30
0
41
1
10
162.193132776974
20
-3.39038525792296
30
0
41
1
10
162.240561175689
20
-3.64951962079022
30
0
41
1
10
162.335417973121
20
-4.15848685791505
30
0
41
1
10
162.382846371837
20
-4.40831199275999
30
0
41
1
10
162.477703169268
20
-4.89425221118475
30
0
41
1
10
162.525131567984
20
-5.13035928169697
30
0
41
1
10
162.619988365415
20
-5.58470729958935
30
0
41
1
10
162.667416764131
20
-5.8029408478078
30
0
41
1
10
162.762273561563
20
-6.21787293860805
30
0
41
1
10
162.809701960278
20
-6.41456554894688
30
0
41
1
10
162.90455875771
20
-6.78343725655665
30
0
41
1
10
162.951987156426
20
-6.95561254334623
30
0
41
1
10
163.046843953857
20
-7.27330990835125
30
0
41
1
10
163.094272352573
20
-7.41883063276217
30
0
41
1
10
163.189129150004
20
-7.68199641752236
30
0
41
1
10
163.23655754872
20
-7.79964254965876
30
0
41
1
10
163.331414346152
20
-8.00675769851907
30
0
41
1
10
163.378842744868
20
-8.09622985344524
30
0
41
1
10
163.473699542299
20
-8.24755177748412
30
0
41
1
10
163.521127941015
20
-8.30940616712951
30
0
41
1
10
163.663413137162
20
-8.4554739030591
30
0
41
1
10
163.758269934594
20
-8.49999992916659
30
0
41
1
10
163.947983529457
20
-8.50000007083324
30
0
41
1
10
164.042840326888
20
-8.4554742023067
30
0
41
1
10
164.185125523035
20
-8.30940671863024
30
0
41
1
10
164.232553921751
20
-8.24755241564762
30
0
41
1
10
164.327410719183
20
-8.09623066797135
30
0
41
1
10
164.374839117898
20
-8.00675860274137
30
0
41
1
10
164.46969591533
20
-7.79964363374106
30
0
41
1
10
164.517124314046
20
-7.68199759176269
30
0
41
1
10
164.611981111477
20
-7.41883198491252
30
0
41
1
10
164.659409510193
20
-7.27331134824621
30
0
41
1
10
164.754266307624
20
-6.95561415334518
30
0
41
1
10
164.80169470634
20
-6.78343894890696
30
0
41
1
10
164.896551503771
20
-6.41456739776424
30
0
41
1
10
164.943979902487
20
-6.2178748615336
30
0
41
1
10
165.038836699919
20
-5.80294290822971
30
0
41
1
10
165.086265098635
20
-5.5847094233936
30
0
41
1
10
165.181121896066
20
-5.1303615196332
30
0
41
1
10
165.228550294782
20
-4.8942544998672
30
0
41
1
10
165.323407092213
20
-4.40831436910327
30
0
41
1
10
165.370835490929
20
-4.15848927117233
30
0
41
1
10
165.46569228836
20
-3.6495220936182
30
0
41
1
10
165.513120687076
20
-3.39038775340978
30
0
41
1
10
165.607977484508
20
-2.86722576201132
30
0
41
1
10
165.655405883224
20
-2.60320481358519
30
0
41
1
10
165.750262680655
20
-2.07448840762188
30
0
41
1
10
165.797691079371
20
-1.80979809139896
30
0
41
1
10
165.939976275518
20
-1.02046710009563
30
0
41
1
10
166.03483307295
20
-0.500869125429574
30
0
41
1
10
166.224546667813
20
0.50086551918497
30
0
41
1
10
166.319403465244
20
1.02046334126939
30
0
41
1
10
166.461688661391
20
1.80979428762902
30
0
41
1
10
166.509117060107
20
2.07448459749898
30
0
41
1
10
166.603973857539
20
2.6032010101917
30
0
41
1
10
166.651402256254
20
2.86722197170852
30
0
41
1
10
166.746259053686
20
3.39038401017947
30
0
41
1
10
166.793687452402
20
3.64951838437614
30
0
41
1
10
166.888544249833
20
4.15848565128627
30
0
41
1
10
166.935972648549
20
4.40831080458821
30
0
41
1
10
167.03082944598
20
4.89425106684334
30
0
41
1
10
167.078257844696
20
5.13035816272864
30
0
41
1
10
167.173114642128
20
5.58470623768699
30
0
41
1
10
167.220543040843
20
5.80293981759661
30
0
41
1
10
167.315399838275
20
6.21787197714502
30
0
41
1
10
167.362828236991
20
6.41456462453792
30
0
41
1
10
167.457685034422
20
6.7834364103812
30
0
41
1
10
167.505113433138
20
6.95561173834645
30
0
41
1
10
167.59997023057
20
7.27330918840343
30
0
41
1
10
167.647398629285
20
7.41882995668666
30
0
41
1
10
167.742255426717
20
7.68199583040186
30
0
41
1
10
167.789683825433
20
7.79964200761731
30
0
41
1
10
167.884540622864
20
8.0067572464076
30
0
41
1
10
167.93196902158
20
8.09622944618184
30
0
41
1
10
168.026825819011
20
8.24755145840203
30
0
41
1
10
168.074254217727
20
8.30940589137882
30
0
41
1
10
168.216539413874
20
8.455473753435
30
0
41
1
10
168.311396211306
20
8.49999985833298
30
0
41
1
10
168.406253008737
20
8.49999999999966
30
0
0
SPLINE
5
100
100
AcDbEntity
8
1
62
256
6
ByLayer
370
13
48
1
60
0
100
AcDbSpline
70
4
71
3
72
8
73
4
40
0
40
0
40
0
40
0
40
1
40
1
40
1
40
1
41
1
10
168.406253008738
20
7.75348804385169
30
0
41
1
10
169.437502005825
20
5.16539987305117
30
0
41
1
10
170.468751002912
20
2.58089149571941
30
0
41
1
10
171.499999999999
20
1.5632E-12
30
0
0
SPLINE
5
101
100
AcDbEntity
8
1
62
256
6
ByLayer
370
13
48
1
60
0
100
AcDbSpline
70
4
71
3
72
8
73
4
40
0
40
0
40
0
40
0
40
1
40
1
40
1
40
1
41
1
10
168.406253008737
20
7.56502847515083
30
0
41
1
10
169.437502005825
20
5.04734903453507
30
0
41
1
10
170.468751002912
20
2.5256608019632
30
0
41
1
10
171.5
20
-5.68E-14
30
0
0
SPLINE
5
102
100
AcDbEntity
8
1
62
256
6
ByLayer
370
13
48
1
60
0
100
AcDbSpline
70
4
71
3
72
8
73
4
40
0
40
0
40
0
40
0
40
1
40
1
40
1
40
1
41
1
10
168.406253008737
20
-7.82992737925881
30
0
41
1
10
169.437502005825
20
-5.21654031218674
30
0
41
1
10
170.468751002912
20
-2.60655203416019
30
0
41
1
10
171.5
20
-4.263E-13
30
0
0
SPLINE
5
103
100
AcDbEntity
8
1
62
256
6
ByLayer
370
13
48
1
60
0
100
AcDbSpline
70
4
71
3
72
8
73
4
40
0
40
0
40
0
40
0
40
1
40
1
40
1
40
1
41
1
10
168.406253008737
20
-4.82724000961576
30
0
41
1
10
169.437502005825
20
-3.21094511293936
30
0
41
1
10
170.468751002912
20
-1.60185742077954
30
0
41
1
10
171.5
20
8.53E-14
30
0
0
SPLINE
5
104
100
AcDbEntity
8
1
62
256
6
ByLayer
370
13
48
1
60
0
100
AcDbSpline
70
4
71
3
72
8
73
4
40
0
40
0
40
0
40
0
40
1
40
1
40
1
40
1
41
1
10
168.406253008737
20
6.94149384148284
30
0
41
1
10
169.437502005825
20
4.6327215350986
30
0
41
1
10
170.468751002912
20
2.31887917339054
30
0
41
1
10
171.5
20
0
30
0
0
SPLINE
5
105
100
AcDbEntity
8
1
62
256
6
ByLayer
370
13
48
1
60
0
100
AcDbSpline
70
4
71
3
72
8
73
4
40
0
40
0
40
0
40
0
40
1
40
1
40
1
40
1
41
1
10
168.406253008737
20
-8.21877968690092
30
0
41
1
10
169.437502005825
20
-5.47695036849547
30
0
41
1
10
170.468751002912
20
-2.73734403241207
30
0
41
1
10
171.5
20
1.421E-13
30
0
0
SPLINE
5
106
100
AcDbEntity
8
1
62
256
6
ByLayer
370
13
48
1
60
0
100
AcDbSpline
70
4
71
3
72
8
73
4
40
0
40
0
40
0
40
0
40
1
40
1
40
1
40
1
41
1
10
168.406253008737
20
2.07569227441152
30
0
41
1
10
169.437502005825
20
1.39229508807588
30
0
41
1
10
170.468751002912
20
0.700394338546346
30
0
41
1
10
171.5
20
2.84E-14
30
0
0
SPLINE
5
107
100
AcDbEntity
8
1
62
256
6
ByLayer
370
13
48
1
60
0
100
AcDbSpline
70
4
71
3
72
8
73
4
40
0
40
0
40
0
40
0
40
1
40
1
40
1
40
1
41
1
10
168.406253008738
20
-3.39582089517657
30
0
41
1
10
169.437502005825
20
-2.27191629651702
30
0
41
1
10
170.468751002912
20
-1.13997056825724
30
0
41
1
10
171.5
20
-1.99E-13
30
0
0
SPLINE
5
108
100
AcDbEntity
8
1
62
256
6
ByLayer
370
13
48
1
60
0
100
AcDbSpline
70
4
71
3
72
8
73
4
40
0
40
0
40
0
40
0
40
1
40
1
40
1
40
1
41
1
10
168.406253008738
20
-2.26069557008333
30
0
41
1
10
169.437502005825
20
-1.51558028454096
30
0
41
1
10
170.468751002912
20
-0.762011474748618
30
0
41
1
10
171.5
20
-1.137E-13
30
0
0
SPLINE
5
109
100
AcDbEntity
8
1
62
256
6
ByLayer
370
13
48
1
60
0
100
AcDbSpline
70
4
71
3
72
8
73
4
40
0
40
0
40
0
40
0
40
1
40
1
40
1
40
1
41
1
10
168.406253008738
20
8.16789182435753
30
0
41
1
10
169.437502005825
20
5.44283492092515
30
0
41
1
10
170.468751002913
20
2.72019128716963
30
0
41
1
10
171.5
20
-7.39E-13
30
0
0
SPLINE
5
10A
100
AcDbEntity
8
1
62
256
6
ByLayer
370
13
48
1
60
0
100
AcDbSpline
70
4
71
3
72
8
73
4
40
0
40
0
40
0
40
0
40
1
40
1
40
1
40
1
41
1
10
168.406253008737
20
8.03675628184592
30
0
41
1
10
169.437502005825
20
5.36069178083758
30
0
41
1
10
170.468751002912
20
2.68176019535139
30
0
41
1
10
171.5
20
8.53E-14
30
0
0
SPLINE
5
10B
100
AcDbEntity
8
1
62
256
6
ByLayer
370
13
48
1
60
0
100
AcDbSpline
70
4
71
3
72
8
73
4
40
0
40
0
40
0
40
0
40
1
40
1
40
1
40
1
41
1
10
168.406253008737
20
0.890161199373807
30
0
41
1
10
169.437502005825
20
0.602158215992745
30
0
41
1
10
170.468751002912
20
0.305436382300883
30
0
41
1
10
171.5
20
2.84E-14
30
0
0
SPLINE
5
10C
100
AcDbEntity
8
1
62
256
6
ByLayer
370
13
48
1
60
0
100
AcDbSpline
70
4
71
3
72
8
73
4
40
0
40
0
40
0
40
0
40
1
40
1
40
1
40
1
41
1
10
168.406253008737
20
-8.44270639380593
30
0
41
1
10
169.437502005825
20
-5.62745489574277
30
0
41
1
10
170.468751002912
20
-2.8132059648681
30
0
41
1
10
171.5
20
-4.547E-13
30
0
0
SPLINE
5
10D
100
AcDbEntity
8
1
62
256
6
ByLayer
370
13
48
1
60
0
100
AcDbSpline
70
4
71
3
72
8
73
4
40
0
40
0
40
0
40
0
40
1
40
1
40
1
40
1
41
1
10
168.406253008737
20
6.17866480092812
30
0
41
1
10
169.437502005825
20
4.12512957970503
30
0
41
1
10
170.468751002912
20
2.06556478018882
30
0
41
1
10
171.5
20
0
30
0
0
SPLINE
5
10E
100
AcDbEntity
8
1
62
256
6
ByLayer
370
13
48
1
60
0
100
AcDbSpline
70
4
71
3
72
8
73
4
40
0
40
0
40
0
40
0
40
1
40
1
40
1
40
1
41
1
10
168.406253008737
20
-7.05015417121561
30
0
41
1
10
169.437502005825
20
-4.70499934892817
30
0
41
1
10
170.468751002912
20
-2.3549367042321
30
0
41
1
10
171.5
20
1.137E-13
30
0
0
SPLINE
5
10F
100
AcDbEntity
8
1
62
256
6
ByLayer
370
13
48
1
60
0
100
AcDbSpline
70
4
71
3
72
8
73
4
40
0
40
0
40
0
40
0
40
1
40
1
40
1
40
1
41
1
10
168.406253008738
20
4.66854227024797
30
0
41
1
10
169.437502005825
20
3.10503639913424
30
0
41
1
10
170.468751002912
20
1.54884820676261
30
0
41
1
10
171.5
20
2.558E-13
30
0
0
SPLINE
5
110
100
AcDbEntity
8
1
62
256
6
ByLayer
370
13
48
1
60
0
100
AcDbSpline
70
4
71
3
72
8
73
4
40
0
40
0
40
0
40
0
40
1
40
1
40
1
40
1
41
1
10
168.406253008737
20
-0.313232669917113
30
0
41
1
10
169.437502005825
20
-0.200062117296881
30
0
41
1
10
170.468751002912
20
-0.0956507416260024
30
0
41
1
10
171.5
20
0
30
0
0
SPLINE
5
111
100
AcDbEntity
8
1
62
256
6
ByLayer
370
13
48
1
60
0
100
AcDbSpline
70
4
71
3
72
8
73
4
40
0
40
0
40
0
40
0
40
1
40
1
40
1
40
1
41
1
10
168.406253008738
20
-1.08020504611832
30
0
41
1
10
169.437502005825
20
-0.728831243086631
30
0
41
1
10
170.468751002912
20
-0.368761157356516
30
0
41
1
10
171.5
20
-5.68E-14
30
0
0
SPLINE
5
112
100
AcDbEntity
8
1
62
256
6
ByLayer
370
13
48
1
60
0
100
AcDbSpline
70
4
71
3
72
8
73
4
40
0
40
0
40
0
40
0
40
1
40
1
40
1
40
1
41
1
10
168.406253008737
20
-5.76739250952926
30
0
41
1
10
169.437502005825
20
-3.83848925004591
30
0
41
1
10
170.468751002912
20
-1.91601589026959
30
0
41
1
10
171.5
20
1.137E-13
30
0
0
SPLINE
5
113
100
AcDbEntity
8
1
62
256
6
ByLayer
370
13
48
1
60
0
100
AcDbSpline
70
4
71
3
72
8
73
4
40
0
40
0
40
0
40
0
40
1
40
1
40
1
40
1
41
1
10
168.406253008738
20
6.46935258476611
30
0
41
1
10
169.437502005825
20
4.30721604453609
30
0
41
1
10
170.468751002912
20
2.15075487203839
30
0
41
1
10
171.5
20
3.695E-13
30
0
0
SPLINE
5
114
100
AcDbEntity
8
1
62
256
6
ByLayer
370
13
48
1
60
0
100
AcDbSpline
70
4
71
3
72
8
73
4
40
0
40
0
40
0
40
0
40
1
40
1
40
1
40
1
41
1
10
168.406253008738
20
5.62538955069149
30
0
41
1
10
169.437502005825
20
3.74368837078245
30
0
41
1
10
170.468751002912
20
1.86854955735467
30
0
41
1
10
171.499999999999
20
1.1369E-12
30
0
0
SPLINE
5
115
100
AcDbEntity
8
1
62
256
6
ByLayer
370
13
48
1
60
0
100
AcDbSpline
70
4
71
3
72
8
73
4
40
0
40
0
40
0
40
0
40
1
40
1
40
1
40
1
41
1
10
168.406253008738
20
3.61801172199344
30
0
41
1
10
169.437502005825
20
2.40407590810187
30
0
41
1
10
170.468751002912
20
1.19806624193367
30
0
41
1
10
171.5
20
1.99E-13
30
0
0
SPLINE
5
116
100
AcDbEntity
8
1
62
256
6
ByLayer
370
13
48
1
60
0
100
AcDbSpline
70
4
71
3
72
8
73
4
40
0
40
0
40
0
40
0
40
1
40
1
40
1
40
1
41
1
10
168.406253008738
20
8.41839116683167
30
0
41
1
10
169.437502005825
20
5.61104903172119
30
0
41
1
10
170.468751002913
20
2.80490521560432
30
0
41
1
10
171.5
20
-7.674E-13
30
0
0
SPLINE
5
117
100
AcDbEntity
8
1
62
256
6
ByLayer
370
13
48
1
60
0
100
AcDbSpline
70
4
71
3
72
8
73
4
40
0
40
0
40
0
40
0
40
1
40
1
40
1
40
1
41
1
10
168.406253008737
20
-6.30848779927402
30
0
41
1
10
169.437502005825
20
-4.21153330248544
30
0
41
1
10
170.468751002912
20
-2.10869396332345
30
0
41
1
10
171.5
20
1.137E-13
30
0
0
SPLINE
5
118
100
AcDbEntity
8
1
62
256
6
ByLayer
370
13
48
1
60
0
100
AcDbSpline
70
4
71
3
72
8
73
4
40
0
40
0
40
0
40
0
40
1
40
1
40
1
40
1
41
1
10
168.406253008737
20
8.34721113704995
30
0
41
1
10
169.437502005825
20
5.56646194994462
30
0
41
1
10
170.468751002912
20
2.78404491939671
30
0
41
1
10
171.5
20
-2.84E-14
30
0
0
SPLINE
5
119
100
AcDbEntity
8
1
62
256
6
ByLayer
370
13
48
1
60
0
100
AcDbSpline
70
4
71
3
72
8
73
4
40
0
40
0
40
0
40
0
40
1
40
1
40
1
40
1
41
1
10
168.406253008737
20
-8.49721398048987
30
0
41
1
10
169.437502005825
20
-5.66503373150522
30
0
41
1
10
170.468751002912
20
-2.83261551613921
30
0
41
1
10
171.5
20
1.421E-13
30
0
0
SPLINE
5
11A
100
AcDbEntity
8
1
62
256
6
ByLayer
370
13
48
1
60
0
100
AcDbSpline
70
4
71
3
72
8
73
4
40
0
40
0
40
0
40
0
40
1
40
1
40
1
40
1
41
1
10
168.406253008737
20
5.29184898339844
30
0
41
1
10
169.437502005825
20
3.53475897590263
30
0
41
1
10
170.468751002912
20
1.77080086221429
30
0
41
1
10
171.5
20
-8.53E-14
30
0
0
SPLINE
5
11B
100
AcDbEntity
8
1
62
256
6
ByLayer
370
13
48
1
60
0
100
AcDbSpline
70
4
71
3
72
8
73
4
40
0
40
0
40
0
40
0
40
1
40
1
40
1
40
1
41
1
10
168.406253008737
20
-6.59181120095087
30
0
41
1
10
169.437502005825
20
-4.38900672752615
30
0
41
1
10
170.468751002912
20
-2.19172582071093
30
0
41
1
10
171.5
20
1.137E-13
30
0
0
SPLINE
5
11C
100
AcDbEntity
8
1
62
256
6
ByLayer
370
13
48
1
60
0
100
AcDbSpline
70
4
71
3
72
8
73
4
40
0
40
0
40
0
40
0
40
1
40
1
40
1
40
1
41
1
10
168.406253008737
20
-5.44022950253654
30
0
41
1
10
169.437502005825
20
-3.63355475097535
30
0
41
1
10
170.468751002912
20
-1.82013622774153
30
0
41
1
10
171.5
20
8.53E-14
30
0
0
SPLINE
5
11D
100
AcDbEntity
8
1
62
256
6
ByLayer
370
13
48
1
60
0
100
AcDbSpline
70
4
71
3
72
8
73
4
40
0
40
0
40
0
40
0
40
1
40
1
40
1
40
1
41
1
10
168.406253008737
20
-1.51034092404078
30
0
41
1
10
169.437502005825
20
-0.998267819931215
30
0
41
1
10
170.468751002913
20
-0.494818449699778
30
0
41
1
10
171.5
20
8.53E-14
30
0
0
SPLINE
5
11E
100
AcDbEntity
8
1
62
256
6
ByLayer
370
13
48
1
60
0
100
AcDbSpline
70
4
71
3
72
8
73
4
40
0
40
0
40
0
40
0
40
1
40
1
40
1
40
1
41
1
10
168.406253008738
20
0.121961866913807
30
0
41
1
10
169.437502005825
20
0.0725431971715693
30
0
41
1
10
170.468751002912
20
0.031889060960367
30
0
41
1
10
171.5
20
0
30
0
0
SPLINE
5
11F
100
AcDbEntity
8
1
62
256
6
ByLayer
370
13
48
1
60
0
100
AcDbSpline
70
4
71
3
72
8
73
4
40
0
40
0
40
0
40
0
40
1
40
1
40
1
40
1
41
1
10
168.406253008737
20
4.29884205163464
30
0
41
1
10
169.437502005825
20
2.8734566438182
30
0
41
1
10
170.468751002912
20
1.44050242365256
30
0
41
1
10
171.5
20
-8.53E-14
30
0
0
SPLINE
5
120
100
AcDbEntity
8
1
62
256
6
ByLayer
370
13
48
1
60
0
100
AcDbSpline
70
4
71
3
72
8
73
4
40
0
40
0
40
0
40
0
40
1
40
1
40
1
40
1
41
1
10
168.406253008737
20
-7.28395253932513
30
0
41
1
10
169.437502005825
20
-4.85145035478135
30
0
41
1
10
170.468751002912
20
-2.4234545627761
30
0
41
1
10
171.5
20
1.421E-13
30
0
0
SPLINE
5
121
100
AcDbEntity
8
1
62
256
6
ByLayer
370
13
48
1
60
0
100
AcDbSpline
70
4
71
3
72
8
73
4
40
0
40
0
40
0
40
0
40
1
40
1
40
1
40
1
41
1
10
168.406253008737
20
8.49016316778341
30
0
41
1
10
169.437502005825
20
5.66053036817763
30
0
41
1
10
170.468751002912
20
2.83046243464682
30
0
41
1
10
171.5
20
0
30
0
0
SPLINE
5
122
100
AcDbEntity
8
1
62
256
6
ByLayer
370
13
48
1
60
0
100
AcDbSpline
70
4
71
3
72
8
73
4
40
0
40
0
40
0
40
0
40
1
40
1
40
1
40
1
41
1
10
168.406253008737
20
-8.38120864752983
30
0
41
1
10
169.437502005825
20
-5.5889327842641
30
0
41
1
10
170.468751002912
20
-2.79518319629963
30
0
41
1
10
171.5
20
-4.547E-13
30
0
0
SPLINE
5
123
100
AcDbEntity
8
1
62
256
6
ByLayer
370
13
48
1
60
0
100
AcDbSpline
70
4
71
3
72
8
73
4
40
0
40
0
40
0
40
0
40
1
40
1
40
1
40
1
41
1
10
168.406253008737
20
-8.09701826475026
30
0
41
1
10
169.437502005825
20
-5.400679165697
30
0
41
1
10
170.468751002912
20
-2.70166015674434
30
0
41
1
10
171.5
20
-4.547E-13
30
0
0
SPLINE
5
124
100
AcDbEntity
8
1
62
256
6
ByLayer
370
13
48
1
60
0
100
AcDbSpline
70
4
71
3
72
8
73
4
40
0
40
0
40
0
40
0
40
1
40
1
40
1
40
1
41
1
10
168.406253008737
20
-2.67714128651812
30
0
41
1
10
169.437502005825
20
-1.77644136132378
30
0
41
1
10
170.468751002913
20
-0.884056675151896
30
0
41
1
10
171.5
20
1.421E-13
30
0
0
SPLINE
5
125
100
AcDbEntity
8
1
62
256
6
ByLayer
370
13
48
1
60
0
100
AcDbSpline
70
4
71
3
72
8
73
4
40
0
40
0
40
0
40
0
40
1
40
1
40
1
40
1
41
1
10
168.406253008737
20
3.21957059705238
30
0
41
1
10
169.437502005825
20
2.15449288494929
30
0
41
1
10
170.468751002912
20
1.08129753709795
30
0
41
1
10
171.5
20
-5.68E-14
30
0
0
SPLINE
5
126
100
AcDbEntity
8
1
62
256
6
ByLayer
370
13
48
1
60
0
100
AcDbSpline
70
4
71
3
72
8
73
4
40
0
40
0
40
0
40
0
40
1
40
1
40
1
40
1
41
1
10
168.406253008738
20
1.32168138082662
30
0
41
1
10
169.437502005825
20
0.872461918840315
30
0
41
1
10
170.468751002912
20
0.431899364017767
30
0
41
1
10
171.5
20
8.53E-14
30
0
0
SPLINE
5
127
100
AcDbEntity
8
1
62
256
6
ByLayer
370
13
48
1
60
0
100
AcDbSpline
70
4
71
3
72
8
73
4
40
0
40
0
40
0
40
0
40
1
40
1
40
1
40
1
41
1
10
168.406253008738
20
2.49487881919782
30
0
41
1
10
169.437502005825
20
1.65487301631586
30
0
41
1
10
170.468751002912
20
0.823242776760281
30
0
41
1
10
171.5
20
1.421E-13
30
0
0
SPLINE
5
128
100
AcDbEntity
8
1
62
256
6
ByLayer
370
13
48
1
60
0
100
AcDbSpline
70
4
71
3
72
8
73
4
40
0
40
0
40
0
40
0
40
1
40
1
40
1
40
1
41
1
10
168.406253008737
20
-3.79021966693031
30
0
41
1
10
169.437502005825
20
-2.51896719468041
30
0
41
1
10
170.468751002912
20
-1.25555460535475
30
0
41
1
10
171.5
20
5.68E-14
30
0
0
SPLINE
5
129
100
AcDbEntity
8
1
62
256
6
ByLayer
370
13
48
1
60
0
100
AcDbSpline
70
4
71
3
72
8
73
4
40
0
40
0
40
0
40
0
40
1
40
1
40
1
40
1
41
1
10
168.406253008738
20
7.18349563314101
30
0
41
1
10
169.437502005825
20
4.78431115521963
30
0
41
1
10
170.468751002912
20
2.38980115912705
30
0
41
1
10
171.5
20
3.979E-13
30
0
0
SPLINE
5
12A
100
AcDbEntity
8
1
62
256
6
ByLayer
370
13
48
1
60
0
100
AcDbSpline
70
4
71
3
72
8
73
4
40
0
40
0
40
0
40
0
40
1
40
1
40
1
40
1
41
1
10
168.406253008738
20
-4.46280255144444
30
0
41
1
10
169.437502005825
20
-2.98266194419304
30
0
41
1
10
170.468751002912
20
-1.49505396270166
30
0
41
1
10
171.5
20
-2.558E-13
30
0
0
SPLINE
5
12B
100
AcDbEntity
8
1
62
256
6
ByLayer
370
13
48
1
60
0
100
AcDbSpline
70
4
71
3
72
8
73
4
40
0
40
0
40
0
40
0
40
1
40
1
40
1
40
1
41
1
10
168.406253008737
20
-7.65034565804376
30
0
41
1
10
169.437502005825
20
-5.10405054625082
30
0
41
1
10
170.468751002912
20
-2.55392311689749
30
0
41
1
10
171.5
20
1.421E-13
30
0
0
LINE
5
7D
100
AcDbEntity
8
4
62
256
6
ByLayer
370
18
48
0.05
60
0
100
AcDbLine
10
-5
20
0
30
0
11
176.5
21
0
31
0
39
0
210
0
220
0
230
1
0
LINE
5
7F
100
AcDbEntity
8
81
62
256
6
ByLayer
370
18
48
1
60
0
100
AcDbLine
10
171.5
20
0
30
0
11
176.5
21
0
31
0
39
0
210
0
220
0
230
1
0
LINE
5
80
100
AcDbEntity
8
SK4
62
256
6
ByLayer
370
18
48
0.05
60
0
100
AcDbLine
10
-55
20
0
30
0
11
176.5
21
0
31
0
39
0
210
0
220
0
230
1
0
LINE
5
82
100
AcDbEntity
8
80
62
256
6
ByLayer
370
18
48
1
60
0
100
AcDbLine
10
0
20
0
30
0
11
-5
21
0
31
0
39
0
210
0
220
0
230
1
0
LINE
5
83
100
AcDbEntity
8
1
62
256
6
ByLayer
370
18
48
1
60
0
100
AcDbLine
10
0
20
10
30
0
11
0
21
-10
31
0
39
0
210
0
220
0
230
1
0
LINE
5
84
100
AcDbEntity
8
1
62
256
6
ByLayer
370
18
48
1
60
0
100
AcDbLine
10
168.406253
20
8.5
30
0
11
168.406253
21
8.230103
31
0
39
0
210
0
220
0
230
1
0
LINE
5
85
100
AcDbEntity
8
1
62
256
6
ByLayer
370
18
48
1
60
0
100
AcDbLine
10
168.406253
20
-8.5
30
0
11
168.406253
21
-1.212862
31
0
39
0
210
0
220
0
230
1
0
LINE
5
86
100
AcDbEntity
8
1
62
256
6
ByLayer
370
18
48
1
60
0
100
AcDbLine
10
10
20
-8.061495
30
0
11
10
21
2.884176
31
0
39
0
210
0
220
0
230
1
0
LINE
5
87
100
AcDbEntity
8
SK1
62
256
6
ByLayer
370
13
48
1
60
0
100
AcDbLine
10
-14.992177
20
-6.1943
30
0
11
-14.992177
21
6.1943
31
0
39
0
210
0
220
0
230
1
0
LINE
5
89
100
AcDbEntity
8
SK1
62
256
6
ByLayer
370
13
48
1
60
0
100
AcDbLine
10
-42.24218
20
4.745825
30
0
11
-42.24218
21
-4.745825
31
0
39
0
210
0
220
0
230
1
0
LINE
5
8A
100
AcDbEntity
8
SK1
62
256
6
ByLayer
370
13
48
1
60
0
100
AcDbLine
10
-13.845141
20
5.608199
30
0
11
-13.845141
21
-5.608199
31
0
39
0
210
0
220
0
230
1
0
LINE
5
8B
100
AcDbEntity
8
SK1
62
256
6
ByLayer
370
18
48
1
60
0
100
AcDbLine
10
0
20
10
30
0
11
0
21
-10
31
0
39
0
210
0
220
0
230
1
0
LINE
5
8C
100
AcDbEntity
8
SK1
62
256
6
ByLayer
370
13
48
1
60
0
100
AcDbLine
10
-43.356507
20
-3.65035
30
0
11
-43.356507
21
3.65035
31
0
39
0
210
0
220
0
230
1
0
LINE
5
8D
100
AcDbEntity
8
SK1
62
256
6
ByLayer
370
18
48
1
60
0
100
AcDbLine
10
-50
20
-9
30
0
11
-50
21
9
31
0
39
0
210
0
220
0
230
1
0
LINE
5
8E
100
AcDbEntity
8
SK1
62
256
6
ByLayer
370
18
48
1
60
0
100
AcDbLine
10
-49
20
-10
30
0
11
-49
21
10
31
0
39
0
210
0
220
0
230
1
0
LINE
5
8F
100
AcDbEntity
8
1
62
256
6
ByLayer
370
18
48
1
60
0
100
AcDbLine
10
54.606597
20
8.1
30
0
11
16.139538
21
8.1
31
0
39
0
210
0
220
0
230
1
0
LINE
5
90
100
AcDbEntity
8
1
62
256
6
ByLayer
370
18
48
1
60
0
100
AcDbLine
10
89.544829
20
-8.1
30
0
11
127.973143
21
-8.1
31
0
39
0
210
0
220
0
230
1
0
LINE
5
91
100
AcDbEntity
8
1
62
256
6
ByLayer
370
18
48
1
60
0
100
AcDbLine
10
127.973143
20
8.1
30
0
11
89.544829
21
8.1
31
0
39
0
210
0
220
0
230
1
0
LINE
5
92
100
AcDbEntity
8
1
62
256
6
ByLayer
370
18
48
1
60
0
100
AcDbLine
10
16.139538
20
-8.1
30
0
11
54.606597
21
-8.1
31
0
39
0
210
0
220
0
230
1
0
LINE
5
93
100
AcDbEntity
8
1
62
256
6
ByLayer
370
18
48
1
60
0
100
AcDbLine
10
171.5
20
0
30
0
11
168.406253
21
8.5
31
0
39
0
210
0
220
0
230
1
0
LINE
5
94
100
AcDbEntity
8
1
62
256
6
ByLayer
370
18
48
1
60
0
100
AcDbLine
10
168.406253
20
-8.5
30
0
11
171.5
21
0
31
0
39
0
210
0
220
0
230
1
0
LINE
5
95
100
AcDbEntity
8
1
62
256
6
ByLayer
370
18
48
1
60
0
100
AcDbLine
10
6.936454
20
8.682074
30
0
11
0
21
10
31
0
39
0
210
0
220
0
230
1
0
LINE
5
96
100
AcDbEntity
8
1
62
256
6
ByLayer
370
18
48
1
60
0
100
AcDbLine
10
0
20
-10
30
0
11
6.936454
21
-8.682074
31
0
39
0
210
0
220
0
230
1
0
LINE
5
97
100
AcDbEntity
8
1
62
256
6
ByLayer
370
18
48
1
60
0
100
AcDbLine
10
171.5
20
0
30
0
11
168.406253
21
8.5
31
0
39
0
210
0
220
0
230
1
0
LINE
5
98
100
AcDbEntity
8
1
62
256
6
ByLayer
370
18
48
1
60
0
100
AcDbLine
10
168.406253
20
-8.5
30
0
11
171.5
21
0
31
0
39
0
210
0
220
0
230
1
0
LINE
5
99
100
AcDbEntity
8
1
62
256
6
ByLayer
370
18
48
1
60
0
100
AcDbLine
10
159.3
20
-8.5
30
0
11
168.406253
21
-8.5
31
0
39
0
210
0
220
0
230
1
0
LINE
5
9A
100
AcDbEntity
8
SK1
62
256
6
ByLayer
370
18
48
1
60
0
100
AcDbLine
10
-49
20
-10
30
0
11
0
21
-10
31
0
39
0
210
0
220
0
230
1
0
LINE
5
9B
100
AcDbEntity
8
SK1
62
256
6
ByLayer
370
18
48
1
60
0
100
AcDbLine
10
0
20
10
30
0
11
-49
21
10
31
0
39
0
210
0
220
0
230
1
0
LINE
5
9C
100
AcDbEntity
8
SK1
62
256
6
ByLayer
370
18
48
1
60
0
100
AcDbLine
10
-50
20
-9
30
0
11
-49
21
-10
31
0
39
0
210
0
220
0
230
1
0
LINE
5
9D
100
AcDbEntity
8
SK1
62
256
6
ByLayer
370
18
48
1
60
0
100
AcDbLine
10
-49
20
10
30
0
11
-50
21
9
31
0
39
0
210
0
220
0
230
1
0
LINE
5
9E
100
AcDbEntity
8
1
62
256
6
ByLayer
370
18
48
1
60
0
100
AcDbLine
10
168.406253
20
8.5
30
0
11
168.406253
21
-8.5
31
0
39
0
210
0
220
0
230
1
0
LINE
5
9F
100
AcDbEntity
8
1
62
256
6
ByLayer
370
18
48
1
60
0
100
AcDbLine
10
168.406253
20
8.5
30
0
11
168.406253
21
-8.5
31
0
39
0
210
0
220
0
230
1
0
LINE
5
A0
100
AcDbEntity
8
1
62
256
6
ByLayer
370
18
48
1
60
0
100
AcDbLine
10
168.406253
20
8.5
30
0
11
168.406253
21
-8.5
31
0
39
0
210
0
220
0
230
1
0
LINE
5
A1
100
AcDbEntity
8
1
62
256
6
ByLayer
370
18
48
1
60
0
100
AcDbLine
10
159.3
20
8.5
30
0
11
159.3
21
-8.5
31
0
39
0
210
0
220
0
230
1
0
LINE
5
A2
100
AcDbEntity
8
1
62
256
6
ByLayer
370
18
48
1
60
0
100
AcDbLine
10
159.3
20
8.5
30
0
11
159.3
21
-8.5
31
0
39
0
210
0
220
0
230
1
0
LINE
5
A3
100
AcDbEntity
8
1
62
256
6
ByLayer
370
18
48
1
60
0
100
AcDbLine
10
168.406253
20
8.5
30
0
11
168.406253
21
-8.5
31
0
39
0
210
0
220
0
230
1
0
LINE
5
A4
100
AcDbEntity
8
1
62
256
6
ByLayer
370
18
48
1
60
0
100
AcDbLine
10
159.3
20
8.5
30
0
11
159.3
21
-8.5
31
0
39
0
210
0
220
0
230
1
0
LINE
5
A5
100
AcDbEntity
8
1
62
256
6
ByLayer
370
18
48
1
60
0
100
AcDbLine
10
168.406253
20
8.5
30
0
11
168.406253
21
-8.5
31
0
39
0
210
0
220
0
230
1
0
LINE
5
A6
100
AcDbEntity
8
SK2
62
256
6
ByLayer
370
13
48
1
60
0
100
AcDbLine
10
-56.5
20
-10
30
0
11
-56.5
21
39.024569
31
0
39
0
210
0
220
0
230
1
0
LINE
5
A8
100
AcDbEntity
8
SK2
62
256
6
ByLayer
370
13
48
1
60
0
100
AcDbLine
10
-51.5875
20
10
30
0
11
-58.5
21
10
31
0
39
0
210
0
220
0
230
1
0
LINE
5
A9
100
AcDbEntity
8
SK2
62
256
6
ByLayer
370
13
48
1
60
0
100
AcDbLine
10
-51.5875
20
-10
30
0
11
-58.5
21
-10
31
0
39
0
210
0
220
0
230
1
0
LINE
5
AA
100
AcDbEntity
8
1
62
256
6
ByLayer
370
18
48
1
60
1
100
AcDbLine
10
-56.5
20
10
30
0
11
-56.039216
21
6.500002
31
0
39
0
210
0
220
0
230
1
0
LINE
5
AB
100
AcDbEntity
8
1
62
256
6
ByLayer
370
18
48
1
60
1
100
AcDbLine
10
-56.039216
20
6.500002
30
0
11
-56.960784
21
6.499998
31
0
39
0
210
0
220
0
230
1
0
LINE
5
AC
100
AcDbEntity
8
1
62
256
6
ByLayer
370
18
48
1
60
1
100
AcDbLine
10
-56.960784
20
6.499998
30
0
11
-56.5
21
10
31
0
39
0
210
0
220
0
230
1
0
LINE
5
AD
100
AcDbEntity
8
1
62
256
6
ByLayer
370
18
48
1
60
1
100
AcDbLine
10
-56.5
20
-10
30
0
11
-56.960784
21
-6.500002
31
0
39
0
210
0
220
0
230
1
0
LINE
5
AE
100
AcDbEntity
8
1
62
256
6
ByLayer
370
18
48
1
60
1
100
AcDbLine
10
-56.960784
20
-6.500002
30
0
11
-56.039216
21
-6.499998
31
0
39
0
210
0
220
0
230
1
0
LINE
5
AF
100
AcDbEntity
8
1
62
256
6
ByLayer
370
18
48
1
60
1
100
AcDbLine
10
-56.039216
20
-6.499998
30
0
11
-56.5
21
-10
31
0
39
0
210
0
220
0
230
1
0
LINE
5
B0
100
AcDbEntity
8
2
62
256
6
ByLayer
370
13
48
1
60
0
100
AcDbLine
10
179
20
-8.5
30
0
11
179
21
36.774683
31
0
39
0
210
0
220
0
230
1
0
LINE
5
B2
100
AcDbEntity
8
2
62
256
6
ByLayer
370
13
48
1
60
0
100
AcDbLine
10
169.993753
20
8.5
30
0
11
181
21
8.5
31
0
39
0
210
0
220
0
230
1
0
LINE
5
B3
100
AcDbEntity
8
2
62
256
6
ByLayer
370
13
48
1
60
0
100
AcDbLine
10
169.993753
20
-8.5
30
0
11
181
21
-8.5
31
0
39
0
210
0
220
0
230
1
0
LINE
5
B4
100
AcDbEntity
8
1
62
256
6
ByLayer
370
18
48
1
60
1
100
AcDbLine
10
179
20
8.5
30
0
11
179.460784
21
5.000002
31
0
39
0
210
0
220
0
230
1
0
LINE
5
B5
100
AcDbEntity
8
1
62
256
6
ByLayer
370
18
48
1
60
1
100
AcDbLine
10
179.460784
20
5.000002
30
0
11
178.539216
21
4.999998
31
0
39
0
210
0
220
0
230
1
0
LINE
5
B6
100
AcDbEntity
8
1
62
256
6
ByLayer
370
18
48
1
60
1
100
AcDbLine
10
178.539216
20
4.999998
30
0
11
179
21
8.5
31
0
39
0
210
0
220
0
230
1
0
LINE
5
B7
100
AcDbEntity
8
1
62
256
6
ByLayer
370
18
48
1
60
1
100
AcDbLine
10
179
20
-8.5
30
0
11
178.539216
21
-5.000002
31
0
39
0
210
0
220
0
230
1
0
LINE
5
B8
100
AcDbEntity
8
1
62
256
6
ByLayer
370
18
48
1
60
1
100
AcDbLine
10
178.539216
20
-5.000002
30
0
11
179.460784
21
-4.999998
31
0
39
0
210
0
220
0
230
1
0
LINE
5
B9
100
AcDbEntity
8
1
62
256
6
ByLayer
370
18
48
1
60
1
100
AcDbLine
10
179.460784
20
-4.999998
30
0
11
179
21
-8.5
31
0
39
0
210
0
220
0
230
1
0
LINE
5
BA
100
AcDbEntity
8
SK2
62
256
6
ByLayer
370
13
48
1
60
0
100
AcDbLine
10
172.042957
20
-1.491762
30
0
11
178.682423
21
-19.733545
31
0
39
0
210
0
220
0
230
1
0
LINE
5
BB
100
AcDbEntity
8
SK2
62
256
6
ByLayer
370
13
48
1
60
0
100
AcDbLine
10
172.042957
20
1.491762
30
0
11
178.682423
21
19.733545
31
0
39
0
210
0
220
0
230
1
0
LINE
5
BC
100
AcDbEntity
8
1
62
256
6
ByLayer
370
18
48
1
60
1
100
AcDbLine
10
177.998383
20
-17.85416
30
0
11
181.051575
21
-16.082064
31
0
39
0
210
0
220
0
230
1
0
LINE
5
BD
100
AcDbEntity
8
1
62
256
6
ByLayer
370
18
48
1
60
1
100
AcDbLine
10
181.051575
20
-16.082064
30
0
11
181.406196
21
-16.93267
31
0
39
0
210
0
220
0
230
1
0
LINE
5
BE
100
AcDbEntity
8
1
62
256
6
ByLayer
370
18
48
1
60
1
100
AcDbLine
10
181.406196
20
-16.93267
30
0
11
177.998383
21
-17.85416
31
0
39
0
210
0
220
0
230
1
0
LINE
5
BF
100
AcDbEntity
8
1
62
256
6
ByLayer
370
18
48
1
60
1
100
AcDbLine
10
177.998383
20
17.85416
30
0
11
181.406193
21
16.932671
31
0
39
0
210
0
220
0
230
1
0
LINE
5
C0
100
AcDbEntity
8
1
62
256
6
ByLayer
370
18
48
1
60
1
100
AcDbLine
10
181.406193
20
16.932671
30
0
11
181.051579
21
16.082063
31
0
39
0
210
0
220
0
230
1
0
LINE
5
C1
100
AcDbEntity
8
1
62
256
6
ByLayer
370
18
48
1
60
1
100
AcDbLine
10
181.051579
20
16.082063
30
0
11
177.998383
21
17.85416
31
0
39
0
210
0
220
0
230
1
0
LINE
5
130
100
AcDbEntity
8
1
62
256
6
ByLayer
370
18
48
1
60
1
100
AcDbLine
10
-56.5
20
10
30
0
11
-56.039216
21
6.500002
31
0
39
0
210
0
220
0
230
1
0
LINE
5
131
100
AcDbEntity
8
1
62
256
6
ByLayer
370
18
48
1
60
1
100
AcDbLine
10
-56.039216
20
6.500002
30
0
11
-56.960784
21
6.499998
31
0
39
0
210
0
220
0
230
1
0
LINE
5
132
100
AcDbEntity
8
1
62
256
6
ByLayer
370
18
48
1
60
1
100
AcDbLine
10
-56.960784
20
6.499998
30
0
11
-56.5
21
10
31
0
39
0
210
0
220
0
230
1
0
LINE
5
134
100
AcDbEntity
8
1
62
256
6
ByLayer
370
18
48
1
60
1
100
AcDbLine
10
-56.5
20
-10
30
0
11
-56.960784
21
-6.500002
31
0
39
0
210
0
220
0
230
1
0
LINE
5
135
100
AcDbEntity
8
1
62
256
6
ByLayer
370
18
48
1
60
1
100
AcDbLine
10
-56.960784
20
-6.500002
30
0
11
-56.039216
21
-6.499998
31
0
39
0
210
0
220
0
230
1
0
LINE
5
136
100
AcDbEntity
8
1
62
256
6
ByLayer
370
18
48
1
60
1
100
AcDbLine
10
-56.039216
20
-6.499998
30
0
11
-56.5
21
-10
31
0
39
0
210
0
220
0
230
1
0
LINE
5
13A
100
AcDbEntity
8
1
62
256
6
ByLayer
370
18
48
1
60
1
100
AcDbLine
10
179
20
8.5
30
0
11
179.460784
21
5.000002
31
0
39
0
210
0
220
0
230
1
0
LINE
5
13B
100
AcDbEntity
8
1
62
256
6
ByLayer
370
18
48
1
60
1
100
AcDbLine
10
179.460784
20
5.000002
30
0
11
178.539216
21
4.999998
31
0
39
0
210
0
220
0
230
1
0
LINE
5
13C
100
AcDbEntity
8
1
62
256
6
ByLayer
370
18
48
1
60
1
100
AcDbLine
10
178.539216
20
4.999998
30
0
11
179
21
8.5
31
0
39
0
210
0
220
0
230
1
0
LINE
5
13E
100
AcDbEntity
8
1
62
256
6
ByLayer
370
18
48
1
60
1
100
AcDbLine
10
179
20
-8.5
30
0
11
178.539216
21
-5.000002
31
0
39
0
210
0
220
0
230
1
0
LINE
5
13F
100
AcDbEntity
8
1
62
256
6
ByLayer
370
18
48
1
60
1
100
AcDbLine
10
178.539216
20
-5.000002
30
0
11
179.460784
21
-4.999998
31
0
39
0
210
0
220
0
230
1
0
LINE
5
140
100
AcDbEntity
8
1
62
256
6
ByLayer
370
18
48
1
60
1
100
AcDbLine
10
179.460784
20
-4.999998
30
0
11
179
21
-8.5
31
0
39
0
210
0
220
0
230
1
0
LINE
5
143
100
AcDbEntity
8
1
62
256
6
ByLayer
370
18
48
1
60
1
100
AcDbLine
10
177.998383
20
-17.85416
30
0
11
181.051575
21
-16.082064
31
0
39
0
210
0
220
0
230
1
0
LINE
5
144
100
AcDbEntity
8
1
62
256
6
ByLayer
370
18
48
1
60
1
100
AcDbLine
10
181.051575
20
-16.082064
30
0
11
181.406196
21
-16.93267
31
0
39
0
210
0
220
0
230
1
0
LINE
5
145
100
AcDbEntity
8
1
62
256
6
ByLayer
370
18
48
1
60
1
100
AcDbLine
10
181.406196
20
-16.93267
30
0
11
177.998383
21
-17.85416
31
0
39
0
210
0
220
0
230
1
0
LINE
5
147
100
AcDbEntity
8
1
62
256
6
ByLayer
370
18
48
1
60
1
100
AcDbLine
10
177.998383
20
17.85416
30
0
11
181.406193
21
16.932671
31
0
39
0
210
0
220
0
230
1
0
LINE
5
148
100
AcDbEntity
8
1
62
256
6
ByLayer
370
18
48
1
60
1
100
AcDbLine
10
181.406193
20
16.932671
30
0
11
181.051579
21
16.082063
31
0
39
0
210
0
220
0
230
1
0
LINE
5
149
100
AcDbEntity
8
1
62
256
6
ByLayer
370
18
48
1
60
1
100
AcDbLine
10
181.051579
20
16.082063
30
0
11
177.998383
21
17.85416
31
0
39
0
210
0
220
0
230
1
0
MTEXT
5
12C
100
AcDbEntity
8
SK2
62
256
6
ByLayer
370
18
48
1
60
0
100
AcDbMText
10
-57.841114
20
21.658438
30
0
210
0
220
0
230
1
1
%%c
40
3
41
0
44
1.084337
50
90
71
7
72
5
7
iso_b_vert
0
MTEXT
5
12F
100
AcDbEntity
8
SK2
62
256
6
ByLayer
370
18
48
1
60
0
100
AcDbMText
10
-57.841114
20
27.635
30
0
210
0
220
0
230
1
1
\W0.7513;20.000
40
3
41
0
44
1.084337
50
90
71
7
72
5
7
iso_b_vert
0
MTEXT
5
138
100
AcDbEntity
8
2
62
256
6
ByLayer
370
18
48
1
60
0
100
AcDbMText
10
177.658886
20
20.158438
30
0
210
0
220
0
230
1
1
%%c
40
3
41
0
44
1.084337
50
90
71
7
72
5
7
iso_b_vert
0
MTEXT
5
139
100
AcDbEntity
8
2
62
256
6
ByLayer
370
18
48
1
60
0
100
AcDbMText
10
177.658886
20
26.135
30
0
210
0
220
0
230
1
1
\W0.7022;17.000
40
3
41
0
44
1.084337
50
90
71
7
72
5
7
iso_b_vert
0
MTEXT
5
142
100
AcDbEntity
8
SK2
62
256
6
ByLayer
370
18
48
1
60
0
100
AcDbMText
10
191.409114
20
3.734657
30
0
210
0
220
0
230
1
1
\W0.7071;140%%d
40
3
41
0
44
1.084337
50
270
71
7
72
5
7
iso_b_vert
0
MTEXT
5
14B
100
AcDbEntity
8
SK6
62
256
6
ByLayer
370
18
48
1
60
0
100
AcDbMText
10
37.212746
20
-67.114886
30
0
210
0
220
0
230
1
1
\W0.7358;H85817.0
40
3
41
0
44
1.084337
50
0
71
7
72
5
7
iso_b_vert
0
HATCH
5
133
100
AcDbEntity
8
SK2
62
256
6
ByLayer
370
13
48
1
60
0
100
AcDbHatch
10
0
20
0
30
0
210
0
220
0
230
1
2
ANSI31
70
0
71
0
91
1
92
5
93
3
72
1
10
-56.5
20
10
11
-56.0392162584472
21
6.50000169255318
72
1
10
-56.0392162584472
20
6.50000169255318
11
-56.9607837415528
21
6.49999830744682
72
1
10
-56.9607837415528
20
6.49999830744682
11
-56.5
21
10
97
0
75
0
76
1
52
0
41
0.0062
77
0
78
1
53
45
43
0
44
0
45
-0.0139193969876572
46
0.0139193969876572
79
0
47
0
98
1
10
0
20
0
0
HATCH
5
137
100
AcDbEntity
8
SK2
62
256
6
ByLayer
370
13
48
1
60
0
100
AcDbHatch
10
0
20
0
30
0
210
0
220
0
230
1
2
ANSI31
70
0
71
0
91
1
92
5
93
3
72
1
10
-56.5
20
-10
11
-56.9607837415528
21
-6.50000169255318
72
1
10
-56.9607837415528
20
-6.50000169255318
11
-56.0392162584472
21
-6.49999830744682
72
1
10
-56.0392162584472
20
-6.49999830744682
11
-56.5
21
-10
97
0
75
0
76
1
52
0
41
0.0062
77
0
78
1
53
45
43
0
44
0
45
-0.0139193969876572
46
0.0139193969876572
79
0
47
0
98
1
10
0
20
0
0
HATCH
5
13D
100
AcDbEntity
8
2
62
256
6
ByLayer
370
13
48
1
60
0
100
AcDbHatch
10
0
20
0
30
0
210
0
220
0
230
1
2
ANSI31
70
0
71
0
91
1
92
5
93
3
72
1
10
179
20
8.5
11
179.460783741553
21
5.00000169255318
72
1
10
179.460783741553
20
5.00000169255318
11
178.539216258447
21
4.99999830744682
72
1
10
178.539216258447
20
4.99999830744682
11
179
21
8.5
97
0
75
0
76
1
52
0
41
0.0062
77
0
78
1
53
45
43
0
44
0
45
-0.0139193969876572
46
0.0139193969876572
79
0
47
0
98
1
10
0
20
0
0
HATCH
5
141
100
AcDbEntity
8
2
62
256
6
ByLayer
370
13
48
1
60
0
100
AcDbHatch
10
0
20
0
30
0
210
0
220
0
230
1
2
ANSI31
70
0
71
0
91
1
92
5
93
3
72
1
10
179
20
-8.5
11
178.539216258447
21
-5.00000169255318
72
1
10
178.539216258447
20
-5.00000169255318
11
179.460783741553
21
-4.99999830744682
72
1
10
179.460783741553
20
-4.99999830744682
11
179
21
-8.5
97
0
75
0
76
1
52
0
41
0.0062
77
0
78
1
53
45
43
0
44
0
45
-0.0139193969876572
46
0.0139193969876572
79
0
47
0
98
1
10
0
20
0
0
HATCH
5
146
100
AcDbEntity
8
SK2
62
256
6
ByLayer
370
13
48
1
60
0
100
AcDbHatch
10
0
20
0
30
0
210
0
220
0
230
1
2
ANSI31
70
0
71
0
91
1
92
5
93
3
72
1
10
177.998382723188
20
-17.8541597949323
11
181.051575425693
21
-16.0820638240608
72
1
10
181.051575425693
20
-16.0820638240608
11
181.406195833975
21
-16.9326700737196
72
1
10
181.406195833975
20
-16.9326700737196
11
177.998382723188
21
-17.8541597949323
97
0
75
0
76
1
52
0
41
0.0062
77
0
78
1
53
45
43
0
44
0
45
-0.0139193969876572
46
0.0139193969876572
79
0
47
0
98
1
10
0
20
0
0
HATCH
5
14A
100
AcDbEntity
8
SK2
62
256
6
ByLayer
370
13
48
1
60
0
100
AcDbHatch
10
0
20
0
30
0
210
0
220
0
230
1
2
ANSI31
70
0
71
0
91
1
92
5
93
3
72
1
10
177.998382723188
20
17.8541597949323
11
181.406192709519
21
16.9326713763016
72
1
10
181.406192709519
20
16.9326713763016
11
181.051578550149
21
16.0820625214788
72
1
10
181.051578550149
20
16.0820625214788
11
177.998382723188
21
17.8541597949323
97
0
75
0
76
1
52
0
41
0.0062
77
0
78
1
53
45
43
0
44
0
45
-0.0139193969876572
46
0.0139193969876572
79
0
47
0
98
1
10
0
20
0
0
DIMENSION
5
14E
100
AcDbEntity
8
SK2
62
256
6
ByLayer
370
18
48
1
60
0
100
AcDbDimension
2
_U0
10
171.5
20
-46.633367
30
0
11
60.75
21
-46.633367
31
0
70
32
71
1
72
1
41
1
210
0
220
0
230
1
3
Standard
100
AcDbAlignedDimension
13
-50
23
-10
33
0
14
171.5
24
0
34
0
50
0
100
AcDbRotatedDimension
1001
ACAD
1000
DSTYLE
1002
{
1070
   371
1070
    13
1070
   372
1070
    13
1070
     3
1000

1070
   170
1070
     0
1070
   144
1040
1.0
1070
   277
1070
     2
1070
   284
1070
     8
1070
   278
1070
    46
1070
   146
1040
1.166667
1070
   345
1005
16
1070
   347
1005
16
1070
   346
1005
16
1070
   344
1005
0
1070
   343
1005
0
1070
   172
1070
     1
1070
    76
1070
     0
1070
    75
1070
     0
1070
   282
1070
     0
1070
   281
1070
     0
1070
    71
1070
     0
1070
    74
1070
     0
1070
   279
1070
     0
1070
   173
1070
     1
1070
   340
1005
12D
1070
   271
1070
     2
1070
   272
1070
     3
1070
    77
1070
     1
1070
    73
1070
     1
1070
   171
1070
     3
1070
   274
1070
     4
1070
   177
1070
     2
1070
   176
1070
     2
1070
   178
1070
     2
1070
    78
1070
     8
1070
    48
1040
-0.1
1070
    41
1040
3.5
1070
   147
1040
1.5
1070
    42
1040
1.5875
1070
    44
1040
2.0
1070
   140
1040
3.0
1002
}
1001
ACAD_DSTYLE_DIM_LINETYPE
1070
   380
1005
16
1001
ACAD_DSTYLE_DIM_EXT1_LINETYPE
1070
   381
1005
16
1001
ACAD_DSTYLE_DIM_EXT2_LINETYPE
1070
   382
1005
16
0
DIMENSION
5
167
100
AcDbEntity
8
SK2
62
256
6
ByLayer
370
18
48
1
60
0
100
AcDbDimension
2
_U1
10
3
20
-36.633367
30
0
11
87.25
21
-36.633367
31
0
70
32
71
1
72
1
41
1
210
0
220
0
230
1
3
Standard
100
AcDbAlignedDimension
13
171.5
23
0
33
0
14
3
24
-8.5
34
0
50
0
100
AcDbRotatedDimension
1001
ACAD
1000
DSTYLE
1002
{
1070
   371
1070
    13
1070
   372
1070
    13
1070
     3
1000

1070
   170
1070
     0
1070
   144
1040
1.0
1070
   277
1070
     2
1070
   284
1070
     8
1070
   278
1070
    46
1070
   146
1040
1.166667
1070
   345
1005
16
1070
   347
1005
16
1070
   346
1005
16
1070
   344
1005
0
1070
   343
1005
0
1070
   172
1070
     1
1070
    76
1070
     0
1070
    75
1070
     0
1070
   282
1070
     0
1070
   281
1070
     0
1070
    71
1070
     0
1070
    74
1070
     0
1070
   279
1070
     0
1070
   173
1070
     1
1070
   340
1005
12D
1070
   271
1070
     2
1070
   272
1070
     3
1070
    77
1070
     1
1070
    73
1070
     1
1070
   171
1070
     3
1070
   274
1070
     4
1070
   177
1070
     2
1070
   176
1070
     2
1070
   178
1070
     2
1070
    78
1070
     8
1070
    48
1040
-0.1
1070
    41
1040
3.5
1070
   147
1040
1.5
1070
    42
1040
1.5875
1070
    44
1040
2.0
1070
   140
1040
3.0
1002
}
1001
ACAD_DSTYLE_DIM_LINETYPE
1070
   380
1005
16
1001
ACAD_DSTYLE_DIM_EXT1_LINETYPE
1070
   381
1005
16
1001
ACAD_DSTYLE_DIM_EXT2_LINETYPE
1070
   382
1005
16
0
DIMENSION
5
17F
100
AcDbEntity
8
SK2
62
256
6
ByLayer
370
18
48
1
60
0
100
AcDbDimension
2
_U2
10
0
20
-36.633367
30
0
11
-25
21
-36.633367
31
0
70
32
71
1
72
1
41
1
210
0
220
0
230
1
3
Standard
100
AcDbAlignedDimension
13
-50
23
-10
33
0
14
0
24
-10
34
0
50
0
100
AcDbRotatedDimension
1001
ACAD
1000
DSTYLE
1002
{
1070
   371
1070
    13
1070
   372
1070
    13
1070
     3
1000

1070
   170
1070
     0
1070
   144
1040
1.0
1070
   277
1070
     2
1070
   284
1070
     8
1070
   278
1070
    46
1070
   146
1040
1.166667
1070
   345
1005
16
1070
   347
1005
16
1070
   346
1005
16
1070
   344
1005
0
1070
   343
1005
0
1070
   172
1070
     1
1070
    76
1070
     0
1070
    75
1070
     0
1070
   282
1070
     0
1070
   281
1070
     0
1070
    71
1070
     0
1070
    74
1070
     0
1070
   279
1070
     0
1070
   173
1070
     1
1070
   340
1005
12D
1070
   271
1070
     2
1070
   272
1070
     3
1070
    77
1070
     1
1070
    73
1070
     1
1070
   171
1070
     3
1070
   274
1070
     4
1070
   177
1070
     2
1070
   176
1070
     2
1070
   178
1070
     2
1070
    78
1070
     8
1070
    48
1040
-0.1
1070
    41
1040
3.5
1070
   147
1040
1.5
1070
    42
1040
1.5875
1070
    44
1040
2.0
1070
   140
1040
3.0
1002
}
1001
ACAD_DSTYLE_DIM_LINETYPE
1070
   380
1005
16
1001
ACAD_DSTYLE_DIM_EXT1_LINETYPE
1070
   381
1005
16
1001
ACAD_DSTYLE_DIM_EXT2_LINETYPE
1070
   382
1005
16
0
DIMENSION
5
197
100
AcDbEntity
8
SK2
62
256
6
ByLayer
370
18
48
1
60
0
100
AcDbDimension
2
_U3
10
21
20
33.633367
30
0
11
96.25
21
33.633367
31
0
70
32
71
1
72
1
41
1
210
0
220
0
230
1
3
Standard
100
AcDbAlignedDimension
13
171.5
23
0
33
0
14
21
24
8.5
34
0
50
0
100
AcDbRotatedDimension
1001
ACAD
1000
DSTYLE
1002
{
1070
   371
1070
    13
1070
   372
1070
    13
1070
     3
1000

1070
   170
1070
     0
1070
   144
1040
1.0
1070
   277
1070
     2
1070
   284
1070
     8
1070
   278
1070
    46
1070
   146
1040
1.166667
1070
   345
1005
16
1070
   347
1005
16
1070
   346
1005
16
1070
   344
1005
0
1070
   343
1005
0
1070
   172
1070
     1
1070
    76
1070
     0
1070
    75
1070
     0
1070
   282
1070
     0
1070
   281
1070
     0
1070
    71
1070
     0
1070
    74
1070
     0
1070
   279
1070
     0
1070
   173
1070
     1
1070
   340
1005
12D
1070
   271
1070
     2
1070
   272
1070
     3
1070
    77
1070
     1
1070
    73
1070
     1
1070
   171
1070
     3
1070
   274
1070
     4
1070
   177
1070
     2
1070
   176
1070
     2
1070
   178
1070
     2
1070
    78
1070
     8
1070
    48
1040
-0.1
1070
    41
1040
3.5
1070
   147
1040
1.5
1070
    42
1040
1.5875
1070
    44
1040
2.0
1070
   140
1040
3.0
1002
}
1001
ACAD_DSTYLE_DIM_LINETYPE
1070
   380
1005
16
1001
ACAD_DSTYLE_DIM_EXT1_LINETYPE
1070
   381
1005
16
1001
ACAD_DSTYLE_DIM_EXT2_LINETYPE
1070
   382
1005
16
0
ENDSEC
0
SECTION
2
OBJECTS
0
DICTIONARY
5
21f
330
0
100
AcDbDictionary
280
0
281
1
3
ACAD_GROUP
350
220
3
ACAD_MLINESTYLE
350
221
0
DICTIONARY
5
220
330
0
100
AcDbDictionary
280
0
281
1
0
DICTIONARY
5
221
330
0
100
AcDbDictionary
280
0
281
1
3
Standard
350
18
0
MLINESTYLE
5
18
330
221
100
AcDbMlineStyle
2
Standard
70
0
3

62
256
51
90
52
90
71
2
49
-0.5
62
256
6
ByLayer
49
0.5
62
256
6
ByLayer
0
RASTERVARIABLES
5
20d
330

100
AcDbRasterVariables
90
0
70
1
71
1
72
1
0
ENDSEC
0
EOF
