0
SECTION
2
HEADER
9
$ACADVER
1
AC1015
9
$DWGCODEPAGE
3
ANSI_1252
9
$HANDSEED
5
227
9
$ANGBASE
50
0
9
$ANGDIR
70
0
9
$ATTMODE
70
1
9
$AUNITS
70
0
9
$AUPREC
70
0
9
$CECOLOR
62
256
9
$CELTSCALE
40
1
9
$CELTYPE
6
ByLayer
9
$CELWEIGHT
370
18
9
$CLAYER
8
0
9
$CMLJUST
70
0
9
$CMLSCALE
40
1
9
$CMLSTYLE
2
Standard
9
$DIMSTYLE
2
Standard
9
$TEXTSIZE
40
0.2
9
$TEXTSTYLE
7
Standard
9
$LUNITS
70
2
9
$LUPREC
70
4
9
$EXTNAMES
290
1
9
$INSUNITS
70
4
9
$LTSCALE
40
1
9
$LWDISPLAY
290
1
9
$PDMODE
70
0
9
$PDSIZE
40
0
9
$PLINEGEN
70
0
0
ENDSEC
0
SECTION
2
CLASSES
0
CLASS
1
RASTERVARIABLES
2
AcDbRasterVariables
3
ISM
90
0
280
0
281
0
0
ENDSEC
0
SECTION
2
TABLES
0
TABLE
2
VPORT
5
21d
100
AcDbSymbolTable
0
VPORT
5
1
100
AcDbSymbolTableRecord
100
AcDbViewportTableRecord
2
*Active
70
0
10
0
20
0
11
1
21
1
12
-1
22
1
13
0
23
0
14
0.5
24
0.5
15
10
25
10
16
0
26
0
36
1
17
0
27
0
37
0
0
ENDTAB
0
TABLE
2
LTYPE
5
21e
100
AcDbSymbolTable
0
LTYPE
5
14
100
AcDbSymbolTableRecord
100
AcDbLinetypeTableRecord
70
0
2
ByBlock
3

72
65
73
0
40
0
0
LTYPE
5
15
100
AcDbSymbolTableRecord
100
AcDbLinetypeTableRecord
70
0
2
ByLayer
3

72
65
73
0
40
0
0
LTYPE
5
16
100
AcDbSymbolTableRecord
100
AcDbLinetypeTableRecord
70
0
2
Continuous
3
Solid line
72
65
73
0
40
0
0
LTYPE
5
6E
100
AcDbSymbolTableRecord
100
AcDbLinetypeTableRecord
70
0
2
CENTER
3
____ _ ____ _ ____ _ ____
72
65
73
4
40
47.5
49
22
74
0
49
-8.5
74
0
49
8.5
74
0
49
-8.5
74
0
0
LTYPE
5
6F
100
AcDbSymbolTableRecord
100
AcDbLinetypeTableRecord
70
0
2
DASHED
3
__ __ __ __ __ __ __ __ __
72
65
73
2
40
25.72
49
12.86
74
0
49
-12.86
74
0
0
ENDTAB
0
TABLE
2
LAYER
5
21f
100
AcDbSymbolTable
0
LAYER
5
10
100
AcDbSymbolTableRecord
100
AcDbLayerTableRecord
2
0
70
0
62
7
6
Continuous
290
1
370
-3
390
0
0
LAYER
5
71
100
AcDbSymbolTableRecord
100
AcDbLayerTableRecord
2
81
70
0
62
-3
6
Continuous
290
1
370
-3
390
0
0
LAYER
5
73
100
AcDbSymbolTableRecord
100
AcDbLayerTableRecord
2
80
70
0
62
-6
6
Continuous
290
1
370
-3
390
0
0
LAYER
5
75
100
AcDbSymbolTableRecord
100
AcDbLayerTableRecord
2
1
70
0
62
4
6
Continuous
290
1
370
-3
390
0
0
LAYER
5
7F
100
AcDbSymbolTableRecord
100
AcDbLayerTableRecord
2
4
70
0
62
-2
6
CENTER
290
1
370
-3
390
0
0
LAYER
5
B1
100
AcDbSymbolTableRecord
100
AcDbLayerTableRecord
2
2
70
0
62
7
6
Continuous
290
1
370
-3
390
0
0
LAYER
5
14C
100
AcDbSymbolTableRecord
100
AcDbLayerTableRecord
2
Defpoints
70
0
62
7
6
Continuous
290
0
370
-3
390
0
0
LAYER
5
209
100
AcDbSymbolTableRecord
100
AcDbLayerTableRecord
2
SK4
70
0
62
2
6
CENTER
290
1
370
-3
390
0
0
LAYER
5
20a
100
AcDbSymbolTableRecord
100
AcDbLayerTableRecord
2
SK1
70
0
62
4
6
Continuous
290
1
370
-3
390
0
0
LAYER
5
20b
100
AcDbSymbolTableRecord
100
AcDbLayerTableRecord
2
SK2
70
0
62
7
6
Continuous
290
1
370
-3
390
0
0
LAYER
5
20c
100
AcDbSymbolTableRecord
100
AcDbLayerTableRecord
2
SK6
70
0
62
5
6
Continuous
290
1
370
-3
390
0
0
ENDTAB
0
TABLE
2
STYLE
5
220
100
AcDbSymbolTable
0
STYLE
5
11
100
AcDbSymbolTableRecord
100
AcDbTextStyleTableRecord
2
Standard
3
txt
70
0
71
0
40
0
41
1
42
0
50
0
0
STYLE
5
128
100
AcDbSymbolTableRecord
100
AcDbTextStyleTableRecord
2
iso_b_vert
3
simplex.shx
70
0
71
0
40
0
41
1
42
0
50
0
0
STYLE
5
129
100
AcDbSymbolTableRecord
100
AcDbTextStyleTableRecord
2
DWGDirectTextStyle
3
simplex
70
0
71
0
40
0
41
1
42
0
50
0
0
ENDTAB
0
TABLE
2
DIMSTYLE
5
221
100
AcDbSymbolTable
100
AcDbDimStyleTable
0
DIMSTYLE
105
27
100
AcDbSymbolTableRecord
100
AcDbDimStyleTableRecord
2
Standard
70
0
3
<>
41
0.18
42
0.0625
44
0.18
140
0.18
147
0.09
73
0
74
0
77
1
271
2
275
0
278
52
280
0
340
11
0
ENDTAB
0
TABLE
2
VIEW
5
222
100
AcDbSymbolTable
0
ENDTAB
0
TABLE
2
UCS
5
223
100
AcDbSymbolTable
0
ENDTAB
0
TABLE
2
APPID
5
224
100
AcDbSymbolTable
0
APPID
5
12
100
AcDbSymbolTableRecord
100
AcDbRegAppTableRecord
2
ACAD
70
0
0
APPID
5
148
100
AcDbSymbolTableRecord
100
AcDbRegAppTableRecord
2
ACAD_DSTYLE_DIMBREAK
70
0
0
APPID
5
1C8
100
AcDbSymbolTableRecord
100
AcDbRegAppTableRecord
2
ACAD_DSTYLE_DIM_LINETYPE
70
0
0
APPID
5
1C9
100
AcDbSymbolTableRecord
100
AcDbRegAppTableRecord
2
ACAD_DSTYLE_DIM_EXT1_LINETYPE
70
0
0
APPID
5
1CA
100
AcDbSymbolTableRecord
100
AcDbRegAppTableRecord
2
ACAD_DSTYLE_DIM_EXT2_LINETYPE
70
0
0
APPID
5
205
100
AcDbSymbolTableRecord
100
AcDbRegAppTableRecord
2
ACAD_MLEADERVER
70
0
0
ENDTAB
0
TABLE
2
BLOCK_RECORD
5
225
100
AcDbSymbolTable
0
BLOCK_RECORD
5
1F
100
AcDbSymbolTableRecord
100
AcDbBlockTableRecord
2
*Model_Space
340
0
70
0
0
BLOCK_RECORD
5
1B
100
AcDbSymbolTableRecord
100
AcDbBlockTableRecord
2
*Paper_Space
340
0
70
0
0
BLOCK_RECORD
5
23
100
AcDbSymbolTableRecord
100
AcDbBlockTableRecord
2
*Paper_Space0
340
0
70
0
0
BLOCK_RECORD
5
14D
100
AcDbSymbolTableRecord
100
AcDbBlockTableRecord
2
*D1
340
0
70
0
0
BLOCK_RECORD
5
159
100
AcDbSymbolTableRecord
100
AcDbBlockTableRecord
2
_U0
340
0
70
0
0
BLOCK_RECORD
5
165
100
AcDbSymbolTableRecord
100
AcDbBlockTableRecord
2
*D3
340
0
70
0
0
BLOCK_RECORD
5
171
100
AcDbSymbolTableRecord
100
AcDbBlockTableRecord
2
_U1
340
0
70
0
0
BLOCK_RECORD
5
17D
100
AcDbSymbolTableRecord
100
AcDbBlockTableRecord
2
*D5
340
0
70
0
0
BLOCK_RECORD
5
189
100
AcDbSymbolTableRecord
100
AcDbBlockTableRecord
2
_U2
340
0
70
0
0
BLOCK_RECORD
5
195
100
AcDbSymbolTableRecord
100
AcDbBlockTableRecord
2
*D7
340
0
70
0
0
BLOCK_RECORD
5
1A1
100
AcDbSymbolTableRecord
100
AcDbBlockTableRecord
2
_U3
340
0
70
0
0
ENDTAB
0
ENDSEC
0
SECTION
2
BLOCKS
0
BLOCK
5
20
100
AcDbEntity
8
0
100
AcDbBlockBegin
2
*Model_Space
70
0
10
0
20
0
30
0
3
*Model_Space
0
ENDBLK
5
21
100
AcDbEntity
8
0
100
AcDbBlockEnd
0
BLOCK
5
1C
100
AcDbEntity
8
0
100
AcDbBlockBegin
2
*Paper_Space
70
0
10
0
20
0
30
0
3
*Paper_Space
0
ENDBLK
5
1D
100
AcDbEntity
8
0
100
AcDbBlockEnd
0
BLOCK
5
24
100
AcDbEntity
8
0
100
AcDbBlockBegin
2
*Paper_Space0
70
0
10
0
20
0
30
0
3
*Paper_Space0
0
ENDBLK
5
25
100
AcDbEntity
8
0
100
AcDbBlockEnd
0
BLOCK
5
14E
100
AcDbEntity
8
0
100
AcDbBlockBegin
2
*D1
70
1
10
0
20
0
30
0
3
*D1
0
LINE
5
150
100
AcDbEntity
8
0
62
256
6
ByLayer
370
-2
48
1
60
0
100
AcDbLine
10
-50
20
-11.5875
30
0
11
-50
21
-48.681137
31
0
39
0
210
0
220
0
230
1
0
LINE
5
151
100
AcDbEntity
8
0
62
256
6
ByLayer
370
-2
48
1
60
0
100
AcDbLine
10
161.5
20
-1.5875
30
0
11
161.5
21
-48.681137
31
0
39
0
210
0
220
0
230
1
0
LINE
5
152
100
AcDbEntity
8
0
62
256
6
ByLayer
370
-2
48
1
60
0
100
AcDbLine
10
-46.5
20
-46.681137
30
0
11
158
21
-46.681137
31
0
39
0
210
0
220
0
230
1
0
SOLID
5
153
100
AcDbEntity
8
0
62
256
6
ByLayer
370
-1
48
1
60
0
100
AcDbTrace
10
-46.5
20
-46.097804
30
0
11
-46.5
21
-47.264471
31
0
12
-50
22
-46.681137
32
0
13
-50
23
-46.681137
33
0
39
0
210
0
220
0
230
1
0
SOLID
5
154
100
AcDbEntity
8
0
62
256
6
ByLayer
370
-1
48
1
60
0
100
AcDbTrace
10
158
20
-47.264471
30
0
11
158
21
-46.097804
31
0
12
161.5
22
-46.681137
32
0
13
161.5
23
-46.681137
33
0
39
0
210
0
220
0
230
1
0
MTEXT
5
155
100
AcDbEntity
8
0
62
256
6
ByLayer
370
18
48
1
60
0
100
AcDbMText
10
55.75
20
-40.681137
30
0
210
0
220
0
230
1
1
\A1;211.5
40
3
41
0
44
1
50
0
71
5
72
5
7
iso_b_vert
0
POINT
5
156
100
AcDbEntity
8
Defpoints
62
0
6
ByLayer
370
-1
48
1
60
0
100
AcDbPoint
10
-50
20
-10
30
0
39
0
210
0
220
0
230
1
50
360
0
POINT
5
157
100
AcDbEntity
8
Defpoints
62
0
6
ByLayer
370
-1
48
1
60
0
100
AcDbPoint
10
161.5
20
0
30
0
39
0
210
0
220
0
230
1
50
360
0
POINT
5
158
100
AcDbEntity
8
Defpoints
62
0
6
ByLayer
370
-1
48
1
60
0
100
AcDbPoint
10
161.5
20
-46.681137
30
0
39
0
210
0
220
0
230
1
50
360
0
ENDBLK
5
14F
100
AcDbEntity
8
0
100
AcDbBlockEnd
0
BLOCK
5
160
100
AcDbEntity
8
0
100
AcDbBlockBegin
2
_U0
70
0
10
0
20
0
30
0
3
_U0
0
MTEXT
5
15A
100
AcDbEntity
8
SK2
62
256
6
ByLayer
370
18
48
1
60
0
100
AcDbMText
10
50.896601
20
-45.796023
30
0
210
0
220
0
230
1
1
\W0.6532;211.50
40
3
41
0
44
1.084337
50
0
71
7
72
5
7
iso_b_vert
0
LINE
5
15B
100
AcDbEntity
8
SK2
62
256
6
ByLayer
370
13
48
1
60
0
100
AcDbLine
10
-50
20
-11.5875
30
0
11
-50
21
-48.681137
31
0
39
0
210
0
220
0
230
1
0
LINE
5
15C
100
AcDbEntity
8
SK2
62
256
6
ByLayer
370
13
48
1
60
0
100
AcDbLine
10
161.5
20
-1.5875
30
0
11
161.5
21
-48.681137
31
0
39
0
210
0
220
0
230
1
0
LINE
5
15D
100
AcDbEntity
8
SK2
62
256
6
ByLayer
370
13
48
1
60
0
100
AcDbLine
10
-50
20
-46.681137
30
0
11
161.5
21
-46.681137
31
0
39
0
210
0
220
0
230
1
0
SOLID
5
15E
100
AcDbEntity
8
SK2
62
256
6
ByLayer
370
18
48
1
60
0
100
AcDbTrace
10
-50
20
-46.681137
30
0
11
-46.500002
21
-46.220354
31
0
12
-46.499998
22
-47.141921
32
0
13
-46.499998
23
-47.141921
33
0
39
0
210
0
220
0
230
1
0
SOLID
5
15F
100
AcDbEntity
8
SK2
62
256
6
ByLayer
370
18
48
1
60
0
100
AcDbTrace
10
161.5
20
-46.681137
30
0
11
158.000002
21
-47.141921
31
0
12
157.999998
22
-46.220354
32
0
13
157.999998
23
-46.220354
33
0
39
0
210
0
220
0
230
1
0
ENDBLK
5
161
100
AcDbEntity
8
0
100
AcDbBlockEnd
0
BLOCK
5
166
100
AcDbEntity
8
0
100
AcDbBlockBegin
2
*D3
70
1
10
0
20
0
30
0
3
*D3
0
LINE
5
168
100
AcDbEntity
8
0
62
256
6
ByLayer
370
-2
48
1
60
0
100
AcDbLine
10
161.5
20
-1.5875
30
0
11
161.5
21
-38.681137
31
0
39
0
210
0
220
0
230
1
0
LINE
5
169
100
AcDbEntity
8
0
62
256
6
ByLayer
370
-2
48
1
60
0
100
AcDbLine
10
3
20
-9.5875
30
0
11
3
21
-38.681137
31
0
39
0
210
0
220
0
230
1
0
LINE
5
16A
100
AcDbEntity
8
0
62
256
6
ByLayer
370
-2
48
1
60
0
100
AcDbLine
10
158
20
-36.681137
30
0
11
6.5
21
-36.681137
31
0
39
0
210
0
220
0
230
1
0
SOLID
5
16B
100
AcDbEntity
8
0
62
256
6
ByLayer
370
-1
48
1
60
0
100
AcDbTrace
10
158
20
-37.264471
30
0
11
158
21
-36.097804
31
0
12
161.5
22
-36.681137
32
0
13
161.5
23
-36.681137
33
0
39
0
210
0
220
0
230
1
0
SOLID
5
16C
100
AcDbEntity
8
0
62
256
6
ByLayer
370
-1
48
1
60
0
100
AcDbTrace
10
6.5
20
-36.097804
30
0
11
6.5
21
-37.264471
31
0
12
3
22
-36.681137
32
0
13
3
23
-36.681137
33
0
39
0
210
0
220
0
230
1
0
MTEXT
5
16D
100
AcDbEntity
8
0
62
256
6
ByLayer
370
18
48
1
60
0
100
AcDbMText
10
82.25
20
-30.681137
30
0
210
0
220
0
230
1
1
\A1;158.5
40
3
41
0
44
1
50
0
71
5
72
5
7
iso_b_vert
0
POINT
5
16E
100
AcDbEntity
8
Defpoints
62
0
6
ByLayer
370
-1
48
1
60
0
100
AcDbPoint
10
161.5
20
0
30
0
39
0
210
0
220
0
230
1
50
360
0
POINT
5
16F
100
AcDbEntity
8
Defpoints
62
0
6
ByLayer
370
-1
48
1
60
0
100
AcDbPoint
10
3
20
-8
30
0
39
0
210
0
220
0
230
1
50
360
0
POINT
5
170
100
AcDbEntity
8
Defpoints
62
0
6
ByLayer
370
-1
48
1
60
0
100
AcDbPoint
10
3
20
-36.681137
30
0
39
0
210
0
220
0
230
1
50
360
0
ENDBLK
5
167
100
AcDbEntity
8
0
100
AcDbBlockEnd
0
BLOCK
5
178
100
AcDbEntity
8
0
100
AcDbBlockBegin
2
_U1
70
0
10
0
20
0
30
0
3
_U1
0
MTEXT
5
172
100
AcDbEntity
8
SK2
62
256
6
ByLayer
370
18
48
1
60
0
100
AcDbMText
10
77.021658
20
-35.796023
30
0
210
0
220
0
230
1
1
\W0.7022;158.50
40
3
41
0
44
1.084337
50
0
71
7
72
5
7
iso_b_vert
0
LINE
5
173
100
AcDbEntity
8
SK2
62
256
6
ByLayer
370
13
48
1
60
0
100
AcDbLine
10
161.5
20
-1.5875
30
0
11
161.5
21
-38.681137
31
0
39
0
210
0
220
0
230
1
0
LINE
5
174
100
AcDbEntity
8
SK2
62
256
6
ByLayer
370
13
48
1
60
0
100
AcDbLine
10
3
20
-9.5875
30
0
11
3
21
-38.681137
31
0
39
0
210
0
220
0
230
1
0
LINE
5
175
100
AcDbEntity
8
SK2
62
256
6
ByLayer
370
13
48
1
60
0
100
AcDbLine
10
161.5
20
-36.681137
30
0
11
3
21
-36.681137
31
0
39
0
210
0
220
0
230
1
0
SOLID
5
176
100
AcDbEntity
8
SK2
62
256
6
ByLayer
370
18
48
1
60
0
100
AcDbTrace
10
161.5
20
-36.681137
30
0
11
158.000002
21
-37.141921
31
0
12
157.999998
22
-36.220354
32
0
13
157.999998
23
-36.220354
33
0
39
0
210
0
220
0
230
1
0
SOLID
5
177
100
AcDbEntity
8
SK2
62
256
6
ByLayer
370
18
48
1
60
0
100
AcDbTrace
10
3
20
-36.681137
30
0
11
6.499998
21
-36.220354
31
0
12
6.500002
22
-37.141921
32
0
13
6.500002
23
-37.141921
33
0
39
0
210
0
220
0
230
1
0
ENDBLK
5
179
100
AcDbEntity
8
0
100
AcDbBlockEnd
0
BLOCK
5
17E
100
AcDbEntity
8
0
100
AcDbBlockBegin
2
*D5
70
1
10
0
20
0
30
0
3
*D5
0
LINE
5
180
100
AcDbEntity
8
0
62
256
6
ByLayer
370
-2
48
1
60
0
100
AcDbLine
10
-50
20
-11.5875
30
0
11
-50
21
-38.681137
31
0
39
0
210
0
220
0
230
1
0
LINE
5
181
100
AcDbEntity
8
0
62
256
6
ByLayer
370
-2
48
1
60
0
100
AcDbLine
10
0
20
-11.5875
30
0
11
0
21
-38.681137
31
0
39
0
210
0
220
0
230
1
0
LINE
5
182
100
AcDbEntity
8
0
62
256
6
ByLayer
370
-2
48
1
60
0
100
AcDbLine
10
-46.5
20
-36.681137
30
0
11
-3.5
21
-36.681137
31
0
39
0
210
0
220
0
230
1
0
SOLID
5
183
100
AcDbEntity
8
0
62
256
6
ByLayer
370
-1
48
1
60
0
100
AcDbTrace
10
-46.5
20
-36.097804
30
0
11
-46.5
21
-37.264471
31
0
12
-50
22
-36.681137
32
0
13
-50
23
-36.681137
33
0
39
0
210
0
220
0
230
1
0
SOLID
5
184
100
AcDbEntity
8
0
62
256
6
ByLayer
370
-1
48
1
60
0
100
AcDbTrace
10
-3.5
20
-37.264471
30
0
11
-3.5
21
-36.097804
31
0
12
0
22
-36.681137
32
0
13
0
23
-36.681137
33
0
39
0
210
0
220
0
230
1
0
MTEXT
5
185
100
AcDbEntity
8
0
62
256
6
ByLayer
370
18
48
1
60
0
100
AcDbMText
10
-25
20
-30.681137
30
0
210
0
220
0
230
1
1
\A1;50
40
3
41
0
44
1
50
0
71
5
72
5
7
iso_b_vert
0
POINT
5
186
100
AcDbEntity
8
Defpoints
62
0
6
ByLayer
370
-1
48
1
60
0
100
AcDbPoint
10
-50
20
-10
30
0
39
0
210
0
220
0
230
1
50
360
0
POINT
5
187
100
AcDbEntity
8
Defpoints
62
0
6
ByLayer
370
-1
48
1
60
0
100
AcDbPoint
10
0
20
-10
30
0
39
0
210
0
220
0
230
1
50
360
0
POINT
5
188
100
AcDbEntity
8
Defpoints
62
0
6
ByLayer
370
-1
48
1
60
0
100
AcDbPoint
10
0
20
-36.681137
30
0
39
0
210
0
220
0
230
1
50
360
0
ENDBLK
5
17F
100
AcDbEntity
8
0
100
AcDbBlockEnd
0
BLOCK
5
190
100
AcDbEntity
8
0
100
AcDbBlockBegin
2
_U2
70
0
10
0
20
0
30
0
3
_U2
0
MTEXT
5
18A
100
AcDbEntity
8
SK2
62
256
6
ByLayer
370
18
48
1
60
0
100
AcDbMText
10
-29.48237
20
-35.796023
30
0
210
0
220
0
230
1
1
\W0.7468;50.00
40
3
41
0
44
1.084337
50
0
71
7
72
5
7
iso_b_vert
0
LINE
5
18B
100
AcDbEntity
8
SK2
62
256
6
ByLayer
370
13
48
1
60
0
100
AcDbLine
10
-50
20
-11.5875
30
0
11
-50
21
-38.681137
31
0
39
0
210
0
220
0
230
1
0
LINE
5
18C
100
AcDbEntity
8
SK2
62
256
6
ByLayer
370
13
48
1
60
0
100
AcDbLine
10
0
20
-11.5875
30
0
11
0
21
-38.681137
31
0
39
0
210
0
220
0
230
1
0
LINE
5
18D
100
AcDbEntity
8
SK2
62
256
6
ByLayer
370
13
48
1
60
0
100
AcDbLine
10
-50
20
-36.681137
30
0
11
0
21
-36.681137
31
0
39
0
210
0
220
0
230
1
0
SOLID
5
18E
100
AcDbEntity
8
SK2
62
256
6
ByLayer
370
18
48
1
60
0
100
AcDbTrace
10
-50
20
-36.681137
30
0
11
-46.500002
21
-36.220354
31
0
12
-46.499998
22
-37.141921
32
0
13
-46.499998
23
-37.141921
33
0
39
0
210
0
220
0
230
1
0
SOLID
5
18F
100
AcDbEntity
8
SK2
62
256
6
ByLayer
370
18
48
1
60
0
100
AcDbTrace
10
0
20
-36.681137
30
0
11
-3.499998
21
-37.141921
31
0
12
-3.500002
22
-36.220354
32
0
13
-3.500002
23
-36.220354
33
0
39
0
210
0
220
0
230
1
0
ENDBLK
5
191
100
AcDbEntity
8
0
100
AcDbBlockEnd
0
BLOCK
5
196
100
AcDbEntity
8
0
100
AcDbBlockBegin
2
*D7
70
1
10
0
20
0
30
0
3
*D7
0
LINE
5
198
100
AcDbEntity
8
0
62
256
6
ByLayer
370
-2
48
1
60
0
100
AcDbLine
10
161.5
20
1.5875
30
0
11
161.5
21
35.681137
31
0
39
0
210
0
220
0
230
1
0
LINE
5
199
100
AcDbEntity
8
0
62
256
6
ByLayer
370
-2
48
1
60
0
100
AcDbLine
10
20
20
9.5875
30
0
11
20
21
35.681137
31
0
39
0
210
0
220
0
230
1
0
LINE
5
19A
100
AcDbEntity
8
0
62
256
6
ByLayer
370
-2
48
1
60
0
100
AcDbLine
10
158
20
33.681137
30
0
11
23.5
21
33.681137
31
0
39
0
210
0
220
0
230
1
0
SOLID
5
19B
100
AcDbEntity
8
0
62
256
6
ByLayer
370
-1
48
1
60
0
100
AcDbTrace
10
158
20
33.097804
30
0
11
158
21
34.264471
31
0
12
161.5
22
33.681137
32
0
13
161.5
23
33.681137
33
0
39
0
210
0
220
0
230
1
0
SOLID
5
19C
100
AcDbEntity
8
0
62
256
6
ByLayer
370
-1
48
1
60
0
100
AcDbTrace
10
23.5
20
34.264471
30
0
11
23.5
21
33.097804
31
0
12
20
22
33.681137
32
0
13
20
23
33.681137
33
0
39
0
210
0
220
0
230
1
0
MTEXT
5
19D
100
AcDbEntity
8
0
62
256
6
ByLayer
370
18
48
1
60
0
100
AcDbMText
10
90.75
20
39.681137
30
0
210
0
220
0
230
1
1
\A1;141.5
40
3
41
0
44
1
50
0
71
5
72
5
7
iso_b_vert
0
POINT
5
19E
100
AcDbEntity
8
Defpoints
62
0
6
ByLayer
370
-1
48
1
60
0
100
AcDbPoint
10
161.5
20
0
30
0
39
0
210
0
220
0
230
1
50
360
0
POINT
5
19F
100
AcDbEntity
8
Defpoints
62
0
6
ByLayer
370
-1
48
1
60
0
100
AcDbPoint
10
20
20
8
30
0
39
0
210
0
220
0
230
1
50
360
0
POINT
5
1A0
100
AcDbEntity
8
Defpoints
62
0
6
ByLayer
370
-1
48
1
60
0
100
AcDbPoint
10
20
20
33.681137
30
0
39
0
210
0
220
0
230
1
50
360
0
ENDBLK
5
197
100
AcDbEntity
8
0
100
AcDbBlockEnd
0
BLOCK
5
1A8
100
AcDbEntity
8
0
100
AcDbBlockBegin
2
_U3
70
0
10
0
20
0
30
0
3
_U3
0
MTEXT
5
1A2
100
AcDbEntity
8
SK2
62
256
6
ByLayer
370
18
48
1
60
0
100
AcDbMText
10
85.738658
20
34.566252
30
0
210
0
220
0
230
1
1
\W0.6746;141.50
40
3
41
0
44
1.084337
50
0
71
7
72
5
7
iso_b_vert
0
LINE
5
1A3
100
AcDbEntity
8
SK2
62
256
6
ByLayer
370
13
48
1
60
0
100
AcDbLine
10
161.5
20
1.5875
30
0
11
161.5
21
35.681137
31
0
39
0
210
0
220
0
230
1
0
LINE
5
1A4
100
AcDbEntity
8
SK2
62
256
6
ByLayer
370
13
48
1
60
0
100
AcDbLine
10
20
20
9.5875
30
0
11
20
21
35.681137
31
0
39
0
210
0
220
0
230
1
0
LINE
5
1A5
100
AcDbEntity
8
SK2
62
256
6
ByLayer
370
13
48
1
60
0
100
AcDbLine
10
161.5
20
33.681137
30
0
11
20
21
33.681137
31
0
39
0
210
0
220
0
230
1
0
SOLID
5
1A6
100
AcDbEntity
8
SK2
62
256
6
ByLayer
370
18
48
1
60
0
100
AcDbTrace
10
161.5
20
33.681137
30
0
11
158.000002
21
33.220354
31
0
12
157.999998
22
34.141921
32
0
13
157.999998
23
34.141921
33
0
39
0
210
0
220
0
230
1
0
SOLID
5
1A7
100
AcDbEntity
8
SK2
62
256
6
ByLayer
370
18
48
1
60
0
100
AcDbTrace
10
20
20
33.681137
30
0
11
23.499998
21
34.141921
31
0
12
23.500002
22
33.220354
32
0
13
23.500002
23
33.220354
33
0
39
0
210
0
220
0
230
1
0
ENDBLK
5
1A9
100
AcDbEntity
8
0
100
AcDbBlockEnd
0
ENDSEC
0
SECTION
2
ENTITIES
0
ARC
5
C2
100
AcDbEntity
8
SK2
62
256
6
ByLayer
370
13
48
1
60
0
100
AcDbCircle
39
0
10
161.5
20
0
30
0
40
19
210
0
220
0
230
1
100
AcDbArc
50
290
51
70
0
ELLIPSE
5
C3
100
AcDbEntity
8
SK1
62
256
6
ByLayer
370
18
48
1
60
0
100
AcDbEllipse
10
209.817277
20
0
30
0
11
286.362532830084
21
-3.24477297310427E-13
31
0
210
0
220
0
230
1
40
0.034921
41
2.47357625657654
42
2.64710298745217
0
ELLIPSE
5
C4
100
AcDbEntity
8
SK1
62
256
6
ByLayer
370
18
48
1
60
0
100
AcDbEllipse
10
-22.723687
20
0
30
0
11
10.7236871002449
21
-1.21510065339267E-14
31
0
210
0
220
0
230
1
40
0.932515
41
-0.59537570803654
42
0.595375708036542
0
ELLIPSE
5
C5
100
AcDbEntity
8
SK1
62
256
6
ByLayer
370
18
48
1
60
0
100
AcDbEllipse
10
209.817277
20
0
30
0
11
286.362532824103
21
-3.2447729730365E-13
31
0
210
0
220
0
230
1
40
0.034921
41
-2.64710298745053
42
-2.47357625657208
0
ELLIPSE
5
C6
100
AcDbEntity
8
SK1
62
256
6
ByLayer
370
18
48
1
60
0
100
AcDbEllipse
10
-34.674849
20
0
30
0
11
-1.83690953073338E-15
21
-9.99999999999897
31
0
210
0
220
0
230
1
40
0.932515
41
-1.94446667349865
42
-1.19712598009114
0
POINT
5
70
100
AcDbEntity
8
81
62
256
6
ByLayer
370
18
48
1
60
0
100
AcDbPoint
10
161.5
20
0
30
0
39
0
210
0
220
0
230
1
50
360
0
POINT
5
72
100
AcDbEntity
8
80
62
256
6
ByLayer
370
18
48
1
60
0
100
AcDbPoint
10
0
20
0
30
0
39
0
210
0
220
0
230
1
50
360
0
POINT
5
74
100
AcDbEntity
8
1
62
256
6
ByLayer
370
18
48
1
60
1
100
AcDbPoint
10
-50
20
-10
30
0
39
0
210
0
220
0
230
1
50
360
0
POINT
5
76
100
AcDbEntity
8
1
62
256
6
ByLayer
370
18
48
1
60
1
100
AcDbPoint
10
161.5
20
0
30
0
39
0
210
0
220
0
230
1
50
360
0
POINT
5
77
100
AcDbEntity
8
1
62
256
6
ByLayer
370
18
48
1
60
1
100
AcDbPoint
10
161.5
20
0
30
0
39
0
210
0
220
0
230
1
50
360
0
POINT
5
78
100
AcDbEntity
8
1
62
256
6
ByLayer
370
18
48
1
60
1
100
AcDbPoint
10
3
20
-8
30
0
39
0
210
0
220
0
230
1
50
360
0
POINT
5
79
100
AcDbEntity
8
1
62
256
6
ByLayer
370
18
48
1
60
1
100
AcDbPoint
10
-50
20
-10
30
0
39
0
210
0
220
0
230
1
50
360
0
POINT
5
7A
100
AcDbEntity
8
1
62
256
6
ByLayer
370
18
48
1
60
1
100
AcDbPoint
10
0
20
-10
30
0
39
0
210
0
220
0
230
1
50
360
0
POINT
5
7B
100
AcDbEntity
8
1
62
256
6
ByLayer
370
18
48
1
60
1
100
AcDbPoint
10
161.5
20
0
30
0
39
0
210
0
220
0
230
1
50
360
0
POINT
5
7C
100
AcDbEntity
8
1
62
256
6
ByLayer
370
18
48
1
60
1
100
AcDbPoint
10
20
20
8
30
0
39
0
210
0
220
0
230
1
50
360
0
SPLINE
5
C7
100
AcDbEntity
8
1
62
256
6
ByLayer
370
18
48
1
60
0
100
AcDbSpline
70
4
71
3
72
23
73
19
40
0
40
0
40
0
40
0
40
0.164537965505868
40
0.164537965505868
40
0.329075931011736
40
0.329075931011736
40
0.493613896517604
40
0.493613896517604
40
0.658151862023473
40
0.658151862023473
40
0.740420844776411
40
0.740420844776411
40
0.781555336152876
40
0.781555336152876
40
0.822689827529341
40
0.987227793035217
40
0.987227793035217
40
1
40
1
40
1
40
1
41
1
10
10
20
-7.68216998192571
30
0
41
1
10
10.2846492183042
20
-7.67993038014134
30
0
41
1
10
10.5686609885416
20
-7.67831474028927
30
0
41
1
10
11.1355161264832
20
-7.67675607469258
30
0
41
1
10
11.4183588709168
20
-7.67680870902007
30
0
41
1
10
11.9829585158831
20
-7.67844904097578
30
0
41
1
10
12.2647149513648
20
-7.68003356960676
30
0
41
1
10
12.8272182717304
20
-7.68415822393479
30
0
41
1
10
13.1079647896513
20
-7.68669500434282
30
0
41
1
10
13.5283891762029
20
-7.69052062213336
30
0
41
1
10
13.6684148218872
20
-7.69179681355968
30
0
41
1
10
13.8782883498118
20
-7.69360824654817
30
0
41
1
10
13.9482055029384
20
-7.69419466219549
30
0
41
1
10
14.0876891634742
20
-7.69531235307386
30
0
41
1
10
14.4357093418075
20
-7.69797079428332
30
0
41
1
10
14.780414479234
20
-7.69971923077665
30
0
41
1
10
15.0756721580983
20
-7.69998107781518
30
0
41
1
10
15.0969298054878
20
-7.69999295318527
30
0
41
1
10
15.1181769299138
20
-7.69999760042964
30
0
0
SPLINE
5
C8
100
AcDbEntity
8
1
62
256
6
ByLayer
370
18
48
1
60
0
100
AcDbSpline
70
4
71
3
72
14
73
10
40
0
40
0
40
0
40
0
40
0.346500391863243
40
0.346500391863243
40
0.693000783726486
40
0.693000783726486
40
0.866250979658096
40
0.866250979658096
40
1
40
1
40
1
40
1
41
1
10
149.9
20
-7.91725579518871
30
0
41
1
10
150.262576144664
20
-7.93606376878196
30
0
41
1
10
150.625044233375
20
-7.95160026508375
30
0
41
1
10
151.349556994371
20
-7.97623464364727
30
0
41
1
10
151.711612575866
20
-7.98532569901505
30
0
41
1
10
152.254364140805
20
-7.9940878352655
30
0
41
1
10
152.435230552712
20
-7.996193464209
30
0
41
1
10
152.755753604229
20
-7.99847298504955
30
0
41
1
10
152.895404364218
20
-7.99897887512745
30
0
41
1
10
153.035060431312
20
-7.99900044172296
30
0
0
SPLINE
5
C9
100
AcDbEntity
8
1
62
256
6
ByLayer
370
18
48
1
60
0
100
AcDbSpline
70
4
71
3
72
192
73
188
40
0
40
0
40
0
40
0
40
0.0097752900181897
40
0.0097752900181897
40
0.0224704786076983
40
0.0224704786076983
40
0.0351656671972071
40
0.0351656671972071
40
0.0478608557867157
40
0.0478608557867157
40
0.0605560443762245
40
0.0605560443762245
40
0.0669036386709788
40
0.0669036386709788
40
0.0732512329657332
40
0.0732512329657332
40
0.0859464215552418
40
0.0859464215552418
40
0.0986416101447506
40
0.0986416101447506
40
0.111336798734259
40
0.111336798734259
40
0.124031987323768
40
0.124031987323768
40
0.130379581618522
40
0.130379581618522
40
0.136727175913277
40
0.136727175913277
40
0.143074770208031
40
0.143074770208031
40
0.149422364502785
40
0.149422364502785
40
0.162117553092293
40
0.162117553092293
40
0.174812741681801
40
0.174812741681801
40
0.187507930271309
40
0.187507930271309
40
0.212898307450325
40
0.212898307450325
40
0.219245901745079
40
0.219245901745079
40
0.225593496039833
40
0.225593496039833
40
0.238288684629342
40
0.250983873218851
40
0.250983873218851
40
0.263679061808359
40
0.263679061808359
40
0.270026656103114
40
0.270026656103114
40
0.276374250397869
40
0.276374250397869
40
0.289069438987379
40
0.289069438987379
40
0.301764627576888
40
0.301764627576888
40
0.308112221871643
40
0.308112221871643
40
0.314459816166398
40
0.327155004755909
40
0.327155004755909
40
0.339850193345419
40
0.339850193345419
40
0.35254538193493
40
0.35254538193493
40
0.36524057052444
40
0.36524057052444
40
0.377935759113951
40
0.377935759113951
40
0.384283353408706
40
0.384283353408706
40
0.390630947703461
40
0.390630947703461
40
0.403326136292973
40
0.403326136292973
40
0.416021324882484
40
0.416021324882484
40
0.428716513471995
40
0.428716513471995
40
0.441411702061507
40
0.441411702061507
40
0.454106890651018
40
0.454106890651018
40
0.460454484945774
40
0.460454484945774
40
0.466802079240531
40
0.466802079240531
40
0.492192456419554
40
0.492192456419554
40
0.504887645009066
40
0.504887645009066
40
0.517582833598578
40
0.517582833598578
40
0.53027802218809
40
0.53027802218809
40
0.536625616482846
40
0.536625616482846
40
0.542973210777602
40
0.542973210777602
40
0.549320805072358
40
0.549320805072358
40
0.555668399367114
40
0.555668399367114
40
0.568363587956626
40
0.568363587956626
40
0.581058776546138
40
0.581058776546138
40
0.59375396513565
40
0.59375396513565
40
0.606449153725162
40
0.606449153725162
40
0.619144342314674
40
0.619144342314674
40
0.631839530904186
40
0.631839530904186
40
0.644534719493698
40
0.644534719493698
40
0.65722990808321
40
0.65722990808321
40
0.669925096672721
40
0.669925096672721
40
0.676272690967478
40
0.676272690967478
40
0.682620285262234
40
0.682620285262234
40
0.695315473851745
40
0.695315473851745
40
0.7016630681465
40
0.7016630681465
40
0.708010662441256
40
0.708010662441256
40
0.720705851030767
40
0.720705851030767
40
0.733401039620279
40
0.733401039620279
40
0.746096228209791
40
0.746096228209791
40
0.758791416799303
40
0.758791416799303
40
0.771486605388815
40
0.771486605388815
40
0.784181793978327
40
0.784181793978327
40
0.790529388273083
40
0.790529388273083
40
0.796876982567839
40
0.796876982567839
40
0.80957217115735
40
0.80957217115735
40
0.815919765452106
40
0.815919765452106
40
0.822267359746862
40
0.822267359746862
40
0.834962548336374
40
0.834962548336374
40
0.847657736925886
40
0.847657736925886
40
0.860352925515398
40
0.860352925515398
40
0.866700519810153
40
0.866700519810153
40
0.873048114104909
40
0.873048114104909
40
0.89843849128393
40
0.89843849128393
40
0.904786085578685
40
0.904786085578685
40
0.91113367987344
40
0.91113367987344
40
0.917481274168195
40
0.917481274168195
40
0.923828868462951
40
0.923828868462951
40
0.93652405705246
40
0.93652405705246
40
0.942871651347215
40
0.942871651347215
40
0.949219245641969
40
0.949219245641969
40
0.961914434231477
40
0.961914434231477
40
0.974609622820985
40
0.974609622820985
40
0.987304811410492
40
0.987304811410492
40
1
40
1
40
1
40
1
41
1
10
67.9129209425832
20
5.65949078267354
30
0
41
1
10
68.1810342502939
20
5.72305643906981
30
0
41
1
10
68.4490193494491
20
5.78534326404153
30
0
41
1
10
69.064683431386
20
5.92569525208586
30
0
41
1
10
69.4122485244586
20
6.0029232447589
30
0
41
1
10
70.1071415592054
20
6.15267830513093
30
0
41
1
10
70.454497659196
20
6.22515750790834
30
0
41
1
10
71.1492051867025
20
6.36507317438878
30
0
41
1
10
71.4965040381945
20
6.43260333057771
30
0
41
1
10
72.1908749684064
20
6.56299364534513
30
0
41
1
10
72.5379322633261
20
6.62587237647608
30
0
41
1
10
73.0584022699308
20
6.71656442456438
30
0
41
1
10
73.2318929057323
20
6.74616165158037
30
0
41
1
10
73.5789542787226
20
6.80398574813211
30
0
41
1
10
73.7525146374664
20
6.83222780449708
30
0
41
1
10
74.2732599564845
20
6.91498744481589
30
0
41
1
10
74.6205085430077
20
6.96754207567329
30
0
41
1
10
75.3150568990326
20
7.06755887348197
30
0
41
1
10
75.662327490723
20
7.11505021571364
30
0
41
1
10
76.3570257597472
20
7.2047609490975
30
0
41
1
10
76.7044690797097
20
7.24695982855681
30
0
41
1
10
77.3998878478398
20
7.32571475602001
30
0
41
1
10
77.7478539272816
20
7.36229071254687
30
0
41
1
10
78.2700444722403
20
7.41308320499522
30
0
41
1
10
78.4441509227829
20
7.42933204273751
30
0
41
1
10
78.7924433540482
20
7.46046387114325
30
0
41
1
10
78.9666017887828
20
7.47534408164498
30
0
41
1
10
79.3146968504045
20
7.50371012487591
30
0
41
1
10
79.4886621750871
20
7.51720153852145
30
0
41
1
10
79.8365204490682
20
7.54273957565354
30
0
41
1
10
80.0104268237973
20
7.55477885992852
30
0
41
1
10
80.5321002942193
20
7.58871407775789
30
0
41
1
10
80.879803198056
20
7.60844231878448
30
0
41
1
10
81.5749281342184
20
7.64221061921873
30
0
41
1
10
81.9223395000345
20
7.65625294485696
30
0
41
1
10
82.6168217140895
20
7.67862934802454
30
0
41
1
10
82.9639193254053
20
7.68694802842305
30
0
41
1
10
84.0052669726678
20
7.70320726383184
30
0
41
1
10
84.6997718795963
20
7.70251457222835
30
0
41
1
10
85.5676919327424
20
7.68727223720583
30
0
41
1
10
85.741266492479
20
7.68350104245297
30
0
41
1
10
86.088399896691
20
7.67450384012773
30
0
41
1
10
86.2619623297432
20
7.66927734545888
30
0
41
1
10
86.7828046937801
20
7.65145723106556
30
0
41
1
10
87.4776868774238
20
7.62201093290597
30
0
41
1
10
88.1731569054668
20
7.5811979065999
30
0
41
1
10
88.8688091917511
20
7.53460486788163
30
0
41
1
10
89.2167137710188
20
7.50840177858814
30
0
41
1
10
89.7389095786137
20
7.4648365643163
30
0
41
1
10
89.9130660398904
20
7.44960299188938
30
0
41
1
10
90.2612714506216
20
7.41777811622552
30
0
41
1
10
90.4353455969672
20
7.40118999756274
30
0
41
1
10
90.9574693851285
20
7.34940328040827
30
0
41
1
10
91.305399961853
20
7.31216845925655
30
0
41
1
10
92.0008345766564
20
7.23217600863407
30
0
41
1
10
92.3483281991028
20
7.18940428865463
30
0
41
1
10
92.8692874164624
20
7.12110704210201
30
0
41
1
10
93.0429108838646
20
7.09766928574868
30
0
41
1
10
93.3901882514869
20
7.0495573391498
30
0
41
1
10
93.9111191474816
20
6.97550130496012
30
0
41
1
10
94.4320195559123
20
6.89573952429066
30
0
41
1
10
95.1264067418201
20
6.7841744702541
30
0
41
1
10
95.4734983045013
20
6.7257406323516
30
0
41
1
10
96.1676229844428
20
6.60372888820618
30
0
41
1
10
96.514673299819
20
6.54017182651754
30
0
41
1
10
97.2090957952558
20
6.40849937853275
30
0
41
1
10
97.5564683331128
20
6.34039544526556
30
0
41
1
10
98.2513370832362
20
6.19934518619814
30
0
41
1
10
98.5988429525357
20
6.12641225472629
30
0
41
1
10
99.1201708331596
20
6.01329197118605
30
0
41
1
10
99.2939519796044
20
5.97495220844684
30
0
41
1
10
99.6416098053071
20
5.89715707188884
30
0
41
1
10
99.815500374373
20
5.85772825283564
30
0
41
1
10
100.337397776656
20
5.73793637521754
30
0
41
1
10
100.685648225476
20
5.6560128922286
30
0
41
1
10
101.382394401804
20
5.48786919715673
30
0
41
1
10
101.730524016947
20
5.40171717110667
30
0
41
1
10
102.426242951651
20
5.22512664153592
30
0
41
1
10
102.773857685886
20
5.13473767496242
30
0
41
1
10
103.468916745691
20
4.9504709888366
30
0
41
1
10
103.816406953798
20
4.85669922781531
30
0
41
1
10
104.511253394018
20
4.66578926632803
30
0
41
1
10
104.858579333918
20
4.5685820394109
30
0
41
1
10
105.379373109872
20
4.4200190416737
30
0
41
1
10
105.552938166116
20
4.37003818525773
30
0
41
1
10
105.900000880454
20
4.26914822464633
30
0
41
1
10
106.073501073329
20
4.2182445084382
30
0
41
1
10
106.941119185946
20
3.9620910081139
30
0
41
1
10
107.635674586578
20
3.75219226871556
30
0
41
1
10
108.677466040914
20
3.42810092596903
30
0
41
1
10
109.024707702622
20
3.31847883630292
30
0
41
1
10
109.719435334038
20
3.09677990461253
30
0
41
1
10
110.066943749494
20
2.98476316557489
30
0
41
1
10
110.762473579535
20
2.7590169182871
30
0
41
1
10
111.110442892364
20
2.64515017202041
30
0
41
1
10
111.632606004954
20
2.47258183440434
30
0
41
1
10
111.806697614543
20
2.41477047018918
30
0
41
1
10
112.15494942299
20
2.29854873936827
30
0
41
1
10
112.329065527325
20
2.24013638886592
30
0
41
1
10
112.67696499584
20
2.12291873123255
30
0
41
1
10
112.850803981802
20
2.06412012617358
30
0
41
1
10
113.198349183915
20
1.94642822412311
30
0
41
1
10
113.372046994965
20
1.88750745010353
30
0
41
1
10
113.892896689413
20
1.71045351140512
30
0
41
1
10
114.239804684831
20
1.5920275225707
30
0
41
1
10
114.932868323752
20
1.35405996955447
30
0
41
1
10
115.278998835336
20
1.23443977282881
30
0
41
1
10
115.970568176162
20
0.994281508170047
30
0
41
1
10
116.316023961362
20
0.873797847095943
30
0
41
1
10
117.006596545049
20
0.633007231086481
30
0
41
1
10
117.351725322362
20
0.512734920102815
30
0
41
1
10
118.041486983682
20
0.271864512854194
30
0
41
1
10
118.386126655597
20
0.151288045222486
30
0
41
1
10
119.074871914317
20
-0.0903000994420893
30
0
41
1
10
119.418945622776
20
-0.211405732401857
30
0
41
1
10
120.107108116394
20
-0.452384892103737
30
0
41
1
10
120.451143894089
20
-0.572422187032458
30
0
41
1
10
121.139007687605
20
-0.81195364518203
30
0
41
1
10
121.482832209371
20
-0.93145807662242
30
0
41
1
10
122.170183805605
20
-1.17018366947212
30
0
41
1
10
122.513730469678
20
-1.28934497118942
30
0
41
1
10
123.029078234749
20
-1.46713025624771
30
0
41
1
10
123.200866701636
20
-1.52622910426643
30
0
41
1
10
123.544495206961
20
-1.6439860458658
30
0
41
1
10
123.716332796095
20
-1.70265144733943
30
0
41
1
10
124.231877016246
20
-1.87812256111133
30
0
41
1
10
124.57560494409
20
-1.99443305380524
30
0
41
1
10
125.091186403473
20
-2.16805724157476
30
0
41
1
10
125.263046090045
20
-2.22578887294185
30
0
41
1
10
125.60675811483
20
-2.34098054641774
30
0
41
1
10
125.778605331114
20
-2.39845502251345
30
0
41
1
10
126.294250727943
20
-2.57014126982594
30
0
41
1
10
126.638224809127
20
-2.68341173712974
30
0
41
1
10
127.326543392814
20
-2.90773317576631
30
0
41
1
10
127.670875836245
20
-3.0188184326706
30
0
41
1
10
128.359779350523
20
-3.23913435923359
30
0
41
1
10
128.704324095526
20
-3.34843680486199
30
0
41
1
10
129.393818539305
20
-3.56470988266687
30
0
41
1
10
129.73878059485
20
-3.67164599224444
30
0
41
1
10
130.429429708963
20
-3.88231182394304
30
0
41
1
10
130.775083155748
20
-3.98613557762491
30
0
41
1
10
131.466892971854
20
-4.19118092523863
30
0
41
1
10
131.813058946183
20
-4.2923760490157
30
0
41
1
10
132.332674260214
20
-4.44222987417561
30
0
41
1
10
132.505942336747
20
-4.4918525102299
30
0
41
1
10
132.852700545212
20
-4.59018461510627
30
0
41
1
10
133.026197727997
20
-4.63887575713488
30
0
41
1
10
133.54702575102
20
-4.78357334001697
30
0
41
1
10
133.894689682947
20
-4.87821361798319
30
0
41
1
10
134.416774378158
20
-5.01763986104606
30
0
41
1
10
134.590946760482
20
-5.06370407944954
30
0
41
1
10
134.939243029231
20
-5.15494986859474
30
0
41
1
10
135.11333126149
20
-5.20013098571991
30
0
41
1
10
135.635460156262
20
-5.33424801536003
30
0
41
1
10
135.983366181335
20
-5.42175115358674
30
0
41
1
10
136.679153467746
20
-5.5922638883178
30
0
41
1
10
137.027075450963
20
-5.67520013630408
30
0
41
1
10
137.722826587704
20
-5.83676584918851
30
0
41
1
10
138.070644915332
20
-5.91541428359784
30
0
41
1
10
138.592244177384
20
-6.03024149000564
30
0
41
1
10
138.76608451031
20
-6.06800073631831
30
0
41
1
10
139.113742355245
20
-6.1424272639635
30
0
41
1
10
139.287567311334
20
-6.17908085713648
30
0
41
1
10
140.15693506407
20
-6.35910868748138
30
0
41
1
10
140.853048806329
20
-6.49309872287014
30
0
41
1
10
141.723359283763
20
-6.6490062967984
30
0
41
1
10
141.897432177731
20
-6.67960156458929
30
0
41
1
10
142.245638057001
20
-6.73955764241063
30
0
41
1
10
142.419762574411
20
-6.76891754047827
30
0
41
1
10
142.767903842363
20
-6.82631273187471
30
0
41
1
10
142.941946680714
20
-6.85435167628694
30
0
41
1
10
143.290021201437
20
-6.90906103996707
30
0
41
1
10
143.464055850084
20
-6.93572836806783
30
0
41
1
10
143.986114243373
20
-7.01372884071779
30
0
41
1
10
144.334079689541
20
-7.06307840265399
30
0
41
1
10
144.855842297962
20
-7.13320780494209
30
0
41
1
10
145.029733746613
20
-7.15593269581362
30
0
41
1
10
145.377451202815
20
-7.20007932898423
30
0
41
1
10
145.551270008276
20
-7.22150766445898
30
0
41
1
10
146.072720941032
20
-7.28373453748202
30
0
41
1
10
146.420442148461
20
-7.32238693709883
30
0
41
1
10
147.116073252119
20
-7.39407804705848
30
0
41
1
10
147.463960231182
20
-7.42713898412663
30
0
41
1
10
148.159758259764
20
-7.4877732185104
30
0
41
1
10
148.507639477279
20
-7.51536073546197
30
0
41
1
10
149.203581276956
20
-7.56488310664471
30
0
41
1
10
149.551655840357
20
-7.58680708956362
30
0
41
1
10
149.9
20
-7.60582116970366
30
0
0
SPLINE
5
CA
100
AcDbEntity
8
1
62
256
6
ByLayer
370
18
48
1
60
0
100
AcDbSpline
70
4
71
3
72
180
73
176
40
0
40
0
40
0
40
0
40
0.0119211202907168
40
0.0119211202907168
40
0.0244170590583061
40
0.0244170590583061
40
0.0494089365934838
40
0.0494089365934838
40
0.0619048753610723
40
0.0619048753610723
40
0.0744008141286607
40
0.0744008141286607
40
0.0868967528962491
40
0.0868967528962491
40
0.0931447222800434
40
0.0931447222800434
40
0.0993926916638376
40
0.0993926916638376
40
0.124384569199015
40
0.124384569199015
40
0.136880507966603
40
0.136880507966603
40
0.149376446734191
40
0.149376446734191
40
0.16187238550178
40
0.16187238550178
40
0.168120354885574
40
0.168120354885574
40
0.174368324269368
40
0.174368324269368
40
0.199360201804547
40
0.199360201804547
40
0.205608171188341
40
0.205608171188341
40
0.211856140572136
40
0.211856140572136
40
0.224352079339725
40
0.224352079339725
40
0.236848018107315
40
0.236848018107315
40
0.249343956874904
40
0.249343956874904
40
0.255591926258699
40
0.255591926258699
40
0.261839895642493
40
0.261839895642493
40
0.274335834410082
40
0.274335834410082
40
0.28683177317767
40
0.28683177317767
40
0.299327711945259
40
0.299327711945259
40
0.324319589480435
40
0.324319589480435
40
0.330567558864229
40
0.330567558864229
40
0.336815528248023
40
0.336815528248023
40
0.343063497631817
40
0.343063497631817
40
0.349311467015611
40
0.349311467015611
40
0.361807405783199
40
0.361807405783199
40
0.374303344550788
40
0.374303344550788
40
0.399295222085963
40
0.399295222085963
40
0.411791160853552
40
0.411791160853552
40
0.424287099621139
40
0.424287099621139
40
0.436783038388728
40
0.436783038388728
40
0.449278977156315
40
0.449278977156315
40
0.461774915923904
40
0.461774915923904
40
0.468022885307697
40
0.468022885307697
40
0.474270854691491
40
0.474270854691491
40
0.486766793459079
40
0.486766793459079
40
0.499262732226667
40
0.499262732226667
40
0.511758670994255
40
0.511758670994255
40
0.524254609761843
40
0.524254609761843
40
0.536750548529431
40
0.536750548529431
40
0.549246487297019
40
0.549246487297019
40
0.555494456680813
40
0.555494456680813
40
0.561742426064607
40
0.561742426064607
40
0.574238364832196
40
0.574238364832196
40
0.586734303599785
40
0.586734303599785
40
0.599230242367374
40
0.599230242367374
40
0.611726181134962
40
0.611726181134962
40
0.624222119902552
40
0.624222119902552
40
0.63671805867014
40
0.63671805867014
40
0.649213997437729
40
0.649213997437729
40
0.661709936205318
40
0.661709936205318
40
0.674205874972907
40
0.674205874972907
40
0.686701813740496
40
0.686701813740496
40
0.699197752508085
40
0.699197752508085
40
0.711693691275674
40
0.711693691275674
40
0.717941660659468
40
0.717941660659468
40
0.724189630043262
40
0.724189630043262
40
0.730437599427057
40
0.730437599427057
40
0.736685568810851
40
0.736685568810851
40
0.749181507578441
40
0.749181507578441
40
0.76167744634603
40
0.76167744634603
40
0.774173385113619
40
0.774173385113619
40
0.786669323881208
40
0.786669323881208
40
0.792917293265003
40
0.792917293265003
40
0.799165262648797
40
0.799165262648797
40
0.811661201416386
40
0.811661201416386
40
0.824157140183976
40
0.824157140183976
40
0.836653078951565
40
0.836653078951565
40
0.849149017719154
40
0.849149017719154
40
0.855396987102949
40
0.855396987102949
40
0.861644956486744
40
0.861644956486744
40
0.874140895254334
40
0.874140895254334
40
0.899132772789514
40
0.899132772789514
40
0.911628711557104
40
0.911628711557104
40
0.924124650324695
40
0.924124650324695
40
0.936620589092285
40
0.936620589092285
40
0.94286855847608
40
0.94286855847608
40
0.949116527859875
40
0.949116527859875
40
0.974108405395056
40
0.974108405395056
40
0.986604344162646
40
0.986604344162646
40
0.999100282930236
40
0.999100282930236
40
1
40
1
40
1
40
1
41
1
10
137.006039860001
20
-5.65399926702753
30
0
41
1
10
136.666697974098
20
-5.73460054934569
30
0
41
1
10
136.327643502496
20
-5.81314346652906
30
0
41
1
10
135.633799539443
20
-5.96984803098911
30
0
41
1
10
135.279054576169
20
-6.04782711864146
30
0
41
1
10
134.215176529405
20
-6.27386261712971
30
0
41
1
10
133.506586838518
20
-6.41443396908204
30
0
41
1
10
132.444851368558
20
-6.61046640794248
30
0
41
1
10
132.091115565483
20
-6.67330283735635
30
0
41
1
10
131.383760736067
20
-6.79361047603072
30
0
41
1
10
131.030107245568
20
-6.85103741562264
30
0
41
1
10
130.322858448853
20
-6.96049006765267
30
0
41
1
10
129.969275994437
20
-7.01253299481934
30
0
41
1
10
129.438986659605
20
-7.08658551276645
30
0
41
1
10
129.26224002678
20
-7.11060329928927
30
0
41
1
10
128.908766565864
20
-7.15728481296523
30
0
41
1
10
128.73203657085
20
-7.17994425507942
30
0
41
1
10
127.848214932837
20
-7.2896178977461
30
0
41
1
10
127.14069576856
20
-7.36590565230068
30
0
41
1
10
126.078965693613
20
-7.46338145723451
30
0
41
1
10
125.72497629182
20
-7.49303135285612
30
0
41
1
10
125.016640200887
20
-7.54647276977795
30
0
41
1
10
124.662262987739
20
-7.57024639467284
30
0
41
1
10
123.952979938609
20
-7.61185194577595
30
0
41
1
10
123.598102617021
20
-7.62970193707031
30
0
41
1
10
123.065460391881
20
-7.65203569598938
30
0
41
1
10
122.887858134832
20
-7.65873939797655
30
0
41
1
10
122.532546799754
20
-7.67065680459118
30
0
41
1
10
122.354841404358
20
-7.67587079538274
30
0
41
1
10
121.465907321053
20
-7.69815822569933
30
0
41
1
10
120.753231314066
20
-7.70388437851526
30
0
41
1
10
119.860619875195
20
-7.69584219377725
30
0
41
1
10
119.682010839967
20
-7.69347092362506
30
0
41
1
10
119.324603543624
20
-7.68719467460386
30
0
41
1
10
119.145822826296
20
-7.68328945887785
30
0
41
1
10
118.609818356304
20
-7.66928975952715
30
0
41
1
10
118.252701850012
20
-7.65690838082818
30
0
41
1
10
117.538684092914
20
-7.62616669363524
30
0
41
1
10
117.18181479335
20
-7.60780127834772
30
0
41
1
10
116.468412468982
20
-7.56507354493289
30
0
41
1
10
116.111888993217
20
-7.54070381205653
30
0
41
1
10
115.577327247664
20
-7.49964064777851
30
0
41
1
10
115.399164261003
20
-7.48520899268459
30
0
41
1
10
115.042819913037
20
-7.45490809122995
30
0
41
1
10
114.864646130359
20
-7.43903433656629
30
0
41
1
10
114.330128102997
20
-7.38924631566451
30
0
41
1
10
113.973788693326
20
-7.35316614877914
30
0
41
1
10
113.261166365714
20
-7.27519563987667
30
0
41
1
10
112.904897045099
20
-7.23328924821195
30
0
41
1
10
112.192315978456
20
-7.14372424033672
30
0
41
1
10
111.835998493781
20
-7.09606793965099
30
0
41
1
10
110.766534324546
20
-6.94497432070278
30
0
41
1
10
110.052980519968
20
-6.83335184318369
30
0
41
1
10
109.160522970426
20
-6.67979860792749
30
0
41
1
10
108.982002558514
20
-6.64838761798941
30
0
41
1
10
108.624819187087
20
-6.58428800289636
30
0
41
1
10
108.446154720381
20
-6.55160270628062
30
0
41
1
10
108.088685378883
20
-6.48495731333807
30
0
41
1
10
107.909868335044
20
-6.45099455432592
30
0
41
1
10
107.552416186819
20
-6.38184670576348
30
0
41
1
10
107.373742679091
20
-6.34665399466269
30
0
41
1
10
106.837887407124
20
-6.23920933028799
30
0
41
1
10
106.480882154466
20
-6.16507140027338
30
0
41
1
10
105.767265598599
20
-6.01189071844234
30
0
41
1
10
105.410649075575
20
-5.93285390148736
30
0
41
1
10
104.340952945336
20
-5.68920356778253
30
0
41
1
10
103.627994340857
20
-5.51815737822582
30
0
41
1
10
102.559121371317
20
-5.24806999470255
30
0
41
1
10
102.20293281278
20
-5.15575616322076
30
0
41
1
10
101.49028513319
20
-4.96757700174186
30
0
41
1
10
101.133870848779
20
-4.87162252381955
30
0
41
1
10
100.420914108391
20
-4.67587850606731
30
0
41
1
10
100.064377581722
20
-4.57607441076746
30
0
41
1
10
99.3511707573729
20
-4.37261650847171
30
0
41
1
10
98.9944928407732
20
-4.26897694848617
30
0
41
1
10
98.280737292614
20
-4.05846958856304
30
0
41
1
10
97.9236254098421
20
-3.95169072975054
30
0
41
1
10
97.38762644461
20
-3.78919234509723
30
0
41
1
10
97.2089075055613
20
-3.73463095620221
30
0
41
1
10
96.8513675737516
20
-3.62470638971965
30
0
41
1
10
96.6725869903337
20
-3.56935548129883
30
0
41
1
10
96.136550648245
20
-3.40222274744878
30
0
41
1
10
95.7795170411663
20
-3.28919593995113
30
0
41
1
10
95.0656348034463
20
-3.06116440255278
30
0
41
1
10
94.7087930818626
20
-2.94614416808679
30
0
41
1
10
93.9953549545934
20
-2.71398135237573
30
0
41
1
10
93.6387621678468
20
-2.59682879833932
30
0
41
1
10
92.9258490147176
20
-2.36032438865251
30
0
41
1
10
92.5695242856422
20
-2.24098315063753
30
0
41
1
10
91.8569183030467
20
-2.00072798878514
30
0
41
1
10
91.5006007666975
20
-1.87991561994031
30
0
41
1
10
90.7878684845809
20
-1.63712083688708
30
0
41
1
10
90.4314789584089
20
-1.51506815886214
30
0
41
1
10
89.8968861753156
20
-1.33092784109004
30
0
41
1
10
89.7186871467345
20
-1.2693707822354
30
0
41
1
10
89.3622887006252
20
-1.14589389080874
30
0
41
1
10
89.1840895871992
20
-1.08397295462916
30
0
41
1
10
88.6493716274339
20
-0.898008735284918
30
0
41
1
10
88.292707103534
20
-0.773837575105006
30
0
41
1
10
87.5790487152843
20
-0.52498999493784
30
0
41
1
10
87.222058690162
20
-0.400302358130091
30
0
41
1
10
86.5077880234251
20
-0.150301016354405
30
0
41
1
10
86.1505031093852
20
-0.024962435498054
30
0
41
1
10
85.435507810694
20
0.225808384583303
30
0
41
1
10
85.0782258091774
20
0.351005719470948
30
0
41
1
10
84.3639192223319
20
0.600525266381027
30
0
41
1
10
84.0069271122439
20
0.724944367918766
30
0
41
1
10
83.2933135365373
20
0.973245615348247
30
0
41
1
10
82.9367118482263
20
1.09718404325048
30
0
41
1
10
82.2237908792781
20
1.34425998022593
30
0
41
1
10
81.8673673827377
20
1.4670993850159
30
0
41
1
10
81.1545362747641
20
1.71122992024343
30
0
41
1
10
80.7981464461849
20
1.83257192923401
30
0
41
1
10
80.0854586500544
20
2.07392276317452
30
0
41
1
10
79.7291739096566
20
2.19396732031279
30
0
41
1
10
79.0165698076914
20
2.43236250975025
30
0
41
1
10
78.660239135515
20
2.55068132244918
30
0
41
1
10
77.9472598494041
20
2.78485408943803
30
0
41
1
10
77.5906398721976
20
2.9007878720044
30
0
41
1
10
76.8772052442384
20
3.13052733991432
30
0
41
1
10
76.5203929256687
20
3.24433878803563
30
0
41
1
10
75.9850200122357
20
3.41342477244217
30
0
41
1
10
75.8065297804983
20
3.46949645561699
30
0
41
1
10
75.449400796598
20
3.58083999771946
30
0
41
1
10
75.2707680736065
20
3.63612795347362
30
0
41
1
10
74.9133715811484
20
3.74595138279491
30
0
41
1
10
74.7345715000457
20
3.80049785177346
30
0
41
1
10
74.3770328074267
20
3.90879910380494
30
0
41
1
10
74.1983199594938
20
3.96254733379834
30
0
41
1
10
73.6623567359259
20
4.12260155601658
30
0
41
1
10
73.3052958651855
20
4.22775199366501
30
0
41
1
10
72.5915698838087
20
4.43469149889373
30
0
41
1
10
72.2349006980222
20
4.53646752185031
30
0
41
1
10
71.5216572910154
20
4.73596008733841
30
0
41
1
10
71.1650880570851
20
4.83369437072182
30
0
41
1
10
70.4521336075299
20
5.02533867297086
30
0
41
1
10
70.0957439542716
20
5.11923801083447
30
0
41
1
10
69.5613141559909
20
5.25723571866388
30
0
41
1
10
69.3831985756033
20
5.30276280617176
30
0
41
1
10
69.0269467337074
20
5.39271161057209
30
0
41
1
10
68.848801862308
20
5.43711606098452
30
0
41
1
10
68.3143080304783
20
5.56862224237764
30
0
41
1
10
67.9579036720923
20
5.6540263849441
30
0
41
1
10
67.2449970436295
20
5.82041368725189
30
0
41
1
10
66.8885030382303
20
5.90141122162154
30
0
41
1
10
66.1753884507762
20
6.05890164331976
30
0
41
1
10
65.8187610253429
20
6.13537829569663
30
0
41
1
10
65.1050983889
20
6.28331054061636
30
0
41
1
10
64.7480368841178
20
6.3547261593371
30
0
41
1
10
64.2121469169425
20
6.45811017176649
30
0
41
1
10
64.0334678176431
20
6.49194862375876
30
0
41
1
10
63.6760145940261
20
6.55838140199089
30
0
41
1
10
63.4971908633325
20
6.5909843591202
30
0
41
1
10
62.9612000768396
20
6.68681647183655
30
0
41
1
10
62.6044065069206
20
6.74813585987977
30
0
41
1
10
61.5349723733536
20
6.92338834498784
30
0
41
1
10
60.823401789096
20
7.02889749175506
30
0
41
1
10
59.758279177385
20
7.17063025142707
30
0
41
1
10
59.4035990544339
20
7.21509051368855
30
0
41
1
10
58.6947430772869
20
7.29822003062336
30
0
41
1
10
58.3405326996186
20
7.33685843979669
30
0
41
1
10
57.6325244023834
20
7.4083252595687
30
0
41
1
10
57.2787436767622
20
7.44117014411421
30
0
41
1
10
56.7484293769933
20
7.48612403690285
30
0
41
1
10
56.5717185900556
20
7.50039006497511
30
0
41
1
10
56.2184143028327
20
7.52747755058269
30
0
41
1
10
56.0418194502033
20
7.54029714709773
30
0
41
1
10
55.15892614246
20
7.60065332735346
30
0
41
1
10
54.4528858616581
20
7.63703195398449
30
0
41
1
10
53.3944762667506
20
7.67397998250726
30
0
41
1
10
53.0417831188035
20
7.68334621341924
30
0
41
1
10
52.3364302050449
20
7.69611860624966
30
0
41
1
10
51.9837444213831
20
7.69952166162471
30
0
41
1
10
51.6055748727973
20
7.69998406189495
30
0
41
1
10
51.5801748993862
20
7.69999973905692
30
0
41
1
10
51.5547746578907
20
7.70000003393602
30
0
0
SPLINE
5
CB
100
AcDbEntity
8
1
62
256
6
ByLayer
370
18
48
1
60
0
100
AcDbSpline
70
4
71
3
72
22
73
18
40
0
40
0
40
0
40
0
40
0.125
40
0.125
40
0.25
40
0.25
40
0.375
40
0.375
40
0.5
40
0.5
40
0.625
40
0.625
40
0.75
40
0.75
40
0.875
40
0.875
40
1
40
1
40
1
40
1
41
1
10
158.588238125891
20
-1.14197560320247
30
0
41
1
10
158.225743051942
20
-1.01123505901779
30
0
41
1
10
157.863438265506
20
-0.880146139601351
30
0
41
1
10
157.138980350463
20
-0.61790673629659
30
0
41
1
10
156.776865209092
20
-0.486650084560637
30
0
41
1
10
156.05292856129
20
-0.223678663437596
30
0
41
1
10
155.691126936078
20
-0.0919089184822326
30
0
41
1
10
154.967731445985
20
0.171847985726202
30
0
41
1
10
154.606016921331
20
0.30350098997161
30
0
41
1
10
153.882473659294
20
0.566135968646563
30
0
41
1
10
153.52066812486
20
0.697182205492794
30
0
41
1
10
152.797043301808
20
0.958880901986049
30
0
41
1
10
152.435240640375
20
1.08957886684297
30
0
41
1
10
151.711466793535
20
1.35015249966679
30
0
41
1
10
151.349479133272
20
1.47998278954492
30
0
41
1
10
150.625025977646
20
1.73797323141281
30
0
41
1
10
150.262595914589
20
1.86623090954046
30
0
41
1
10
149.9
20
1.99385359833812
30
0
0
SPLINE
5
CC
100
AcDbEntity
8
1
62
256
6
ByLayer
370
18
48
1
60
0
100
AcDbSpline
70
4
71
3
72
85
73
81
40
0
40
0
40
0
40
0
40
0.0312500000000063
40
0.0312500000000063
40
0.0625000000000126
40
0.0625000000000126
40
0.125000000000025
40
0.125000000000025
40
0.140625000000029
40
0.140625000000029
40
0.156250000000032
40
0.156250000000032
40
0.187500000000036
40
0.187500000000036
40
0.250000000000044
40
0.250000000000044
40
0.281250000000049
40
0.281250000000049
40
0.296875000000052
40
0.296875000000052
40
0.312500000000055
40
0.312500000000055
40
0.343750000000058
40
0.343750000000058
40
0.375000000000062
40
0.375000000000062
40
0.406250000000065
40
0.406250000000065
40
0.437500000000069
40
0.437500000000069
40
0.445312500000069
40
0.445312500000069
40
0.45312500000007
40
0.468750000000071
40
0.468750000000071
40
0.500000000000074
40
0.500000000000074
40
0.531250000000076
40
0.531250000000076
40
0.539062500000077
40
0.539062500000077
40
0.546875000000077
40
0.562500000000078
40
0.562500000000078
40
0.59375000000008
40
0.59375000000008
40
0.625000000000082
40
0.625000000000082
40
0.632812500000083
40
0.632812500000083
40
0.640625000000083
40
0.656250000000082
40
0.656250000000082
40
0.687500000000079
40
0.687500000000079
40
0.718750000000076
40
0.718750000000076
40
0.726562500000074
40
0.726562500000074
40
0.734375000000073
40
0.734375000000073
40
0.750000000000068
40
0.750000000000068
40
0.781250000000059
40
0.781250000000059
40
0.812500000000049
40
0.84375000000004
40
0.84375000000004
40
0.851562500000038
40
0.851562500000038
40
0.859375000000036
40
0.875000000000032
40
0.875000000000032
40
0.906250000000025
40
0.937500000000017
40
0.96875000000001
40
0.96875000000001
40
0.984375000000005
40
0.984375000000005
40
1
40
1
40
1
40
1
41
1
10
158.588238125896
20
7.74596955105659
30
0
41
1
10
158.638211791501
20
7.62204052306069
30
0
41
1
10
158.688263635836
20
7.49624874643615
30
0
41
1
10
158.788608474512
20
7.24123751950134
30
0
41
1
10
158.838901388728
20
7.11201732917164
30
0
41
1
10
158.99022992215
20
6.71954306935214
30
0
41
1
10
159.091728508661
20
6.45150795277667
30
0
41
1
10
159.219471245197
20
6.10910416223953
30
0
41
1
10
159.245062204003
20
6.04025286332293
30
0
41
1
10
159.296326703607
20
5.90181529851571
30
0
41
1
10
159.322009962807
20
5.83220174883729
30
0
41
1
10
159.398722187907
20
5.62350363402598
30
0
41
1
10
159.449567142736
20
5.48415469174012
30
0
41
1
10
159.601149439998
20
5.06545260477591
30
0
41
1
10
159.70098526944
20
4.78546384667814
30
0
41
1
10
159.847930207708
20
4.36389168047967
30
0
41
1
10
159.896432991817
20
4.22309859425209
30
0
41
1
10
159.968198800115
20
4.0114109429696
30
0
41
1
10
159.991954704766
20
3.94076489990607
30
0
41
1
10
160.039069939165
20
3.79928282235926
30
0
41
1
10
160.062439409183
20
3.72841392818503
30
0
41
1
10
160.131498023817
20
3.51651163009933
30
0
41
1
10
160.176260708363
20
3.37585287717926
30
0
41
1
10
160.262414370219
20
3.09552270540775
30
0
41
1
10
160.303810855944
20
2.95585231341246
30
0
41
1
10
160.381974306415
20
2.67720700935445
30
0
41
1
10
160.418748077188
20
2.538232485148
30
0
41
1
10
160.485773996521
20
2.26059994555936
30
0
41
1
10
160.516029147744
20
2.12194079632036
30
0
41
1
10
160.548086300885
20
1.94852585899466
30
0
41
1
10
160.55421278398
20
1.9138071138735
30
0
41
1
10
160.565811922642
20
1.84449646602158
30
0
41
1
10
160.582203108288
20
1.74089338296426
30
0
41
1
10
160.595395391438
20
1.63839267347535
30
0
41
1
10
160.617084993959
20
1.43491740214495
30
0
41
1
10
160.625238641074
20
1.30129500394739
30
0
41
1
10
160.627405101444
20
1.03857875551572
30
0
41
1
10
160.621405039591
20
0.909487116995308
30
0
41
1
10
160.605119215388
20
0.751374256265194
30
0
41
1
10
160.601421437321
20
0.719873527165731
30
0
41
1
10
160.593199097721
20
0.657402157137
30
0
41
1
10
160.579655883906
20
0.564689418409841
30
0
41
1
10
160.562692830637
20
0.47492330610126
30
0
41
1
10
160.524775123264
20
0.299225731823299
30
0
41
1
10
160.494196321262
20
0.187199804855879
30
0
41
1
10
160.425190577396
20
-0.0270348561973321
30
0
41
1
10
160.386769479073
20
-0.12924650308284
30
0
41
1
10
160.3351125016
20
-0.250966409155979
30
0
41
1
10
160.324587248035
20
-0.275030431198701
30
0
41
1
10
160.303244393305
20
-0.322440936417706
30
0
41
1
10
160.270830289856
20
-0.39239719502379
30
0
41
1
10
160.237340686678
20
-0.458942960979215
30
0
41
1
10
160.16918730446
20
-0.587623063797167
30
0
41
1
10
160.122201647272
20
-0.667540142255461
30
0
41
1
10
160.026040907491
20
-0.816024061475929
30
0
41
1
10
159.976859342701
20
-0.884588795510837
30
0
41
1
10
159.914309540368
20
-0.963210092589947
30
0
41
1
10
159.9017451425
20
-0.978579289672439
30
0
41
1
10
159.87651213672
20
-1.00860457421157
30
0
41
1
10
159.86383741013
20
-1.02326659261999
30
0
41
1
10
159.825829528653
20
-1.06599441222522
30
0
41
1
10
159.800460276764
20
-1.09286743072576
30
0
41
1
10
159.724300222785
20
-1.1687578807487
30
0
41
1
10
159.673460904223
20
-1.21305645379673
30
0
41
1
10
159.571742758832
20
-1.28937846249718
30
0
41
1
10
159.469982662996
20
-1.3534228053534
30
0
41
1
10
159.368109903989
20
-1.39294232863205
30
0
41
1
10
159.304351553624
20
-1.40981136928724
30
0
41
1
10
159.291590517276
20
-1.41279291141282
30
0
41
1
10
159.266174621976
20
-1.4179448259072
30
0
41
1
10
159.228166918059
20
-1.42446834664486
30
0
41
1
10
159.190495210438
20
-1.4274187486553
30
0
41
1
10
159.115566840282
20
-1.42863570251561
30
0
41
1
10
159.016768841874
20
-1.41778444020801
30
0
41
1
10
158.871371521471
20
-1.36475108606044
30
0
41
1
10
158.775965092764
20
-1.3048392880317
30
0
41
1
10
158.704853311717
20
-1.25049218210816
30
0
41
1
10
158.681298095517
20
-1.23086114767423
30
0
41
1
10
158.63453323765
20
-1.1886456763302
30
0
41
1
10
158.61131158261
20
-1.1660520983261
30
0
41
1
10
158.588238125896
20
-1.14197560320417
30
0
0
SPLINE
5
CD
100
AcDbEntity
8
1
62
256
6
ByLayer
370
18
48
1
60
0
100
AcDbSpline
70
4
71
3
72
18
73
14
40
0
40
0
40
0
40
0
40
0.0222916833153752
40
0.0222916833153752
40
0.2178333466523
40
0.2178333466523
40
0.413375009989225
40
0.413375009989225
40
0.60891667332615
40
0.60891667332615
40
0.804458336663075
40
0.804458336663075
40
1
40
1
40
1
40
1
41
1
10
153.035061209455
20
7.99900044184315
30
0
41
1
10
153.076306701371
20
7.99900681070815
30
0
41
1
10
153.11755265619
20
7.99897093519891
30
0
41
1
10
153.520609683551
20
7.99820827999997
30
0
41
1
10
153.882446122368
20
7.99428260499744
30
0
41
1
10
154.606028082609
20
7.9799527517138
30
0
41
1
10
154.967743476333
20
7.96953789236255
30
0
41
1
10
155.691150095608
20
7.94217665736599
30
0
41
1
10
156.05286542053
20
7.9252306595713
30
0
41
1
10
156.776733406629
20
7.88497876052773
30
0
41
1
10
157.13888697572
20
7.86168805400379
30
0
41
1
10
157.86340119728
20
7.80867619250338
30
0
41
1
10
158.225774561173
20
7.77895821732065
30
0
41
1
10
158.588238125891
20
7.74596955105702
30
0
0
SPLINE
5
CE
100
AcDbEntity
8
1
62
256
6
ByLayer
370
18
48
1
60
0
100
AcDbSpline
70
4
71
3
72
160
73
156
40
0
40
0
40
0
40
0
40
0.0307976594231831
40
0.0307976594231831
40
0.0461964891347749
40
0.0461964891347749
40
0.0538959039905705
40
0.0538959039905705
40
0.0615953188463662
40
0.0769941485579569
40
0.0769941485579569
40
0.0923929782695476
40
0.0923929782695476
40
0.107791807981138
40
0.107791807981138
40
0.123190637692729
40
0.123190637692729
40
0.13858946740432
40
0.13858946740432
40
0.146288882260115
40
0.146288882260115
40
0.153988297115911
40
0.153988297115911
40
0.184785956539091
40
0.184785956539091
40
0.200184786250682
40
0.200184786250682
40
0.207884201106478
40
0.207884201106478
40
0.215583615962273
40
0.215583615962273
40
0.230982445673865
40
0.230982445673865
40
0.238681860529661
40
0.238681860529661
40
0.246381275385456
40
0.246381275385456
40
0.261780105097047
40
0.261780105097047
40
0.277178934808638
40
0.277178934808638
40
0.292577764520228
40
0.292577764520228
40
0.300277179376024
40
0.300277179376024
40
0.307976594231819
40
0.307976594231819
40
0.32337542394341
40
0.32337542394341
40
0.338774253655001
40
0.338774253655001
40
0.346473668510796
40
0.346473668510796
40
0.354173083366591
40
0.354173083366591
40
0.369571913078182
40
0.369571913078182
40
0.384970742789773
40
0.384970742789773
40
0.400369572501364
40
0.400369572501364
40
0.415768402212955
40
0.415768402212955
40
0.431167231924545
40
0.431167231924545
40
0.446566061636136
40
0.446566061636136
40
0.454265476491932
40
0.454265476491932
40
0.461964891347728
40
0.461964891347728
40
0.477363721059319
40
0.477363721059319
40
0.49276255077091
40
0.49276255077091
40
0.500461965626706
40
0.508161380482501
40
0.508161380482501
40
0.523560210194092
40
0.523560210194092
40
0.531259625049888
40
0.531259625049888
40
0.538959039905684
40
0.538959039905684
40
0.554357869617275
40
0.554357869617275
40
0.569756699328867
40
0.569756699328867
40
0.585155529040458
40
0.585155529040458
40
0.600554358752049
40
0.600554358752049
40
0.615953188463641
40
0.615953188463641
40
0.631352018175232
40
0.631352018175232
40
0.639051433031028
40
0.639051433031028
40
0.646750847886823
40
0.646750847886823
40
0.662149677598415
40
0.662149677598415
40
0.677548507310006
40
0.677548507310006
40
0.692947337021597
40
0.692947337021597
40
0.708346166733189
40
0.708346166733189
40
0.72374499644478
40
0.72374499644478
40
0.731444411300575
40
0.731444411300575
40
0.739143826156371
40
0.739143826156371
40
0.746843241012166
40
0.746843241012166
40
0.754542655867961
40
0.754542655867961
40
0.769941485579551
40
0.769941485579551
40
0.785340315291142
40
0.785340315291142
40
0.800739145002732
40
0.800739145002732
40
0.816137974714322
40
0.816137974714322
40
0.831536804425912
40
0.831536804425912
40
0.839236219281708
40
0.839236219281708
40
0.846935634137503
40
0.846935634137503
40
0.862334463849094
40
0.862334463849094
40
0.877733293560686
40
0.877733293560686
40
0.893132123272277
40
0.893132123272277
40
0.908530952983868
40
0.908530952983868
40
0.916230367839665
40
0.916230367839665
40
0.923929782695461
40
0.923929782695461
40
0.931629197551257
40
0.931629197551257
40
0.939328612407053
40
0.939328612407053
40
0.954727442118647
40
0.954727442118647
40
0.97012627183024
40
0.97012627183024
40
0.985525101541834
40
0.985525101541834
40
1
40
1
40
1
40
1
41
1
10
16.6798623052549
20
7.68346305504423
30
0
41
1
10
17.3762518971494
20
7.66742255792033
30
0
41
1
10
18.0723595494559
20
7.63990984510878
30
0
41
1
10
19.1155597333507
20
7.58158160501975
30
0
41
1
10
19.4631286602521
20
7.55928138853969
30
0
41
1
10
19.9842081996663
20
7.52149344063605
30
0
41
1
10
20.1578639354378
20
7.50817768119285
30
0
41
1
10
20.505214305941
20
7.48018222566139
30
0
41
1
10
21.0262895048646
20
7.43614013968443
30
0
41
1
10
21.5474368998576
20
7.38595341926134
30
0
41
1
10
22.2422422064524
20
7.31349371072261
30
0
41
1
10
22.5895928971838
20
7.27446791561687
30
0
41
1
10
23.2842595481379
20
7.19083679028705
30
0
41
1
10
23.6315995363237
20
7.14624928766315
30
0
41
1
10
24.3266323500652
20
7.05189871569212
30
0
41
1
10
24.6743546099914
20
7.00218019556056
30
0
41
1
10
25.3700243908069
20
6.89746195434796
30
0
41
1
10
25.7179724766016
20
6.84246007925381
30
0
41
1
10
26.2400256892274
20
6.75589783718328
30
0
41
1
10
26.4140587661169
20
6.72635694989407
30
0
41
1
10
26.7622079078176
20
6.66596612722159
30
0
41
1
10
26.9363433430054
20
6.63513007007094
30
0
41
1
10
27.8067927007362
20
6.47818165792074
30
0
41
1
10
28.5027885130167
20
6.34346841701696
30
0
41
1
10
29.5455518067661
20
6.12662987297662
30
0
41
1
10
29.8929555759961
20
6.05190855629579
30
0
41
1
10
30.4140196098568
20
5.93657486204367
30
0
41
1
10
30.587701881258
20
5.89759124748966
30
0
41
1
10
30.9350983691982
20
5.81863219333869
30
0
41
1
10
31.1088108349495
20
5.7786540641842
30
0
41
1
10
31.6299498902203
20
5.65715357400927
30
0
41
1
10
31.9773672403564
20
5.57404554325959
30
0
41
1
10
32.4984169710093
20
5.446084693214
30
0
41
1
10
32.6720885366168
20
5.40288285641381
30
0
41
1
10
33.0194020466444
20
5.31536343339357
30
0
41
1
10
33.1930387455088
20
5.2710341527833
30
0
41
1
10
33.714029927723
20
5.13662857219805
30
0
41
1
10
34.0615391773714
20
5.04529581580289
30
0
41
1
10
34.7568568136047
20
4.85907588036949
30
0
41
1
10
35.1046540282557
20
4.76416480437723
30
0
41
1
10
35.8004098456042
20
4.57045962042724
30
0
41
1
10
36.1483415798962
20
4.47159697746696
30
0
41
1
10
36.6705063093058
20
4.32069663113947
30
0
41
1
10
36.8446393391128
20
4.26995739343573
30
0
41
1
10
37.1928773581792
20
4.16777577492647
30
0
41
1
10
37.3669647706021
20
4.11634724566704
30
0
41
1
10
37.8891652331292
20
3.96113652748403
30
0
41
1
10
38.2371883510192
20
3.85636102538066
30
0
41
1
10
38.9328557656703
20
3.64381668286165
30
0
41
1
10
39.2805068806311
20
3.53606412020213
30
0
41
1
10
39.8016876154772
20
3.37214483450583
30
0
41
1
10
39.9753709098356
20
3.31713751198205
30
0
41
1
10
40.3227634749036
20
3.20668387144332
30
0
41
1
10
40.4964729255108
20
3.15123854472452
30
0
41
1
10
41.0176158423543
20
2.98418717712576
30
0
41
1
10
41.3650633196941
20
2.87186541065057
30
0
41
1
10
42.0598735845787
20
2.64499366439449
30
0
41
1
10
42.4072148310943
20
2.53038436954194
30
0
41
1
10
43.1018240179331
20
2.298948577593
30
0
41
1
10
43.4491168928317
20
2.18218805203287
30
0
41
1
10
44.1440166486252
20
1.94751654216597
30
0
41
1
10
44.4916566894311
20
1.82970198691371
30
0
41
1
10
45.1871390135783
20
1.59262608793571
30
0
41
1
10
45.5349789883309
20
1.47335723624482
30
0
41
1
10
46.2308041866789
20
1.23318777934352
30
0
41
1
10
46.5787349797789
20
1.11212460022838
30
0
41
1
10
47.1011420866536
20
0.930462097443012
30
0
41
1
10
47.2752749538315
20
0.869902891908794
30
0
41
1
10
47.6233102025229
20
0.748800138201347
30
0
41
1
10
47.7972451618172
20
0.688245231488168
30
0
41
1
10
48.318782482295
20
0.506502299891849
30
0
41
1
10
48.6661159321228
20
0.385230650373899
30
0
41
1
10
49.3599726115263
20
0.142168501105118
30
0
41
1
10
49.7065083234964
20
0.0204210471596866
30
0
41
1
10
50.2259383760773
20
-0.161848945465522
30
0
41
1
10
50.5721027013539
20
-0.28323924852134
30
0
41
1
10
50.9181055363367
20
-0.404132159049254
30
0
41
1
10
51.4369524785476
20
-0.585216384035022
30
0
41
1
10
51.7826299602972
20
-0.705632127391226
30
0
41
1
10
52.300752152614
20
-0.885988419402338
30
0
41
1
10
52.4733949908603
20
-0.946059015059831
30
0
41
1
10
52.8185452178854
20
-1.06612094808568
30
0
41
1
10
52.9910463494215
20
-1.12613070744246
30
0
41
1
10
53.5084472907105
20
-1.30573788557314
30
0
41
1
10
53.8533264499538
20
-1.42467166762518
30
0
41
1
10
54.5429597246949
20
-1.6610033813557
30
0
41
1
10
54.8876971422266
20
-1.77845090992838
30
0
41
1
10
55.576901830879
20
-2.01223417356292
30
0
41
1
10
55.9213408193013
20
-2.12864890319676
30
0
41
1
10
56.6100991424289
20
-2.35991963599355
30
0
41
1
10
56.9544306869357
20
-2.4747401847622
30
0
41
1
10
57.6433169533979
20
-2.70187076457964
30
0
41
1
10
57.9878430193199
20
-2.81426445184087
30
0
41
1
10
58.6768902653497
20
-3.03718467234648
30
0
41
1
10
59.0214220104133
20
-3.14768131858236
30
0
41
1
10
59.5381952377292
20
-3.31206477660638
30
0
41
1
10
59.7104479779899
20
-3.36663429010017
30
0
41
1
10
60.0550413532485
20
-3.4750597124262
30
0
41
1
10
60.2273926324271
20
-3.52888758201823
30
0
41
1
10
60.744604409984
20
-3.68923680149757
30
0
41
1
10
61.0896143872096
20
-3.79464743446462
30
0
41
1
10
61.7799206938278
20
-4.00280384844126
30
0
41
1
10
62.1252043376235
20
-4.1055818070152
30
0
41
1
10
62.8160224165096
20
-4.30854082825439
30
0
41
1
10
63.1615830234282
20
-4.40865246075504
30
0
41
1
10
63.8533148149823
20
-4.60535629535636
30
0
41
1
10
64.1995268895131
20
-4.70184958501792
30
0
41
1
10
64.8925434329789
20
-4.89137461599864
30
0
41
1
10
65.2393282955924
20
-4.98445405425025
30
0
41
1
10
65.7598847312312
20
-5.12161759142782
30
0
41
1
10
65.9334648308175
20
-5.16693379148799
30
0
41
1
10
66.280757812262
20
-5.25672705575886
30
0
41
1
10
66.4544749564631
20
-5.30119357869717
30
0
41
1
10
66.8021536052172
20
-5.38902314825521
30
0
41
1
10
66.9761124428239
20
-5.43239299413148
30
0
41
1
10
67.3242535150777
20
-5.51808114808492
30
0
41
1
10
67.4984814862597
20
-5.56041025237946
30
0
41
1
10
68.0209251535246
20
-5.6857363189944
30
0
41
1
10
68.3690176412235
20
-5.76710539841673
30
0
41
1
10
69.064683431386
20
-5.92569525208586
30
0
41
1
10
69.4122485244587
20
-6.0029232447589
30
0
41
1
10
70.1071415592053
20
-6.15267830513091
30
0
41
1
10
70.454497659196
20
-6.22515750790834
30
0
41
1
10
71.1492051867025
20
-6.36507317438878
30
0
41
1
10
71.4965040381945
20
-6.43260333057771
30
0
41
1
10
72.1908749684064
20
-6.56299364534513
30
0
41
1
10
72.5379322633261
20
-6.62587237647605
30
0
41
1
10
73.0584022699308
20
-6.71656442456438
30
0
41
1
10
73.2318929057323
20
-6.74616165158037
30
0
41
1
10
73.5789542787227
20
-6.80398574813211
30
0
41
1
10
73.7525146374665
20
-6.83222780449708
30
0
41
1
10
74.2732599564845
20
-6.91498744481589
30
0
41
1
10
74.6205085430078
20
-6.96754207567329
30
0
41
1
10
75.3150568990326
20
-7.06755887348197
30
0
41
1
10
75.662327490723
20
-7.11505021571364
30
0
41
1
10
76.3570257597472
20
-7.2047609490975
30
0
41
1
10
76.7044690797098
20
-7.24695982855681
30
0
41
1
10
77.3998878478399
20
-7.32571475602001
30
0
41
1
10
77.7478539272818
20
-7.36229071254687
30
0
41
1
10
78.2700444722404
20
-7.41308320499522
30
0
41
1
10
78.4441509227829
20
-7.42933204273751
30
0
41
1
10
78.7924433540482
20
-7.46046387114325
30
0
41
1
10
78.9666017887827
20
-7.47534408164498
30
0
41
1
10
79.3146968504045
20
-7.50371012487591
30
0
41
1
10
79.4886621750872
20
-7.51720153852145
30
0
41
1
10
79.8365204490682
20
-7.54273957565357
30
0
41
1
10
80.0104268237974
20
-7.55477885992849
30
0
41
1
10
80.5321002942193
20
-7.58871407775789
30
0
41
1
10
80.879803198056
20
-7.60844231878448
30
0
41
1
10
81.5749281342183
20
-7.64221061921873
30
0
41
1
10
81.9223395000345
20
-7.65625294485696
30
0
41
1
10
82.6168217140895
20
-7.67862934802454
30
0
41
1
10
82.9639193254053
20
-7.68694802842305
30
0
41
1
10
83.6373241041488
20
-7.69746233346979
30
0
41
1
10
83.9636733375463
20
-7.70000943492147
30
0
41
1
10
84.2900370175919
20
-7.70001229699346
30
0
0
SPLINE
5
CF
100
AcDbEntity
8
1
62
256
6
ByLayer
370
18
48
1
60
0
100
AcDbSpline
70
4
71
3
72
38
73
34
40
0
40
0
40
0
40
0
40
0.0286546764388519
40
0.0286546764388519
40
0.109600120068948
40
0.109600120068948
40
0.150072841883997
40
0.150072841883997
40
0.190545563699047
40
0.190545563699047
40
0.352436450959244
40
0.352436450959244
40
0.39290917277429
40
0.39290917277429
40
0.433381894589338
40
0.433381894589338
40
0.473854616404386
40
0.473854616404386
40
0.514327338219434
40
0.514327338219434
40
0.595272781849524
40
0.595272781849524
40
0.635745503664571
40
0.635745503664571
40
0.676218225479618
40
0.676218225479618
40
0.757163669109714
40
0.757163669109714
40
0.83810911273981
40
0.83810911273981
40
0.919054556369904
40
0.919054556369904
40
1
40
1
40
1
40
1
41
1
10
137.005493169175
20
5.6693746719651
30
0
41
1
10
137.128649391572
20
5.69851889734002
30
0
41
1
10
137.251803113712
20
5.72738587215062
30
0
41
1
10
137.722826587704
20
5.83676584918851
30
0
41
1
10
138.070644915332
20
5.91541428359781
30
0
41
1
10
138.592244177384
20
6.03024149000561
30
0
41
1
10
138.76608451031
20
6.06800073631831
30
0
41
1
10
139.113742355245
20
6.14242726396347
30
0
41
1
10
139.287567311334
20
6.17908085713648
30
0
41
1
10
140.15693506407
20
6.35910868748135
30
0
41
1
10
140.853048806329
20
6.49309872287014
30
0
41
1
10
141.723359283763
20
6.6490062967984
30
0
41
1
10
141.897432177731
20
6.67960156458926
30
0
41
1
10
142.245638057001
20
6.73955764241063
30
0
41
1
10
142.419762574411
20
6.76891754047827
30
0
41
1
10
142.767903842363
20
6.82631273187468
30
0
41
1
10
142.941946680714
20
6.85435167628694
30
0
41
1
10
143.290021201437
20
6.90906103996707
30
0
41
1
10
143.464055850084
20
6.93572836806783
30
0
41
1
10
143.986114243373
20
7.01372884071779
30
0
41
1
10
144.334079689541
20
7.06307840265399
30
0
41
1
10
144.855842297962
20
7.13320780494206
30
0
41
1
10
145.029733746613
20
7.15593269581362
30
0
41
1
10
145.377451202815
20
7.20007932898423
30
0
41
1
10
145.551270008276
20
7.22150766445895
30
0
41
1
10
146.072720941032
20
7.28373453748202
30
0
41
1
10
146.420442148461
20
7.32238693709883
30
0
41
1
10
147.116073252119
20
7.39407804705848
30
0
41
1
10
147.463960231182
20
7.42713898412663
30
0
41
1
10
148.159758259764
20
7.4877732185104
30
0
41
1
10
148.507639477279
20
7.51536073546197
30
0
41
1
10
149.203581276956
20
7.56488310664471
30
0
41
1
10
149.551655840357
20
7.58680708956362
30
0
41
1
10
149.9
20
7.60582116970366
30
0
0
SPLINE
5
D0
100
AcDbEntity
8
1
62
256
6
ByLayer
370
18
48
1
60
0
100
AcDbSpline
70
4
71
3
72
65
73
61
40
0
40
0
40
0
40
0
40
0.0364006983522789
40
0.0364006983522789
40
0.0546010475284184
40
0.0546010475284184
40
0.0728013967045578
40
0.0728013967045578
40
0.109202095056834
40
0.109202095056834
40
0.145602793409111
40
0.145602793409111
40
0.182003491761387
40
0.182003491761387
40
0.218404190113663
40
0.218404190113663
40
0.25480488846594
40
0.25480488846594
40
0.273005237642077
40
0.273005237642077
40
0.291205586818214
40
0.327606285170488
40
0.327606285170488
40
0.345806634346624
40
0.345806634346624
40
0.364006983522761
40
0.364006983522761
40
0.400407681875038
40
0.400407681875038
40
0.436808380227314
40
0.436808380227314
40
0.47320907857959
40
0.47320907857959
40
0.509609776931867
40
0.509609776931867
40
0.582411173636417
40
0.582411173636417
40
0.618811871988691
40
0.618811871988691
40
0.655212570340965
40
0.655212570340965
40
0.691613268693239
40
0.691613268693239
40
0.709813617869375
40
0.709813617869375
40
0.728013967045512
40
0.728013967045512
40
0.800815363750057
40
0.800815363750057
40
0.83721606210233
40
0.83721606210233
40
0.873616760454602
40
0.873616760454602
40
0.910017458806875
40
0.910017458806875
40
0.928217807983011
40
0.928217807983011
40
0.946418157159148
40
0.946418157159148
40
1
40
1
40
1
40
1
41
1
10
149.9
20
1.8151257536216
30
0
41
1
10
149.542420990623
20
1.93675806014812
30
0
41
1
10
149.185101741244
20
2.05772383471225
30
0
41
1
10
148.649471254718
20
2.23804670917394
30
0
41
1
10
148.470973086461
20
2.29793056829715
30
0
41
1
10
148.113999910173
20
2.41706548313274
30
0
41
1
10
147.935532456646
20
2.4763379003488
30
0
41
1
10
147.400195326351
20
2.65329675436806
30
0
41
1
10
147.04339233759
20
2.7701297624927
30
0
41
1
10
146.330007494207
20
3.00164213324598
30
0
41
1
10
145.973439351765
20
3.11635642090749
30
0
41
1
10
145.260425564459
20
3.34335597781853
30
0
41
1
10
144.903974159988
20
3.45562447157749
30
0
41
1
10
144.190893387805
20
3.67696283951824
30
0
41
1
10
143.834282471208
20
3.7860836395995
30
0
41
1
10
143.120994502951
20
4.00142181954098
30
0
41
1
10
142.764314335448
20
4.10763088107493
30
0
41
1
10
142.229254426808
20
4.26477312223398
30
0
41
1
10
142.050892919573
20
4.31678744014582
30
0
41
1
10
141.69406771011
20
4.41987594974341
30
0
41
1
10
141.158671943671
20
4.57308830911103
30
0
41
1
10
140.622827039216
20
4.72211270561397
30
0
41
1
10
140.086720286806
20
4.86843087800503
30
0
41
1
10
139.907942510768
20
4.91675943918449
30
0
41
1
10
139.550440997293
20
5.01247815648412
30
0
41
1
10
139.371805638628
20
5.05984594358054
30
0
41
1
10
138.836214968673
20
5.20039943139972
30
0
41
1
10
138.479582816684
20
5.29204992882788
30
0
41
1
10
137.766913898388
20
5.47067692792999
30
0
41
1
10
137.410862993255
20
5.55762960427845
30
0
41
1
10
136.699396063268
20
5.72702137501813
30
0
41
1
10
136.343977751804
20
5.80945437854973
30
0
41
1
10
135.633799539443
20
5.96984803098911
30
0
41
1
10
135.279054576169
20
6.04782711864149
30
0
41
1
10
134.215176529405
20
6.27386261712974
30
0
41
1
10
133.506586838518
20
6.41443396908201
30
0
41
1
10
132.444851368557
20
6.61046640794251
30
0
41
1
10
132.091115565482
20
6.67330283735637
30
0
41
1
10
131.383760736067
20
6.79361047603072
30
0
41
1
10
131.030107245568
20
6.85103741562264
30
0
41
1
10
130.322858448853
20
6.9604900676527
30
0
41
1
10
129.969275994437
20
7.01253299481934
30
0
41
1
10
129.438986659605
20
7.08658551276645
30
0
41
1
10
129.26224002678
20
7.11060329928927
30
0
41
1
10
128.908766565864
20
7.15728481296526
30
0
41
1
10
128.73203657085
20
7.17994425507942
30
0
41
1
10
127.848214932837
20
7.2896178977461
30
0
41
1
10
127.14069576856
20
7.36590565230068
30
0
41
1
10
126.078965693613
20
7.46338145723451
30
0
41
1
10
125.72497629182
20
7.49303135285612
30
0
41
1
10
125.016640200887
20
7.54647276977798
30
0
41
1
10
124.662262987739
20
7.57024639467284
30
0
41
1
10
123.952979938609
20
7.61185194577595
30
0
41
1
10
123.598102617021
20
7.62970193707031
30
0
41
1
10
123.065460391881
20
7.65203569598938
30
0
41
1
10
122.887858134832
20
7.65873939797655
30
0
41
1
10
122.532546799754
20
7.67065680459118
30
0
41
1
10
122.354841404358
20
7.67587079538274
30
0
41
1
10
121.653650054228
20
7.69345112405742
30
0
41
1
10
121.129417407771
20
7.70001738762406
30
0
41
1
10
120.604402735224
20
7.70000470206065
30
0
0
SPLINE
5
D1
100
AcDbEntity
8
1
62
256
6
ByLayer
370
18
48
1
60
0
100
AcDbSpline
70
4
71
3
72
110
73
106
40
0
40
0
40
0
40
0
40
0.0056928960281925
40
0.0056928960281925
40
0.0251891137531292
40
0.0251891137531292
40
0.0446853314780657
40
0.0446853314780657
40
0.0641815492030021
40
0.0641815492030021
40
0.0739296580654705
40
0.0739296580654705
40
0.0836777669279391
40
0.0836777669279391
40
0.103173984652876
40
0.103173984652876
40
0.142166420102751
40
0.142166420102751
40
0.161662637827688
40
0.161662637827688
40
0.181158855552625
40
0.181158855552625
40
0.200655073277563
40
0.200655073277563
40
0.210403182140032
40
0.210403182140032
40
0.2201512910025
40
0.2201512910025
40
0.259143726452376
40
0.259143726452376
40
0.278639944177313
40
0.278639944177313
40
0.298136161902251
40
0.298136161902251
40
0.317632379627189
40
0.317632379627189
40
0.337128597352127
40
0.337128597352127
40
0.356624815077065
40
0.356624815077065
40
0.376121032802003
40
0.376121032802003
40
0.395617250526941
40
0.395617250526941
40
0.415113468251879
40
0.415113468251879
40
0.434609685976816
40
0.434609685976816
40
0.454105903701755
40
0.454105903701755
40
0.463854012564223
40
0.463854012564223
40
0.473602121426692
40
0.473602121426692
40
0.49309833915163
40
0.49309833915163
40
0.512594556876567
40
0.512594556876567
40
0.532090774601505
40
0.532090774601505
40
0.571083210051379
40
0.571083210051379
40
0.590579427776315
40
0.590579427776315
40
0.610075645501251
40
0.610075645501251
40
0.629571863226188
40
0.629571863226188
40
0.649068080951125
40
0.649068080951125
40
0.688060516400999
40
0.688060516400999
40
0.697808625263467
40
0.697808625263467
40
0.707556734125936
40
0.707556734125936
40
0.727052951850874
40
0.727052951850874
40
0.746549169575812
40
0.746549169575812
40
0.76604538730075
40
0.76604538730075
40
0.785541605025688
40
0.785541605025688
40
0.805037822750626
40
0.805037822750626
40
0.814785931613095
40
0.814785931613095
40
0.824534040475564
40
0.824534040475564
40
0.844030258200501
40
0.844030258200501
40
0.863526475925439
40
0.863526475925439
40
0.883022693650376
40
0.883022693650376
40
0.902518911375313
40
0.902518911375313
40
0.922015129100251
40
0.922015129100251
40
0.941511346825188
40
0.941511346825188
40
0.961007564550125
40
0.961007564550125
40
1
40
1
40
1
40
1
41
1
10
67.9136903115932
20
-5.66377556772321
30
0
41
1
10
67.8096149357469
20
-5.68844646459246
30
0
41
1
10
67.7055347338898
20
-5.71292748803012
30
0
41
1
10
67.2449970436296
20
-5.82041368725189
30
0
41
1
10
66.8885030382303
20
-5.90141122162152
30
0
41
1
10
66.1753884507762
20
-6.05890164331976
30
0
41
1
10
65.8187610253428
20
-6.13537829569663
30
0
41
1
10
65.1050983889
20
-6.28331054061636
30
0
41
1
10
64.7480368841179
20
-6.3547261593371
30
0
41
1
10
64.2121469169425
20
-6.45811017176649
30
0
41
1
10
64.0334678176431
20
-6.49194862375876
30
0
41
1
10
63.6760145940261
20
-6.55838140199089
30
0
41
1
10
63.4971908633325
20
-6.5909843591202
30
0
41
1
10
62.9612000768396
20
-6.68681647183655
30
0
41
1
10
62.6044065069206
20
-6.7481358598798
30
0
41
1
10
61.5349723733535
20
-6.92338834498784
30
0
41
1
10
60.823401789096
20
-7.02889749175506
30
0
41
1
10
59.758279177385
20
-7.17063025142707
30
0
41
1
10
59.4035990544339
20
-7.21509051368855
30
0
41
1
10
58.6947430772869
20
-7.29822003062333
30
0
41
1
10
58.3405326996186
20
-7.33685843979669
30
0
41
1
10
57.6325244023835
20
-7.4083252595687
30
0
41
1
10
57.2787436767623
20
-7.44117014411421
30
0
41
1
10
56.7484293769933
20
-7.48612403690288
30
0
41
1
10
56.5717185900556
20
-7.50039006497511
30
0
41
1
10
56.2184143028327
20
-7.52747755058269
30
0
41
1
10
56.0418194502033
20
-7.54029714709773
30
0
41
1
10
55.15892614246
20
-7.60065332735346
30
0
41
1
10
54.4528858616582
20
-7.63703195398446
30
0
41
1
10
53.3944762667507
20
-7.67397998250726
30
0
41
1
10
53.0417831188036
20
-7.68334621341924
30
0
41
1
10
52.336430205045
20
-7.69611860624966
30
0
41
1
10
51.9837444213831
20
-7.69952166162469
30
0
41
1
10
51.2782047180238
20
-7.70038434808566
30
0
41
1
10
50.9253815293069
20
-7.6978489564074
30
0
41
1
10
50.2196735975184
20
-7.6868318166253
30
0
41
1
10
49.86680751457
20
-7.67834357447001
30
0
41
1
10
49.1609280004292
20
-7.65538163505144
30
0
41
1
10
48.807816407098
20
-7.64093682808348
30
0
41
1
10
48.1011932429676
20
-7.60617117968988
30
0
41
1
10
47.7476988983063
20
-7.58584537698886
30
0
41
1
10
47.0403817503563
20
-7.53926800988972
30
0
41
1
10
46.686571254455
20
-7.51300498042392
30
0
41
1
10
45.9785067746134
20
-7.45456746136557
30
0
41
1
10
45.6242443886995
20
-7.42239604721246
30
0
41
1
10
44.9150090701523
20
-7.35234958948661
30
0
41
1
10
44.5600603665096
20
-7.31446139895095
30
0
41
1
10
43.8495617544948
20
-7.23287315256002
30
0
41
1
10
43.4940114472402
20
-7.18917193888996
30
0
41
1
10
42.9602303748663
20
-7.11919943370975
30
0
41
1
10
42.7822234220272
20
-7.09514181281813
30
0
41
1
10
42.425971157166
20
-7.04565544152277
30
0
41
1
10
42.2477291674217
20
-7.02022356491656
30
0
41
1
10
41.7126626321231
20
-6.94185500435924
30
0
41
1
10
41.355475345063
20
-6.88684300137325
30
0
41
1
10
40.6403255829522
20
-6.77121262401351
30
0
41
1
10
40.283030551999
20
-6.71068181979336
30
0
41
1
10
39.5689142984887
20
-6.58430547953972
30
0
41
1
10
39.2120887435255
20
-6.51846283038
30
0
41
1
10
38.1418781001904
20
-6.31367394747195
30
0
41
1
10
37.4287708947506
20
-6.16749836067856
30
0
41
1
10
36.3599585293657
20
-5.93326774517422
30
0
41
1
10
36.0038196978556
20
-5.8526982447116
30
0
41
1
10
35.2913599564045
20
-5.68741850090044
30
0
41
1
10
34.9350878182581
20
-5.60262360290096
30
0
41
1
10
34.2225115678506
20
-5.42863434666296
30
0
41
1
10
33.8662146244441
20
-5.33942409814722
30
0
41
1
10
33.1535713073555
20
-5.15661245853568
30
0
41
1
10
32.7972176441909
20
-5.06302253256681
30
0
41
1
10
31.727670343384
20
-4.7765366404673
30
0
41
1
10
31.0138726095724
20
-4.57823409804934
30
0
41
1
10
30.1208978514854
20
-4.32062544042432
30
0
41
1
10
29.9422697735718
20
-4.26860683023458
30
0
41
1
10
29.584914207748
20
-4.16365069484644
30
0
41
1
10
29.4061425354193
20
-4.11072191597617
30
0
41
1
10
28.8701160665455
20
-3.95102043430015
30
0
41
1
10
28.5130276435987
20
-3.8432187196008
30
0
41
1
10
27.7994175855059
20
-3.62484887542567
30
0
41
1
10
27.442899993669
20
-3.51426970069693
30
0
41
1
10
26.7304496360537
20
-3.29029641079438
30
0
41
1
10
26.3745113330012
20
-3.17691617310808
30
0
41
1
10
25.6629869066723
20
-2.94797476474159
30
0
41
1
10
25.3073645736957
20
-2.83251375540172
30
0
41
1
10
24.5963591264808
20
-2.59973379352701
30
0
41
1
10
24.2409968137551
20
-2.4823575430903
30
0
41
1
10
23.7081880454967
20
-2.3047460463479
30
0
41
1
10
23.5306249400682
20
-2.24528229457127
30
0
41
1
10
23.1755772712315
20
-2.12583692513681
30
0
41
1
10
22.9980918779805
20
-2.06585744868602
30
0
41
1
10
22.4656249838774
20
-1.88550435541396
30
0
41
1
10
22.1106265243868
20
-1.76473497318381
30
0
41
1
10
21.4006327753176
20
-1.52201145508596
30
0
41
1
10
21.0456406914726
20
-1.40004810395891
30
0
41
1
10
20.3356970304068
20
-1.15482640411744
30
0
41
1
10
19.9807502329284
20
-1.03155324670647
30
0
41
1
10
19.2707131086823
20
-0.784237406489041
30
0
41
1
10
18.9155959728377
20
-0.660272893824271
30
0
41
1
10
18.2050090646309
20
-0.412190512941237
30
0
41
1
10
17.8495712507686
20
-0.287979714998784
30
0
41
1
10
17.1384525820161
20
-0.0390801965246794
30
0
41
1
10
16.7827924400433
20
0.0856708299173761
30
0
41
1
10
16.0711298171407
20
0.33536816443339
30
0
41
1
10
15.7150310976207
20
0.460025874098193
30
0
41
1
10
14.6458487646238
20
0.833166615202373
30
0
41
1
10
13.9319270996579
20
1.08095339348074
30
0
41
1
10
13.2170359482113
20
1.3283169925478
30
0
0
SPLINE
5
D2
100
AcDbEntity
8
1
62
256
6
ByLayer
370
18
48
1
60
0
100
AcDbSpline
70
4
71
3
72
14
73
10
40
0
40
0
40
0
40
0
40
0.249999999999996
40
0.249999999999996
40
0.499999999999997
40
0.499999999999997
40
0.749999999999999
40
0.749999999999999
40
1
40
1
40
1
40
1
41
1
10
13.2170359482112
20
1.32831699254786
30
0
41
1
10
12.9441237916812
20
1.42573797378404
30
0
41
1
10
12.6728227823621
20
1.52653841198784
30
0
41
1
10
12.1326700756917
20
1.73284566179515
30
0
41
1
10
11.8638152273148
20
1.83834599331928
30
0
41
1
10
11.3280574373039
20
2.05270858233234
30
0
41
1
10
11.0611528574353
20
2.16156855446306
30
0
41
1
10
10.5291563429855
20
2.38216965495857
30
0
41
1
10
10.264064475539
20
2.49391285495403
30
0
41
1
10
10
20
2.6072887812461
30
0
0
SPLINE
5
D3
100
AcDbEntity
8
1
62
256
6
ByLayer
370
18
48
1
60
0
100
AcDbSpline
70
4
71
4
72
13
73
8
40
0
40
0
40
0
40
0
40
0
40
0.459402635741084
40
0.459402635741084
40
0.459402635741084
40
1
40
1
40
1
40
1
40
1
41
0.996720492408031
10
16.6798623052549
20
7.68346305504423
30
0
41
0.994702535052078
10
16.5745326232463
20
6.7989603650639
30
0
41
0.994295254376361
10
16.3894739038051
20
5.81004544740869
30
0
41
1
10
16.1331885448085
20
4.83462688878595
30
0
41
1
10
15.5396227240543
20
2.99963397308764
30
0
41
0.992100544324179
10
15.1395872613319
20
2.01706413016406
30
0
41
0.995556484640396
10
14.7203936818266
20
1.30945088079154
30
0
41
0.998333654911484
10
14.3541617201852
20
0.911921743194762
30
0
0
SPLINE
5
D4
100
AcDbEntity
8
1
62
256
6
ByLayer
370
18
48
1
60
0
100
AcDbSpline
70
4
71
3
72
25
73
21
40
0
40
0
40
0
40
0
40
0.124999999999994
40
0.124999999999994
40
0.249999999999989
40
0.249999999999989
40
0.374999999999983
40
0.374999999999983
40
0.49999999999998
40
0.49999999999998
40
0.562499999999982
40
0.562499999999982
40
0.593749999999986
40
0.593749999999986
40
0.62499999999999
40
0.749999999999993
40
0.749999999999993
40
0.874999999999996
40
0.874999999999996
40
1
40
1
40
1
40
1
41
1
10
10
20
7.68216998192571
30
0
41
1
10
10.2846492183042
20
7.67993038014134
30
0
41
1
10
10.5686609885416
20
7.67831474028924
30
0
41
1
10
11.1355161264833
20
7.67675607469255
30
0
41
1
10
11.4183588709168
20
7.67680870902004
30
0
41
1
10
11.9829585158831
20
7.67844904097575
30
0
41
1
10
12.2647149513648
20
7.68003356960679
30
0
41
1
10
12.8272182717304
20
7.68415822393482
30
0
41
1
10
13.1079647896513
20
7.68669500434282
30
0
41
1
10
13.528389176203
20
7.69052062213336
30
0
41
1
10
13.6684148218872
20
7.69179681355968
30
0
41
1
10
13.8782883498119
20
7.69360824654817
30
0
41
1
10
13.9482055029384
20
7.69419466219549
30
0
41
1
10
14.0876891634742
20
7.69531235307386
30
0
41
1
10
14.4357093418075
20
7.69797079428326
30
0
41
1
10
14.780414479234
20
7.69971923077668
30
0
41
1
10
15.3283931665636
20
7.70020520152943
30
0
41
1
10
15.6006087738249
20
7.69928875008287
30
0
41
1
10
16.1421973878976
20
7.69410291005491
30
0
41
1
10
16.4115725559946
20
7.6898318594958
30
0
41
1
10
16.679862305255
20
7.68346305504426
30
0
0
SPLINE
5
D5
100
AcDbEntity
8
1
62
256
6
ByLayer
370
18
48
1
60
0
100
AcDbSpline
70
4
71
3
72
102
73
98
40
0
40
0
40
0
40
0
40
0.062499999999992
40
0.062499999999992
40
0.124999999999984
40
0.124999999999984
40
0.156249999999979
40
0.156249999999979
40
0.187499999999975
40
0.187499999999975
40
0.203124999999973
40
0.203124999999973
40
0.210937499999972
40
0.210937499999972
40
0.218749999999971
40
0.218749999999971
40
0.249999999999967
40
0.249999999999967
40
0.281249999999962
40
0.281249999999962
40
0.29687499999996
40
0.29687499999996
40
0.304687499999959
40
0.304687499999959
40
0.312499999999958
40
0.312499999999958
40
0.343749999999957
40
0.343749999999957
40
0.374999999999955
40
0.374999999999955
40
0.390624999999955
40
0.390624999999955
40
0.398437499999954
40
0.398437499999954
40
0.406249999999954
40
0.406249999999954
40
0.421874999999953
40
0.421874999999953
40
0.437499999999953
40
0.437499999999953
40
0.445312499999953
40
0.445312499999953
40
0.453124999999953
40
0.453124999999953
40
0.468749999999953
40
0.484374999999953
40
0.484374999999953
40
0.492187499999953
40
0.492187499999953
40
0.499999999999953
40
0.499999999999953
40
0.515624999999953
40
0.515624999999953
40
0.531249999999953
40
0.531249999999953
40
0.539062499999953
40
0.542968749999953
40
0.542968749999953
40
0.546874999999953
40
0.546874999999953
40
0.562499999999953
40
0.562499999999953
40
0.593749999999954
40
0.593749999999954
40
0.601562499999954
40
0.601562499999954
40
0.609374999999954
40
0.609374999999954
40
0.624999999999955
40
0.624999999999955
40
0.656249999999955
40
0.656249999999955
40
0.687499999999955
40
0.687499999999955
40
0.695312499999956
40
0.695312499999956
40
0.703124999999956
40
0.703124999999956
40
0.718749999999959
40
0.718749999999959
40
0.749999999999963
40
0.749999999999963
40
0.781249999999968
40
0.781249999999968
40
0.812499999999972
40
0.812499999999972
40
0.843749999999977
40
0.843749999999977
40
0.874999999999981
40
0.874999999999981
40
0.906249999999986
40
0.906249999999986
40
0.937499999999991
40
0.937499999999991
40
0.968749999999995
40
0.968749999999995
40
1
40
1
40
1
40
1
41
1
10
10.0000000000001
20
7.68216998192577
30
0
41
1
10
9.60659686261752
20
7.77595781518321
30
0
41
1
10
9.21820853507541
20
7.86929673526251
30
0
41
1
10
8.45162488106268
20
8.05258035611493
30
0
41
1
10
8.07342282529106
20
8.14254279631848
30
0
41
1
10
7.51401903480357
20
8.2719541708974
30
0
41
1
10
7.32886965915387
20
8.31415621290287
30
0
41
1
10
6.96129029078804
20
8.39597891191681
30
0
41
1
10
6.77885968101498
20
8.4356021546827
30
0
41
1
10
6.50734655418785
20
8.49241344592252
30
0
41
1
10
6.41719803289993
20
8.51091142155985
30
0
41
1
10
6.28252521895357
20
8.5378926123044
30
0
41
1
10
6.23772597790949
20
8.5467585488019
30
0
41
1
10
6.14831406781573
20
8.56421477348366
30
0
41
1
10
6.10366041997327
20
8.57281278003268
30
0
41
1
10
5.88142812718922
20
8.6149535476687
30
0
41
1
10
5.7071692359284
20
8.64592496072177
30
0
41
1
10
5.36617467862283
20
8.70102965544103
30
0
41
1
10
5.19943452155678
20
8.72517063840772
30
0
41
1
10
4.95552833319081
20
8.75489295696329
30
0
41
1
10
4.87526288350784
20
8.76371456431002
30
0
41
1
10
4.75652163807595
20
8.77509515295299
30
0
41
1
10
4.71721763373714
20
8.77857961764855
30
0
41
1
10
4.63918300410961
20
8.7848872835724
30
0
41
1
10
4.60046467324958
20
8.78770837053628
30
0
41
1
10
4.40940466401546
20
8.79998747459152
30
0
41
1
10
4.26378827737662
20
8.80407220278261
30
0
41
1
10
3.98860483143579
20
8.79824840482209
30
0
41
1
10
3.85901340275782
20
8.78836673279321
30
0
41
1
10
3.67873367954036
20
8.76024311991799
30
0
41
1
10
3.62100292012747
20
8.74863985881089
30
0
41
1
10
3.53836315984168
20
8.72737699098988
30
0
41
1
10
3.51147726530991
20
8.71964498609503
30
0
41
1
10
3.45911475295901
20
8.70278591291734
30
0
41
1
10
3.43378769783652
20
8.69370426948504
30
0
41
1
10
3.36071213736847
20
8.66452156121539
30
0
41
1
10
3.31574508321532
20
8.64244849922122
30
0
41
1
10
3.23376879719351
20
8.59261428530954
30
0
41
1
10
3.19675756384402
20
8.56485461320449
30
0
41
1
10
3.1476988132641
20
8.51851164045166
30
0
41
1
10
3.13242397269789
20
8.50227889909092
30
0
41
1
10
3.10413704798989
20
8.46815316791285
30
0
41
1
10
3.09110315773793
20
8.45021139911768
30
0
41
1
10
3.05599373863458
20
8.39447368675926
30
0
41
1
10
3.01947726986941
20
8.31473648725941
30
0
41
1
10
3.00363086507036
20
8.22400684838712
30
0
41
1
10
2.99967030696129
20
8.15172587867465
30
0
41
1
10
2.99967234437548
20
8.12692601500078
30
0
41
1
10
3.00236879115158
20
8.0758877956583
30
0
41
1
10
3.005066610418
20
8.04962695234832
30
0
41
1
10
3.01726974157967
20
7.96877884561894
30
0
41
1
10
3.03072027081026
20
7.91310408724954
30
0
41
1
10
3.06754748826458
20
7.79846493182063
30
0
41
1
10
3.09092637939241
20
7.73949996557877
30
0
41
1
10
3.13307747275064
20
7.64873978624482
30
0
41
1
10
3.15592593779525
20
7.60278094808569
30
0
41
1
10
3.18138323042538
20
7.5559785804472
30
0
41
1
10
3.19892995414591
20
7.52459201334591
30
0
41
1
10
3.20799813995629
20
7.50879495671438
30
0
41
1
10
3.25450280029895
20
7.42978997780685
30
0
41
1
10
3.29559624991069
20
7.36619861648211
30
0
41
1
10
3.4292575278763
20
7.17447542291899
30
0
41
1
10
3.53214486933985
20
7.04540313781672
30
0
41
1
10
3.67509518913971
20
6.8830254976902
30
0
41
1
10
3.70440756627207
20
6.8504973846656
30
0
41
1
10
3.76442308841848
20
6.78534670365821
30
0
41
1
10
3.79513099359187
20
6.75272235071768
30
0
41
1
10
3.8885612706963
20
6.65543922404339
30
0
41
1
10
3.95281292642426
20
6.59112061851084
30
0
41
1
10
4.15077282908521
20
6.39964105754888
30
0
41
1
10
4.28965729591994
20
6.27395219431844
30
0
41
1
10
4.57858811506273
20
6.02595706782418
30
0
41
1
10
4.7286508453559
20
5.90365428664083
30
0
41
1
10
4.92204257716963
20
5.75261634160708
30
0
41
1
10
4.96101287375458
20
5.72250090099112
30
0
41
1
10
5.0395123583495
20
5.66244773783117
30
0
41
1
10
5.0790349563718
20
5.63251576440115
30
0
41
1
10
5.1979441277692
20
5.54331805755015
30
0
41
1
10
5.27782675108517
20
5.48453045565603
30
0
41
1
10
5.51910389084412
20
5.30998044722213
30
0
41
1
10
5.68212134609936
20
5.1960247061896
30
0
41
1
10
6.01161899383652
20
4.9719570565303
30
0
41
1
10
6.1781016851792
20
4.86184757558888
30
0
41
1
10
6.51384335007242
20
4.64467182181701
30
0
41
1
10
6.68310343182617
20
4.53760648042154
30
0
41
1
10
7.02383608297811
20
4.32583925956752
30
0
41
1
10
7.19530898468995
20
4.221137440006
30
0
41
1
10
7.54000656270188
20
4.01352558951171
30
0
41
1
10
7.71323111408654
20
3.91061507721418
30
0
41
1
10
8.06107235710658
20
3.70612972532882
30
0
41
1
10
8.23568867676266
20
3.60455409639599
30
0
41
1
10
8.58606313001366
20
3.40241789450005
30
0
41
1
10
8.7618208170295
20
3.3018564350667
30
0
41
1
10
9.11434992340699
20
3.10158941537151
30
0
41
1
10
9.29115755803059
20
3.00186328299424
30
0
41
1
10
9.6451488877735
20
2.8036531856248
30
0
41
1
10
9.82240958473795
20
2.70512482868287
30
0
41
1
10
10
20
2.6072887812461
30
0
0
SPLINE
5
D6
100
AcDbEntity
8
1
62
256
6
ByLayer
370
18
48
1
60
0
100
AcDbSpline
70
4
71
3
72
12
73
8
40
0
40
0
40
0
40
0
40
0.48496596196875
40
0.48496596196875
40
0.969931923937501
40
0.969931923937501
40
1
40
1
40
1
40
1
41
1
10
10
20
-7.68216998192571
30
0
41
1
10
9.60659686261749
20
-7.77595781518315
30
0
41
1
10
9.21820853507541
20
-7.86929673526251
30
0
41
1
10
8.45162488106268
20
-8.05258035611496
30
0
41
1
10
8.07342282529103
20
-8.14254279631851
30
0
41
1
10
7.67736479826971
20
-8.23416608268411
30
0
41
1
10
7.65426290591896
20
-8.23950074131818
30
0
41
1
10
7.63118136634796
20
-8.24482034391352
30
0
0
SPLINE
5
D7
100
AcDbEntity
8
SK1
62
256
6
ByLayer
370
18
48
1
60
0
100
AcDbSpline
70
4
71
3
72
32
73
28
40
0
40
0
40
0
40
0
40
0.124999999999998
40
0.124999999999998
40
0.249999999999995
40
0.249999999999995
40
0.374999999999994
40
0.374999999999994
40
0.437499999999993
40
0.437499999999993
40
0.499999999999992
40
0.499999999999992
40
0.624999999999988
40
0.624999999999988
40
0.656249999999988
40
0.656249999999988
40
0.687499999999988
40
0.687499999999988
40
0.74999999999999
40
0.74999999999999
40
0.874999999999995
40
0.874999999999995
40
0.906249999999996
40
0.906249999999996
40
0.937499999999998
40
0.937499999999998
40
1
40
1
40
1
40
1
41
1
10
-43.3565069115799
20
-3.65034953143106
30
0
41
1
10
-43.3331458400142
20
-3.71424193668162
30
0
41
1
10
-43.3079887114829
20
-3.77702079626832
30
0
41
1
10
-43.2534212788423
20
-3.90009490817781
30
0
41
1
10
-43.2240149751524
20
-3.96039186522651
30
0
41
1
10
-43.1600568886594
20
-4.07814914960466
30
0
41
1
10
-43.1255132756746
20
-4.13561297938583
30
0
41
1
10
-43.0688646453433
20
-4.21928792338744
30
0
41
1
10
-43.0491724017425
20
-4.24675781820287
30
0
41
1
10
-43.0079384175976
20
-4.30075945417201
30
0
41
1
10
-42.9863407519915
20
-4.32734895814056
30
0
41
1
10
-42.9191284528728
20
-4.40464696643178
30
0
41
1
10
-42.8709653357112
20
-4.45314968312832
30
0
41
1
10
-42.8054200814028
20
-4.509129269905
30
0
41
1
10
-42.7920414880158
20
-4.52009075475445
30
0
41
1
10
-42.7647046009874
20
-4.54151368998052
30
0
41
1
10
-42.7507137384423
20
-4.55199803198428
30
0
41
1
10
-42.7080552923505
20
-4.58246627252342
30
0
41
1
10
-42.6787844981831
20
-4.60141919352105
30
0
41
1
10
-42.588250922941
20
-4.65388326760876
30
0
41
1
10
-42.5243097226538
20
-4.68306815187688
30
0
41
1
10
-42.4386823815538
20
-4.71050598268181
30
0
41
1
10
-42.4212064346087
20
-4.71554997578619
30
0
41
1
10
-42.3860524535981
20
-4.72455026306568
30
0
41
1
10
-42.3683576016114
20
-4.72851630488563
30
0
41
1
10
-42.3149119913326
20
-4.73878190613445
30
0
41
1
10
-42.2788010667419
20
-4.74345326345804
30
0
41
1
10
-42.2421801837133
20
-4.74582511601491
30
0
0
SPLINE
5
D8
100
AcDbEntity
8
SK1
62
256
6
ByLayer
370
18
48
1
60
0
100
AcDbSpline
70
4
71
3
72
32
73
28
40
0
40
0
40
0
40
0
40
0.125000000000003
40
0.125000000000003
40
0.156250000000003
40
0.156250000000003
40
0.187500000000004
40
0.187500000000004
40
0.250000000000005
40
0.250000000000005
40
0.312500000000005
40
0.312500000000005
40
0.343750000000005
40
0.343750000000005
40
0.375000000000006
40
0.375000000000006
40
0.500000000000003
40
0.500000000000003
40
0.625
40
0.625
40
0.6875
40
0.6875
40
0.749999999999999
40
0.749999999999999
40
0.875
40
0.875
40
1
40
1
40
1
40
1
41
1
10
-42.2421801837133
20
4.74582511601491
30
0
41
1
10
-42.3153322469605
20
4.74108722075121
30
0
41
1
10
-42.3858382182456
20
4.7272872503076
30
0
41
1
10
-42.4711061087408
20
4.70015187597528
30
0
41
1
10
-42.48801508965
20
4.69422552159884
30
0
41
1
10
-42.5215500807622
20
4.68139247012627
30
0
41
1
10
-42.538108088977
20
4.67450874413797
30
0
41
1
10
-42.5867495214037
20
4.65272655031879
30
0
41
1
10
-42.6179919315484
20
4.63663028483114
30
0
41
1
10
-42.6784054316375
20
4.60165673094545
30
0
41
1
10
-42.707575323895
20
4.58277786641952
30
0
41
1
10
-42.7499378830322
20
4.55256723042981
30
0
41
1
10
-42.7638261651476
20
4.54218093900309
30
0
41
1
10
-42.7911594285605
20
4.52080182261719
30
0
41
1
10
-42.8046315534326
20
4.50978473494575
30
0
41
1
10
-42.8704332773146
20
4.45367358335039
30
0
41
1
10
-42.9183823606968
20
4.40538606397868
30
0
41
1
10
-43.007200043589
20
4.30347549467811
30
0
41
1
10
-43.0480454261384
20
4.2498368571521
30
0
41
1
10
-43.1050091824334
20
4.16599396786131
30
0
41
1
10
-43.1233071500575
20
4.13742383693679
30
0
41
1
10
-43.1584042823022
20
4.07953032751405
30
0
41
1
10
-43.1751994309136
20
4.05022195040382
30
0
41
1
10
-43.2235710813646
20
3.96130068776944
30
0
41
1
10
-43.2531438067293
20
3.90069540381026
30
0
41
1
10
-43.3079263511211
20
3.77718661911314
30
0
41
1
10
-43.3331314373585
20
3.7142813278675
30
0
41
1
10
-43.3565069115799
20
3.65034953143106
30
0
0
SPLINE
5
D9
100
AcDbEntity
8
SK1
62
256
6
ByLayer
370
18
48
1
60
0
100
AcDbSpline
70
4
71
3
72
30
73
26
40
0
40
0
40
0
40
0
40
0.124999999999979
40
0.124999999999979
40
0.249999999999958
40
0.249999999999958
40
0.374999999999936
40
0.374999999999936
40
0.437499999999926
40
0.437499999999926
40
0.499999999999916
40
0.499999999999916
40
0.624999999999908
40
0.624999999999908
40
0.656249999999909
40
0.656249999999909
40
0.68749999999991
40
0.68749999999991
40
0.749999999999925
40
0.749999999999925
40
0.874999999999955
40
0.874999999999955
40
0.937499999999978
40
0.937499999999978
40
1
40
1
40
1
40
1
41
1
10
-13.8451406288876
20
5.60819856978108
30
0
41
1
10
-13.8759395902576
20
5.65059861248182
30
0
41
1
10
-13.9086043985849
20
5.69152013904011
30
0
41
1
10
-13.97811386775
20
5.77019024979575
30
0
41
1
10
-14.014955839279
20
5.80794050815649
30
0
41
1
10
-14.0934302354091
20
5.87995203844818
30
0
41
1
10
-14.1350574932389
20
5.91421654427231
30
0
41
1
10
-14.2017568377706
20
5.9626308553903
30
0
41
1
10
-14.2245427507748
20
5.97815093867465
30
0
41
1
10
-14.271111369383
20
6.00780504420359
30
0
41
1
10
-14.2949186549204
20
6.02195716348245
30
0
41
1
10
-14.3679929543377
20
6.06230994483028
30
0
41
1
10
-14.4189025587777
20
6.08641928516369
30
0
41
1
10
-14.4856782999412
20
6.11265441828212
30
0
41
1
10
-14.4991911565357
20
6.11770540783806
30
0
41
1
10
-14.5265457311327
20
6.12740066932034
30
0
41
1
10
-14.5403907312758
20
6.13204445753533
30
0
41
1
10
-14.5820565255816
20
6.14522762072318
30
0
41
1
10
-14.6101298025697
20
6.1530644585383
30
0
41
1
10
-14.6952537679042
20
6.17368858860661
30
0
41
1
10
-14.7532042147282
20
6.18360487337517
30
0
41
1
10
-14.8420639597241
20
6.19236276786617
30
0
41
1
10
-14.8721089186227
20
6.1942576600421
30
0
41
1
10
-14.9321260265236
20
6.19588455534111
30
0
41
1
10
-14.9621459212296
20
6.19562887243725
30
0
41
1
10
-14.9921771997116
20
6.19429975368809
30
0
0
SPLINE
5
DA
100
AcDbEntity
8
SK1
62
256
6
ByLayer
370
18
48
1
60
0
100
AcDbSpline
70
4
71
3
72
29
73
25
40
0
40
0
40
0
40
0
40
0.125000000000045
40
0.125000000000045
40
0.25000000000009
40
0.25000000000009
40
0.281250000000093
40
0.281250000000093
40
0.312500000000097
40
0.375000000000092
40
0.375000000000092
40
0.500000000000084
40
0.500000000000084
40
0.562500000000073
40
0.562500000000073
40
0.625000000000062
40
0.625000000000062
40
0.750000000000038
40
0.750000000000038
40
0.875000000000015
40
0.875000000000015
40
0.937500000000008
40
0.937500000000008
40
1
40
1
40
1
40
1
41
1
10
-14.9921771997116
20
-6.19429975368809
30
0
41
1
10
-14.9320573843484
20
-6.19696052531805
30
0
41
1
10
-14.8726744232101
20
-6.19530622075879
30
0
41
1
10
-14.7552923361598
20
-6.18388224594813
30
0
41
1
10
-14.6972937188803
20
-6.17410945589265
30
0
41
1
10
-14.6256493001772
20
-6.15684175670819
30
0
41
1
10
-14.6113371248737
20
-6.15312631775188
30
0
41
1
10
-14.5830607924918
20
-6.14526136952958
30
0
41
1
10
-14.5410867139313
20
-6.13279564418732
30
0
41
1
10
-14.500383626949
20
-6.118393573753
30
0
41
1
10
-14.4205661285236
20
-6.08714648466275
30
0
41
1
10
-14.3694669105832
20
-6.06306708368854
30
0
41
1
10
-14.2956992221607
20
-6.02241573888855
30
0
41
1
10
-14.2715415923124
20
-6.00806907471573
30
0
41
1
10
-14.2247924605031
20
-5.97831973436635
30
0
41
1
10
-14.2021202056678
20
-5.96287721339851
30
0
41
1
10
-14.1360355381032
20
-5.91496059376203
30
0
41
1
10
-14.0945476428777
20
-5.88090305019935
30
0
41
1
10
-14.0160214797599
20
-5.80899071657845
30
0
41
1
10
-13.9789867514485
20
-5.77113330484545
30
0
41
1
10
-13.9264169069796
20
-5.71170203449847
30
0
41
1
10
-13.9093970751005
20
-5.69145219620981
30
0
41
1
10
-13.8764815896183
20
-5.65032851626569
30
0
41
1
10
-13.8605603440826
20
-5.62942644739971
30
0
41
1
10
-13.845140628887
20
-5.60819856978154
30
0
0
SPLINE
5
DB
100
AcDbEntity
8
1
62
256
6
ByLayer
370
13
48
1
60
0
100
AcDbSpline
70
4
71
3
72
102
73
98
40
0
40
0
40
0
40
0
40
0.0312500000000002
40
0.0312500000000002
40
0.0625000000000005
40
0.0625000000000005
40
0.0781250000000005
40
0.0781250000000005
40
0.0937500000000005
40
0.0937500000000005
40
0.109375000000001
40
0.109375000000001
40
0.125000000000001
40
0.125000000000001
40
0.140625000000001
40
0.140625000000001
40
0.156250000000001
40
0.156250000000001
40
0.171875000000001
40
0.171875000000001
40
0.187500000000001
40
0.187500000000001
40
0.218750000000001
40
0.218750000000001
40
0.250000000000001
40
0.250000000000001
40
0.281250000000001
40
0.281250000000001
40
0.312500000000002
40
0.312500000000002
40
0.328125000000002
40
0.328125000000002
40
0.343750000000002
40
0.343750000000002
40
0.359375000000002
40
0.359375000000002
40
0.375000000000002
40
0.375000000000002
40
0.390625000000002
40
0.390625000000002
40
0.406250000000002
40
0.406250000000002
40
0.421875000000002
40
0.421875000000002
40
0.437500000000002
40
0.437500000000002
40
0.468750000000002
40
0.468750000000002
40
0.500000000000002
40
0.500000000000002
40
0.531250000000002
40
0.531250000000002
40
0.562500000000002
40
0.562500000000002
40
0.578125000000001
40
0.578125000000001
40
0.593750000000001
40
0.593750000000001
40
0.609375000000001
40
0.609375000000001
40
0.625000000000001
40
0.625000000000001
40
0.640625000000001
40
0.640625000000001
40
0.65625
40
0.65625
40
0.671875
40
0.671875
40
0.6875
40
0.6875
40
0.71875
40
0.71875
40
0.75
40
0.75
40
0.78125
40
0.78125
40
0.812499999999999
40
0.812499999999999
40
0.828125
40
0.828125
40
0.84375
40
0.84375
40
0.859375
40
0.859375
40
0.875
40
0.875
40
0.890625
40
0.890625
40
0.90625
40
0.90625
40
0.921875
40
0.921875
40
0.9375
40
0.9375
40
0.96875
40
0.96875
40
1
40
1
40
1
40
1
41
1
10
149.900000434412
20
8
30
0
41
1
10
149.990502910365
20
8
30
0
41
1
10
150.081005386317
20
7.95809322605459
30
0
41
1
10
150.262010338223
20
7.77479269610569
30
0
41
1
10
150.352512814175
20
7.63323828714871
30
0
41
1
10
150.488266528104
20
7.34084055689414
30
0
41
1
10
150.533517766081
20
7.23011482789894
30
0
41
1
10
150.624020242034
20
6.98242946714112
30
0
41
1
10
150.66927148001
20
6.8454688266342
30
0
41
1
10
150.759773955962
20
6.5464596219725
30
0
41
1
10
150.805025193939
20
6.38441233198296
30
0
41
1
10
150.895527669891
20
6.03723903374649
30
0
41
1
10
150.940778907868
20
5.85211661183146
30
0
41
1
10
151.03128138382
20
5.46159235578244
30
0
41
1
10
151.076532621797
20
5.25619610493322
30
0
41
1
10
151.16703509775
20
4.82857449474366
30
0
41
1
10
151.212286335726
20
4.60635609931862
30
0
41
1
10
151.302788811679
20
4.14900064087686
30
0
41
1
10
151.348040049655
20
3.91387111957059
30
0
41
1
10
151.438542525608
20
3.43484315972162
30
0
41
1
10
151.483793763584
20
3.19095200533309
30
0
41
1
10
151.619547477513
20
2.45237034826579
30
0
41
1
10
151.710049953466
20
1.95097143427421
30
0
41
1
10
151.891054905371
20
0.960438444379776
30
0
41
1
10
151.981557381324
20
0.471405076713353
30
0
41
1
10
152.162562333229
20
-0.471403945342502
30
0
41
1
10
152.253064809182
20
-0.960437265140172
30
0
41
1
10
152.434069761087
20
-1.95097023623461
30
0
41
1
10
152.52457223704
20
-2.45236915176727
30
0
41
1
10
152.660325950969
20
-3.19095083098631
30
0
41
1
10
152.705577188945
20
-3.43484199603785
30
0
41
1
10
152.796079664898
20
-3.91386998392005
30
0
41
1
10
152.841330902874
20
-4.14899952259765
30
0
41
1
10
152.931833378827
20
-4.60635502229152
30
0
41
1
10
152.977084616803
20
-4.82857344159714
30
0
41
1
10
153.067587092756
20
-5.25619510549586
30
0
41
1
10
153.112838330733
20
-5.46159138617205
30
0
41
1
10
153.203340806685
20
-5.85211570692522
30
0
41
1
10
153.248592044662
20
-6.0372381637147
30
0
41
1
10
153.339094520614
20
-6.38441153558273
30
0
41
1
10
153.384345758591
20
-6.54645886432584
30
0
41
1
10
153.474848234543
20
-6.84546814903646
30
0
41
1
10
153.52009947252
20
-6.98242883083498
30
0
41
1
10
153.610601948472
20
-7.23011427531515
30
0
41
1
10
153.655853186449
20
-7.34084004673767
30
0
41
1
10
153.791606900378
20
-7.63323790395222
30
0
41
1
10
153.882109376331
20
-7.77479239700673
30
0
41
1
10
154.063114328236
20
-7.95809308523209
30
0
41
1
10
154.153616804188
20
-7.99999993333324
30
0
41
1
10
154.334621756094
20
-8.00000006666659
30
0
41
1
10
154.425124232047
20
-7.95809336687688
30
0
41
1
10
154.606129183952
20
-7.77479299520448
30
0
41
1
10
154.696631659905
20
-7.63323867034498
30
0
41
1
10
154.832385373834
20
-7.34084106705041
30
0
41
1
10
154.87763661181
20
-7.23011538048254
30
0
41
1
10
154.968139087763
20
-6.98243010344709
30
0
41
1
10
155.013390325739
20
-6.84546950423174
30
0
41
1
10
155.103892801692
20
-6.54646037961899
30
0
41
1
10
155.149144039668
20
-6.38441312838305
30
0
41
1
10
155.239646515621
20
-6.03723990377813
30
0
41
1
10
155.284897753597
20
-5.85211751673751
30
0
41
1
10
155.37540022955
20
-5.4615933253927
30
0
41
1
10
155.420651467526
20
-5.25619710437044
30
0
41
1
10
155.511153943479
20
-4.82857554789007
30
0
41
1
10
155.556405181455
20
-4.60635717634563
30
0
41
1
10
155.646907657408
20
-4.14900175915602
30
0
41
1
10
155.692158895384
20
-3.91387225522104
30
0
41
1
10
155.782661371337
20
-3.43484432340537
30
0
41
1
10
155.827912609313
20
-3.19095317967981
30
0
41
1
10
155.963666323242
20
-2.4523715447643
30
0
41
1
10
156.054168799195
20
-1.95097263231378
30
0
41
1
10
156.2351737511
20
-0.960439623619436
30
0
41
1
10
156.325676227053
20
-0.471406235698453
30
0
41
1
10
156.506681178959
20
0.471402841585842
30
0
41
1
10
156.597183654911
20
0.960436085900596
30
0
41
1
10
156.778188606817
20
1.95096903819504
30
0
41
1
10
156.868691082769
20
2.4523679552687
30
0
41
1
10
157.004444796698
20
3.1909496566395
30
0
41
1
10
157.049696034675
20
3.43484083235401
30
0
41
1
10
157.140198510627
20
3.91386884826943
30
0
41
1
10
157.185449748604
20
4.14899840431832
30
0
41
1
10
157.275952224556
20
4.60635394526429
30
0
41
1
10
157.321203462533
20
4.82857238845048
30
0
41
1
10
157.411705938485
20
5.25619410605833
30
0
41
1
10
157.456957176462
20
5.46159041656151
30
0
41
1
10
157.547459652414
20
5.85211480201883
30
0
41
1
10
157.592710890391
20
6.03723729368275
30
0
41
1
10
157.683213366343
20
6.3844107391823
30
0
41
1
10
157.72846460432
20
6.54645810667898
30
0
41
1
10
157.818967080273
20
6.84546747143852
30
0
41
1
10
157.864218318249
20
6.98242819452861
30
0
41
1
10
157.954720794202
20
7.23011372273115
30
0
41
1
10
157.999972032178
20
7.34083953658097
30
0
41
1
10
158.135725746107
20
7.63323752075553
30
0
41
1
10
158.22622822206
20
7.77479209790755
30
0
41
1
10
158.407233173965
20
7.9580929444094
30
0
41
1
10
158.497735649918
20
7.99999986666631
30
0
41
1
10
158.58823812587
20
7.99999999999969
30
0
0
SPLINE
5
DC
100
AcDbEntity
8
1
62
256
6
ByLayer
370
13
48
1
60
0
100
AcDbSpline
70
4
71
3
72
84
73
80
40
0
40
0
40
0
40
0
40
0.0312499999999999
40
0.0312499999999999
40
0.0624999999999998
40
0.0624999999999998
40
0.0937499999999997
40
0.0937499999999997
40
0.125
40
0.125
40
0.15625
40
0.15625
40
0.187499999999999
40
0.187499999999999
40
0.203124999999999
40
0.203124999999999
40
0.207031249999999
40
0.207031249999999
40
0.210937499999999
40
0.218749999999999
40
0.218749999999999
40
0.25
40
0.25
40
0.28125
40
0.28125
40
0.3125
40
0.3125
40
0.34375
40
0.34375
40
0.375000000000001
40
0.375000000000001
40
0.406250000000001
40
0.406250000000001
40
0.437500000000001
40
0.437500000000001
40
0.468750000000001
40
0.468750000000001
40
0.472656250000001
40
0.472656250000001
40
0.476562500000001
40
0.484375000000002
40
0.484375000000002
40
0.500000000000002
40
0.500000000000002
40
0.531250000000001
40
0.531250000000001
40
0.562500000000001
40
0.562500000000001
40
0.593750000000001
40
0.593750000000001
40
0.625000000000001
40
0.625000000000001
40
0.656250000000001
40
0.656250000000001
40
0.687500000000001
40
0.687500000000001
40
0.718750000000001
40
0.718750000000001
40
0.734375000000001
40
0.734375000000001
40
0.742187500000001
40
0.742187500000001
40
0.750000000000001
40
0.750000000000001
40
0.781250000000001
40
0.781250000000001
40
0.812500000000001
40
0.812500000000001
40
0.843750000000001
40
0.843750000000001
40
0.875000000000001
40
0.875000000000001
40
0.90625
40
0.90625
40
0.9375
40
0.9375
40
0.96875
40
0.96875
40
1
40
1
40
1
40
1
41
1
10
149.9
20
7.53169521211376
30
0
41
1
10
149.985319184552
20
7.3645895048372
30
0
41
1
10
150.070638369105
20
7.15018605016155
30
0
41
1
10
150.241276738209
20
6.62933496288505
30
0
41
1
10
150.326595922761
20
6.32289321474363
30
0
41
1
10
150.497234291866
20
5.63136035868087
30
0
41
1
10
150.582553476418
20
5.24637552640007
30
0
41
1
10
150.753191845523
20
4.42047842794014
30
0
41
1
10
150.838511030075
20
3.97973630262649
30
0
41
1
10
151.009149399179
20
3.07004199312485
30
0
41
1
10
151.094468583731
20
2.60125783556117
30
0
41
1
10
151.265106952836
20
1.6628569374279
30
0
41
1
10
151.350426137388
20
1.19335129802991
30
0
41
1
10
151.478404914216
20
0.505468924662352
30
0
41
1
10
151.521064506493
20
0.278857069454375
30
0
41
1
10
151.574388996838
20
0.000307347120895
30
0
41
1
10
151.585053894907
20
-0.0551658085398117
30
0
41
1
10
151.606383691045
20
-0.166890812747596
30
0
41
1
10
151.638378385252
20
-0.335166665643783
30
0
41
1
10
151.670373079459
20
-0.505366559922635
30
0
41
1
10
151.777022060149
20
-1.07628298706919
30
0
41
1
10
151.862341244702
20
-1.54473359393825
30
0
41
1
10
152.032979613806
20
-2.48314203190748
30
0
41
1
10
152.118298798358
20
-2.95299490461477
30
0
41
1
10
152.288937167463
20
-3.86720274988699
30
0
41
1
10
152.374256352015
20
-4.31139279209566
30
0
41
1
10
152.54489472112
20
-5.146397749138
30
0
41
1
10
152.630213905672
20
-5.53704004435608
30
0
41
1
10
152.800852274776
20
-6.24149646811256
30
0
41
1
10
152.886171459329
20
-6.55519691380459
30
0
41
1
10
153.056809828433
20
-7.09128582592498
30
0
41
1
10
153.142129012985
20
-7.3136598140828
30
0
41
1
10
153.31276738209
20
-7.66361591761753
30
0
41
1
10
153.398086566642
20
-7.79127364421956
30
0
41
1
10
153.568724935747
20
-7.95832308788135
30
0
41
1
10
153.654044120299
20
-7.99783537247464
30
0
41
1
10
153.75002820292
20
-8.00017261077932
30
0
41
1
10
153.760693100989
20
-7.99985436537366
30
0
41
1
10
153.782022897127
20
-7.99803990752861
30
0
41
1
10
153.814017591334
20
-7.9935480318268
30
0
41
1
10
153.846012285541
20
-7.98361354125322
30
0
41
1
10
153.910001673955
20
-7.95615767508284
30
0
41
1
10
153.952661266232
20
-7.92772647658063
30
0
41
1
10
154.08064004306
20
-7.80976412145091
30
0
41
1
10
154.165959227612
20
-7.68729098779275
30
0
41
1
10
154.336597596717
20
-7.34783488865526
30
0
41
1
10
154.421916781269
20
-7.13077242088451
30
0
41
1
10
154.592555150373
20
-6.60482890770072
30
0
41
1
10
154.677874334926
20
-6.29595660128751
30
0
41
1
10
154.84851270403
20
-5.60008651891289
30
0
41
1
10
154.933831888582
20
-5.21319751913276
30
0
41
1
10
155.104470257687
20
-4.38422395530353
30
0
41
1
10
155.189789442239
20
-3.94231041326984
30
0
41
1
10
155.360427811344
20
-3.03106786064129
30
0
41
1
10
155.445746995896
20
-2.56190588835577
30
0
41
1
10
155.616385365
20
-1.62346325815764
30
0
41
1
10
155.701704549553
20
-1.15429166598707
30
0
41
1
10
155.829683326381
20
-0.467314612627519
30
0
41
1
10
155.872342918657
20
-0.241071385618511
30
0
41
1
10
155.936332307071
20
0.0925537949027841
30
0
41
1
10
155.957662103209
20
0.204317677080724
30
0
41
1
10
156.000321695485
20
0.429919333087923
30
0
41
1
10
156.021651491624
20
0.543560578066035
30
0
41
1
10
156.128300472314
20
1.11526843078079
30
0
41
1
10
156.213619656866
20
1.58408829793993
30
0
41
1
10
156.384258025971
20
2.52253337019647
30
0
41
1
10
156.469577210523
20
2.99205155745034
30
0
41
1
10
156.640215579627
20
3.90479861295753
30
0
41
1
10
156.72553476418
20
4.34786147523141
30
0
41
1
10
156.896173133284
20
5.17987106069015
30
0
41
1
10
156.981492317837
20
5.56864593555326
30
0
41
1
10
157.152130686941
20
6.26882400759942
30
0
41
1
10
157.237449871493
20
6.58011595918302
30
0
41
1
10
157.408088240597
20
7.11113890820218
30
0
41
1
10
157.49340742515
20
7.33085830166411
30
0
41
1
10
157.664045794254
20
7.67556277442714
30
0
41
1
10
157.749364978807
20
7.80062542956958
30
0
41
1
10
157.920003347911
20
7.96278350787139
30
0
41
1
10
158.005322532463
20
8
30
0
41
1
10
158.090641717016
20
8
30
0
0
SPLINE
5
DD
100
AcDbEntity
8
1
62
256
6
ByLayer
370
13
48
1
60
0
100
AcDbSpline
70
4
71
3
72
84
73
80
40
0
40
0
40
0
40
0
40
0.0312499999999999
40
0.0312499999999999
40
0.0624999999999998
40
0.0624999999999998
40
0.0937499999999997
40
0.0937499999999997
40
0.125
40
0.125
40
0.140625
40
0.140625
40
0.1484375
40
0.1484375
40
0.15625
40
0.15625
40
0.187500000000001
40
0.187500000000001
40
0.218750000000002
40
0.218750000000002
40
0.250000000000004
40
0.250000000000004
40
0.281250000000005
40
0.281250000000005
40
0.312500000000007
40
0.312500000000007
40
0.343750000000008
40
0.343750000000008
40
0.375000000000009
40
0.375000000000009
40
0.406250000000011
40
0.406250000000011
40
0.421875000000011
40
0.421875000000011
40
0.429687500000011
40
0.433593750000011
40
0.433593750000011
40
0.437500000000012
40
0.437500000000012
40
0.468750000000011
40
0.468750000000011
40
0.500000000000011
40
0.500000000000011
40
0.531250000000011
40
0.531250000000011
40
0.562500000000011
40
0.562500000000011
40
0.593750000000011
40
0.593750000000011
40
0.625000000000011
40
0.625000000000011
40
0.656250000000011
40
0.656250000000011
40
0.687500000000011
40
0.687500000000011
40
0.703125000000011
40
0.703125000000011
40
0.710937500000011
40
0.714843750000011
40
0.714843750000011
40
0.718750000000011
40
0.718750000000011
40
0.75000000000001
40
0.75000000000001
40
0.781250000000008
40
0.781250000000008
40
0.812500000000007
40
0.812500000000007
40
0.843750000000006
40
0.843750000000006
40
0.875000000000005
40
0.875000000000005
40
0.906250000000004
40
0.906250000000004
40
0.937500000000002
40
0.937500000000002
40
0.968750000000001
40
0.968750000000001
40
1
40
1
40
1
40
1
41
1
10
149.9
20
6.03478656040744
30
0
41
1
10
149.980135884101
20
5.7141401246181
30
0
41
1
10
150.060271768203
20
5.35847025182267
30
0
41
1
10
150.220543536406
20
4.59520823046503
30
0
41
1
10
150.300679420508
20
4.18773761646182
30
0
41
1
10
150.460951188711
20
3.34349187711524
30
0
41
1
10
150.541087072812
20
2.90684363289856
30
0
41
1
10
150.701358841015
20
2.02730828313008
30
0
41
1
10
150.781494725117
20
1.58451470617612
30
0
41
1
10
150.901698551269
20
0.930699274010266
30
0
41
1
10
150.94176649332
20
0.714457752725309
30
0
41
1
10
151.001868406396
20
0.394166730282535
30
0
41
1
10
151.021902377422
20
0.28807899921344
30
0
41
1
10
151.061970319473
20
0.0774776804826445
30
0
41
1
10
151.082004290498
20
-0.026509541886071
30
0
41
1
10
151.182174145625
20
-0.551722603022654
30
0
41
1
10
151.262310029727
20
-0.984970149253996
30
0
41
1
10
151.422581797929
20
-1.86157701402266
30
0
41
1
10
151.502717682031
20
-2.30488282544948
30
0
41
1
10
151.662989450234
20
-3.18078039348515
30
0
41
1
10
151.743125334336
20
-3.61326934372198
30
0
41
1
10
151.903397102539
20
-4.44429667645153
30
0
41
1
10
151.98353298664
20
-4.84270562366498
30
0
41
1
10
152.143804754843
20
-5.58352144302418
30
0
41
1
10
152.223940638945
20
-5.92581357776277
30
0
41
1
10
152.384212407148
20
-6.53736173939831
30
0
41
1
10
152.46434829125
20
-6.80655738346519
30
0
41
1
10
152.624620059453
20
-7.26266179937428
30
0
41
1
10
152.704755943554
20
-7.44958041416933
30
0
41
1
10
152.865027711757
20
-7.74045299162458
30
0
41
1
10
152.945163595859
20
-7.84447274714441
30
0
41
1
10
153.065367422011
20
-7.94328946264989
30
0
41
1
10
153.105435364062
20
-7.96674329664114
30
0
41
1
10
153.165537277138
20
-7.98867972038178
30
0
41
1
10
153.195588233676
20
-7.99634000302493
30
0
41
1
10
153.225639190215
20
-7.99924715180154
30
0
41
1
10
153.24567316124
20
-8.00015355138686
30
0
41
1
10
153.255690146752
20
-8.00009425627414
30
0
41
1
10
153.345843016367
20
-7.99492881022331
30
0
41
1
10
153.425978900468
20
-7.95707911134443
30
0
41
1
10
153.586250668671
20
-7.80398332027821
30
0
41
1
10
153.666386552773
20
-7.68864858359788
30
0
41
1
10
153.826658320976
20
-7.3747409897926
30
0
41
1
10
153.906794205078
20
-7.17610843305604
30
0
41
1
10
154.067065973281
20
-6.69732838610366
30
0
41
1
10
154.147201857382
20
-6.41718062190151
30
0
41
1
10
154.307473625585
20
-5.7856649224187
30
0
41
1
10
154.387609509687
20
-5.43436662028699
30
0
41
1
10
154.54788127789
20
-4.6783880810822
30
0
41
1
10
154.628017161992
20
-4.2738273236622
30
0
41
1
10
154.788288930195
20
-3.43376253377392
30
0
41
1
10
154.868424814296
20
-2.99838643695298
30
0
41
1
10
155.028696582499
20
-2.11984893985112
30
0
41
1
10
155.108832466601
20
-1.67678425837514
30
0
41
1
10
155.229036292753
20
-1.02162363971431
30
0
41
1
10
155.269104234804
20
-0.804778543247608
30
0
41
1
10
155.32920614788
20
-0.483384136404936
30
0
41
1
10
155.359257104418
20
-0.323651393715835
30
0
41
1
10
155.389308060956
20
-0.165622040612646
30
0
41
1
10
155.409342031982
20
-0.0606736393174572
30
0
41
1
10
155.419359017494
20
-0.0085390318392911
30
0
41
1
10
155.509511887108
20
0.462098318323513
30
0
41
1
10
155.58964777121
20
0.89397881766871
30
0
41
1
10
155.749919539413
20
1.76914508108419
30
0
41
1
10
155.830055423515
20
2.21238098542224
30
0
41
1
10
155.990327191718
20
3.08970650437772
30
0
41
1
10
156.070463075819
20
3.52369630465026
30
0
41
1
10
156.230734844022
20
4.3593547751147
30
0
41
1
10
156.310870728124
20
4.76089465671214
30
0
41
1
10
156.471142496327
20
5.50939006530726
30
0
41
1
10
156.551278380429
20
5.85622837974253
30
0
41
1
10
156.711550148632
20
6.47782745119943
30
0
41
1
10
156.791686032733
20
6.75252315469669
30
0
41
1
10
156.951957800936
20
7.21999202790039
30
0
41
1
10
157.032093685038
20
7.41277028907237
30
0
41
1
10
157.192365453241
20
7.71514719027476
30
0
41
1
10
157.272501337343
20
7.82480865675393
30
0
41
1
10
157.432773105546
20
7.96719036217033
30
0
41
1
10
157.512908989647
20
8
30
0
41
1
10
157.593044873749
20
8
30
0
0
SPLINE
5
DE
100
AcDbEntity
8
1
62
256
6
ByLayer
370
13
48
1
60
0
100
AcDbSpline
70
4
71
3
72
85
73
81
40
0
40
0
40
0
40
0
40
0.0312500000000016
40
0.0312500000000016
40
0.0625000000000033
40
0.0625000000000033
40
0.093750000000005
40
0.093750000000005
40
0.101562500000005
40
0.101562500000005
40
0.109375000000006
40
0.109375000000006
40
0.125000000000007
40
0.125000000000007
40
0.156250000000009
40
0.156250000000009
40
0.187500000000011
40
0.187500000000011
40
0.218750000000013
40
0.218750000000013
40
0.250000000000015
40
0.250000000000015
40
0.281250000000017
40
0.281250000000017
40
0.312500000000019
40
0.312500000000019
40
0.343750000000021
40
0.343750000000021
40
0.375000000000023
40
0.375000000000023
40
0.390625000000024
40
0.390625000000024
40
0.394531250000024
40
0.394531250000024
40
0.398437500000024
40
0.398437500000024
40
0.406250000000023
40
0.406250000000023
40
0.437500000000022
40
0.437500000000022
40
0.46875000000002
40
0.46875000000002
40
0.500000000000018
40
0.500000000000018
40
0.531250000000017
40
0.531250000000017
40
0.562500000000015
40
0.562500000000015
40
0.593750000000014
40
0.593750000000014
40
0.625000000000012
40
0.625000000000012
40
0.65625000000001
40
0.65625000000001
40
0.687500000000009
40
0.687500000000009
40
0.695312500000009
40
0.695312500000009
40
0.699218750000009
40
0.699218750000009
40
0.703125000000009
40
0.718750000000008
40
0.718750000000008
40
0.750000000000007
40
0.750000000000007
40
0.781250000000006
40
0.781250000000006
40
0.812500000000006
40
0.812500000000006
40
0.843750000000005
40
0.843750000000005
40
0.875000000000004
40
0.875000000000004
40
0.906250000000003
40
0.906250000000003
40
0.937500000000002
40
0.937500000000002
40
0.968750000000001
40
0.968750000000001
40
1
40
1
40
1
40
1
41
1
10
149.9
20
3.67700746283839
30
0
41
1
10
149.974952583651
20
3.28033837217634
30
0
41
1
10
150.049905167302
20
2.87166997989189
30
0
41
1
10
150.199810334604
20
2.04896354027508
30
0
41
1
10
150.274762918254
20
1.63499234612394
30
0
41
1
10
150.424668085556
20
0.818183182925083
30
0
41
1
10
150.499620669207
20
0.415377902962405
30
0
41
1
10
150.593311398771
20
-0.0732486345032157
30
0
41
1
10
150.612049544683
20
-0.171257777867737
30
0
41
1
10
150.649525836509
20
-0.369033703620659
30
0
41
1
10
150.668263982421
20
-0.468584232632679
30
0
41
1
10
150.724478420159
20
-0.768944224893801
30
0
41
1
10
150.761954711985
20
-0.971470000518167
30
0
41
1
10
150.874383587461
20
-1.58337763363085
30
0
41
1
10
150.949336171112
20
-1.99718907652957
30
0
41
1
10
151.099241338414
20
-2.82032302823589
30
0
41
1
10
151.174193922065
20
-3.22957999600024
30
0
41
1
10
151.324099089366
20
-4.02489646462072
30
0
41
1
10
151.399051673017
20
-4.41086643434855
30
0
41
1
10
151.548956840319
20
-5.14087017146389
30
0
41
1
10
151.62390942397
20
-5.48481376426096
30
0
41
1
10
151.773814591271
20
-6.11479161347856
30
0
41
1
10
151.848767174922
20
-6.40076240235052
30
0
41
1
10
151.998672342224
20
-6.90399482759517
30
0
41
1
10
152.073624925875
20
-7.12123774923757
30
0
41
1
10
152.223530093177
20
-7.48267573262279
30
0
41
1
10
152.298482676827
20
-7.62689717686979
30
0
41
1
10
152.448387844129
20
-7.8442832835911
30
0
41
1
10
152.52334042778
20
-7.91750422235594
30
0
41
1
10
152.635769303256
20
-7.97930173876236
30
0
41
1
10
152.673245595082
20
-7.99192866551482
30
0
41
1
10
152.720090959863
20
-7.99848476103656
30
0
41
1
10
152.72946003282
20
-7.99933498958876
30
0
41
1
10
152.748198178733
20
-8.00013333689384
30
0
41
1
10
152.757567251689
20
-8.00008424213564
30
0
41
1
10
152.785674470558
20
-7.9985871580943
30
0
41
1
10
152.804412616471
20
-7.99578018000062
30
0
41
1
10
152.898103346034
20
-7.9723095296778
30
0
41
1
10
152.973055929685
20
-7.92321203212515
30
0
41
1
10
153.122961096987
20
-7.75613083906643
30
0
41
1
10
153.197913680638
20
-7.63808526838696
30
0
41
1
10
153.347818847939
20
-7.32906247879015
30
0
41
1
10
153.42277143159
20
-7.13804577987116
30
0
41
1
10
153.572676598892
20
-6.68496444515136
30
0
41
1
10
153.647629182543
20
-6.42290130779151
30
0
41
1
10
153.797534349845
20
-5.83617417328409
30
0
41
1
10
153.872486933496
20
-5.51155871577973
30
0
41
1
10
154.022392100797
20
-4.81399342224415
30
0
41
1
10
154.097344684448
20
-4.44112706097451
30
0
41
1
10
154.24724985175
20
-3.66510150512366
30
0
41
1
10
154.3222024354
20
-3.26203525042686
30
0
41
1
10
154.472107602702
20
-2.44467443413646
30
0
41
1
10
154.547060186353
20
-2.03045604647485
30
0
41
1
10
154.696965353655
20
-1.20824609451481
30
0
41
1
10
154.771917937306
20
-0.800298420687028
30
0
41
1
10
154.865608666869
20
-0.303004288535902
30
0
41
1
10
154.884346812782
20
-0.204167655998873
30
0
41
1
10
154.912454031651
20
-0.0569786988481553
30
0
41
1
10
154.921823104607
20
-0.008213108220076
30
0
41
1
10
154.94056125052
20
0.0895929919481659
30
0
41
1
10
154.987406615302
20
0.335016489736063
30
0
41
1
10
155.034251980084
20
0.584745625866475
30
0
41
1
10
155.14668085556
20
1.19008537628477
30
0
41
1
10
155.221633439211
20
1.60174485998766
30
0
41
1
10
155.371538606512
20
2.42613315486236
30
0
41
1
10
155.446491190163
20
2.83880697099497
30
0
41
1
10
155.596396357465
20
3.64706477918563
30
0
41
1
10
155.671348941116
20
4.04256488535827
30
0
41
1
10
155.821254108418
20
4.79744751295684
30
0
41
1
10
155.896206692068
20
5.15673702126475
30
0
41
1
10
156.04611185937
20
5.82204456618476
30
0
41
1
10
156.121064443021
20
6.12798794534871
30
0
41
1
10
156.270969610323
20
6.67394633414477
30
0
41
1
10
156.345922193974
20
6.91392739096355
30
0
41
1
10
156.495827361275
20
7.32150523931458
30
0
41
1
10
156.570779944926
20
7.48911507301256
30
0
41
1
10
156.720685112228
20
7.75201561787179
30
0
41
1
10
156.795637695879
20
7.84735528914231
30
0
41
1
10
156.94554286318
20
7.97131521642882
30
0
41
1
10
157.020495446831
20
8
30
0
41
1
10
157.095448030482
20
8
30
0
0
SPLINE
5
DF
100
AcDbEntity
8
1
62
256
6
ByLayer
370
13
48
1
60
0
100
AcDbSpline
70
4
71
3
72
82
73
78
40
0
40
0
40
0
40
0
40
0.0156250000000002
40
0.0156250000000002
40
0.0234375000000004
40
0.0234375000000004
40
0.0312500000000005
40
0.0312500000000005
40
0.0624999999999996
40
0.0624999999999996
40
0.0937499999999988
40
0.0937499999999988
40
0.124999999999998
40
0.124999999999998
40
0.156249999999997
40
0.156249999999997
40
0.187499999999996
40
0.187499999999996
40
0.218749999999995
40
0.218749999999995
40
0.249999999999994
40
0.249999999999994
40
0.281249999999994
40
0.281249999999994
40
0.312499999999993
40
0.312499999999993
40
0.343749999999992
40
0.343749999999992
40
0.351562499999992
40
0.351562499999992
40
0.359374999999992
40
0.359374999999992
40
0.374999999999992
40
0.374999999999992
40
0.406249999999993
40
0.406249999999993
40
0.437499999999994
40
0.437499999999994
40
0.468749999999995
40
0.468749999999995
40
0.499999999999995
40
0.499999999999995
40
0.531249999999996
40
0.531249999999996
40
0.562499999999997
40
0.562499999999997
40
0.593749999999998
40
0.593749999999998
40
0.624999999999999
40
0.624999999999999
40
0.65625
40
0.65625
40
0.671875
40
0.671875
40
0.6796875
40
0.6796875
40
0.6875
40
0.6875
40
0.71875
40
0.71875
40
0.75
40
0.75
40
0.78125
40
0.78125
40
0.8125
40
0.8125
40
0.84375
40
0.84375
40
0.875
40
0.875
40
0.90625
40
0.90625
40
0.9375
40
0.9375
40
0.96875
40
0.96875
40
1
40
1
40
1
40
1
41
1
10
149.9
20
0.966498041081877
30
0
41
1
10
149.9348846416
20
0.777644634832455
30
0
41
1
10
149.9697692832
20
0.590303058703228
30
0
41
1
10
150.0220962456
20
0.312529727938824
30
0
41
1
10
150.0395385664
20
0.22047693615778
30
0
41
1
10
150.074423208
20
0.0375912839836872
30
0
41
1
10
150.0918655288
20
-0.0529605218691245
30
0
41
1
10
150.179077132801
20
-0.510516396172449
30
0
41
1
10
150.248846416001
20
-0.886381207135798
30
0
41
1
10
150.388384982401
20
-1.64735379294956
30
0
41
1
10
150.458154265601
20
-2.03243793539082
30
0
41
1
10
150.597692832002
20
-2.7985996569619
30
0
41
1
10
150.667462115202
20
-3.17963126517429
30
0
41
1
10
150.807000681602
20
-3.92263678779528
30
0
41
1
10
150.876769964802
20
-4.28454868550236
30
0
41
1
10
151.016308531202
20
-4.974114712648
30
0
41
1
10
151.086077814403
20
-5.3017046202055
30
0
41
1
10
151.225616380803
20
-5.90923086507098
30
0
41
1
10
151.295385664003
20
-6.18911762755971
30
0
41
1
10
151.434924230404
20
-6.69141786708389
30
0
41
1
10
151.504693513604
20
-6.91380918287317
30
0
41
1
10
151.644232080004
20
-7.29599311624335
30
0
41
1
10
151.714001363204
20
-7.4557942575222
30
0
41
1
10
151.853539929604
20
-7.71257373225907
30
0
41
1
10
151.923309212805
20
-7.80958465704518
30
0
41
1
10
152.062847779205
20
-7.94481068191593
30
0
41
1
10
152.132617062405
20
-7.98307022777246
30
0
41
1
10
152.219828666405
20
-7.99856773101891
30
0
41
1
10
152.237270987205
20
-8.00005643062192
30
0
41
1
10
152.272155628805
20
-7.99994030355924
30
0
41
1
10
152.289597949606
20
-7.99833310895337
30
0
41
1
10
152.341924912006
20
-7.98867193879116
30
0
41
1
10
152.376809553606
20
-7.97577431443023
30
0
41
1
10
152.481463478406
20
-7.91629826334577
30
0
41
1
10
152.551232761606
20
-7.84883722471776
30
0
41
1
10
152.690771328006
20
-7.65268334760228
30
0
41
1
10
152.760540611207
20
-7.52395045811502
30
0
41
1
10
152.900079177607
20
-7.20322981668298
30
0
41
1
10
152.969848460807
20
-7.01122042230273
30
0
41
1
10
153.109387027207
20
-6.56657832525326
30
0
41
1
10
153.179156310408
20
-6.31395246682465
30
0
41
1
10
153.318694876808
20
-5.75561891578462
30
0
41
1
10
153.388464160008
20
-5.44994843084407
30
0
41
1
10
153.528002726408
20
-4.79731344796085
30
0
41
1
10
153.597772009609
20
-4.45040800717186
30
0
41
1
10
153.737310576009
20
-3.72985082191141
30
0
41
1
10
153.807079859209
20
-3.35626424611243
30
0
41
1
10
153.94661842561
20
-2.59772410384193
30
0
41
1
10
154.01638770881
20
-2.21282569052656
30
0
41
1
10
154.15592627521
20
-1.44600856277634
30
0
41
1
10
154.22569555841
20
-1.06412469808407
30
0
41
1
10
154.33034948321
20
-0.502482280577311
30
0
41
1
10
154.36523412481
20
-0.317110004812491
30
0
41
1
10
154.41756108721
20
-0.0427130329355805
30
0
41
1
10
154.43500340801
20
0.0478361131085592
30
0
41
1
10
154.469888049611
20
0.230812993597681
30
0
41
1
10
154.487330370411
20
0.322908825994972
30
0
41
1
10
154.574541974411
20
0.786065535149618
30
0
41
1
10
154.644311257611
20
1.16527757183442
30
0
41
1
10
154.783849824011
20
1.92992934901579
30
0
41
1
10
154.853619107212
20
2.31533984630954
30
0
41
1
10
154.993157673612
20
3.0785740737272
30
0
41
1
10
155.062926956812
20
3.45634698879348
30
0
41
1
10
155.202465523212
20
4.18904689291389
30
0
41
1
10
155.272234806412
20
4.54390981951599
30
0
41
1
10
155.411773372813
20
5.2158496219252
30
0
41
1
10
155.481542656013
20
5.53286434280159
30
0
41
1
10
155.621081222413
20
6.11644333291738
30
0
41
1
10
155.690850505613
20
6.38296387537378
30
0
41
1
10
155.830389072014
20
6.85681580809867
30
0
41
1
10
155.900158355214
20
7.06413267830692
30
0
41
1
10
156.039696921614
20
7.41567123120885
30
0
41
1
10
156.109466204814
20
7.55990826600697
30
0
41
1
10
156.249004771215
20
7.78619376758184
30
0
41
1
10
156.318774054415
20
7.86827895114092
30
0
41
1
10
156.458312620815
20
7.9751593704537
30
0
41
1
10
156.528081904015
20
8
30
0
41
1
10
156.597851187215
20
8
30
0
0
SPLINE
5
E0
100
AcDbEntity
8
1
62
256
6
ByLayer
370
13
48
1
60
0
100
AcDbSpline
70
4
71
3
72
8
73
4
40
0
40
0
40
0
40
0
40
1
40
1
40
1
40
1
41
1
10
158.359146769946
20
8
30
0
41
1
10
158.435510555254
20
8
30
0
41
1
10
158.511874340562
20
7.9702200469217
30
0
41
1
10
158.588238125871
20
7.90579908666032
30
0
0
SPLINE
5
E1
100
AcDbEntity
8
1
62
256
6
ByLayer
370
13
48
1
60
0
100
AcDbSpline
70
4
71
3
72
78
73
74
40
0
40
0
40
0
40
0
40
0.03125
40
0.03125
40
0.0624999999999999
40
0.0624999999999999
40
0.0937499999999999
40
0.0937499999999999
40
0.125
40
0.125
40
0.15625
40
0.15625
40
0.1875
40
0.1875
40
0.21875
40
0.21875
40
0.25
40
0.25
40
0.28125
40
0.28125
40
0.296875
40
0.296875
40
0.3046875
40
0.3046875
40
0.3125
40
0.3125
40
0.34375
40
0.34375
40
0.374999999999999
40
0.374999999999999
40
0.406249999999999
40
0.406249999999999
40
0.437499999999998
40
0.437499999999998
40
0.468749999999998
40
0.468749999999998
40
0.499999999999997
40
0.499999999999997
40
0.531249999999997
40
0.531249999999997
40
0.562499999999996
40
0.562499999999996
40
0.593749999999996
40
0.593749999999996
40
0.624999999999995
40
0.624999999999995
40
0.640624999999995
40
0.640624999999995
40
0.648437499999995
40
0.648437499999995
40
0.656249999999994
40
0.656249999999994
40
0.687499999999995
40
0.687499999999995
40
0.718749999999995
40
0.718749999999995
40
0.749999999999996
40
0.749999999999996
40
0.781249999999996
40
0.781249999999996
40
0.812499999999997
40
0.812499999999997
40
0.843749999999998
40
0.843749999999998
40
0.874999999999998
40
0.874999999999998
40
0.906249999999999
40
0.906249999999999
40
0.937499999999999
40
0.937499999999999
40
0.96875
40
0.96875
40
1
40
1
40
1
40
1
41
1
10
149.9
20
-1.69918325141958
30
0
41
1
10
149.96458598275
20
-2.05373416711419
30
0
41
1
10
150.029171965499
20
-2.41019173239243
30
0
41
1
10
150.158343930998
20
-3.11584956288382
30
0
41
1
10
150.222929913747
20
-3.46501451534189
30
0
41
1
10
150.352101879246
20
-4.14397795901556
30
0
41
1
10
150.416687861996
20
-4.4737329036993
30
0
41
1
10
150.545859827495
20
-5.10197979438124
30
0
41
1
10
150.610445810244
20
-5.40042880469926
30
0
41
1
10
150.739617775743
20
-5.9557141039981
30
0
41
1
10
150.804203758493
20
-6.21251787783206
30
0
41
1
10
150.933375723991
20
-6.67687878997191
30
0
41
1
10
150.997961706741
20
-6.88442097192893
30
0
41
1
10
151.12713367224
20
-7.24607618237204
30
0
41
1
10
151.191719654989
20
-7.40019368588054
30
0
41
1
10
151.320891620488
20
-7.65442733124905
30
0
41
1
10
151.385477603238
20
-7.75456381322078
30
0
41
1
10
151.514649568737
20
-7.90348301244723
30
0
41
1
10
151.579235551486
20
-7.95229501031946
30
0
41
1
10
151.67611452561
20
-7.99081851519693
30
0
41
1
10
151.708407516985
20
-7.99789346017525
30
0
41
1
10
151.756847004047
20
-8.00044480302063
30
0
41
1
10
151.772993499734
20
-7.99996775321216
30
0
41
1
10
151.805286491109
20
-7.99630530822003
30
0
41
1
10
151.821432986797
20
-7.99311269287026
30
0
41
1
10
151.902165465234
20
-7.97009568174954
30
0
41
1
10
151.966751447983
20
-7.92904043889305
30
0
41
1
10
152.095923413482
20
-7.79630733705002
30
0
41
1
10
152.160509396231
20
-7.70459947979523
30
0
41
1
10
152.28968136173
20
-7.46744970983403
30
0
41
1
10
152.35426734448
20
-7.321985523103
30
0
41
1
10
152.483439309979
20
-6.97731393329974
30
0
41
1
10
152.548025292728
20
-6.77809916853181
30
0
41
1
10
152.677197258227
20
-6.3294905818052
30
0
41
1
10
152.741783240977
20
-6.08010859323181
30
0
41
1
10
152.870955206475
20
-5.53824829550055
30
0
41
1
10
152.935541189225
20
-5.24580006613763
30
0
41
1
10
153.064713154724
20
-4.62777050494029
30
0
41
1
10
153.129299137473
20
-4.30223107924314
30
0
41
1
10
153.258471102972
20
-3.62975352877675
30
0
41
1
10
153.323057085722
20
-3.28285951197668
30
0
41
1
10
153.452229051221
20
-2.57984940064185
30
0
41
1
10
153.51681503397
20
-2.22377039053319
30
0
41
1
10
153.645986999469
20
-1.51375749495628
30
0
41
1
10
153.710572982219
20
-1.15984783686636
30
0
41
1
10
153.807451956343
20
-0.63780681453477
30
0
41
1
10
153.839744947717
20
-0.465247855390032
30
0
41
1
10
153.88818443478
20
-0.209334388763295
30
0
41
1
10
153.904330930467
20
-0.124516263686985
30
0
41
1
10
153.936623921842
20
0.0440371957882064
30
0
41
1
10
153.952770417529
20
0.12825539190456
30
0
41
1
10
154.033502895966
20
0.553200451693613
30
0
41
1
10
154.098088878715
20
0.901316576442781
30
0
41
1
10
154.227260844214
20
1.60555764441037
30
0
41
1
10
154.291846826964
20
1.96166671279792
30
0
41
1
10
154.421018792463
20
2.67147989213859
30
0
41
1
10
154.485604775212
20
3.02515394787105
30
0
41
1
10
154.614776740711
20
3.71827510704856
30
0
41
1
10
154.679362723461
20
4.05768121891768
30
0
41
1
10
154.80853468896
20
4.71011915437597
30
0
41
1
10
154.873120671709
20
5.02310656462134
30
0
41
1
10
155.002292637208
20
5.61154832582636
30
0
41
1
10
155.066878619957
20
5.88696467778513
30
0
41
1
10
155.196050585456
20
6.39136920004353
30
0
41
1
10
155.260636568206
20
6.62033446764011
30
0
41
1
10
155.389808533705
20
7.02614963686676
30
0
41
1
10
155.454394516454
20
7.20299599389003
30
0
41
1
10
155.583566481953
20
7.50250203940391
30
0
41
1
10
155.648152464702
20
7.62517611464079
30
0
41
1
10
155.777324430202
20
7.81770882006754
30
0
41
1
10
155.841910412951
20
7.88759390901987
30
0
41
1
10
155.97108237845
20
7.97872399386691
30
0
41
1
10
156.035668361199
20
8
30
0
41
1
10
156.100254343949
20
8
30
0
0
SPLINE
5
E2
100
AcDbEntity
8
1
62
256
6
ByLayer
370
13
48
1
60
0
100
AcDbSpline
70
4
71
3
72
14
73
10
40
0
40
0
40
0
40
0
40
0.25
40
0.25
40
0.5
40
0.5
40
0.75
40
0.75
40
1
40
1
40
1
40
1
41
1
10
157.861549926679
20
8
30
0
41
1
10
157.922107276612
20
8
30
0
41
1
10
157.982664626544
20
7.98130214874018
30
0
41
1
10
158.103779326409
20
7.90150455775787
30
0
41
1
10
158.164336676342
20
7.84038228465349
30
0
41
1
10
158.285451376207
20
7.67211127699861
30
0
41
1
10
158.34600872614
20
7.56494262600256
30
0
41
1
10
158.467123426005
20
7.30303195426731
30
0
41
1
10
158.527680775938
20
7.1482774535603
30
0
41
1
10
158.58823812587
20
6.9702540469961
30
0
0
SPLINE
5
E3
100
AcDbEntity
8
1
62
256
6
ByLayer
370
13
48
1
60
0
100
AcDbSpline
70
4
71
3
72
78
73
74
40
0
40
0
40
0
40
0
40
0.0312499999999998
40
0.0312499999999998
40
0.0624999999999996
40
0.0624999999999996
40
0.0937499999999995
40
0.0937499999999995
40
0.124999999999999
40
0.124999999999999
40
0.156249999999999
40
0.156249999999999
40
0.187499999999999
40
0.187499999999999
40
0.218749999999999
40
0.218749999999999
40
0.234374999999999
40
0.234374999999999
40
0.242187499999999
40
0.242187499999999
40
0.249999999999999
40
0.249999999999999
40
0.281249999999998
40
0.281249999999998
40
0.312499999999998
40
0.312499999999998
40
0.343749999999998
40
0.343749999999998
40
0.374999999999998
40
0.374999999999998
40
0.406249999999998
40
0.406249999999998
40
0.437499999999997
40
0.437499999999997
40
0.468749999999997
40
0.468749999999997
40
0.499999999999997
40
0.499999999999997
40
0.531249999999997
40
0.531249999999997
40
0.562499999999997
40
0.562499999999997
40
0.593749999999997
40
0.593749999999997
40
0.609374999999997
40
0.609374999999997
40
0.617187499999997
40
0.617187499999997
40
0.624999999999997
40
0.624999999999997
40
0.656249999999997
40
0.656249999999997
40
0.687499999999997
40
0.687499999999997
40
0.718749999999998
40
0.718749999999998
40
0.749999999999998
40
0.749999999999998
40
0.781249999999998
40
0.781249999999998
40
0.812499999999998
40
0.812499999999998
40
0.843749999999999
40
0.843749999999999
40
0.874999999999999
40
0.874999999999999
40
0.906249999999999
40
0.906249999999999
40
0.937499999999999
40
0.937499999999999
40
0.96875
40
0.96875
40
1
40
1
40
1
40
1
41
1
10
149.9
20
-4.37261724393613
30
0
41
1
10
149.959402682299
20
-4.67293415937607
30
0
41
1
10
150.018805364598
20
-4.96212543303139
30
0
41
1
10
150.137610729195
20
-5.50957474781612
30
0
41
1
10
150.197013411494
20
-5.76780707914358
30
0
41
1
10
150.315818776091
20
-6.24614260865587
30
0
41
1
10
150.37522145839
20
-6.46622869696512
30
0
41
1
10
150.494026822988
20
-6.86328093009269
30
0
41
1
10
150.553429505286
20
-7.04024147147084
30
0
41
1
10
150.672234869884
20
-7.34860627705243
30
0
41
1
10
150.731637552183
20
-7.48001642587838
30
0
41
1
10
150.85044291678
20
-7.69739147969111
30
0
41
1
10
150.909845599079
20
-7.7833711381731
30
0
41
1
10
151.028650963677
20
-7.9122218643669
30
0
41
1
10
151.088053645975
20
-7.95511251215834
30
0
41
1
10
151.177157669424
20
-7.99014020697152
30
0
41
1
10
151.206859010573
20
-7.99694269490072
30
0
41
1
10
151.251411022297
20
-8.00029278141122
30
0
41
1
10
151.266261692872
20
-8.00027790968679
30
0
41
1
10
151.295963034021
20
-7.9979834284147
30
0
41
1
10
151.310813704596
20
-7.99569382859676
30
0
41
1
10
151.385067057469
20
-7.97833950773739
30
0
41
1
10
151.444469739768
20
-7.9455092641129
30
0
41
1
10
151.563275104366
20
-7.83764051583853
30
0
41
1
10
151.622677786664
20
-7.76258189285104
30
0
41
1
10
151.741483151262
20
-7.56743958881978
30
0
41
1
10
151.800885833561
20
-7.44733956456042
30
0
41
1
10
151.919691198158
20
-7.16139847934008
30
0
41
1
10
151.979093880457
20
-6.99554902392805
30
0
41
1
10
152.097899245054
20
-6.61988086484016
30
0
41
1
10
152.157301927353
20
-6.41006481500963
30
0
41
1
10
152.276107291951
20
-5.95081941047121
30
0
41
1
10
152.33550997425
20
-5.70140448985038
30
0
41
1
10
152.454315338847
20
-5.16964517377841
30
0
41
1
10
152.513718021146
20
-4.88732477519545
30
0
41
1
10
152.632523385743
20
-4.29817831838272
30
0
41
1
10
152.691926068042
20
-3.99138119147153
30
0
41
1
10
152.81073143264
20
-3.36263143518139
30
0
41
1
10
152.870134114939
20
-3.040707113477
30
0
41
1
10
152.988939479536
20
-2.39109923999985
30
0
41
1
10
153.048342161835
20
-2.06343861250517
30
0
41
1
10
153.167147526432
20
-1.41101499013962
30
0
41
1
10
153.226550208731
20
-1.0862667785357
30
0
41
1
10
153.315654232179
20
-0.606825145628761
30
0
41
1
10
153.345355573329
20
-0.448279779108475
30
0
41
1
10
153.389907585053
20
-0.212938579617514
30
0
41
1
10
153.404758255628
20
-0.134903510045547
30
0
41
1
10
153.434459596777
20
0.020256803971705
30
0
41
1
10
153.449310267352
20
0.0975645264111051
30
0
41
1
10
153.523563620225
20
0.48771521461984
30
0
41
1
10
153.582966302524
20
0.806837700503309
30
0
41
1
10
153.701771667122
20
1.45275618680714
30
0
41
1
10
153.76117434942
20
1.77954284544856
30
0
41
1
10
153.879979714018
20
2.4329178260052
30
0
41
1
10
153.939382396316
20
2.75948812434157
30
0
41
1
10
154.058187760914
20
3.40342916149092
30
0
41
1
10
154.117590443213
20
3.72077450035277
30
0
41
1
10
154.23639580781
20
4.33679377229575
30
0
41
1
10
154.295798490109
20
4.63543852630457
30
0
41
1
10
154.414603854707
20
5.20494897038108
30
0
41
1
10
154.474006537005
20
5.47578694629306
30
0
41
1
10
154.592811901603
20
5.9818151660356
30
0
41
1
10
154.652214583902
20
6.2169845766357
30
0
41
1
10
154.771019948499
20
6.64579455374425
30
0
41
1
10
154.830422630798
20
6.83942502253288
30
0
41
1
10
154.949227995396
20
7.18174026925027
30
0
41
1
10
155.008630677694
20
7.33042679138441
30
0
41
1
10
155.127436042292
20
7.58202828810025
30
0
41
1
10
155.186838724591
20
7.6849551047203
30
0
41
1
10
155.305644089188
20
7.84658935029159
30
0
41
1
10
155.365046771487
20
7.90531504620029
30
0
41
1
10
155.483852136085
20
7.98201013214154
30
0
41
1
10
155.543254818383
20
8
30
0
41
1
10
155.602657500682
20
8
30
0
0
SPLINE
5
E4
100
AcDbEntity
8
1
62
256
6
ByLayer
370
13
48
1
60
0
100
AcDbSpline
70
4
71
3
72
22
73
18
40
0
40
0
40
0
40
0
40
0.125
40
0.125
40
0.25
40
0.25
40
0.375
40
0.375
40
0.5
40
0.5
40
0.625
40
0.625
40
0.75
40
0.75
40
0.875
40
0.875
40
1
40
1
40
1
40
1
41
1
10
157.363953083412
20
8
30
0
41
1
10
157.414964960181
20
8
30
0
41
1
10
157.46597683695
20
7.98674180785818
30
0
41
1
10
157.568000590489
20
7.93066368356264
30
0
41
1
10
157.619012467258
20
7.88783416800501
30
0
41
1
10
157.721036220796
20
7.7702136593079
30
0
41
1
10
157.772048097565
20
7.69541362428831
30
0
41
1
10
157.874071851103
20
7.51240017828968
30
0
41
1
10
157.925083727872
20
7.40417970168664
30
0
41
1
10
158.02710748141
20
7.15406866861289
30
0
41
1
10
158.078119358179
20
7.01217444298322
30
0
41
1
10
158.180143111718
20
6.69582077788689
30
0
41
1
10
158.231154988487
20
6.52136211256834
30
0
41
1
10
158.333178742025
20
6.14239296159795
30
0
41
1
10
158.384190618794
20
5.93788803398851
30
0
41
1
10
158.486214372332
20
5.50265380677473
30
0
41
1
10
158.537226249101
20
5.27193430798431
30
0
41
1
10
158.58823812587
20
5.03055669294451
30
0
0
SPLINE
5
E5
100
AcDbEntity
8
1
62
256
6
ByLayer
370
13
48
1
60
0
100
AcDbSpline
70
4
71
3
72
78
73
74
40
0
40
0
40
0
40
0
40
0.0312500000000019
40
0.0312500000000019
40
0.0625000000000039
40
0.0625000000000039
40
0.0937500000000058
40
0.0937500000000058
40
0.125000000000008
40
0.125000000000008
40
0.156250000000009
40
0.156250000000009
40
0.16406250000001
40
0.16406250000001
40
0.17187500000001
40
0.17187500000001
40
0.18750000000001
40
0.18750000000001
40
0.218750000000009
40
0.218750000000009
40
0.250000000000009
40
0.250000000000009
40
0.281250000000009
40
0.281250000000009
40
0.312500000000008
40
0.312500000000008
40
0.343750000000008
40
0.343750000000008
40
0.375000000000007
40
0.375000000000007
40
0.406250000000007
40
0.406250000000007
40
0.437500000000007
40
0.437500000000007
40
0.468750000000006
40
0.468750000000006
40
0.500000000000006
40
0.500000000000006
40
0.531250000000006
40
0.531250000000006
40
0.562500000000005
40
0.562500000000005
40
0.578125000000005
40
0.578125000000005
40
0.585937500000005
40
0.585937500000005
40
0.593750000000005
40
0.593750000000005
40
0.625000000000005
40
0.625000000000005
40
0.656250000000005
40
0.656250000000005
40
0.687500000000004
40
0.687500000000004
40
0.718750000000004
40
0.718750000000004
40
0.750000000000003
40
0.750000000000003
40
0.781250000000003
40
0.781250000000003
40
0.812500000000003
40
0.812500000000003
40
0.843750000000002
40
0.843750000000002
40
0.875000000000002
40
0.875000000000002
40
0.906250000000001
40
0.906250000000001
40
0.937500000000001
40
0.937500000000001
40
0.968750000000001
40
0.968750000000001
40
1
40
1
40
1
40
1
41
1
10
149.9
20
-6.53824633275448
30
0
41
1
10
149.954219381848
20
-6.72751172798201
30
0
41
1
10
150.008438763696
20
-6.89917075678085
30
0
41
1
10
150.116877527392
20
-7.20493792319036
30
0
41
1
10
150.17109690924
20
-7.33904776138405
30
0
41
1
10
150.279535672937
20
-7.56916255503398
30
0
41
1
10
150.333755054785
20
-7.66517500131619
30
0
41
1
10
150.442193818481
20
-7.82019239896164
30
0
41
1
10
150.496413200329
20
-7.87920867982641
30
0
41
1
10
150.604851964025
20
-7.96269203394874
30
0
41
1
10
150.659071345873
20
-7.98717203269715
30
0
41
1
10
150.726845573183
20
-7.99833292527646
30
0
41
1
10
150.740400418645
20
-7.99959501449905
30
0
41
1
10
150.767510109569
20
-8.00023914477683
30
0
41
1
10
150.781064955031
20
-7.99962843830542
30
0
41
1
10
150.821729491417
20
-7.99492119877146
30
0
41
1
10
150.848839182341
20
-7.98794220630836
30
0
41
1
10
150.930168255114
20
-7.95479429803996
30
0
41
1
10
150.984387636961
20
-7.91638347483442
30
0
41
1
10
151.092826400658
20
-7.80387745539173
30
0
41
1
10
151.147045782506
20
-7.7297697289456
30
0
41
1
10
151.255484546202
20
-7.54392805671802
30
0
41
1
10
151.30970392805
20
-7.43218410130973
30
0
41
1
10
151.418142691746
20
-7.17061880022652
30
0
41
1
10
151.472362073594
20
-7.02079216346982
30
0
41
1
10
151.58080083729
20
-6.68433884860289
30
0
41
1
10
151.635020219139
20
-6.49771324304015
30
0
41
1
10
151.743458982835
20
-6.09073668478723
30
0
41
1
10
151.797678364683
20
-5.87039368158807
30
0
41
1
10
151.906117128379
20
-5.40071970752228
30
0
41
1
10
151.960336510227
20
-5.15140264654448
30
0
41
1
10
152.068775273923
20
-4.62984775692939
30
0
41
1
10
152.122994655771
20
-4.35762760517963
30
0
41
1
10
152.231433419467
20
-3.79718019583822
30
0
41
1
10
152.285652801315
20
-3.50897149008404
30
0
41
1
10
152.394091565012
20
-2.92375209720382
30
0
41
1
10
152.44831094686
20
-2.62675802397845
30
0
41
1
10
152.556749710556
20
-2.03092647779229
30
0
41
1
10
152.610969092404
20
-1.73210161940909
30
0
41
1
10
152.7194078561
20
-1.1388750197994
30
0
41
1
10
152.773627237948
20
-0.844480927545078
30
0
41
1
10
152.85495631072
20
-0.41015797656155
30
0
41
1
10
152.882066001644
20
-0.266586537868278
30
0
41
1
10
152.92273053803
20
-0.0534463912806871
30
0
41
1
10
152.936285383492
20
0.0169885191391472
30
0
41
1
10
152.963395074416
20
0.158826659379088
30
0
41
1
10
152.976949919878
20
0.230120141326211
30
0
41
1
10
153.044724147189
20
0.588295340070772
30
0
41
1
10
153.098943529037
20
0.880344900013853
30
0
41
1
10
153.207382292733
20
1.47053588743648
30
0
41
1
10
153.261601674581
20
1.76867114369409
30
0
41
1
10
153.370040438277
20
2.36504470369337
30
0
41
1
10
153.424259820125
20
2.66327179848165
30
0
41
1
10
153.532698583821
20
3.25304146977504
30
0
41
1
10
153.586917965669
20
3.54456843628265
30
0
41
1
10
153.695356729366
20
4.11375741853072
30
0
41
1
10
153.749576111214
20
4.39140118185597
30
0
41
1
10
153.85801487491
20
4.92576631799343
30
0
41
1
10
153.912234256758
20
5.18246944654339
30
0
41
1
10
154.020673020454
20
5.66857728440107
30
0
41
1
10
154.074892402302
20
5.89796670799234
30
0
41
1
10
154.183331165998
20
6.3242668815719
30
0
41
1
10
154.237550547846
20
6.52116777689355
30
0
41
1
10
154.345989311542
20
6.87889231654478
30
0
41
1
10
154.40020869339
20
7.03971286517006
30
0
41
1
10
154.508647457087
20
7.32345791848934
30
0
41
1
10
154.562866838935
20
7.44638597943583
30
0
41
1
10
154.671305602631
20
7.65429836517109
30
0
41
1
10
154.725524984479
20
7.73929153254073
30
0
41
1
10
154.833963748175
20
7.87286525585256
30
0
41
1
10
154.888183130023
20
7.92145783838049
30
0
41
1
10
154.996621893719
20
7.98501871273106
30
0
41
1
10
155.050841275567
20
8
30
0
41
1
10
155.105060657415
20
8
30
0
0
SPLINE
5
E6
100
AcDbEntity
8
1
62
256
6
ByLayer
370
13
48
1
60
0
100
AcDbSpline
70
4
71
3
72
22
73
18
40
0
40
0
40
0
40
0
40
0.125
40
0.125
40
0.25
40
0.25
40
0.375
40
0.375
40
0.5
40
0.5
40
0.625
40
0.625
40
0.75
40
0.75
40
0.875
40
0.875
40
1
40
1
40
1
40
1
41
1
10
156.866356240146
20
8
30
0
41
1
10
156.938101318717
20
8
30
0
41
1
10
157.009846397289
20
7.97372706632203
30
0
41
1
10
157.153336554433
20
7.86049369053288
30
0
41
1
10
157.225081633005
20
7.77348117317811
30
0
41
1
10
157.368571790149
20
7.5335762982867
30
0
41
1
10
157.44031686872
20
7.38064277862293
30
0
41
1
10
157.583807025864
20
7.00820778873938
30
0
41
1
10
157.655552104436
20
6.78869134779222
30
0
41
1
10
157.79904226158
20
6.28780586696317
30
0
41
1
10
157.870787340152
20
6.00645759059626
30
0
41
1
10
158.014277497295
20
5.3919679079643
30
0
41
1
10
158.086022575867
20
5.05888072678218
30
0
41
1
10
158.229512733011
20
4.3551700746076
30
0
41
1
10
158.301257811583
20
3.98461979152162
30
0
41
1
10
158.444747968727
20
3.22246010517171
30
0
41
1
10
158.516493047299
20
2.8309224967162
30
0
41
1
10
158.588238125871
20
2.43707673303302
30
0
0
SPLINE
5
E7
100
AcDbEntity
8
1
62
256
6
ByLayer
370
13
48
1
60
0
100
AcDbSpline
70
4
71
3
72
76
73
72
40
0
40
0
40
0
40
0
40
0.0312500000000013
40
0.0312500000000013
40
0.0625000000000026
40
0.0625000000000026
40
0.0703125000000024
40
0.0703125000000024
40
0.0781250000000023
40
0.0781250000000023
40
0.093750000000002
40
0.093750000000002
40
0.125000000000001
40
0.125000000000001
40
0.156250000000001
40
0.156250000000001
40
0.1875
40
0.1875
40
0.21875
40
0.21875
40
0.249999999999999
40
0.249999999999999
40
0.281249999999999
40
0.281249999999999
40
0.312499999999999
40
0.312499999999999
40
0.343749999999998
40
0.343749999999998
40
0.374999999999998
40
0.374999999999998
40
0.406249999999998
40
0.406249999999998
40
0.437499999999997
40
0.437499999999997
40
0.468749999999997
40
0.468749999999997
40
0.499999999999997
40
0.499999999999997
40
0.531249999999996
40
0.531249999999996
40
0.546874999999996
40
0.546874999999996
40
0.562499999999996
40
0.562499999999996
40
0.593749999999996
40
0.593749999999996
40
0.624999999999997
40
0.624999999999997
40
0.656249999999997
40
0.656249999999997
40
0.687499999999997
40
0.687499999999997
40
0.718749999999997
40
0.718749999999997
40
0.749999999999998
40
0.749999999999998
40
0.781249999999998
40
0.781249999999998
40
0.812499999999998
40
0.812499999999998
40
0.843749999999999
40
0.843749999999999
40
0.874999999999999
40
0.874999999999999
40
0.906249999999999
40
0.906249999999999
40
0.9375
40
0.9375
40
0.96875
40
0.96875
40
1
40
1
40
1
40
1
41
1
10
149.9
20
-7.75624587549828
30
0
41
1
10
149.949036081397
20
-7.82437440964148
30
0
41
1
10
149.998072162795
20
-7.87742972858294
30
0
41
1
10
150.09614432559
20
-7.95520682045347
30
0
41
1
10
150.145180406987
20
-7.97993641246381
30
0
41
1
10
150.206475508733
20
-7.99470067789139
30
0
41
1
10
150.218734529083
20
-7.996847450856
30
0
41
1
10
150.243252569782
20
-7.99957235792655
30
0
41
1
10
150.255511590131
20
-8.0001510790066
30
0
41
1
10
150.292288651179
20
-7.99959807643077
30
0
41
1
10
150.316806691878
20
-7.99615947794973
30
0
41
1
10
150.390360813974
20
-7.97610700872551
30
0
41
1
10
150.439396895371
20
-7.94973808524142
30
0
41
1
10
150.537469058166
20
-7.8685510420359
30
0
41
1
10
150.586505139563
20
-7.81372512464964
30
0
41
1
10
150.684577302358
20
-7.67384324853461
30
0
41
1
10
150.733613383756
20
-7.58878041484934
30
0
41
1
10
150.83168554655
20
-7.38755063561931
30
0
41
1
10
150.880721627948
20
-7.27137885443867
30
0
41
1
10
150.978793790742
20
-7.0081439116654
30
0
41
1
10
151.02782987214
20
-6.86107895594481
30
0
41
1
10
151.125902034935
20
-6.53746031315785
30
0
41
1
10
151.174938116332
20
-6.36090850451916
30
0
41
1
10
151.273010279127
20
-5.98090943635495
30
0
41
1
10
151.322046360524
20
-5.77746778201893
30
0
41
1
10
151.420118523319
20
-5.34736026204536
30
0
41
1
10
151.469154604716
20
-5.12070313251527
30
0
41
1
10
151.567226767511
20
-4.64869580337765
30
0
41
1
10
151.616262848908
20
-4.40335632594463
30
0
41
1
10
151.714335011703
20
-3.89907857476302
30
0
41
1
10
151.7633710931
20
-3.64015156716712
30
0
41
1
10
151.861443255895
20
-3.11402057749129
30
0
41
1
10
151.910479337293
20
-2.84682698636666
30
0
41
1
10
152.008551500087
20
-2.30938197818773
30
0
41
1
10
152.057587581485
20
-2.0391389649879
30
0
41
1
10
152.15565974428
20
-1.5004257216641
30
0
41
1
10
152.204695825677
20
-1.23196127217994
30
0
41
1
10
152.302767988472
20
-0.701032458227814
30
0
41
1
10
152.351804069869
20
-0.438571116532614
30
0
41
1
10
152.425358191965
20
-0.0519980617303588
30
0
41
1
10
152.449876232664
20
0.0751303729184372
30
0
41
1
10
152.498912314061
20
0.333127969646085
30
0
41
1
10
152.52343035476
20
0.463295543861761
30
0
41
1
10
152.596984476856
20
0.85668278436367
30
0
41
1
10
152.646020558254
20
1.12280969161191
30
0
41
1
10
152.744092721048
20
1.65891686971568
30
0
41
1
10
152.793128802445
20
1.92889266728707
30
0
41
1
10
152.89120096524
20
2.46813421172018
30
0
41
1
10
152.940237046638
20
2.73739273976898
30
0
41
1
10
153.038309209433
20
3.27013615939984
30
0
41
1
10
153.08734529083
20
3.53361148206875
30
0
41
1
10
153.185417453625
20
4.04947860007383
30
0
41
1
10
153.234453535022
20
4.30185937694239
30
0
41
1
10
153.332525697817
20
4.79029400840022
30
0
41
1
10
153.381561779214
20
5.02633669942739
30
0
41
1
10
153.479633942009
20
5.47725638196616
30
0
41
1
10
153.528670023406
20
5.69212353619233
30
0
41
1
10
153.626742186201
20
6.09657875340505
30
0
41
1
10
153.675778267599
20
6.28615962784616
30
0
41
1
10
153.773850430393
20
6.6369145244054
30
0
41
1
10
153.822886511791
20
6.79808488367766
30
0
41
1
10
153.920958674585
20
7.0900422684868
30
0
41
1
10
153.969994755983
20
7.22082940937409
30
0
41
1
10
154.068066918778
20
7.45124872146127
30
0
41
1
10
154.117103000175
20
7.55088440706336
30
0
41
1
10
154.21517516297
20
7.7193775421957
30
0
41
1
10
154.264211244367
20
7.78824104644002
30
0
41
1
10
154.362283407162
20
7.89656768936015
30
0
41
1
10
154.411319488559
20
7.9360383285466
30
0
41
1
10
154.509391651354
20
7.98775055127314
30
0
41
1
10
154.558427732751
20
8
30
0
41
1
10
154.607463814149
20
8
30
0
0
SPLINE
5
E8
100
AcDbEntity
8
1
62
256
6
ByLayer
370
13
48
1
60
0
100
AcDbSpline
70
4
71
3
72
40
73
36
40
0
40
0
40
0
40
0
40
0.124999999999999
40
0.124999999999999
40
0.187499999999999
40
0.187499999999999
40
0.25
40
0.25
40
0.3125
40
0.3125
40
0.375
40
0.375
40
0.4375
40
0.4375
40
0.5
40
0.5
40
0.5625
40
0.5625
40
0.625
40
0.625
40
0.6875
40
0.6875
40
0.75
40
0.75
40
0.8125
40
0.8125
40
0.875
40
0.875
40
0.9375
40
0.9375
40
0.96875
40
0.96875
40
0.984375
40
0.984375
40
1
40
1
40
1
40
1
41
1
10
156.368759396879
20
8
30
0
41
1
10
156.461237677254
20
8
30
0
41
1
10
156.553715957628
20
7.95623041265239
30
0
41
1
10
156.69243337819
20
7.81243917804602
30
0
41
1
10
156.738672518378
20
7.75153558494947
30
0
41
1
10
156.831150798752
20
7.60253052725233
30
0
41
1
10
156.87738993894
20
7.51442429994424
30
0
41
1
10
156.969868219314
20
7.3105156122688
30
0
41
1
10
157.016107359501
20
7.19471003005651
30
0
41
1
10
157.108585639876
20
6.93578986083944
30
0
41
1
10
157.154824780063
20
6.79267441556095
30
0
41
1
10
157.247303060438
20
6.48046928159977
30
0
41
1
10
157.293542200625
20
6.31138135608748
30
0
41
1
10
157.386020481
20
5.94950105415901
30
0
41
1
10
157.432259621187
20
5.75671304420089
30
0
41
1
10
157.524737901562
20
5.35054498226992
30
0
41
1
10
157.570977041749
20
5.13717147465297
30
0
41
1
10
157.663455322124
20
4.69362173981207
30
0
41
1
10
157.709694462311
20
4.46345346939853
30
0
41
1
10
157.802172742686
20
3.99055967226533
30
0
41
1
10
157.848411882873
20
3.74784255987623
30
0
41
1
10
157.940890163248
20
3.25430329519585
30
0
41
1
10
157.987129303435
20
3.00348906011055
30
0
41
1
10
158.07960758381
20
2.49816590973441
30
0
41
1
10
158.125846723997
20
2.24366363369003
30
0
41
1
10
158.218325004372
20
1.73511173975041
30
0
41
1
10
158.264564144559
20
1.48106698865777
30
0
41
1
10
158.357042424934
20
0.977140238478057
30
0
41
1
10
158.403281565121
20
0.727261158200918
30
0
41
1
10
158.472640275402
20
0.357931354313422
30
0
41
1
10
158.495759845496
20
0.235731631255334
30
0
41
1
10
158.530439200636
20
0.0540500491296712
30
0
41
1
10
158.541998985683
20
-0.0060553833736492
30
0
41
1
10
158.565118555777
20
-0.126887942024041
30
0
41
1
10
158.576678340823
20
-0.187578807114619
30
0
41
1
10
158.588238125871
20
-0.248524128794884
30
0
0
SPLINE
5
E9
100
AcDbEntity
8
1
62
256
6
ByLayer
370
13
48
1
60
0
100
AcDbSpline
70
4
71
3
72
46
73
42
40
0
40
0
40
0
40
0
40
0.0624999999999984
40
0.0624999999999984
40
0.124999999999997
40
0.124999999999997
40
0.187499999999995
40
0.187499999999995
40
0.218749999999995
40
0.218749999999995
40
0.249999999999994
40
0.249999999999994
40
0.312499999999992
40
0.312499999999992
40
0.374999999999991
40
0.374999999999991
40
0.437499999999989
40
0.437499999999989
40
0.468749999999988
40
0.468749999999988
40
0.484374999999989
40
0.484374999999989
40
0.499999999999989
40
0.499999999999989
40
0.56249999999999
40
0.56249999999999
40
0.624999999999992
40
0.624999999999992
40
0.687499999999994
40
0.687499999999994
40
0.718749999999995
40
0.718749999999995
40
0.749999999999995
40
0.749999999999995
40
0.812499999999997
40
0.812499999999997
40
0.874999999999998
40
0.874999999999998
40
0.937499999999999
40
0.937499999999999
40
1
40
1
40
1
40
1
41
1
10
149.9
20
-7.96836283897821
30
0
41
1
10
149.987705561893
20
-7.92634746827849
30
0
41
1
10
150.075411123787
20
-7.84091327573577
30
0
41
1
10
150.250822247573
20
-7.5721918359431
30
0
41
1
10
150.338527809467
20
-7.38878584062505
30
0
41
1
10
150.513938933254
20
-6.92240679260348
30
0
41
1
10
150.601644495147
20
-6.63939963794098
30
0
41
1
10
150.733202837987
20
-6.14801029513762
30
0
41
1
10
150.777055618934
20
-5.97316520326919
30
0
41
1
10
150.864761180827
20
-5.60377623782722
30
0
41
1
10
150.908613961774
20
-5.40923678799123
30
0
41
1
10
151.040172304614
20
-4.80058604319211
30
0
41
1
10
151.127877866507
20
-4.3613251061918
30
0
41
1
10
151.303288990294
20
-3.44457594449781
30
0
41
1
10
151.390994552187
20
-2.96728879362232
30
0
41
1
10
151.566405675974
20
-2.00487841491127
30
0
41
1
10
151.654111237868
20
-1.51990284064016
30
0
41
1
10
151.785669580708
20
-0.806189062105744
30
0
41
1
10
151.829522361654
20
-0.570529099023958
30
0
41
1
10
151.895301533074
20
-0.222337719533243
30
0
41
1
10
151.917227923548
20
-0.107233648602545
30
0
41
1
10
151.961080704494
20
0.121267252739983
30
0
41
1
10
151.983007094968
20
0.236529386103399
30
0
41
1
10
152.092639047334
20
0.817206678780138
30
0
41
1
10
152.180344609228
20
1.29601448344724
30
0
41
1
10
152.355755733015
20
2.25961355761532
30
0
41
1
10
152.443461294908
20
2.74429877081479
30
0
41
1
10
152.618872418695
20
3.69091240164514
30
0
41
1
10
152.706577980588
20
4.15265853839182
30
0
41
1
10
152.838136323428
20
4.80534928880218
30
0
41
1
10
152.881989104375
20
5.01626319515421
30
0
41
1
10
152.969694666268
20
5.42134735469924
30
0
41
1
10
153.013547447215
20
5.61551191751272
30
0
41
1
10
153.145105790055
20
6.16838697001367
30
0
41
1
10
153.232811351948
20
6.49710783409455
30
0
41
1
10
153.408222475735
20
7.05856246586572
30
0
41
1
10
153.495928037628
20
7.29127296487684
30
0
41
1
10
153.671339161415
20
7.656418431899
30
0
41
1
10
153.759044723309
20
7.78893774703391
30
0
41
1
10
153.934455847095
20
7.960659410342
30
0
41
1
10
154.022161408989
20
8
30
0
41
1
10
154.109866970882
20
8
30
0
0
SPLINE
5
EA
100
AcDbEntity
8
1
62
256
6
ByLayer
370
13
48
1
60
0
100
AcDbSpline
70
4
71
3
72
42
73
38
40
0
40
0
40
0
40
0
40
0.0625
40
0.0625
40
0.125
40
0.125
40
0.1875
40
0.1875
40
0.25
40
0.25
40
0.3125
40
0.3125
40
0.375
40
0.375
40
0.4375
40
0.4375
40
0.5
40
0.5
40
0.5625
40
0.5625
40
0.625
40
0.625
40
0.6875
40
0.6875
40
0.75
40
0.75
40
0.78125
40
0.78125
40
0.796875
40
0.796875
40
0.8125
40
0.8125
40
0.875
40
0.875
40
0.9375
40
0.9375
40
1
40
1
40
1
40
1
41
1
10
155.871162553612
20
8
30
0
41
1
10
155.927768294701
20
8
30
0
41
1
10
155.98437403579
20
7.98366800345917
30
0
41
1
10
156.097585517967
20
7.91422084280438
30
0
41
1
10
156.154191259056
20
7.86108957033974
30
0
41
1
10
156.267402741233
20
7.71494809576811
30
0
41
1
10
156.324008482322
20
7.62192322340104
30
0
41
1
10
156.437219964499
20
7.39442449483462
30
0
41
1
10
156.493825705588
20
7.25994041039837
30
0
41
1
10
156.607037187766
20
6.94986426834978
30
0
41
1
10
156.663642928854
20
6.77426917372622
30
0
41
1
10
156.776854411032
20
6.38443206020793
30
0
41
1
10
156.83346015212
20
6.17019577591083
30
0
41
1
10
156.946671634298
20
5.70762148386592
30
0
41
1
10
157.003277375386
20
5.45929769791354
30
0
41
1
10
157.116488857564
20
4.93487529522821
30
0
41
1
10
157.173094598653
20
4.6587971268392
30
0
41
1
10
157.28630608083
20
4.08644394968627
30
0
41
1
10
157.342911821919
20
3.79019197493278
30
0
41
1
10
157.456123304096
20
3.18565301164571
30
0
41
1
10
157.512729045185
20
2.87738769450962
30
0
41
1
10
157.625940527362
20
2.25688202699771
30
0
41
1
10
157.682546268451
20
1.94465881603355
30
0
41
1
10
157.795757750628
20
1.3236021446782
30
0
41
1
10
157.852363491717
20
1.01477957570924
30
0
41
1
10
157.93727210335
20
0.558770991855909
30
0
41
1
10
157.965574973895
20
0.407962602007529
30
0
41
1
10
158.008029279711
20
0.184032188014498
30
0
41
1
10
158.022180714983
20
0.109768406981175
30
0
41
1
10
158.050483585528
20
-0.0379261673786289
30
0
41
1
10
158.0646350208
20
-0.111720138087463
30
0
41
1
10
158.135392197161
20
-0.483685879683861
30
0
41
1
10
158.191997938249
20
-0.787582777478576
30
0
41
1
10
158.305209420427
20
-1.40256476705952
30
0
41
1
10
158.361815161516
20
-1.7136427635445
30
0
41
1
10
158.475026643693
20
-2.33624724738351
30
0
41
1
10
158.531632384782
20
-2.64776012113981
30
0
41
1
10
158.588238125871
20
-2.95564366565196
30
0
0
SPLINE
5
EB
100
AcDbEntity
8
1
62
256
6
ByLayer
370
13
48
1
60
0
100
AcDbSpline
70
4
71
3
72
42
73
38
40
0
40
0
40
0
40
0
40
0.0625000000000018
40
0.0625000000000018
40
0.125000000000004
40
0.125000000000004
40
0.187500000000005
40
0.187500000000005
40
0.250000000000007
40
0.250000000000007
40
0.312500000000009
40
0.312500000000009
40
0.375000000000011
40
0.375000000000011
40
0.406250000000012
40
0.406250000000012
40
0.421875000000012
40
0.421875000000012
40
0.437500000000012
40
0.437500000000012
40
0.500000000000011
40
0.500000000000011
40
0.562500000000009
40
0.562500000000009
40
0.625000000000008
40
0.625000000000008
40
0.687500000000007
40
0.687500000000007
40
0.750000000000005
40
0.750000000000005
40
0.812500000000004
40
0.812500000000004
40
0.875000000000003
40
0.875000000000003
40
0.937500000000001
40
0.937500000000001
40
1
40
1
40
1
40
1
41
1
10
149.9
20
-7.22997968859656
30
0
41
1
10
149.977338960992
20
-7.03383728824011
30
0
41
1
10
150.054677921984
20
-6.79888975565004
30
0
41
1
10
150.209355843968
20
-6.25715356053203
30
0
41
1
10
150.28669480496
20
-5.95039582210424
30
0
41
1
10
150.441372726944
20
-5.27796217824451
30
0
41
1
10
150.518711687936
20
-4.91236864629948
30
0
41
1
10
150.67338960992
20
-4.14065033597379
30
0
41
1
10
150.750728570912
20
-3.73463362260131
30
0
41
1
10
150.905406492896
20
-2.90294740578969
30
0
41
1
10
150.982745453888
20
-2.4773774452683
30
0
41
1
10
151.137423375872
20
-1.62670918117723
30
0
41
1
10
151.214762336864
20
-1.20167640916597
30
0
41
1
10
151.330770778352
20
-0.577088764341852
30
0
41
1
10
151.369440258848
20
-0.371021215642628
30
0
41
1
10
151.427444479592
20
-0.0663598904207561
30
0
41
1
10
151.44677921984
20
0.0339920709925252
30
0
41
1
10
151.485448700336
20
0.236782548373213
30
0
41
1
10
151.504783440584
20
0.338925485994764
30
0
41
1
10
151.601457141824
20
0.852887416172933
30
0
41
1
10
151.678796102816
20
1.27462483208347
30
0
41
1
10
151.8334740248
20
2.12374405550131
30
0
41
1
10
151.910812985792
20
2.55107187563939
30
0
41
1
10
152.065490907776
20
3.39203093103592
30
0
41
1
10
152.142829868768
20
3.80557018054265
30
0
41
1
10
152.297507790752
20
4.59800570396115
30
0
41
1
10
152.374846751743
20
4.97679293417704
30
0
41
1
10
152.529524673728
20
5.6802866607745
30
0
41
1
10
152.60686363472
20
6.00490040933812
30
0
41
1
10
152.761541556704
20
6.58527928357387
30
0
41
1
10
152.838880517695
20
6.84099779247015
30
0
41
1
10
152.99355843968
20
7.27568149184719
30
0
41
1
10
153.070897400671
20
7.45465693465317
30
0
41
1
10
153.225575322655
20
7.73537725954208
30
0
41
1
10
153.302914283648
20
7.83717731894686
30
0
41
1
10
153.457592205631
20
7.96945108772354
30
0
41
1
10
153.534931166623
20
8
30
0
41
1
10
153.612270127615
20
8
30
0
0
SPLINE
5
EC
100
AcDbEntity
8
1
62
256
6
ByLayer
370
13
48
1
60
0
100
AcDbSpline
70
4
71
3
72
44
73
40
40
0
40
0
40
0
40
0
40
0.0625
40
0.0625
40
0.125
40
0.125
40
0.1875
40
0.1875
40
0.25
40
0.25
40
0.3125
40
0.3125
40
0.375
40
0.375
40
0.4375
40
0.4375
40
0.5
40
0.5
40
0.5625
40
0.5625
40
0.625
40
0.625
40
0.65625
40
0.65625
40
0.671875
40
0.671875
40
0.6796875
40
0.6796875
40
0.6875
40
0.6875
40
0.75
40
0.75
40
0.8125
40
0.8125
40
0.875
40
0.875
40
0.9375
40
0.9375
40
1
40
1
40
1
40
1
41
1
10
155.373565710346
20
8
30
0
41
1
10
155.440538052336
20
8
30
0
41
1
10
155.507510394326
20
7.97711751607073
30
0
41
1
10
155.641455078306
20
7.87890031427682
30
0
41
1
10
155.708427420296
20
7.80352849462011
30
0
41
1
10
155.842372104276
20
7.59581144556216
30
0
41
1
10
155.909344446266
20
7.46343529191333
30
0
41
1
10
156.043289130247
20
7.14048002292313
30
0
41
1
10
156.110261472237
20
6.94988579218747
30
0
41
1
10
156.244206156217
20
6.51328389011459
30
0
41
1
10
156.311178498207
20
6.26728395467657
30
0
41
1
10
156.445123182187
20
5.72681260324231
30
0
41
1
10
156.512095524177
20
5.43237254727663
30
0
41
1
10
156.646040208157
20
4.80552450368188
30
0
41
1
10
156.713012550148
20
4.47316475463157
30
0
41
1
10
156.846957234128
20
3.78331555286579
30
0
41
1
10
156.913929576118
20
3.42587932732209
30
0
41
1
10
157.047874260098
20
2.69947916149559
30
0
41
1
10
157.114846602088
20
2.33056119277901
30
0
41
1
10
157.248791286068
20
1.59402990143659
30
0
41
1
10
157.315763628058
20
1.22644711356992
30
0
41
1
10
157.416222141044
20
0.684217860839567
30
0
41
1
10
157.449708312039
20
0.504980949451863
30
0
41
1
10
157.499937568531
20
0.239223232916658
30
0
41
1
10
157.516680654029
20
0.151152299459028
30
0
41
1
10
157.541795282275
20
0.0199112557732803
30
0
41
1
10
157.550166825024
20
-0.0236221602199294
30
0
41
1
10
157.566909910521
20
-0.11113251141424
30
0
41
1
10
157.57528145327
20
-0.155031619533901
30
0
41
1
10
157.650625338009
20
-0.551350730180047
30
0
41
1
10
157.717597679999
20
-0.912469666480774
30
0
41
1
10
157.851542363979
20
-1.64310001679573
30
0
41
1
10
157.918514705969
20
-2.0125919982066
30
0
41
1
10
158.05245938995
20
-2.74827270323632
30
0
41
1
10
158.11943173194
20
-3.11442445729972
30
0
41
1
10
158.25337641592
20
-3.83016403280001
30
0
41
1
10
158.32034875791
20
-4.17970188124073
30
0
41
1
10
158.45429344189
20
-4.84871587317909
30
0
41
1
10
158.52126578388
20
-5.16813914259927
30
0
41
1
10
158.58823812587
20
-5.46645736698335
30
0
0
SPLINE
5
ED
100
AcDbEntity
8
1
62
256
6
ByLayer
370
13
48
1
60
0
100
AcDbSpline
70
4
71
3
72
44
73
40
40
0
40
0
40
0
40
0
40
0.0624999999999951
40
0.0624999999999951
40
0.12499999999999
40
0.12499999999999
40
0.187499999999985
40
0.187499999999985
40
0.24999999999998
40
0.24999999999998
40
0.312499999999976
40
0.312499999999976
40
0.320312499999976
40
0.320312499999976
40
0.328124999999976
40
0.328124999999976
40
0.343749999999976
40
0.343749999999976
40
0.374999999999977
40
0.374999999999977
40
0.437499999999979
40
0.437499999999979
40
0.499999999999982
40
0.499999999999982
40
0.562499999999984
40
0.562499999999984
40
0.624999999999986
40
0.624999999999986
40
0.687499999999989
40
0.687499999999989
40
0.749999999999991
40
0.749999999999991
40
0.812499999999993
40
0.812499999999993
40
0.874999999999995
40
0.874999999999995
40
0.937499999999998
40
0.937499999999998
40
1
40
1
40
1
40
1
41
1
10
149.9
20
-5.46646123702712
30
0
41
1
10
149.966972360091
20
-5.16814311372229
30
0
41
1
10
150.033944720181
20
-4.84871991025381
30
0
41
1
10
150.167889440362
20
-4.17970598075954
30
0
41
1
10
150.234861800453
20
-3.83016812886854
30
0
41
1
10
150.368806520634
20
-3.11442848578031
30
0
41
1
10
150.435778880725
20
-2.74827666767951
30
0
41
1
10
150.569723600906
20
-2.01259578817681
30
0
41
1
10
150.636695960997
20
-1.64310369643741
30
0
41
1
10
150.770640681178
20
-0.912473095621323
30
0
41
1
10
150.837613041268
20
-0.551354019232036
30
0
41
1
10
150.91295694637
20
-0.155034743113873
30
0
41
1
10
150.921328491382
20
-0.111135616497791
30
0
41
1
10
150.938071581404
20
-0.0236252281175382
30
0
41
1
10
150.946443126415
20
0.0199082002050375
30
0
41
1
10
150.97155776145
20
0.151149259263065
30
0
41
1
10
150.988300851472
20
0.239220203969609
30
0
41
1
10
151.03853012154
20
0.50497795728748
30
0
41
1
10
151.072016301586
20
0.68421489725182
30
0
41
1
10
151.172474841721
20
1.22644424790562
30
0
41
1
10
151.239447201812
20
1.59402711744613
30
0
41
1
10
151.373391921993
20
2.33055860212241
30
0
41
1
10
151.440364282084
20
2.69947668250049
30
0
41
1
10
151.574309002265
20
3.42587709456788
30
0
41
1
10
151.641281362356
20
3.78331345465563
30
0
41
1
10
151.775226082537
20
4.47316293751078
30
0
41
1
10
151.842198442627
20
4.80552283303768
30
0
41
1
10
151.976143162809
20
5.43237116841263
30
0
41
1
10
152.043115522899
20
5.72681136959852
30
0
41
1
10
152.17706024308
20
6.26728299723661
30
0
41
1
10
152.244032603171
20
6.5132830635871
30
0
41
1
10
152.377977323352
20
6.94988520271932
30
0
41
1
10
152.444949683443
20
7.14047953956492
30
0
41
1
10
152.578894403624
20
7.46343498971055
30
0
41
1
10
152.645866763714
20
7.59581121840881
30
0
41
1
10
152.779811483896
20
7.80352838493749
30
0
41
1
10
152.846783843986
20
7.87890024705106
30
0
41
1
10
152.980728564167
20
7.9771175036615
30
0
41
1
10
153.047700924258
20
8
30
0
41
1
10
153.114673284349
20
8
30
0
0
SPLINE
5
EE
100
AcDbEntity
8
1
62
256
6
ByLayer
370
13
48
1
60
0
100
AcDbSpline
70
4
71
3
72
42
73
38
40
0
40
0
40
0
40
0
40
0.0625000000000003
40
0.0625000000000003
40
0.125000000000001
40
0.125000000000001
40
0.187500000000001
40
0.187500000000001
40
0.250000000000001
40
0.250000000000001
40
0.312500000000001
40
0.312500000000001
40
0.375000000000002
40
0.375000000000002
40
0.437500000000002
40
0.437500000000002
40
0.500000000000002
40
0.500000000000002
40
0.562500000000003
40
0.562500000000003
40
0.578125000000003
40
0.578125000000003
40
0.593750000000003
40
0.593750000000003
40
0.625000000000003
40
0.625000000000003
40
0.687500000000003
40
0.687500000000003
40
0.750000000000002
40
0.750000000000002
40
0.812500000000002
40
0.812500000000002
40
0.875000000000001
40
0.875000000000001
40
0.937500000000001
40
0.937500000000001
40
1
40
1
40
1
40
1
41
1
10
154.875968867079
20
8
30
0
41
1
10
154.95330780997
20
8
30
0
41
1
10
155.030646752862
20
7.96945110208875
30
0
41
1
10
155.185324638645
20
7.8371773974541
30
0
41
1
10
155.262663581536
20
7.73537738791197
30
0
41
1
10
155.417341467319
20
7.45465720048378
30
0
41
1
10
155.494680410211
20
7.27568184532421
30
0
41
1
10
155.649358295994
20
6.8409983545977
30
0
41
1
10
155.726697238885
20
6.58527996667922
30
0
41
1
10
155.881375124668
20
6.00490135622275
30
0
41
1
10
155.95871406756
20
5.68028775035438
30
0
41
1
10
156.113391953343
20
4.97679431429367
30
0
41
1
10
156.190730896234
20
4.59800723177244
30
0
41
1
10
156.345408782017
20
3.80557199105587
30
0
41
1
10
156.422747724909
20
3.39203287643144
30
0
41
1
10
156.577425610692
20
2.55107406344246
30
0
41
1
10
156.654764553583
20
2.12374635077242
30
0
41
1
10
156.809442439366
20
1.27462730630364
30
0
41
1
10
156.886781382258
20
0.852889961890128
30
0
41
1
10
156.983455060872
20
0.33892809734752
30
0
41
1
10
157.002789796595
20
0.236785171681021
30
0
41
1
10
157.041459268041
20
0.0339947158901737
30
0
41
1
10
157.060794003763
20
-0.0663572177710137
30
0
41
1
10
157.118798210932
20
-0.37101843236951
30
0
41
1
10
157.157467682378
20
-0.577085909293032
30
0
41
1
10
157.273476096715
20
-1.20167334851311
30
0
41
1
10
157.350815039607
20
-1.62670599641126
30
0
41
1
10
157.50549292539
20
-2.47737406002008
30
0
41
1
10
157.582831868281
20
-2.90294394435426
30
0
41
1
10
157.737509754064
20
-3.73463007668093
30
0
41
1
10
157.814848696955
20
-4.14064678193867
30
0
41
1
10
157.969526582739
20
-4.91236515639508
30
0
41
1
10
158.04686552563
20
-5.27795876068544
30
0
41
1
10
158.201543411413
20
-5.95039262982272
30
0
41
1
10
158.278882354304
20
-6.25715052114273
30
0
41
1
10
158.433560240087
20
-6.79888708955252
30
0
41
1
10
158.510899182979
20
-7.03383484237602
30
0
41
1
10
158.58823812587
20
-7.22997748513652
30
0
0
SPLINE
5
EF
100
AcDbEntity
8
1
62
256
6
ByLayer
370
13
48
1
60
0
100
AcDbSpline
70
4
71
3
72
41
73
37
40
0
40
0
40
0
40
0
40
0.0625000000000002
40
0.0625000000000002
40
0.125
40
0.125
40
0.1875
40
0.1875
40
0.203125
40
0.203125
40
0.21875
40
0.25
40
0.25
40
0.3125
40
0.3125
40
0.375
40
0.375
40
0.4375
40
0.4375
40
0.5
40
0.5
40
0.5625
40
0.5625
40
0.625
40
0.625
40
0.6875
40
0.6875
40
0.75
40
0.75
40
0.8125
40
0.8125
40
0.875
40
0.875
40
0.9375
40
0.9375
40
1
40
1
40
1
40
1
41
1
10
149.9
20
-2.95564839125981
30
0
41
1
10
149.956605759189
20
-2.64776478572631
30
0
41
1
10
150.013211518379
20
-2.33625182808433
30
0
41
1
10
150.126423036757
20
-1.71364714174493
30
0
41
1
10
150.183028795946
20
-1.40256902669754
30
0
41
1
10
150.296240314325
20
-0.787586777111272
30
0
41
1
10
150.352846073514
20
-0.483689737913693
30
0
41
1
10
150.4236032725
20
-0.11172381224381
30
0
41
1
10
150.437754712297
20
-0.0379297903153031
30
0
41
1
10
150.466057591892
20
0.109764804118072
30
0
41
1
10
150.508511911284
20
0.332554836861817
30
0
41
1
10
150.550966230676
20
0.558767461963299
30
0
41
1
10
150.63587486946
20
1.01477613679563
30
0
41
1
10
150.692480628649
20
1.32359878025693
30
0
41
1
10
150.805692147027
20
1.94465562692693
30
0
41
1
10
150.862297906217
20
2.25687893871915
30
0
41
1
10
150.975509424595
20
2.87738483032103
30
0
41
1
10
151.032115183784
20
3.18565027070983
30
0
41
1
10
151.145326702162
20
3.79018949649875
30
0
41
1
10
151.201932461352
20
4.08644161047593
30
0
41
1
10
151.31514397973
20
4.6587950736143
30
0
41
1
10
151.371749738919
20
4.93487338872691
30
0
41
1
10
151.484961257298
20
5.45929608289148
30
0
41
1
10
151.541567016487
20
5.70762001355672
30
0
41
1
10
151.654778534865
20
6.17019458375415
30
0
41
1
10
151.711384294055
20
6.38443100145355
30
0
41
1
10
151.824595812433
20
6.77426836264036
30
0
41
1
10
151.881201571622
20
6.94986357150654
30
0
41
1
10
151.994413090001
20
7.25993991742601
30
0
41
1
10
152.05101884919
20
7.39442409148472
30
0
41
1
10
152.164230367568
20
7.62192297203703
30
0
41
1
10
152.220836126758
20
7.71494790677809
30
0
41
1
10
152.334047645136
20
7.86108947894473
30
0
41
1
10
152.390653404325
20
7.91422078665198
30
0
41
1
10
152.503864922704
20
7.98366799299143
30
0
41
1
10
152.560470681893
20
8
30
0
41
1
10
152.617076441082
20
8
30
0
0
SPLINE
5
F0
100
AcDbEntity
8
1
62
256
6
ByLayer
370
13
48
1
60
0
100
AcDbSpline
70
4
71
3
72
46
73
42
40
0
40
0
40
0
40
0
40
0.0624999999999993
40
0.0624999999999993
40
0.124999999999999
40
0.124999999999999
40
0.187499999999998
40
0.187499999999998
40
0.249999999999997
40
0.249999999999997
40
0.281249999999997
40
0.281249999999997
40
0.312499999999997
40
0.312499999999997
40
0.374999999999997
40
0.374999999999997
40
0.437499999999996
40
0.437499999999996
40
0.499999999999996
40
0.499999999999996
40
0.515624999999996
40
0.515624999999996
40
0.531249999999996
40
0.531249999999996
40
0.562499999999996
40
0.562499999999996
40
0.624999999999996
40
0.624999999999996
40
0.687499999999997
40
0.687499999999997
40
0.749999999999997
40
0.749999999999997
40
0.781249999999997
40
0.781249999999997
40
0.812499999999997
40
0.812499999999997
40
0.874999999999998
40
0.874999999999998
40
0.937499999999999
40
0.937499999999999
40
1
40
1
40
1
40
1
41
1
10
154.378372023812
20
8
30
0
41
1
10
154.466077567605
20
8
30
0
41
1
10
154.553783111398
20
7.96065942668136
30
0
41
1
10
154.729194198984
20
7.78893783701326
30
0
41
1
10
154.816899742777
20
7.65641857931595
30
0
41
1
10
154.992310830362
20
7.29127326960773
30
0
41
1
10
155.080016374155
20
7.05856287052373
30
0
41
1
10
155.255427461741
20
6.49710847228323
30
0
41
1
10
155.343133005534
20
6.16838774170631
30
0
41
1
10
155.474691321223
20
5.61551290088104
30
0
41
1
10
155.51854409312
20
5.42134841046476
30
0
41
1
10
155.606249636913
20
5.01626439660058
30
0
41
1
10
155.650102408809
20
4.80535056352451
30
0
41
1
10
155.781660724498
20
4.15266002997669
30
0
41
1
10
155.869366268291
20
3.69091403364382
30
0
41
1
10
156.044777355877
20
2.74430065529958
30
0
41
1
10
156.13248289967
20
2.2596155540532
30
0
41
1
10
156.307893987256
20
1.29601666318743
30
0
41
1
10
156.395599531048
20
0.817208929888835
30
0
41
1
10
156.50523146079
20
0.236531699462404
30
0
41
1
10
156.527157846738
20
0.121269577222392
30
0
41
1
10
156.571010618634
20
-0.107231304487016
30
0
41
1
10
156.592937004582
20
-0.222335312600819
30
0
41
1
10
156.658716162427
20
-0.570526583268162
30
0
41
1
10
156.702568934323
20
-0.806186476424955
30
0
41
1
10
156.834127250013
20
-1.51990005808278
30
0
41
1
10
156.921832793806
20
-2.00487551835559
30
0
41
1
10
157.097243881392
20
-2.96728573156892
30
0
41
1
10
157.184949425184
20
-3.44457283125925
30
0
41
1
10
157.36036051277
20
-4.36132197593437
30
0
41
1
10
157.448066056563
20
-4.80058294735346
30
0
41
1
10
157.579624372252
20
-5.40923381387387
30
0
41
1
10
157.623477144149
20
-5.60377331582458
30
0
41
1
10
157.711182687942
20
-5.97316240773944
30
0
41
1
10
157.755035459838
20
-6.14800757396259
30
0
41
1
10
157.886593775527
20
-6.63939717015728
30
0
41
1
10
157.97429931932
20
-6.92240453454139
30
0
41
1
10
158.149710406906
20
-7.3887840561695
30
0
41
1
10
158.237415950699
20
-7.57219031501998
30
0
41
1
10
158.412827038285
20
-7.84091230103775
30
0
41
1
10
158.500532582078
20
-7.92634677598258
30
0
41
1
10
158.588238125871
20
-7.96836242276657
30
0
0
SPLINE
5
F1
100
AcDbEntity
8
1
62
256
6
ByLayer
370
13
48
1
60
0
100
AcDbSpline
70
4
71
3
72
40
73
36
40
0
40
0
40
0
40
0
40
0.0156249999999997
40
0.0156249999999997
40
0.0312499999999993
40
0.0312499999999993
40
0.0624999999999987
40
0.0624999999999987
40
0.124999999999999
40
0.124999999999999
40
0.187499999999999
40
0.187499999999999
40
0.249999999999999
40
0.249999999999999
40
0.312499999999999
40
0.312499999999999
40
0.374999999999999
40
0.374999999999999
40
0.437499999999999
40
0.437499999999999
40
0.499999999999999
40
0.499999999999999
40
0.562499999999999
40
0.562499999999999
40
0.624999999999999
40
0.624999999999999
40
0.687499999999999
40
0.687499999999999
40
0.749999999999999
40
0.749999999999999
40
0.812499999999999
40
0.812499999999999
40
0.874999999999999
40
0.874999999999999
40
1
40
1
40
1
40
1
41
1
10
149.9
20
-0.24852870939489
30
0
41
1
10
149.911559789572
20
-0.187583351112607
30
0
41
1
10
149.923119579144
20
-0.126892449099756
30
0
41
1
10
149.946239158288
20
-0.0060598160720815
30
0
41
1
10
149.95779894786
20
0.0540456290548832
30
0
41
1
10
149.992478316576
20
0.235727243090139
30
0
41
1
10
150.01559789572
20
0.357926990193732
30
0
41
1
10
150.084956633151
20
0.727256874635202
30
0
41
1
10
150.131195791439
20
0.977136019878202
30
0
41
1
10
150.223674108015
20
1.48106292216428
30
0
41
1
10
150.269913266302
20
1.73510776040234
30
0
41
1
10
150.362391582878
20
2.24365984912615
30
0
41
1
10
150.408630741166
20
2.49816223280948
30
0
41
1
10
150.501109057742
20
3.00348561584778
30
0
41
1
10
150.547348216029
20
3.25429997595066
30
0
41
1
10
150.639826532605
20
3.74783950358986
30
0
41
1
10
150.686065690893
20
3.99055675390875
30
0
41
1
10
150.778544007469
20
4.46345083426965
30
0
41
1
10
150.824783165756
20
4.6936192499648
30
0
41
1
10
150.917261482332
20
5.13716927650819
30
0
41
1
10
150.96350064062
20
5.3505429305271
30
0
41
1
10
151.055978957195
20
5.75671128003654
30
0
41
1
10
151.102218115483
20
5.94949943115256
30
0
41
1
10
151.194696432059
20
6.31138000424414
30
0
41
1
10
151.240935590347
20
6.48046805974633
30
0
41
1
10
151.333413906922
20
6.79267343756297
30
0
41
1
10
151.37965306521
20
6.93578899669723
30
0
41
1
10
151.472131381786
20
7.19470937386842
30
0
41
1
10
151.518370540074
20
7.31051505017584
30
0
41
1
10
151.610848856649
20
7.5144239041866
30
0
41
1
10
151.657088014937
20
7.60253020373793
30
0
41
1
10
151.749566331513
20
7.75153538350617
30
0
41
1
10
151.7958054898
20
7.8124390264384
30
0
41
1
10
151.934522964664
20
7.9562303781417
30
0
41
1
10
152.02700128124
20
8
30
0
41
1
10
152.119479597815
20
8
30
0
0
SPLINE
5
F2
100
AcDbEntity
8
1
62
256
6
ByLayer
370
13
48
1
60
0
100
AcDbSpline
70
4
71
3
72
76
73
72
40
0
40
0
40
0
40
0
40
0.03125
40
0.03125
40
0.0625
40
0.0625
40
0.0937500000000001
40
0.0937500000000001
40
0.125
40
0.125
40
0.15625
40
0.15625
40
0.1875
40
0.1875
40
0.21875
40
0.21875
40
0.25
40
0.25
40
0.28125
40
0.28125
40
0.3125
40
0.3125
40
0.34375
40
0.34375
40
0.375
40
0.375
40
0.40625
40
0.40625
40
0.4375
40
0.4375
40
0.453125
40
0.453125
40
0.46875
40
0.46875
40
0.5
40
0.5
40
0.531249999999999
40
0.531249999999999
40
0.562499999999999
40
0.562499999999999
40
0.593749999999999
40
0.593749999999999
40
0.624999999999999
40
0.624999999999999
40
0.656249999999999
40
0.656249999999999
40
0.687499999999999
40
0.687499999999999
40
0.718749999999999
40
0.718749999999999
40
0.749999999999999
40
0.749999999999999
40
0.781249999999999
40
0.781249999999999
40
0.812499999999999
40
0.812499999999999
40
0.843749999999999
40
0.843749999999999
40
0.874999999999999
40
0.874999999999999
40
0.906249999999999
40
0.906249999999999
40
0.921874999999999
40
0.921874999999999
40
0.9296875
40
0.9296875
40
0.9375
40
0.9375
40
0.96875
40
0.96875
40
1
40
1
40
1
40
1
41
1
10
153.880775180545
20
8
30
0
41
1
10
153.929811252893
20
8
30
0
41
1
10
153.97884732524
20
7.98775055580188
30
0
41
1
10
154.076919469934
20
7.93603835265034
30
0
41
1
10
154.125955542281
20
7.89656772851751
30
0
41
1
10
154.224027686975
20
7.78824112724124
30
0
41
1
10
154.273063759323
20
7.71937764959375
30
0
41
1
10
154.371135904017
20
7.55088457954372
30
0
41
1
10
154.420171976364
20
7.45124893243153
30
0
41
1
10
154.518244121058
20
7.22082970872643
30
0
41
1
10
154.567280193405
20
7.09004261773222
30
0
41
1
10
154.6653523381
20
6.79808534270023
30
0
41
1
10
154.714388410447
20
6.6369150433087
30
0
41
1
10
154.812460555141
20
6.28616027419773
30
0
41
1
10
154.861496627488
20
6.09657946731664
30
0
41
1
10
154.959568772182
20
5.69212438987776
30
0
41
1
10
155.008604844529
20
5.47725730785467
30
0
41
1
10
155.106676989224
20
5.02633777089321
30
0
41
1
10
155.155713061571
20
4.79029515322816
30
0
41
1
10
155.253785206265
20
4.30186066608269
30
0
41
1
10
155.302821278612
20
4.04947996015312
30
0
41
1
10
155.400893423307
20
3.53361297828931
30
0
41
1
10
155.449929495654
20
3.27013772081409
30
0
41
1
10
155.548001640348
20
2.7373944230711
30
0
41
1
10
155.597037712695
20
2.46813595171173
30
0
41
1
10
155.695109857389
20
1.92889451016148
30
0
41
1
10
155.744145929737
20
1.6589187587827
30
0
41
1
10
155.842218074431
20
1.12281166142202
30
0
41
1
10
155.891254146778
20
0.856684788726824
30
0
41
1
10
155.964808255299
20
0.463297591079481
30
0
41
1
10
155.989326291472
20
0.333130029658946
30
0
41
1
10
156.038362363819
20
0.0751324555689905
30
0
41
1
10
156.062880399993
20
-0.0519959581496892
30
0
41
1
10
156.136434508514
20
-0.438568902455728
30
0
41
1
10
156.185470580861
20
-0.701030173015113
30
0
41
1
10
156.283542725555
20
-1.23195885388088
30
0
41
1
10
156.332578797902
20
-1.50042324142513
30
0
41
1
10
156.430650942596
20
-2.03913637447289
30
0
41
1
10
156.479687014944
20
-2.30937933935058
30
0
41
1
10
156.577759159638
20
-2.84682426880977
30
0
41
1
10
156.626795231985
20
-3.11401782955247
30
0
41
1
10
156.724867376679
20
-3.6401487801588
30
0
41
1
10
156.773903449027
20
-3.89907577908198
30
0
41
1
10
156.871975593721
20
-4.40335353736327
30
0
41
1
10
156.921011666068
20
-4.64869303057975
30
0
41
1
10
157.019083810762
20
-5.12070041706079
30
0
41
1
10
157.068119883109
20
-5.34735758815566
30
0
41
1
10
157.166192027804
20
-5.77746521669891
30
0
41
1
10
157.215228100151
20
-5.98090693803712
30
0
41
1
10
157.313300244845
20
-6.36090616360468
30
0
41
1
10
157.362336317192
20
-6.53745806263467
30
0
41
1
10
157.460408461886
20
-6.86107690604754
30
0
41
1
10
157.509444534233
20
-7.00814197198761
30
0
41
1
10
157.607516678928
20
-7.27137715035653
30
0
41
1
10
157.656552751275
20
-7.38754905689584
30
0
41
1
10
157.754624895969
20
-7.58877909668357
30
0
41
1
10
157.803660968316
20
-7.67384206555107
30
0
41
1
10
157.90173311301
20
-7.81372421645204
30
0
41
1
10
157.950769185358
20
-7.86855027342827
30
0
41
1
10
158.048841330052
20
-7.9497375951801
30
0
41
1
10
158.097877402399
20
-7.9761066576113
30
0
41
1
10
158.17143151092
20
-7.99615933152299
30
0
41
1
10
158.195949547093
20
-7.99959799761734
30
0
41
1
10
158.232726601354
20
-8.00015110034639
30
0
41
1
10
158.24498561944
20
-7.99957241299552
30
0
41
1
10
158.269503655614
20
-7.99684757532617
30
0
41
1
10
158.281762673701
20
-7.99470083783828
30
0
41
1
10
158.343057764135
20
-7.97993675364788
30
0
41
1
10
158.392093836482
20
-7.95520731902616
30
0
41
1
10
158.490165981176
20
-7.87743056500165
30
0
41
1
10
158.539202053523
20
-7.82437542652289
30
0
41
1
10
158.58823812587
20
-7.75624708260153
30
0
0
SPLINE
5
F3
100
AcDbEntity
8
1
62
256
6
ByLayer
370
13
48
1
60
0
100
AcDbSpline
70
4
71
3
72
22
73
18
40
0
40
0
40
0
40
0
40
0.125
40
0.125
40
0.25
40
0.25
40
0.375
40
0.375
40
0.5
40
0.5
40
0.625
40
0.625
40
0.75
40
0.75
40
0.875
40
0.875
40
1
40
1
40
1
40
1
41
1
10
149.9
20
2.43707196361066
30
0
41
1
10
149.971745114773
20
2.83091794508093
30
0
41
1
10
150.043490229546
20
3.22245580077768
30
0
41
1
10
150.186980459091
20
3.98461601996488
30
0
41
1
10
150.258725573864
20
4.35516658850608
30
0
41
1
10
150.40221580341
20
5.05887782149762
30
0
41
1
10
150.473960918183
20
5.39196529783067
30
0
41
1
10
150.617451147729
20
6.00645554985886
30
0
41
1
10
150.689196262501
20
6.28780410026457
30
0
41
1
10
150.832686492047
20
6.78869008166023
30
0
41
1
10
150.90443160682
20
7.00820674900854
30
0
41
1
10
151.047921836366
20
7.38064212705063
30
0
41
1
10
151.119666951139
20
7.5335758084598
30
0
41
1
10
151.263157180684
20
7.77348093670042
30
0
41
1
10
151.334902295457
20
7.86049354574308
30
0
41
1
10
151.478392525003
20
7.97372703970652
30
0
41
1
10
151.550137639776
20
8
30
0
41
1
10
151.621882754549
20
8
30
0
0
SPLINE
5
F4
100
AcDbEntity
8
1
62
256
6
ByLayer
370
13
48
1
60
0
100
AcDbSpline
70
4
71
3
72
78
73
74
40
0
40
0
40
0
40
0
40
0.0312499999999998
40
0.0312499999999998
40
0.0624999999999996
40
0.0624999999999996
40
0.0937499999999994
40
0.0937499999999994
40
0.124999999999999
40
0.124999999999999
40
0.156249999999999
40
0.156249999999999
40
0.187499999999999
40
0.187499999999999
40
0.218749999999999
40
0.218749999999999
40
0.249999999999999
40
0.249999999999999
40
0.281249999999998
40
0.281249999999998
40
0.312499999999998
40
0.312499999999998
40
0.343749999999998
40
0.343749999999998
40
0.374999999999998
40
0.374999999999998
40
0.406249999999998
40
0.406249999999998
40
0.414062499999998
40
0.414062499999998
40
0.421874999999997
40
0.421874999999997
40
0.437499999999997
40
0.437499999999997
40
0.468749999999997
40
0.468749999999997
40
0.499999999999997
40
0.499999999999997
40
0.531249999999997
40
0.531249999999997
40
0.562499999999997
40
0.562499999999997
40
0.593749999999996
40
0.593749999999996
40
0.624999999999996
40
0.624999999999996
40
0.656249999999996
40
0.656249999999996
40
0.687499999999996
40
0.687499999999996
40
0.718749999999996
40
0.718749999999996
40
0.749999999999996
40
0.749999999999996
40
0.781249999999995
40
0.781249999999995
40
0.812499999999995
40
0.812499999999995
40
0.828124999999995
40
0.828124999999995
40
0.835937499999995
40
0.835937499999995
40
0.843749999999995
40
0.843749999999995
40
0.874999999999996
40
0.874999999999996
40
0.906249999999997
40
0.906249999999997
40
0.937499999999998
40
0.937499999999998
40
0.968749999999999
40
0.968749999999999
40
1
40
1
40
1
40
1
41
1
10
153.383178337279
20
8
30
0
41
1
10
153.437397710077
20
8
30
0
41
1
10
153.491617082875
20
7.98501871774235
30
0
41
1
10
153.60005582847
20
7.92145786519777
30
0
41
1
10
153.654275201268
20
7.87286529947539
30
0
41
1
10
153.762713946864
20
7.73929162269388
30
0
41
1
10
153.816933319661
20
7.65429848505832
30
0
41
1
10
153.925372065257
20
7.4463861718894
30
0
41
1
10
153.979591438055
20
7.32345815378036
30
0
41
1
10
154.08803018365
20
7.03971319822844
30
0
41
1
10
154.142249556448
20
6.87889270453189
30
0
41
1
10
154.250688302044
20
6.52116828457196
30
0
41
1
10
154.304907674842
20
6.32426745400449
30
0
41
1
10
154.413346420438
20
5.89796741639682
30
0
41
1
10
154.467565793235
20
5.66857806400878
30
0
41
1
10
154.576004538831
20
5.1824703708894
30
0
41
1
10
154.630223911629
20
4.92576731585675
30
0
41
1
10
154.738662657224
20
4.39140232468992
30
0
41
1
10
154.792882030022
20
4.11375863280088
30
0
41
1
10
154.901320775618
20
3.5445697872415
30
0
41
1
10
154.955540148416
20
3.25304288597331
30
0
41
1
10
155.063978894012
20
2.66327333559713
30
0
41
1
10
155.118198266809
20
2.36504629647982
30
0
41
1
10
155.226637012405
20
1.76867283592927
30
0
41
1
10
155.280856385203
20
1.47053762344908
30
0
41
1
10
155.389295130799
20
0.880346710509656
30
0
41
1
10
155.443514503596
20
0.588297181277227
30
0
41
1
10
155.511288719593
20
0.230122012689037
30
0
41
1
10
155.524843562793
20
0.158828536363984
30
0
41
1
10
155.551953249192
20
0.0169904065570279
30
0
41
1
10
155.565508092391
20
-0.053444488621011
30
0
41
1
10
155.60617262199
20
-0.266584579689379
30
0
41
1
10
155.633282308389
20
-0.410155982032961
30
0
41
1
10
155.714611367585
20
-0.844478826873285
30
0
41
1
10
155.768830740383
20
-1.13887285222981
30
0
41
1
10
155.877269485979
20
-1.73209933104175
30
0
41
1
10
155.931488858777
20
-2.03092413554413
30
0
41
1
10
156.039927604372
20
-2.626755592356
30
0
41
1
10
156.09414697717
20
-2.92374963011088
30
0
41
1
10
156.202585722766
20
-3.50896897527915
30
0
41
1
10
156.256805095564
20
-3.79717766881464
30
0
41
1
10
156.365243841159
20
-4.35762508053784
30
0
41
1
10
156.419463213957
20
-4.62984524690535
30
0
41
1
10
156.527901959553
20
-5.1514001942933
30
0
41
1
10
156.582121332351
20
-5.40071729843334
30
0
41
1
10
156.690560077946
20
-5.87039138682394
30
0
41
1
10
156.744779450744
20
-6.09073446118038
30
0
41
1
10
156.85321819634
20
-6.49771118692084
30
0
41
1
10
156.907437569138
20
-6.68433688879711
30
0
41
1
10
157.015876314733
20
-7.02079041668321
30
0
41
1
10
157.070095687531
20
-7.17061717012129
30
0
41
1
10
157.178534433127
20
-7.43218271885723
30
0
41
1
10
157.232753805925
20
-7.54392680521065
30
0
41
1
10
157.34119255152
20
-7.729768746974
30
0
41
1
10
157.395411924318
20
-7.80387661198779
30
0
41
1
10
157.503850669914
20
-7.91638290978165
30
0
41
1
10
157.558070042712
20
-7.95479387275444
30
0
41
1
10
157.639399101909
20
-7.98794198737437
30
0
41
1
10
157.666508788307
20
-7.99492104807928
30
0
41
1
10
157.707173317906
20
-7.9996283887194
30
0
41
1
10
157.720728161105
20
-8.00023912840362
30
0
41
1
10
157.747837847504
20
-7.99959506538363
30
0
41
1
10
157.761392690704
20
-7.9983330106503
30
0
41
1
10
157.829166906701
20
-7.98717229479794
30
0
41
1
10
157.883386279499
20
-7.96269245121871
30
0
41
1
10
157.991825025094
20
-7.87920943309101
30
0
41
1
10
158.046044397892
20
-7.82019333305996
30
0
41
1
10
158.154483143488
20
-7.66517631837135
30
0
41
1
10
158.208702516286
20
-7.56916407420857
30
0
41
1
10
158.317141261881
20
-7.33904969915551
30
0
41
1
10
158.371360634679
20
-7.20494007742084
30
0
41
1
10
158.479799380275
20
-6.89917334911539
30
0
41
1
10
158.534018753073
20
-6.72751454192934
30
0
41
1
10
158.588238125871
20
-6.53824936558505
30
0
0
SPLINE
5
F5
100
AcDbEntity
8
1
62
256
6
ByLayer
370
13
48
1
60
0
100
AcDbSpline
70
4
71
3
72
22
73
18
40
0
40
0
40
0
40
0
40
0.125
40
0.125
40
0.25
40
0.25
40
0.375
40
0.375
40
0.5
40
0.5
40
0.625
40
0.625
40
0.75
40
0.75
40
0.875
40
0.875
40
1
40
1
40
1
40
1
41
1
10
149.9
20
5.03055258184958
30
0
41
1
10
149.95101191297
20
5.27193048878561
30
0
41
1
10
150.00202382594
20
5.50265027944994
30
0
41
1
10
150.10404765188
20
5.93788507509399
30
0
41
1
10
150.15505956485
20
6.14239027920684
30
0
41
1
10
150.257083390791
20
6.52135995406434
30
0
41
1
10
150.308095303761
20
6.69581886672702
30
0
41
1
10
150.410119129701
20
7.01217298659773
30
0
41
1
10
150.461131042671
20
7.15406741963798
30
0
41
1
10
150.563154868611
20
7.4041788207409
30
0
41
1
10
150.614166781581
20
7.51239945796414
30
0
41
1
10
150.716190607521
20
7.69541317572063
30
0
41
1
10
150.767202520491
20
7.77021332189713
30
0
41
1
10
150.869226346431
20
7.88783400459354
30
0
41
1
10
150.920238259402
20
7.9306635830238
30
0
41
1
10
151.022262085342
20
7.98674178900808
30
0
41
1
10
151.073273998312
20
8
30
0
41
1
10
151.124285911282
20
8
30
0
0
SPLINE
5
F6
100
AcDbEntity
8
1
62
256
6
ByLayer
370
13
48
1
60
0
100
AcDbSpline
70
4
71
3
72
77
73
73
40
0
40
0
40
0
40
0
40
0.0312500000000017
40
0.0312500000000017
40
0.0625000000000033
40
0.0625000000000033
40
0.093750000000005
40
0.093750000000005
40
0.125000000000007
40
0.125000000000007
40
0.156250000000008
40
0.156250000000008
40
0.18750000000001
40
0.18750000000001
40
0.218750000000012
40
0.218750000000012
40
0.250000000000013
40
0.250000000000013
40
0.281250000000015
40
0.281250000000015
40
0.312500000000016
40
0.312500000000016
40
0.343750000000018
40
0.343750000000018
40
0.37500000000002
40
0.37500000000002
40
0.38281250000002
40
0.38281250000002
40
0.39062500000002
40
0.406250000000019
40
0.406250000000019
40
0.437500000000018
40
0.437500000000018
40
0.468750000000016
40
0.468750000000016
40
0.500000000000015
40
0.500000000000015
40
0.531250000000013
40
0.531250000000013
40
0.562500000000012
40
0.562500000000012
40
0.593750000000011
40
0.593750000000011
40
0.625000000000009
40
0.625000000000009
40
0.656250000000008
40
0.656250000000008
40
0.687500000000006
40
0.687500000000006
40
0.718750000000005
40
0.718750000000005
40
0.750000000000003
40
0.750000000000003
40
0.757812500000003
40
0.757812500000003
40
0.765625000000003
40
0.765625000000003
40
0.781250000000003
40
0.781250000000003
40
0.812500000000003
40
0.812500000000003
40
0.843750000000002
40
0.843750000000002
40
0.875000000000002
40
0.875000000000002
40
0.906250000000001
40
0.906250000000001
40
0.937500000000001
40
0.937500000000001
40
0.968750000000001
40
0.968750000000001
40
1
40
1
40
1
40
1
41
1
10
152.885581494012
20
8
30
0
41
1
10
152.94498416726
20
8
30
0
41
1
10
153.004386840509
20
7.98201013763668
30
0
41
1
10
153.123192187006
20
7.90531507575957
30
0
41
1
10
153.182594860255
20
7.84658939843536
30
0
41
1
10
153.301400206752
20
7.68495520433046
30
0
41
1
10
153.36080288
20
7.58202842060484
30
0
41
1
10
153.479608226497
20
7.3304270038727
30
0
41
1
10
153.539010899746
20
7.18174052883288
30
0
41
1
10
153.657816246243
20
6.83942538878821
30
0
41
1
10
153.717218919491
20
6.64579497957237
30
0
41
1
10
153.836024265988
20
6.21698513077251
30
0
41
1
10
153.895426939237
20
5.98181578889162
30
0
41
1
10
154.014232285734
20
5.47578771115636
30
0
41
1
10
154.073634958982
20
5.20494980850822
30
0
41
1
10
154.19244030548
20
4.63543951029075
30
0
41
1
10
154.251842978728
20
4.33679482885159
30
0
41
1
10
154.370648325225
20
3.72077569627174
30
0
41
1
10
154.430050998474
20
3.40343042418289
30
0
41
1
10
154.548856344971
20
2.75948951054178
30
0
41
1
10
154.608259018219
20
2.43291926892951
30
0
41
1
10
154.727064364716
20
1.77954438885681
30
0
41
1
10
154.786467037965
20
1.4527577739743
30
0
41
1
10
154.905272384462
20
0.806839360813115
30
0
41
1
10
154.96467505771
20
0.487716904320649
30
0
41
1
10
155.038928399271
20
0.0975662438654012
30
0
41
1
10
155.053779067583
20
0.0202585228543057
30
0
41
1
10
155.083480404207
20
-0.134901753947531
30
0
41
1
10
155.128032409144
20
-0.3690052844359
30
0
41
1
10
155.17258441408
20
-0.606823280824074
30
0
41
1
10
155.261688423953
20
-1.08626481063962
30
0
41
1
10
155.321091097202
20
-1.41101295843342
30
0
41
1
10
155.439896443699
20
-2.06343646943341
30
0
41
1
10
155.499299116947
20
-2.3910970494025
30
0
41
1
10
155.618104463444
20
-3.04070485040242
30
0
41
1
10
155.677507136693
20
-3.36262914718893
30
0
41
1
10
155.79631248319
20
-3.9913788814159
30
0
41
1
10
155.855715156438
20
-4.29817601121124
30
0
41
1
10
155.974520502935
20
-4.88732250466077
30
0
41
1
10
156.033923176184
20
-5.16964293701272
30
0
41
1
10
156.152728522681
20
-5.70140235176413
30
0
41
1
10
156.212131195929
20
-5.9508173372929
30
0
41
1
10
156.330936542427
20
-6.41006290001297
30
0
41
1
10
156.390339215675
20
-6.61987904309592
30
0
41
1
10
156.509144562172
20
-6.99554741159386
30
0
41
1
10
156.568547235421
20
-7.16139698312932
30
0
41
1
10
156.687352581918
20
-7.44733831621738
30
0
41
1
10
156.746755255166
20
-7.56743847218331
30
0
41
1
10
156.865560601663
20
-7.76258104725659
30
0
41
1
10
156.924963274912
20
-7.83763980954728
30
0
41
1
10
157.043768621409
20
-7.94550883643893
30
0
41
1
10
157.103171294657
20
-7.97833921935632
30
0
41
1
10
157.177424636218
20
-7.9956937103228
30
0
41
1
10
157.19227530453
20
-7.99798334396539
30
0
41
1
10
157.221976641154
20
-8.00027789240863
30
0
41
1
10
157.236827309466
20
-8.00029279716696
30
0
41
1
10
157.281379314403
20
-7.99694281344446
30
0
41
1
10
157.311080651027
20
-7.99014039781207
30
0
41
1
10
157.4001846609
20
-7.95511293096715
30
0
41
1
10
157.459587334148
20
-7.91222245002808
30
0
41
1
10
157.578392680645
20
-7.78337208372389
30
0
41
1
10
157.637795353894
20
-7.69739261828332
30
0
41
1
10
157.756600700391
20
-7.48001796984198
30
0
41
1
10
157.81600337364
20
-7.3486080333285
30
0
41
1
10
157.934808720137
20
-7.0402436615687
30
0
41
1
10
157.994211393385
20
-6.86328334165933
30
0
41
1
10
158.113016739882
20
-6.46623154824985
30
0
41
1
10
158.172419413131
20
-6.24614567813268
30
0
41
1
10
158.291224759628
20
-5.76781056854264
30
0
41
1
10
158.350627432876
20
-5.50957843888438
30
0
41
1
10
158.469432779373
20
-4.96212949873765
30
0
41
1
10
158.528835452622
20
-4.67293839800178
30
0
41
1
10
158.58823812587
20
-4.37262163637138
30
0
0
SPLINE
5
F7
100
AcDbEntity
8
1
62
256
6
ByLayer
370
13
48
1
60
0
100
AcDbSpline
70
4
71
3
72
14
73
10
40
0
40
0
40
0
40
0
40
0.25
40
0.25
40
0.5
40
0.5
40
0.75
40
0.75
40
1
40
1
40
1
40
1
41
1
10
149.9
20
6.97025149287063
30
0
41
1
10
149.960557422334
20
7.1482753337437
30
0
41
1
10
150.021114844669
20
7.303030218657
30
0
41
1
10
150.142229689338
20
7.56494154336241
30
0
41
1
10
150.202787111673
20
7.67211046316137
30
0
41
1
10
150.323901956342
20
7.84038189138741
30
0
41
1
10
150.384459378677
20
7.90150431636647
30
0
41
1
10
150.505574223346
20
7.98130210391494
30
0
41
1
10
150.566131645681
20
8
30
0
41
1
10
150.626689068015
20
8
30
0
0
SPLINE
5
F8
100
AcDbEntity
8
1
62
256
6
ByLayer
370
13
48
1
60
0
100
AcDbSpline
70
4
71
3
72
78
73
74
40
0
40
0
40
0
40
0
40
0.0312499999999999
40
0.0312499999999999
40
0.0624999999999999
40
0.0624999999999999
40
0.0937499999999998
40
0.0937499999999998
40
0.125
40
0.125
40
0.15625
40
0.15625
40
0.1875
40
0.1875
40
0.21875
40
0.21875
40
0.25
40
0.25
40
0.28125
40
0.28125
40
0.3125
40
0.3125
40
0.343749999999999
40
0.343749999999999
40
0.3515625
40
0.3515625
40
0.359375
40
0.359375
40
0.375
40
0.375
40
0.40625
40
0.40625
40
0.4375
40
0.4375
40
0.46875
40
0.46875
40
0.5
40
0.5
40
0.53125
40
0.53125
40
0.5625
40
0.5625
40
0.59375
40
0.59375
40
0.625
40
0.625
40
0.65625
40
0.65625
40
0.6875
40
0.6875
40
0.6953125
40
0.6953125
40
0.703124999999999
40
0.703124999999999
40
0.71875
40
0.71875
40
0.75
40
0.75
40
0.78125
40
0.78125
40
0.8125
40
0.8125
40
0.84375
40
0.84375
40
0.875
40
0.875
40
0.90625
40
0.90625
40
0.9375
40
0.9375
40
0.96875
40
0.96875
40
1
40
1
40
1
40
1
41
1
10
152.387984650745
20
8
30
0
41
1
10
152.452570624444
20
8
30
0
41
1
10
152.517156598144
20
7.97872399984746
30
0
41
1
10
152.646328545542
20
7.88759394134868
30
0
41
1
10
152.710914519241
20
7.81770887278557
30
0
41
1
10
152.84008646664
20
7.62517622379707
30
0
41
1
10
152.904672440339
20
7.50250218462537
30
0
41
1
10
153.033844387738
20
7.20299622638882
30
0
41
1
10
153.098430361437
20
7.02614992058125
30
0
41
1
10
153.227602308835
20
6.62033486631415
30
0
41
1
10
153.292188282534
20
6.39136966244794
30
0
41
1
10
153.421360229933
20
5.88696527559193
30
0
41
1
10
153.485946203632
20
5.61154899527642
30
0
41
1
10
153.615118151031
20
5.02310737939089
30
0
41
1
10
153.67970412473
20
4.71012004278586
30
0
41
1
10
153.808876072128
20
4.05768225041697
30
0
41
1
10
153.873462045827
20
3.71827620796464
30
0
41
1
10
154.002633993226
20
3.02515517795666
30
0
41
1
10
154.067219966925
20
2.67148118195706
30
0
41
1
10
154.196391914323
20
1.96166810850951
30
0
41
1
10
154.260977888023
20
1.60555908627802
30
0
41
1
10
154.390149835421
20
0.901318095073407
30
0
41
1
10
154.45473580912
20
0.553202000940104
30
0
41
1
10
154.535468276245
20
0.128256969621816
30
0
41
1
10
154.551614769669
20
0.0440387714322696
30
0
41
1
10
154.583907756519
20
-0.124514650778167
30
0
41
1
10
154.600054249944
20
-0.209332757402706
30
0
41
1
10
154.648493730218
20
-0.465246169373756
30
0
41
1
10
154.680786717068
20
-0.637805093012389
30
0
41
1
10
154.777665677616
20
-1.15984601295961
30
0
41
1
10
154.842251651316
20
-1.51375560829968
30
0
41
1
10
154.971423598714
20
-2.22376839699933
30
0
41
1
10
155.036009572413
20
-2.57984736302353
30
0
41
1
10
155.165181519812
20
-3.28285741214196
30
0
41
1
10
155.229767493511
20
-3.62975141085687
30
0
41
1
10
155.358939440909
20
-4.30222895670724
30
0
41
1
10
155.423525414609
20
-4.62776839591009
30
0
41
1
10
155.552697362007
20
-5.24579801823754
30
0
41
1
10
155.617283335706
20
-5.53824629523783
30
0
41
1
10
155.746455283105
20
-6.0801067210983
30
0
41
1
10
155.811041256804
20
-6.32948879014683
30
0
41
1
10
155.940213204202
20
-6.77809756562883
30
0
41
1
10
156.004799177902
20
-6.97731243863561
30
0
41
1
10
156.1339711253
20
-7.32198426478925
30
0
41
1
10
156.198557098999
20
-7.46744857957933
30
0
41
1
10
156.327729046398
20
-7.70459861618178
30
0
41
1
10
156.392315020097
20
-7.79630661197081
30
0
41
1
10
156.521486967495
20
-7.92903999220198
30
0
41
1
10
156.586072941195
20
-7.97009537487989
30
0
41
1
10
156.666805408319
20
-7.99311255671657
30
0
41
1
10
156.682951901743
20
-7.99630520601102
30
0
41
1
10
156.715244888593
20
-7.99996771839341
30
0
41
1
10
156.731391382018
20
-8.00044480120997
30
0
41
1
10
156.779830862292
20
-7.99789356032303
30
0
41
1
10
156.812123849142
20
-7.99081868742158
30
0
41
1
10
156.909002809691
20
-7.95229541081792
30
0
41
1
10
156.97358878339
20
-7.90348358131931
30
0
41
1
10
157.102760730788
20
-7.7545647468155
30
0
41
1
10
157.167346704488
20
-7.65442846119603
30
0
41
1
10
157.296518651886
20
-7.40019522780875
30
0
41
1
10
157.361104625585
20
-7.24607793989887
30
0
41
1
10
157.490276572984
20
-6.88442316726085
30
0
41
1
10
157.554862546683
20
-6.6768812074462
30
0
41
1
10
157.684034494081
20
-6.21252073098984
30
0
41
1
10
157.748620467781
20
-5.9557171706129
30
0
41
1
10
157.877792415179
20
-5.40043227416712
30
0
41
1
10
157.942378388878
20
-5.10198345316479
30
0
41
1
10
158.071550336277
20
-4.47373690390947
30
0
41
1
10
158.136136309976
20
-4.14398211128375
30
0
41
1
10
158.265308257374
20
-3.46501892578004
30
0
41
1
10
158.329894231073
20
-3.11585407942147
30
0
41
1
10
158.459066178472
20
-2.41019641186182
30
0
41
1
10
158.523652152171
20
-2.05373890344134
30
0
41
1
10
158.588238125871
20
-1.69918802091081
30
0
0
SPLINE
5
F9
100
AcDbEntity
8
1
62
256
6
ByLayer
370
13
48
1
60
0
100
AcDbSpline
70
4
71
3
72
8
73
4
40
0
40
0
40
0
40
0
40
1
40
1
40
1
40
1
41
1
10
149.9
20
7.90579835371372
30
0
41
1
10
149.976364074916
20
7.97021982003304
30
0
41
1
10
150.052728149832
20
8
30
0
41
1
10
150.129092224748
20
8
30
0
0
SPLINE
5
FA
100
AcDbEntity
8
1
62
256
6
ByLayer
370
13
48
1
60
0
100
AcDbSpline
70
4
71
3
72
82
73
78
40
0
40
0
40
0
40
0
40
0.03125
40
0.03125
40
0.0625000000000001
40
0.0625000000000001
40
0.0937500000000001
40
0.0937500000000001
40
0.125
40
0.125
40
0.15625
40
0.15625
40
0.1875
40
0.1875
40
0.21875
40
0.21875
40
0.25
40
0.25
40
0.28125
40
0.28125
40
0.3125
40
0.3125
40
0.3203125
40
0.3203125
40
0.328125
40
0.328125
40
0.34375
40
0.34375
40
0.375
40
0.375
40
0.40625
40
0.40625
40
0.4375
40
0.4375
40
0.46875
40
0.46875
40
0.5
40
0.5
40
0.53125
40
0.53125
40
0.5625
40
0.5625
40
0.593750000000001
40
0.593750000000001
40
0.625000000000001
40
0.625000000000001
40
0.640625000000001
40
0.640625000000001
40
0.648437500000001
40
0.648437500000001
40
0.656250000000001
40
0.656250000000001
40
0.687500000000001
40
0.687500000000001
40
0.718750000000001
40
0.718750000000001
40
0.750000000000001
40
0.750000000000001
40
0.781250000000001
40
0.781250000000001
40
0.8125
40
0.8125
40
0.84375
40
0.84375
40
0.875
40
0.875
40
0.90625
40
0.90625
40
0.9375
40
0.9375
40
0.96875
40
0.96875
40
0.9765625
40
0.9765625
40
0.984375
40
0.984375
40
1
40
1
40
1
40
1
41
1
10
151.890387807479
20
8
30
0
41
1
10
151.960157081629
20
8
30
0
41
1
10
152.029926355779
20
7.97515937692137
30
0
41
1
10
152.169464904078
20
7.86827898626578
30
0
41
1
10
152.239234178228
20
7.78619382492519
30
0
41
1
10
152.378772726528
20
7.55990838478181
30
0
41
1
10
152.448542000678
20
7.41567138921636
30
0
41
1
10
152.588080548978
20
7.06413293070347
30
0
41
1
10
152.657849823128
20
6.85681611565093
30
0
41
1
10
152.797388371428
20
6.38296430542013
30
0
41
1
10
152.867157645577
20
6.11644383027641
30
0
41
1
10
153.006696193877
20
5.53286498094243
30
0
41
1
10
153.076465468027
20
5.21585033349052
30
0
41
1
10
153.216004016327
20
4.54391067686444
30
0
41
1
10
153.285773290477
20
4.18904782257266
30
0
41
1
10
153.425311838777
20
3.45634805504784
30
0
41
1
10
153.495081112927
20
3.07857520423127
30
0
41
1
10
153.634619661227
20
2.31534109190861
30
0
41
1
10
153.704388935377
20
1.9299306454468
30
0
41
1
10
153.843927483676
20
1.16527895348426
30
0
41
1
10
153.913696757826
20
0.786066951194186
30
0
41
1
10
154.000908350514
20
0.322910274359998
30
0
41
1
10
154.018350669051
20
0.230814447898524
30
0
41
1
10
154.053235306126
20
0.0478375782343221
30
0
41
1
10
154.070677624663
20
-0.0427115564832263
30
0
41
1
10
154.123004580276
20
-0.317108472886446
30
0
41
1
10
154.157889217351
20
-0.502480712529405
30
0
41
1
10
154.262543128576
20
-1.06412302578599
30
0
41
1
10
154.332312402726
20
-1.4460068264552
30
0
41
1
10
154.471850951025
20
-2.21282384596154
30
0
41
1
10
154.541620225175
20
-2.59772221511403
30
0
41
1
10
154.681158773475
20
-3.35626229741973
30
0
41
1
10
154.750928047625
20
-3.72984885748025
30
0
41
1
10
154.890466595925
20
-4.45040604593123
30
0
41
1
10
154.960235870075
20
-4.79731150569589
30
0
41
1
10
155.099774418375
20
-5.44994656351125
30
0
41
1
10
155.169543692525
20
-5.75561710441784
30
0
41
1
10
155.309082240824
20
-6.31395080177927
30
0
41
1
10
155.378851514974
20
-6.56657675052966
30
0
41
1
10
155.518390063274
20
-7.01121905547049
30
0
41
1
10
155.588159337424
20
-7.20322856735612
30
0
41
1
10
155.727697885724
20
-7.52394946088671
30
0
41
1
10
155.797467159874
20
-7.65268248489622
30
0
41
1
10
155.937005708174
20
-7.84883663708891
30
0
41
1
10
156.006774982324
20
-7.91629781621663
30
0
41
1
10
156.111428893548
20
-7.97577407509138
30
0
41
1
10
156.146313530623
20
-7.98867176823623
30
0
41
1
10
156.198640486236
20
-7.99833304008445
30
0
41
1
10
156.216082804773
20
-7.99994026833855
30
0
41
1
10
156.250967441848
20
-8.00005646209067
30
0
41
1
10
156.268409760386
20
-7.99856779683591
30
0
41
1
10
156.355621353073
20
-7.98307047109375
30
0
41
1
10
156.425390627223
20
-7.94481108505511
30
0
41
1
10
156.564929175523
20
-7.80958541161627
30
0
41
1
10
156.634698449673
20
-7.71257467845768
30
0
41
1
10
156.774236997973
20
-7.45579560961608
30
0
41
1
10
156.844006272123
20
-7.29599468257115
30
0
41
1
10
156.983544820422
20
-6.91381118599216
30
0
41
1
10
157.053314094572
20
-6.69142009267603
30
0
41
1
10
157.192852642872
20
-6.1891202887241
30
0
41
1
10
157.262621917022
20
-5.90923373922007
30
0
41
1
10
157.402160465322
20
-5.30170789295073
30
0
41
1
10
157.471929739472
20
-4.97411817089744
30
0
41
1
10
157.611468287772
20
-4.2845524725636
30
0
41
1
10
157.681237561922
20
-3.92264071810067
30
0
41
1
10
157.820776110221
20
-3.17963543081299
30
0
41
1
10
157.890545384371
20
-2.79860391468654
30
0
41
1
10
158.030083932671
20
-2.03244232407778
30
0
41
1
10
158.099853206821
20
-1.64735822056068
30
0
41
1
10
158.239391755121
20
-0.886385663508406
30
0
41
1
10
158.309161029271
20
-0.510520842455492
30
0
41
1
10
158.396372621958
20
-0.0529649300983692
30
0
41
1
10
158.413814940496
20
0.0375868674831565
30
0
41
1
10
158.448699577571
20
0.220472456406441
30
0
41
1
10
158.466141896108
20
0.312525217514519
30
0
41
1
10
158.518468851721
20
0.590298459507608
30
0
41
1
10
158.553353488795
20
0.777639980786091
30
0
41
1
10
158.58823812587
20
0.966493337570114
30
0
0
SPLINE
5
FB
100
AcDbEntity
8
1
62
256
6
ByLayer
370
13
48
1
60
0
100
AcDbSpline
70
4
71
3
72
85
73
81
40
0
40
0
40
0
40
0
40
0.0312500000000018
40
0.0312500000000018
40
0.0625000000000036
40
0.0625000000000036
40
0.0937500000000054
40
0.0937500000000054
40
0.125000000000007
40
0.125000000000007
40
0.156250000000009
40
0.156250000000009
40
0.187500000000011
40
0.187500000000011
40
0.218750000000012
40
0.218750000000012
40
0.250000000000014
40
0.250000000000014
40
0.281250000000016
40
0.281250000000016
40
0.296875000000017
40
0.296875000000017
40
0.300781250000017
40
0.300781250000017
40
0.304687500000018
40
0.304687500000018
40
0.312500000000018
40
0.312500000000018
40
0.343750000000018
40
0.343750000000018
40
0.375000000000018
40
0.375000000000018
40
0.406250000000018
40
0.406250000000018
40
0.437500000000019
40
0.437500000000019
40
0.468750000000019
40
0.468750000000019
40
0.500000000000019
40
0.500000000000019
40
0.531250000000019
40
0.531250000000019
40
0.56250000000002
40
0.56250000000002
40
0.59375000000002
40
0.59375000000002
40
0.60156250000002
40
0.60156250000002
40
0.60546875000002
40
0.60546875000002
40
0.609375000000019
40
0.625000000000019
40
0.625000000000019
40
0.656250000000018
40
0.656250000000018
40
0.687500000000017
40
0.687500000000017
40
0.718750000000016
40
0.718750000000016
40
0.750000000000015
40
0.750000000000015
40
0.781250000000014
40
0.781250000000014
40
0.812500000000013
40
0.812500000000013
40
0.843750000000012
40
0.843750000000012
40
0.875000000000011
40
0.875000000000011
40
0.89062500000001
40
0.89062500000001
40
0.89843750000001
40
0.89843750000001
40
0.906250000000009
40
0.906250000000009
40
0.937500000000006
40
0.937500000000006
40
0.968750000000003
40
0.968750000000003
40
1
40
1
40
1
40
1
41
1
10
151.392790964212
20
8
30
0
41
1
10
151.467743538813
20
8
30
0
41
1
10
151.542696113413
20
7.97131522338555
30
0
41
1
10
151.692601262614
20
7.84735532708868
30
0
41
1
10
151.767553837215
20
7.75201567988915
30
0
41
1
10
151.917458986416
20
7.48911520146081
30
0
41
1
10
151.992411561017
20
7.32150541014568
30
0
41
1
10
152.142316710218
20
6.91392766305415
30
0
41
1
10
152.217269284819
20
6.67394666510387
30
0
41
1
10
152.36717443402
20
6.12798840545912
30
0
41
1
10
152.44212700862
20
5.82204509653482
30
0
41
1
10
152.592032157822
20
5.15673769591609
30
0
41
1
10
152.666984732422
20
4.79744826160598
30
0
41
1
10
152.816889881623
20
4.04256577739631
30
0
41
1
10
152.891842456224
20
3.64706574055583
30
0
41
1
10
153.041747605425
20
2.83880805910184
30
0
41
1
10
153.116700180026
20
2.42613430034115
30
0
41
1
10
153.266605329227
20
1.60174610351314
30
0
41
1
10
153.341557903828
20
1.19008666048484
30
0
41
1
10
153.453986765729
20
0.584746957265082
30
0
41
1
10
153.491463053029
20
0.384963661814851
30
0
41
1
10
153.538308412154
20
0.138679568246943
30
0
41
1
10
153.547677483979
20
0.0895943534532364
30
0
41
1
10
153.56641562763
20
-0.0082117416784229
30
0
41
1
10
153.575784699455
20
-0.0569773218588239
30
0
41
1
10
153.60389191493
20
-0.20416625120717
30
0
41
1
10
153.62263005858
20
-0.303002865434365
30
0
41
1
10
153.716320776831
20
-0.800296907521641
30
0
41
1
10
153.791273351431
20
-1.20824451401097
30
0
41
1
10
153.941178500633
20
-2.03045435077774
30
0
41
1
10
154.016131075233
20
-2.44467269065771
30
0
41
1
10
154.166036224434
20
-3.26203344094668
30
0
41
1
10
154.240988799035
20
-3.66509967750849
30
0
41
1
10
154.390893948236
20
-4.44112523420281
30
0
41
1
10
154.465846522837
20
-4.81399161451404
30
0
41
1
10
154.615751672038
20
-5.51155698591518
30
0
41
1
10
154.690704246639
20
-5.83617250225387
30
0
41
1
10
154.84060939584
20
-6.42289979079001
30
0
41
1
10
154.915561970441
20
-6.68496302329373
30
0
41
1
10
155.065467119642
20
-7.13804457574884
30
0
41
1
10
155.140419694242
20
-7.32906139716968
30
0
41
1
10
155.290324843444
20
-7.63808444702508
30
0
41
1
10
155.365277418044
20
-7.7561301553701
30
0
41
1
10
155.515182567245
20
-7.92321162640087
30
0
41
1
10
155.590135141846
20
-7.97230926419769
30
0
41
1
10
155.683825860097
20
-7.99578008483238
30
0
41
1
10
155.702564003747
20
-7.99858709674575
30
0
41
1
10
155.730671219222
20
-8.00008423105194
30
0
41
1
10
155.740040291047
20
-8.00013334237474
30
0
41
1
10
155.758778434697
20
-7.99933502893174
30
0
41
1
10
155.805623793823
20
-7.99508552268333
30
0
41
1
10
155.852469152948
20
-7.97930195780589
30
0
41
1
10
155.964898014849
20
-7.91750467968583
30
0
41
1
10
156.03985058945
20
-7.84428391830622
30
0
41
1
10
156.189755738651
20
-7.62689819581323
30
0
41
1
10
156.264708313252
20
-7.48267695839377
30
0
41
1
10
156.414613462453
20
-7.12123940385706
30
0
41
1
10
156.489566037053
20
-6.90399670414672
30
0
41
1
10
156.639471186255
20
-6.40076471847601
30
0
41
1
10
156.714423760855
20
-6.11479414710115
30
0
41
1
10
156.864328910056
20
-5.48481670749698
30
0
41
1
10
156.939281484657
20
-5.14087330666715
30
0
41
1
10
157.089186633858
20
-4.41086991003846
30
0
41
1
10
157.164139208459
20
-4.02490008873519
30
0
41
1
10
157.31404435766
20
-3.2295838623443
30
0
41
1
10
157.388996932261
20
-2.82032698837517
30
0
41
1
10
157.538902081462
20
-1.99719316701149
30
0
41
1
10
157.613854656063
20
-1.58338176072385
30
0
41
1
10
157.726283517963
20
-0.971474143361377
30
0
41
1
10
157.763759805264
20
-0.768948366512035
30
0
41
1
10
157.819974236214
20
-0.468588363542722
30
0
41
1
10
157.838712379864
20
-0.369037829484995
30
0
41
1
10
157.876188667165
20
-0.17126189085019
30
0
41
1
10
157.894926810815
20
-0.0732527085577601
30
0
41
1
10
157.988617529066
20
0.415373667234576
30
0
41
1
10
158.063570103666
20
0.818178833360491
30
0
41
1
10
158.213475252867
20
1.63498781928666
30
0
41
1
10
158.288427827468
20
2.04895895014764
30
0
41
1
10
158.438332976669
20
2.87166533151384
30
0
41
1
10
158.51328555127
20
3.28033372899483
30
0
41
1
10
158.588238125871
20
3.6770028647903
30
0
0
SPLINE
5
FC
100
AcDbEntity
8
1
62
256
6
ByLayer
370
13
48
1
60
0
100
AcDbSpline
70
4
71
3
72
84
73
80
40
0
40
0
40
0
40
0
40
0.031249999999997
40
0.031249999999997
40
0.0624999999999941
40
0.0624999999999941
40
0.0937499999999911
40
0.0937499999999911
40
0.124999999999988
40
0.124999999999988
40
0.156249999999985
40
0.156249999999985
40
0.187499999999982
40
0.187499999999982
40
0.218749999999979
40
0.218749999999979
40
0.249999999999976
40
0.249999999999976
40
0.281249999999974
40
0.281249999999974
40
0.285156249999974
40
0.285156249999974
40
0.289062499999973
40
0.296874999999973
40
0.296874999999973
40
0.312499999999973
40
0.312499999999973
40
0.343749999999973
40
0.343749999999973
40
0.374999999999973
40
0.374999999999973
40
0.406249999999973
40
0.406249999999973
40
0.437499999999972
40
0.437499999999972
40
0.468749999999972
40
0.468749999999972
40
0.499999999999972
40
0.499999999999972
40
0.531249999999972
40
0.531249999999972
40
0.562499999999971
40
0.562499999999971
40
0.566406249999972
40
0.566406249999972
40
0.570312499999972
40
0.578124999999973
40
0.578124999999973
40
0.593749999999974
40
0.593749999999974
40
0.624999999999976
40
0.624999999999976
40
0.656249999999978
40
0.656249999999978
40
0.68749999999998
40
0.68749999999998
40
0.718749999999982
40
0.718749999999982
40
0.749999999999985
40
0.749999999999985
40
0.781249999999987
40
0.781249999999987
40
0.812499999999989
40
0.812499999999989
40
0.843749999999991
40
0.843749999999991
40
0.851562499999991
40
0.851562499999991
40
0.859374999999992
40
0.859374999999992
40
0.874999999999993
40
0.874999999999993
40
0.906249999999995
40
0.906249999999995
40
0.937499999999996
40
0.937499999999996
40
0.968749999999998
40
0.968749999999998
40
1
40
1
40
1
40
1
41
1
10
150.895194120945
20
8
30
0
41
1
10
150.975329995997
20
8
30
0
41
1
10
151.055465871048
20
7.96719036961829
30
0
41
1
10
151.215737621151
20
7.82480869754616
30
0
41
1
10
151.295873496202
20
7.71514725701235
30
0
41
1
10
151.456145246304
20
7.4127704272307
30
0
41
1
10
151.536281121356
20
7.21999221155937
30
0
41
1
10
151.696552871458
20
6.75252344618539
30
0
41
1
10
151.77668874651
20
6.47782780499676
30
0
41
1
10
151.936960496612
20
5.8562288683581
30
0
41
1
10
152.017096371664
20
5.50939062636598
30
0
41
1
10
152.177368121766
20
4.76089536363753
30
0
41
1
10
152.257503996817
20
4.35935555537867
30
0
41
1
10
152.41777574692
20
3.52369722315694
30
0
41
1
10
152.497911621971
20
3.08970748772353
30
0
41
1
10
152.658183372074
20
2.21238208279573
30
0
41
1
10
152.738319247125
20
1.76914622762456
30
0
41
1
10
152.898590997228
20
0.893980043240731
30
0
41
1
10
152.978726872279
20
0.462099573779199
30
0
41
1
10
153.068879731712
20
-0.0085377536664737
30
0
41
1
10
153.078896716093
20
-0.0606723507328297
30
0
41
1
10
153.098930684856
20
-0.165620733503999
30
0
41
1
10
153.128981638
20
-0.323650059003313
30
0
41
1
10
153.159032591145
20
-0.483382774725754
30
0
41
1
10
153.219134497433
20
-0.804777128738323
30
0
41
1
10
153.259202434959
20
-1.02162219145362
30
0
41
1
10
153.379406247536
20
-1.6767827154128
30
0
41
1
10
153.459542122587
20
-2.11984734252187
30
0
41
1
10
153.61981387269
20
-2.99838476006349
30
0
41
1
10
153.699949747741
20
-3.43376083180147
30
0
41
1
10
153.860221497843
20
-4.27382561017822
30
0
41
1
10
153.940357372895
20
-4.67838638125994
30
0
41
1
10
154.100629122998
20
-5.43436499039044
30
0
41
1
10
154.180764998049
20
-5.78566334880762
30
0
41
1
10
154.341036748151
20
-6.41717920002887
30
0
41
1
10
154.421172623203
20
-6.69732705962048
30
0
41
1
10
154.581444373305
20
-7.17610732631505
30
0
41
1
10
154.661580248357
20
-7.37474000728668
30
0
41
1
10
154.821851998459
20
-7.68864786442845
30
0
41
1
10
154.90198787351
20
-7.80398274009383
30
0
41
1
10
155.062259623613
20
-7.9570788097345
30
0
41
1
10
155.142395498665
20
-7.99492864813013
30
0
41
1
10
155.232548358097
20
-8.00009424503355
30
0
41
1
10
155.242565342479
20
-8.00015355670359
30
0
41
1
10
155.262599311242
20
-7.9992471910129
30
0
41
1
10
155.292650264386
20
-7.9963400940309
30
0
41
1
10
155.32270121753
20
-7.98867986603275
30
0
41
1
10
155.382803123818
20
-7.96674355532457
30
0
41
1
10
155.422871061344
20
-7.94328980169345
30
0
41
1
10
155.543074873921
20
-7.8444733412947
30
0
41
1
10
155.623210748972
20
-7.74045377481133
30
0
41
1
10
155.783482499075
20
-7.44958160198516
30
0
41
1
10
155.863618374126
20
-7.26266320272617
30
0
41
1
10
156.023890124229
20
-6.806559225288
30
0
41
1
10
156.10402599928
20
-6.53736380400116
30
0
41
1
10
156.264297749383
20
-5.92581607151249
30
0
41
1
10
156.344433624434
20
-5.5835241429391
30
0
41
1
10
156.504705374537
20
-4.84270869663226
30
0
41
1
10
156.584841249588
20
-4.44429991614575
30
0
41
1
10
156.74511299969
20
-3.6132728614522
30
0
41
1
10
156.825248874742
20
-3.18078402247289
30
0
41
1
10
156.985520624844
20
-2.30488661550686
30
0
41
1
10
157.065656499896
20
-1.86158085395314
30
0
41
1
10
157.225928249998
20
-0.984974031379153
30
0
41
1
10
157.306064125049
20
-0.551726477592808
30
0
41
1
10
157.406233968864
20
-0.0265133778079303
30
0
41
1
10
157.426267937627
20
0.0774738229604282
30
0
41
1
10
157.466335875152
20
0.288075079195863
30
0
41
1
10
157.486369843915
20
0.394162780140192
30
0
41
1
10
157.546471750203
20
0.714453716094624
30
0
41
1
10
157.586539687729
20
0.930695184903044
30
0
41
1
10
157.706743500306
20
1.58451047935912
30
0
41
1
10
157.786879375357
20
2.0273039909651
30
0
41
1
10
157.94715112546
20
2.90683928322787
30
0
41
1
10
158.027287000511
20
3.34348753549119
30
0
41
1
10
158.187558750614
20
4.18773337694796
30
0
41
1
10
158.267694625665
20
4.59520408514194
30
0
41
1
10
158.427966375768
20
5.35846638054701
30
0
41
1
10
158.508102250819
20
5.71413643316961
30
0
41
1
10
158.588238125871
20
6.03478308399525
30
0
0
SPLINE
5
FD
100
AcDbEntity
8
1
62
256
6
ByLayer
370
13
48
1
60
0
100
AcDbSpline
70
4
71
3
72
86
73
82
40
0
40
0
40
0
40
0
40
0.0312499999999999
40
0.0312499999999999
40
0.0624999999999997
40
0.0624999999999997
40
0.0937499999999996
40
0.0937499999999996
40
0.124999999999999
40
0.124999999999999
40
0.156249999999999
40
0.156249999999999
40
0.187499999999999
40
0.187499999999999
40
0.218749999999999
40
0.218749999999999
40
0.249999999999999
40
0.249999999999999
40
0.257812499999999
40
0.257812499999999
40
0.265624999999999
40
0.265624999999999
40
0.281249999999999
40
0.281249999999999
40
0.3125
40
0.3125
40
0.343750000000001
40
0.343750000000001
40
0.375000000000001
40
0.375000000000001
40
0.406250000000002
40
0.406250000000002
40
0.437500000000002
40
0.437500000000002
40
0.468750000000003
40
0.468750000000003
40
0.500000000000004
40
0.500000000000004
40
0.515625000000004
40
0.515625000000004
40
0.523437500000004
40
0.523437500000004
40
0.527343750000004
40
0.527343750000004
40
0.531250000000004
40
0.531250000000004
40
0.562500000000004
40
0.562500000000004
40
0.593750000000004
40
0.593750000000004
40
0.625000000000004
40
0.625000000000004
40
0.656250000000004
40
0.656250000000004
40
0.687500000000004
40
0.687500000000004
40
0.718750000000004
40
0.718750000000004
40
0.750000000000004
40
0.750000000000004
40
0.781250000000003
40
0.781250000000003
40
0.789062500000003
40
0.789062500000003
40
0.792968750000003
40
0.792968750000003
40
0.796875000000003
40
0.796875000000003
40
0.812500000000003
40
0.812500000000003
40
0.843750000000002
40
0.843750000000002
40
0.875000000000002
40
0.875000000000002
40
0.906250000000002
40
0.906250000000002
40
0.937500000000001
40
0.937500000000001
40
0.968750000000001
40
0.968750000000001
40
1
40
1
40
1
40
1
41
1
10
150.397597277679
20
8
30
0
41
1
10
150.482916453181
20
8
30
0
41
1
10
150.568235628683
20
7.96278351581293
30
0
41
1
10
150.738873979687
20
7.80062547323087
30
0
41
1
10
150.824193155189
20
7.67556284592851
30
0
41
1
10
150.994831506193
20
7.33085844955028
30
0
41
1
10
151.080150681695
20
7.11113910465897
30
0
41
1
10
151.250789032698
20
6.58011626968138
30
0
41
1
10
151.336108208201
20
6.26882438352982
30
0
41
1
10
151.506746559204
20
5.568646450881
30
0
41
1
10
151.592065734707
20
5.17987164988736
30
0
41
1
10
151.762704085711
20
4.34786220986769
30
0
41
1
10
151.848023261213
20
3.90479941905781
30
0
41
1
10
152.018661612217
20
2.99205249410659
30
0
41
1
10
152.103980787719
20
2.52253436588117
30
0
41
1
10
152.274619138723
20
1.58408939271556
30
0
41
1
10
152.359938314225
20
1.11526956561684
30
0
41
1
10
152.466587283602
20
0.543561749813364
30
0
41
1
10
152.487917077478
20
0.429920511569662
30
0
41
1
10
152.530576665229
20
0.204318867741961
30
0
41
1
10
152.551906459104
20
0.0925549794777965
30
0
41
1
10
152.61589584073
20
-0.241070145054835
30
0
41
1
10
152.658555428481
20
-0.467313335663306
30
0
41
1
10
152.786534191734
20
-1.15429028487
30
0
41
1
10
152.871853367236
20
-1.62346181433017
30
0
41
1
10
153.042491718241
20
-2.5619043458191
30
0
41
1
10
153.127810893742
20
-3.03106628224091
30
0
41
1
10
153.298449244747
20
-3.94230880188292
30
0
41
1
10
153.383768420248
20
-4.38422234692399
30
0
41
1
10
153.554406771252
20
-5.21319596190531
30
0
41
1
10
153.639725946754
20
-5.6000850098813
30
0
41
1
10
153.810364297759
20
-6.29595523155146
30
0
41
1
10
153.895683473261
20
-6.60482762899912
30
0
41
1
10
154.066321824264
20
-7.13077135642428
30
0
41
1
10
154.151640999767
20
-7.34783394725483
30
0
41
1
10
154.322279350771
20
-7.68729030883847
30
0
41
1
10
154.407598526272
20
-7.80976358173282
30
0
41
1
10
154.535577289525
20
-7.92772614582097
30
0
41
1
10
154.578236877277
20
-7.95615741400576
30
0
41
1
10
154.642226258903
20
-7.98361338346498
30
0
41
1
10
154.663556052778
20
-7.99023641140647
30
0
41
1
10
154.695550743592
20
-7.99654245449105
30
0
41
1
10
154.706215640529
20
-7.99803985174842
30
0
41
1
10
154.727545434405
20
-7.9998543432032
30
0
41
1
10
154.738210331343
20
-8.00017260520002
30
0
41
1
10
154.834194403783
20
-7.99783551825834
30
0
41
1
10
154.919513579285
20
-7.95832339023079
30
0
41
1
10
155.090151930288
20
-7.79127429873836
30
0
41
1
10
155.17547110579
20
-7.66361676776779
30
0
41
1
10
155.346109456794
20
-7.31366107986582
30
0
41
1
10
155.431428632297
20
-7.09128731160595
30
0
41
1
10
155.6020669833
20
-6.55519884006608
30
0
41
1
10
155.687386158802
20
-6.24149861483045
30
0
41
1
10
155.858024509807
20
-5.5370426053336
30
0
41
1
10
155.943343685308
20
-5.14640050366606
30
0
41
1
10
156.113982036312
20
-4.3113958834046
30
0
41
1
10
156.199301211814
20
-3.86720598427337
30
0
41
1
10
156.369939562819
20
-2.95299836148649
30
0
41
1
10
156.45525873832
20
-2.48314556819588
30
0
41
1
10
156.625897089324
20
-1.54473722466264
30
0
41
1
10
156.711216264827
20
-1.07628663294525
30
0
41
1
10
156.817865234204
20
-0.505370190458621
30
0
41
1
10
156.83919502808
20
-0.391903589509155
30
0
41
1
10
156.871189718893
20
-0.22298652474575
30
0
41
1
10
156.88185461583
20
-0.166894425412522
30
0
41
1
10
156.903184409706
20
-0.055169413286734
30
0
41
1
10
156.913849306644
20
0.000303746604601
30
0
41
1
10
156.967173791332
20
0.278853388627482
30
0
41
1
10
157.009833379083
20
0.505465184074268
30
0
41
1
10
157.137812142336
20
1.19334739631637
30
0
41
1
10
157.223131317838
20
1.66285295264032
30
0
41
1
10
157.393769668842
20
2.60125375752415
30
0
41
1
10
157.479088844344
20
3.07003790517891
30
0
41
1
10
157.649727195349
20
3.97973228490872
30
0
41
1
10
157.735046370851
20
4.42047449055062
30
0
41
1
10
157.905684721854
20
5.24637184196305
30
0
41
1
10
157.991003897356
20
5.63135684685784
30
0
41
1
10
158.16164224836
20
6.32289012466183
30
0
41
1
10
158.246961423862
20
6.62933212170029
30
0
41
1
10
158.417599774866
20
7.15018375315171
30
0
41
1
10
158.502918950368
20
7.36458750277356
30
0
41
1
10
158.588238125871
20
7.53169351043843
30
0
0
SPLINE
5
FE
100
AcDbEntity
8
1
62
256
6
ByLayer
370
13
48
1
60
0
100
AcDbSpline
70
4
71
3
72
8
73
4
40
0
40
0
40
0
40
0
40
1
40
1
40
1
40
1
41
1
10
158.588238125871
20
-0.662375744823322
30
0
41
1
10
159.558825417247
20
-0.449321867627361
30
0
41
1
10
160.529412708623
20
-0.228529005776238
30
0
41
1
10
161.5
20
-2.84E-14
30
0
0
SPLINE
5
FF
100
AcDbEntity
8
1
62
256
6
ByLayer
370
13
48
1
60
0
100
AcDbSpline
70
4
71
3
72
8
73
4
40
0
40
0
40
0
40
0
40
1
40
1
40
1
40
1
41
1
10
158.58823812587
20
6.76399299843143
30
0
41
1
10
159.558825417247
20
4.51347483443973
30
0
41
1
10
160.529412708624
20
2.25880093785241
30
0
41
1
10
161.5
20
-2.84E-14
30
0
0
SPLINE
5
100
100
AcDbEntity
8
1
62
256
6
ByLayer
370
13
48
1
60
0
100
AcDbSpline
70
4
71
3
72
8
73
4
40
0
40
0
40
0
40
0
40
1
40
1
40
1
40
1
41
1
10
158.588238125871
20
5.85303002867093
30
0
41
1
10
159.558825417247
20
3.89672679876531
30
0
41
1
10
160.529412708623
20
1.94570852601404
30
0
41
1
10
161.5
20
3.126E-13
30
0
0
SPLINE
5
101
100
AcDbEntity
8
1
62
256
6
ByLayer
370
13
48
1
60
0
100
AcDbSpline
70
4
71
3
72
8
73
4
40
0
40
0
40
0
40
0
40
1
40
1
40
1
40
1
41
1
10
158.58823812587
20
-7.88643696662561
30
0
41
1
10
159.558825417247
20
-5.25632097840028
30
0
41
1
10
160.529412708624
20
-2.62749751403655
30
0
41
1
10
161.5
20
7.958E-13
30
0
0
SPLINE
5
102
100
AcDbEntity
8
1
62
256
6
ByLayer
370
13
48
1
60
0
100
AcDbSpline
70
4
71
3
72
8
73
4
40
0
40
0
40
0
40
0
40
1
40
1
40
1
40
1
41
1
10
158.588238125871
20
3.97162584847726
30
0
41
1
10
159.558825417247
20
2.64101031466851
30
0
41
1
10
160.529412708623
20
1.31712942922738
30
0
41
1
10
161.5
20
2.274E-13
30
0
0
SPLINE
5
103
100
AcDbEntity
8
1
62
256
6
ByLayer
370
13
48
1
60
0
100
AcDbSpline
70
4
71
3
72
8
73
4
40
0
40
0
40
0
40
0
40
1
40
1
40
1
40
1
41
1
10
158.58823812587
20
5.19218219167826
30
0
41
1
10
159.558825417247
20
3.46736193607109
30
0
41
1
10
160.529412708623
20
1.73662719364054
30
0
41
1
10
161.5
20
1.99E-13
30
0
0
SPLINE
5
104
100
AcDbEntity
8
1
62
256
6
ByLayer
370
13
48
1
60
0
100
AcDbSpline
70
4
71
3
72
8
73
4
40
0
40
0
40
0
40
0
40
1
40
1
40
1
40
1
41
1
10
158.58823812587
20
-7.99869024226001
30
0
41
1
10
159.558825417247
20
-5.33231966280798
30
0
41
1
10
160.529412708623
20
-2.6660782796358
30
0
41
1
10
161.5
20
-4.547E-13
30
0
0
SPLINE
5
105
100
AcDbEntity
8
1
62
256
6
ByLayer
370
13
48
1
60
0
100
AcDbSpline
70
4
71
3
72
8
73
4
40
0
40
0
40
0
40
0
40
1
40
1
40
1
40
1
41
1
10
158.588238125871
20
-1.56818565591357
30
0
41
1
10
159.558825417247
20
-1.03784304653019
30
0
41
1
10
160.529412708624
20
-0.515112289379971
30
0
41
1
10
161.5
20
-2.84E-14
30
0
0
SPLINE
5
106
100
AcDbEntity
8
1
62
256
6
ByLayer
370
13
48
1
60
0
100
AcDbSpline
70
4
71
3
72
8
73
4
40
0
40
0
40
0
40
0
40
1
40
1
40
1
40
1
41
1
10
158.588238125871
20
7.2074411645267
30
0
41
1
10
159.558825417247
20
4.80159117573555
30
0
41
1
10
160.529412708623
20
2.39910060778527
30
0
41
1
10
161.5
20
3.979E-13
30
0
0
SPLINE
5
107
100
AcDbEntity
8
1
62
256
6
ByLayer
370
13
48
1
60
0
100
AcDbSpline
70
4
71
3
72
8
73
4
40
0
40
0
40
0
40
0
40
1
40
1
40
1
40
1
41
1
10
158.58823812587
20
7.72678979967591
30
0
41
1
10
159.558825417247
20
5.15320508452331
30
0
41
1
10
160.529412708624
20
2.57759756338211
30
0
41
1
10
161.5
20
-2.84E-14
30
0
0
SPLINE
5
108
100
AcDbEntity
8
1
62
256
6
ByLayer
370
13
48
1
60
0
100
AcDbSpline
70
4
71
3
72
8
73
4
40
0
40
0
40
0
40
0
40
1
40
1
40
1
40
1
41
1
10
158.588238125871
20
4.96856595869733
30
0
41
1
10
159.558825417247
20
3.3062916884727
30
0
41
1
10
160.529412708623
20
1.65009602329846
30
0
41
1
10
161.5
20
2.842E-13
30
0
0
SPLINE
5
109
100
AcDbEntity
8
1
62
256
6
ByLayer
370
13
48
1
60
0
100
AcDbSpline
70
4
71
3
72
8
73
4
40
0
40
0
40
0
40
0
40
1
40
1
40
1
40
1
41
1
10
158.588238125871
20
2.88477795551051
30
0
41
1
10
159.558825417247
20
1.91594300163894
30
0
41
1
10
160.529412708623
20
0.954346283675847
30
0
41
1
10
161.5
20
1.705E-13
30
0
0
SPLINE
5
10A
100
AcDbEntity
8
1
62
256
6
ByLayer
370
13
48
1
60
0
100
AcDbSpline
70
4
71
3
72
8
73
4
40
0
40
0
40
0
40
0
40
1
40
1
40
1
40
1
41
1
10
158.58823812587
20
-7.1329247544505
30
0
41
1
10
159.558825417247
20
-4.7517673674578
30
0
41
1
10
160.529412708624
20
-2.37411570836872
30
0
41
1
10
161.5
20
1.705E-13
30
0
0
SPLINE
5
10B
100
AcDbEntity
8
1
62
256
6
ByLayer
370
13
48
1
60
0
100
AcDbSpline
70
4
71
3
72
8
73
4
40
0
40
0
40
0
40
0
40
1
40
1
40
1
40
1
41
1
10
158.588238125871
20
-1.85100827828384
30
0
41
1
10
159.558825417247
20
-1.24155951739797
30
0
41
1
10
160.529412708623
20
-0.624554131712756
30
0
41
1
10
161.5
20
-1.137E-13
30
0
0
SPLINE
5
10C
100
AcDbEntity
8
1
62
256
6
ByLayer
370
13
48
1
60
0
100
AcDbSpline
70
4
71
3
72
8
73
4
40
0
40
0
40
0
40
0
40
1
40
1
40
1
40
1
41
1
10
158.588238125871
20
7.6467277133315
30
0
41
1
10
159.558825417247
20
5.09553655170348
30
0
41
1
10
160.529412708623
20
2.54661651187709
30
0
41
1
10
161.5
20
4.263E-13
30
0
0
SPLINE
5
10D
100
AcDbEntity
8
1
62
256
6
ByLayer
370
13
48
1
60
0
100
AcDbSpline
70
4
71
3
72
8
73
4
40
0
40
0
40
0
40
0
40
1
40
1
40
1
40
1
41
1
10
158.588238125871
20
0.8296990066859
30
0
41
1
10
159.558825417247
20
0.560855497007822
30
0
41
1
10
160.529412708624
20
0.284287978119778
30
0
41
1
10
161.5
20
0
30
0
0
SPLINE
5
10E
100
AcDbEntity
8
1
62
256
6
ByLayer
370
13
48
1
60
0
100
AcDbSpline
70
4
71
3
72
8
73
4
40
0
40
0
40
0
40
0
40
1
40
1
40
1
40
1
41
1
10
158.58823812587
20
-3.82487457394183
30
0
41
1
10
159.558825417247
20
-2.54309664549137
30
0
41
1
10
160.529412708624
20
-1.26813305904244
30
0
41
1
10
161.5
20
8.53E-14
30
0
0
SPLINE
5
10F
100
AcDbEntity
8
1
62
256
6
ByLayer
370
13
48
1
60
0
100
AcDbSpline
70
4
71
3
72
8
73
4
40
0
40
0
40
0
40
0
40
1
40
1
40
1
40
1
41
1
10
158.58823812587
20
7.95032506338398
30
0
41
1
10
159.558825417247
20
5.30108065777176
30
0
41
1
10
160.529412708624
20
2.65096106781493
30
0
41
1
10
161.5
20
0
30
0
0
SPLINE
5
110
100
AcDbEntity
8
1
62
256
6
ByLayer
370
13
48
1
60
0
100
AcDbSpline
70
4
71
3
72
8
73
4
40
0
40
0
40
0
40
0
40
1
40
1
40
1
40
1
41
1
10
158.588238125871
20
7.91291126598244
30
0
41
1
10
159.558825417247
20
5.27413158734566
30
0
41
1
10
160.529412708623
20
2.63648331889272
30
0
41
1
10
161.5
20
4.263E-13
30
0
0
SPLINE
5
111
100
AcDbEntity
8
1
62
256
6
ByLayer
370
13
48
1
60
0
100
AcDbSpline
70
4
71
3
72
8
73
4
40
0
40
0
40
0
40
0
40
1
40
1
40
1
40
1
41
1
10
158.58823812587
20
-7.59565427042335
30
0
41
1
10
159.558825417247
20
-5.06133219205424
30
0
41
1
10
160.529412708624
20
-2.52943670558616
30
0
41
1
10
161.5
20
7.674E-13
30
0
0
SPLINE
5
112
100
AcDbEntity
8
1
62
256
6
ByLayer
370
13
48
1
60
0
100
AcDbSpline
70
4
71
3
72
8
73
4
40
0
40
0
40
0
40
0
40
1
40
1
40
1
40
1
41
1
10
158.58823812587
20
-5.06319206032401
30
0
41
1
10
159.558825417247
20
-3.38147306980261
30
0
41
1
10
160.529412708623
20
-1.6937352199464
30
0
41
1
10
161.5
20
-2.842E-13
30
0
0
SPLINE
5
113
100
AcDbEntity
8
1
62
256
6
ByLayer
370
13
48
1
60
0
100
AcDbSpline
70
4
71
3
72
8
73
4
40
0
40
0
40
0
40
0
40
1
40
1
40
1
40
1
41
1
10
158.588238125871
20
-4.07660746558298
30
0
41
1
10
159.558825417247
20
-2.72441925630915
30
0
41
1
10
160.529412708623
20
-1.36554433118934
30
0
41
1
10
161.5
20
-2.274E-13
30
0
0
SPLINE
5
114
100
AcDbEntity
8
1
62
256
6
ByLayer
370
13
48
1
60
0
100
AcDbSpline
70
4
71
3
72
8
73
4
40
0
40
0
40
0
40
0
40
1
40
1
40
1
40
1
41
1
10
158.58823812587
20
7.32833913226608
30
0
41
1
10
159.558825417247
20
4.88867369804757
30
0
41
1
10
160.529412708624
20
2.44588362751935
30
0
41
1
10
161.5
20
-2.84E-14
30
0
0
SPLINE
5
115
100
AcDbEntity
8
1
62
256
6
ByLayer
370
13
48
1
60
0
100
AcDbSpline
70
4
71
3
72
8
73
4
40
0
40
0
40
0
40
0
40
1
40
1
40
1
40
1
41
1
10
158.58823812587
20
-7.9298729608995
30
0
41
1
10
159.558825417247
20
-5.2876078230949
30
0
41
1
10
160.529412708623
20
-2.64430562930428
30
0
41
1
10
161.5
20
-4.263E-13
30
0
0
SPLINE
5
116
100
AcDbEntity
8
1
62
256
6
ByLayer
370
13
48
1
60
0
100
AcDbSpline
70
4
71
3
72
8
73
4
40
0
40
0
40
0
40
0
40
1
40
1
40
1
40
1
41
1
10
158.58823812587
20
-4.83576253159274
30
0
41
1
10
159.558825417247
20
-3.21765611422813
30
0
41
1
10
160.529412708624
20
-1.6057284458889
30
0
41
1
10
161.5
20
1.137E-13
30
0
0
SPLINE
5
117
100
AcDbEntity
8
1
62
256
6
ByLayer
370
13
48
1
60
0
100
AcDbSpline
70
4
71
3
72
8
73
4
40
0
40
0
40
0
40
0
40
1
40
1
40
1
40
1
41
1
10
158.58823812587
20
-5.73718079000906
30
0
41
1
10
159.558825417247
20
-3.81937580955491
30
0
41
1
10
160.529412708624
20
-1.90697411355936
30
0
41
1
10
161.5
20
5.684E-13
30
0
0
SPLINE
5
118
100
AcDbEntity
8
1
62
256
6
ByLayer
370
13
48
1
60
0
100
AcDbSpline
70
4
71
3
72
8
73
4
40
0
40
0
40
0
40
0
40
1
40
1
40
1
40
1
41
1
10
158.58823812587
20
6.04652679835581
30
0
41
1
10
159.558825417247
20
4.03610206766751
30
0
41
1
10
160.529412708624
20
2.02058458360165
30
0
41
1
10
161.5
20
-2.84E-14
30
0
0
SPLINE
5
119
100
AcDbEntity
8
1
62
256
6
ByLayer
370
13
48
1
60
0
100
AcDbSpline
70
4
71
3
72
8
73
4
40
0
40
0
40
0
40
0
40
1
40
1
40
1
40
1
41
1
10
158.58823812587
20
-5.93515851399818
30
0
41
1
10
159.558825417247
20
-3.96197869932195
30
0
41
1
10
160.529412708624
20
-1.98358413390574
30
0
41
1
10
161.5
20
5.969E-13
30
0
0
SPLINE
5
11A
100
AcDbEntity
8
1
62
256
6
ByLayer
370
13
48
1
60
0
100
AcDbSpline
70
4
71
3
72
8
73
4
40
0
40
0
40
0
40
0
40
1
40
1
40
1
40
1
41
1
10
158.58823812587
20
-7.68154297552863
30
0
41
1
10
159.558825417247
20
-5.12319762468763
30
0
41
1
10
160.529412708624
20
-2.56267244197639
30
0
41
1
10
161.5
20
7.674E-13
30
0
0
SPLINE
5
11B
100
AcDbEntity
8
1
62
256
6
ByLayer
370
13
48
1
60
0
100
AcDbSpline
70
4
71
3
72
8
73
4
40
0
40
0
40
0
40
0
40
1
40
1
40
1
40
1
41
1
10
158.588238125871
20
-2.72740091931251
30
0
41
1
10
159.558825417247
20
-1.81096776074469
30
0
41
1
10
160.529412708624
20
-0.901830277311348
30
0
41
1
10
161.5
20
-5.68E-14
30
0
0
SPLINE
5
11C
100
AcDbEntity
8
1
62
256
6
ByLayer
370
13
48
1
60
0
100
AcDbSpline
70
4
71
3
72
8
73
4
40
0
40
0
40
0
40
0
40
1
40
1
40
1
40
1
41
1
10
158.588238125871
20
-2.99773856402632
30
0
41
1
10
159.558825417247
20
-2.00569133151942
30
0
41
1
10
160.529412708623
20
-1.00644089735806
30
0
41
1
10
161.5
20
-1.705E-13
30
0
0
SPLINE
5
11D
100
AcDbEntity
8
1
62
256
6
ByLayer
370
13
48
1
60
0
100
AcDbSpline
70
4
71
3
72
8
73
4
40
0
40
0
40
0
40
0
40
1
40
1
40
1
40
1
41
1
10
158.58823812587
20
-6.50872347007896
30
0
41
1
10
159.558825417247
20
-4.33463428632459
30
0
41
1
10
160.529412708624
20
-2.1650506054705
30
0
41
1
10
161.5
20
1.421E-13
30
0
0
SPLINE
5
11E
100
AcDbEntity
8
1
62
256
6
ByLayer
370
13
48
1
60
0
100
AcDbSpline
70
4
71
3
72
8
73
4
40
0
40
0
40
0
40
0
40
1
40
1
40
1
40
1
41
1
10
158.588238125871
20
3.15287952403486
30
0
41
1
10
159.558825417247
20
2.1090559319843
30
0
41
1
10
160.529412708624
20
1.05809162535209
30
0
41
1
10
161.5
20
5.68E-14
30
0
0
SPLINE
5
11F
100
AcDbEntity
8
1
62
256
6
ByLayer
370
13
48
1
60
0
100
AcDbSpline
70
4
71
3
72
8
73
4
40
0
40
0
40
0
40
0
40
1
40
1
40
1
40
1
41
1
10
158.588238125871
20
-0.373470549216847
30
0
41
1
10
159.558825417247
20
-0.241224133538537
30
0
41
1
10
160.529412708623
20
-0.116733433690513
30
0
41
1
10
161.5
20
-2.84E-14
30
0
0
SPLINE
5
120
100
AcDbEntity
8
1
62
256
6
ByLayer
370
13
48
1
60
0
100
AcDbSpline
70
4
71
3
72
8
73
4
40
0
40
0
40
0
40
0
40
1
40
1
40
1
40
1
41
1
10
158.588238125871
20
0.541251336672246
30
0
41
1
10
159.558825417247
20
0.353087317529344
30
0
41
1
10
160.529412708623
20
0.172669451432256
30
0
41
1
10
161.5
20
2.84E-14
30
0
0
SPLINE
5
121
100
AcDbEntity
8
1
62
256
6
ByLayer
370
13
48
1
60
0
100
AcDbSpline
70
4
71
3
72
8
73
4
40
0
40
0
40
0
40
0
40
1
40
1
40
1
40
1
41
1
10
158.588238125871
20
2.01408622989061
30
0
41
1
10
159.558825417247
20
1.3502387467517
30
0
41
1
10
160.529412708624
20
0.678873813481204
30
0
41
1
10
161.5
20
2.84E-14
30
0
0
SPLINE
5
122
100
AcDbEntity
8
1
62
256
6
ByLayer
370
13
48
1
60
0
100
AcDbSpline
70
4
71
3
72
8
73
4
40
0
40
0
40
0
40
0
40
1
40
1
40
1
40
1
41
1
10
158.588238125871
20
1.73262582705138
30
0
41
1
10
159.558825417247
20
1.1475034794139
30
0
41
1
10
160.529412708623
20
0.569959099473294
30
0
41
1
10
161.5
20
8.53E-14
30
0
0
SPLINE
5
123
100
AcDbEntity
8
1
62
256
6
ByLayer
370
13
48
1
60
0
100
AcDbSpline
70
4
71
3
72
8
73
4
40
0
40
0
40
0
40
0
40
1
40
1
40
1
40
1
41
1
10
158.58823812587
20
4.22029942650329
30
0
41
1
10
159.558825417247
20
2.82012930907192
30
0
41
1
10
160.529412708624
20
1.41335686071963
30
0
41
1
10
161.5
20
0
30
0
0
SPLINE
5
124
100
AcDbEntity
8
1
62
256
6
ByLayer
370
13
48
1
60
0
100
AcDbSpline
70
4
71
3
72
8
73
4
40
0
40
0
40
0
40
0
40
1
40
1
40
1
40
1
41
1
10
158.58823812587
20
-7.25932186260656
30
0
41
1
10
159.558825417247
20
-4.84281090770094
30
0
41
1
10
160.529412708624
20
-2.42302669104117
30
0
41
1
10
161.5
20
1.705E-13
30
0
0
SPLINE
5
125
100
AcDbEntity
8
1
62
256
6
ByLayer
370
13
48
1
60
0
100
AcDbSpline
70
4
71
3
72
8
73
4
40
0
40
0
40
0
40
0
40
1
40
1
40
1
40
1
41
1
10
158.58823812587
20
-6.67276766348456
30
0
41
1
10
159.558825417247
20
-4.45279493368307
30
0
41
1
10
160.529412708624
20
-2.22852961079099
30
0
41
1
10
161.5
20
6.821E-13
30
0
0
SPLINE
5
126
100
AcDbEntity
8
1
62
256
6
ByLayer
370
13
48
1
60
0
100
AcDbSpline
70
4
71
3
72
8
73
4
40
0
40
0
40
0
40
0
40
1
40
1
40
1
40
1
41
1
10
158.588238125871
20
6.60499598016506
30
0
41
1
10
159.558825417247
20
4.39894965548402
30
0
41
1
10
160.529412708623
20
2.19727500170711
30
0
41
1
10
161.5
20
3.695E-13
30
0
0
LINE
5
7D
100
AcDbEntity
8
80
62
256
6
ByLayer
370
18
48
1
60
0
100
AcDbLine
10
0
20
0
30
0
11
-5
21
0
31
0
39
0
210
0
220
0
230
1
0
LINE
5
7E
100
AcDbEntity
8
4
62
256
6
ByLayer
370
18
48
0.05
60
0
100
AcDbLine
10
-5
20
0
30
0
11
166.5
21
0
31
0
39
0
210
0
220
0
230
1
0
LINE
5
80
100
AcDbEntity
8
81
62
256
6
ByLayer
370
18
48
1
60
0
100
AcDbLine
10
161.5
20
0
30
0
11
166.5
21
0
31
0
39
0
210
0
220
0
230
1
0
LINE
5
81
100
AcDbEntity
8
SK4
62
256
6
ByLayer
370
18
48
0.05
60
0
100
AcDbLine
10
-55
20
0
30
0
11
166.5
21
0
31
0
39
0
210
0
220
0
230
1
0
LINE
5
83
100
AcDbEntity
8
1
62
256
6
ByLayer
370
18
48
1
60
0
100
AcDbLine
10
0
20
10
30
0
11
0
21
-10
31
0
39
0
210
0
220
0
230
1
0
LINE
5
84
100
AcDbEntity
8
1
62
256
6
ByLayer
370
18
48
1
60
0
100
AcDbLine
10
158.588238
20
8
30
0
11
158.588238
21
7.74597
31
0
39
0
210
0
220
0
230
1
0
LINE
5
85
100
AcDbEntity
8
1
62
256
6
ByLayer
370
18
48
1
60
0
100
AcDbLine
10
158.588238
20
-8
30
0
11
158.588238
21
-1.141976
31
0
39
0
210
0
220
0
230
1
0
LINE
5
86
100
AcDbEntity
8
1
62
256
6
ByLayer
370
18
48
1
60
0
100
AcDbLine
10
10
20
-7.68217
30
0
11
10
21
2.607289
31
0
39
0
210
0
220
0
230
1
0
LINE
5
87
100
AcDbEntity
8
SK1
62
256
6
ByLayer
370
13
48
1
60
0
100
AcDbLine
10
-14.992177
20
-6.1943
30
0
11
-14.992177
21
6.1943
31
0
39
0
210
0
220
0
230
1
0
LINE
5
89
100
AcDbEntity
8
SK1
62
256
6
ByLayer
370
13
48
1
60
0
100
AcDbLine
10
-42.24218
20
4.745825
30
0
11
-42.24218
21
-4.745825
31
0
39
0
210
0
220
0
230
1
0
LINE
5
8A
100
AcDbEntity
8
SK1
62
256
6
ByLayer
370
13
48
1
60
0
100
AcDbLine
10
-13.845141
20
5.608199
30
0
11
-13.845141
21
-5.608199
31
0
39
0
210
0
220
0
230
1
0
LINE
5
8B
100
AcDbEntity
8
SK1
62
256
6
ByLayer
370
18
48
1
60
0
100
AcDbLine
10
0
20
10
30
0
11
0
21
-10
31
0
39
0
210
0
220
0
230
1
0
LINE
5
8C
100
AcDbEntity
8
SK1
62
256
6
ByLayer
370
13
48
1
60
0
100
AcDbLine
10
-43.356507
20
-3.65035
30
0
11
-43.356507
21
3.65035
31
0
39
0
210
0
220
0
230
1
0
LINE
5
8D
100
AcDbEntity
8
SK1
62
256
6
ByLayer
370
18
48
1
60
0
100
AcDbLine
10
-50
20
-9
30
0
11
-50
21
9
31
0
39
0
210
0
220
0
230
1
0
LINE
5
8E
100
AcDbEntity
8
SK1
62
256
6
ByLayer
370
18
48
1
60
0
100
AcDbLine
10
-49
20
-10
30
0
11
-49
21
10
31
0
39
0
210
0
220
0
230
1
0
LINE
5
8F
100
AcDbEntity
8
1
62
256
6
ByLayer
370
18
48
1
60
0
100
AcDbLine
10
51.554318
20
7.7
30
0
11
15.116508
21
7.7
31
0
39
0
210
0
220
0
230
1
0
LINE
5
90
100
AcDbEntity
8
1
62
256
6
ByLayer
370
18
48
1
60
0
100
AcDbLine
10
84.290394
20
-7.7
30
0
11
120.605394
21
-7.7
31
0
39
0
210
0
220
0
230
1
0
LINE
5
91
100
AcDbEntity
8
1
62
256
6
ByLayer
370
18
48
1
60
0
100
AcDbLine
10
120.605394
20
7.7
30
0
11
84.290394
21
7.7
31
0
39
0
210
0
220
0
230
1
0
LINE
5
92
100
AcDbEntity
8
1
62
256
6
ByLayer
370
18
48
1
60
0
100
AcDbLine
10
15.116508
20
-7.7
30
0
11
51.554318
21
-7.7
31
0
39
0
210
0
220
0
230
1
0
LINE
5
93
100
AcDbEntity
8
1
62
256
6
ByLayer
370
18
48
1
60
0
100
AcDbLine
10
161.5
20
0
30
0
11
158.588238
21
8
31
0
39
0
210
0
220
0
230
1
0
LINE
5
94
100
AcDbEntity
8
1
62
256
6
ByLayer
370
18
48
1
60
0
100
AcDbLine
10
158.588238
20
-8
30
0
11
161.5
21
0
31
0
39
0
210
0
220
0
230
1
0
LINE
5
95
100
AcDbEntity
8
1
62
256
6
ByLayer
370
18
48
1
60
0
100
AcDbLine
10
7.634946
20
8.243962
30
0
11
0
21
10
31
0
39
0
210
0
220
0
230
1
0
LINE
5
96
100
AcDbEntity
8
1
62
256
6
ByLayer
370
18
48
1
60
0
100
AcDbLine
10
0
20
-10
30
0
11
7.634946
21
-8.243962
31
0
39
0
210
0
220
0
230
1
0
LINE
5
97
100
AcDbEntity
8
1
62
256
6
ByLayer
370
18
48
1
60
0
100
AcDbLine
10
161.5
20
0
30
0
11
158.588238
21
8
31
0
39
0
210
0
220
0
230
1
0
LINE
5
98
100
AcDbEntity
8
1
62
256
6
ByLayer
370
18
48
1
60
0
100
AcDbLine
10
158.588238
20
-8
30
0
11
161.5
21
0
31
0
39
0
210
0
220
0
230
1
0
LINE
5
99
100
AcDbEntity
8
1
62
256
6
ByLayer
370
18
48
1
60
0
100
AcDbLine
10
149.9
20
-8
30
0
11
158.588238
21
-8
31
0
39
0
210
0
220
0
230
1
0
LINE
5
9A
100
AcDbEntity
8
SK1
62
256
6
ByLayer
370
18
48
1
60
0
100
AcDbLine
10
-49
20
-10
30
0
11
0
21
-10
31
0
39
0
210
0
220
0
230
1
0
LINE
5
9B
100
AcDbEntity
8
SK1
62
256
6
ByLayer
370
18
48
1
60
0
100
AcDbLine
10
0
20
10
30
0
11
-49
21
10
31
0
39
0
210
0
220
0
230
1
0
LINE
5
9C
100
AcDbEntity
8
SK1
62
256
6
ByLayer
370
18
48
1
60
0
100
AcDbLine
10
-50
20
-9
30
0
11
-49
21
-10
31
0
39
0
210
0
220
0
230
1
0
LINE
5
9D
100
AcDbEntity
8
SK1
62
256
6
ByLayer
370
18
48
1
60
0
100
AcDbLine
10
-49
20
10
30
0
11
-50
21
9
31
0
39
0
210
0
220
0
230
1
0
LINE
5
9E
100
AcDbEntity
8
1
62
256
6
ByLayer
370
18
48
1
60
0
100
AcDbLine
10
158.588238
20
8
30
0
11
158.588238
21
-8
31
0
39
0
210
0
220
0
230
1
0
LINE
5
9F
100
AcDbEntity
8
1
62
256
6
ByLayer
370
18
48
1
60
0
100
AcDbLine
10
158.588238
20
8
30
0
11
158.588238
21
-8
31
0
39
0
210
0
220
0
230
1
0
LINE
5
A0
100
AcDbEntity
8
1
62
256
6
ByLayer
370
18
48
1
60
0
100
AcDbLine
10
158.588238
20
8
30
0
11
158.588238
21
-8
31
0
39
0
210
0
220
0
230
1
0
LINE
5
A1
100
AcDbEntity
8
1
62
256
6
ByLayer
370
18
48
1
60
0
100
AcDbLine
10
149.9
20
8
30
0
11
149.9
21
-8
31
0
39
0
210
0
220
0
230
1
0
LINE
5
A2
100
AcDbEntity
8
1
62
256
6
ByLayer
370
18
48
1
60
0
100
AcDbLine
10
149.9
20
8
30
0
11
149.9
21
-8
31
0
39
0
210
0
220
0
230
1
0
LINE
5
A3
100
AcDbEntity
8
1
62
256
6
ByLayer
370
18
48
1
60
0
100
AcDbLine
10
158.588238
20
8
30
0
11
158.588238
21
-8
31
0
39
0
210
0
220
0
230
1
0
LINE
5
A4
100
AcDbEntity
8
1
62
256
6
ByLayer
370
18
48
1
60
0
100
AcDbLine
10
149.9
20
8
30
0
11
149.9
21
-8
31
0
39
0
210
0
220
0
230
1
0
LINE
5
A5
100
AcDbEntity
8
1
62
256
6
ByLayer
370
18
48
1
60
0
100
AcDbLine
10
158.588238
20
8
30
0
11
158.588238
21
-8
31
0
39
0
210
0
220
0
230
1
0
LINE
5
A6
100
AcDbEntity
8
SK2
62
256
6
ByLayer
370
13
48
1
60
0
100
AcDbLine
10
-56.5
20
-10
30
0
11
-56.5
21
39.024569
31
0
39
0
210
0
220
0
230
1
0
LINE
5
A8
100
AcDbEntity
8
SK2
62
256
6
ByLayer
370
13
48
1
60
0
100
AcDbLine
10
-51.5875
20
10
30
0
11
-58.5
21
10
31
0
39
0
210
0
220
0
230
1
0
LINE
5
A9
100
AcDbEntity
8
SK2
62
256
6
ByLayer
370
13
48
1
60
0
100
AcDbLine
10
-51.5875
20
-10
30
0
11
-58.5
21
-10
31
0
39
0
210
0
220
0
230
1
0
LINE
5
AA
100
AcDbEntity
8
1
62
256
6
ByLayer
370
18
48
1
60
1
100
AcDbLine
10
-56.5
20
10
30
0
11
-56.039216
21
6.500002
31
0
39
0
210
0
220
0
230
1
0
LINE
5
AB
100
AcDbEntity
8
1
62
256
6
ByLayer
370
18
48
1
60
1
100
AcDbLine
10
-56.039216
20
6.500002
30
0
11
-56.960784
21
6.499998
31
0
39
0
210
0
220
0
230
1
0
LINE
5
AC
100
AcDbEntity
8
1
62
256
6
ByLayer
370
18
48
1
60
1
100
AcDbLine
10
-56.960784
20
6.499998
30
0
11
-56.5
21
10
31
0
39
0
210
0
220
0
230
1
0
LINE
5
AD
100
AcDbEntity
8
1
62
256
6
ByLayer
370
18
48
1
60
1
100
AcDbLine
10
-56.5
20
-10
30
0
11
-56.960784
21
-6.500002
31
0
39
0
210
0
220
0
230
1
0
LINE
5
AE
100
AcDbEntity
8
1
62
256
6
ByLayer
370
18
48
1
60
1
100
AcDbLine
10
-56.960784
20
-6.500002
30
0
11
-56.039216
21
-6.499998
31
0
39
0
210
0
220
0
230
1
0
LINE
5
AF
100
AcDbEntity
8
1
62
256
6
ByLayer
370
18
48
1
60
1
100
AcDbLine
10
-56.039216
20
-6.499998
30
0
11
-56.5
21
-10
31
0
39
0
210
0
220
0
230
1
0
LINE
5
B0
100
AcDbEntity
8
2
62
256
6
ByLayer
370
13
48
1
60
0
100
AcDbLine
10
169
20
-8
30
0
11
169
21
36.274683
31
0
39
0
210
0
220
0
230
1
0
LINE
5
B2
100
AcDbEntity
8
2
62
256
6
ByLayer
370
13
48
1
60
0
100
AcDbLine
10
160.175738
20
8
30
0
11
171
21
8
31
0
39
0
210
0
220
0
230
1
0
LINE
5
B3
100
AcDbEntity
8
2
62
256
6
ByLayer
370
13
48
1
60
0
100
AcDbLine
10
160.175738
20
-8
30
0
11
171
21
-8
31
0
39
0
210
0
220
0
230
1
0
LINE
5
B4
100
AcDbEntity
8
1
62
256
6
ByLayer
370
18
48
1
60
1
100
AcDbLine
10
169
20
8
30
0
11
169.460784
21
4.500002
31
0
39
0
210
0
220
0
230
1
0
LINE
5
B5
100
AcDbEntity
8
1
62
256
6
ByLayer
370
18
48
1
60
1
100
AcDbLine
10
169.460784
20
4.500002
30
0
11
168.539216
21
4.499998
31
0
39
0
210
0
220
0
230
1
0
LINE
5
B6
100
AcDbEntity
8
1
62
256
6
ByLayer
370
18
48
1
60
1
100
AcDbLine
10
168.539216
20
4.499998
30
0
11
169
21
8
31
0
39
0
210
0
220
0
230
1
0
LINE
5
B7
100
AcDbEntity
8
1
62
256
6
ByLayer
370
18
48
1
60
1
100
AcDbLine
10
169
20
-8
30
0
11
168.539216
21
-4.500002
31
0
39
0
210
0
220
0
230
1
0
LINE
5
B8
100
AcDbEntity
8
1
62
256
6
ByLayer
370
18
48
1
60
1
100
AcDbLine
10
168.539216
20
-4.500002
30
0
11
169.460784
21
-4.499998
31
0
39
0
210
0
220
0
230
1
0
LINE
5
B9
100
AcDbEntity
8
1
62
256
6
ByLayer
370
18
48
1
60
1
100
AcDbLine
10
169.460784
20
-4.499998
30
0
11
169
21
-8
31
0
39
0
210
0
220
0
230
1
0
LINE
5
BA
100
AcDbEntity
8
SK2
62
256
6
ByLayer
370
13
48
1
60
0
100
AcDbLine
10
162.042957
20
-1.491762
30
0
11
168.682423
21
-19.733545
31
0
39
0
210
0
220
0
230
1
0
LINE
5
BB
100
AcDbEntity
8
SK2
62
256
6
ByLayer
370
13
48
1
60
0
100
AcDbLine
10
162.042957
20
1.491762
30
0
11
168.682423
21
19.733545
31
0
39
0
210
0
220
0
230
1
0
LINE
5
BC
100
AcDbEntity
8
1
62
256
6
ByLayer
370
18
48
1
60
1
100
AcDbLine
10
167.998383
20
-17.85416
30
0
11
171.051575
21
-16.082064
31
0
39
0
210
0
220
0
230
1
0
LINE
5
BD
100
AcDbEntity
8
1
62
256
6
ByLayer
370
18
48
1
60
1
100
AcDbLine
10
171.051575
20
-16.082064
30
0
11
171.406196
21
-16.93267
31
0
39
0
210
0
220
0
230
1
0
LINE
5
BE
100
AcDbEntity
8
1
62
256
6
ByLayer
370
18
48
1
60
1
100
AcDbLine
10
171.406196
20
-16.93267
30
0
11
167.998383
21
-17.85416
31
0
39
0
210
0
220
0
230
1
0
LINE
5
BF
100
AcDbEntity
8
1
62
256
6
ByLayer
370
18
48
1
60
1
100
AcDbLine
10
167.998383
20
17.85416
30
0
11
171.406193
21
16.932671
31
0
39
0
210
0
220
0
230
1
0
LINE
5
C0
100
AcDbEntity
8
1
62
256
6
ByLayer
370
18
48
1
60
1
100
AcDbLine
10
171.406193
20
16.932671
30
0
11
171.051579
21
16.082063
31
0
39
0
210
0
220
0
230
1
0
LINE
5
C1
100
AcDbEntity
8
1
62
256
6
ByLayer
370
18
48
1
60
1
100
AcDbLine
10
171.051579
20
16.082063
30
0
11
167.998383
21
17.85416
31
0
39
0
210
0
220
0
230
1
0
LINE
5
12B
100
AcDbEntity
8
1
62
256
6
ByLayer
370
18
48
1
60
1
100
AcDbLine
10
-56.5
20
10
30
0
11
-56.039216
21
6.500002
31
0
39
0
210
0
220
0
230
1
0
LINE
5
12C
100
AcDbEntity
8
1
62
256
6
ByLayer
370
18
48
1
60
1
100
AcDbLine
10
-56.039216
20
6.500002
30
0
11
-56.960784
21
6.499998
31
0
39
0
210
0
220
0
230
1
0
LINE
5
12D
100
AcDbEntity
8
1
62
256
6
ByLayer
370
18
48
1
60
1
100
AcDbLine
10
-56.960784
20
6.499998
30
0
11
-56.5
21
10
31
0
39
0
210
0
220
0
230
1
0
LINE
5
12F
100
AcDbEntity
8
1
62
256
6
ByLayer
370
18
48
1
60
1
100
AcDbLine
10
-56.5
20
-10
30
0
11
-56.960784
21
-6.500002
31
0
39
0
210
0
220
0
230
1
0
LINE
5
130
100
AcDbEntity
8
1
62
256
6
ByLayer
370
18
48
1
60
1
100
AcDbLine
10
-56.960784
20
-6.500002
30
0
11
-56.039216
21
-6.499998
31
0
39
0
210
0
220
0
230
1
0
LINE
5
131
100
AcDbEntity
8
1
62
256
6
ByLayer
370
18
48
1
60
1
100
AcDbLine
10
-56.039216
20
-6.499998
30
0
11
-56.5
21
-10
31
0
39
0
210
0
220
0
230
1
0
LINE
5
135
100
AcDbEntity
8
1
62
256
6
ByLayer
370
18
48
1
60
1
100
AcDbLine
10
169
20
8
30
0
11
169.460784
21
4.500002
31
0
39
0
210
0
220
0
230
1
0
LINE
5
136
100
AcDbEntity
8
1
62
256
6
ByLayer
370
18
48
1
60
1
100
AcDbLine
10
169.460784
20
4.500002
30
0
11
168.539216
21
4.499998
31
0
39
0
210
0
220
0
230
1
0
LINE
5
137
100
AcDbEntity
8
1
62
256
6
ByLayer
370
18
48
1
60
1
100
AcDbLine
10
168.539216
20
4.499998
30
0
11
169
21
8
31
0
39
0
210
0
220
0
230
1
0
LINE
5
139
100
AcDbEntity
8
1
62
256
6
ByLayer
370
18
48
1
60
1
100
AcDbLine
10
169
20
-8
30
0
11
168.539216
21
-4.500002
31
0
39
0
210
0
220
0
230
1
0
LINE
5
13A
100
AcDbEntity
8
1
62
256
6
ByLayer
370
18
48
1
60
1
100
AcDbLine
10
168.539216
20
-4.500002
30
0
11
169.460784
21
-4.499998
31
0
39
0
210
0
220
0
230
1
0
LINE
5
13B
100
AcDbEntity
8
1
62
256
6
ByLayer
370
18
48
1
60
1
100
AcDbLine
10
169.460784
20
-4.499998
30
0
11
169
21
-8
31
0
39
0
210
0
220
0
230
1
0
LINE
5
13E
100
AcDbEntity
8
1
62
256
6
ByLayer
370
18
48
1
60
1
100
AcDbLine
10
167.998383
20
-17.85416
30
0
11
171.051575
21
-16.082064
31
0
39
0
210
0
220
0
230
1
0
LINE
5
13F
100
AcDbEntity
8
1
62
256
6
ByLayer
370
18
48
1
60
1
100
AcDbLine
10
171.051575
20
-16.082064
30
0
11
171.406196
21
-16.93267
31
0
39
0
210
0
220
0
230
1
0
LINE
5
140
100
AcDbEntity
8
1
62
256
6
ByLayer
370
18
48
1
60
1
100
AcDbLine
10
171.406196
20
-16.93267
30
0
11
167.998383
21
-17.85416
31
0
39
0
210
0
220
0
230
1
0
LINE
5
142
100
AcDbEntity
8
1
62
256
6
ByLayer
370
18
48
1
60
1
100
AcDbLine
10
167.998383
20
17.85416
30
0
11
171.406193
21
16.932671
31
0
39
0
210
0
220
0
230
1
0
LINE
5
143
100
AcDbEntity
8
1
62
256
6
ByLayer
370
18
48
1
60
1
100
AcDbLine
10
171.406193
20
16.932671
30
0
11
171.051579
21
16.082063
31
0
39
0
210
0
220
0
230
1
0
LINE
5
144
100
AcDbEntity
8
1
62
256
6
ByLayer
370
18
48
1
60
1
100
AcDbLine
10
171.051579
20
16.082063
30
0
11
167.998383
21
17.85416
31
0
39
0
210
0
220
0
230
1
0
MTEXT
5
127
100
AcDbEntity
8
SK2
62
256
6
ByLayer
370
18
48
1
60
0
100
AcDbMText
10
-57.841114
20
21.658438
30
0
210
0
220
0
230
1
1
%%c
40
3
41
0
44
1.084337
50
90
71
7
72
5
7
iso_b_vert
0
MTEXT
5
12A
100
AcDbEntity
8
SK2
62
256
6
ByLayer
370
18
48
1
60
0
100
AcDbMText
10
-57.841114
20
27.635
30
0
210
0
220
0
230
1
1
\W0.7513;20.000
40
3
41
0
44
1.084337
50
90
71
7
72
5
7
iso_b_vert
0
MTEXT
5
133
100
AcDbEntity
8
2
62
256
6
ByLayer
370
18
48
1
60
0
100
AcDbMText
10
167.658886
20
19.658438
30
0
210
0
220
0
230
1
1
%%c
40
3
41
0
44
1.084337
50
90
71
7
72
5
7
iso_b_vert
0
MTEXT
5
134
100
AcDbEntity
8
2
62
256
6
ByLayer
370
18
48
1
60
0
100
AcDbMText
10
167.658886
20
25.635
30
0
210
0
220
0
230
1
1
\W0.7022;16.000
40
3
41
0
44
1.084337
50
90
71
7
72
5
7
iso_b_vert
0
MTEXT
5
13D
100
AcDbEntity
8
SK2
62
256
6
ByLayer
370
18
48
1
60
0
100
AcDbMText
10
181.409114
20
3.734657
30
0
210
0
220
0
230
1
1
\W0.7071;140%%d
40
3
41
0
44
1.084337
50
270
71
7
72
5
7
iso_b_vert
0
MTEXT
5
146
100
AcDbEntity
8
SK6
62
256
6
ByLayer
370
18
48
1
60
0
100
AcDbMText
10
32.212746
20
-67.114886
30
0
210
0
220
0
230
1
1
\W0.7358;H85816.0
40
3
41
0
44
1.084337
50
0
71
7
72
5
7
iso_b_vert
0
HATCH
5
12E
100
AcDbEntity
8
SK2
62
256
6
ByLayer
370
13
48
1
60
0
100
AcDbHatch
10
0
20
0
30
0
210
0
220
0
230
1
2
ANSI31
70
0
71
0
91
1
92
5
93
3
72
1
10
-56.5
20
10
11
-56.0392162584472
21
6.50000169255318
72
1
10
-56.0392162584472
20
6.50000169255318
11
-56.9607837415528
21
6.49999830744682
72
1
10
-56.9607837415528
20
6.49999830744682
11
-56.5
21
10
97
0
75
0
76
1
52
0
41
0.0062
77
0
78
1
53
45
43
0
44
0
45
-0.0139193969876572
46
0.0139193969876572
79
0
47
0
98
1
10
0
20
0
0
HATCH
5
132
100
AcDbEntity
8
SK2
62
256
6
ByLayer
370
13
48
1
60
0
100
AcDbHatch
10
0
20
0
30
0
210
0
220
0
230
1
2
ANSI31
70
0
71
0
91
1
92
5
93
3
72
1
10
-56.5
20
-10
11
-56.9607837415528
21
-6.50000169255318
72
1
10
-56.9607837415528
20
-6.50000169255318
11
-56.0392162584472
21
-6.49999830744682
72
1
10
-56.0392162584472
20
-6.49999830744682
11
-56.5
21
-10
97
0
75
0
76
1
52
0
41
0.0062
77
0
78
1
53
45
43
0
44
0
45
-0.0139193969876572
46
0.0139193969876572
79
0
47
0
98
1
10
0
20
0
0
HATCH
5
138
100
AcDbEntity
8
2
62
256
6
ByLayer
370
13
48
1
60
0
100
AcDbHatch
10
0
20
0
30
0
210
0
220
0
230
1
2
ANSI31
70
0
71
0
91
1
92
5
93
3
72
1
10
169
20
8
11
169.460783741553
21
4.50000169255318
72
1
10
169.460783741553
20
4.50000169255318
11
168.539216258447
21
4.49999830744682
72
1
10
168.539216258447
20
4.49999830744682
11
169
21
8
97
0
75
0
76
1
52
0
41
0.0062
77
0
78
1
53
45
43
0
44
0
45
-0.0139193969876572
46
0.0139193969876572
79
0
47
0
98
1
10
0
20
0
0
HATCH
5
13C
100
AcDbEntity
8
2
62
256
6
ByLayer
370
13
48
1
60
0
100
AcDbHatch
10
0
20
0
30
0
210
0
220
0
230
1
2
ANSI31
70
0
71
0
91
1
92
5
93
3
72
1
10
169
20
-8
11
168.539216258447
21
-4.50000169255318
72
1
10
168.539216258447
20
-4.50000169255318
11
169.460783741553
21
-4.49999830744682
72
1
10
169.460783741553
20
-4.49999830744682
11
169
21
-8
97
0
75
0
76
1
52
0
41
0.0062
77
0
78
1
53
45
43
0
44
0
45
-0.0139193969876572
46
0.0139193969876572
79
0
47
0
98
1
10
0
20
0
0
HATCH
5
141
100
AcDbEntity
8
SK2
62
256
6
ByLayer
370
13
48
1
60
0
100
AcDbHatch
10
0
20
0
30
0
210
0
220
0
230
1
2
ANSI31
70
0
71
0
91
1
92
5
93
3
72
1
10
167.998382723188
20
-17.8541597949323
11
171.051575425693
21
-16.0820638240607
72
1
10
171.051575425693
20
-16.0820638240607
11
171.406195833975
21
-16.9326700737196
72
1
10
171.406195833975
20
-16.9326700737196
11
167.998382723188
21
-17.8541597949323
97
0
75
0
76
1
52
0
41
0.0062
77
0
78
1
53
45
43
0
44
0
45
-0.0139193969876572
46
0.0139193969876572
79
0
47
0
98
1
10
0
20
0
0
HATCH
5
145
100
AcDbEntity
8
SK2
62
256
6
ByLayer
370
13
48
1
60
0
100
AcDbHatch
10
0
20
0
30
0
210
0
220
0
230
1
2
ANSI31
70
0
71
0
91
1
92
5
93
3
72
1
10
167.998382723188
20
17.8541597949323
11
171.406192709519
21
16.9326713763016
72
1
10
171.406192709519
20
16.9326713763016
11
171.051578550149
21
16.0820625214787
72
1
10
171.051578550149
20
16.0820625214787
11
167.998382723188
21
17.8541597949323
97
0
75
0
76
1
52
0
41
0.0062
77
0
78
1
53
45
43
0
44
0
45
-0.0139193969876572
46
0.0139193969876572
79
0
47
0
98
1
10
0
20
0
0
DIMENSION
5
149
100
AcDbEntity
8
SK2
62
256
6
ByLayer
370
18
48
1
60
0
100
AcDbDimension
2
_U0
10
161.5
20
-46.681137
30
0
11
55.75
21
-46.681137
31
0
70
32
71
1
72
1
41
1
210
0
220
0
230
1
3
Standard
100
AcDbAlignedDimension
13
-50
23
-10
33
0
14
161.5
24
0
34
0
50
0
100
AcDbRotatedDimension
1001
ACAD
1000
DSTYLE
1002
{
1070
   371
1070
    13
1070
   372
1070
    13
1070
     3
1000

1070
   170
1070
     0
1070
   144
1040
1.0
1070
   277
1070
     2
1070
   284
1070
     8
1070
   278
1070
    46
1070
   146
1040
1.166667
1070
   345
1005
16
1070
   347
1005
16
1070
   346
1005
16
1070
   344
1005
0
1070
   343
1005
0
1070
   172
1070
     1
1070
    76
1070
     0
1070
    75
1070
     0
1070
   282
1070
     0
1070
   281
1070
     0
1070
    71
1070
     0
1070
    74
1070
     0
1070
   279
1070
     0
1070
   173
1070
     1
1070
   340
1005
128
1070
   271
1070
     2
1070
   272
1070
     3
1070
    77
1070
     1
1070
    73
1070
     1
1070
   171
1070
     3
1070
   274
1070
     4
1070
   177
1070
     2
1070
   176
1070
     2
1070
   178
1070
     2
1070
    78
1070
     8
1070
    48
1040
-0.1
1070
    41
1040
3.5
1070
   147
1040
1.5
1070
    42
1040
1.5875
1070
    44
1040
2.0
1070
   140
1040
3.0
1002
}
1001
ACAD_DSTYLE_DIM_LINETYPE
1070
   380
1005
16
1001
ACAD_DSTYLE_DIM_EXT1_LINETYPE
1070
   381
1005
16
1001
ACAD_DSTYLE_DIM_EXT2_LINETYPE
1070
   382
1005
16
0
DIMENSION
5
162
100
AcDbEntity
8
SK2
62
256
6
ByLayer
370
18
48
1
60
0
100
AcDbDimension
2
_U1
10
3
20
-36.681137
30
0
11
82.25
21
-36.681137
31
0
70
32
71
1
72
1
41
1
210
0
220
0
230
1
3
Standard
100
AcDbAlignedDimension
13
161.5
23
0
33
0
14
3
24
-8
34
0
50
0
100
AcDbRotatedDimension
1001
ACAD
1000
DSTYLE
1002
{
1070
   371
1070
    13
1070
   372
1070
    13
1070
     3
1000

1070
   170
1070
     0
1070
   144
1040
1.0
1070
   277
1070
     2
1070
   284
1070
     8
1070
   278
1070
    46
1070
   146
1040
1.166667
1070
   345
1005
16
1070
   347
1005
16
1070
   346
1005
16
1070
   344
1005
0
1070
   343
1005
0
1070
   172
1070
     1
1070
    76
1070
     0
1070
    75
1070
     0
1070
   282
1070
     0
1070
   281
1070
     0
1070
    71
1070
     0
1070
    74
1070
     0
1070
   279
1070
     0
1070
   173
1070
     1
1070
   340
1005
128
1070
   271
1070
     2
1070
   272
1070
     3
1070
    77
1070
     1
1070
    73
1070
     1
1070
   171
1070
     3
1070
   274
1070
     4
1070
   177
1070
     2
1070
   176
1070
     2
1070
   178
1070
     2
1070
    78
1070
     8
1070
    48
1040
-0.1
1070
    41
1040
3.5
1070
   147
1040
1.5
1070
    42
1040
1.5875
1070
    44
1040
2.0
1070
   140
1040
3.0
1002
}
1001
ACAD_DSTYLE_DIM_LINETYPE
1070
   380
1005
16
1001
ACAD_DSTYLE_DIM_EXT1_LINETYPE
1070
   381
1005
16
1001
ACAD_DSTYLE_DIM_EXT2_LINETYPE
1070
   382
1005
16
0
DIMENSION
5
17A
100
AcDbEntity
8
SK2
62
256
6
ByLayer
370
18
48
1
60
0
100
AcDbDimension
2
_U2
10
0
20
-36.681137
30
0
11
-25
21
-36.681137
31
0
70
32
71
1
72
1
41
1
210
0
220
0
230
1
3
Standard
100
AcDbAlignedDimension
13
-50
23
-10
33
0
14
0
24
-10
34
0
50
0
100
AcDbRotatedDimension
1001
ACAD
1000
DSTYLE
1002
{
1070
   371
1070
    13
1070
   372
1070
    13
1070
     3
1000

1070
   170
1070
     0
1070
   144
1040
1.0
1070
   277
1070
     2
1070
   284
1070
     8
1070
   278
1070
    46
1070
   146
1040
1.166667
1070
   345
1005
16
1070
   347
1005
16
1070
   346
1005
16
1070
   344
1005
0
1070
   343
1005
0
1070
   172
1070
     1
1070
    76
1070
     0
1070
    75
1070
     0
1070
   282
1070
     0
1070
   281
1070
     0
1070
    71
1070
     0
1070
    74
1070
     0
1070
   279
1070
     0
1070
   173
1070
     1
1070
   340
1005
128
1070
   271
1070
     2
1070
   272
1070
     3
1070
    77
1070
     1
1070
    73
1070
     1
1070
   171
1070
     3
1070
   274
1070
     4
1070
   177
1070
     2
1070
   176
1070
     2
1070
   178
1070
     2
1070
    78
1070
     8
1070
    48
1040
-0.1
1070
    41
1040
3.5
1070
   147
1040
1.5
1070
    42
1040
1.5875
1070
    44
1040
2.0
1070
   140
1040
3.0
1002
}
1001
ACAD_DSTYLE_DIM_LINETYPE
1070
   380
1005
16
1001
ACAD_DSTYLE_DIM_EXT1_LINETYPE
1070
   381
1005
16
1001
ACAD_DSTYLE_DIM_EXT2_LINETYPE
1070
   382
1005
16
0
DIMENSION
5
192
100
AcDbEntity
8
SK2
62
256
6
ByLayer
370
18
48
1
60
0
100
AcDbDimension
2
_U3
10
20
20
33.681137
30
0
11
90.75
21
33.681137
31
0
70
32
71
1
72
1
41
1
210
0
220
0
230
1
3
Standard
100
AcDbAlignedDimension
13
161.5
23
0
33
0
14
20
24
8
34
0
50
0
100
AcDbRotatedDimension
1001
ACAD
1000
DSTYLE
1002
{
1070
   371
1070
    13
1070
   372
1070
    13
1070
     3
1000

1070
   170
1070
     0
1070
   144
1040
1.0
1070
   277
1070
     2
1070
   284
1070
     8
1070
   278
1070
    46
1070
   146
1040
1.166667
1070
   345
1005
16
1070
   347
1005
16
1070
   346
1005
16
1070
   344
1005
0
1070
   343
1005
0
1070
   172
1070
     1
1070
    76
1070
     0
1070
    75
1070
     0
1070
   282
1070
     0
1070
   281
1070
     0
1070
    71
1070
     0
1070
    74
1070
     0
1070
   279
1070
     0
1070
   173
1070
     1
1070
   340
1005
128
1070
   271
1070
     2
1070
   272
1070
     3
1070
    77
1070
     1
1070
    73
1070
     1
1070
   171
1070
     3
1070
   274
1070
     4
1070
   177
1070
     2
1070
   176
1070
     2
1070
   178
1070
     2
1070
    78
1070
     8
1070
    48
1040
-0.1
1070
    41
1040
3.5
1070
   147
1040
1.5
1070
    42
1040
1.5875
1070
    44
1040
2.0
1070
   140
1040
3.0
1002
}
1001
ACAD_DSTYLE_DIM_LINETYPE
1070
   380
1005
16
1001
ACAD_DSTYLE_DIM_EXT1_LINETYPE
1070
   381
1005
16
1001
ACAD_DSTYLE_DIM_EXT2_LINETYPE
1070
   382
1005
16
0
ENDSEC
0
SECTION
2
OBJECTS
0
DICTIONARY
5
21a
330
0
100
AcDbDictionary
280
0
281
1
3
ACAD_GROUP
350
21b
3
ACAD_MLINESTYLE
350
21c
0
DICTIONARY
5
21b
330
0
100
AcDbDictionary
280
0
281
1
0
DICTIONARY
5
21c
330
0
100
AcDbDictionary
280
0
281
1
3
Standard
350
18
0
MLINESTYLE
5
18
330
21c
100
AcDbMlineStyle
2
Standard
70
0
3

62
256
51
90
52
90
71
2
49
-0.5
62
256
6
ByLayer
49
0.5
62
256
6
ByLayer
0
RASTERVARIABLES
5
208
330

100
AcDbRasterVariables
90
0
70
1
71
1
72
1
0
ENDSEC
0
EOF
