0
SECTION
2
HEADER
9
$ACADVER
1
AC1015
9
$DWGCODEPAGE
3
ANSI_1252
9
$HANDSEED
5
23f
9
$ANGBASE
50
0
9
$ANGDIR
70
0
9
$ATTMODE
70
1
9
$AUNITS
70
0
9
$AUPREC
70
0
9
$CECOLOR
62
256
9
$CELTSCALE
40
1
9
$CELTYPE
6
ByLayer
9
$CELWEIGHT
370
18
9
$CLAYER
8
0
9
$CMLJUST
70
0
9
$CMLSCALE
40
1
9
$CMLSTYLE
2
Standard
9
$DIMSTYLE
2
Standard
9
$TEXTSIZE
40
0.2
9
$TEXTSTYLE
7
Standard
9
$LUNITS
70
2
9
$LUPREC
70
4
9
$EXTNAMES
290
1
9
$INSUNITS
70
4
9
$LTSCALE
40
1
9
$LWDISPLAY
290
1
9
$PDMODE
70
0
9
$PDSIZE
40
0
9
$PLINEGEN
70
0
0
ENDSEC
0
SECTION
2
CLASSES
0
CLASS
1
RASTERVARIABLES
2
AcDbRasterVariables
3
ISM
90
0
280
0
281
0
0
ENDSEC
0
SECTION
2
TABLES
0
TABLE
2
VPORT
5
235
100
AcDbSymbolTable
0
VPORT
5
1
100
AcDbSymbolTableRecord
100
AcDbViewportTableRecord
2
*Active
70
0
10
0
20
0
11
1
21
1
12
-1
22
1
13
0
23
0
14
0.5
24
0.5
15
10
25
10
16
0
26
0
36
1
17
0
27
0
37
0
0
ENDTAB
0
TABLE
2
LTYPE
5
236
100
AcDbSymbolTable
0
LTYPE
5
14
100
AcDbSymbolTableRecord
100
AcDbLinetypeTableRecord
70
0
2
ByBlock
3

72
65
73
0
40
0
0
LTYPE
5
15
100
AcDbSymbolTableRecord
100
AcDbLinetypeTableRecord
70
0
2
ByLayer
3

72
65
73
0
40
0
0
LTYPE
5
16
100
AcDbSymbolTableRecord
100
AcDbLinetypeTableRecord
70
0
2
Continuous
3
Solid line
72
65
73
0
40
0
0
LTYPE
5
6E
100
AcDbSymbolTableRecord
100
AcDbLinetypeTableRecord
70
0
2
CENTER
3
____ _ ____ _ ____ _ ____
72
65
73
4
40
47.5
49
22
74
0
49
-8.5
74
0
49
8.5
74
0
49
-8.5
74
0
0
LTYPE
5
6F
100
AcDbSymbolTableRecord
100
AcDbLinetypeTableRecord
70
0
2
DASHED
3
__ __ __ __ __ __ __ __ __
72
65
73
2
40
25.72
49
12.86
74
0
49
-12.86
74
0
0
ENDTAB
0
TABLE
2
LAYER
5
237
100
AcDbSymbolTable
0
LAYER
5
10
100
AcDbSymbolTableRecord
100
AcDbLayerTableRecord
2
0
70
0
62
7
6
Continuous
290
1
370
-3
390
0
0
LAYER
5
71
100
AcDbSymbolTableRecord
100
AcDbLayerTableRecord
2
81
70
0
62
-3
6
Continuous
290
1
370
-3
390
0
0
LAYER
5
73
100
AcDbSymbolTableRecord
100
AcDbLayerTableRecord
2
80
70
0
62
-6
6
Continuous
290
1
370
-3
390
0
0
LAYER
5
75
100
AcDbSymbolTableRecord
100
AcDbLayerTableRecord
2
1
70
0
62
4
6
Continuous
290
1
370
-3
390
0
0
LAYER
5
80
100
AcDbSymbolTableRecord
100
AcDbLayerTableRecord
2
4
70
0
62
-2
6
CENTER
290
1
370
-3
390
0
0
LAYER
5
B0
100
AcDbSymbolTableRecord
100
AcDbLayerTableRecord
2
2
70
0
62
7
6
Continuous
290
1
370
-3
390
0
0
LAYER
5
164
100
AcDbSymbolTableRecord
100
AcDbLayerTableRecord
2
Defpoints
70
0
62
7
6
Continuous
290
0
370
-3
390
0
0
LAYER
5
221
100
AcDbSymbolTableRecord
100
AcDbLayerTableRecord
2
SK4
70
0
62
2
6
CENTER
290
1
370
-3
390
0
0
LAYER
5
222
100
AcDbSymbolTableRecord
100
AcDbLayerTableRecord
2
SK1
70
0
62
4
6
Continuous
290
1
370
-3
390
0
0
LAYER
5
223
100
AcDbSymbolTableRecord
100
AcDbLayerTableRecord
2
SK2
70
0
62
7
6
Continuous
290
1
370
-3
390
0
0
LAYER
5
224
100
AcDbSymbolTableRecord
100
AcDbLayerTableRecord
2
SK6
70
0
62
5
6
Continuous
290
1
370
-3
390
0
0
ENDTAB
0
TABLE
2
STYLE
5
238
100
AcDbSymbolTable
0
STYLE
5
11
100
AcDbSymbolTableRecord
100
AcDbTextStyleTableRecord
2
Standard
3
txt
70
0
71
0
40
0
41
1
42
0
50
0
0
STYLE
5
140
100
AcDbSymbolTableRecord
100
AcDbTextStyleTableRecord
2
iso_b_vert
3
simplex.shx
70
0
71
0
40
0
41
1
42
0
50
0
0
STYLE
5
141
100
AcDbSymbolTableRecord
100
AcDbTextStyleTableRecord
2
DWGDirectTextStyle
3
simplex
70
0
71
0
40
0
41
1
42
0
50
0
0
ENDTAB
0
TABLE
2
DIMSTYLE
5
239
100
AcDbSymbolTable
100
AcDbDimStyleTable
0
DIMSTYLE
105
27
100
AcDbSymbolTableRecord
100
AcDbDimStyleTableRecord
2
Standard
70
0
3
<>
41
0.18
42
0.0625
44
0.18
140
0.18
147
0.09
73
0
74
0
77
1
271
2
275
0
278
52
280
0
340
11
0
ENDTAB
0
TABLE
2
VIEW
5
23a
100
AcDbSymbolTable
0
ENDTAB
0
TABLE
2
UCS
5
23b
100
AcDbSymbolTable
0
ENDTAB
0
TABLE
2
APPID
5
23c
100
AcDbSymbolTable
0
APPID
5
12
100
AcDbSymbolTableRecord
100
AcDbRegAppTableRecord
2
ACAD
70
0
0
APPID
5
160
100
AcDbSymbolTableRecord
100
AcDbRegAppTableRecord
2
ACAD_DSTYLE_DIMBREAK
70
0
0
APPID
5
1E0
100
AcDbSymbolTableRecord
100
AcDbRegAppTableRecord
2
ACAD_DSTYLE_DIM_LINETYPE
70
0
0
APPID
5
1E1
100
AcDbSymbolTableRecord
100
AcDbRegAppTableRecord
2
ACAD_DSTYLE_DIM_EXT1_LINETYPE
70
0
0
APPID
5
1E2
100
AcDbSymbolTableRecord
100
AcDbRegAppTableRecord
2
ACAD_DSTYLE_DIM_EXT2_LINETYPE
70
0
0
APPID
5
21D
100
AcDbSymbolTableRecord
100
AcDbRegAppTableRecord
2
ACAD_MLEADERVER
70
0
0
ENDTAB
0
TABLE
2
BLOCK_RECORD
5
23d
100
AcDbSymbolTable
0
BLOCK_RECORD
5
1F
100
AcDbSymbolTableRecord
100
AcDbBlockTableRecord
2
*Model_Space
340
0
70
0
0
BLOCK_RECORD
5
1B
100
AcDbSymbolTableRecord
100
AcDbBlockTableRecord
2
*Paper_Space
340
0
70
0
0
BLOCK_RECORD
5
23
100
AcDbSymbolTableRecord
100
AcDbBlockTableRecord
2
*Paper_Space0
340
0
70
0
0
BLOCK_RECORD
5
165
100
AcDbSymbolTableRecord
100
AcDbBlockTableRecord
2
*D1
340
0
70
0
0
BLOCK_RECORD
5
171
100
AcDbSymbolTableRecord
100
AcDbBlockTableRecord
2
_U0
340
0
70
0
0
BLOCK_RECORD
5
17D
100
AcDbSymbolTableRecord
100
AcDbBlockTableRecord
2
*D3
340
0
70
0
0
BLOCK_RECORD
5
189
100
AcDbSymbolTableRecord
100
AcDbBlockTableRecord
2
_U1
340
0
70
0
0
BLOCK_RECORD
5
195
100
AcDbSymbolTableRecord
100
AcDbBlockTableRecord
2
*D5
340
0
70
0
0
BLOCK_RECORD
5
1A1
100
AcDbSymbolTableRecord
100
AcDbBlockTableRecord
2
_U2
340
0
70
0
0
BLOCK_RECORD
5
1AD
100
AcDbSymbolTableRecord
100
AcDbBlockTableRecord
2
*D7
340
0
70
0
0
BLOCK_RECORD
5
1B9
100
AcDbSymbolTableRecord
100
AcDbBlockTableRecord
2
_U3
340
0
70
0
0
ENDTAB
0
ENDSEC
0
SECTION
2
BLOCKS
0
BLOCK
5
20
100
AcDbEntity
8
0
100
AcDbBlockBegin
2
*Model_Space
70
0
10
0
20
0
30
0
3
*Model_Space
0
ENDBLK
5
21
100
AcDbEntity
8
0
100
AcDbBlockEnd
0
BLOCK
5
1C
100
AcDbEntity
8
0
100
AcDbBlockBegin
2
*Paper_Space
70
0
10
0
20
0
30
0
3
*Paper_Space
0
ENDBLK
5
1D
100
AcDbEntity
8
0
100
AcDbBlockEnd
0
BLOCK
5
24
100
AcDbEntity
8
0
100
AcDbBlockBegin
2
*Paper_Space0
70
0
10
0
20
0
30
0
3
*Paper_Space0
0
ENDBLK
5
25
100
AcDbEntity
8
0
100
AcDbBlockEnd
0
BLOCK
5
166
100
AcDbEntity
8
0
100
AcDbBlockBegin
2
*D1
70
1
10
0
20
0
30
0
3
*D1
0
LINE
5
168
100
AcDbEntity
8
0
62
256
6
ByLayer
370
-2
48
1
60
0
100
AcDbLine
10
-56
20
-14.2875
30
0
11
-56
21
-47.952229
31
0
39
0
210
0
220
0
230
1
0
LINE
5
169
100
AcDbEntity
8
0
62
256
6
ByLayer
370
-2
48
1
60
0
100
AcDbLine
10
154.5
20
-1.5875
30
0
11
154.5
21
-47.952229
31
0
39
0
210
0
220
0
230
1
0
LINE
5
16A
100
AcDbEntity
8
0
62
256
6
ByLayer
370
-2
48
1
60
0
100
AcDbLine
10
-52.5
20
-45.952229
30
0
11
151
21
-45.952229
31
0
39
0
210
0
220
0
230
1
0
SOLID
5
16B
100
AcDbEntity
8
0
62
256
6
ByLayer
370
-1
48
1
60
0
100
AcDbTrace
10
-52.5
20
-45.368896
30
0
11
-52.5
21
-46.535563
31
0
12
-56
22
-45.952229
32
0
13
-56
23
-45.952229
33
0
39
0
210
0
220
0
230
1
0
SOLID
5
16C
100
AcDbEntity
8
0
62
256
6
ByLayer
370
-1
48
1
60
0
100
AcDbTrace
10
151
20
-46.535563
30
0
11
151
21
-45.368896
31
0
12
154.5
22
-45.952229
32
0
13
154.5
23
-45.952229
33
0
39
0
210
0
220
0
230
1
0
MTEXT
5
16D
100
AcDbEntity
8
0
62
256
6
ByLayer
370
18
48
1
60
0
100
AcDbMText
10
49.25
20
-39.952229
30
0
210
0
220
0
230
1
1
\A1;210.5
40
3
41
0
44
1
50
0
71
5
72
5
7
iso_b_vert
0
POINT
5
16E
100
AcDbEntity
8
Defpoints
62
0
6
ByLayer
370
-1
48
1
60
0
100
AcDbPoint
10
-56
20
-12.7
30
0
39
0
210
0
220
0
230
1
50
360
0
POINT
5
16F
100
AcDbEntity
8
Defpoints
62
0
6
ByLayer
370
-1
48
1
60
0
100
AcDbPoint
10
154.5
20
0
30
0
39
0
210
0
220
0
230
1
50
360
0
POINT
5
170
100
AcDbEntity
8
Defpoints
62
0
6
ByLayer
370
-1
48
1
60
0
100
AcDbPoint
10
154.5
20
-45.952229
30
0
39
0
210
0
220
0
230
1
50
360
0
ENDBLK
5
167
100
AcDbEntity
8
0
100
AcDbBlockEnd
0
BLOCK
5
178
100
AcDbEntity
8
0
100
AcDbBlockBegin
2
_U0
70
0
10
0
20
0
30
0
3
_U0
0
MTEXT
5
172
100
AcDbEntity
8
SK2
62
256
6
ByLayer
370
18
48
1
60
0
100
AcDbMText
10
44.021658
20
-45.067115
30
0
210
0
220
0
230
1
1
\W0.7022;210.50
40
3
41
0
44
1.084337
50
0
71
7
72
5
7
iso_b_vert
0
LINE
5
173
100
AcDbEntity
8
SK2
62
256
6
ByLayer
370
13
48
1
60
0
100
AcDbLine
10
-56
20
-14.2875
30
0
11
-56
21
-47.952229
31
0
39
0
210
0
220
0
230
1
0
LINE
5
174
100
AcDbEntity
8
SK2
62
256
6
ByLayer
370
13
48
1
60
0
100
AcDbLine
10
154.5
20
-1.5875
30
0
11
154.5
21
-47.952229
31
0
39
0
210
0
220
0
230
1
0
LINE
5
175
100
AcDbEntity
8
SK2
62
256
6
ByLayer
370
13
48
1
60
0
100
AcDbLine
10
-56
20
-45.952229
30
0
11
154.5
21
-45.952229
31
0
39
0
210
0
220
0
230
1
0
SOLID
5
176
100
AcDbEntity
8
SK2
62
256
6
ByLayer
370
18
48
1
60
0
100
AcDbTrace
10
-56
20
-45.952229
30
0
11
-52.500002
21
-45.491446
31
0
12
-52.499998
22
-46.413013
32
0
13
-52.499998
23
-46.413013
33
0
39
0
210
0
220
0
230
1
0
SOLID
5
177
100
AcDbEntity
8
SK2
62
256
6
ByLayer
370
18
48
1
60
0
100
AcDbTrace
10
154.5
20
-45.952229
30
0
11
151.000002
21
-46.413013
31
0
12
150.999998
22
-45.491446
32
0
13
150.999998
23
-45.491446
33
0
39
0
210
0
220
0
230
1
0
ENDBLK
5
179
100
AcDbEntity
8
0
100
AcDbBlockEnd
0
BLOCK
5
17E
100
AcDbEntity
8
0
100
AcDbBlockBegin
2
*D3
70
1
10
0
20
0
30
0
3
*D3
0
LINE
5
180
100
AcDbEntity
8
0
62
256
6
ByLayer
370
-2
48
1
60
0
100
AcDbLine
10
154.5
20
-1.5875
30
0
11
154.5
21
-37.952229
31
0
39
0
210
0
220
0
230
1
0
LINE
5
181
100
AcDbEntity
8
0
62
256
6
ByLayer
370
-2
48
1
60
0
100
AcDbLine
10
3
20
-13.2955
30
0
11
3
21
-37.952229
31
0
39
0
210
0
220
0
230
1
0
LINE
5
182
100
AcDbEntity
8
0
62
256
6
ByLayer
370
-2
48
1
60
0
100
AcDbLine
10
151
20
-35.952229
30
0
11
6.5
21
-35.952229
31
0
39
0
210
0
220
0
230
1
0
SOLID
5
183
100
AcDbEntity
8
0
62
256
6
ByLayer
370
-1
48
1
60
0
100
AcDbTrace
10
151
20
-36.535563
30
0
11
151
21
-35.368896
31
0
12
154.5
22
-35.952229
32
0
13
154.5
23
-35.952229
33
0
39
0
210
0
220
0
230
1
0
SOLID
5
184
100
AcDbEntity
8
0
62
256
6
ByLayer
370
-1
48
1
60
0
100
AcDbTrace
10
6.5
20
-35.368896
30
0
11
6.5
21
-36.535563
31
0
12
3
22
-35.952229
32
0
13
3
23
-35.952229
33
0
39
0
210
0
220
0
230
1
0
MTEXT
5
185
100
AcDbEntity
8
0
62
256
6
ByLayer
370
18
48
1
60
0
100
AcDbMText
10
78.75
20
-29.952229
30
0
210
0
220
0
230
1
1
\A1;151.5
40
3
41
0
44
1
50
0
71
5
72
5
7
iso_b_vert
0
POINT
5
186
100
AcDbEntity
8
Defpoints
62
0
6
ByLayer
370
-1
48
1
60
0
100
AcDbPoint
10
154.5
20
0
30
0
39
0
210
0
220
0
230
1
50
360
0
POINT
5
187
100
AcDbEntity
8
Defpoints
62
0
6
ByLayer
370
-1
48
1
60
0
100
AcDbPoint
10
3
20
-11.708
30
0
39
0
210
0
220
0
230
1
50
360
0
POINT
5
188
100
AcDbEntity
8
Defpoints
62
0
6
ByLayer
370
-1
48
1
60
0
100
AcDbPoint
10
3
20
-35.952229
30
0
39
0
210
0
220
0
230
1
50
360
0
ENDBLK
5
17F
100
AcDbEntity
8
0
100
AcDbBlockEnd
0
BLOCK
5
190
100
AcDbEntity
8
0
100
AcDbBlockBegin
2
_U1
70
0
10
0
20
0
30
0
3
_U1
0
MTEXT
5
18A
100
AcDbEntity
8
SK2
62
256
6
ByLayer
370
18
48
1
60
0
100
AcDbMText
10
73.896601
20
-35.067115
30
0
210
0
220
0
230
1
1
\W0.6532;151.50
40
3
41
0
44
1.084337
50
0
71
7
72
5
7
iso_b_vert
0
LINE
5
18B
100
AcDbEntity
8
SK2
62
256
6
ByLayer
370
13
48
1
60
0
100
AcDbLine
10
154.5
20
-1.5875
30
0
11
154.5
21
-37.952229
31
0
39
0
210
0
220
0
230
1
0
LINE
5
18C
100
AcDbEntity
8
SK2
62
256
6
ByLayer
370
13
48
1
60
0
100
AcDbLine
10
3
20
-13.2955
30
0
11
3
21
-37.952229
31
0
39
0
210
0
220
0
230
1
0
LINE
5
18D
100
AcDbEntity
8
SK2
62
256
6
ByLayer
370
13
48
1
60
0
100
AcDbLine
10
154.5
20
-35.952229
30
0
11
3
21
-35.952229
31
0
39
0
210
0
220
0
230
1
0
SOLID
5
18E
100
AcDbEntity
8
SK2
62
256
6
ByLayer
370
18
48
1
60
0
100
AcDbTrace
10
154.5
20
-35.952229
30
0
11
151.000002
21
-36.413013
31
0
12
150.999998
22
-35.491446
32
0
13
150.999998
23
-35.491446
33
0
39
0
210
0
220
0
230
1
0
SOLID
5
18F
100
AcDbEntity
8
SK2
62
256
6
ByLayer
370
18
48
1
60
0
100
AcDbTrace
10
3
20
-35.952229
30
0
11
6.499998
21
-35.491446
31
0
12
6.500002
22
-36.413013
32
0
13
6.500002
23
-36.413013
33
0
39
0
210
0
220
0
230
1
0
ENDBLK
5
191
100
AcDbEntity
8
0
100
AcDbBlockEnd
0
BLOCK
5
196
100
AcDbEntity
8
0
100
AcDbBlockBegin
2
*D5
70
1
10
0
20
0
30
0
3
*D5
0
LINE
5
198
100
AcDbEntity
8
0
62
256
6
ByLayer
370
-2
48
1
60
0
100
AcDbLine
10
-56
20
-14.2875
30
0
11
-56
21
-37.952229
31
0
39
0
210
0
220
0
230
1
0
LINE
5
199
100
AcDbEntity
8
0
62
256
6
ByLayer
370
-2
48
1
60
0
100
AcDbLine
10
0
20
-14.2875
30
0
11
0
21
-37.952229
31
0
39
0
210
0
220
0
230
1
0
LINE
5
19A
100
AcDbEntity
8
0
62
256
6
ByLayer
370
-2
48
1
60
0
100
AcDbLine
10
-52.5
20
-35.952229
30
0
11
-3.5
21
-35.952229
31
0
39
0
210
0
220
0
230
1
0
SOLID
5
19B
100
AcDbEntity
8
0
62
256
6
ByLayer
370
-1
48
1
60
0
100
AcDbTrace
10
-52.5
20
-35.368896
30
0
11
-52.5
21
-36.535563
31
0
12
-56
22
-35.952229
32
0
13
-56
23
-35.952229
33
0
39
0
210
0
220
0
230
1
0
SOLID
5
19C
100
AcDbEntity
8
0
62
256
6
ByLayer
370
-1
48
1
60
0
100
AcDbTrace
10
-3.5
20
-36.535563
30
0
11
-3.5
21
-35.368896
31
0
12
0
22
-35.952229
32
0
13
0
23
-35.952229
33
0
39
0
210
0
220
0
230
1
0
MTEXT
5
19D
100
AcDbEntity
8
0
62
256
6
ByLayer
370
18
48
1
60
0
100
AcDbMText
10
-28
20
-29.952229
30
0
210
0
220
0
230
1
1
\A1;56
40
3
41
0
44
1
50
0
71
5
72
5
7
iso_b_vert
0
POINT
5
19E
100
AcDbEntity
8
Defpoints
62
0
6
ByLayer
370
-1
48
1
60
0
100
AcDbPoint
10
-56
20
-12.7
30
0
39
0
210
0
220
0
230
1
50
360
0
POINT
5
19F
100
AcDbEntity
8
Defpoints
62
0
6
ByLayer
370
-1
48
1
60
0
100
AcDbPoint
10
0
20
-12.7
30
0
39
0
210
0
220
0
230
1
50
360
0
POINT
5
1A0
100
AcDbEntity
8
Defpoints
62
0
6
ByLayer
370
-1
48
1
60
0
100
AcDbPoint
10
0
20
-35.952229
30
0
39
0
210
0
220
0
230
1
50
360
0
ENDBLK
5
197
100
AcDbEntity
8
0
100
AcDbBlockEnd
0
BLOCK
5
1A8
100
AcDbEntity
8
0
100
AcDbBlockBegin
2
_U2
70
0
10
0
20
0
30
0
3
_U2
0
MTEXT
5
1A2
100
AcDbEntity
8
SK2
62
256
6
ByLayer
370
18
48
1
60
0
100
AcDbMText
10
-32.48237
20
-35.067115
30
0
210
0
220
0
230
1
1
\W0.7468;56.00
40
3
41
0
44
1.084337
50
0
71
7
72
5
7
iso_b_vert
0
LINE
5
1A3
100
AcDbEntity
8
SK2
62
256
6
ByLayer
370
13
48
1
60
0
100
AcDbLine
10
-56
20
-14.2875
30
0
11
-56
21
-37.952229
31
0
39
0
210
0
220
0
230
1
0
LINE
5
1A4
100
AcDbEntity
8
SK2
62
256
6
ByLayer
370
13
48
1
60
0
100
AcDbLine
10
0
20
-14.2875
30
0
11
0
21
-37.952229
31
0
39
0
210
0
220
0
230
1
0
LINE
5
1A5
100
AcDbEntity
8
SK2
62
256
6
ByLayer
370
13
48
1
60
0
100
AcDbLine
10
-56
20
-35.952229
30
0
11
0
21
-35.952229
31
0
39
0
210
0
220
0
230
1
0
SOLID
5
1A6
100
AcDbEntity
8
SK2
62
256
6
ByLayer
370
18
48
1
60
0
100
AcDbTrace
10
-56
20
-35.952229
30
0
11
-52.500002
21
-35.491446
31
0
12
-52.499998
22
-36.413013
32
0
13
-52.499998
23
-36.413013
33
0
39
0
210
0
220
0
230
1
0
SOLID
5
1A7
100
AcDbEntity
8
SK2
62
256
6
ByLayer
370
18
48
1
60
0
100
AcDbTrace
10
0
20
-35.952229
30
0
11
-3.499998
21
-36.413013
31
0
12
-3.500002
22
-35.491446
32
0
13
-3.500002
23
-35.491446
33
0
39
0
210
0
220
0
230
1
0
ENDBLK
5
1A9
100
AcDbEntity
8
0
100
AcDbBlockEnd
0
BLOCK
5
1AE
100
AcDbEntity
8
0
100
AcDbBlockBegin
2
*D7
70
1
10
0
20
0
30
0
3
*D7
0
LINE
5
1B0
100
AcDbEntity
8
0
62
256
6
ByLayer
370
-2
48
1
60
0
100
AcDbLine
10
154.5
20
1.5875
30
0
11
154.5
21
34.952229
31
0
39
0
210
0
220
0
230
1
0
LINE
5
1B1
100
AcDbEntity
8
0
62
256
6
ByLayer
370
-2
48
1
60
0
100
AcDbLine
10
25
20
13.2955
30
0
11
25
21
34.952229
31
0
39
0
210
0
220
0
230
1
0
LINE
5
1B2
100
AcDbEntity
8
0
62
256
6
ByLayer
370
-2
48
1
60
0
100
AcDbLine
10
151
20
32.952229
30
0
11
28.5
21
32.952229
31
0
39
0
210
0
220
0
230
1
0
SOLID
5
1B3
100
AcDbEntity
8
0
62
256
6
ByLayer
370
-1
48
1
60
0
100
AcDbTrace
10
151
20
32.368896
30
0
11
151
21
33.535563
31
0
12
154.5
22
32.952229
32
0
13
154.5
23
32.952229
33
0
39
0
210
0
220
0
230
1
0
SOLID
5
1B4
100
AcDbEntity
8
0
62
256
6
ByLayer
370
-1
48
1
60
0
100
AcDbTrace
10
28.5
20
33.535563
30
0
11
28.5
21
32.368896
31
0
12
25
22
32.952229
32
0
13
25
23
32.952229
33
0
39
0
210
0
220
0
230
1
0
MTEXT
5
1B5
100
AcDbEntity
8
0
62
256
6
ByLayer
370
18
48
1
60
0
100
AcDbMText
10
89.75
20
38.952229
30
0
210
0
220
0
230
1
1
\A1;129.5
40
3
41
0
44
1
50
0
71
5
72
5
7
iso_b_vert
0
POINT
5
1B6
100
AcDbEntity
8
Defpoints
62
0
6
ByLayer
370
-1
48
1
60
0
100
AcDbPoint
10
154.5
20
0
30
0
39
0
210
0
220
0
230
1
50
360
0
POINT
5
1B7
100
AcDbEntity
8
Defpoints
62
0
6
ByLayer
370
-1
48
1
60
0
100
AcDbPoint
10
25
20
11.708
30
0
39
0
210
0
220
0
230
1
50
360
0
POINT
5
1B8
100
AcDbEntity
8
Defpoints
62
0
6
ByLayer
370
-1
48
1
60
0
100
AcDbPoint
10
25
20
32.952229
30
0
39
0
210
0
220
0
230
1
50
360
0
ENDBLK
5
1AF
100
AcDbEntity
8
0
100
AcDbBlockEnd
0
BLOCK
5
1C0
100
AcDbEntity
8
0
100
AcDbBlockBegin
2
_U3
70
0
10
0
20
0
30
0
3
_U3
0
MTEXT
5
1BA
100
AcDbEntity
8
SK2
62
256
6
ByLayer
370
18
48
1
60
0
100
AcDbMText
10
84.521658
20
33.837344
30
0
210
0
220
0
230
1
1
\W0.7022;129.50
40
3
41
0
44
1.084337
50
0
71
7
72
5
7
iso_b_vert
0
LINE
5
1BB
100
AcDbEntity
8
SK2
62
256
6
ByLayer
370
13
48
1
60
0
100
AcDbLine
10
154.5
20
1.5875
30
0
11
154.5
21
34.952229
31
0
39
0
210
0
220
0
230
1
0
LINE
5
1BC
100
AcDbEntity
8
SK2
62
256
6
ByLayer
370
13
48
1
60
0
100
AcDbLine
10
25
20
13.2955
30
0
11
25
21
34.952229
31
0
39
0
210
0
220
0
230
1
0
LINE
5
1BD
100
AcDbEntity
8
SK2
62
256
6
ByLayer
370
13
48
1
60
0
100
AcDbLine
10
154.5
20
32.952229
30
0
11
25
21
32.952229
31
0
39
0
210
0
220
0
230
1
0
SOLID
5
1BE
100
AcDbEntity
8
SK2
62
256
6
ByLayer
370
18
48
1
60
0
100
AcDbTrace
10
154.5
20
32.952229
30
0
11
151.000002
21
32.491446
31
0
12
150.999998
22
33.413013
32
0
13
150.999998
23
33.413013
33
0
39
0
210
0
220
0
230
1
0
SOLID
5
1BF
100
AcDbEntity
8
SK2
62
256
6
ByLayer
370
18
48
1
60
0
100
AcDbTrace
10
25
20
32.952229
30
0
11
28.499998
21
33.413013
31
0
12
28.500002
22
32.491446
32
0
13
28.500002
23
32.491446
33
0
39
0
210
0
220
0
230
1
0
ENDBLK
5
1C1
100
AcDbEntity
8
0
100
AcDbBlockEnd
0
ENDSEC
0
SECTION
2
ENTITIES
0
ARC
5
C1
100
AcDbEntity
8
SK2
62
256
6
ByLayer
370
13
48
1
60
0
100
AcDbCircle
39
0
10
154.5
20
0
30
0
40
19
210
0
220
0
230
1
100
AcDbArc
50
290
51
70
0
ELLIPSE
5
C2
100
AcDbEntity
8
SK1
62
256
6
ByLayer
370
18
48
1
60
0
100
AcDbEllipse
10
-20.619083
20
0
30
0
11
13.6190826173124
21
-1.54317782980885E-14
31
0
210
0
220
0
230
1
40
0.932515
41
-0.624896586633934
42
0.624896586633934
0
ELLIPSE
5
C3
100
AcDbEntity
8
SK1
62
256
6
ByLayer
370
18
48
1
60
0
100
AcDbEllipse
10
-37.157058
20
0
30
0
11
-2.33287510403163E-15
21
-12.7
31
0
210
0
220
0
230
1
40
0.932515
41
-2.1956929134288
42
-0.945899740160989
0
POINT
5
70
100
AcDbEntity
8
81
62
256
6
ByLayer
370
18
48
1
60
0
100
AcDbPoint
10
154.5
20
0
30
0
39
0
210
0
220
0
230
1
50
360
0
POINT
5
72
100
AcDbEntity
8
80
62
256
6
ByLayer
370
18
48
1
60
0
100
AcDbPoint
10
0
20
0
30
0
39
0
210
0
220
0
230
1
50
360
0
POINT
5
74
100
AcDbEntity
8
1
62
256
6
ByLayer
370
18
48
1
60
1
100
AcDbPoint
10
-56
20
-12.7
30
0
39
0
210
0
220
0
230
1
50
360
0
POINT
5
76
100
AcDbEntity
8
1
62
256
6
ByLayer
370
18
48
1
60
1
100
AcDbPoint
10
154.5
20
0
30
0
39
0
210
0
220
0
230
1
50
360
0
POINT
5
77
100
AcDbEntity
8
1
62
256
6
ByLayer
370
18
48
1
60
1
100
AcDbPoint
10
154.5
20
0
30
0
39
0
210
0
220
0
230
1
50
360
0
POINT
5
78
100
AcDbEntity
8
1
62
256
6
ByLayer
370
18
48
1
60
1
100
AcDbPoint
10
3
20
-11.708
30
0
39
0
210
0
220
0
230
1
50
360
0
POINT
5
79
100
AcDbEntity
8
1
62
256
6
ByLayer
370
18
48
1
60
1
100
AcDbPoint
10
-56
20
-12.7
30
0
39
0
210
0
220
0
230
1
50
360
0
POINT
5
7A
100
AcDbEntity
8
1
62
256
6
ByLayer
370
18
48
1
60
1
100
AcDbPoint
10
0
20
-12.7
30
0
39
0
210
0
220
0
230
1
50
360
0
POINT
5
7B
100
AcDbEntity
8
1
62
256
6
ByLayer
370
18
48
1
60
1
100
AcDbPoint
10
154.5
20
0
30
0
39
0
210
0
220
0
230
1
50
360
0
POINT
5
7C
100
AcDbEntity
8
1
62
256
6
ByLayer
370
18
48
1
60
1
100
AcDbPoint
10
25
20
11.708
30
0
39
0
210
0
220
0
230
1
50
360
0
SPLINE
5
C4
100
AcDbEntity
8
1
62
256
6
ByLayer
370
18
48
1
60
0
100
AcDbSpline
70
4
71
3
72
26
73
22
40
0
40
0
40
0
40
0
40
0.124999999999997
40
0.124999999999997
40
0.249999999999994
40
0.249999999999994
40
0.374999999999991
40
0.374999999999991
40
0.43749999999999
40
0.43749999999999
40
0.453124999999989
40
0.453124999999989
40
0.468749999999989
40
0.499999999999993
40
0.624999999999995
40
0.624999999999995
40
0.749999999999997
40
0.749999999999997
40
0.874999999999998
40
0.874999999999998
40
1
40
1
40
1
40
1
41
1
10
10
20
-8.0393666406722
30
0
41
1
10
10.3630538169502
20
-7.97633563572077
30
0
41
1
10
10.7275313668062
20
-7.92561911189671
30
0
41
1
10
11.4591295837129
20
-7.84835838386459
30
0
41
1
10
11.8262516641401
20
-7.82182109764594
30
0
41
1
10
12.563005641752
20
-7.79235188961385
30
0
41
1
10
12.9326386748062
20
-7.78942726614437
30
0
41
1
10
13.4888932435725
20
-7.80206788828258
30
0
41
1
10
13.6746124044748
20
-7.80911605100829
30
0
41
1
10
13.9071294670655
20
-7.82136694893086
30
0
41
1
10
13.9536746164926
20
-7.82399054905883
30
0
41
1
10
14.0466404866769
20
-7.82956867138373
30
0
41
1
10
14.1859272020711
20
-7.83843292868218
30
0
41
1
10
14.6948889381972
20
-7.8763001609662
30
0
41
1
10
15.1524198845625
20
-7.92638694901709
30
0
41
1
10
15.8786671080888
20
-8.02326076859805
30
0
41
1
10
16.2388883218541
20
-8.08006321160855
30
0
41
1
10
16.9543525886136
20
-8.20684524286426
30
0
41
1
10
17.3095967958322
20
-8.27681635753456
30
0
41
1
10
18.0159609011193
20
-8.42627926445567
30
0
41
1
10
18.3670846805518
20
-8.50575690581962
30
0
41
1
10
18.7165504723198
20
-8.58829061856233
30
0
0
SPLINE
5
C5
100
AcDbEntity
8
1
62
256
6
ByLayer
370
18
48
1
60
0
100
AcDbSpline
70
4
71
3
72
14
73
10
40
0
40
0
40
0
40
0
40
0.25
40
0.25
40
0.5
40
0.5
40
0.75
40
0.75
40
1
40
1
40
1
40
1
41
1
10
13.64155229537
20
9.18156322119836
30
0
41
1
10
13.3301871996044
20
9.24752094224061
30
0
41
1
10
13.0211742900724
20
9.31520359857922
30
0
41
1
10
12.4070632554283
20
9.45219052082345
30
0
41
1
10
12.1019615677505
20
9.52149365268838
30
0
41
1
10
11.4952636355605
20
9.66048155364876
30
0
41
1
10
11.193666250784
20
9.73017024057688
30
0
41
1
10
10.5940323251099
20
9.86924862668019
30
0
41
1
10
10.2959971567418
20
9.93864631235806
30
0
41
1
10
10
20
10.0077416200402
30
0
0
SPLINE
5
C6
100
AcDbEntity
8
1
62
256
6
ByLayer
370
18
48
1
60
0
100
AcDbSpline
70
4
71
3
72
14
73
10
40
0
40
0
40
0
40
0
40
0.25
40
0.25
40
0.5
40
0.5
40
0.75
40
0.75
40
1
40
1
40
1
40
1
41
1
10
13.64155229537
20
-9.18156322119839
30
0
41
1
10
13.3301871996044
20
-9.24752094224064
30
0
41
1
10
13.0211742900724
20
-9.31520359857922
30
0
41
1
10
12.4070632554283
20
-9.45219052082345
30
0
41
1
10
12.1019615677505
20
-9.52149365268838
30
0
41
1
10
11.4952636355605
20
-9.66048155364876
30
0
41
1
10
11.193666250784
20
-9.73017024057688
30
0
41
1
10
10.5940323251099
20
-9.86924862668022
30
0
41
1
10
10.2959971567418
20
-9.93864631235809
30
0
41
1
10
10
20
-10.0077416200403
30
0
0
SPLINE
5
C7
100
AcDbEntity
8
1
62
256
6
ByLayer
370
18
48
1
60
0
100
AcDbSpline
70
4
71
3
72
10
73
6
40
0
40
0
40
0
40
0
40
0.129961749435109
40
0.129961749435109
40
1
40
1
40
1
40
1
41
1
10
17.5043699455255
20
8.31838354853483
30
0
41
1
10
17.5572198717098
20
8.32932804264692
30
0
41
1
10
17.6100223663317
20
8.34038481853673
30
0
41
1
10
18.0159609011193
20
8.42627926445567
30
0
41
1
10
18.3670846805518
20
8.50575690581962
30
0
41
1
10
18.7165504723198
20
8.58829061856233
30
0
0
SPLINE
5
C8
100
AcDbEntity
8
1
62
256
6
ByLayer
370
18
48
1
60
0
100
AcDbSpline
70
4
71
3
72
22
73
18
40
0
40
0
40
0
40
0
40
0.124999999999999
40
0.124999999999999
40
0.187500000000002
40
0.187500000000002
40
0.250000000000005
40
0.250000000000005
40
0.500000000000003
40
0.500000000000003
40
0.750000000000002
40
0.750000000000002
40
0.8125
40
0.8125
40
0.874999999999997
40
0.874999999999997
40
1
40
1
40
1
40
1
41
1
10
150.238636497218
20
-1.67288862584755
30
0
41
1
10
149.78640490866
20
-1.51028230883068
30
0
41
1
10
149.334432713371
20
-1.34704732474194
30
0
41
1
10
148.656908987233
20
-1.10112715919894
30
0
41
1
10
148.431144917196
20
-1.01896271391141
30
0
41
1
10
147.979747851679
20
-0.854316406273227
30
0
41
1
10
147.75407893511
20
-0.77193392404385
30
0
41
1
10
146.625573219884
20
-0.36057919020638
30
0
41
1
10
145.722524649852
20
-0.0325276299360269
30
0
41
1
10
143.916293163199
20
0.622500737455908
30
0
41
1
10
143.013102223859
20
0.949455521812411
30
0
41
1
10
141.884311857672
20
1.35824954455279
30
0
41
1
10
141.658563655088
20
1.44001318845625
30
0
41
1
10
141.207094033027
20
1.60356915729602
30
0
41
1
10
140.98139222502
20
1.68541537287058
30
0
41
1
10
140.30404240326
20
1.93021410653384
30
0
41
1
10
139.852164725761
20
2.09246750656086
30
0
41
1
10
139.4
20
2.25384236884969
30
0
0
SPLINE
5
C9
100
AcDbEntity
8
1
62
256
6
ByLayer
370
18
48
1
60
0
100
AcDbSpline
70
4
71
3
72
94
73
90
40
0
40
0
40
0
40
0
40
0.0312499999999976
40
0.0312499999999976
40
0.0624999999999952
40
0.0624999999999952
40
0.0937499999999928
40
0.0937499999999928
40
0.12499999999999
40
0.12499999999999
40
0.14062499999999
40
0.14062499999999
40
0.14843749999999
40
0.14843749999999
40
0.156249999999989
40
0.18749999999999
40
0.18749999999999
40
0.218749999999991
40
0.218749999999991
40
0.249999999999992
40
0.249999999999992
40
0.281249999999993
40
0.281249999999993
40
0.296874999999994
40
0.296874999999994
40
0.304687499999993
40
0.304687499999993
40
0.312499999999993
40
0.312499999999993
40
0.343749999999992
40
0.343749999999992
40
0.374999999999991
40
0.374999999999991
40
0.406249999999989
40
0.406249999999989
40
0.437499999999988
40
0.437499999999988
40
0.445312499999988
40
0.445312499999988
40
0.453124999999988
40
0.468749999999989
40
0.468749999999989
40
0.499999999999989
40
0.499999999999989
40
0.53124999999999
40
0.53124999999999
40
0.53906249999999
40
0.53906249999999
40
0.54687499999999
40
0.56249999999999
40
0.56249999999999
40
0.59374999999999
40
0.59374999999999
40
0.624999999999989
40
0.624999999999989
40
0.632812499999989
40
0.632812499999989
40
0.64062499999999
40
0.65624999999999
40
0.65624999999999
40
0.68749999999999
40
0.68749999999999
40
0.718749999999989
40
0.718749999999989
40
0.726562499999989
40
0.726562499999989
40
0.734374999999989
40
0.734374999999989
40
0.74999999999999
40
0.74999999999999
40
0.781249999999991
40
0.781249999999991
40
0.812499999999991
40
0.812499999999991
40
0.843749999999993
40
0.843749999999993
40
0.851562499999992
40
0.851562499999992
40
0.859374999999991
40
0.874999999999992
40
0.874999999999992
40
0.906249999999993
40
0.937499999999995
40
0.968749999999997
40
0.968749999999997
40
0.976562499999998
40
0.976562499999998
40
0.984374999999999
40
1
40
1
40
1
40
1
41
1
10
150.238636497211
20
11.3362479751114
30
0
41
1
10
150.311753352364
20
11.1549737171598
30
0
41
1
10
150.38498519799
20
10.9709744558638
30
0
41
1
10
150.531803753726
20
10.5979537068348
30
0
41
1
10
150.605390337511
20
10.4089312589198
30
0
41
1
10
150.753006059405
20
10.0261724190427
30
0
41
1
10
150.827035255053
20
9.83243548359212
30
0
41
1
10
150.975588336671
20
9.44046147132124
30
0
41
1
10
151.050112482462
20
9.24222416566982
30
0
41
1
10
151.162278676113
20
8.9415910447747
30
0
41
1
10
151.199730398479
20
8.84083317935284
30
0
41
1
10
151.256000040679
20
8.68888274911441
30
0
41
1
10
151.274784895573
20
8.63806172434829
30
0
41
1
10
151.312318180922
20
8.53632881275323
30
0
41
1
10
151.406012786987
20
8.2818961501842
30
0
41
1
10
151.49902367014
20
8.0269695206174
30
0
41
1
10
151.646904653025
20
7.61845000686421
30
0
41
1
10
151.7203778462
20
7.41387209636395
30
0
41
1
10
151.866219698011
20
7.00403169086118
30
0
41
1
10
151.938590030864
20
6.79876978120811
30
0
41
1
10
152.081912960348
20
6.38745769260589
30
0
41
1
10
152.152867354003
20
6.18140788845218
30
0
41
1
10
152.257848667814
20
5.87160856749378
30
0
41
1
10
152.29259897791
20
5.76822073811988
30
0
41
1
10
152.344289914671
20
5.61293256194077
30
0
41
1
10
152.361457209204
20
5.56110619498475
30
0
41
1
10
152.395583026965
20
5.45752987836789
30
0
41
1
10
152.412535412007
20
5.40579890983537
30
0
41
1
10
152.496709793489
20
5.14741843528023
30
0
41
1
10
152.56218969337
20
4.94159464777337
30
0
41
1
10
152.688232388761
20
4.53137478959937
30
0
41
1
10
152.74880345971
20
4.32698004483163
30
0
41
1
10
152.863188919452
20
3.91919812832597
30
0
41
1
10
152.917012971486
20
3.71581182074584
30
0
41
1
10
153.015134714878
20
3.30950138485588
30
0
41
1
10
153.059436851636
20
3.10657559417561
30
0
41
1
10
153.106394248344
20
2.85278912408182
30
0
41
1
10
153.115366157415
20
2.80199895861989
30
0
41
1
10
153.132370496455
20
2.70050644927645
30
0
41
1
10
153.156402159294
20
2.54880204322052
30
0
41
1
10
153.175750936808
20
2.3987216903416
30
0
41
1
10
153.207575394335
20
2.10081066939341
30
0
41
1
10
153.219559872442
20
1.90519277834491
30
0
41
1
10
153.22283006218
20
1.52063327539844
30
0
41
1
10
153.214097026507
20
1.3316948783791
30
0
41
1
10
153.19032536208
20
1.10030893473564
30
0
41
1
10
153.184929350481
20
1.05423330927533
30
0
41
1
10
153.172911919459
20
0.962744714122721
30
0
41
1
10
153.153113045773
20
0.826973573308265
30
0
41
1
10
153.128303634756
20
0.695533025174427
30
0
41
1
10
153.072838887188
20
0.438284366331118
30
0
41
1
10
153.028099944489
20
0.274284669905484
30
0
41
1
10
152.927138096309
20
-0.0393107532831891
30
0
41
1
10
152.870923662821
20
-0.188910710473777
30
0
41
1
10
152.795347745782
20
-0.367049954631455
30
0
41
1
10
152.779953183492
20
-0.402258488911201
30
0
41
1
10
152.748713230214
20
-0.471675915334174
30
0
41
1
10
152.701268397928
20
-0.574101680000297
30
0
41
1
10
152.652250740783
20
-0.671527005043117
30
0
41
1
10
152.552499447365
20
-0.859911900124843
30
0
41
1
10
152.483733340512
20
-0.976898820399072
30
0
41
1
10
152.343006177461
20
-1.19424727568017
30
0
41
1
10
152.271035590187
20
-1.29460565951783
30
0
41
1
10
152.179509052141
20
-1.40968231977291
30
0
41
1
10
152.161124414887
20
-1.43217786810317
30
0
41
1
10
152.124203332865
20
-1.47612517898287
30
0
41
1
10
152.105651800971
20
-1.49759286469666
30
0
41
1
10
152.05001152661
20
-1.5601642884013
30
0
41
1
10
152.012874393621
20
-1.59951674980687
30
0
41
1
10
151.90139025961
20
-1.71064882605751
30
0
41
1
10
151.826976055342
20
-1.77551742722963
30
0
41
1
10
151.678099991586
20
-1.88728680811772
30
0
41
1
10
151.603635807519
20
-1.93418571531078
30
0
41
1
10
151.454636936945
20
-2.01004378994549
30
0
41
1
10
151.380101186859
20
-2.03900295731782
30
0
41
1
10
151.286809725412
20
-2.0637520108861
30
0
41
1
10
151.268130512247
20
-2.06813018191062
30
0
41
1
10
151.230921437665
20
-2.07570029059116
30
0
41
1
10
151.175278786868
20
-2.08529251330304
30
0
41
1
10
151.12013075269
20
-2.08965502815758
30
0
41
1
10
151.01044576086
20
-2.09152629840656
30
0
41
1
10
150.865828185006
20
-2.07576869668838
30
0
41
1
10
150.653026417208
20
-1.99837181530322
30
0
41
1
10
150.51340842212
20
-1.91087262119783
30
0
41
1
10
150.426693259611
20
-1.84472158981268
30
0
41
1
10
150.409386728292
20
-1.83092342020464
30
0
41
1
10
150.374918166115
20
-1.80225314959856
30
0
41
1
10
150.323399436066
20
-1.75761197330681
30
0
41
1
10
150.2724112358
20
-1.70807964401442
30
0
41
1
10
150.238636497211
20
-1.67288862584499
30
0
0
SPLINE
5
CA
100
AcDbEntity
8
1
62
256
6
ByLayer
370
18
48
1
60
0
100
AcDbSpline
70
4
71
3
72
18
73
14
40
0
40
0
40
0
40
0
40
0.0002707717105159
40
0.0002707717105159
40
0.333513847807002
40
0.333513847807002
40
0.500135385855244
40
0.500135385855244
40
0.583446154879366
40
0.583446154879366
40
0.666756923903487
40
0.666756923903487
40
1
40
1
40
1
40
1
41
1
10
142.108500106587
20
11.7065365754512
30
0
41
1
10
142.109234192978
20
11.7065367070279
30
0
41
1
10
142.109968279208
20
11.706536829533
30
0
41
1
10
143.014153835129
20
11.706676547472
30
0
41
1
10
143.917368358301
20
11.6931154082454
30
0
41
1
10
145.271282437784
20
11.6519386242246
30
0
41
1
10
145.722419513559
20
11.634723974329
30
0
41
1
10
146.398919602115
20
11.6035881563858
30
0
41
1
10
146.624446038891
20
11.5923437601406
30
0
41
1
10
147.07568285775
20
11.5681878050263
30
0
41
1
10
147.301372440337
20
11.5552692474773
30
0
41
1
10
148.430127777377
20
11.4864902084001
30
0
41
1
10
149.334086401291
20
11.4181052316754
30
0
41
1
10
150.238636497218
20
11.3362479751107
30
0
0
SPLINE
5
CB
100
AcDbEntity
8
1
62
256
6
ByLayer
370
18
48
1
60
0
100
AcDbSpline
70
4
71
3
72
40
73
36
40
0
40
0
40
0
40
0
40
0.0828431792411967
40
0.0828431792411967
40
0.165686358482393
40
0.165686358482393
40
0.24852953772359
40
0.24852953772359
40
0.289951127344188
40
0.289951127344188
40
0.331372716964785
40
0.331372716964785
40
0.41421589620598
40
0.41421589620598
40
0.497059075447176
40
0.497059075447176
40
0.579902254688371
40
0.579902254688371
40
0.621323844308969
40
0.621323844308969
40
0.642034639119269
40
0.642034639119269
40
0.662745433929568
40
0.662745433929568
40
0.745588613170765
40
0.745588613170765
40
0.828431792411962
40
0.828431792411962
40
0.911274971653159
40
0.911274971653159
40
0.952696561273757
40
0.952696561273757
40
0.994118150894356
40
0.994118150894356
40
1
40
1
40
1
40
1
41
1
10
18.71655047232
20
-8.58829061856235
30
0
41
1
10
19.3455530356893
20
-8.73307563747582
30
0
41
1
10
19.9745445278889
20
-8.87188537781248
30
0
41
1
10
21.2322476165789
20
-9.13838095960276
30
0
41
1
10
21.86095838612
20
-9.26606689700344
30
0
41
1
10
23.1178612722456
20
-9.5108208339266
30
0
41
1
10
23.7460514048259
20
-9.62789169419031
30
0
41
1
10
24.6877683480755
20
-9.79571897431271
30
0
41
1
10
25.0015802008177
20
-9.85036146620317
30
0
41
1
10
25.6289949712457
20
-9.95704235154452
30
0
41
1
10
25.942547935748
20
-10.0091419981195
30
0
41
1
10
26.8836503732098
20
-10.1605002130784
30
0
41
1
10
27.5114813465401
20
-10.2550727619663
30
0
41
1
10
28.7676478328659
20
-10.4322260811561
30
0
41
1
10
29.3959952431302
20
-10.514789993246
30
0
41
1
10
30.6529873838053
20
-10.6681427293603
30
0
41
1
10
31.2816250248465
20
-10.7389384289147
30
0
41
1
10
32.2246427968559
20
-10.836281866476
30
0
41
1
10
32.5389796102837
20
-10.8672622578229
30
0
41
1
10
33.010536336791
20
-10.9114535247388
30
0
41
1
10
33.1677513136368
20
-10.9257875918056
30
0
41
1
10
33.4823092691868
20
-10.9536143723762
30
0
41
1
10
33.6396474236059
20
-10.967114673129
30
0
41
1
10
34.4262118379242
20
-11.0325425243426
30
0
41
1
10
35.0553543928484
20
-11.0782967411286
30
0
41
1
10
36.3131424331623
20
-11.1570601693194
30
0
41
1
10
36.9417987568278
20
-11.190061977785
30
0
41
1
10
38.1983943401253
20
-11.243409183789
30
0
41
1
10
38.8263273668513
20
-11.2637552697572
30
0
41
1
10
39.7675353276651
20
-11.2846343710598
30
0
41
1
10
40.0811022617212
20
-11.2899862584236
30
0
41
1
10
40.7084993293771
20
-11.2973904944386
30
0
41
1
10
41.0222974778148
20
-11.2994550857495
30
0
41
1
10
41.3807404919872
20
-11.2999696549502
30
0
41
1
10
41.4253118189028
20
-11.3000011354249
30
0
41
1
10
41.4698845666566
20
-11.3000001340322
30
0
0
SPLINE
5
CC
100
AcDbEntity
8
1
62
256
6
ByLayer
370
18
48
1
60
0
100
AcDbSpline
70
4
71
3
72
45
73
41
40
0
40
0
40
0
40
0
40
0.0026294161685251
40
0.0026294161685251
40
0.0932994692441144
40
0.0932994692441144
40
0.183969522319704
40
0.183969522319704
40
0.229304548857498
40
0.229304548857498
40
0.274639575395293
40
0.274639575395293
40
0.297307088664189
40
0.297307088664189
40
0.319974601933084
40
0.319974601933084
40
0.365309628470875
40
0.365309628470875
40
0.455979681546457
40
0.455979681546457
40
0.546649734622039
40
0.546649734622039
40
0.591984761159831
40
0.591984761159831
40
0.637319787697622
40
0.637319787697622
40
0.659987300966519
40
0.659987300966519
40
0.682654814235417
40
0.727989840773215
40
0.727989840773215
40
0.818659893848811
40
0.818659893848811
40
0.909329946924408
40
0.909329946924408
40
0.954664973462206
40
0.954664973462206
40
0.977332486731103
40
0.977332486731103
40
1
40
1
40
1
40
1
41
1
10
118.585701332941
20
8.31238363214322
30
0
41
1
10
118.603906714648
20
8.31673075244726
30
0
41
1
10
118.622112598998
20
8.3210732725083
30
0
41
1
10
119.268128925635
20
8.47499597185532
30
0
41
1
10
119.896520715618
20
8.61915427870244
30
0
41
1
10
121.154151322087
20
8.89734753583272
30
0
41
1
10
121.783402011648
20
9.0313592918308
30
0
41
1
10
122.72775654616
20
9.22502791767829
30
0
41
1
10
123.042640657021
20
9.28836202637615
30
0
41
1
10
123.672049674255
20
9.41250614002266
30
0
41
1
10
123.9866346485
20
9.47332787548086
30
0
41
1
10
124.45831597797
20
9.56268777352349
30
0
41
1
10
124.615509590027
20
9.5921633902077
30
0
41
1
10
124.929832414438
20
9.65048365480601
30
0
41
1
10
125.086966253421
20
9.67932066471082
30
0
41
1
10
125.558456629816
20
9.76461131806826
30
0
41
1
10
125.87287068598
20
9.81989415217026
30
0
41
1
10
126.816299761829
20
9.98118032932427
30
0
41
1
10
127.44549132684
20
10.0826433316233
30
0
41
1
10
128.704091446227
20
10.2739303908048
30
0
41
1
10
129.333506790105
20
10.3637457969314
30
0
41
1
10
130.277615625504
20
10.4898820027679
30
0
41
1
10
130.592315936323
20
10.5304943720503
30
0
41
1
10
131.221688732165
20
10.6088452460346
30
0
41
1
10
131.536304196951
20
10.6465778327323
30
0
41
1
10
132.007950324041
20
10.7009705482397
30
0
41
1
10
132.165132780571
20
10.718729066118
30
0
41
1
10
132.47954690498
20
10.7533986136235
30
0
41
1
10
132.951219033925
20
10.8041542788829
30
0
41
1
10
133.423015738601
20
10.8512216216855
30
0
41
1
10
134.366703387536
20
10.9405545980844
30
0
41
1
10
134.99595203226
20
10.9937168436112
30
0
41
1
10
136.254468010505
20
11.0875148249654
30
0
41
1
10
136.883733543747
20
11.1281521575461
30
0
41
1
10
137.82745973603
20
11.1797039723611
30
0
41
1
10
138.142007354658
20
11.1953177511352
30
0
41
1
10
138.613771677792
20
11.2163591732791
30
0
41
1
10
138.771016275316
20
11.2229765258804
30
0
41
1
10
139.0854870916
20
11.2354114007231
30
0
41
1
10
139.242717357837
20
11.2412268368466
30
0
41
1
10
139.4
20
11.2466237666606
30
0
0
SPLINE
5
CD
100
AcDbEntity
8
1
62
256
6
ByLayer
370
18
48
1
60
0
100
AcDbSpline
70
4
71
4
72
10
73
5
40
0
40
0
40
0
40
0
40
0
40
1
40
1
40
1
40
1
40
1
41
0.995524833068551
10
13.8412698625881
20
-7.81549236844833
30
0
41
0.995582884588857
10
13.780453129126
20
-8.14481214087608
30
0
41
0.995825756109457
10
13.726632125406
20
-8.48418151401516
30
0
41
0.996246235681231
10
13.6802871196105
20
-8.83082226055197
30
0
41
0.996768041689617
10
13.6415522953702
20
-9.18156322119839
30
0
0
SPLINE
5
CE
100
AcDbEntity
8
1
62
256
6
ByLayer
370
18
48
1
60
0
100
AcDbSpline
70
4
71
3
72
72
73
68
40
0
40
0
40
0
40
0
40
0.0439521799555284
40
0.0439521799555284
40
0.0879043599110569
40
0.0879043599110569
40
0.10988044988882
40
0.10988044988882
40
0.131856539866584
40
0.131856539866584
40
0.17580871982211
40
0.17580871982211
40
0.219760899777637
40
0.219760899777637
40
0.263713079733164
40
0.263713079733164
40
0.274701124722046
40
0.274701124722046
40
0.285689169710927
40
0.285689169710927
40
0.307665259688691
40
0.329641349666454
40
0.329641349666454
40
0.351617439644217
40
0.351617439644217
40
0.395569619599746
40
0.395569619599746
40
0.41754570957751
40
0.41754570957751
40
0.439521799555274
40
0.439521799555274
40
0.483473979510801
40
0.483473979510801
40
0.527426159466327
40
0.527426159466327
40
0.571378339421854
40
0.571378339421854
40
0.593354429399617
40
0.593354429399617
40
0.604342474388499
40
0.604342474388499
40
0.615330519377381
40
0.659282699332908
40
0.659282699332908
40
0.68125878931067
40
0.68125878931067
40
0.703234879288433
40
0.703234879288433
40
0.747187059243959
40
0.747187059243959
40
0.758175104232841
40
0.758175104232841
40
0.769163149221723
40
0.791139239199489
40
0.813115329177255
40
0.813115329177255
40
0.835091419155021
40
0.835091419155021
40
0.879043599110554
40
0.879043599110554
40
0.901019689088321
40
0.901019689088321
40
0.922995779066088
40
0.922995779066088
40
0.966947959021621
40
0.966947959021621
40
1
40
1
40
1
40
1
41
1
10
139.4
20
2.03086776678842
30
0
41
1
10
138.743867295784
20
2.25751636939594
30
0
41
1
10
138.088048686152
20
2.48219240549918
30
0
41
1
10
136.777145953209
20
2.92796636618459
30
0
41
1
10
136.122059838887
20
3.14905906428143
30
0
41
1
10
135.14009607567
20
3.47831304118722
30
0
41
1
10
134.812885840479
20
3.58766635018418
30
0
41
1
10
134.158707460184
20
3.80561927248905
30
0
41
1
10
133.831775417863
20
3.91431419063142
30
0
41
1
10
132.85072164275
20
4.23758328180608
30
0
41
1
10
132.196483958768
20
4.44973729200726
30
0
41
1
10
130.887722308568
20
4.86772810779593
30
0
41
1
10
130.233197398449
20
5.07356246523463
30
0
41
1
10
128.923982934179
20
5.47922976190824
30
0
41
1
10
128.269295853617
20
5.67906945974886
30
0
41
1
10
127.450931236238
20
5.92530556371062
30
0
41
1
10
127.287258133193
20
5.97437460855093
30
0
41
1
10
126.959912751867
20
6.07215687708006
30
0
41
1
10
126.796239180633
20
6.12086663464842
30
0
41
1
10
126.305074421898
20
6.26610544198596
30
0
41
1
10
125.649844568697
20
6.45748439227336
30
0
41
1
10
124.993958493134
20
6.64441691055529
30
0
41
1
10
124.337760177234
20
6.8291708055543
30
0
41
1
10
124.00970410517
20
6.92040172507501
30
0
41
1
10
123.02590577302
20
7.19066293350983
30
0
41
1
10
122.370435343029
20
7.3662887637561
30
0
41
1
10
121.387929080302
20
7.62313224900768
30
0
41
1
10
121.06054452103
20
7.70764807952904
30
0
41
1
10
120.406029825542
20
7.87450466095027
30
0
41
1
10
120.078925215914
20
7.95689685316256
30
0
41
1
10
119.097835543345
20
8.20044905555079
30
0
41
1
10
118.443632681075
20
8.3571015042931
30
0
41
1
10
117.134973125479
20
8.6592424771666
30
0
41
1
10
116.480529515226
20
8.80475747300218
30
0
41
1
10
115.171533864241
20
9.08493629175879
30
0
41
1
10
114.516981556616
20
9.21960059359176
30
0
41
1
10
113.53518765094
20
9.41355656160391
30
0
41
1
10
113.207932416101
20
9.47687248809103
30
0
41
1
10
112.717058859661
20
9.56980976163234
30
0
41
1
10
112.553426401557
20
9.60043416431546
30
0
41
1
10
112.226065364971
20
9.66085153613034
30
0
41
1
10
111.407461940969
20
9.80987688191388
30
0
41
1
10
110.58787810801
20
9.94890765859228
30
0
41
1
10
109.603528892006
20
10.1063562481915
30
0
41
1
10
109.27538602945
20
10.1572539113732
30
0
41
1
10
108.619270541597
20
10.2558714926961
30
0
41
1
10
108.291265043447
20
10.3035964703204
30
0
41
1
10
107.307433118031
20
10.4420436550665
30
0
41
1
10
106.651793342676
20
10.52804845374
30
0
41
1
10
105.832653074967
20
10.6276563374488
30
0
41
1
10
105.668851934396
20
10.647188116166
30
0
41
1
10
105.34121718966
20
10.6853872155204
30
0
41
1
10
104.849694961662
20
10.741370538854
30
0
41
1
10
104.030145477622
20
10.8281417232391
30
0
41
1
10
103.374169403218
20
10.8906727393118
30
0
41
1
10
102.718039806771
20
10.9497873043541
30
0
41
1
10
102.389858320595
20
10.9776393535014
30
0
41
1
10
101.405528852005
20
11.0560577364242
30
0
41
1
10
100.749530526003
20
11.1015004048752
30
0
41
1
10
99.7659832731094
20
11.1594109848857
30
0
41
1
10
99.4382093553526
20
11.1770036097171
30
0
41
1
10
98.7828315735492
20
11.2087423103013
30
0
41
1
10
98.4552690623554
20
11.2228972032339
30
0
41
1
10
97.472224119939
20
11.2599566699324
30
0
41
1
10
96.8165060416817
20
11.2775300220363
30
0
41
1
10
95.6671735797581
20
11.2960266170416
30
0
41
1
10
95.1736042164276
20
11.2999965573778
30
0
41
1
10
94.6801296940406
20
11.3000005016889
30
0
0
SPLINE
5
CF
100
AcDbEntity
8
1
62
256
6
ByLayer
370
18
48
1
60
0
100
AcDbSpline
70
4
71
3
72
10
73
6
40
0
40
0
40
0
40
0
40
0.491352995774489
40
0.491352995774489
40
1
40
1
40
1
40
1
41
1
10
17.5056535213253
20
-8.32630666720118
30
0
41
1
10
16.8733792589475
20
-8.47604018509688
30
0
41
1
10
16.2407663843906
20
-8.62097714358262
30
0
41
1
10
14.9527047362726
20
-8.90635816014071
30
0
41
1
10
14.2972367210918
20
-9.04646735060339
30
0
41
1
10
13.6415522953702
20
-9.18156322119833
30
0
0
SPLINE
5
D0
100
AcDbEntity
8
1
62
256
6
ByLayer
370
18
48
1
60
0
100
AcDbSpline
70
4
71
3
72
10
73
6
40
0
40
0
40
0
40
0
40
0.500406607000145
40
0.500406607000145
40
1
40
1
40
1
40
1
41
1
10
139.4
20
-11.6645709279257
30
0
41
1
10
139.851762062398
20
-11.6785694166539
30
0
41
1
10
140.303581672042
20
-11.6890128562045
30
0
41
1
10
141.206455740009
20
-11.7029509319376
30
0
41
1
10
141.657508227481
20
-11.7064557399632
30
0
41
1
10
142.10850005759
20
-11.7065365754424
30
0
0
SPLINE
5
D1
100
AcDbEntity
8
1
62
256
6
ByLayer
370
18
48
1
60
0
100
AcDbSpline
70
4
71
3
72
206
73
202
40
0
40
0
40
0
40
0
40
0.0156249999999992
40
0.0156249999999992
40
0.0312499999999983
40
0.0312499999999983
40
0.0468749999999975
40
0.0468749999999975
40
0.0546874999999972
40
0.0546874999999972
40
0.0624999999999969
40
0.0624999999999969
40
0.0781249999999964
40
0.0781249999999964
40
0.0937499999999959
40
0.0937499999999959
40
0.109374999999995
40
0.109374999999995
40
0.117187499999995
40
0.117187499999995
40
0.121093749999995
40
0.121093749999995
40
0.124999999999995
40
0.124999999999995
40
0.140624999999996
40
0.140624999999996
40
0.156249999999997
40
0.156249999999997
40
0.171874999999997
40
0.171874999999997
40
0.179687499999998
40
0.179687499999998
40
0.187499999999998
40
0.187499999999998
40
0.203124999999999
40
0.203124999999999
40
0.21875
40
0.21875
40
0.226562500000001
40
0.226562500000001
40
0.234375000000001
40
0.234375000000001
40
0.238281250000001
40
0.238281250000001
40
0.242187500000002
40
0.242187500000002
40
0.250000000000002
40
0.250000000000002
40
0.265625000000003
40
0.265625000000003
40
0.281250000000003
40
0.281250000000003
40
0.289062500000004
40
0.289062500000004
40
0.296875000000004
40
0.296875000000004
40
0.312500000000004
40
0.312500000000004
40
0.328125000000004
40
0.328125000000004
40
0.343750000000004
40
0.343750000000004
40
0.351562500000004
40
0.351562500000004
40
0.355468750000004
40
0.355468750000004
40
0.359375000000004
40
0.367187500000005
40
0.367187500000005
40
0.375000000000005
40
0.375000000000005
40
0.390625000000005
40
0.390625000000005
40
0.406250000000006
40
0.406250000000006
40
0.410156250000006
40
0.410156250000006
40
0.414062500000006
40
0.414062500000006
40
0.421875000000006
40
0.421875000000006
40
0.437500000000008
40
0.437500000000008
40
0.453125000000009
40
0.453125000000009
40
0.46875000000001
40
0.46875000000001
40
0.472656250000011
40
0.472656250000011
40
0.476562500000011
40
0.484375000000013
40
0.484375000000013
40
0.492187500000014
40
0.492187500000014
40
0.500000000000015
40
0.500000000000015
40
0.515625000000018
40
0.515625000000018
40
0.52343750000002
40
0.52343750000002
40
0.527343750000021
40
0.527343750000021
40
0.531250000000021
40
0.531250000000021
40
0.546875000000022
40
0.546875000000022
40
0.562500000000022
40
0.562500000000022
40
0.578125000000023
40
0.578125000000023
40
0.585937500000023
40
0.585937500000023
40
0.589843750000023
40
0.589843750000023
40
0.593750000000022
40
0.593750000000022
40
0.609375000000022
40
0.609375000000022
40
0.617187500000021
40
0.617187500000021
40
0.62500000000002
40
0.62500000000002
40
0.640625000000019
40
0.640625000000019
40
0.644531250000018
40
0.644531250000018
40
0.648437500000018
40
0.648437500000018
40
0.656250000000017
40
0.656250000000017
40
0.671875000000017
40
0.671875000000017
40
0.679687500000016
40
0.679687500000016
40
0.687500000000016
40
0.687500000000016
40
0.703125000000015
40
0.703125000000015
40
0.707031250000014
40
0.707031250000014
40
0.710937500000014
40
0.718750000000013
40
0.718750000000013
40
0.734375000000011
40
0.734375000000011
40
0.75000000000001
40
0.75000000000001
40
0.757812500000008
40
0.757812500000008
40
0.761718750000008
40
0.761718750000008
40
0.765625000000007
40
0.765625000000007
40
0.781250000000005
40
0.781250000000005
40
0.796875000000002
40
0.796875000000002
40
0.8125
40
0.8125
40
0.820312499999999
40
0.820312499999999
40
0.824218749999999
40
0.824218749999999
40
0.828124999999998
40
0.828124999999998
40
0.843749999999998
40
0.843749999999998
40
0.859374999999997
40
0.859374999999997
40
0.867187499999997
40
0.867187499999997
40
0.874999999999996
40
0.874999999999996
40
0.878906249999996
40
0.878906249999996
40
0.882812499999996
40
0.882812499999996
40
0.890624999999996
40
0.890624999999996
40
0.906249999999995
40
0.906249999999995
40
0.921874999999995
40
0.921874999999995
40
0.929687499999994
40
0.929687499999994
40
0.937499999999994
40
0.937499999999994
40
0.941406249999994
40
0.941406249999994
40
0.945312499999994
40
0.953124999999995
40
0.953124999999995
40
0.968749999999997
40
0.968749999999997
40
0.984374999999999
40
0.984374999999999
40
0.9921875
40
0.9921875
40
0.99609375
40
0.99609375
40
1
40
1
40
1
40
1
41
1
10
18.71655047232
20
8.58829061856235
30
0
41
1
10
19.3455530356893
20
8.73307563747585
30
0
41
1
10
19.9745445278889
20
8.87188537781248
30
0
41
1
10
21.2322476165789
20
9.13838095960278
30
0
41
1
10
21.86095838612
20
9.26606689700347
30
0
41
1
10
23.1178612722456
20
9.51082083392663
30
0
41
1
10
23.7460514048259
20
9.62789169419031
30
0
41
1
10
24.6877683480755
20
9.79571897431271
30
0
41
1
10
25.0015802008177
20
9.85036146620317
30
0
41
1
10
25.6289949712456
20
9.95704235154452
30
0
41
1
10
25.9425479357479
20
10.0091419981195
30
0
41
1
10
26.8836503732098
20
10.1605002130784
30
0
41
1
10
27.5114813465401
20
10.2550727619663
30
0
41
1
10
28.7676478328659
20
10.4322260811561
30
0
41
1
10
29.3959952431302
20
10.514789993246
30
0
41
1
10
30.6529873838053
20
10.6681427293603
30
0
41
1
10
31.2816250248464
20
10.7389384289148
30
0
41
1
10
32.2246427968558
20
10.836281866476
30
0
41
1
10
32.5389796102837
20
10.8672622578229
30
0
41
1
10
33.010536336791
20
10.9114535247388
30
0
41
1
10
33.1677513136368
20
10.9257875918056
30
0
41
1
10
33.4823092691867
20
10.9536143723762
30
0
41
1
10
33.6396474236059
20
10.967114673129
30
0
41
1
10
34.4262118379241
20
11.0325425243425
30
0
41
1
10
35.0553543928484
20
11.0782967411286
30
0
41
1
10
36.3131424331623
20
11.1570601693194
30
0
41
1
10
36.9417987568278
20
11.190061977785
30
0
41
1
10
38.1983943401253
20
11.243409183789
30
0
41
1
10
38.8263273668513
20
11.2637552697572
30
0
41
1
10
39.7675353276651
20
11.2846343710598
30
0
41
1
10
40.0811022617212
20
11.2899862584236
30
0
41
1
10
40.708499329377
20
11.2973904944386
30
0
41
1
10
41.0222974778149
20
11.2994550857495
30
0
41
1
10
41.9639169352085
20
11.3008068441949
30
0
41
1
10
42.5919538999424
20
11.2952603352192
30
0
41
1
10
43.8483612099794
20
11.2713876843288
30
0
41
1
10
44.4767363388989
20
11.2530624098637
30
0
41
1
10
45.4193722974263
20
11.2158580194567
30
0
41
1
10
45.7335964691245
20
11.2018346568218
30
0
41
1
10
46.3620483523241
20
11.1704979525286
30
0
41
1
10
46.676265131763
20
11.1531790576588
30
0
41
1
10
47.1476166491658
20
11.1247060133401
30
0
41
1
10
47.3047563973316
20
11.114807817747
30
0
41
1
10
47.6191606639589
20
11.0942424007518
30
0
41
1
10
47.7764153058654
20
11.0835704475591
30
0
41
1
10
48.2483270254903
20
11.050389728895
30
0
41
1
10
48.5631491977105
20
11.0267144849598
30
0
41
1
10
49.5072188830919
20
10.9511072198287
30
0
41
1
10
50.1363748016418
20
10.8945820050854
30
0
41
1
10
51.3940226318436
20
10.769249870421
30
0
41
1
10
52.0225112224753
20
10.7004404601135
30
0
41
1
10
52.9645596081547
20
10.5877644754077
30
0
41
1
10
53.2784625995236
20
10.5486275777386
30
0
41
1
10
53.9060204276001
20
10.4671411416053
30
0
41
1
10
54.2196173664904
20
10.4247224710473
30
0
41
1
10
55.1607510559117
20
10.2934114620198
30
0
41
1
10
55.78853007357
20
10.2003930965075
30
0
41
1
10
57.0444448390382
20
10.0032266272426
30
0
41
1
10
57.6725921643324
20
9.89909009641826
30
0
41
1
10
58.9290363439796
20
9.67941111791663
30
0
41
1
10
59.557326220062
20
9.56385840970717
30
0
41
1
10
60.4997067853612
20
9.38156253729414
30
0
41
1
10
60.8138174310914
20
9.31928857975637
30
0
41
1
10
61.284985762501
20
9.22362480088171
30
0
41
1
10
61.4420577169746
20
9.19138668223837
30
0
41
1
10
61.7563224787238
20
9.12636395771628
30
0
41
1
10
62.2278705881445
20
9.02795981904168
30
0
41
1
10
62.699841818611
20
8.92691960060199
30
0
41
1
10
63.3294642372808
20
8.78979606785211
30
0
41
1
10
63.6442637916498
20
8.72007124162747
30
0
41
1
10
64.5883491031626
20
8.5074075337161
30
0
41
1
10
65.2174268888607
20
8.36096913237449
30
0
41
1
10
66.4747188423231
20
8.0583126181898
30
0
41
1
10
67.1029265129471
20
7.90208065201116
30
0
41
1
10
67.887515282273
20
7.7003180999595
30
0
41
1
10
68.0443965190887
20
7.65963521286071
30
0
41
1
10
68.3581050354268
20
7.57764572330794
30
0
41
1
10
68.5149433829745
20
7.53636233401258
30
0
41
1
10
68.9855498217122
20
7.41194777710342
30
0
41
1
10
69.2993686219876
20
7.32816685539012
30
0
41
1
10
70.2409952980975
20
7.07419430013397
30
0
41
1
10
70.8689637326731
20
6.90135662529764
30
0
41
1
10
72.1250845208116
20
6.54816282709032
30
0
41
1
10
72.7532424493957
20
6.3678195516448
30
0
41
1
10
74.0095062092982
20
5.99899329143079
30
0
41
1
10
74.6375965390513
20
5.81047027684514
30
0
41
1
10
75.4226083437073
20
5.56942589430562
30
0
41
1
10
75.5796199586962
20
5.52098279365279
30
0
41
1
10
75.8937593348743
20
5.42387736275819
30
0
41
1
10
76.3651127109072
20
5.27781536206493
30
0
41
1
10
76.8368693100475
20
5.13048362747432
30
0
41
1
10
77.4661876869698
20
4.93280480151026
30
0
41
1
10
77.7810735765433
20
4.83332469473484
30
0
41
1
10
78.4107519908879
20
4.6331774469937
30
0
41
1
10
78.7255030066495
20
4.53252390140887
30
0
41
1
10
79.6694519220571
20
4.22872078792142
30
0
41
1
10
80.2983427759754
20
4.02372287774722
30
0
41
1
10
81.2408836545808
20
3.71202021517431
30
0
41
1
10
81.554932233663
20
3.60742017942059
30
0
41
1
10
82.0257908292616
20
3.44942010220086
30
0
41
1
10
82.1827056533393
20
3.39656362807372
30
0
41
1
10
82.496472221544
20
3.2905057653162
30
0
41
1
10
82.6533331852509
20
3.23732964771824
30
0
41
1
10
83.4377773165143
20
2.97140745674744
30
0
41
1
10
84.0656159627687
20
2.75809317241829
30
0
41
1
10
85.3215022387061
20
2.32937959613204
30
0
41
1
10
85.9495609878042
20
2.11401061566025
30
0
41
1
10
87.2056802823228
20
1.68060872828985
30
0
41
1
10
87.8337340166728
20
1.46255648169691
30
0
41
1
10
88.7756453222042
20
1.13295933424107
30
0
41
1
10
89.0895846849202
20
1.02266507228282
30
0
41
1
10
89.5604521789937
20
0.856587869482382
30
0
41
1
10
89.7174108515016
20
0.801150859915282
30
0
41
1
10
90.0314387747569
20
0.690424778787246
30
0
41
1
10
90.1884985961291
20
0.635108567164735
30
0
41
1
10
90.9740107930392
20
0.358717731517118
30
0
41
1
10
91.6030921822063
20
0.138186762666436
30
0
41
1
10
92.5474864914694
20
-0.192396473245765
30
0
41
1
10
92.8624452556762
20
-0.302559103879275
30
0
41
1
10
93.492151121748
20
-0.522723071838044
30
0
41
1
10
93.8069497734164
20
-0.632743581341913
30
0
41
1
10
94.7511343087169
20
-0.962758038616641
30
0
41
1
10
95.3803041674299
20
-1.18271911521703
30
0
41
1
10
96.1662848562685
20
-1.45794008371007
30
0
41
1
10
96.3234554319023
20
-1.5130018520218
30
0
41
1
10
96.6377539927451
20
-1.62313561834193
30
0
41
1
10
96.7948895873101
20
-1.67818602036286
30
0
41
1
10
97.2664165045525
20
-1.84283332180766
30
0
41
1
10
97.5808901452459
20
-1.95203349860193
30
0
41
1
10
98.5246023547772
20
-2.27816245469185
30
0
41
1
10
99.1541218729733
20
-2.49364984177285
30
0
41
1
10
100.098773278722
20
-2.81454225485172
30
0
41
1
10
100.413697507614
20
-2.92110387709931
30
0
41
1
10
101.043340877561
20
-3.13342143365631
30
0
41
1
10
101.358095287708
20
-3.2391904876921
30
0
41
1
10
102.302109908972
20
-3.55544857545041
30
0
41
1
10
102.931110498316
20
-3.76492077520393
30
0
41
1
10
103.716852558156
20
-4.02520376970602
30
0
41
1
10
103.873985803911
20
-4.07715461064396
30
0
41
1
10
104.188330165105
20
-4.18055759076805
30
0
41
1
10
104.659935417393
20
-4.33498935457294
30
0
41
1
10
105.131777619024
20
-4.48749150094443
30
0
41
1
10
106.075704643536
20
-4.7901345265054
30
0
41
1
10
106.70531157284
20
-4.98875422164767
30
0
41
1
10
107.964940248581
20
-5.38032906322707
30
0
41
1
10
108.594330818524
20
-5.57309489406953
30
0
41
1
10
109.537431536738
20
-5.85808345356804
30
0
41
1
10
109.851644167204
20
-5.95238554032289
30
0
41
1
10
110.322714767274
20
-6.09282274224827
30
0
41
1
10
110.479695427664
20
-6.13946933564699
30
0
41
1
10
110.793578017075
20
-6.23241027135072
30
0
41
1
10
110.950486856964
20
-6.27868735561657
30
0
41
1
10
111.73513683845
20
-6.5084640619005
30
0
41
1
10
112.363047193257
20
-6.68751161346731
30
0
41
1
10
113.618893872322
20
-7.0371010807666
30
0
41
1
10
114.246840961473
20
-7.20761569477185
30
0
41
1
10
115.502554706215
20
-7.54062449389818
30
0
41
1
10
116.130314678038
20
-7.70313312629983
30
0
41
1
10
117.071645535339
20
-7.9411493653175
30
0
41
1
10
117.385369983696
20
-8.01953073612793
30
0
41
1
10
117.855873432034
20
-8.13565281886855
30
0
41
1
10
118.012700382869
20
-8.17410518007318
30
0
41
1
10
118.326450990155
20
-8.25027791511741
30
0
41
1
10
118.483366494797
20
-8.28801501375881
30
0
41
1
10
119.268128925635
20
-8.47499597185538
30
0
41
1
10
119.896520715618
20
-8.61915427870247
30
0
41
1
10
121.154151322087
20
-8.89734753583272
30
0
41
1
10
121.783402011648
20
-9.03135929183082
30
0
41
1
10
122.72775654616
20
-9.22502791767835
30
0
41
1
10
123.042640657021
20
-9.28836202637618
30
0
41
1
10
123.672049674255
20
-9.41250614002266
30
0
41
1
10
123.9866346485
20
-9.47332787548086
30
0
41
1
10
124.45831597797
20
-9.56268777352349
30
0
41
1
10
124.615509590027
20
-9.59216339020773
30
0
41
1
10
124.929832414438
20
-9.65048365480607
30
0
41
1
10
125.086966253421
20
-9.67932066471084
30
0
41
1
10
125.558456629816
20
-9.76461131806826
30
0
41
1
10
125.87287068598
20
-9.81989415217026
30
0
41
1
10
126.816299761829
20
-9.98118032932427
30
0
41
1
10
127.44549132684
20
-10.0826433316233
30
0
41
1
10
128.704091446227
20
-10.2739303908049
30
0
41
1
10
129.333506790106
20
-10.3637457969314
30
0
41
1
10
130.277615625504
20
-10.4898820027679
30
0
41
1
10
130.592315936323
20
-10.5304943720503
30
0
41
1
10
131.221688732165
20
-10.6088452460346
30
0
41
1
10
131.536304196951
20
-10.6465778327323
30
0
41
1
10
132.007950324041
20
-10.7009705482397
30
0
41
1
10
132.165132780571
20
-10.718729066118
30
0
41
1
10
132.47954690498
20
-10.7533986136235
30
0
41
1
10
132.951219033925
20
-10.8041542788829
30
0
41
1
10
133.423015738601
20
-10.8512216216855
30
0
41
1
10
134.366703387536
20
-10.9405545980844
30
0
41
1
10
134.99595203226
20
-10.9937168436112
30
0
41
1
10
136.254468010505
20
-11.0875148249654
30
0
41
1
10
136.883733543747
20
-11.1281521575461
30
0
41
1
10
137.82745973603
20
-11.1797039723612
30
0
41
1
10
138.142007354658
20
-11.1953177511352
30
0
41
1
10
138.613771677792
20
-11.2163591732791
30
0
41
1
10
138.771016275316
20
-11.2229765258804
30
0
41
1
10
139.0854870916
20
-11.2354114007231
30
0
41
1
10
139.242717357837
20
-11.2412268368466
30
0
41
1
10
139.4
20
-11.2466237666606
30
0
0
SPLINE
5
D2
100
AcDbEntity
8
1
62
256
6
ByLayer
370
18
48
1
60
0
100
AcDbSpline
70
4
71
4
72
10
73
5
40
0
40
0
40
0
40
0
40
0
40
1
40
1
40
1
40
1
40
1
41
0.996768041689617
10
18.7165504723199
20
8.58829061856232
30
0
41
0.996553037319948
10
18.7005951318171
20
8.44754658570489
30
0
41
0.996355235752319
10
18.6833476668757
20
8.30779329898649
30
0
41
0.996179973216354
10
18.6648167996618
20
8.16924725917895
30
0
41
0.996030595084082
10
18.6450213663943
20
8.03211306445871
30
0
0
SPLINE
5
D3
100
AcDbEntity
8
1
62
256
6
ByLayer
370
18
48
1
60
0
100
AcDbSpline
70
4
71
3
72
166
73
162
40
0
40
0
40
0
40
0
40
0.007602141105157
40
0.007602141105157
40
0.0263266290088325
40
0.0263266290088325
40
0.045051116912508
40
0.045051116912508
40
0.0544133608643458
40
0.0544133608643458
40
0.0590944828402647
40
0.0590944828402647
40
0.0637756048161836
40
0.0825000927198591
40
0.0825000927198591
40
0.0918623366716966
40
0.0918623366716966
40
0.101224580623534
40
0.101224580623534
40
0.119949068527208
40
0.119949068527208
40
0.124630190503127
40
0.124630190503127
40
0.129311312479046
40
0.138673556430884
40
0.148035800382722
40
0.148035800382722
40
0.15739804433456
40
0.15739804433456
40
0.176122532238237
40
0.176122532238237
40
0.185484776190075
40
0.185484776190075
40
0.194847020141914
40
0.194847020141914
40
0.213571508045591
40
0.213571508045591
40
0.232295995949268
40
0.232295995949268
40
0.251020483852945
40
0.251020483852945
40
0.255701605828864
40
0.260382727804784
40
0.260382727804784
40
0.269744971756622
40
0.269744971756622
40
0.288469459660299
40
0.288469459660299
40
0.297831703612138
40
0.297831703612138
40
0.307193947563977
40
0.307193947563977
40
0.316556191515816
40
0.316556191515816
40
0.325918435467655
40
0.325918435467655
40
0.344642923371333
40
0.344642923371333
40
0.363367411275011
40
0.363367411275011
40
0.38209189917869
40
0.38209189917869
40
0.391454143130529
40
0.391454143130529
40
0.396135265106448
40
0.396135265106448
40
0.400816387082368
40
0.419540874986043
40
0.419540874986043
40
0.428903118937881
40
0.428903118937881
40
0.438265362889719
40
0.438265362889719
40
0.456989850793396
40
0.456989850793396
40
0.461670972769315
40
0.461670972769315
40
0.466352094745235
40
0.466352094745235
40
0.475714338697073
40
0.475714338697073
40
0.49443882660075
40
0.49443882660075
40
0.513163314504426
40
0.513163314504426
40
0.522525558456264
40
0.522525558456264
40
0.531887802408103
40
0.531887802408103
40
0.550612290311779
40
0.550612290311779
40
0.569336778215455
40
0.569336778215455
40
0.578699022167293
40
0.578699022167293
40
0.588061266119131
40
0.59274238809505
40
0.59274238809505
40
0.597423510070969
40
0.597423510070969
40
0.606785754022807
40
0.606785754022807
40
0.625510241926482
40
0.625510241926482
40
0.644234729830158
40
0.644234729830158
40
0.653596973781996
40
0.653596973781996
40
0.662959217733833
40
0.662959217733833
40
0.672321461685671
40
0.672321461685671
40
0.681683705637509
40
0.681683705637509
40
0.700408193541184
40
0.700408193541184
40
0.709770437493022
40
0.709770437493022
40
0.71913268144486
40
0.71913268144486
40
0.728494925396698
40
0.728494925396698
40
0.733176047372617
40
0.733176047372617
40
0.737857169348536
40
0.756581657252212
40
0.756581657252212
40
0.775306145155888
40
0.775306145155888
40
0.794030633059564
40
0.794030633059564
40
0.803392877011403
40
0.803392877011403
40
0.812755120963241
40
0.812755120963241
40
0.831479608866917
40
0.831479608866917
40
0.840841852818754
40
0.840841852818754
40
0.850204096770592
40
0.85956634072243
40
0.85956634072243
40
0.868928584674267
40
0.868928584674267
40
0.887653072577943
40
0.887653072577943
40
0.906377560481618
40
0.906377560481618
40
0.925102048385294
40
0.925102048385294
40
0.929783170361213
40
0.929783170361213
40
0.934464292337132
40
0.934464292337132
40
0.943826536288971
40
0.943826536288971
40
0.962551024192647
40
0.962551024192647
40
0.981275512096323
40
0.981275512096323
40
1
40
1
40
1
40
1
41
1
10
118.586212626958
20
-8.32139888850375
30
0
41
1
10
118.320597693853
20
-8.3845826635164
30
0
41
1
10
118.054960758686
20
-8.44683738117334
30
0
41
1
10
117.134973125479
20
-8.65924247716654
30
0
41
1
10
116.480529515226
20
-8.80475747300216
30
0
41
1
10
115.171533864241
20
-9.08493629175877
30
0
41
1
10
114.516981556616
20
-9.21960059359171
30
0
41
1
10
113.53518765094
20
-9.41355656160391
30
0
41
1
10
113.207932416101
20
-9.476872488091
30
0
41
1
10
112.717058859661
20
-9.56980976163231
30
0
41
1
10
112.553426401557
20
-9.60043416431543
30
0
41
1
10
112.226065364971
20
-9.66085153613031
30
0
41
1
10
111.407461940969
20
-9.80987688191388
30
0
41
1
10
110.587878108011
20
-9.94890765859225
30
0
41
1
10
109.603528892007
20
-10.1063562481915
30
0
41
1
10
109.27538602945
20
-10.1572539113732
30
0
41
1
10
108.619270541597
20
-10.2558714926961
30
0
41
1
10
108.291265043447
20
-10.3035964703204
30
0
41
1
10
107.307433118031
20
-10.4420436550665
30
0
41
1
10
106.651793342676
20
-10.52804845374
30
0
41
1
10
105.832653074968
20
-10.6276563374487
30
0
41
1
10
105.668851934396
20
-10.6471881161659
30
0
41
1
10
105.34121718966
20
-10.6853872155204
30
0
41
1
10
104.849694961662
20
-10.741370538854
30
0
41
1
10
104.030145477622
20
-10.828141723239
30
0
41
1
10
103.374169403218
20
-10.8906727393118
30
0
41
1
10
102.718039806771
20
-10.9497873043541
30
0
41
1
10
102.389858320595
20
-10.9776393535014
30
0
41
1
10
101.405528852005
20
-11.0560577364242
30
0
41
1
10
100.749530526003
20
-11.1015004048752
30
0
41
1
10
99.7659832731094
20
-11.1594109848857
30
0
41
1
10
99.4382093553526
20
-11.1770036097171
30
0
41
1
10
98.7828315735493
20
-11.2087423103013
30
0
41
1
10
98.4552690623553
20
-11.2228972032339
30
0
41
1
10
97.472224119939
20
-11.2599566699324
30
0
41
1
10
96.8165060416817
20
-11.2775300220363
30
0
41
1
10
95.5044827114656
20
-11.2986448560644
30
0
41
1
10
94.8480314977601
20
-11.3021833355316
30
0
41
1
10
93.535865023749
20
-11.2952376648095
30
0
41
1
10
92.8800524809647
20
-11.2847592419637
30
0
41
1
10
92.0607266602042
20
-11.2627783270534
30
0
41
1
10
91.7330403629597
20
-11.2530963447525
30
0
41
1
10
91.405446509477
20
-11.2416230312926
30
0
41
1
10
90.9139794844638
20
-11.223108635746
30
0
41
1
10
90.5862502317065
20
-11.2090260389107
30
0
41
1
10
89.6028292313692
20
-11.1616058276113
30
0
41
1
10
88.946905852737
20
-11.12310267694
30
0
41
1
10
87.9626467685197
20
-11.0550616229149
30
0
41
1
10
87.634439557861
20
-11.0306600592521
30
0
41
1
10
86.9783432459261
20
-10.9784449819741
30
0
41
1
10
86.6504271675645
20
-10.950630351099
30
0
41
1
10
85.9948794565356
20
-10.8915652414151
30
0
41
1
10
85.6672481459894
20
-10.8603145005496
30
0
41
1
10
85.0122901244337
20
-10.7943401643328
30
0
41
1
10
84.684987501325
20
-10.7595943055019
30
0
41
1
10
83.7033916577667
20
-10.6502309047511
30
0
41
1
10
83.0489577343199
20
-10.5709140223779
30
0
41
1
10
81.74003072091
20
-10.3997047040622
30
0
41
1
10
81.0855529576981
20
-10.3077982195687
30
0
41
1
10
79.7766870467302
20
-10.1113088988576
30
0
41
1
10
79.1222985674716
20
-10.0067275569384
30
0
41
1
10
78.1409007771904
20
-9.84008903302484
30
0
41
1
10
77.8138020267075
20
-9.78290874635636
30
0
41
1
10
77.3232034702974
20
-9.69466082789938
30
0
41
1
10
77.1596704239415
20
-9.66484373649701
30
0
41
1
10
76.8325210924604
20
-9.60453214704506
30
0
41
1
10
76.0144784711939
20
-9.45200179600099
30
0
41
1
10
75.1956121235476
20
-9.29075255960672
30
0
41
1
10
74.2122741114637
20
-9.08882983595828
30
0
41
1
10
73.8843782040143
20
-9.02011690627748
30
0
41
1
10
73.2283679762344
20
-8.87985191423624
30
0
41
1
10
72.9001711543403
20
-8.80828163931599
30
0
41
1
10
71.916067802927
20
-8.5894208973248
30
0
41
1
10
71.260592675624
20
-8.43797389585018
30
0
41
1
10
70.4420928144216
20
-8.24147057085548
30
0
41
1
10
70.2784417005639
20
-8.20179620909622
30
0
41
1
10
69.9511557936618
20
-8.12186137789024
30
0
41
1
10
69.7875125964461
20
-8.08161814266637
30
0
41
1
10
69.2965795778576
20
-7.96007173855352
30
0
41
1
10
68.9692881456633
20
-7.87794853665199
30
0
41
1
10
67.9874260669741
20
-7.62829325789292
30
0
41
1
10
67.3328680866376
20
-7.4574791493105
30
0
41
1
10
66.0238993745841
20
-7.10692735050327
30
0
41
1
10
65.3694865407793
20
-6.92719494087075
30
0
41
1
10
64.3880900684027
20
-6.6506038851972
30
0
41
1
10
64.0609951668661
20
-6.55723990202492
30
0
41
1
10
63.4068986833763
20
-6.3681123581774
30
0
41
1
10
63.0799416931045
20
-6.27223904986982
30
0
41
1
10
62.0986265016939
20
-5.98239673031
30
0
41
1
10
61.4439181220084
20
-5.78600089491323
30
0
41
1
10
60.1336284554398
20
-5.3866880125025
30
0
41
1
10
59.4780463647769
20
-5.18377308310201
30
0
41
1
10
58.49410737774
20
-4.87426803415588
30
0
41
1
10
58.1659506906552
20
-4.77021618964807
30
0
41
1
10
57.5099447441011
20
-4.5604853460128
30
0
41
1
10
57.0181875664502
20
-4.40197310483654
30
0
41
1
10
56.5268236928723
20
-4.24157381403697
30
0
41
1
10
56.1993379536947
20
-4.13421310336136
30
0
41
1
10
56.0356433387264
20
-4.08031011245583
30
0
41
1
10
55.5445601860499
20
-3.91832423519873
30
0
41
1
10
55.2171772907298
20
-3.80995168871624
30
0
41
1
10
54.2350632864592
20
-3.48365470575615
30
0
41
1
10
53.580368088658
20
-3.26454911179448
30
0
41
1
10
52.2711842477121
20
-2.82291724071342
30
0
41
1
10
51.6166935806145
20
-2.60039670070449
30
0
41
1
10
50.6352155762008
20
-2.26375540512666
30
0
41
1
10
50.3081002019547
20
-2.15106179298877
30
0
41
1
10
49.6539760079256
20
-1.92465660560603
30
0
41
1
10
49.3269853054974
20
-1.81089347664377
30
0
41
1
10
48.6730441969318
20
-1.58252915152369
30
0
41
1
10
48.3459842837879
20
-1.4682394619023
30
0
41
1
10
47.6916202739422
20
-1.23963856790692
30
0
41
1
10
47.3643284745173
20
-1.12529241716541
30
0
41
1
10
46.3821479989349
20
-0.782054300399011
30
0
41
1
10
45.7269533925503
20
-0.552966649875515
30
0
41
1
10
44.7436390403095
20
-0.208687691767892
30
0
41
1
10
44.4157804026996
20
-0.0938200823506747
30
0
41
1
10
43.7599065167419
20
0.136186757047312
30
0
41
1
10
43.4318184846219
20
0.25135306612566
30
0
41
1
10
42.7758903215899
20
0.481881180430946
30
0
41
1
10
42.4480891104393
20
0.597233168397253
30
0
41
1
10
41.9566412013257
20
0.770415481723688
30
0
41
1
10
41.7928628945973
20
0.828155007340968
30
0
41
1
10
41.4652909467293
20
0.943396925087654
30
0
41
1
10
40.646356547321
20
1.23100654962758
30
0
41
1
10
39.8274158321548
20
1.51620794150733
30
0
41
1
10
38.5172158182036
20
1.96981696980976
30
0
41
1
10
37.8621668361034
20
2.19526056094011
30
0
41
1
10
36.5523011598017
20
2.64379113648192
30
0
41
1
10
35.8974883938095
20
2.86688929762818
30
0
41
1
10
34.915565094884
20
3.20006822630731
30
0
41
1
10
34.5883151443969
20
3.31090465365216
30
0
41
1
10
33.9334705625242
20
3.53086645201947
30
0
41
1
10
33.6059251215762
20
3.64012813305399
30
0
41
1
10
32.6229425889543
20
3.96582827799745
30
0
41
1
10
31.9671603912994
20
4.18018645982409
30
0
41
1
10
30.9828851897826
20
4.49781141288037
30
0
41
1
10
30.6546957124589
20
4.60303226339153
30
0
41
1
10
29.9987974166569
20
4.81199845879067
30
0
41
1
10
29.3432137186712
20
5.01954383603538
30
0
41
1
10
28.6883012548543
20
5.22434495562033
30
0
41
1
10
28.0337439699642
20
5.4278080143807
30
0
41
1
10
27.7066907002591
20
5.52898953269732
30
0
41
1
10
26.7255119105304
20
5.8291037953324
30
0
41
1
10
26.0714257966205
20
6.02477696662859
30
0
41
1
10
24.7634271462279
20
6.4077502110022
30
0
41
1
10
24.1095138699094
20
6.5950484539199
30
0
41
1
10
22.8019799794696
20
6.96158155218387
30
0
41
1
10
22.1483612194269
20
7.14082137314315
30
0
41
1
10
21.3316216238619
20
7.35998731525035
30
0
41
1
10
21.1682878409723
20
7.40357577770081
30
0
41
1
10
20.8416510004895
20
7.49026531703939
30
0
41
1
10
20.6783536328511
20
7.53337831156904
30
0
41
1
10
20.1883911342326
20
7.66173260879714
30
0
41
1
10
19.8616371480753
20
7.7459516591783
30
0
41
1
10
18.8810578698427
20
7.99463167176302
30
0
41
1
10
18.2269176657385
20
8.15512517543709
30
0
41
1
10
16.9179106946086
20
8.46583173725224
30
0
41
1
10
16.2630421334187
20
8.61604176187046
30
0
41
1
10
14.9527047362726
20
8.90635816014068
30
0
41
1
10
14.2972367210918
20
9.04646735060339
30
0
41
1
10
13.6415522953701
20
9.18156322119833
30
0
0
SPLINE
5
D4
100
AcDbEntity
8
1
62
256
6
ByLayer
370
18
48
1
60
0
100
AcDbSpline
70
4
71
3
72
99
73
95
40
0
40
0
40
0
40
0
40
0.0625000000000104
40
0.0625000000000104
40
0.0937500000000165
40
0.0937500000000165
40
0.125000000000023
40
0.125000000000023
40
0.156250000000029
40
0.156250000000029
40
0.171875000000032
40
0.171875000000032
40
0.179687500000033
40
0.179687500000033
40
0.187500000000033
40
0.187500000000033
40
0.218750000000038
40
0.218750000000038
40
0.250000000000043
40
0.250000000000043
40
0.281250000000048
40
0.281250000000048
40
0.289062500000049
40
0.289062500000049
40
0.296875000000049
40
0.296875000000049
40
0.312500000000051
40
0.312500000000051
40
0.343750000000054
40
0.343750000000054
40
0.375000000000058
40
0.375000000000058
40
0.382812500000058
40
0.382812500000058
40
0.386718750000058
40
0.386718750000058
40
0.390625000000058
40
0.406250000000058
40
0.406250000000058
40
0.437500000000057
40
0.437500000000057
40
0.453125000000057
40
0.453125000000057
40
0.457031250000057
40
0.457031250000057
40
0.460937500000056
40
0.460937500000056
40
0.468750000000056
40
0.468750000000056
40
0.500000000000055
40
0.500000000000055
40
0.531250000000055
40
0.531250000000055
40
0.535156250000054
40
0.535156250000054
40
0.539062500000054
40
0.546875000000054
40
0.562500000000053
40
0.562500000000053
40
0.593750000000052
40
0.593750000000052
40
0.601562500000052
40
0.601562500000052
40
0.609375000000052
40
0.609375000000052
40
0.625000000000051
40
0.625000000000051
40
0.656250000000048
40
0.656250000000048
40
0.687500000000045
40
0.687500000000045
40
0.703125000000044
40
0.703125000000044
40
0.718750000000042
40
0.718750000000042
40
0.750000000000039
40
0.750000000000039
40
0.781250000000036
40
0.781250000000036
40
0.812500000000032
40
0.812500000000032
40
0.843750000000029
40
0.843750000000029
40
0.859375000000027
40
0.859375000000027
40
0.875000000000024
40
0.875000000000024
40
0.906250000000018
40
0.906250000000018
40
0.937500000000012
40
0.937500000000012
40
0.968750000000006
40
0.968750000000006
40
1
40
1
40
1
40
1
41
1
10
10
20
-8.0393666406722
30
0
41
1
10
9.55877916261534
20
-8.16357538143467
30
0
41
1
10
9.12753695207888
20
-8.30179383104516
30
0
41
1
10
8.49571086219171
20
-8.5282762238526
30
0
41
1
10
8.28761308736966
20
-8.60696303303573
30
0
41
1
10
7.87652267509989
20
-8.7704204511929
30
0
41
1
10
7.67352943126372
20
-8.85519095331833
30
0
41
1
10
7.27279632047265
20
-9.03052438216525
30
0
41
1
10
7.07505550853207
20
-9.12108719716502
30
0
41
1
10
6.78256178957463
20
-9.26106741188923
30
0
41
1
10
6.6857509089491
20
-9.30841693160292
30
0
41
1
10
6.54159581573271
20
-9.38045054385785
30
0
41
1
10
6.49372105447074
20
-9.404629978988
30
0
41
1
10
6.39833137811951
20
-9.45332128597036
30
0
41
1
10
6.35082826959189
20
-9.47782779428294
30
0
41
1
10
6.11519681810685
20
-9.60066902936583
30
0
41
1
10
5.93193819578153
20
-9.70032314225296
30
0
41
1
10
5.57622231426365
20
-9.90165139473746
30
0
41
1
10
5.40376246141932
20
-10.0033265620841
30
0
41
1
10
5.07020821157295
20
-10.2079276392332
30
0
41
1
10
4.9091091680485
20
-10.3108551160171
30
0
41
1
10
4.71541820608473
20
-10.4397739523596
30
0
41
1
10
4.67706526767915
20
-10.4655704586233
30
0
41
1
10
4.6011494236987
20
-10.51717476348
30
0
41
1
10
4.56355037742628
20
-10.5430077161591
30
0
41
1
10
4.4522224338709
20
-10.6203265367754
30
0
41
1
10
4.38021721982807
20
-10.6714526861013
30
0
41
1
10
4.17095425250517
20
-10.8233584189851
30
0
41
1
10
4.04042750606675
20
-10.9226709076558
30
0
41
1
10
3.79839424676595
20
-11.1161391525439
30
0
41
1
10
3.68687682557922
20
-11.2102997678151
30
0
41
1
10
3.56053122372222
20
-11.3238588587094
30
0
41
1
10
3.53591719340312
20
-11.3463627869137
30
0
41
1
10
3.50000927202672
20
-11.379786748037
30
0
41
1
10
3.48819978609964
20
-11.390881455697
30
0
41
1
10
3.46499929813709
20
-11.4128849832745
30
0
41
1
10
3.40801182739929
20
-11.4674588766945
30
0
41
1
10
3.35609151593656
20
-11.5198363018963
30
0
41
1
10
3.24130656486341
20
-11.6411325580592
30
0
41
1
10
3.17784513749589
20
-11.7161281079184
30
0
41
1
10
3.10322644010392
20
-11.8188886438793
30
0
41
1
10
3.08179108051138
20
-11.8515175834736
30
0
41
1
10
3.0594708865751
20
-11.8901529809881
30
0
41
1
10
3.0552307717565
20
-11.89777244794
30
0
41
1
10
3.04720374790043
20
-11.9127928446759
30
0
41
1
10
3.04341329764347
20
-11.9202014024413
30
0
41
1
10
3.0327682671932
20
-11.94201426609
30
0
41
1
10
3.02663154567046
20
-11.9560182903351
30
0
41
1
10
3.00068870979095
20
-12.023370761977
30
0
41
1
10
2.99505754617394
20
-12.0687310189758
30
0
41
1
10
3.01331733501962
20
-12.1427212781178
30
0
41
1
10
3.03721119958942
20
-12.1713504324225
30
0
41
1
10
3.08093782436413
20
-12.1941209685349
30
0
41
1
10
3.08603633584653
20
-12.1965218941739
30
0
41
1
10
3.09667684885571
20
-12.2010491825395
30
0
41
1
10
3.11329335095905
20
-12.2074258171841
30
0
41
1
10
3.15659364898681
20
-12.2194513059403
30
0
41
1
10
3.20127367893639
20
-12.2250205348163
30
0
41
1
10
3.30030089980954
20
-12.2301943331767
30
0
41
1
10
3.37918308787582
20
-12.2257034481432
30
0
41
1
10
3.49293987321033
20
-12.2110999697399
30
0
41
1
10
3.51645098984795
20
-12.2077287461391
30
0
41
1
10
3.56497719641709
20
-12.2001048264746
30
0
41
1
10
3.59000497201828
20
-12.1958486961753
30
0
41
1
10
3.66680688668816
20
-12.1818865061703
30
0
41
1
10
3.72045290303157
20
-12.1709655857167
30
0
41
1
10
3.88824027049546
20
-12.1338121278711
30
0
41
1
10
4.0092112604184
20
-12.1032047229918
30
0
41
1
10
4.26741887203625
20
-12.0322143014855
30
0
41
1
10
4.40466494046001
20
-11.9918249801414
30
0
41
1
10
4.62167567538231
20
-11.9249948399656
30
0
41
1
10
4.69587277306087
20
-11.9016742559512
30
0
41
1
10
4.84783982196086
20
-11.8530986012934
30
0
41
1
10
4.92514941450421
20
-11.8279908087213
30
0
41
1
10
5.16052722683281
20
-11.7505596654251
30
0
41
1
10
5.32214834090721
20
-11.6961030849217
30
0
41
1
10
5.6535947371423
20
-11.5826578820564
30
0
41
1
10
5.82342374050262
20
-11.5236658999807
30
0
41
1
10
6.17031453682193
20
-11.4019876264082
30
0
41
1
10
6.34737839050041
20
-11.3392993119691
30
0
41
1
10
6.70790125410457
20
-11.2108526278765
30
0
41
1
10
6.89136125095581
20
-11.1450928934985
30
0
41
1
10
7.1707868324138
20
-11.0444952116614
30
0
41
1
10
7.26463915582991
20
-11.0106337192515
30
0
41
1
10
7.45365450507759
20
-10.9423065071107
30
0
41
1
10
7.54861406397032
20
-10.9079143245492
30
0
41
1
10
7.83474842368798
20
-10.8041030503448
30
0
41
1
10
8.02717621132138
20
-10.7340516625614
30
0
41
1
10
8.41490580702742
20
-10.592460165671
30
0
41
1
10
8.61020722492043
20
-10.52091863692
30
0
41
1
10
9.00330589451289
20
-10.3764821217335
30
0
41
1
10
9.20110253596607
20
-10.3035856903108
30
0
41
1
10
9.59892009497315
20
-10.1565566035325
30
0
41
1
10
9.79894039521653
20
-10.0824225160464
30
0
41
1
10
10
20
-10.0077416200403
30
0
0
SPLINE
5
D5
100
AcDbEntity
8
1
62
256
6
ByLayer
370
18
48
1
60
0
100
AcDbSpline
70
4
71
3
72
40
73
36
40
0
40
0
40
0
40
0
40
0.0114745811393801
40
0.0114745811393801
40
0.0308574324895878
40
0.0308574324895878
40
0.069623135190004
40
0.069623135190004
40
0.147154540590837
40
0.147154540590837
40
0.22468594599167
40
0.22468594599167
40
0.263451648692086
40
0.263451648692086
40
0.302217351392502
40
0.302217351392502
40
0.379748756793335
40
0.379748756793335
40
0.457280162194168
40
0.457280162194168
40
0.534811567595
40
0.534811567595
40
0.612342972995833
40
0.612342972995833
40
0.651108675696251
40
0.651108675696251
40
0.689874378396669
40
0.689874378396669
40
0.767405783797502
40
0.767405783797502
40
0.844937189198335
40
0.844937189198335
40
0.922468594599167
40
0.922468594599167
40
1
40
1
40
1
40
1
41
1
10
3.49841530896919
20
12.2102213748817
30
0
41
1
10
3.51225028740873
20
12.2082756600674
30
0
41
1
10
3.5263504196821
20
12.2061734533784
30
0
41
1
10
3.56497719641706
20
12.2001048264746
30
0
41
1
10
3.59000497201828
20
12.1958486961753
30
0
41
1
10
3.66680688668816
20
12.1818865061703
30
0
41
1
10
3.72045290303157
20
12.1709655857167
30
0
41
1
10
3.88824027049549
20
12.133812127871
30
0
41
1
10
4.0092112604184
20
12.1032047229918
30
0
41
1
10
4.26741887203622
20
12.0322143014855
30
0
41
1
10
4.40466494046001
20
11.9918249801413
30
0
41
1
10
4.62167567538228
20
11.9249948399656
30
0
41
1
10
4.69587277306087
20
11.9016742559512
30
0
41
1
10
4.84783982196089
20
11.8530986012934
30
0
41
1
10
4.92514941450418
20
11.8279908087213
30
0
41
1
10
5.16052722683281
20
11.7505596654251
30
0
41
1
10
5.32214834090721
20
11.6961030849217
30
0
41
1
10
5.65359473714233
20
11.5826578820564
30
0
41
1
10
5.82342374050262
20
11.5236658999807
30
0
41
1
10
6.17031453682193
20
11.4019876264082
30
0
41
1
10
6.34737839050038
20
11.3392993119691
30
0
41
1
10
6.70790125410457
20
11.2108526278765
30
0
41
1
10
6.89136125095584
20
11.1450928934985
30
0
41
1
10
7.17078683241385
20
11.0444952116614
30
0
41
1
10
7.26463915582991
20
11.0106337192515
30
0
41
1
10
7.45365450507757
20
10.9423065071107
30
0
41
1
10
7.54861406397032
20
10.9079143245493
30
0
41
1
10
7.83474842368798
20
10.8041030503449
30
0
41
1
10
8.02717621132138
20
10.7340516625614
30
0
41
1
10
8.41490580702742
20
10.592460165671
30
0
41
1
10
8.6102072249204
20
10.52091863692
30
0
41
1
10
9.00330589451283
20
10.3764821217335
30
0
41
1
10
9.20110253596602
20
10.3035856903108
30
0
41
1
10
9.59892009497315
20
10.1565566035324
30
0
41
1
10
9.7989403952165
20
10.0824225160463
30
0
41
1
10
10
20
10.0077416200402
30
0
0
SPLINE
5
D6
100
AcDbEntity
8
1
62
256
6
ByLayer
370
13
48
1
60
0
100
AcDbSpline
70
4
71
3
72
140
73
136
40
0
40
0
40
0
40
0
40
0.0156249999999999
40
0.0156249999999999
40
0.0312499999999997
40
0.0312499999999997
40
0.0468749999999996
40
0.0468749999999996
40
0.0624999999999995
40
0.0624999999999995
40
0.0781249999999994
40
0.0781249999999994
40
0.0937499999999992
40
0.0937499999999992
40
0.109374999999999
40
0.109374999999999
40
0.124999999999999
40
0.124999999999999
40
0.140624999999999
40
0.140624999999999
40
0.156249999999999
40
0.156249999999999
40
0.171874999999999
40
0.171874999999999
40
0.187499999999999
40
0.187499999999999
40
0.203124999999999
40
0.203124999999999
40
0.210937499999998
40
0.210937499999998
40
0.218749999999998
40
0.218749999999998
40
0.234374999999998
40
0.234374999999998
40
0.249999999999998
40
0.249999999999998
40
0.265624999999998
40
0.265624999999998
40
0.281249999999998
40
0.281249999999998
40
0.296874999999998
40
0.296874999999998
40
0.312499999999998
40
0.312499999999998
40
0.328124999999998
40
0.328124999999998
40
0.343749999999998
40
0.343749999999998
40
0.359374999999997
40
0.359374999999997
40
0.374999999999997
40
0.374999999999997
40
0.390624999999997
40
0.390624999999997
40
0.406249999999997
40
0.406249999999997
40
0.421874999999997
40
0.421874999999997
40
0.437499999999997
40
0.437499999999997
40
0.453124999999997
40
0.453124999999997
40
0.468749999999997
40
0.468749999999997
40
0.476562499999997
40
0.476562499999997
40
0.484374999999997
40
0.484374999999997
40
0.499999999999997
40
0.499999999999997
40
0.515624999999998
40
0.515624999999998
40
0.531249999999998
40
0.531249999999998
40
0.546874999999998
40
0.546874999999998
40
0.562499999999998
40
0.562499999999998
40
0.578124999999999
40
0.578124999999999
40
0.593749999999999
40
0.593749999999999
40
0.609374999999999
40
0.609374999999999
40
0.625
40
0.625
40
0.640625
40
0.640625
40
0.65625
40
0.65625
40
0.671875000000001
40
0.671875000000001
40
0.687500000000001
40
0.687500000000001
40
0.703125000000001
40
0.703125000000001
40
0.718750000000001
40
0.718750000000001
40
0.734375000000002
40
0.734375000000002
40
0.742187500000002
40
0.742187500000002
40
0.750000000000002
40
0.750000000000002
40
0.765625000000002
40
0.765625000000002
40
0.781250000000002
40
0.781250000000002
40
0.796875000000001
40
0.796875000000001
40
0.812500000000001
40
0.812500000000001
40
0.828125000000001
40
0.828125000000001
40
0.843750000000001
40
0.843750000000001
40
0.859375000000001
40
0.859375000000001
40
0.875000000000001
40
0.875000000000001
40
0.890625000000001
40
0.890625000000001
40
0.90625
40
0.90625
40
0.921875
40
0.921875
40
0.9375
40
0.9375
40
0.953125
40
0.953125
40
0.96875
40
0.96875
40
0.984375
40
0.984375
40
1
40
1
40
1
40
1
41
1
10
139.4
20
11.294460601097
30
0
41
1
10
139.45391595385
20
11.1994716434371
30
0
41
1
10
139.507831907701
20
11.0872114302483
30
0
41
1
10
139.615663815401
20
10.8273492460503
30
0
41
1
10
139.669579769251
20
10.6797435101434
30
0
41
1
10
139.777411676952
20
10.3493411896843
30
0
41
1
10
139.831327630802
20
10.1665428986409
30
0
41
1
10
139.939159538503
20
9.76695128572348
30
0
41
1
10
139.993075492354
20
9.55015873449278
30
0
41
1
10
140.100907400054
20
9.08483475631527
30
0
41
1
10
140.154823353904
20
8.83630670100004
30
0
41
1
10
140.262655261605
20
8.31076623125378
30
0
41
1
10
140.316571215455
20
8.03375956546901
30
0
41
1
10
140.424403123156
20
7.45537673069023
30
0
41
1
10
140.478319077006
20
7.15400813373904
30
0
41
1
10
140.586150984707
20
6.53167437161062
30
0
41
1
10
140.640066938557
20
6.2107178083069
30
0
41
1
10
140.747898846258
20
5.55439324875638
30
0
41
1
10
140.801814800108
20
5.21903399021645
30
0
41
1
10
140.909646707809
20
4.53923776734419
30
0
41
1
10
140.963562661659
20
4.19480883493475
30
0
41
1
10
141.07139456936
20
3.50210086833053
30
0
41
1
10
141.12531052321
20
3.15382849895562
30
0
41
1
10
141.233142430911
20
2.45833232092175
30
0
41
1
10
141.287058384761
20
2.11111340504502
30
0
41
1
10
141.394890292462
20
1.42211916731952
30
0
41
1
10
141.448806246312
20
1.08034683329615
30
0
41
1
10
141.529680177087
20
0.574600718402365
30
0
41
1
10
141.556638154013
20
0.407165617609962
30
0
41
1
10
141.610554107863
20
0.0749967816928461
30
0
41
1
10
141.637512084788
20
-0.0890607329604052
30
0
41
1
10
141.718386015564
20
-0.587543153583766
30
0
41
1
10
141.772301969414
20
-0.925266932843698
30
0
41
1
10
141.880133877115
20
-1.6080780115129
30
0
41
1
10
141.934049830965
20
-1.95316322353102
30
0
41
1
10
142.041881738666
20
-2.64659689674556
30
0
41
1
10
142.095797692516
20
-2.99494138993845
30
0
41
1
10
142.203629600216
20
-3.69022493723927
30
0
41
1
10
142.257545554067
20
-4.03715815397052
30
0
41
1
10
142.365377461768
20
-4.7245294049724
30
0
41
1
10
142.419293415618
20
-5.06496000366585
30
0
41
1
10
142.527125323318
20
-5.73401564700322
30
0
41
1
10
142.581041277169
20
-6.06263220037292
30
0
41
1
10
142.688873184869
20
-6.70277003192507
30
0
41
1
10
142.74278913872
20
-7.0142825303657
30
0
41
1
10
142.85062104642
20
-7.61520542320159
30
0
41
1
10
142.904537000271
20
-7.90460763630054
30
0
41
1
10
143.012368907971
20
-8.45684395349087
30
0
41
1
10
143.066284861821
20
-8.71967133628175
30
0
41
1
10
143.174116769522
20
-9.21505961652036
30
0
41
1
10
143.228032723373
20
-9.44761593787229
30
0
41
1
10
143.335864631073
20
-9.87970324934059
30
0
41
1
10
143.389780584923
20
-10.079232199642
30
0
41
1
10
143.497612492624
20
-10.4435458987198
30
0
41
1
10
143.551528446474
20
-10.6083311865956
30
0
41
1
10
143.659360354175
20
-10.902501007481
30
0
41
1
10
143.713276308025
20
-11.0318883725623
30
0
41
1
10
143.821108215726
20
-11.2556161448445
30
0
41
1
10
143.875024169576
20
-11.3499611450424
30
0
41
1
10
143.982856077277
20
-11.5048546995264
30
0
41
1
10
144.036772031127
20
-11.5654089469836
30
0
41
1
10
144.144603938828
20
-11.6547112857047
30
0
41
1
10
144.198519892678
20
-11.6834655007296
30
0
41
1
10
144.279393823454
20
-11.7046548852052
30
0
41
1
10
144.306351800379
20
-11.7080648441303
30
0
41
1
10
144.360267754229
20
-11.7079332897077
30
0
41
1
10
144.387225731154
20
-11.7043883877411
30
0
41
1
10
144.46809966193
20
-11.682784305728
30
0
41
1
10
144.52201561578
20
-11.6537405422749
30
0
41
1
10
144.629847523481
20
-11.5638373658498
30
0
41
1
10
144.683763477331
20
-11.5029718302652
30
0
41
1
10
144.791595385032
20
-11.3474401211065
30
0
41
1
10
144.845511338882
20
-11.252768261558
30
0
41
1
10
144.953343246583
20
-11.0283789773324
30
0
41
1
10
145.007259200433
20
-10.8986569733224
30
0
41
1
10
145.115091108134
20
-10.6038191770687
30
0
41
1
10
145.169007061984
20
-10.4387005722492
30
0
41
1
10
145.276838969685
20
-10.0737314470255
30
0
41
1
10
145.330754923535
20
-9.87388041104271
30
0
41
1
10
145.438586831236
20
-9.44117019730038
30
0
41
1
10
145.492502785086
20
-9.20831308409964
30
0
41
1
10
145.600334692786
20
-8.71235397100148
30
0
41
1
10
145.654250646637
20
-8.44925656985001
30
0
41
1
10
145.762082554337
20
-7.89651914488422
30
0
41
1
10
145.815998508188
20
-7.60688585977499
30
0
41
1
10
145.923830415888
20
-7.00554601372423
30
0
41
1
10
145.977746369739
20
-6.69384764393743
30
0
41
1
10
146.085578277439
20
-6.0533871892969
30
0
41
1
10
146.13949423129
20
-5.72463388552828
30
0
41
1
10
146.24732613899
20
-5.05535528633473
30
0
41
1
10
146.301242092841
20
-4.71483847550468
30
0
41
1
10
146.409074000541
20
-4.02734435034893
30
0
41
1
10
146.462989954392
20
-3.68037445861546
30
0
41
1
10
146.570821862092
20
-2.98506399906637
30
0
41
1
10
146.624737815942
20
-2.63672925178233
30
0
41
1
10
146.732569723643
20
-1.94335673564274
30
0
41
1
10
146.786485677493
20
-1.59832291668007
30
0
41
1
10
146.894317585194
20
-0.915650391092015
30
0
41
1
10
146.948233539044
20
-0.578013754732012
30
0
41
1
10
147.02910746982
20
-0.0796840082547305
30
0
41
1
10
147.056065446745
20
0.0843719923252593
30
0
41
1
10
147.109981400595
20
0.416642749278537
30
0
41
1
10
147.13693937752
20
0.584125157035572
30
0
41
1
10
147.217813308296
20
1.09000100728795
30
0
41
1
10
147.271729262146
20
1.43184356440423
30
0
41
1
10
147.379561169847
20
2.12093948948552
30
0
41
1
10
147.433477123697
20
2.46818985176631
30
0
41
1
10
147.541309031398
20
3.16370475438717
30
0
41
1
10
147.595224985248
20
3.51196438414874
30
0
41
1
10
147.703056892949
20
4.20459868410128
30
0
41
1
10
147.756972846799
20
4.54896667421087
30
0
41
1
10
147.8648047545
20
5.22859070191652
30
0
41
1
10
147.91872070835
20
5.56383869745397
30
0
41
1
10
148.026552616051
20
6.21989058428574
30
0
41
1
10
148.080468569901
20
6.54068573501951
30
0
41
1
10
148.188300477602
20
7.16264917867804
30
0
41
1
10
148.242216431452
20
7.46380887531785
30
0
41
1
10
148.350048339153
20
8.04173152134894
30
0
41
1
10
148.403964293003
20
8.31848691250485
30
0
41
1
10
148.511796200703
20
8.84348970863815
30
0
41
1
10
148.565712154554
20
9.09173138532708
30
0
41
1
10
148.673544062255
20
9.55645638393148
30
0
41
1
10
148.727460016105
20
9.77293635832388
30
0
41
1
10
148.835291923805
20
10.1718864567936
30
0
41
1
10
148.889207877656
20
10.3543558347627
30
0
41
1
10
148.997039785356
20
10.6840940465853
30
0
41
1
10
149.050955739207
20
10.8313646087535
30
0
41
1
10
149.158787646907
20
11.0905597508837
30
0
41
1
10
149.212703600758
20
11.2024881125042
30
0
41
1
10
149.320535508458
20
11.391814140626
30
0
41
1
10
149.374451462309
20
11.4692170307776
30
0
41
1
10
149.482283370009
20
11.5911305375639
30
0
41
1
10
149.53619932386
20
11.6356471407306
30
0
41
1
10
149.64403123156
20
11.6940788153524
30
0
41
1
10
149.697947185411
20
11.708
30
0
41
1
10
149.751863139261
20
11.708
30
0
0
SPLINE
5
D7
100
AcDbEntity
8
1
62
256
6
ByLayer
370
13
48
1
60
0
100
AcDbSpline
70
4
71
3
72
14
73
10
40
0
40
0
40
0
40
0
40
0.25
40
0.25
40
0.5
40
0.5
40
0.75
40
0.75
40
1
40
1
40
1
40
1
41
1
10
149.135478539576
20
11.708
30
0
41
1
10
149.227408369379
20
11.708
30
0
41
1
10
149.319338199182
20
11.6674270651574
30
0
41
1
10
149.503197858788
20
11.4922764908135
30
0
41
1
10
149.595127688591
20
11.3576119477478
30
0
41
1
10
149.778987348197
20
10.9862870446609
30
0
41
1
10
149.870917178
20
10.7495596403431
30
0
41
1
10
150.054776837605
20
10.1735621140991
30
0
41
1
10
150.146706667408
20
9.83427147153461
30
0
41
1
10
150.238636497211
20
9.44786432723393
30
0
0
SPLINE
5
D8
100
AcDbEntity
8
1
62
256
6
ByLayer
370
13
48
1
60
0
100
AcDbSpline
70
4
71
3
72
126
73
122
40
0
40
0
40
0
40
0
40
0.0156250000000005
40
0.0156250000000005
40
0.031250000000001
40
0.031250000000001
40
0.0468750000000015
40
0.0468750000000015
40
0.0625000000000021
40
0.0625000000000021
40
0.0781250000000026
40
0.0781250000000026
40
0.0937500000000031
40
0.0937500000000031
40
0.109375000000004
40
0.109375000000004
40
0.125000000000004
40
0.125000000000004
40
0.156250000000005
40
0.156250000000005
40
0.171875000000006
40
0.171875000000006
40
0.179687500000006
40
0.179687500000006
40
0.187500000000006
40
0.187500000000006
40
0.218750000000007
40
0.218750000000007
40
0.234375000000008
40
0.234375000000008
40
0.250000000000008
40
0.250000000000008
40
0.265625000000009
40
0.265625000000009
40
0.281250000000009
40
0.281250000000009
40
0.29687500000001
40
0.29687500000001
40
0.31250000000001
40
0.31250000000001
40
0.328125000000011
40
0.328125000000011
40
0.343750000000012
40
0.343750000000012
40
0.359375000000012
40
0.359375000000012
40
0.375000000000013
40
0.375000000000013
40
0.390625000000013
40
0.390625000000013
40
0.406250000000014
40
0.406250000000014
40
0.437500000000015
40
0.437500000000015
40
0.445312500000015
40
0.445312500000015
40
0.449218750000015
40
0.449218750000015
40
0.453125000000015
40
0.453125000000015
40
0.468750000000015
40
0.468750000000015
40
0.500000000000014
40
0.500000000000014
40
0.515625000000014
40
0.515625000000014
40
0.531250000000014
40
0.531250000000014
40
0.546875000000013
40
0.546875000000013
40
0.562500000000013
40
0.562500000000013
40
0.578125000000013
40
0.578125000000013
40
0.593750000000012
40
0.593750000000012
40
0.609375000000012
40
0.609375000000012
40
0.625000000000011
40
0.625000000000011
40
0.640625000000011
40
0.640625000000011
40
0.656250000000011
40
0.656250000000011
40
0.68750000000001
40
0.68750000000001
40
0.718750000000009
40
0.718750000000009
40
0.722656250000008
40
0.722656250000008
40
0.726562500000008
40
0.726562500000008
40
0.734375000000008
40
0.734375000000008
40
0.750000000000008
40
0.750000000000008
40
0.781250000000007
40
0.781250000000007
40
0.796875000000006
40
0.796875000000006
40
0.812500000000006
40
0.812500000000006
40
0.828125000000005
40
0.828125000000005
40
0.843750000000005
40
0.843750000000005
40
0.859375000000004
40
0.859375000000004
40
0.875000000000004
40
0.875000000000004
40
0.890625000000003
40
0.890625000000003
40
0.906250000000003
40
0.906250000000003
40
0.921875000000002
40
0.921875000000002
40
0.937500000000002
40
0.937500000000002
40
0.968750000000001
40
0.968750000000001
40
1
40
1
40
1
40
1
41
1
10
139.4
20
9.96107166660536
30
0
41
1
10
139.451380673122
20
9.77036518935856
30
0
41
1
10
139.502761346243
20
9.56423391461053
30
0
41
1
10
139.605522692487
20
9.1230605532148
30
0
41
1
10
139.656903365609
20
8.8880210419905
30
0
41
1
10
139.759664711852
20
8.39179773653694
30
0
41
1
10
139.811045384974
20
8.13061831800229
30
0
41
1
10
139.913806731218
20
7.58560313391166
30
0
41
1
10
139.965187404339
20
7.30177316648238
30
0
41
1
10
140.067948750583
20
6.71551194273422
30
0
41
1
10
140.119329423705
20
6.41308735671822
30
0
41
1
10
140.222090769948
20
5.79406977083863
30
0
41
1
10
140.27347144307
20
5.4774836786635
30
0
41
1
10
140.376232789313
20
4.83474758798465
30
0
41
1
10
140.427613462435
20
4.50860411517385
30
0
41
1
10
140.530374808679
20
3.85132554200791
30
0
41
1
10
140.581755481801
20
3.52019607023675
30
0
41
1
10
140.735897501166
20
2.52585399672682
30
0
41
1
10
140.838658847409
20
1.8619401011928
30
0
41
1
10
140.992800866775
20
0.887016350012573
30
0
41
1
10
141.044181539896
20
0.565474317896303
30
0
41
1
10
141.121252549579
20
0.0905303116766731
30
0
41
1
10
141.14694288614
20
-0.0658445157777692
30
0
41
1
10
141.198323559262
20
-0.382217400834264
30
0
41
1
10
141.224013895823
20
-0.541636323307557
30
0
41
1
10
141.352465578627
20
-1.34401706057926
30
0
41
1
10
141.45522692487
20
-2.00316582857118
30
0
41
1
10
141.609368944236
20
-2.99684403322274
30
0
41
1
10
141.660749617358
20
-3.32882828425119
30
0
41
1
10
141.763510963601
20
-3.99014439222071
30
0
41
1
10
141.814891636723
20
-4.31947124528162
30
0
41
1
10
141.917652982966
20
-4.97099522997024
30
0
41
1
10
141.969033656088
20
-5.29318625312371
30
0
41
1
10
142.071795002332
20
-5.92582783735614
30
0
41
1
10
142.123175675453
20
-6.23627161932922
30
0
41
1
10
142.225937021697
20
-6.84086974232338
30
0
41
1
10
142.277317694819
20
-7.13501720767866
30
0
41
1
10
142.380079041062
20
-7.70274265205299
30
0
41
1
10
142.431459714184
20
-7.97631429779756
30
0
41
1
10
142.534221060428
20
-8.49907764119638
30
0
41
1
10
142.585601733549
20
-8.74826415497398
30
0
41
1
10
142.688363079793
20
-9.21909140624547
30
0
41
1
10
142.739743752915
20
-9.44072858715927
30
0
41
1
10
142.842505099158
20
-9.85406878661257
30
0
41
1
10
142.89388577228
20
-10.0457701502384
30
0
41
1
10
142.996647118523
20
-10.3977067960739
30
0
41
1
10
143.048027791645
20
-10.5579423615739
30
0
41
1
10
143.150789137889
20
-10.8462924468445
30
0
41
1
10
143.20216981101
20
-10.9744089986751
30
0
41
1
10
143.304931157254
20
-11.1987073800755
30
0
41
1
10
143.356311830376
20
-11.2948926264785
30
0
41
1
10
143.510453849741
20
-11.5369627662986
30
0
41
1
10
143.613215195985
20
-11.6361244573112
30
0
41
1
10
143.741666878789
20
-11.6914675564362
30
0
41
1
10
143.76735721535
20
-11.6991245215374
30
0
41
1
10
143.805892720191
20
-11.7057136540409
30
0
41
1
10
143.818737888472
20
-11.7070941387864
30
0
41
1
10
143.844428225032
20
-11.7082619161268
30
0
41
1
10
143.857273393313
20
-11.7080550108819
30
0
41
1
10
143.921499234715
20
-11.7030287270539
30
0
41
1
10
143.972879907837
20
-11.6861675038965
30
0
41
1
10
144.127021927202
20
-11.5935607077716
30
0
41
1
10
144.229783273446
20
-11.4755048498834
30
0
41
1
10
144.383925292811
20
-11.2039377606232
30
0
41
1
10
144.435305965933
20
-11.0977333968715
30
0
41
1
10
144.538067312176
20
-10.8532504582544
30
0
41
1
10
144.589447985298
20
-10.7149688570274
30
0
41
1
10
144.692209331542
20
-10.4064008959016
30
0
41
1
10
144.743590004663
20
-10.2361130239825
30
0
41
1
10
144.846351350907
20
-9.86445955168244
30
0
41
1
10
144.897732024029
20
-9.66309426983904
30
0
41
1
10
145.000493370272
20
-9.23108956398218
30
0
41
1
10
145.051874043394
20
-9.00045241104652
30
0
41
1
10
145.154635389637
20
-8.51254552166824
30
0
41
1
10
145.206016062759
20
-8.25527989628617
30
0
41
1
10
145.308777409003
20
-7.71749918569293
30
0
41
1
10
145.360158082125
20
-7.4369897070095
30
0
41
1
10
145.462919428368
20
-6.85669865910137
30
0
41
1
10
145.51430010149
20
-6.55692366363752
30
0
41
1
10
145.617061447734
20
-5.94248828652476
30
0
41
1
10
145.668442120855
20
-5.62783481781355
30
0
41
1
10
145.771203467099
20
-4.98823372941891
30
0
41
1
10
145.82258414022
20
-4.66329273358627
30
0
41
1
10
145.976726159586
20
-3.67991397739476
30
0
41
1
10
146.079487505829
20
-3.01311105573257
30
0
41
1
10
146.285010198316
20
-1.69086588671851
30
0
41
1
10
146.38777154456
20
-1.03552578489482
30
0
41
1
10
146.503378059084
20
-0.319710567383652
30
0
41
1
10
146.516223227364
20
-0.240467772316549
30
0
41
1
10
146.541913563925
20
-0.0826087494625085
30
0
41
1
10
146.554758732206
20
-0.0042098736801677
30
0
41
1
10
146.593294237047
20
0.231878523002564
30
0
41
1
10
146.618984573608
20
0.390554919614459
30
0
41
1
10
146.69605558329
20
0.869927666929783
30
0
41
1
10
146.747436256412
20
1.19398482514959
30
0
41
1
10
146.901578275777
20
2.17487713472667
30
0
41
1
10
147.004339622021
20
2.84065122818632
30
0
41
1
10
147.158481641386
20
3.83373454112151
30
0
41
1
10
147.209862314508
20
4.16377305909532
30
0
41
1
10
147.312623660752
20
4.81744116203731
30
0
41
1
10
147.364004333873
20
5.14106478850064
30
0
41
1
10
147.466765680117
20
5.77730100372747
30
0
41
1
10
147.518146353239
20
6.08990688400169
30
0
41
1
10
147.620907699482
20
6.69953519461956
30
0
41
1
10
147.672288372604
20
6.99655072264343
30
0
41
1
10
147.775049718847
20
7.57066206280581
30
0
41
1
10
147.826430391969
20
7.84775141360396
30
0
41
1
10
147.929191738213
20
8.37811324951218
30
0
41
1
10
147.980572411335
20
8.63138033304853
30
0
41
1
10
148.083333757578
20
9.1108198985543
30
0
41
1
10
148.1347144307
20
9.33698854279348
30
0
41
1
10
148.237475776943
20
9.75971331322953
30
0
41
1
10
148.288856450065
20
9.95626747550693
30
0
41
1
10
148.391617796309
20
10.3180932070617
30
0
41
1
10
148.44299846943
20
10.483364760714
30
0
41
1
10
148.545759815674
20
10.7818327948808
30
0
41
1
10
148.597140488796
20
10.915031051766
30
0
41
1
10
148.751282508161
20
11.2666000456454
30
0
41
1
10
148.854043854405
20
11.4366245825353
30
0
41
1
10
149.059566546892
20
11.657249795552
30
0
41
1
10
149.162327893135
20
11.708
30
0
41
1
10
149.265089239379
20
11.708
30
0
0
SPLINE
5
D9
100
AcDbEntity
8
1
62
256
6
ByLayer
370
13
48
1
60
0
100
AcDbSpline
70
4
71
3
72
22
73
18
40
0
40
0
40
0
40
0
40
0.125
40
0.125
40
0.25
40
0.25
40
0.375
40
0.375
40
0.5
40
0.5
40
0.625
40
0.625
40
0.75
40
0.75
40
0.875
40
0.875
40
1
40
1
40
1
40
1
41
1
10
148.648704639694
20
11.708
30
0
41
1
10
148.714951800424
20
11.708
30
0
41
1
10
148.781198961154
20
11.6869696591002
30
0
41
1
10
148.913693282614
20
11.5978390913124
30
0
41
1
10
148.979940443344
20
11.5297217204586
30
0
41
1
10
149.112434764803
20
11.342536412588
30
0
41
1
10
149.178681925533
20
11.2234524982758
30
0
41
1
10
149.311176246993
20
10.9321204700319
30
0
41
1
10
149.377423407723
20
10.7598603421291
30
0
41
1
10
149.509917729183
20
10.3620603171302
30
0
41
1
10
149.576164889913
20
10.1365150649974
30
0
41
1
10
149.708659211372
20
9.63439786083708
30
0
41
1
10
149.774906372102
20
9.35782905002534
30
0
41
1
10
149.907400693562
20
8.75832558591247
30
0
41
1
10
149.973647854292
20
8.43540289066226
30
0
41
1
10
150.106142175752
20
7.75003335307869
30
0
41
1
10
150.172389336481
20
7.38760582016479
30
0
41
1
10
150.238636497211
20
7.00968926969355
30
0
0
SPLINE
5
DA
100
AcDbEntity
8
1
62
256
6
ByLayer
370
13
48
1
60
0
100
AcDbSpline
70
4
71
3
72
82
73
78
40
0
40
0
40
0
40
0
40
0.0312499999999999
40
0.0312499999999999
40
0.0624999999999999
40
0.0624999999999999
40
0.0937499999999998
40
0.0937499999999998
40
0.125
40
0.125
40
0.1328125
40
0.1328125
40
0.140625
40
0.140625
40
0.15625
40
0.15625
40
0.1875
40
0.1875
40
0.218749999999999
40
0.218749999999999
40
0.249999999999999
40
0.249999999999999
40
0.281249999999999
40
0.281249999999999
40
0.312499999999998
40
0.312499999999998
40
0.343749999999998
40
0.343749999999998
40
0.374999999999998
40
0.374999999999998
40
0.406249999999997
40
0.406249999999997
40
0.421874999999997
40
0.421874999999997
40
0.429687499999997
40
0.429687499999997
40
0.437499999999997
40
0.437499999999997
40
0.468749999999997
40
0.468749999999997
40
0.499999999999996
40
0.499999999999996
40
0.531249999999996
40
0.531249999999996
40
0.562499999999996
40
0.562499999999996
40
0.593749999999995
40
0.593749999999995
40
0.624999999999995
40
0.624999999999995
40
0.656249999999995
40
0.656249999999995
40
0.687499999999994
40
0.687499999999994
40
0.703124999999994
40
0.703124999999994
40
0.710937499999995
40
0.710937499999995
40
0.718749999999995
40
0.718749999999995
40
0.749999999999995
40
0.749999999999995
40
0.781249999999996
40
0.781249999999996
40
0.812499999999996
40
0.812499999999996
40
0.843749999999997
40
0.843749999999997
40
0.874999999999998
40
0.874999999999998
40
0.906249999999998
40
0.906249999999998
40
0.937499999999999
40
0.937499999999999
40
0.968749999999999
40
0.968749999999999
40
1
40
1
40
1
40
1
41
1
10
139.4
20
7.72813866750025
30
0
41
1
10
139.497690784786
20
7.2033182858134
30
0
41
1
10
139.595381569573
20
6.63852224677694
30
0
41
1
10
139.790763139146
20
5.45841728205366
30
0
41
1
10
139.888453923932
20
4.84327792630353
30
0
41
1
10
140.083835493505
20
3.59434828693605
30
0
41
1
10
140.181526278291
20
2.96069781771601
30
0
41
1
10
140.376907847864
20
1.70390427729316
30
0
41
1
10
140.474598632651
20
1.08083982813491
30
0
41
1
10
140.596712113634
20
0.323003695050886
30
0
41
1
10
140.62113480983
20
0.172468918222819
30
0
41
1
10
140.669980202223
20
-0.126248396671343
30
0
41
1
10
140.69440289842
20
-0.276328176538868
30
0
41
1
10
140.76767098701
20
-0.730386539823684
30
0
41
1
10
140.816516379403
20
-1.03729817162667
30
0
41
1
10
140.963052556583
20
-1.96671818720967
30
0
41
1
10
141.060743341369
20
-2.59809969420624
30
0
41
1
10
141.256124910942
20
-3.85835812814293
30
0
41
1
10
141.353815695728
20
-4.48712540779041
30
0
41
1
10
141.549197265301
20
-5.71128206392106
30
0
41
1
10
141.646888050088
20
-6.30651186663073
30
0
41
1
10
141.842269619661
20
-7.43210564509513
30
0
41
1
10
141.939960404447
20
-7.96230387701934
30
0
41
1
10
142.13534197402
20
-8.93080346585469
30
0
41
1
10
142.233032758806
20
-9.36898727751901
30
0
41
1
10
142.428414328379
20
-10.1353397183748
30
0
41
1
10
142.526105113165
20
-10.4634755537244
30
0
41
1
10
142.721486682738
20
-11.0028928391829
30
0
41
1
10
142.819177467525
20
-11.2142264504893
30
0
41
1
10
143.014559037098
20
-11.5241531649166
30
0
41
1
10
143.112249821884
20
-11.6228521011305
30
0
41
1
10
143.258785999064
20
-11.6957618188405
30
0
41
1
10
143.307631391457
20
-11.707596935749
30
0
41
1
10
143.380899480047
20
-11.70818633057
30
0
41
1
10
143.405322176243
20
-11.7055328808537
30
0
41
1
10
143.454167568636
20
-11.6942629552964
30
0
41
1
10
143.478590264833
20
-11.6856460558725
30
0
41
1
10
143.600703745816
20
-11.6270276671116
30
0
41
1
10
143.698394530603
20
-11.5301752174886
30
0
41
1
10
143.893776100175
20
-11.2240965871574
30
0
41
1
10
143.991466884962
20
-11.0147640182269
30
0
41
1
10
144.186848454535
20
-10.4793341659434
30
0
41
1
10
144.284539239321
20
-10.1531834700456
30
0
41
1
10
144.479920808894
20
-9.39058859500088
30
0
41
1
10
144.57761159368
20
-8.95417563921833
30
0
41
1
10
144.772993163253
20
-7.98882287171614
30
0
41
1
10
144.87068394804
20
-7.45999936680184
30
0
41
1
10
145.066065517612
20
-6.33663859552328
30
0
41
1
10
145.163756302399
20
-5.74226669368468
30
0
41
1
10
145.359137871972
20
-4.5192744150973
30
0
41
1
10
145.456828656758
20
-3.89081415424695
30
0
41
1
10
145.652210226331
20
-2.63066722756426
30
0
41
1
10
145.749901011117
20
-1.99909128870385
30
0
41
1
10
145.896437188297
20
-1.06908272887648
30
0
41
1
10
145.94528258069
20
-0.761925771002979
30
0
41
1
10
146.01855066928
20
-0.307437462918159
30
0
41
1
10
146.042973365477
20
-0.156978994973002
30
0
41
1
10
146.09181875787
20
0.141576338910284
30
0
41
1
10
146.116241454066
20
0.291878944914146
30
0
41
1
10
146.23835493505
20
1.04900205832044
30
0
41
1
10
146.336045719836
20
1.67166254704114
30
0
41
1
10
146.531427289409
20
2.92810105823162
30
0
41
1
10
146.629118074195
20
3.56180160804124
30
0
41
1
10
146.824499643768
20
4.81136631906307
30
0
41
1
10
146.922190428555
20
5.42709153707702
30
0
41
1
10
147.117571998127
20
6.60891299591589
30
0
41
1
10
147.215262782914
20
7.1748397654234
30
0
41
1
10
147.410644352486
20
8.22720814469454
30
0
41
1
10
147.508335137273
20
8.71350219112301
30
0
41
1
10
147.703716706846
20
9.58365427930812
30
0
41
1
10
147.801407491632
20
9.9674354201164
30
0
41
1
10
147.996789061205
20
10.6200530647909
30
0
41
1
10
148.094479845991
20
10.8889023246939
30
0
41
1
10
148.289861415564
20
11.3105889776083
30
0
41
1
10
148.387552200351
20
11.4635109473069
30
0
41
1
10
148.582933769924
20
11.6621579828572
30
0
41
1
10
148.68062455471
20
11.708
30
0
41
1
10
148.778315339496
20
11.708
30
0
0
SPLINE
5
DB
100
AcDbEntity
8
1
62
256
6
ByLayer
370
13
48
1
60
0
100
AcDbSpline
70
4
71
3
72
22
73
18
40
0
40
0
40
0
40
0
40
0.125
40
0.125
40
0.25
40
0.25
40
0.375
40
0.375
40
0.5
40
0.5
40
0.625
40
0.625
40
0.75
40
0.75
40
0.875
40
0.875
40
1
40
1
40
1
40
1
41
1
10
148.161930739812
20
11.708
30
0
41
1
10
148.24846014637
20
11.708
30
0
41
1
10
148.334989552929
20
11.672070580505
30
0
41
1
10
148.508048366045
20
11.5175330769202
30
0
41
1
10
148.594577772603
20
11.3988604473528
30
0
41
1
10
148.76763658572
20
11.0717259134264
30
0
41
1
10
148.854165992278
20
10.8632115630482
30
0
41
1
10
149.027224805395
20
10.3549353024991
30
0
41
1
10
149.113754211953
20
10.0551509001054
30
0
41
1
10
149.28681302507
20
9.36972029142612
30
0
41
1
10
149.373342431628
20
8.98409368198125
30
0
41
1
10
149.546401244745
20
8.13928914357007
30
0
41
1
10
149.632930651303
20
7.68017231408339
30
0
41
1
10
149.80598946442
20
6.70639525012606
30
0
41
1
10
149.892518870978
20
6.19182282753803
30
0
41
1
10
150.065577684095
20
5.12853686420209
30
0
41
1
10
150.152107090653
20
4.57991474325635
30
0
41
1
10
150.238636497211
20
4.02522970743544
30
0
0
SPLINE
5
DC
100
AcDbEntity
8
1
62
256
6
ByLayer
370
13
48
1
60
0
100
AcDbSpline
70
4
71
3
72
80
73
76
40
0
40
0
40
0
40
0
40
0.0312500000000011
40
0.0312500000000011
40
0.0625000000000022
40
0.0625000000000022
40
0.0781250000000027
40
0.0781250000000027
40
0.0859375000000028
40
0.0859375000000028
40
0.0937500000000029
40
0.0937500000000029
40
0.125000000000003
40
0.125000000000003
40
0.156250000000003
40
0.156250000000003
40
0.187500000000003
40
0.187500000000003
40
0.218750000000004
40
0.218750000000004
40
0.250000000000004
40
0.250000000000004
40
0.281250000000004
40
0.281250000000004
40
0.312500000000004
40
0.312500000000004
40
0.343750000000004
40
0.343750000000004
40
0.375000000000004
40
0.375000000000004
40
0.390625000000005
40
0.390625000000005
40
0.406250000000005
40
0.406250000000005
40
0.437500000000004
40
0.437500000000004
40
0.468750000000004
40
0.468750000000004
40
0.500000000000004
40
0.500000000000004
40
0.531250000000003
40
0.531250000000003
40
0.562500000000003
40
0.562500000000003
40
0.593750000000003
40
0.593750000000003
40
0.625000000000003
40
0.625000000000003
40
0.656250000000003
40
0.656250000000003
40
0.687500000000002
40
0.687500000000002
40
0.695312500000002
40
0.695312500000002
40
0.703125000000002
40
0.703125000000002
40
0.718750000000002
40
0.718750000000002
40
0.750000000000002
40
0.750000000000002
40
0.781250000000002
40
0.781250000000002
40
0.812500000000001
40
0.812500000000001
40
0.843750000000001
40
0.843750000000001
40
0.875000000000001
40
0.875000000000001
40
0.906250000000001
40
0.906250000000001
40
0.9375
40
0.9375
40
0.96875
40
0.96875
40
1
40
1
40
1
40
1
41
1
10
139.4
20
4.85018263077143
30
0
41
1
10
139.492620223329
20
4.26584525457505
30
0
41
1
10
139.585240446659
20
3.66843166907952
30
0
41
1
10
139.770480893317
20
2.47330206196358
30
0
41
1
10
139.863101116647
20
1.87566603387944
30
0
41
1
10
140.002031451641
20
0.995527748340635
30
0
41
1
10
140.048341563305
20
0.704828744030749
30
0
41
1
10
140.117806730802
20
0.274466128381789
30
0
41
1
10
140.140961786635
20
0.132048495723012
30
0
41
1
10
140.187271898299
20
-0.151028426251486
30
0
41
1
10
140.210426954131
20
-0.293627693745435
30
0
41
1
10
140.326202233293
20
-1.01131937943117
30
0
41
1
10
140.418822456623
20
-1.6007228175406
30
0
41
1
10
140.604062903281
20
-2.79076593555951
30
0
41
1
10
140.69668312661
20
-3.39134910074154
30
0
41
1
10
140.881923573269
20
-4.57942053411637
30
0
41
1
10
140.974543796598
20
-5.16680657525117
30
0
41
1
10
141.159784243257
20
-6.30150580136529
30
0
41
1
10
141.252404466586
20
-6.84869024753257
30
0
41
1
10
141.437644913245
20
-7.87692004326158
30
0
41
1
10
141.530265136574
20
-8.35784505257431
30
0
41
1
10
141.715505583233
20
-9.23228263152575
30
0
41
1
10
141.808125806562
20
-9.62571935741181
30
0
41
1
10
141.993366253221
20
-10.3117742196812
30
0
41
1
10
142.08598647655
20
-10.6043807790187
30
0
41
1
10
142.271226923209
20
-11.0846018959369
30
0
41
1
10
142.363847146538
20
-11.2722642214458
30
0
41
1
10
142.549087593197
20
-11.5470714731691
30
0
41
1
10
142.641707816526
20
-11.6342997494
30
0
41
1
10
142.78063815152
20
-11.6980434671352
30
0
41
1
10
142.826948263185
20
-11.7081512313034
30
0
41
1
10
142.919568486514
20
-11.7078453503545
30
0
41
1
10
142.965878598179
20
-11.6974180823207
30
0
41
1
10
143.104808933173
20
-11.6326784972528
30
0
41
1
10
143.197429156502
20
-11.5447362667998
30
0
41
1
10
143.382669603161
20
-11.2684399374988
30
0
41
1
10
143.47528982649
20
-11.0800026450248
30
0
41
1
10
143.660530273149
20
-10.5982281414153
30
0
41
1
10
143.753150496478
20
-10.3048435320941
30
0
41
1
10
143.938390943136
20
-9.61729778966139
30
0
41
1
10
144.031011166466
20
-9.22314872458139
30
0
41
1
10
144.216251613124
20
-8.34741793620395
30
0
41
1
10
144.308871836454
20
-7.86591249029925
30
0
41
1
10
144.494112283112
20
-6.83670251078959
30
0
41
1
10
144.586732506442
20
-6.2891185237041
30
0
41
1
10
144.7719729531
20
-5.15382290898498
30
0
41
1
10
144.86459317643
20
-4.56623993893876
30
0
41
1
10
145.049833623088
20
-3.37797015594077
30
0
41
1
10
145.142453846418
20
-2.77738527574226
30
0
41
1
10
145.327694293076
20
-1.58750388904008
30
0
41
1
10
145.420314516406
20
-0.998263534862133
30
0
41
1
10
145.536089795567
20
-0.280852006101213
30
0
41
1
10
145.559244851399
20
-0.138343879734521
30
0
41
1
10
145.605554963064
20
0.144669816205834
30
0
41
1
10
145.628710018896
20
0.287239195372877
30
0
41
1
10
145.698175186393
20
0.717770244628213
30
0
41
1
10
145.744485298058
20
1.00856635208342
30
0
41
1
10
145.883415633052
20
1.88894213225328
30
0
41
1
10
145.976035856381
20
2.486664312865
30
0
41
1
10
146.16127630304
20
3.68178440808816
30
0
41
1
10
146.253896526369
20
4.27910198175672
30
0
41
1
10
146.439136973028
20
5.44738261833567
30
0
41
1
10
146.531757196357
20
6.01822669178733
30
0
41
1
10
146.716997643016
20
7.10654468475892
30
0
41
1
10
146.809617866345
20
7.62388915929787
30
0
41
1
10
146.994858313004
20
8.58105892414932
30
0
41
1
10
147.087478536333
20
9.02078210609736
30
0
41
1
10
147.272718982992
20
9.80504771995436
30
0
41
1
10
147.365339206321
20
10.1495452455989
30
0
41
1
10
147.55057965298
20
10.7344897734944
30
0
41
1
10
147.643199876309
20
10.9749567236138
30
0
41
1
10
147.828440322968
20
11.3521416808914
30
0
41
1
10
147.921060546297
20
11.4889287355067
30
0
41
1
10
148.106300992956
20
11.6668128212466
30
0
41
1
10
148.198921216285
20
11.708
30
0
41
1
10
148.291541439614
20
11.708
30
0
0
SPLINE
5
DD
100
AcDbEntity
8
1
62
256
6
ByLayer
370
13
48
1
60
0
100
AcDbSpline
70
4
71
3
72
36
73
32
40
0
40
0
40
0
40
0
40
0.125
40
0.125
40
0.1875
40
0.1875
40
0.249999999999999
40
0.249999999999999
40
0.312499999999999
40
0.312499999999999
40
0.374999999999999
40
0.374999999999999
40
0.4375
40
0.4375
40
0.499999999999999
40
0.499999999999999
40
0.5625
40
0.5625
40
0.625
40
0.625
40
0.6875
40
0.6875
40
0.75
40
0.75
40
0.8125
40
0.8125
40
0.875
40
0.875
40
0.9375
40
0.9375
40
1
40
1
40
1
40
1
41
1
10
147.67515683993
20
11.708
30
0
41
1
10
147.781968492316
20
11.708
30
0
41
1
10
147.888780144703
20
11.6531465331445
30
0
41
1
10
148.048997623283
20
11.4738516672399
30
0
41
1
10
148.102403449477
20
11.3979694694689
30
0
41
1
10
148.209215101863
20
11.2123713598455
30
0
41
1
10
148.262620928057
20
11.1026504366311
30
0
41
1
10
148.369432580443
20
10.8485510244188
30
0
41
1
10
148.422838406637
20
10.7041688653489
30
0
41
1
10
148.529650059024
20
10.3808426434957
30
0
41
1
10
148.583055885217
20
10.2018968287105
30
0
41
1
10
148.689867537604
20
9.81054194268771
30
0
41
1
10
148.743273363797
20
9.59813344260792
30
0
41
1
10
148.850085016184
20
9.14197389236668
30
0
41
1
10
148.903490842377
20
8.89822587299918
30
0
41
1
10
149.010302494764
20
8.38247625516996
30
0
41
1
10
149.063708320957
20
8.11047996248348
30
0
41
1
10
149.170519973344
20
7.54216494443992
30
0
41
1
10
149.223925799537
20
7.24585330551727
30
0
41
1
10
149.330737451924
20
6.63349282924824
30
0
41
1
10
149.384143278117
20
6.31745213234692
30
0
41
1
10
149.490954930504
20
5.6706414504269
30
0
41
1
10
149.544360756698
20
5.33987982607897
30
0
41
1
10
149.651172409084
20
4.66880706618738
30
0
41
1
10
149.704578235278
20
4.32850371149331
30
0
41
1
10
149.811389887664
20
3.64345398140267
30
0
41
1
10
149.864795713858
20
3.29871416237967
30
0
41
1
10
149.971607366245
20
2.60960732269964
30
0
41
1
10
150.025013192438
20
2.26524522120502
30
0
41
1
10
150.131824844825
20
1.58124545612847
30
0
41
1
10
150.185230671018
20
1.24161091518846
30
0
41
1
10
150.238636497211
20
0.906221814313994
30
0
0
SPLINE
5
DE
100
AcDbEntity
8
1
62
256
6
ByLayer
370
13
48
1
60
0
100
AcDbSpline
70
4
71
3
72
85
73
81
40
0
40
0
40
0
40
0
40
0.031249999999998
40
0.031249999999998
40
0.0351562499999979
40
0.0351562499999979
40
0.0390624999999979
40
0.0468749999999979
40
0.0468749999999979
40
0.0624999999999978
40
0.0624999999999978
40
0.0937499999999974
40
0.0937499999999974
40
0.124999999999997
40
0.124999999999997
40
0.156249999999997
40
0.156249999999997
40
0.187499999999996
40
0.187499999999996
40
0.218749999999996
40
0.218749999999996
40
0.249999999999995
40
0.249999999999995
40
0.281249999999995
40
0.281249999999995
40
0.312499999999995
40
0.312499999999995
40
0.343749999999994
40
0.343749999999994
40
0.351562499999994
40
0.351562499999994
40
0.359374999999994
40
0.359374999999994
40
0.374999999999995
40
0.374999999999995
40
0.406249999999995
40
0.406249999999995
40
0.437499999999996
40
0.437499999999996
40
0.468749999999996
40
0.468749999999996
40
0.499999999999997
40
0.499999999999997
40
0.531249999999997
40
0.531249999999997
40
0.562499999999998
40
0.562499999999998
40
0.593749999999998
40
0.593749999999998
40
0.624999999999999
40
0.624999999999999
40
0.65625
40
0.65625
40
0.671875
40
0.671875
40
0.67578125
40
0.67578125
40
0.6796875
40
0.6796875
40
0.6875
40
0.6875
40
0.71875
40
0.71875
40
0.75
40
0.75
40
0.78125
40
0.78125
40
0.8125
40
0.8125
40
0.84375
40
0.84375
40
0.875
40
0.875
40
0.90625
40
0.90625
40
0.9375
40
0.9375
40
0.96875
40
0.96875
40
1
40
1
40
1
40
1
41
1
10
139.4
20
1.72751606229468
30
0
41
1
10
139.487549661872
20
1.16845195565546
30
0
41
1
10
139.575099323744
20
0.616897702357022
30
0
41
1
10
139.673592693351
20
0.0133531215747951
30
0
41
1
10
139.684536401085
20
-0.0534178409040749
30
0
41
1
10
139.706423816553
20
-0.18772328062181
30
0
41
1
10
139.739254939755
20
-0.389870976639259
30
0
41
1
10
139.772086062957
20
-0.593973688538085
30
0
41
1
10
139.837748309361
20
-1.00445644274137
30
0
41
1
10
139.881523140297
20
-1.28115705861242
30
0
41
1
10
140.012847633106
20
-2.11742717644347
30
0
41
1
10
140.100397294978
20
-2.6832831198563
30
0
41
1
10
140.275496618722
20
-3.81265730537615
30
0
41
1
10
140.363046280594
20
-4.37611169532929
30
0
41
1
10
140.538145604339
20
-5.47856277853907
30
0
41
1
10
140.625695266211
20
-6.0174688228052
30
0
41
1
10
140.800794589955
20
-7.04802444848917
30
0
41
1
10
140.888344251828
20
-7.53957608635522
30
0
41
1
10
141.063443575572
20
-8.45486013383163
30
0
41
1
10
141.150993237444
20
-8.87851294535275
30
0
41
1
10
141.326092561188
20
-9.64243616153649
30
0
41
1
10
141.413642223061
20
-9.98266639608909
30
0
41
1
10
141.588741546805
20
-10.57104924427
30
0
41
1
10
141.676291208677
20
-10.8192084761173
30
0
41
1
10
141.851390532422
20
-11.2221383024008
30
0
41
1
10
141.938940194294
20
-11.3769540775725
30
0
41
1
10
142.114039518038
20
-11.5984483721513
30
0
41
1
10
142.201589179911
20
-11.6651926587363
30
0
41
1
10
142.311026257251
20
-11.6998340922831
30
0
41
1
10
142.332913672719
20
-11.7043318097649
30
0
41
1
10
142.376688503655
20
-11.7086527708494
30
0
41
1
10
142.398575919123
20
-11.7085019760406
30
0
41
1
10
142.464238165527
20
-11.7010870168243
30
0
41
1
10
142.508012996463
20
-11.6867639875357
30
0
41
1
10
142.639337489272
20
-11.6134873613617
30
0
41
1
10
142.726887151144
20
-11.5240845241252
30
0
41
1
10
142.901986474888
20
-11.2553118497006
30
0
41
1
10
142.98953613676
20
-11.0758797740984
30
0
41
1
10
143.164635460505
20
-10.6233529222498
30
0
41
1
10
143.252185122377
20
-10.35022173551
30
0
41
1
10
143.427284446121
20
-9.71346230723088
30
0
41
1
10
143.514834107994
20
-9.34983970803566
30
0
41
1
10
143.689933431738
20
-8.54264101054261
30
0
41
1
10
143.77748309361
20
-8.09911698628093
30
0
41
1
10
143.952582417355
20
-7.14917307673642
30
0
41
1
10
144.040132079227
20
-6.64284013386634
30
0
41
1
10
144.215231402972
20
-5.58870505020917
30
0
41
1
10
144.302781064844
20
-5.0410013325176
30
0
41
1
10
144.477880388588
20
-3.92704234735152
30
0
41
1
10
144.56543005046
20
-3.3608720417522
30
0
41
1
10
144.740529374205
20
-2.23154504915942
30
0
41
1
10
144.828079036077
20
-1.6684432866023
30
0
41
1
10
144.959403528885
20
-0.83959669999058
30
0
41
1
10
145.003178359821
20
-0.565916460053444
30
0
41
1
10
145.057896898491
20
-0.228207459163002
30
0
41
1
10
145.068840606226
20
-0.16088449558282
30
0
41
1
10
145.090728021694
20
-0.0267017828734595
30
0
41
1
10
145.101671729428
20
0.0400566965462019
30
0
41
1
10
145.13450285263
20
0.241422976840766
30
0
41
1
10
145.156390268098
20
0.376590858921844
30
0
41
1
10
145.265827345438
20
1.05652455923664
30
0
41
1
10
145.35337700731
20
1.61375236103871
30
0
41
1
10
145.528476331054
20
2.73841890990121
30
0
41
1
10
145.616025992927
20
3.30581541557262
30
0
41
1
10
145.791125316671
20
4.43040587580862
30
0
41
1
10
145.878674978544
20
4.98752460333915
30
0
41
1
10
146.053774302288
20
6.06887465194342
30
0
41
1
10
146.14132396416
20
6.59300986217278
30
0
41
1
10
146.316423287904
20
7.5860664242428
30
0
41
1
10
146.403972949777
20
8.05489357478803
30
0
41
1
10
146.579072273521
20
8.91831652925777
30
0
41
1
10
146.666621935393
20
9.31284533017296
30
0
41
1
10
146.841721259138
20
10.0144760285849
30
0
41
1
10
146.92927092101
20
10.3215549335215
30
0
41
1
10
147.104370244755
20
10.8423144491624
30
0
41
1
10
147.191919906627
20
11.0560174736365
30
0
41
1
10
147.367019230371
20
11.391276560584
30
0
41
1
10
147.454568892243
20
11.5128876749378
30
0
41
1
10
147.629668215987
20
11.6712152049179
30
0
41
1
10
147.71721787786
20
11.708
30
0
41
1
10
147.804767539732
20
11.708
30
0
0
SPLINE
5
DF
100
AcDbEntity
8
1
62
256
6
ByLayer
370
13
48
1
60
0
100
AcDbSpline
70
4
71
3
72
41
73
37
40
0
40
0
40
0
40
0
40
0.0624999999999999
40
0.0624999999999999
40
0.125
40
0.125
40
0.1875
40
0.1875
40
0.249999999999999
40
0.249999999999999
40
0.312499999999999
40
0.312499999999999
40
0.374999999999999
40
0.374999999999999
40
0.437499999999999
40
0.437499999999999
40
0.499999999999999
40
0.499999999999999
40
0.562499999999999
40
0.562499999999999
40
0.624999999999999
40
0.624999999999999
40
0.687499999999998
40
0.687499999999998
40
0.749999999999998
40
0.749999999999998
40
0.812499999999998
40
0.812499999999998
40
0.874999999999998
40
0.874999999999998
40
0.890624999999998
40
0.890624999999998
40
0.906249999999998
40
0.937499999999999
40
0.937499999999999
40
1
40
1
40
1
40
1
41
1
10
147.188382940047
20
11.708
30
0
41
1
10
147.251929889155
20
11.708
30
0
41
1
10
147.315476838263
20
11.6886520109897
30
0
41
1
10
147.442570736478
20
11.6068216386285
30
0
41
1
10
147.506117685585
20
11.5443253296338
30
0
41
1
10
147.6332115838
20
11.3726988309142
30
0
41
1
10
147.696758532908
20
11.2635554970541
30
0
41
1
10
147.823852431123
20
10.9965136071879
30
0
41
1
10
147.887399380231
20
10.8386047669801
30
0
41
1
10
148.014493278446
20
10.4736484133298
30
0
41
1
10
148.078040227553
20
10.2665955348001
30
0
41
1
10
148.205134125769
20
9.80494804855178
30
0
41
1
10
148.268681074876
20
9.55035451645898
30
0
41
1
10
148.395774973091
20
8.99727254508673
30
0
41
1
10
148.459321922199
20
8.6987921243109
30
0
41
1
10
148.586415820414
20
8.06349744015304
30
0
41
1
10
148.649962769522
20
7.72669736508817
30
0
41
1
10
148.777056667737
20
7.02190130167401
30
0
41
1
10
148.840603616845
20
6.65392372318354
30
0
41
1
10
148.96769751506
20
5.89498990729828
30
0
41
1
10
149.031244464167
20
5.50405362638017
30
0
41
1
10
149.158338362382
20
4.7079126582239
30
0
41
1
10
149.22188531149
20
4.3027267161778
30
0
41
1
10
149.348979209705
20
3.48669863597706
30
0
41
1
10
149.412526158813
20
3.07587180206119
30
0
41
1
10
149.539620057028
20
2.25655740174554
30
0
41
1
10
149.603167006135
20
1.84808038349328
30
0
41
1
10
149.730260904351
20
1.04045236495219
30
0
41
1
10
149.793807853458
20
0.641306839360482
30
0
41
1
10
149.873241539843
20
0.151789530883065
30
0
41
1
10
149.88912827712
20
0.0545820263970143
30
0
41
1
10
149.920901751673
20
-0.139863681792974
30
0
41
1
10
149.968561963504
20
-0.433015481038495
30
0
41
1
10
150.016222175335
20
-0.730274899819904
30
0
41
1
10
150.111542598996
20
-1.32924114798203
30
0
41
1
10
150.175089548104
20
-1.73452019007576
30
0
41
1
10
150.238636497211
20
-2.14253883820658
30
0
0
SPLINE
5
E0
100
AcDbEntity
8
1
62
256
6
ByLayer
370
13
48
1
60
0
100
AcDbSpline
70
4
71
3
72
80
73
76
40
0
40
0
40
0
40
0
40
0.0312500000000014
40
0.0312500000000014
40
0.0625000000000028
40
0.0625000000000028
40
0.0937500000000042
40
0.0937500000000042
40
0.125000000000006
40
0.125000000000006
40
0.156250000000007
40
0.156250000000007
40
0.187500000000008
40
0.187500000000008
40
0.21875000000001
40
0.21875000000001
40
0.250000000000011
40
0.250000000000011
40
0.281250000000012
40
0.281250000000012
40
0.312500000000014
40
0.312500000000014
40
0.316406250000014
40
0.316406250000014
40
0.320312500000014
40
0.328125000000014
40
0.328125000000014
40
0.343750000000014
40
0.343750000000014
40
0.375000000000015
40
0.375000000000015
40
0.406250000000015
40
0.406250000000015
40
0.437500000000015
40
0.437500000000015
40
0.468750000000016
40
0.468750000000016
40
0.500000000000016
40
0.500000000000016
40
0.531250000000016
40
0.531250000000016
40
0.562500000000016
40
0.562500000000016
40
0.593750000000017
40
0.593750000000017
40
0.625000000000017
40
0.625000000000017
40
0.656250000000017
40
0.656250000000017
40
0.660156250000017
40
0.660156250000017
40
0.664062500000017
40
0.671875000000017
40
0.671875000000017
40
0.687500000000016
40
0.687500000000016
40
0.718750000000014
40
0.718750000000014
40
0.750000000000013
40
0.750000000000013
40
0.781250000000011
40
0.781250000000011
40
0.81250000000001
40
0.81250000000001
40
0.843750000000008
40
0.843750000000008
40
0.875000000000006
40
0.875000000000006
40
0.906250000000005
40
0.906250000000005
40
0.937500000000003
40
0.937500000000003
40
0.968750000000002
40
0.968750000000002
40
1
40
1
40
1
40
1
41
1
10
139.4
20
-1.31514795885565
30
0
41
1
10
139.482479100415
20
-1.83794278923909
30
0
41
1
10
139.56495820083
20
-2.36921514960054
30
0
41
1
10
139.72991640166
20
-3.43338854397095
30
0
41
1
10
139.812395502076
20
-3.96624723532309
30
0
41
1
10
139.977353702906
20
-5.01554536717111
30
0
41
1
10
140.059832803321
20
-5.53192161973612
30
0
41
1
10
140.224791004151
20
-6.52912517311793
30
0
41
1
10
140.307270104566
20
-7.00987942977915
30
0
41
1
10
140.472228305396
20
-7.91772095438205
30
0
41
1
10
140.554707405811
20
-8.34474169546766
30
0
41
1
10
140.719665606642
20
-9.13016979832281
30
0
41
1
10
140.802144707057
20
-9.48853315173625
30
0
41
1
10
140.967102907887
20
-10.1265881494197
30
0
41
1
10
141.049582008302
20
-10.4062676395317
30
0
41
1
10
141.214540209132
20
-10.8826545242954
30
0
41
1
10
141.297019309547
20
-11.0793810390184
30
0
41
1
10
141.461977510377
20
-11.391203272923
30
0
41
1
10
141.544456610793
20
-11.5063403237903
30
0
41
1
10
141.709414811623
20
-11.661018625186
30
0
41
1
10
141.791893912038
20
-11.7006105858738
30
0
41
1
10
141.884682900005
20
-11.7078586252206
30
0
41
1
10
141.894992787557
20
-11.7081482387642
30
0
41
1
10
141.915612562661
20
-11.7077114877212
30
0
41
1
10
141.946542225316
20
-11.7055244194843
30
0
41
1
10
141.977471887972
20
-11.69865015637
30
0
41
1
10
142.039331213283
20
-11.678418772571
30
0
41
1
10
142.080570763491
20
-11.6562822269085
30
0
41
1
10
142.204289414113
20
-11.5622213931523
30
0
41
1
10
142.286768514528
20
-11.4625251685315
30
0
41
1
10
142.451726715359
20
-11.1824460694808
30
0
41
1
10
142.534205815774
20
-11.0020189839651
30
0
41
1
10
142.699164016604
20
-10.5580795642645
30
0
41
1
10
142.781643117019
20
-10.294542835282
30
0
41
1
10
142.946601317849
20
-9.68747703055078
30
0
41
1
10
143.029080418264
20
-9.34395360437463
30
0
41
1
10
143.194038619095
20
-8.5858142517344
30
0
41
1
10
143.27651771951
20
-8.1712365186595
30
0
41
1
10
143.44147592034
20
-7.28503790494159
30
0
41
1
10
143.523955020755
20
-6.81348026064163
30
0
41
1
10
143.688913221585
20
-5.83096070979715
30
0
41
1
10
143.771392322001
20
-5.320071943719
30
0
41
1
10
143.936350522831
20
-4.27800934604807
30
0
41
1
10
144.018829623246
20
-3.74690173487585
30
0
41
1
10
144.183787824076
20
-2.68284690374418
30
0
41
1
10
144.266266924491
20
-2.14994662034039
30
0
41
1
10
144.431225125321
20
-1.09833918234895
30
0
41
1
10
144.513704225736
20
-0.579654958487339
30
0
41
1
10
144.606493213703
20
-0.0111844322194372
30
0
41
1
10
144.616803101255
20
0.0517267018051086
30
0
41
1
10
144.637422876359
20
0.178229584411923
30
0
41
1
10
144.668352539015
20
0.368596828347705
30
0
41
1
10
144.69928220167
20
0.560708009162852
30
0
41
1
10
144.761141526982
20
0.946981916190254
30
0
41
1
10
144.802381077189
20
1.20724038265504
30
0
41
1
10
144.926099727812
20
1.99379047728203
30
0
41
1
10
145.008578828227
20
2.52595292623033
30
0
41
1
10
145.173537029057
20
3.59023191404748
30
0
41
1
10
145.256016129472
20
4.12230379472581
30
0
41
1
10
145.420974330302
20
5.16816611646374
30
0
41
1
10
145.503453430718
20
5.68189179582362
30
0
41
1
10
145.668411631548
20
6.67193377119466
30
0
41
1
10
145.750890731963
20
7.1481768921374
30
0
41
1
10
145.915848932793
20
8.04535485562698
30
0
41
1
10
145.998328033208
20
8.46622473866856
30
0
41
1
10
146.163286234038
20
9.23812520349949
30
0
41
1
10
146.245765334453
20
9.58911464254518
30
0
41
1
10
146.410723535284
20
10.2117388088223
30
0
41
1
10
146.493202635699
20
10.4833646425079
30
0
41
1
10
146.658160836529
20
10.9435359958897
30
0
41
1
10
146.740639936944
20
11.1321033217865
30
0
41
1
10
146.905598137774
20
11.4280128293466
30
0
41
1
10
146.988077238189
20
11.5353978467393
30
0
41
1
10
147.153035439019
20
11.6753659564771
30
0
41
1
10
147.235514539435
20
11.708
30
0
41
1
10
147.31799363985
20
11.708
30
0
0
SPLINE
5
E1
100
AcDbEntity
8
1
62
256
6
ByLayer
370
13
48
1
60
0
100
AcDbSpline
70
4
71
3
72
42
73
38
40
0
40
0
40
0
40
0
40
0.0625000000000001
40
0.0625000000000001
40
0.125
40
0.125
40
0.1875
40
0.1875
40
0.25
40
0.25
40
0.3125
40
0.3125
40
0.375
40
0.375
40
0.4375
40
0.4375
40
0.5
40
0.5
40
0.5625
40
0.5625
40
0.625
40
0.625
40
0.6875
40
0.6875
40
0.75
40
0.75
40
0.765625
40
0.765625
40
0.78125
40
0.78125
40
0.8125
40
0.8125
40
0.875
40
0.875
40
0.9375
40
0.9375
40
1
40
1
40
1
40
1
41
1
10
146.701609040165
20
11.708
30
0
41
1
10
146.775297112187
20
11.708
30
0
41
1
10
146.848985184209
20
11.6819681453935
30
0
41
1
10
146.996361328252
20
11.5710222441931
30
0
41
1
10
147.070049400274
20
11.4860790577663
30
0
41
1
10
147.217425544318
20
11.2523018471092
30
0
41
1
10
147.291113616339
20
11.1034417615941
30
0
41
1
10
147.438489760383
20
10.7395354031085
30
0
41
1
10
147.512177832405
20
10.5244720759938
30
0
41
1
10
147.659553976449
20
10.02924720645
30
0
41
1
10
147.73324204847
20
9.74908281656414
30
0
41
1
10
147.880618192514
20
9.12844415341664
30
0
41
1
10
147.954306264536
20
8.78798377465961
30
0
41
1
10
148.101682408579
20
8.05508250715684
30
0
41
1
10
148.175370480601
20
7.66267081696205
30
0
41
1
10
148.322746624645
20
6.83708122618009
30
0
41
1
10
148.396434696666
20
6.40394251372871
30
0
41
1
10
148.54381084071
20
5.50994843828843
30
0
41
1
10
148.617498912732
20
5.04913467189732
30
0
41
1
10
148.764875056776
20
4.11343299698444
30
0
41
1
10
148.838563128797
20
3.63858165088175
30
0
41
1
10
148.985939272841
20
2.68784021295761
30
0
41
1
10
149.059627344862
20
2.21197643669035
30
0
41
1
10
149.207003488906
20
1.27067775077958
30
0
41
1
10
149.280691560928
20
0.8052568913198
30
0
41
1
10
149.372801650955
20
0.235804803201915
30
0
41
1
10
149.391223668961
20
0.122524838764861
30
0
41
1
10
149.428067704972
20
-0.102692778894607
30
0
41
1
10
149.446489722977
20
-0.215821700827831
30
0
41
1
10
149.501755776993
20
-0.55727738436957
30
0
41
1
10
149.538599813004
20
-0.787375769539864
30
0
41
1
10
149.649131921037
20
-1.48343488825171
30
0
41
1
10
149.722819993059
20
-1.95522710005523
30
0
41
1
10
149.870196137102
20
-2.90395812653907
30
0
41
1
10
149.943884209124
20
-3.38087688891878
30
0
41
1
10
150.091260353168
20
-4.32755660343798
30
0
41
1
10
150.16494842519
20
-4.79728581070771
30
0
41
1
10
150.238636497211
20
-5.25670991510239
30
0
0
SPLINE
5
E2
100
AcDbEntity
8
1
62
256
6
ByLayer
370
13
48
1
60
0
100
AcDbSpline
70
4
71
3
72
81
73
77
40
0
40
0
40
0
40
0
40
0.0312500000000002
40
0.0312500000000002
40
0.0625000000000003
40
0.0625000000000003
40
0.0937500000000005
40
0.0937500000000005
40
0.125000000000001
40
0.125000000000001
40
0.156250000000001
40
0.156250000000001
40
0.187500000000001
40
0.187500000000001
40
0.218750000000001
40
0.218750000000001
40
0.250000000000001
40
0.250000000000001
40
0.265625000000001
40
0.265625000000001
40
0.269531250000001
40
0.269531250000001
40
0.273437500000001
40
0.273437500000001
40
0.281250000000001
40
0.281250000000001
40
0.312500000000001
40
0.312500000000001
40
0.343750000000001
40
0.343750000000001
40
0.375000000000001
40
0.375000000000001
40
0.406250000000001
40
0.406250000000001
40
0.437500000000002
40
0.437500000000002
40
0.468750000000002
40
0.468750000000002
40
0.500000000000002
40
0.500000000000002
40
0.531250000000002
40
0.531250000000002
40
0.562500000000002
40
0.562500000000002
40
0.593750000000002
40
0.593750000000002
40
0.625000000000002
40
0.625000000000002
40
0.632812500000002
40
0.632812500000002
40
0.636718750000002
40
0.636718750000002
40
0.640625000000002
40
0.656250000000002
40
0.656250000000002
40
0.687500000000002
40
0.687500000000002
40
0.718750000000002
40
0.718750000000002
40
0.750000000000001
40
0.750000000000001
40
0.781250000000001
40
0.781250000000001
40
0.812500000000001
40
0.812500000000001
40
0.843750000000001
40
0.843750000000001
40
0.875000000000001
40
0.875000000000001
40
0.906250000000001
40
0.906250000000001
40
0.9375
40
0.9375
40
0.96875
40
0.96875
40
1
40
1
40
1
40
1
41
1
10
139.4
20
-4.43934147337313
30
0
41
1
10
139.477408538958
20
-4.93223635027761
30
0
41
1
10
139.554817077916
20
-5.41811736722326
30
0
41
1
10
139.709634155832
20
-6.36014329098074
30
0
41
1
10
139.78704269479
20
-6.81623514445167
30
0
41
1
10
139.941859772706
20
-7.68350855007537
30
0
41
1
10
140.019268311664
20
-8.09464001966131
30
0
41
1
10
140.17408538958
20
-8.85903339784264
30
0
41
1
10
140.251493928538
20
-9.21225884877589
30
0
41
1
10
140.406311006454
20
-9.85143375097985
30
0
41
1
10
140.483719545412
20
-10.137367603743
30
0
41
1
10
140.638536623328
20
-10.6369098066167
30
0
41
1
10
140.715945162286
20
-10.8505248503649
30
0
41
1
10
140.870762240202
20
-11.2048700652889
30
0
41
1
10
140.94817077916
20
-11.3456249471857
30
0
41
1
10
141.102987857076
20
-11.5576883374513
30
0
41
1
10
141.180396396034
20
-11.6290318400323
30
0
41
1
10
141.296509204471
20
-11.6888440100023
30
0
41
1
10
141.33521347395
20
-11.7009347252694
30
0
41
1
10
141.383593810799
20
-11.706867042639
30
0
41
1
10
141.393269878168
20
-11.7075947019156
30
0
41
1
10
141.412622012908
20
-11.7081490230166
30
0
41
1
10
141.422298080278
20
-11.707978173326
30
0
41
1
10
141.451326282387
20
-11.7061078599656
30
0
41
1
10
141.470678417126
20
-11.7030460119123
30
0
41
1
10
141.567439090824
20
-11.6783357423501
30
0
41
1
10
141.644847629782
20
-11.6284033597994
30
0
41
1
10
141.799664707698
20
-11.4610093724851
30
0
41
1
10
141.877073246656
20
-11.3435112428114
30
0
41
1
10
142.031890324572
20
-11.0364115624788
30
0
41
1
10
142.10929886353
20
-10.8467810040879
30
0
41
1
10
142.264115941446
20
-10.3945563688065
30
0
41
1
10
142.341524480404
20
-10.1319490055431
30
0
41
1
10
142.49634155832
20
-9.53729013857387
30
0
41
1
10
142.573750097278
20
-9.20524679409189
30
0
41
1
10
142.728567175194
20
-8.47970999169374
30
0
41
1
10
142.805975714152
20
-8.08624670872328
30
0
41
1
10
142.960792792068
20
-7.24975996561955
30
0
41
1
10
143.038201331026
20
-6.80678320755393
30
0
41
1
10
143.193018408942
20
-5.88587534742226
30
0
41
1
10
143.2704269479
20
-5.40799755919929
30
0
41
1
10
143.425244025816
20
-4.43306784430666
30
0
41
1
10
143.502652564774
20
-3.93606497011845
30
0
41
1
10
143.65746964269
20
-2.93826285656624
30
0
41
1
10
143.734878181648
20
-2.43750011425445
30
0
41
1
10
143.889695259564
20
-1.44584184627291
30
0
41
1
10
143.967103798522
20
-0.954966526308709
30
0
41
1
10
144.063864472219
20
-0.35446991848977
30
0
41
1
10
144.083216606959
20
-0.235018557751857
30
0
41
1
10
144.112244809068
20
-0.0569218082861198
30
0
41
1
10
144.121920876438
20
0.0021403134335856
30
0
41
1
10
144.141273011177
20
0.120647796414005
30
0
41
1
10
144.189653348026
20
0.417827794520093
30
0
41
1
10
144.238033684875
20
0.719365470291194
30
0
41
1
10
144.354146493312
20
1.44957351124114
30
0
41
1
10
144.43155503227
20
1.94515149975939
30
0
41
1
10
144.586372110186
20
2.94188439064311
30
0
41
1
10
144.663780649144
20
3.44301348815134
30
0
41
1
10
144.81859772706
20
4.43651871037713
30
0
41
1
10
144.896006266018
20
4.92885345295309
30
0
41
1
10
145.050823343934
20
5.88911242108247
30
0
41
1
10
145.128231882892
20
6.35698504547628
30
0
41
1
10
145.283048960808
20
7.25275495140505
30
0
41
1
10
145.360457499766
20
7.68059989644934
30
0
41
1
10
145.515274577682
20
8.48244136518187
30
0
41
1
10
145.59268311664
20
8.85639580011247
30
0
41
1
10
145.747500194556
20
9.53973365389649
30
0
41
1
10
145.824908733514
20
9.84909398425506
30
0
41
1
10
145.97972581143
20
10.3966792594737
30
0
41
1
10
146.057134350388
20
10.6349036218264
30
0
41
1
10
146.211951428304
20
11.0381736411475
30
0
41
1
10
146.289359967262
20
11.2032387004491
30
0
41
1
10
146.444177045177
20
11.4623704744965
30
0
41
1
10
146.521585584136
20
11.5564696746587
30
0
41
1
10
146.676402662052
20
11.6792658295594
30
0
41
1
10
146.75381120101
20
11.708
30
0
41
1
10
146.831219739968
20
11.708
30
0
0
SPLINE
5
E3
100
AcDbEntity
8
1
62
256
6
ByLayer
370
13
48
1
60
0
100
AcDbSpline
70
4
71
3
72
44
73
40
40
0
40
0
40
0
40
0
40
0.0625000000000001
40
0.0625000000000001
40
0.125
40
0.125
40
0.1875
40
0.1875
40
0.250000000000001
40
0.250000000000001
40
0.312500000000001
40
0.312500000000001
40
0.375000000000001
40
0.375000000000001
40
0.437500000000001
40
0.437500000000001
40
0.500000000000001
40
0.500000000000001
40
0.562500000000001
40
0.562500000000001
40
0.625000000000001
40
0.625000000000001
40
0.656250000000001
40
0.656250000000001
40
0.671875000000001
40
0.671875000000001
40
0.6796875
40
0.6796875
40
0.6875
40
0.6875
40
0.75
40
0.75
40
0.8125
40
0.8125
40
0.875
40
0.875
40
0.9375
40
0.9375
40
1
40
1
40
1
40
1
41
1
10
146.214835140283
20
11.708
30
0
41
1
10
146.298664335219
20
11.708
30
0
41
1
10
146.382493530155
20
11.674285308237
30
0
41
1
10
146.550151920027
20
11.5295451958025
30
0
41
1
10
146.633981114963
20
11.4184645699639
30
0
41
1
10
146.801639504835
20
11.1123292859365
30
0
41
1
10
146.885468699771
20
10.917228720488
30
0
41
1
10
147.053127089643
20
10.4412818479363
30
0
41
1
10
147.136956284579
20
10.1604133510677
30
0
41
1
10
147.304614674451
20
9.51712708352846
30
0
41
1
10
147.388443869387
20
9.1547213164805
30
0
41
1
10
147.556102259259
20
8.35871153861555
30
0
41
1
10
147.639931454195
20
7.92515473035459
30
0
41
1
10
147.807589844067
20
7.00245311006114
30
0
41
1
10
147.891419039003
20
6.51338042259076
30
0
41
1
10
148.059077428875
20
5.49867662604484
30
0
41
1
10
148.142906623811
20
4.97312466867282
30
0
41
1
10
148.310565013683
20
3.90556863024165
30
0
41
1
10
148.394394208619
20
3.36363246684544
30
0
41
1
10
148.562052598491
20
2.28221744958753
30
0
41
1
10
148.645881793427
20
1.74278324658059
30
0
41
1
10
148.771625585831
20
0.947463848185578
30
0
41
1
10
148.813540183299
20
0.684635773093646
30
0
41
1
10
148.876412079501
20
0.295037864706103
30
0
41
1
10
148.897369378235
20
0.165943989830481
30
0
41
1
10
148.928805326336
20
-0.0264030421413395
30
0
41
1
10
148.939283975703
20
-0.0904471844740158
30
0
41
1
10
148.960241274437
20
-0.219194158580649
30
0
41
1
10
148.970719923804
20
-0.283776493623833
30
0
41
1
10
149.065027768107
20
-0.86679493072927
30
0
41
1
10
149.148856963043
20
-1.39783395324599
30
0
41
1
10
149.316515352915
20
-2.47164743026872
30
0
41
1
10
149.400344547851
20
-3.01439189295465
30
0
41
1
10
149.568002937723
20
-4.09419840489883
30
0
41
1
10
149.651832132659
20
-4.63120438371388
30
0
41
1
10
149.819490522531
20
-5.6798674200065
30
0
41
1
10
149.903319717467
20
-6.19144951588825
30
0
41
1
10
150.070978107339
20
-7.16935216870147
30
0
41
1
10
150.154807302275
20
-7.63559432194182
30
0
41
1
10
150.238636497211
20
-8.07030987993241
30
0
0
SPLINE
5
E4
100
AcDbEntity
8
1
62
256
6
ByLayer
370
13
48
1
60
0
100
AcDbSpline
70
4
71
3
72
78
73
74
40
0
40
0
40
0
40
0
40
0.0312499999999999
40
0.0312499999999999
40
0.0624999999999998
40
0.0624999999999998
40
0.0937499999999997
40
0.0937499999999997
40
0.125
40
0.125
40
0.15625
40
0.15625
40
0.187499999999999
40
0.187499999999999
40
0.218749999999999
40
0.218749999999999
40
0.2265625
40
0.2265625
40
0.234375
40
0.234375
40
0.25
40
0.25
40
0.28125
40
0.28125
40
0.312499999999999
40
0.312499999999999
40
0.343749999999999
40
0.343749999999999
40
0.374999999999999
40
0.374999999999999
40
0.406249999999999
40
0.406249999999999
40
0.437499999999999
40
0.437499999999999
40
0.468749999999999
40
0.468749999999999
40
0.499999999999999
40
0.499999999999999
40
0.531249999999999
40
0.531249999999999
40
0.5625
40
0.5625
40
0.59375
40
0.59375
40
0.609375
40
0.609375
40
0.6171875
40
0.6171875
40
0.624999999999999
40
0.624999999999999
40
0.656249999999999
40
0.656249999999999
40
0.6875
40
0.6875
40
0.71875
40
0.71875
40
0.75
40
0.75
40
0.78125
40
0.78125
40
0.8125
40
0.8125
40
0.84375
40
0.84375
40
0.875
40
0.875
40
0.90625
40
0.90625
40
0.9375
40
0.9375
40
0.96875
40
0.96875
40
1
40
1
40
1
40
1
41
1
10
139.4
20
-7.374294825476
30
0
41
1
10
139.472337977501
20
-7.77544343821441
30
0
41
1
10
139.544675955002
20
-8.15635748810791
30
0
41
1
10
139.689351910003
20
-8.86737302326168
30
0
41
1
10
139.761689887504
20
-9.19744889196207
30
0
41
1
10
139.906365842506
20
-9.79911085858228
30
0
41
1
10
139.978703820007
20
-10.0706852711136
30
0
41
1
10
140.123379775009
20
-10.550977484849
30
0
41
1
10
140.19571775251
20
-10.7596985577295
30
0
41
1
10
140.340393707512
20
-11.1133543301412
30
0
41
1
10
140.412731685012
20
-11.2583048846405
30
0
41
1
10
140.557407640014
20
-11.4866279834554
30
0
41
1
10
140.629745617515
20
-11.570024348123
30
0
41
1
10
140.774421572517
20
-11.6799711117922
30
0
41
1
10
140.846759550018
20
-11.7065480823864
30
0
41
1
10
140.937182021894
20
-11.7082904068337
30
0
41
1
10
140.955266516269
20
-11.7070777288577
30
0
41
1
10
140.99143550502
20
-11.7014290366212
30
0
41
1
10
141.009519999395
20
-11.6969917883553
30
0
41
1
10
141.06377348252
20
-11.6786848974279
30
0
41
1
10
141.099942471271
20
-11.6598171069706
30
0
41
1
10
141.208449437522
20
-11.582068155538
30
0
41
1
10
141.280787415023
20
-11.5019733920699
30
0
41
1
10
141.425463370025
20
-11.2804575545898
30
0
41
1
10
141.497801347526
20
-11.1390123726906
30
0
41
1
10
141.642477302528
20
-10.7924133954089
30
0
41
1
10
141.714815280028
20
-10.5872431681566
30
0
41
1
10
141.85949123503
20
-10.1139133445026
30
0
41
1
10
141.931829212531
20
-9.84574968730175
30
0
41
1
10
142.076505167533
20
-9.25057812281585
30
0
41
1
10
142.148843145034
20
-8.92358106269191
30
0
41
1
10
142.293519100035
20
-8.21821888485664
30
0
41
1
10
142.365857077536
20
-7.83987869797215
30
0
41
1
10
142.510533032538
20
-7.0420940884961
30
0
41
1
10
142.582871010039
20
-6.62268441464826
30
0
41
1
10
142.727546965041
20
-5.75489754366026
30
0
41
1
10
142.799884942542
20
-5.30655841972836
30
0
41
1
10
142.944560897544
20
-4.39380342278761
30
0
41
1
10
143.016898875044
20
-3.92942222584739
30
0
41
1
10
143.161574830046
20
-2.99711130942509
30
0
41
1
10
143.233912807547
20
-2.52920780563377
30
0
41
1
10
143.378588762549
20
-1.60108710703821
30
0
41
1
10
143.45092674005
20
-1.14088529130538
30
0
41
1
10
143.559433706301
20
-0.463330490085923
30
0
41
1
10
143.595602695051
20
-0.239587145589354
30
0
41
1
10
143.649856178177
20
0.0921491500874367
30
0
41
1
10
143.667940672553
20
0.2031032842755
30
0
41
1
10
143.704109661303
20
0.426464580372084
30
0
41
1
10
143.722194155678
20
0.538739691764022
30
0
41
1
10
143.812616627554
20
1.10278055742597
30
0
41
1
10
143.884954605055
20
1.56262566898974
30
0
41
1
10
144.029630560057
20
2.49031918003365
30
0
41
1
10
144.101968537558
20
2.95815250852243
30
0
41
1
10
144.246644492559
20
3.89065582626949
30
0
41
1
10
144.31898247006
20
4.35529988211786
30
0
41
1
10
144.463658425062
20
5.26893812954523
30
0
41
1
10
144.535996402563
20
5.71789782285151
30
0
41
1
10
144.680672357565
20
6.58727918637945
30
0
41
1
10
144.753010335066
20
7.00766279090419
30
0
41
1
10
144.897686290067
20
7.80771247053181
30
0
41
1
10
144.970024267568
20
8.18734361085671
30
0
41
1
10
145.11470022257
20
8.89553943439762
30
0
41
1
10
145.187038200071
20
9.22407884219859
30
0
41
1
10
145.331714155073
20
9.82250019793855
30
0
41
1
10
145.404052132574
20
10.0923708792477
30
0
41
1
10
145.548728087576
20
10.569183851066
30
0
41
1
10
145.621066065076
20
10.776129808802
30
0
41
1
10
145.765742020078
20
11.1262565825309
30
0
41
1
10
145.838079997579
20
11.2694535437971
30
0
41
1
10
145.982755952581
20
11.4943702265772
30
0
41
1
10
146.055093930082
20
11.5761139142678
30
0
41
1
10
146.199769885083
20
11.6829155114825
30
0
41
1
10
146.272107862584
20
11.708
30
0
41
1
10
146.344445840085
20
11.708
30
0
0
SPLINE
5
E5
100
AcDbEntity
8
1
62
256
6
ByLayer
370
13
48
1
60
0
100
AcDbSpline
70
4
71
3
72
42
73
38
40
0
40
0
40
0
40
0
40
0.0625000000000003
40
0.0625000000000003
40
0.125000000000001
40
0.125000000000001
40
0.187500000000001
40
0.187500000000001
40
0.250000000000001
40
0.250000000000001
40
0.312500000000001
40
0.312500000000001
40
0.375000000000002
40
0.375000000000002
40
0.437500000000002
40
0.437500000000002
40
0.500000000000002
40
0.500000000000002
40
0.562500000000003
40
0.562500000000003
40
0.593750000000003
40
0.593750000000003
40
0.609375000000003
40
0.609375000000003
40
0.625000000000004
40
0.625000000000004
40
0.687500000000003
40
0.687500000000003
40
0.750000000000002
40
0.750000000000002
40
0.812500000000002
40
0.812500000000002
40
0.875000000000001
40
0.875000000000001
40
0.937500000000001
40
0.937500000000001
40
1
40
1
40
1
40
1
41
1
10
145.728061240401
20
11.708
30
0
41
1
10
145.822031558251
20
11.708
30
0
41
1
10
145.916001876101
20
11.6655981138422
30
0
41
1
10
146.103942511802
20
11.4823038733832
30
0
41
1
10
146.197912829652
20
11.3413147562818
30
0
41
1
10
146.385853465352
20
10.9525321961642
30
0
41
1
10
146.479823783203
20
10.70466570619
30
0
41
1
10
146.667764418903
20
10.1020382509335
30
0
41
1
10
146.761734736753
20
9.74725871361892
30
0
41
1
10
146.949675372454
20
8.94042610868235
30
0
41
1
10
147.043645690304
20
8.48842538381354
30
0
41
1
10
147.231586326004
20
7.50601721017469
30
0
41
1
10
147.325556643854
20
6.97572292724581
30
0
41
1
10
147.513497279555
20
5.86229068038654
30
0
41
1
10
147.607467597405
20
5.27929242364627
30
0
41
1
10
147.795408233106
20
4.08876901444609
30
0
41
1
10
147.889378550956
20
3.48136858196554
30
0
41
1
10
148.077319186656
20
2.2689877637892
30
0
41
1
10
148.171289504506
20
1.6640878368512
30
0
41
1
10
148.312244981282
20
0.775356292649661
30
0
41
1
10
148.359230140207
20
0.48217265309907
30
0
41
1
10
148.429707878595
20
0.0486524602541181
30
0
41
1
10
148.453200458057
20
-0.0944031380635977
30
0
41
1
10
148.500185616982
20
-0.383853858925477
30
0
41
1
10
148.523678196445
20
-0.529605211969255
30
0
41
1
10
148.641141093758
20
-1.26282260918649
30
0
41
1
10
148.735111411608
20
-1.86390306191373
30
0
41
1
10
148.923052047308
20
-3.07410696218258
30
0
41
1
10
149.017022365159
20
-3.68316166781148
30
0
41
1
10
149.204963000859
20
-4.88325277588788
30
0
41
1
10
149.298933318709
20
-5.47417252703787
30
0
41
1
10
149.48687395441
20
-6.60969027575865
30
0
41
1
10
149.58084427226
20
-7.15414848023826
30
0
41
1
10
149.76878490796
20
-8.17016126969995
30
0
41
1
10
149.862755225811
20
-8.64159319025799
30
0
41
1
10
150.050695861511
20
-9.49079351636928
30
0
41
1
10
150.144666179361
20
-9.86849409178481
30
0
41
1
10
150.238636497211
20
-10.1933890426564
30
0
0
SPLINE
5
E6
100
AcDbEntity
8
1
62
256
6
ByLayer
370
13
48
1
60
0
100
AcDbSpline
70
4
71
3
72
78
73
74
40
0
40
0
40
0
40
0
40
0.0312500000000006
40
0.0312500000000006
40
0.0625000000000011
40
0.0625000000000011
40
0.0937500000000017
40
0.0937500000000017
40
0.125000000000002
40
0.125000000000002
40
0.156250000000003
40
0.156250000000003
40
0.164062500000003
40
0.164062500000003
40
0.171875000000003
40
0.187500000000002
40
0.187500000000002
40
0.218750000000002
40
0.218750000000002
40
0.250000000000002
40
0.250000000000002
40
0.281250000000002
40
0.281250000000002
40
0.312500000000002
40
0.312500000000002
40
0.343750000000002
40
0.343750000000002
40
0.375000000000002
40
0.375000000000002
40
0.406250000000002
40
0.406250000000002
40
0.437500000000002
40
0.437500000000002
40
0.468750000000002
40
0.468750000000002
40
0.500000000000002
40
0.500000000000002
40
0.531250000000002
40
0.531250000000002
40
0.562500000000002
40
0.562500000000002
40
0.578125000000002
40
0.578125000000002
40
0.582031250000002
40
0.582031250000002
40
0.585937500000002
40
0.593750000000002
40
0.593750000000002
40
0.625000000000001
40
0.625000000000001
40
0.656250000000001
40
0.656250000000001
40
0.687500000000001
40
0.687500000000001
40
0.718750000000001
40
0.718750000000001
40
0.750000000000001
40
0.750000000000001
40
0.781250000000001
40
0.781250000000001
40
0.812500000000001
40
0.812500000000001
40
0.843750000000001
40
0.843750000000001
40
0.875000000000001
40
0.875000000000001
40
0.90625
40
0.90625
40
0.9375
40
0.9375
40
0.96875
40
0.96875
40
1
40
1
40
1
40
1
41
1
10
139.4
20
-9.71243237613655
30
0
41
1
10
139.467267416044
20
-9.97885730428129
30
0
41
1
10
139.534534832088
20
-10.2194073858207
30
0
41
1
10
139.669069664175
20
-10.645838746119
30
0
41
1
10
139.736337080219
20
-10.8317240018149
30
0
41
1
10
139.870871912307
20
-11.1484478063748
30
0
41
1
10
139.93813932835
20
-11.2792981360342
30
0
41
1
10
140.072674160438
20
-11.4878819174724
30
0
41
1
10
140.139941576482
20
-11.565632075484
30
0
41
1
10
140.274476408569
20
-11.6718138952254
30
0
41
1
10
140.341743824613
20
-11.7002640425786
30
0
41
1
10
140.425828094668
20
-11.7082069993225
30
0
41
1
10
140.442644948678
20
-11.7084260840638
30
0
41
1
10
140.476278656701
20
-11.7061464920757
30
0
41
1
10
140.526729218733
20
-11.698613856743
30
0
41
1
10
140.577179780766
20
-11.6783482124763
30
0
41
1
10
140.678080904832
20
-11.6198746601199
30
0
41
1
10
140.745348320876
20
-11.5569224788128
30
0
41
1
10
140.879883152963
20
-11.3788711039494
30
0
41
1
10
140.947150569007
20
-11.2637543714299
30
0
41
1
10
141.081685401094
20
-10.9788410852571
30
0
41
1
10
141.148952817138
20
-10.8090309933791
30
0
41
1
10
141.283487649226
20
-10.4143881828189
30
0
41
1
10
141.35075506527
20
-10.1895489718541
30
0
41
1
10
141.485289897357
20
-9.68700700566529
30
0
41
1
10
141.552557313401
20
-9.40930696057248
30
0
41
1
10
141.687092145489
20
-8.8057681212872
30
0
41
1
10
141.754359561532
20
-8.47994173066485
30
0
41
1
10
141.88889439362
20
-7.78721400708898
30
0
41
1
10
141.956161809664
20
-7.42033324874529
30
0
41
1
10
142.090696641751
20
-6.65439706912034
30
0
41
1
10
142.157964057795
20
-6.25536714706911
30
0
41
1
10
142.292498889883
20
-5.43516431185597
30
0
41
1
10
142.359766305926
20
-5.01401770804381
30
0
41
1
10
142.494301138014
20
-4.15995110583111
30
0
41
1
10
142.561568554058
20
-3.72705433292609
30
0
41
1
10
142.696103386145
20
-2.85943742374005
30
0
41
1
10
142.763370802189
20
-2.42473465782237
30
0
41
1
10
142.897905634277
20
-1.56241784418762
30
0
41
1
10
142.96517305032
20
-1.13481409157052
30
0
41
1
10
143.066074174386
20
-0.504316911554213
30
0
41
1
10
143.099707882408
20
-0.295956967126358
30
0
41
1
10
143.141750017435
20
-0.0382493840710367
30
0
41
1
10
143.150158444441
20
0.0130679621236425
30
0
41
1
10
143.166975298452
20
0.116061354340701
30
0
41
1
10
143.192200579468
20
0.270964682903383
30
0
41
1
10
143.217425860485
20
0.42705694714121
30
0
41
1
10
143.301510130539
20
0.949765456108963
30
0
41
1
10
143.368777546583
20
1.37567860121865
30
0
41
1
10
143.503312378671
20
2.23579385113101
30
0
41
1
10
143.570579794714
20
2.66998669950419
30
0
41
1
10
143.705114626802
20
3.53795440512422
30
0
41
1
10
143.772382042846
20
3.97171288281911
30
0
41
1
10
143.906916874934
20
4.82899088341512
30
0
41
1
10
143.974184290977
20
5.25248789466971
30
0
41
1
10
144.108719123065
20
6.07889678651947
30
0
41
1
10
144.175986539109
20
6.48178258275826
30
0
41
1
10
144.310521371196
20
7.2568380510383
30
0
41
1
10
144.37778878724
20
7.62898184365702
30
0
41
1
10
144.512323619328
20
8.33343252536122
30
0
41
1
10
144.579591035371
20
8.6657178900341
30
0
41
1
10
144.714125867459
20
9.2830682162531
30
0
41
1
10
144.781393283503
20
9.56811944432818
30
0
41
1
10
144.91592811559
20
10.0858963266292
30
0
41
1
10
144.983195531634
20
10.3186178450731
30
0
41
1
10
145.117730363722
20
10.7291816808213
30
0
41
1
10
145.184997779765
20
10.9070292540881
30
0
41
1
10
145.319532611853
20
11.2078236146659
30
0
41
1
10
145.386800027897
20
11.3307830936836
30
0
41
1
10
145.521334859984
20
11.524033529335
30
0
41
1
10
145.588602276028
20
11.594341642136
30
0
41
1
10
145.723137108116
20
11.6863156259275
30
0
41
1
10
145.790404524159
20
11.708
30
0
41
1
10
145.857671940203
20
11.708
30
0
0
SPLINE
5
E7
100
AcDbEntity
8
1
62
256
6
ByLayer
370
13
48
1
60
0
100
AcDbSpline
70
4
71
3
72
68
73
64
40
0
40
0
40
0
40
0
40
0.0625000000000006
40
0.0625000000000006
40
0.0937500000000007
40
0.0937500000000007
40
0.125000000000001
40
0.125000000000001
40
0.156250000000001
40
0.156250000000001
40
0.187500000000001
40
0.187500000000001
40
0.218750000000001
40
0.218750000000001
40
0.250000000000001
40
0.250000000000001
40
0.281250000000001
40
0.281250000000001
40
0.312500000000001
40
0.312500000000001
40
0.343750000000002
40
0.343750000000002
40
0.375000000000002
40
0.375000000000002
40
0.406250000000002
40
0.406250000000002
40
0.437500000000002
40
0.437500000000002
40
0.500000000000002
40
0.500000000000002
40
0.531250000000002
40
0.531250000000002
40
0.539062500000002
40
0.539062500000002
40
0.546875000000002
40
0.546875000000002
40
0.562500000000002
40
0.562500000000002
40
0.625000000000002
40
0.625000000000002
40
0.656250000000002
40
0.656250000000002
40
0.687500000000002
40
0.687500000000002
40
0.718750000000001
40
0.718750000000001
40
0.750000000000001
40
0.750000000000001
40
0.781250000000001
40
0.781250000000001
40
0.812500000000001
40
0.812500000000001
40
0.843750000000001
40
0.843750000000001
40
0.875000000000001
40
0.875000000000001
40
0.90625
40
0.90625
40
0.9375
40
0.9375
40
0.96875
40
0.96875
40
1
40
1
40
1
40
1
41
1
10
145.241287340519
20
11.708
30
0
41
1
10
145.345398781283
20
11.708
30
0
41
1
10
145.449510222047
20
11.6559001043325
30
0
41
1
10
145.605677383194
20
11.4858877848547
30
0
41
1
10
145.657733103576
20
11.4139529969187
30
0
41
1
10
145.761844544341
20
11.2380330921104
30
0
41
1
10
145.813900264723
20
11.1340434980397
30
0
41
1
10
145.918011705487
20
10.8931814111984
30
0
41
1
10
145.97006742587
20
10.7563055440857
30
0
41
1
10
146.074178866634
20
10.4496580234216
30
0
41
1
10
146.126234587016
20
10.2798845904221
30
0
41
1
10
146.230346027781
20
9.90832787926647
30
0
41
1
10
146.282401748163
20
9.7065447788714
30
0
41
1
10
146.386513188927
20
9.27277877426607
30
0
41
1
10
146.43856890931
20
9.04079815749648
30
0
41
1
10
146.542680350074
20
8.54933464303974
30
0
41
1
10
146.594736070456
20
8.28985603657509
30
0
41
1
10
146.69884751122
20
7.74688219213166
30
0
41
1
10
146.750903231603
20
7.46339288438449
30
0
41
1
10
146.855014672367
20
6.8765164312415
30
0
41
1
10
146.907070392749
20
6.57313628307557
30
0
41
1
10
147.011181833514
20
5.95103377933765
30
0
41
1
10
147.063237553896
20
5.63231880175096
30
0
41
1
10
147.16734899466
20
4.98432073850643
30
0
41
1
10
147.219404715043
20
4.65504472286472
30
0
41
1
10
147.323516155807
20
3.99069779061281
30
0
41
1
10
147.375571876189
20
3.65563304847723
30
0
41
1
10
147.531739037336
20
2.64860370285308
30
0
41
1
10
147.635850478101
20
1.97506487629667
30
0
41
1
10
147.792017639247
20
0.98519722897953
30
0
41
1
10
147.844073359629
20
0.658587901696166
30
0
41
1
10
147.909143010107
20
0.25646970827367
30
0
41
1
10
147.922156940203
20
0.176351794322102
30
0
41
1
10
147.948184800394
20
0.0167705820360879
30
0
41
1
10
147.961198730489
20
-0.062607928700686
30
0
41
1
10
148.000240520776
20
-0.302354093097762
30
0
41
1
10
148.026268380967
20
-0.463479079601399
30
0
41
1
10
148.156407681923
20
-1.27467914259364
30
0
41
1
10
148.260519122687
20
-1.94182842818074
30
0
41
1
10
148.416686283834
20
-2.94830492936228
30
0
41
1
10
148.468742004216
20
-3.28468402667667
30
0
41
1
10
148.57285344498
20
-3.95489902056423
30
0
41
1
10
148.624909165363
20
-4.28872963027516
30
0
41
1
10
148.729020606127
20
-4.9491992329817
30
0
41
1
10
148.781076326509
20
-5.27583173256247
30
0
41
1
10
148.885187767274
20
-5.91711093053752
30
0
41
1
10
148.937243487656
20
-6.23175039937087
30
0
41
1
10
149.04135492842
20
-6.84431145037991
30
0
41
1
10
149.093410648802
20
-7.14222569392828
30
0
41
1
10
149.197522089567
20
-7.71688740051405
30
0
41
1
10
149.249577809949
20
-7.9936281155515
30
0
41
1
10
149.353689250714
20
-8.52199111745321
30
0
41
1
10
149.405744971096
20
-8.77360791050651
30
0
41
1
10
149.50985641186
20
-9.24845479740097
30
0
41
1
10
149.561912132242
20
-9.47168117009161
30
0
41
1
10
149.666023573007
20
-9.88730238601894
30
0
41
1
10
149.718079293389
20
-10.0796955715206
30
0
41
1
10
149.822190734154
20
-10.4321105979393
30
0
41
1
10
149.874246454536
20
-10.5921328710152
30
0
41
1
10
149.9783578953
20
-10.879189505937
30
0
41
1
10
150.030413615682
20
-11.0062261679367
30
0
41
1
10
150.134525056447
20
-11.227576196701
30
0
41
1
10
150.186580776829
20
-11.3218933213982
30
0
41
1
10
150.238636497211
20
-11.4003753902791
30
0
0
SPLINE
5
E8
100
AcDbEntity
8
1
62
256
6
ByLayer
370
13
48
1
60
0
100
AcDbSpline
70
4
71
3
72
78
73
74
40
0
40
0
40
0
40
0
40
0.0312499999999994
40
0.0312499999999994
40
0.0624999999999987
40
0.0624999999999987
40
0.0781249999999982
40
0.0781249999999982
40
0.0859374999999981
40
0.0859374999999981
40
0.0937499999999981
40
0.0937499999999981
40
0.124999999999998
40
0.124999999999998
40
0.156249999999998
40
0.156249999999998
40
0.187499999999998
40
0.187499999999998
40
0.218749999999998
40
0.218749999999998
40
0.249999999999998
40
0.249999999999998
40
0.281249999999999
40
0.281249999999999
40
0.312499999999999
40
0.312499999999999
40
0.343749999999999
40
0.343749999999999
40
0.374999999999999
40
0.374999999999999
40
0.406249999999999
40
0.406249999999999
40
0.437499999999999
40
0.437499999999999
40
0.468749999999999
40
0.468749999999999
40
0.499999999999999
40
0.499999999999999
40
0.531249999999999
40
0.531249999999999
40
0.539062499999999
40
0.539062499999999
40
0.546875
40
0.546875
40
0.5625
40
0.5625
40
0.59375
40
0.59375
40
0.625
40
0.625
40
0.65625
40
0.65625
40
0.6875
40
0.6875
40
0.71875
40
0.71875
40
0.75
40
0.75
40
0.78125
40
0.78125
40
0.8125
40
0.8125
40
0.84375
40
0.84375
40
0.875
40
0.875
40
0.90625
40
0.90625
40
0.9375
40
0.9375
40
0.96875
40
0.96875
40
1
40
1
40
1
40
1
41
1
10
139.4
20
-11.1719478544662
30
0
41
1
10
139.462196854587
20
-11.2975614787261
30
0
41
1
10
139.524393709173
20
-11.3998962507649
30
0
41
1
10
139.648787418347
20
-11.5601125394135
30
0
41
1
10
139.710984272933
20
-11.618005995835
30
0
41
1
10
139.804279554813
20
-11.6740267789265
30
0
41
1
10
139.835377982107
20
-11.6875723073962
30
0
41
1
10
139.882025623047
20
-11.7005759291894
30
0
41
1
10
139.897574836693
20
-11.7036917420573
30
0
41
1
10
139.928673263987
20
-11.707552938307
30
0
41
1
10
139.944222477634
20
-11.7083001126374
30
0
41
1
10
140.021968545867
20
-11.7062635552286
30
0
41
1
10
140.084165400453
20
-11.686002303467
30
0
41
1
10
140.208559109627
20
-11.6040771040148
30
0
41
1
10
140.270755964213
20
-11.5424006426568
30
0
41
1
10
140.395149673387
20
-11.3743768167814
30
0
41
1
10
140.457346527973
20
-11.2680176432881
30
0
41
1
10
140.581740237147
20
-11.0086251782143
30
0
41
1
10
140.643937091734
20
-10.8555825726886
30
0
41
1
10
140.768330800907
20
-10.5024090302006
30
0
41
1
10
140.830527655494
20
-10.3022730533408
30
0
41
1
10
140.954921364667
20
-9.85630959058085
30
0
41
1
10
141.017118219254
20
-9.61048267903024
30
0
41
1
10
141.141511928427
20
-9.07641676585973
30
0
41
1
10
141.203708783014
20
-8.78818445109849
30
0
41
1
10
141.328102492187
20
-8.17436179072172
30
0
41
1
10
141.390299346774
20
-7.8487836730036
30
0
41
1
10
141.514693055947
20
-7.16681108587855
30
0
41
1
10
141.576889910534
20
-6.81043280020859
30
0
41
1
10
141.701283619707
20
-6.07445596107181
30
0
41
1
10
141.763480474294
20
-5.6948752928605
30
0
41
1
10
141.887874183467
20
-4.92062394242703
30
0
41
1
10
141.950071038054
20
-4.5259704454082
30
0
41
1
10
142.074464747227
20
-3.72970256195822
30
0
41
1
10
142.136661601814
20
-3.32810263288849
30
0
41
1
10
142.261055310987
20
-2.52558789445644
30
0
41
1
10
142.323252165574
20
-2.12468351874662
30
0
41
1
10
142.447645874747
20
-1.33034514523962
30
0
41
1
10
142.509842729334
20
-0.936917109356386
30
0
41
1
10
142.587588797567
20
-0.453349550144537
30
0
41
1
10
142.603138011214
20
-0.357044017067693
30
0
41
1
10
142.634236438507
20
-0.165325684778168
30
0
41
1
10
142.649785652154
20
-0.0700589906295193
30
0
41
1
10
142.696433293094
20
0.215237146896357
30
0
41
1
10
142.727531720387
20
0.407341803726325
30
0
41
1
10
142.820827002267
20
0.988474856920789
30
0
41
1
10
142.883023856854
20
1.38235887913305
30
0
41
1
10
143.007417566027
20
2.17733365201246
30
0
41
1
10
143.069614420614
20
2.57841824592703
30
0
41
1
10
143.194008129787
20
3.38097387626325
30
0
41
1
10
143.256204984374
20
3.78243428688941
30
0
41
1
10
143.380598693547
20
4.5780734803962
30
0
41
1
10
143.442795548134
20
4.97223765282996
30
0
41
1
10
143.567189257307
20
5.74514978014284
30
0
41
1
10
143.629386111894
20
6.1238804721892
30
0
41
1
10
143.753779821067
20
6.85780864908955
30
0
41
1
10
143.815976675654
20
7.21298827206488
30
0
41
1
10
143.940370384827
20
7.89225037006472
30
0
41
1
10
144.002567239414
20
8.21631679087486
30
0
41
1
10
144.126960948587
20
8.82685982528386
30
0
41
1
10
144.189157803174
20
9.11332442753064
30
0
41
1
10
144.313551512347
20
9.64367171207684
30
0
41
1
10
144.375748366934
20
9.88754797195065
30
0
41
1
10
144.500142076107
20
10.3295086714372
30
0
41
1
10
144.562338930694
20
10.5275928009617
30
0
41
1
10
144.686732639867
20
10.8766435281263
30
0
41
1
10
144.748929494454
20
11.0276153862256
30
0
41
1
10
144.873323203627
20
11.2829227390455
30
0
41
1
10
144.935520058214
20
11.3872676961239
30
0
41
1
10
145.059913767388
20
11.5513825110172
30
0
41
1
10
145.122110621974
20
11.6111642449699
30
0
41
1
10
145.246504331147
20
11.6894667356416
30
0
41
1
10
145.308701185734
20
11.708
30
0
41
1
10
145.370898040321
20
11.708
30
0
0
SPLINE
5
E9
100
AcDbEntity
8
1
62
256
6
ByLayer
370
13
48
1
60
0
100
AcDbSpline
70
4
71
3
72
78
73
74
40
0
40
0
40
0
40
0
40
0.0312500000000004
40
0.0312500000000004
40
0.0625000000000007
40
0.0625000000000007
40
0.0937500000000011
40
0.0937500000000011
40
0.125000000000001
40
0.125000000000001
40
0.156250000000002
40
0.156250000000002
40
0.187500000000002
40
0.187500000000002
40
0.218750000000003
40
0.218750000000003
40
0.250000000000003
40
0.250000000000003
40
0.281250000000003
40
0.281250000000003
40
0.312500000000004
40
0.312500000000004
40
0.343750000000004
40
0.343750000000004
40
0.375000000000004
40
0.375000000000004
40
0.406250000000005
40
0.406250000000005
40
0.437500000000005
40
0.437500000000005
40
0.468750000000006
40
0.468750000000006
40
0.484375000000006
40
0.484375000000006
40
0.492187500000006
40
0.492187500000006
40
0.500000000000005
40
0.500000000000005
40
0.531250000000005
40
0.531250000000005
40
0.562500000000005
40
0.562500000000005
40
0.593750000000004
40
0.593750000000004
40
0.625000000000004
40
0.625000000000004
40
0.656250000000004
40
0.656250000000004
40
0.687500000000003
40
0.687500000000003
40
0.718750000000003
40
0.718750000000003
40
0.750000000000003
40
0.750000000000003
40
0.781250000000003
40
0.781250000000003
40
0.812500000000002
40
0.812500000000002
40
0.843750000000002
40
0.843750000000002
40
0.875000000000002
40
0.875000000000002
40
0.906250000000001
40
0.906250000000001
40
0.937500000000001
40
0.937500000000001
40
0.968750000000001
40
0.968750000000001
40
0.984375000000001
40
0.984375000000001
40
0.9921875
40
0.9921875
40
1
40
1
40
1
40
1
41
1
10
144.754513440636
20
11.708
30
0
41
1
10
144.811639722476
20
11.708
30
0
41
1
10
144.868766004315
20
11.6923693513451
30
0
41
1
10
144.983018567994
20
11.626593441547
30
0
41
1
10
145.040144849833
20
11.5764400101581
30
0
41
1
10
145.154397413512
20
11.4389526992732
30
0
41
1
10
145.211523695351
20
11.3516109052594
30
0
41
1
10
145.32577625903
20
11.1379283625182
30
0
41
1
10
145.382902540869
20
11.0115809216852
30
0
41
1
10
145.497155104547
20
10.7191389085485
30
0
41
1
10
145.554281386387
20
10.5530398768477
30
0
41
1
10
145.668533950065
20
10.1815880086006
30
0
41
1
10
145.725660231905
20
9.97623380735919
30
0
41
1
10
145.839912795583
20
9.52809690840283
30
0
41
1
10
145.897039077423
20
9.28531645210325
30
0
41
1
10
146.011291641101
20
8.76547274541778
30
0
41
1
10
146.068417922941
20
8.48841535008998
30
0
41
1
10
146.182670486619
20
7.9043619055706
30
0
41
1
10
146.239796768459
20
7.59737477948596
30
0
41
1
10
146.354049332137
20
6.95878012800671
30
0
41
1
10
146.411175613977
20
6.62718357640048
30
0
41
1
10
146.525428177655
20
5.94535963992558
30
0
41
1
10
146.582554459495
20
5.59514398562061
30
0
41
1
10
146.696807023173
20
4.88239695644862
30
0
41
1
10
146.753933305013
20
4.51987675167058
30
0
41
1
10
146.868185868691
20
3.78881272781638
30
0
41
1
10
146.925312150531
20
3.42027841588256
30
0
41
1
10
147.039564714209
20
2.683141111016
30
0
41
1
10
147.096690996048
20
2.3145452362206
30
0
41
1
10
147.210943559727
20
1.58265075071432
30
0
41
1
10
147.268069841567
20
1.21935657562773
30
0
41
1
10
147.353759264326
20
0.6818404390159
30
0
41
1
10
147.382322405245
20
0.503899555720125
30
0
41
1
10
147.425167116625
20
0.239206296638201
30
0
41
1
10
147.439448687085
20
0.151344464677436
30
0
41
1
10
147.468011828004
20
-0.0235839160880573
30
0
41
1
10
147.482293398464
20
-0.110815014779149
30
0
41
1
10
147.553701250763
20
-0.550136803514022
30
0
41
1
10
147.610827532603
20
-0.907760896606106
30
0
41
1
10
147.725080096281
20
-1.63127168714465
30
0
41
1
10
147.78220637812
20
-1.99715558892092
30
0
41
1
10
147.896458941799
20
-2.73228460766197
30
0
41
1
10
147.953585223638
20
-3.10152426681887
30
0
41
1
10
148.067837787317
20
-3.83775653014828
30
0
41
1
10
148.124964069156
20
-4.20474105494523
30
0
41
1
10
148.239216632835
20
-4.93035149723528
30
0
41
1
10
148.296342914674
20
-5.28896717069722
30
0
41
1
10
148.410595478353
20
-5.99150214590881
30
0
41
1
10
148.467721760192
20
-6.33540991985674
30
0
41
1
10
148.581974323871
20
-7.00229552748084
30
0
41
1
10
148.63910060571
20
-7.32526175743962
30
0
41
1
10
148.753353169389
20
-7.94448683372022
30
0
41
1
10
148.810479451228
20
-8.24073533923439
30
0
41
1
10
148.924732014907
20
-8.80153805317894
30
0
41
1
10
148.981858296746
20
-9.06608440123924
30
0
41
1
10
149.096110860425
20
-9.55956394552427
30
0
41
1
10
149.153237142264
20
-9.78849261847662
30
0
41
1
10
149.267489705943
20
-10.2080746728373
30
0
41
1
10
149.324615987782
20
-10.3987272069055
30
0
41
1
10
149.438868551461
20
-10.7404329065574
30
0
41
1
10
149.4959948333
20
-10.8914886902768
30
0
41
1
10
149.610247396979
20
-11.1539869938548
30
0
41
1
10
149.667373678818
20
-11.2654349313123
30
0
41
1
10
149.781626242497
20
-11.4498903357464
30
0
41
1
10
149.838752524336
20
-11.5229050772882
30
0
41
1
10
149.953005088015
20
-11.6326593458872
30
0
41
1
10
150.010131369854
20
-11.669406990298
30
0
41
1
10
150.095820792613
20
-11.6995142228
30
0
41
1
10
150.124383933533
20
-11.7053860656739
30
0
41
1
10
150.167228644912
20
-11.7082590000363
30
0
41
1
10
150.181510215372
20
-11.7082346753096
30
0
41
1
10
150.210073356292
20
-11.7062200638945
30
0
41
1
10
150.224354926752
20
-11.7042231665456
30
0
41
1
10
150.238636497211
20
-11.7012103452244
30
0
0
SPLINE
5
EA
100
AcDbEntity
8
1
62
256
6
ByLayer
370
13
48
1
60
0
100
AcDbSpline
70
4
71
3
72
77
73
73
40
0
40
0
40
0
40
0
40
0.0078125
40
0.0078125
40
0.0156250000000001
40
0.0156250000000001
40
0.0312500000000001
40
0.0312500000000001
40
0.0624999999999999
40
0.0624999999999999
40
0.0937499999999996
40
0.0937499999999996
40
0.124999999999999
40
0.124999999999999
40
0.156249999999999
40
0.156249999999999
40
0.187499999999999
40
0.187499999999999
40
0.218749999999998
40
0.218749999999998
40
0.249999999999998
40
0.249999999999998
40
0.281249999999998
40
0.281249999999998
40
0.312499999999997
40
0.312499999999997
40
0.343749999999997
40
0.343749999999997
40
0.374999999999996
40
0.374999999999996
40
0.406249999999996
40
0.406249999999996
40
0.437499999999996
40
0.437499999999996
40
0.468749999999995
40
0.468749999999995
40
0.499999999999995
40
0.499999999999995
40
0.507812499999995
40
0.507812499999995
40
0.515624999999995
40
0.531249999999995
40
0.531249999999995
40
0.562499999999995
40
0.562499999999995
40
0.593749999999995
40
0.593749999999995
40
0.624999999999996
40
0.624999999999996
40
0.656249999999996
40
0.656249999999996
40
0.687499999999996
40
0.687499999999996
40
0.718749999999997
40
0.718749999999997
40
0.749999999999997
40
0.749999999999997
40
0.781249999999998
40
0.781249999999998
40
0.812499999999998
40
0.812499999999998
40
0.843749999999998
40
0.843749999999998
40
0.874999999999999
40
0.874999999999999
40
0.906249999999999
40
0.906249999999999
40
0.937499999999999
40
0.937499999999999
40
0.96875
40
0.96875
40
1
40
1
40
1
40
1
41
1
10
139.4
20
-11.701210116572
30
0
41
1
10
139.414281573282
20
-11.7042229898858
30
0
41
1
10
139.428563146565
20
-11.70621993817
30
0
41
1
10
139.45712629313
20
-11.708234649331
30
0
41
1
10
139.471407866412
20
-11.7082590225169
30
0
41
1
10
139.514252586259
20
-11.7053862353344
30
0
41
1
10
139.542815732824
20
-11.6995144916847
30
0
41
1
10
139.628505172518
20
-11.6694075592773
30
0
41
1
10
139.685631465648
20
-11.632660118189
30
0
41
1
10
139.799884051907
20
-11.5229062572143
30
0
41
1
10
139.857010345037
20
-11.4498917199641
30
0
41
1
10
139.971262931296
20
-11.2654367186885
30
0
41
1
10
140.028389224425
20
-11.1539889800831
30
0
41
1
10
140.142641810684
20
-10.8914910619046
30
0
41
1
10
140.199768103814
20
-10.7404354647142
30
0
41
1
10
140.314020690073
20
-10.3987301189641
30
0
41
1
10
140.371146983203
20
-10.2080777522491
30
0
41
1
10
140.485399569462
20
-9.78849600719514
30
0
41
1
10
140.542525862591
20
-9.55956747617839
30
0
41
1
10
140.656778448851
20
-9.06608818530535
30
0
41
1
10
140.71390474198
20
-8.80154194870809
30
0
41
1
10
140.828157328239
20
-8.24073942383484
30
0
41
1
10
140.885283621369
20
-7.94449099592254
30
0
41
1
10
140.999536207628
20
-7.32526603956342
30
0
41
1
10
141.056662500758
20
-7.00229985192578
30
0
41
1
10
141.170915087017
20
-6.33541429427854
30
0
41
1
10
141.228041380146
20
-5.99150652799514
30
0
41
1
10
141.342293966405
20
-5.28897153594912
30
0
41
1
10
141.399420259535
20
-4.93035583800253
30
0
41
1
10
141.513672845794
20
-4.20474531861004
30
0
41
1
10
141.570799138923
20
-3.83776074121249
30
0
41
1
10
141.685051725183
20
-3.10152834962332
30
0
41
1
10
141.742178018312
20
-2.73228861482454
30
0
41
1
10
141.856430604571
20
-1.99715942733357
30
0
41
1
10
141.913556897701
20
-1.63127543246421
30
0
41
1
10
142.02780948396
20
-0.907764443891068
30
0
41
1
10
142.08493577709
20
-0.550140245868818
30
0
41
1
10
142.156343643502
20
-0.110818321842572
30
0
41
1
10
142.170625216784
20
-0.023587190553684
30
0
41
1
10
142.199188363349
20
0.151341204986863
30
0
41
1
10
142.242033083196
20
0.414925878043505
30
0
41
1
10
142.284877803043
20
0.681837231191253
30
0
41
1
10
142.370567242738
20
1.21935343031799
30
0
41
1
10
142.427693535867
20
1.58264765525263
30
0
41
1
10
142.541946122126
20
2.3145422564175
30
0
41
1
10
142.599072415256
20
2.68313819702655
30
0
41
1
10
142.713325001515
20
3.42027564814381
30
0
41
1
10
142.770451294644
20
3.78881004051431
30
0
41
1
10
142.884703880904
20
4.51987423751126
30
0
41
1
10
142.941830174033
20
4.88239453499091
30
0
41
1
10
143.056082760292
20
5.59514175853559
30
0
41
1
10
143.113209053422
20
5.94535751450312
30
0
41
1
10
143.227461639681
20
6.62718165922104
30
0
41
1
10
143.284587932811
20
6.95877831739597
30
0
41
1
10
143.39884051907
20
7.59737318243458
30
0
41
1
10
143.455966812199
20
7.90436041549648
30
0
41
1
10
143.570219398459
20
8.48841406983524
30
0
41
1
10
143.627345691588
20
8.76547156799219
30
0
41
1
10
143.741598277847
20
9.28531547198526
30
0
41
1
10
143.798724570977
20
9.52809602275281
30
0
41
1
10
143.912977157236
20
9.97623309878023
30
0
41
1
10
143.970103450366
20
10.1815873826182
30
0
41
1
10
144.084356036625
20
10.5530394016425
30
0
41
1
10
144.141482329754
20
10.7191385015221
30
0
41
1
10
144.255734916013
20
11.0115806351444
30
0
41
1
10
144.312861209143
20
11.1379281282865
30
0
41
1
10
144.427113795402
20
11.3516107594076
30
0
41
1
10
144.484240088532
20
11.4389525894977
30
0
41
1
10
144.598492674791
20
11.5764399568985
30
0
41
1
10
144.65561896792
20
11.6265934087346
30
0
41
1
10
144.76987155418
20
11.6923693451585
30
0
41
1
10
144.826997847309
20
11.708
30
0
41
1
10
144.884124140439
20
11.708
30
0
0
SPLINE
5
EB
100
AcDbEntity
8
1
62
256
6
ByLayer
370
13
48
1
60
0
100
AcDbSpline
70
4
71
3
72
77
73
73
40
0
40
0
40
0
40
0
40
0.0312499999999999
40
0.0312499999999999
40
0.0624999999999999
40
0.0624999999999999
40
0.0937499999999999
40
0.0937499999999999
40
0.125
40
0.125
40
0.15625
40
0.15625
40
0.1875
40
0.1875
40
0.21875
40
0.21875
40
0.25
40
0.25
40
0.28125
40
0.28125
40
0.3125
40
0.3125
40
0.34375
40
0.34375
40
0.375
40
0.375
40
0.40625
40
0.40625
40
0.437499999999999
40
0.437499999999999
40
0.453125
40
0.453125
40
0.4609375
40
0.4609375
40
0.46875
40
0.46875
40
0.5
40
0.5
40
0.53125
40
0.53125
40
0.5625
40
0.5625
40
0.59375
40
0.59375
40
0.625
40
0.625
40
0.656249999999999
40
0.656249999999999
40
0.687499999999999
40
0.687499999999999
40
0.718749999999999
40
0.718749999999999
40
0.749999999999999
40
0.749999999999999
40
0.781249999999999
40
0.781249999999999
40
0.812499999999999
40
0.812499999999999
40
0.843749999999999
40
0.843749999999999
40
0.874999999999999
40
0.874999999999999
40
0.906249999999999
40
0.906249999999999
40
0.914062499999999
40
0.914062499999999
40
0.921874999999999
40
0.937499999999999
40
0.937499999999999
40
0.96875
40
0.96875
40
1
40
1
40
1
40
1
41
1
10
144.267739540754
20
11.708
30
0
41
1
10
144.329936384051
20
11.708
30
0
41
1
10
144.392133227347
20
11.6894667423811
30
0
41
1
10
144.51652691394
20
11.6111642808718
30
0
41
1
10
144.578723757236
20
11.5513825693534
30
0
41
1
10
144.703117443829
20
11.3872678165327
30
0
41
1
10
144.765314287126
20
11.2829228991029
30
0
41
1
10
144.889707973718
20
11.0276156432687
30
0
41
1
10
144.951904817015
20
10.8766438425133
30
0
41
1
10
145.076298503608
20
10.5275932469094
30
0
41
1
10
145.138495346904
20
10.3295091916029
30
0
41
1
10
145.262889033497
20
9.88754865518459
30
0
41
1
10
145.325085876793
20
9.64367248415527
30
0
41
1
10
145.449479563386
20
9.11332538832951
30
0
41
1
10
145.511676406683
20
8.82686088594627
30
0
41
1
10
145.636070093275
20
8.21631805760978
30
0
41
1
10
145.698266936572
20
7.89225174299136
30
0
41
1
10
145.822660623165
20
7.21298985840136
30
0
41
1
10
145.884857466461
20
6.85781034262524
30
0
41
1
10
146.009251153054
20
6.12388237575172
30
0
41
1
10
146.071447996351
20
5.74515178651581
30
0
41
1
10
146.195841682943
20
4.97223985552898
30
0
41
1
10
146.25803852624
20
4.57807577659827
30
0
41
1
10
146.382432212833
20
3.78243675680866
30
0
41
1
10
146.444629056129
20
3.3809764263903
30
0
41
1
10
146.569022742722
20
2.57842094040319
30
0
41
1
10
146.631219586018
20
2.17733641062986
30
0
41
1
10
146.755613272611
20
1.38236174850098
30
0
41
1
10
146.817810115908
20
0.988477772902911
30
0
41
1
10
146.911105380852
20
0.407344776308094
30
0
41
1
10
146.942203802501
20
0.215240136133502
30
0
41
1
10
146.988851434973
20
-0.0700559796737252
30
0
41
1
10
147.004400645797
20
-0.165322631798432
30
0
41
1
10
147.035499067445
20
-0.357040910172714
30
0
41
1
10
147.051048278269
20
-0.453346416528092
30
0
41
1
10
147.12879433239
20
-0.936913843547501
30
0
41
1
10
147.190991175686
20
-1.33034177818203
30
0
41
1
10
147.315384862279
20
-2.12467996459847
30
0
41
1
10
147.377581705576
20
-2.52558425448475
30
0
41
1
10
147.501975392168
20
-3.32809884338417
30
0
41
1
10
147.564172235465
20
-3.72969870876784
30
0
41
1
10
147.688565922058
20
-4.52596649332799
30
0
41
1
10
147.750762765354
20
-4.92061995516761
30
0
41
1
10
147.875156451947
20
-5.69487126902553
30
0
41
1
10
147.937353295243
20
-6.0744519358623
30
0
41
1
10
148.061746981836
20
-6.81042880955226
30
0
41
1
10
148.123943825133
20
-7.1668071311644
30
0
41
1
10
148.248337511726
20
-7.84877982865282
30
0
41
1
10
148.310534355022
20
-8.17435802079578
30
0
41
1
10
148.434928041615
20
-8.78818086705277
30
0
41
1
10
148.497124884911
20
-9.07641329326094
30
0
41
1
10
148.621518571504
20
-9.61047946235345
30
0
41
1
10
148.683715414801
20
-9.8563065183601
30
0
41
1
10
148.808109101393
20
-10.3022702969252
30
0
41
1
10
148.87030594469
20
-10.5024064451084
30
0
41
1
10
148.994699631283
20
-10.8555803495569
30
0
41
1
10
149.056896474579
20
-11.0086231456924
30
0
41
1
10
149.181290161172
20
-11.2680160030942
30
0
41
1
10
149.243487004469
20
-11.3743753782812
30
0
41
1
10
149.367880691061
20
-11.5423996106194
30
0
41
1
10
149.430077534358
20
-11.6040762767281
30
0
41
1
10
149.554471220951
20
-11.686001881551
30
0
41
1
10
149.616668064247
20
-11.7062633339218
30
0
41
1
10
149.694414118367
20
-11.7083001357996
30
0
41
1
10
149.709963329192
20
-11.7075530106235
30
0
41
1
10
149.74106175084
20
-11.703691915754
30
0
41
1
10
149.787709383312
20
-11.694345400861
30
0
41
1
10
149.834357015784
20
-11.6740272740237
30
0
41
1
10
149.927652280729
20
-11.6180068360801
30
0
41
1
10
149.989849124026
20
-11.5601136277316
30
0
41
1
10
150.114242810618
20
-11.3998978671769
30
0
41
1
10
150.176439653915
20
-11.2975633751617
30
0
41
1
10
150.238636497211
20
-11.1719500434498
30
0
0
SPLINE
5
EC
100
AcDbEntity
8
1
62
256
6
ByLayer
370
13
48
1
60
0
100
AcDbSpline
70
4
71
3
72
68
73
64
40
0
40
0
40
0
40
0
40
0.0312499999999999
40
0.0312499999999999
40
0.0624999999999998
40
0.0624999999999998
40
0.0937499999999998
40
0.0937499999999998
40
0.125
40
0.125
40
0.15625
40
0.15625
40
0.1875
40
0.1875
40
0.218749999999999
40
0.218749999999999
40
0.249999999999999
40
0.249999999999999
40
0.281249999999999
40
0.281249999999999
40
0.312499999999999
40
0.312499999999999
40
0.343749999999999
40
0.343749999999999
40
0.374999999999999
40
0.374999999999999
40
0.437499999999999
40
0.437499999999999
40
0.453124999999998
40
0.453124999999998
40
0.460937499999998
40
0.460937499999998
40
0.468749999999998
40
0.468749999999998
40
0.499999999999998
40
0.499999999999998
40
0.562499999999998
40
0.562499999999998
40
0.593749999999998
40
0.593749999999998
40
0.624999999999998
40
0.624999999999998
40
0.656249999999998
40
0.656249999999998
40
0.687499999999999
40
0.687499999999999
40
0.718749999999999
40
0.718749999999999
40
0.749999999999999
40
0.749999999999999
40
0.781249999999999
40
0.781249999999999
40
0.812499999999999
40
0.812499999999999
40
0.843749999999999
40
0.843749999999999
40
0.874999999999999
40
0.874999999999999
40
0.90625
40
0.90625
40
0.9375
40
0.9375
40
1
40
1
40
1
40
1
41
1
10
139.4
20
-11.4003770243693
30
0
41
1
10
139.452055731672
20
-11.3218951578574
30
0
41
1
10
139.504111463345
20
-11.2275782335286
30
0
41
1
10
139.60822292669
20
-11.0062285958581
30
0
41
1
10
139.660278658362
20
-10.8791921245716
30
0
41
1
10
139.764390121707
20
-10.5921358556916
30
0
41
1
10
139.81644585338
20
-10.4321137579308
30
0
41
1
10
139.920557316725
20
-10.0796990613259
30
0
41
1
10
139.972613048397
20
-9.88730603030979
30
0
41
1
10
140.076724511742
20
-9.47168509782082
30
0
41
1
10
140.128780243415
20
-9.24845885407188
30
0
41
1
10
140.232891706759
20
-8.77361219589764
30
0
41
1
10
140.284947438432
20
-8.5219955026154
30
0
41
1
10
140.389058901777
20
-7.99363266883159
30
0
41
1
10
140.441114633449
20
-7.71689202213827
30
0
41
1
10
140.545226096794
20
-7.14223042008206
30
0
41
1
10
140.597281828467
20
-6.84431621272137
30
0
41
1
10
140.701393291812
20
-6.23175520272966
30
0
41
1
10
140.753449023484
20
-5.91711573873269
30
0
41
1
10
140.857560486829
20
-5.27583652127146
30
0
41
1
10
140.909616218501
20
-4.94920399737819
30
0
41
1
10
141.013727681846
20
-4.28873432022925
30
0
41
1
10
141.065783413519
20
-3.95490366040019
30
0
41
1
10
141.169894876864
20
-3.28468854460868
30
0
41
1
10
141.221950608536
20
-2.94830937552047
30
0
41
1
10
141.378117803554
20
-1.94183263340787
30
0
41
1
10
141.482229266899
20
-1.27468315318555
30
0
41
1
10
141.61236859608
20
-0.463482827315545
30
0
41
1
10
141.638396461916
20
-0.302357787248212
30
0
41
1
10
141.67743826067
20
-0.0626115414155777
30
0
41
1
10
141.690452193588
20
0.0167669922645928
30
0
41
1
10
141.716480059425
20
0.17634821957472
30
0
41
1
10
141.729493992343
20
0.256466141494485
30
0
41
1
10
141.794563656933
20
0.658584377056542
30
0
41
1
10
141.846619388606
20
0.985193745430763
30
0
41
1
10
142.002786583623
20
1.97506153826819
30
0
41
1
10
142.106898046968
20
2.64860049188818
30
0
41
1
10
142.263065241985
20
3.65563006730147
30
0
41
1
10
142.315120973658
20
3.99069489247074
30
0
41
1
10
142.419232437003
20
4.6550420015478
30
0
41
1
10
142.471288168675
20
4.98431811097754
30
0
41
1
10
142.57539963202
20
5.63231636973813
30
0
41
1
10
142.627455363692
20
5.95103144904684
30
0
41
1
10
142.731566827038
20
6.57313416079521
30
0
41
1
10
142.78362255871
20
6.87651441524147
30
0
41
1
10
142.887734022055
20
7.46339108179546
30
0
41
1
10
142.939789753727
20
7.74688049666415
30
0
41
1
10
143.043901217072
20
8.28985455240473
30
0
41
1
10
143.095956948745
20
8.54933326303592
30
0
41
1
10
143.20006841209
20
9.04079697928248
30
0
41
1
10
143.252124143762
20
9.27277769366745
30
0
41
1
10
143.356235607107
20
9.70654388382093
30
0
41
1
10
143.408291338779
20
9.90832707214309
30
0
41
1
10
143.512402802125
20
10.2798839469958
30
0
41
1
10
143.564458533797
20
10.4496574557623
30
0
41
1
10
143.668569997142
20
10.7563051141237
30
0
41
1
10
143.720625728814
20
10.8931810431667
30
0
41
1
10
143.824737192159
20
11.1340432391911
30
0
41
1
10
143.876792923832
20
11.238032880517
30
0
41
1
10
143.980904387177
20
11.4139528651182
30
0
41
1
10
144.032960118849
20
11.4858876855963
30
0
41
1
10
144.189127313867
20
11.6559000816079
30
0
41
1
10
144.293238777212
20
11.708
30
0
41
1
10
144.397350240556
20
11.708
30
0
0
SPLINE
5
ED
100
AcDbEntity
8
1
62
256
6
ByLayer
370
13
48
1
60
0
100
AcDbSpline
70
4
71
3
72
79
73
75
40
0
40
0
40
0
40
0
40
0.0312500000000005
40
0.0312500000000005
40
0.0625000000000009
40
0.0625000000000009
40
0.0937500000000014
40
0.0937500000000014
40
0.125000000000002
40
0.125000000000002
40
0.156250000000002
40
0.156250000000002
40
0.187500000000003
40
0.187500000000003
40
0.218750000000003
40
0.218750000000003
40
0.250000000000004
40
0.250000000000004
40
0.281250000000004
40
0.281250000000004
40
0.312500000000005
40
0.312500000000005
40
0.343750000000006
40
0.343750000000006
40
0.375000000000006
40
0.375000000000006
40
0.406250000000007
40
0.406250000000007
40
0.414062500000007
40
0.417968750000007
40
0.417968750000007
40
0.421875000000007
40
0.421875000000007
40
0.437500000000007
40
0.437500000000007
40
0.468750000000006
40
0.468750000000006
40
0.500000000000005
40
0.500000000000005
40
0.531250000000004
40
0.531250000000004
40
0.562500000000004
40
0.562500000000004
40
0.593750000000003
40
0.593750000000003
40
0.625000000000002
40
0.625000000000002
40
0.656250000000001
40
0.656250000000001
40
0.6875
40
0.6875
40
0.71875
40
0.71875
40
0.749999999999999
40
0.749999999999999
40
0.781249999999998
40
0.781249999999998
40
0.812499999999997
40
0.812499999999997
40
0.828124999999997
40
0.828124999999997
40
0.835937499999997
40
0.835937499999997
40
0.843749999999997
40
0.843749999999997
40
0.874999999999998
40
0.874999999999998
40
0.906249999999998
40
0.906249999999998
40
0.937499999999999
40
0.937499999999999
40
0.968749999999999
40
0.968749999999999
40
1
40
1
40
1
40
1
41
1
10
143.780965640872
20
11.708
30
0
41
1
10
143.848233045625
20
11.708
30
0
41
1
10
143.915500450379
20
11.6863156332208
30
0
41
1
10
144.050035259886
20
11.5943416811537
30
0
41
1
10
144.11730266464
20
11.5240335927992
30
0
41
1
10
144.251837474147
20
11.3307832248317
30
0
41
1
10
144.3191048789
20
11.2078237890649
30
0
41
1
10
144.453639688407
20
10.9070295340603
30
0
41
1
10
144.520907093161
20
10.7291820231235
30
0
41
1
10
144.655441902668
20
10.3186183296854
30
0
41
1
10
144.722709307421
20
10.0858968912203
30
0
41
1
10
144.857244116928
20
9.5681201833016
30
0
41
1
10
144.924511521682
20
9.28306904961829
30
0
41
1
10
145.059046331189
20
8.66571892177188
30
0
41
1
10
145.126313735942
20
8.33343366105927
30
0
41
1
10
145.26084854545
20
7.62898319091212
30
0
41
1
10
145.328115950203
20
7.2568395058648
30
0
41
1
10
145.46265075971
20
6.48178425000199
30
0
41
1
10
145.529918164464
20
6.07889855858429
30
0
41
1
10
145.664452973971
20
5.25248986765297
30
0
41
1
10
145.731720378724
20
4.82899295247677
30
0
41
1
10
145.866255188231
20
3.97171513035536
30
0
41
1
10
145.933522592985
20
3.53795673504646
30
0
41
1
10
146.068057402492
20
2.66998917704743
30
0
41
1
10
146.135324807246
20
2.23579639390826
30
0
41
1
10
146.269859616753
20
1.37568125550254
30
0
41
1
10
146.337127021506
20
0.949768156672036
30
0
41
1
10
146.421211277448
20
0.427059693550234
30
0
41
1
10
146.446436554231
20
0.270967442171184
30
0
41
1
10
146.471661831013
20
0.116064125135154
30
0
41
1
10
146.488478682202
20
0.0130707403082226
30
0
41
1
10
146.496887107796
20
-0.0382465948265178
30
0
41
1
10
146.538929235767
20
-0.29595410982239
30
0
41
1
10
146.572562938144
20
-0.504314000704596
30
0
41
1
10
146.673464045274
20
-1.13481102410225
30
0
41
1
10
146.740731450028
20
-1.56241467764824
30
0
41
1
10
146.875266259535
20
-2.42473131140747
30
0
41
1
10
146.942533664288
20
-2.85943399654747
30
0
41
1
10
147.077068473795
20
-3.72705077026768
30
0
41
1
10
147.144335878549
20
-4.15994748851722
30
0
41
1
10
147.278870688056
20
-5.01401401463011
30
0
41
1
10
147.346138092809
20
-5.43516059703086
30
0
41
1
10
147.480672902316
20
-6.25536342804531
30
0
41
1
10
147.54794030707
20
-6.65439336733513
30
0
41
1
10
147.682475116577
20
-7.42032962285603
30
0
41
1
10
147.74974252133
20
-7.78721043986911
30
0
41
1
10
147.884277330838
20
-8.47993832178668
30
0
41
1
10
147.951544735591
20
-8.80576481207584
30
0
41
1
10
148.086079545098
20
-9.40930388796366
30
0
41
1
10
148.153346949852
20
-9.68700406996996
30
0
41
1
10
148.287881759359
20
-10.1895463406278
30
0
41
1
10
148.355149164112
20
-10.4143857191143
30
0
41
1
10
148.489683973619
20
-10.8090288867049
30
0
41
1
10
148.556951378373
20
-10.9788391680541
30
0
41
1
10
148.69148618788
20
-11.2637528455759
30
0
41
1
10
148.758753592633
20
-11.3788697799395
30
0
41
1
10
148.893288402141
20
-11.5569215614927
30
0
41
1
10
148.960555806894
20
-11.6198739476209
30
0
41
1
10
149.061456914024
20
-11.6783478032104
30
0
41
1
10
149.095090616401
20
-11.6918583331436
30
0
41
1
10
149.145541169966
20
-11.7036351115002
30
0
41
1
10
149.162358021155
20
-11.7061463816027
30
0
41
1
10
149.195991723532
20
-11.7084260717165
30
0
41
1
10
149.21280857472
20
-11.7082070354709
30
0
41
1
10
149.296892830662
20
-11.7002643299209
30
0
41
1
10
149.364160235415
20
-11.6718144036547
30
0
41
1
10
149.498695044922
20
-11.5656330640733
30
0
41
1
10
149.565962449676
20
-11.4878831651488
30
0
41
1
10
149.700497259183
20
-11.2792999341334
30
0
41
1
10
149.767764663937
20
-11.1484498958075
30
0
41
1
10
149.902299473444
20
-10.8317266967163
30
0
41
1
10
149.969566878197
20
-10.6458417551333
30
0
41
1
10
150.104101687704
20
-10.2194110330693
30
0
41
1
10
150.171369092458
20
-9.97886127560849
30
0
41
1
10
150.238636497211
20
-9.71243666897487
30
0
0
SPLINE
5
EE
100
AcDbEntity
8
1
62
256
6
ByLayer
370
13
48
1
60
0
100
AcDbSpline
70
4
71
3
72
42
73
38
40
0
40
0
40
0
40
0
40
0.0625000000000011
40
0.0625000000000011
40
0.125000000000002
40
0.125000000000002
40
0.187500000000003
40
0.187500000000003
40
0.250000000000004
40
0.250000000000004
40
0.312500000000006
40
0.312500000000006
40
0.375000000000007
40
0.375000000000007
40
0.390625000000007
40
0.390625000000007
40
0.406250000000007
40
0.406250000000007
40
0.437500000000007
40
0.437500000000007
40
0.500000000000006
40
0.500000000000006
40
0.562500000000005
40
0.562500000000005
40
0.625000000000004
40
0.625000000000004
40
0.687500000000004
40
0.687500000000004
40
0.750000000000003
40
0.750000000000003
40
0.812500000000002
40
0.812500000000002
40
0.875000000000001
40
0.875000000000001
40
0.937500000000001
40
0.937500000000001
40
1
40
1
40
1
40
1
41
1
10
139.4
20
-10.193392790027
30
0
41
1
10
139.493970340431
20
-9.86849816403927
30
0
41
1
10
139.587940680861
20
-9.49079787444055
30
0
41
1
10
139.775881361723
20
-8.64159801477703
30
0
41
1
10
139.869851702154
20
-8.17016627468718
30
0
41
1
10
140.057792383015
20
-7.15415372919819
30
0
41
1
10
140.151762723446
20
-6.60969558824101
30
0
41
1
10
140.339703404307
20
-5.47417785601493
30
0
41
1
10
140.433673744738
20
-4.88325805801782
30
0
41
1
10
140.621614425599
20
-3.68316676716495
30
0
41
1
10
140.71558476603
20
-3.07411192585903
30
0
41
1
10
140.903525446891
20
-1.86390769478905
30
0
41
1
10
140.997495787322
20
-1.26282704715996
30
0
41
1
10
141.11495871286
20
-0.529609388105825
30
0
41
1
10
141.138451297968
20
-0.383857981777368
30
0
41
1
10
141.185436468183
20
-0.0944071529410166
30
0
41
1
10
141.208929053291
20
0.0486484859484904
30
0
41
1
10
141.279406808614
20
0.482168726074605
30
0
41
1
10
141.32639197883
20
0.775352403773098
30
0
41
1
10
141.467347489476
20
1.66408408254017
30
0
41
1
10
141.561317829906
20
2.26898412629475
30
0
41
1
10
141.749258510768
20
3.48136522759538
30
0
41
1
10
141.843228851198
20
4.08876582638658
30
0
41
1
10
142.03116953206
20
5.27928960412024
30
0
41
1
10
142.125139872491
20
5.86228806298948
30
0
41
1
10
142.313080553352
20
6.97572072872526
30
0
41
1
10
142.407050893783
20
7.5060152282274
30
0
41
1
10
142.594991574644
20
8.48842382476039
30
0
41
1
10
142.688961915075
20
8.94042475575898
30
0
41
1
10
142.876902595936
20
9.74725774001871
30
0
41
1
10
142.970872936367
20
10.1020374503961
30
0
41
1
10
143.158813617229
20
10.704665203458
30
0
41
1
10
143.252783957659
20
10.9525318181488
30
0
41
1
10
143.440724638521
20
11.3413145737647
30
0
41
1
10
143.534694978951
20
11.4823037617156
30
0
41
1
10
143.722635659813
20
11.6655980933763
30
0
41
1
10
143.816606000243
20
11.708
30
0
41
1
10
143.910576340674
20
11.708
30
0
0
SPLINE
5
EF
100
AcDbEntity
8
1
62
256
6
ByLayer
370
13
48
1
60
0
100
AcDbSpline
70
4
71
3
72
78
73
74
40
0
40
0
40
0
40
0
40
0.0312500000000001
40
0.0312500000000001
40
0.0625000000000002
40
0.0625000000000002
40
0.0937500000000002
40
0.0937500000000002
40
0.125
40
0.125
40
0.156250000000001
40
0.156250000000001
40
0.187500000000001
40
0.187500000000001
40
0.218750000000001
40
0.218750000000001
40
0.250000000000001
40
0.250000000000001
40
0.281250000000001
40
0.281250000000001
40
0.312500000000001
40
0.312500000000001
40
0.343750000000001
40
0.343750000000001
40
0.375000000000001
40
0.375000000000001
40
0.382812500000001
40
0.382812500000001
40
0.390625000000001
40
0.390625000000001
40
0.406250000000001
40
0.406250000000001
40
0.437500000000001
40
0.437500000000001
40
0.468750000000001
40
0.468750000000001
40
0.500000000000001
40
0.500000000000001
40
0.531250000000002
40
0.531250000000002
40
0.562500000000002
40
0.562500000000002
40
0.593750000000002
40
0.593750000000002
40
0.625000000000002
40
0.625000000000002
40
0.656250000000002
40
0.656250000000002
40
0.687500000000002
40
0.687500000000002
40
0.718750000000002
40
0.718750000000002
40
0.750000000000002
40
0.750000000000002
40
0.765625000000002
40
0.765625000000002
40
0.773437500000002
40
0.773437500000002
40
0.781250000000002
40
0.781250000000002
40
0.812500000000002
40
0.812500000000002
40
0.843750000000001
40
0.843750000000001
40
0.875000000000001
40
0.875000000000001
40
0.906250000000001
40
0.906250000000001
40
0.937500000000001
40
0.937500000000001
40
0.96875
40
0.96875
40
1
40
1
40
1
40
1
41
1
10
143.29419174099
20
11.708
30
0
41
1
10
143.3665297072
20
11.708
30
0
41
1
10
143.438867673411
20
11.6829155193309
30
0
41
1
10
143.583543605832
20
11.576113956427
30
0
41
1
10
143.655881572043
20
11.4943702952194
30
0
41
1
10
143.800557504464
20
11.2694536857799
30
0
41
1
10
143.872895470675
20
11.1262567713883
30
0
41
1
10
144.017571403096
20
10.776130111763
30
0
41
1
10
144.089909369307
20
10.5691842212638
30
0
41
1
10
144.234585301728
20
10.0923714020805
30
0
41
1
10
144.306923267939
20
9.8225008061635
30
0
41
1
10
144.45159920036
20
9.22407963496474
30
0
41
1
10
144.523937166571
20
8.89554032629218
30
0
41
1
10
144.668613098992
20
8.18734470854895
30
0
41
1
10
144.740951065202
20
7.80771367486196
30
0
41
1
10
144.885626997624
20
7.00766420881911
30
0
41
1
10
144.957964963834
20
6.58728071120683
30
0
41
1
10
145.102640896256
20
5.71789955458053
30
0
41
1
10
145.174978862466
20
5.26893996123431
30
0
41
1
10
145.319654794888
20
4.35530190055599
30
0
41
1
10
145.391992761098
20
3.89065793147887
30
0
41
1
10
145.53666869352
20
2.95815476956398
30
0
41
1
10
145.60900665973
20
2.49032151013179
30
0
41
1
10
145.753682592152
20
1.56262811699469
30
0
41
1
10
145.826020558362
20
1.10278305428841
30
0
41
1
10
145.916443016125
20
0.538742236752
30
0
41
1
10
145.934527507678
20
0.426467134342289
30
0
41
1
10
145.970696490783
20
0.203105854933085
30
0
41
1
10
145.988780982336
20
0.0921517115710913
30
0
41
1
10
146.043034456994
20
-0.239584502129276
30
0
41
1
10
146.079203440099
20
-0.463327792892272
30
0
41
1
10
146.187710389415
20
-1.14088243717205
30
0
41
1
10
146.260048355626
20
-1.60108415394029
30
0
41
1
10
146.404724288047
20
-2.52920467470943
30
0
41
1
10
146.477062254258
20
-2.9971080996751
30
0
41
1
10
146.621738186679
20
-3.92941888757224
30
0
41
1
10
146.69407615289
20
-4.39380003485707
30
0
41
1
10
146.838752085311
20
-5.30655496960492
30
0
41
1
10
146.911090051522
20
-5.75489408104207
30
0
41
1
10
147.055765983943
20
-6.62268096977522
30
0
41
1
10
147.128103950154
20
-7.04209067389306
30
0
41
1
10
147.272779882575
20
-7.83987538874823
30
0
41
1
10
147.345117848785
20
-8.21821565074981
30
0
41
1
10
147.489793781207
20
-8.9235780216479
30
0
41
1
10
147.562131747418
20
-9.25057519970005
30
0
41
1
10
147.706807679839
20
-9.84574703688412
30
0
41
1
10
147.779145646049
20
-10.1139108488162
30
0
41
1
10
147.923821578471
20
-10.5872410096792
30
0
41
1
10
147.996159544681
20
-10.7924114193599
30
0
41
1
10
148.140835477103
20
-11.1390107784082
30
0
41
1
10
148.213173443313
20
-11.2804561595975
30
0
41
1
10
148.357849375735
20
-11.5019724014967
30
0
41
1
10
148.430187341945
20
-11.5820673700568
30
0
41
1
10
148.538694291261
20
-11.6598166260058
30
0
41
1
10
148.574863274366
20
-11.6786845174601
30
0
41
1
10
148.629116749024
20
-11.6969915583183
30
0
41
1
10
148.647201240577
20
-11.7014288563014
30
0
41
1
10
148.683370223682
20
-11.7070776473318
30
0
41
1
10
148.701454715235
20
-11.7082903740661
30
0
41
1
10
148.791877172999
20
-11.7065482950319
30
0
41
1
10
148.864215139209
20
-11.6799715424711
30
0
41
1
10
149.00889107163
20
-11.5700252559282
30
0
41
1
10
149.081229037841
20
-11.4866291503728
30
0
41
1
10
149.225904970262
20
-11.2583066042222
30
0
41
1
10
149.298242936473
20
-11.1133563432711
30
0
41
1
10
149.442918868894
20
-10.7597011811688
30
0
41
1
10
149.515256835105
20
-10.5509804250159
30
0
41
1
10
149.659932767526
20
-10.0706888526585
30
0
41
1
10
149.732270733737
20
-9.7991147647156
30
0
41
1
10
149.876946666158
20
-9.19745343729232
30
0
41
1
10
149.949284632369
20
-8.86737788312089
30
0
41
1
10
150.09396056479
20
-8.15636294870598
30
0
41
1
10
150.166298531001
20
-7.77544918494337
30
0
41
1
10
150.238636497211
20
-7.37430083601572
30
0
0
SPLINE
5
F0
100
AcDbEntity
8
1
62
256
6
ByLayer
370
13
48
1
60
0
100
AcDbSpline
70
4
71
3
72
44
73
40
40
0
40
0
40
0
40
0
40
0.0625
40
0.0625
40
0.125
40
0.125
40
0.1875
40
0.1875
40
0.25
40
0.25
40
0.3125
40
0.3125
40
0.3203125
40
0.3203125
40
0.328125
40
0.328125
40
0.34375
40
0.34375
40
0.375
40
0.375
40
0.4375
40
0.4375
40
0.5
40
0.5
40
0.5625
40
0.5625
40
0.625
40
0.625
40
0.6875
40
0.6875
40
0.75
40
0.75
40
0.8125
40
0.8125
40
0.875
40
0.875
40
0.9375
40
0.9375
40
1
40
1
40
1
40
1
41
1
10
139.4
20
-8.07031550055467
30
0
41
1
10
139.483829217516
20
-7.6356000959569
30
0
41
1
10
139.567658435033
20
-7.16935804467158
30
0
41
1
10
139.735316870066
20
-6.19145549340629
30
0
41
1
10
139.819146087583
20
-5.67987339719801
30
0
41
1
10
139.986804522616
20
-4.63121027030891
30
0
41
1
10
140.070633740132
20
-4.09420420137087
30
0
41
1
10
140.238292175165
20
-3.01439744002389
30
0
41
1
10
140.322121392682
20
-2.47165281821753
30
0
41
1
10
140.489779827715
20
-1.39783897814399
30
0
41
1
10
140.573609045231
20
-0.866799751823436
30
0
41
1
10
140.667916914937
20
-0.283781073428145
30
0
41
1
10
140.678395567127
20
-0.219198711406335
30
0
41
1
10
140.699352871506
20
-0.0904516830468367
30
0
41
1
10
140.709831523695
20
-0.0264075051915142
30
0
41
1
10
140.741267480264
20
0.165939548643763
30
0
41
1
10
140.762224784643
20
0.295033439561422
30
0
41
1
10
140.825096697781
20
0.684631400527678
30
0
41
1
10
140.867011306539
20
0.94745951661929
30
0
41
1
10
140.992755132813
20
1.74277905593144
30
0
41
1
10
141.07658435033
20
2.28221337697067
30
0
41
1
10
141.244242785363
20
3.36362867454298
30
0
41
1
10
141.32807200288
20
3.90556500022501
30
0
41
1
10
141.495730437912
20
4.97312139724417
30
0
41
1
10
141.579559655429
20
5.49867355086744
30
0
41
1
10
141.747218090462
20
6.51337775796867
30
0
41
1
10
141.831047307979
20
7.00245065964202
30
0
41
1
10
141.998705743011
20
7.92515270702131
30
0
41
1
10
142.082534960528
20
8.35870972804145
30
0
41
1
10
142.250193395561
20
9.15471991081921
30
0
41
1
10
142.334022613077
20
9.51712586991462
30
0
41
1
10
142.50168104811
20
10.1604124853502
30
0
41
1
10
142.585510265627
20
10.4412811380121
30
0
41
1
10
142.75316870066
20
10.9172282765893
30
0
41
1
10
142.836997918177
20
11.1123289522753
30
0
41
1
10
143.004656353209
20
11.4184644088557
30
0
41
1
10
143.088485570726
20
11.5295450970623
30
0
41
1
10
143.256144005759
20
11.6742852900142
30
0
41
1
10
143.339973223276
20
11.708
30
0
41
1
10
143.423802440792
20
11.708
30
0
0
SPLINE
5
F1
100
AcDbEntity
8
1
62
256
6
ByLayer
370
13
48
1
60
0
100
AcDbSpline
70
4
71
3
72
81
73
77
40
0
40
0
40
0
40
0
40
0.0312499999999994
40
0.0312499999999994
40
0.0624999999999987
40
0.0624999999999987
40
0.0937499999999981
40
0.0937499999999981
40
0.124999999999997
40
0.124999999999997
40
0.156249999999997
40
0.156249999999997
40
0.187499999999996
40
0.187499999999996
40
0.218749999999995
40
0.218749999999995
40
0.249999999999995
40
0.249999999999995
40
0.281249999999994
40
0.281249999999994
40
0.312499999999994
40
0.312499999999994
40
0.343749999999993
40
0.343749999999993
40
0.359374999999993
40
0.359374999999993
40
0.363281249999993
40
0.363281249999993
40
0.367187499999993
40
0.367187499999993
40
0.374999999999993
40
0.374999999999993
40
0.406249999999992
40
0.406249999999992
40
0.437499999999991
40
0.437499999999991
40
0.468749999999991
40
0.468749999999991
40
0.49999999999999
40
0.49999999999999
40
0.531249999999989
40
0.531249999999989
40
0.562499999999989
40
0.562499999999989
40
0.593749999999988
40
0.593749999999988
40
0.624999999999987
40
0.624999999999987
40
0.656249999999987
40
0.656249999999987
40
0.687499999999986
40
0.687499999999986
40
0.718749999999986
40
0.718749999999986
40
0.726562499999986
40
0.726562499999986
40
0.730468749999986
40
0.730468749999986
40
0.734374999999986
40
0.749999999999986
40
0.749999999999986
40
0.781249999999988
40
0.781249999999988
40
0.81249999999999
40
0.81249999999999
40
0.843749999999991
40
0.843749999999991
40
0.874999999999993
40
0.874999999999993
40
0.906249999999995
40
0.906249999999995
40
0.937499999999997
40
0.937499999999997
40
0.968749999999998
40
0.968749999999998
40
1
40
1
40
1
40
1
41
1
10
142.807417841107
20
11.708
30
0
41
1
10
142.884826368775
20
11.708
30
0
41
1
10
142.962234896443
20
11.6792658379642
30
0
41
1
10
143.117051951778
20
11.5564697199843
30
0
41
1
10
143.194460479446
20
11.4623705483652
30
0
41
1
10
143.349277534782
20
11.2032388533507
30
0
41
1
10
143.426686062449
20
11.0381738445601
30
0
41
1
10
143.581503117785
20
10.634903947776
30
0
41
1
10
143.658911645453
20
10.3966796574561
30
0
41
1
10
143.813728700788
20
9.84909454467422
30
0
41
1
10
143.891137228456
20
9.5397343047062
30
0
41
1
10
144.045954283791
20
8.85639664430298
30
0
41
1
10
144.123362811459
20
8.48244231232997
30
0
41
1
10
144.278179866795
20
7.68060105441484
30
0
41
1
10
144.355588394462
20
7.25275621718643
30
0
41
1
10
144.510405449798
20
6.35698652335486
30
0
41
1
10
144.587813977465
20
5.8891140031995
30
0
41
1
10
144.742631032801
20
4.92885523218922
30
0
41
1
10
144.820039560469
20
4.4365205824634
30
0
41
1
10
144.974856615804
20
3.44301552851198
30
0
41
1
10
145.052265143472
20
2.94188650641584
30
0
41
1
10
145.207082198808
20
1.9451537452729
30
0
41
1
10
145.284490726475
20
1.44957581108884
30
0
41
1
10
145.400603517977
20
0.719367834960877
30
0
41
1
10
145.439307781811
20
0.478137713190279
30
0
41
1
10
145.487688111603
20
0.180086557254668
30
0
41
1
10
145.497364177562
20
0.120650203932257
30
0
41
1
10
145.516716309479
20
0.0021427283298863
30
0
41
1
10
145.526392375437
20
-0.0569193801443362
30
0
41
1
10
145.555420573312
20
-0.235016088833078
30
0
41
1
10
145.574772705229
20
-0.35446742265151
30
0
41
1
10
145.671533364814
20
-0.954963897556695
30
0
41
1
10
145.748941892482
20
-1.44583911653618
30
0
41
1
10
145.903758947817
20
-2.43749720318496
30
0
41
1
10
145.981167475485
20
-2.93825986519485
30
0
41
1
10
146.135984530821
20
-3.93606184913929
30
0
41
1
10
146.213393058488
20
-4.43306467407933
30
0
41
1
10
146.368210113824
20
-5.40799433059939
30
0
41
1
10
146.445618641492
20
-5.88587210975348
30
0
41
1
10
146.600435696827
20
-6.80677999801003
30
0
41
1
10
146.677844224495
20
-7.24975679330575
30
0
41
1
10
146.83266127983
20
-8.08624365883878
30
0
41
1
10
146.910069807498
20
-8.47970702701241
30
0
41
1
10
147.064886862834
20
-9.20524404440994
30
0
41
1
10
147.142295390501
20
-9.53728751865694
30
0
41
1
10
147.297112445837
20
-10.1319466816994
30
0
41
1
10
147.374520973505
20
-10.3945542112139
30
0
41
1
10
147.52933802884
20
-10.8467792041871
30
0
41
1
10
147.606746556508
20
-11.0364099539529
30
0
41
1
10
147.761563611843
20
-11.3435100294817
30
0
41
1
10
147.838972139511
20
-11.4610083629196
30
0
41
1
10
147.993789194847
20
-11.6284027579815
30
0
41
1
10
148.071197722514
20
-11.6783353444785
30
0
41
1
10
148.167958382099
20
-11.7030458626988
30
0
41
1
10
148.187310514016
20
-11.706107760176
30
0
41
1
10
148.216338711891
20
-11.7079781471108
30
0
41
1
10
148.22601477785
20
-11.7081490210799
30
0
41
1
10
148.245366909767
20
-11.7075947492067
30
0
41
1
10
148.293747239559
20
-11.7039575762447
30
0
41
1
10
148.342127569352
20
-11.6888443160291
30
0
41
1
10
148.458240360853
20
-11.6290324841979
30
0
41
1
10
148.535648888521
20
-11.5576892296898
30
0
41
1
10
148.690465943856
20
-11.3456263746962
30
0
41
1
10
148.767874471524
20
-11.2048717800018
30
0
41
1
10
148.92269152686
20
-10.8505271668615
30
0
41
1
10
149.000100054527
20
-10.6369124376575
30
0
41
1
10
149.154917109863
20
-10.1373708743257
30
0
41
1
10
149.232325637531
20
-9.85143734648256
30
0
41
1
10
149.387142692866
20
-9.21226308420347
30
0
41
1
10
149.464551220534
20
-8.85903794817136
30
0
41
1
10
149.619368275869
20
-8.09464516885996
30
0
41
1
10
149.696776803537
20
-7.68351398313985
30
0
41
1
10
149.851593858872
20
-6.81624109586156
30
0
41
1
10
149.92900238654
20
-6.36014947679632
30
0
41
1
10
150.083819441876
20
-5.41812395933118
30
0
41
1
10
150.161227969544
20
-4.9322431142453
30
0
41
1
10
150.238636497211
20
-4.43934837481845
30
0
0
SPLINE
5
F2
100
AcDbEntity
8
1
62
256
6
ByLayer
370
13
48
1
60
0
100
AcDbSpline
70
4
71
3
72
42
73
38
40
0
40
0
40
0
40
0
40
0.0625
40
0.0625
40
0.125
40
0.125
40
0.1875
40
0.1875
40
0.21875
40
0.21875
40
0.234375
40
0.234375
40
0.25
40
0.25
40
0.3125
40
0.3125
40
0.375
40
0.375
40
0.4375
40
0.4375
40
0.5
40
0.5
40
0.5625
40
0.5625
40
0.625
40
0.625
40
0.6875
40
0.6875
40
0.75
40
0.75
40
0.8125
40
0.8125
40
0.875
40
0.875
40
0.9375
40
0.9375
40
1
40
1
40
1
40
1
41
1
10
139.4
20
-5.25671667268216
30
0
41
1
10
139.473688094602
20
-4.7972925287651
30
0
41
1
10
139.547376189204
20
-4.32756324213432
30
0
41
1
10
139.694752378409
20
-3.38088330446817
30
0
41
1
10
139.768440473011
20
-2.90396439839913
30
0
41
1
10
139.915816662216
20
-1.95523303855941
30
0
41
1
10
139.989504756818
20
-1.48344063717335
30
0
41
1
10
140.100036898722
20
-0.787381213616527
30
0
41
1
10
140.136880946023
20
-0.557282723413238
30
0
41
1
10
140.192147016975
20
-0.215826878815676
30
0
41
1
10
140.210569040625
20
-0.102697865803066
30
0
41
1
10
140.247413087926
20
0.122519780584071
30
0
41
1
10
140.265835111577
20
0.235799760672393
30
0
41
1
10
140.35794522983
20
0.805251933557059
30
0
41
1
10
140.431633324432
20
1.27067288180663
30
0
41
1
10
140.579009513637
20
2.21197178696434
30
0
41
1
10
140.652697608239
20
2.68783569370848
30
0
41
1
10
140.800073797443
20
3.63857742996055
30
0
41
1
10
140.873761892046
20
4.11342894391021
30
0
41
1
10
141.02113808125
20
5.04913098325252
30
0
41
1
10
141.094826175853
20
5.50994494619269
30
0
41
1
10
141.242202365057
20
6.40393943103075
30
0
41
1
10
141.315890459659
20
6.83707835627106
30
0
41
1
10
141.463266648864
20
7.66266837411635
30
0
41
1
10
141.536954743466
20
8.05508027851201
30
0
41
1
10
141.684330932671
20
8.78798196076514
30
0
41
1
10
141.758019027273
20
9.12844254000282
30
0
41
1
10
141.905395216478
20
9.74908157721052
30
0
41
1
10
141.97908331108
20
10.0292461406291
30
0
41
1
10
142.126459500285
20
10.5244713207727
30
0
41
1
10
142.200147594887
20
10.7395347849391
30
0
41
1
10
142.347523784091
20
11.1034413761455
30
0
41
1
10
142.421211878694
20
11.2523015573445
30
0
41
1
10
142.568588067898
20
11.4860789177079
30
0
41
1
10
142.642276162501
20
11.5710221581932
30
0
41
1
10
142.789652351705
20
11.6819681294007
30
0
41
1
10
142.863340446307
20
11.708
30
0
41
1
10
142.93702854091
20
11.708
30
0
0
SPLINE
5
F3
100
AcDbEntity
8
1
62
256
6
ByLayer
370
13
48
1
60
0
100
AcDbSpline
70
4
71
3
72
80
73
76
40
0
40
0
40
0
40
0
40
0.0312500000000012
40
0.0312500000000012
40
0.0625000000000025
40
0.0625000000000025
40
0.0937500000000037
40
0.0937500000000037
40
0.125000000000005
40
0.125000000000005
40
0.156250000000006
40
0.156250000000006
40
0.187500000000007
40
0.187500000000007
40
0.218750000000009
40
0.218750000000009
40
0.25000000000001
40
0.25000000000001
40
0.281250000000011
40
0.281250000000011
40
0.312500000000012
40
0.312500000000012
40
0.328125000000013
40
0.328125000000013
40
0.335937500000014
40
0.339843750000014
40
0.339843750000014
40
0.343750000000014
40
0.343750000000014
40
0.375000000000013
40
0.375000000000013
40
0.406250000000012
40
0.406250000000012
40
0.437500000000012
40
0.437500000000012
40
0.468750000000011
40
0.468750000000011
40
0.50000000000001
40
0.50000000000001
40
0.53125000000001
40
0.53125000000001
40
0.562500000000009
40
0.562500000000009
40
0.593750000000009
40
0.593750000000009
40
0.625000000000008
40
0.625000000000008
40
0.656250000000007
40
0.656250000000007
40
0.671875000000007
40
0.671875000000007
40
0.679687500000007
40
0.683593750000007
40
0.683593750000007
40
0.687500000000006
40
0.687500000000006
40
0.718750000000006
40
0.718750000000006
40
0.750000000000005
40
0.750000000000005
40
0.781250000000004
40
0.781250000000004
40
0.812500000000004
40
0.812500000000004
40
0.843750000000003
40
0.843750000000003
40
0.875000000000003
40
0.875000000000003
40
0.906250000000002
40
0.906250000000002
40
0.937500000000001
40
0.937500000000001
40
0.968750000000001
40
0.968750000000001
40
1
40
1
40
1
40
1
41
1
10
142.320643941225
20
11.708
30
0
41
1
10
142.40312303035
20
11.708
30
0
41
1
10
142.485602119475
20
11.6753659654397
30
0
41
1
10
142.650560297725
20
11.5353978952558
30
0
41
1
10
142.733039386849
20
11.4280129084888
30
0
41
1
10
142.897997565099
20
11.1321034856797
30
0
41
1
10
142.980476654224
20
10.9435362139333
30
0
41
1
10
143.145434832474
20
10.483364991384
30
0
41
1
10
143.227913921599
20
10.2117392343843
30
0
41
1
10
143.392872099848
20
9.5891152397266
30
0
41
1
10
143.475351188973
20
9.23812589559014
30
0
41
1
10
143.640309367223
20
8.46622563151502
30
0
41
1
10
143.722788456348
20
8.04535585427169
30
0
41
1
10
143.887746634598
20
7.14817810409482
30
0
41
1
10
143.970225723722
20
6.67193509060854
30
0
41
1
10
144.135183901972
20
5.68189332239328
30
0
41
1
10
144.217662991097
20
5.16816774268335
30
0
41
1
10
144.382621169346
20
4.12230560444362
30
0
41
1
10
144.465100258471
20
3.59023380758637
30
0
41
1
10
144.630058436721
20
2.52595496618778
30
0
41
1
10
144.712537525846
20
1.99379257983532
30
0
41
1
10
144.836256159533
20
1.20724256141284
30
0
41
1
10
144.877495704096
20
0.94698411742516
30
0
41
1
10
144.939355020939
20
0.560710239704974
30
0
41
1
10
144.970284679361
20
0.368599072443231
30
0
41
1
10
145.001214337783
20
0.178231840423109
30
0
41
1
10
145.021834110064
20
0.0517289653985529
30
0
41
1
10
145.032143996205
20
-0.0111821632476108
30
0
41
1
10
145.12493297147
20
-0.579652566907441
30
0
41
1
10
145.207412060595
20
-1.09833668610185
30
0
41
1
10
145.372370238845
20
-2.14994393436996
30
0
41
1
10
145.45484932797
20
-2.68284413277249
30
0
41
1
10
145.619807506219
20
-3.74689882532724
30
0
41
1
10
145.702286595344
20
-4.27800638299675
30
0
41
1
10
145.867244773594
20
-5.32006891572487
30
0
41
1
10
145.949723862719
20
-5.83095767043542
30
0
41
1
10
146.114682040968
20
-6.81347724780363
30
0
41
1
10
146.197161130093
20
-7.28503493004237
30
0
41
1
10
146.362119308343
20
-8.17123367075888
30
0
41
1
10
146.444598397468
20
-8.58581149289662
30
0
41
1
10
146.609556575718
20
-9.34395107049374
30
0
41
1
10
146.692035664843
20
-9.68747463251924
30
0
41
1
10
146.856993843092
20
-10.2945407459716
30
0
41
1
10
146.939472932217
20
-10.5580776477487
30
0
41
1
10
147.104431110467
20
-11.0020174366373
30
0
41
1
10
147.186910199592
20
-11.1824447184626
30
0
41
1
10
147.351868377841
20
-11.4625242192109
30
0
41
1
10
147.434347466966
20
-11.5622206491531
30
0
41
1
10
147.558066100653
20
-11.6562817877423
30
0
41
1
10
147.599305645216
20
-11.6784184345071
30
0
41
1
10
147.66116496206
20
-11.6986499681485
30
0
41
1
10
147.692094620481
20
-11.7055243057335
30
0
41
1
10
147.723024278903
20
-11.7077114475903
30
0
41
1
10
147.743644051184
20
-11.7081482475061
30
0
41
1
10
147.753953937325
20
-11.7078586584317
30
0
41
1
10
147.846742912591
20
-11.7006108440353
30
0
41
1
10
147.929222001715
20
-11.6610191080831
30
0
41
1
10
148.094180179965
20
-11.5063413018498
30
0
41
1
10
148.17665926909
20
-11.3912045214341
30
0
41
1
10
148.34161744734
20
-11.0793828637631
30
0
41
1
10
148.424096536464
20
-10.8826566547975
30
0
41
1
10
148.589054714714
20
-10.406270399834
30
0
41
1
10
148.671533803839
20
-10.1265912336824
30
0
41
1
10
148.836491982089
20
-9.48853688006
30
0
41
1
10
148.918971071214
20
-9.13017384662055
30
0
41
1
10
149.083929249463
20
-8.3447463558195
30
0
41
1
10
149.166408338588
20
-7.91772590667782
30
0
41
1
10
149.331366516838
20
-7.00988491623895
30
0
41
1
10
149.413845605963
20
-6.52913090169443
30
0
41
1
10
149.578803784213
20
-5.53192776694954
30
0
41
1
10
149.661282873337
20
-5.01555169086362
30
0
41
1
10
149.826241051587
20
-3.96625383872379
30
0
41
1
10
149.908720140712
20
-3.43339525062575
30
0
41
1
10
150.073678318962
20
-2.36922199031119
30
0
41
1
10
150.156157408087
20
-1.83794966082328
30
0
41
1
10
150.238636497211
20
-1.31515482893965
30
0
0
SPLINE
5
F4
100
AcDbEntity
8
1
62
256
6
ByLayer
370
13
48
1
60
0
100
AcDbSpline
70
4
71
3
72
42
73
38
40
0
40
0
40
0
40
0
40
0.0624999999999994
40
0.0624999999999994
40
0.0937499999999994
40
0.0937499999999994
40
0.109374999999999
40
0.109374999999999
40
0.124999999999999
40
0.124999999999999
40
0.187499999999999
40
0.187499999999999
40
0.25
40
0.25
40
0.3125
40
0.3125
40
0.375
40
0.375
40
0.4375
40
0.4375
40
0.5
40
0.5
40
0.5625
40
0.5625
40
0.625
40
0.625
40
0.6875
40
0.6875
40
0.75
40
0.75
40
0.8125
40
0.8125
40
0.875
40
0.875
40
0.9375
40
0.9375
40
1
40
1
40
1
40
1
41
1
10
139.4
20
-2.14254579741703
30
0
41
1
10
139.463546971688
20
-1.73452697372733
30
0
41
1
10
139.527093943376
20
-1.32924773795858
30
0
41
1
10
139.622414400908
20
-0.730281182363399
30
0
41
1
10
139.654187886752
20
-0.53210813120586
30
0
41
1
10
139.701848115518
20
-0.23758739574771
30
0
41
1
10
139.71773485844
20
-0.139869643869218
30
0
41
1
10
139.749508344284
20
0.0545761734870212
30
0
41
1
10
139.765395087206
20
0.151783670210221
30
0
41
1
10
139.844828801817
20
0.641301059644064
30
0
41
1
10
139.908375773505
20
1.04044666800345
30
0
41
1
10
140.035469716881
20
1.84807488826255
30
0
41
1
10
140.099016688569
20
2.25655202547819
30
0
41
1
10
140.226110631945
20
3.07586669759238
30
0
41
1
10
140.289657603633
20
3.48669368434636
30
0
41
1
10
140.416751547009
20
4.3027220990023
30
0
41
1
10
140.480298518697
20
4.70790822265508
30
0
41
1
10
140.607392462073
20
5.5040495750319
30
0
41
1
10
140.670939433761
20
5.89498605853939
30
0
41
1
10
140.798033377138
20
6.65392029068454
30
0
41
1
10
140.861580348826
20
7.02189808280977
30
0
41
1
10
140.988674292202
20
7.72669457341271
30
0
41
1
10
141.05222126389
20
8.06349486199059
30
0
41
1
10
141.179315207266
20
8.69878996187364
30
0
41
1
10
141.242862178954
20
8.99727058482318
30
0
41
1
10
141.36995612233
20
9.55035293918723
30
0
41
1
10
141.433503094018
20
9.80494665206942
30
0
41
1
10
141.560597037394
20
10.2665944706853
30
0
41
1
10
141.624144009083
20
10.473647500779
30
0
41
1
10
141.751237952459
20
10.8386041233469
30
0
41
1
10
141.814784924147
20
10.9965130809095
30
0
41
1
10
141.941878867523
20
11.2635551693269
30
0
41
1
10
142.005425839211
20
11.3726985843974
30
0
41
1
10
142.132519782587
20
11.5443252102406
30
0
41
1
10
142.196066754275
20
11.6068215651705
30
0
41
1
10
142.323160697651
20
11.6886519972159
30
0
41
1
10
142.386707669339
20
11.708
30
0
41
1
10
142.450254641027
20
11.708
30
0
0
SPLINE
5
F5
100
AcDbEntity
8
1
62
256
6
ByLayer
370
13
48
1
60
0
100
AcDbSpline
70
4
71
3
72
84
73
80
40
0
40
0
40
0
40
0
40
0.0312500000000001
40
0.0312500000000001
40
0.0625000000000003
40
0.0625000000000003
40
0.0937500000000004
40
0.0937500000000004
40
0.125000000000001
40
0.125000000000001
40
0.156250000000001
40
0.156250000000001
40
0.187500000000001
40
0.187500000000001
40
0.218750000000001
40
0.218750000000001
40
0.250000000000001
40
0.250000000000001
40
0.281250000000001
40
0.281250000000001
40
0.312500000000001
40
0.312500000000001
40
0.320312500000002
40
0.320312500000002
40
0.324218750000001
40
0.324218750000001
40
0.328125000000001
40
0.343750000000001
40
0.343750000000001
40
0.375000000000001
40
0.375000000000001
40
0.406250000000002
40
0.406250000000002
40
0.437500000000002
40
0.437500000000002
40
0.468750000000002
40
0.468750000000002
40
0.500000000000002
40
0.500000000000002
40
0.531250000000002
40
0.531250000000002
40
0.562500000000002
40
0.562500000000002
40
0.593750000000003
40
0.593750000000003
40
0.625000000000003
40
0.625000000000003
40
0.640625000000003
40
0.640625000000003
40
0.648437500000003
40
0.648437500000003
40
0.656250000000003
40
0.656250000000003
40
0.687500000000002
40
0.687500000000002
40
0.718750000000002
40
0.718750000000002
40
0.750000000000002
40
0.750000000000002
40
0.781250000000002
40
0.781250000000002
40
0.812500000000001
40
0.812500000000001
40
0.843750000000001
40
0.843750000000001
40
0.875
40
0.875
40
0.90625
40
0.90625
40
0.9375
40
0.9375
40
0.953124999999999
40
0.953124999999999
40
0.960937499999999
40
0.964843749999999
40
0.964843749999999
40
0.968749999999999
40
0.968749999999999
40
1
40
1
40
1
40
1
41
1
10
141.833870041343
20
11.708
30
0
41
1
10
141.921419691925
20
11.708
30
0
41
1
10
142.008969342507
20
11.6712152144399
30
0
41
1
10
142.184068643671
20
11.5128877266687
30
0
41
1
10
142.271618294253
20
11.391276645045
30
0
41
1
10
142.446717595417
20
11.0560176485819
30
0
41
1
10
142.534267245999
20
10.8423146818911
30
0
41
1
10
142.709366547163
20
10.3215553051986
30
0
41
1
10
142.796916197745
20
10.0144764814257
30
0
41
1
10
142.972015498908
20
9.31284596310442
30
0
41
1
10
143.059565149491
20
8.91831726107694
30
0
41
1
10
143.234664450654
20
8.05489451315074
30
0
41
1
10
143.322214101236
20
7.58606747019397
30
0
41
1
10
143.4973134024
20
6.59301112135159
30
0
41
1
10
143.584863052982
20
6.0688760166893
30
0
41
1
10
143.759962354146
20
4.98752616702109
30
0
41
1
10
143.847512004728
20
4.43040753280758
30
0
41
1
10
144.022611305892
20
3.30581723917737
30
0
41
1
10
144.110160956474
20
2.73842080677645
30
0
41
1
10
144.285260257638
20
1.61375438010765
30
0
41
1
10
144.37280990822
20
1.05652662724191
30
0
41
1
10
144.482246971447
20
0.376592972411288
30
0
41
1
10
144.504134384093
20
0.241425098650524
30
0
41
1
10
144.536965503061
20
0.0400588296847388
30
0
41
1
10
144.547909209384
20
-0.0266996421394481
30
0
41
1
10
144.569796622029
20
-0.160882327630873
30
0
41
1
10
144.624515153643
20
-0.497494164442571
30
0
41
1
10
144.679233685257
20
-0.839594398809083
30
0
41
1
10
144.81055816113
20
-1.66844083445258
30
0
41
1
10
144.898107811712
20
-2.23154250483884
30
0
41
1
10
145.073207112876
20
-3.36086934317788
30
0
41
1
10
145.160756763458
20
-3.92703958678254
30
0
41
1
10
145.335856064622
20
-5.04099849057499
30
0
41
1
10
145.423405715203
20
-5.58870218898193
30
0
41
1
10
145.598505016367
20
-6.64283728564021
30
0
41
1
10
145.686054666949
20
-7.14917026086221
30
0
41
1
10
145.861153968113
20
-8.09911428951716
30
0
41
1
10
145.948703618695
20
-8.54263840054585
30
0
41
1
10
146.123802919859
20
-9.34983732147685
30
0
41
1
10
146.211352570441
20
-9.71346005728719
30
0
41
1
10
146.386451871605
20
-10.3502197975698
30
0
41
1
10
146.474001522187
20
-10.623351159599
30
0
41
1
10
146.649100823351
20
-11.0758783854673
30
0
41
1
10
146.736650473933
20
-11.2553106596947
30
0
41
1
10
146.911749775097
20
-11.5240837384845
30
0
41
1
10
146.999299425679
20
-11.613486781382
30
0
41
1
10
147.130623901552
20
-11.686763710547
30
0
41
1
10
147.174398726842
20
-11.7010868399379
30
0
41
1
10
147.240060964779
20
-11.7085019468675
30
0
41
1
10
147.261948377425
20
-11.7086527899194
30
0
41
1
10
147.305723202716
20
-11.7043319294418
30
0
41
1
10
147.327610615361
20
-11.6998342638913
30
0
41
1
10
147.437047678589
20
-11.6651930980581
30
0
41
1
10
147.52459732917
20
-11.5984490517265
30
0
41
1
10
147.699696630334
20
-11.3769552831865
30
0
41
1
10
147.787246280916
20
-11.2221397938122
30
0
41
1
10
147.96234558208
20
-10.8192105700195
30
0
41
1
10
148.049895232662
20
-10.571051654804
30
0
41
1
10
148.224994533826
20
-9.98266944868129
30
0
41
1
10
148.312544184408
20
-9.64243953942002
30
0
41
1
10
148.487643485572
20
-8.87851695602853
30
0
41
1
10
148.575193136154
20
-8.45486445183471
30
0
41
1
10
148.750292437318
20
-7.53958097495334
30
0
41
1
10
148.8378420879
20
-7.04802960020143
30
0
41
1
10
149.012941389064
20
-6.01747443587721
30
0
41
1
10
149.100491039646
20
-5.47856858977534
30
0
41
1
10
149.27559034081
20
-4.37611782638052
30
0
41
1
10
149.363139991392
20
-3.81266355808779
30
0
41
1
10
149.538239292556
20
-2.68328953800332
30
0
41
1
10
149.625788943138
20
-2.11743363844656
30
0
41
1
10
149.75711341901
20
-1.281163533561
30
0
41
1
10
149.800888244301
20
-1.00446291325872
30
0
41
1
10
149.866550482238
20
-0.593980140406245
30
0
41
1
10
149.899381601206
20
-0.389877416185897
30
0
41
1
10
149.932212720174
20
-0.187729703589156
30
0
41
1
10
149.95410013282
20
-0.0534242519002817
30
0
41
1
10
149.965043839143
20
0.0133467109741332
30
0
41
1
10
150.063537196047
20
0.616891080146615
30
0
41
1
10
150.151086846629
20
1.16844516693081
30
0
41
1
10
150.238636497211
20
1.72750914108889
30
0
0
SPLINE
5
F6
100
AcDbEntity
8
1
62
256
6
ByLayer
370
13
48
1
60
0
100
AcDbSpline
70
4
71
3
72
36
73
32
40
0
40
0
40
0
40
0
40
0.0624999999999998
40
0.0624999999999998
40
0.125
40
0.125
40
0.1875
40
0.1875
40
0.25
40
0.25
40
0.3125
40
0.3125
40
0.374999999999999
40
0.374999999999999
40
0.437499999999999
40
0.437499999999999
40
0.499999999999999
40
0.499999999999999
40
0.562499999999999
40
0.562499999999999
40
0.624999999999999
40
0.624999999999999
40
0.687499999999999
40
0.687499999999999
40
0.75
40
0.75
40
0.8125
40
0.8125
40
0.875
40
0.875
40
1
40
1
40
1
40
1
41
1
10
139.4
20
0.906215007640554
30
0
41
1
10
139.453405848774
20
1.24160419323576
30
0
41
1
10
139.506811697548
20
1.58123883416798
30
0
41
1
10
139.613623395095
20
2.26523882909311
30
0
41
1
10
139.667029243869
20
2.60960106044885
30
0
41
1
10
139.773840941417
20
3.29870818747096
30
0
41
1
10
139.827246790191
20
3.64344816397494
30
0
41
1
10
139.934058487739
20
4.32849823274395
30
0
41
1
10
139.987464336512
20
4.66880176862969
30
0
41
1
10
140.09427603406
20
5.33987490914137
30
0
41
1
10
140.147681882834
20
5.67063673290608
30
0
41
1
10
140.254493580382
20
6.31744782510197
30
0
41
1
10
140.307899429156
20
6.63348873284573
30
0
41
1
10
140.414711126703
20
7.24584963456334
30
0
41
1
10
140.468116975477
20
7.54216148807228
30
0
41
1
10
140.574928673025
20
8.11047693104686
30
0
41
1
10
140.628334521799
20
8.38247343405766
30
0
41
1
10
140.735146219346
20
8.89822346057798
30
0
41
1
10
140.78855206812
20
9.14197167829403
30
0
41
1
10
140.895363765668
20
9.59813160643898
30
0
41
1
10
140.948769614442
20
9.81054028606039
30
0
41
1
10
141.05558131199
20
10.2018955069028
30
0
41
1
10
141.108987160763
20
10.3808414769586
30
0
41
1
10
141.215798858311
20
10.7041679813044
30
0
41
1
10
141.269204707085
20
10.8485502675954
30
0
41
1
10
141.376016404633
20
11.1026499042263
30
0
41
1
10
141.429422253407
20
11.212370924643
30
0
41
1
10
141.536233950954
20
11.3979691984173
30
0
41
1
10
141.589639799728
20
11.4738514631461
30
0
41
1
10
141.74985734605
20
11.6531464864865
30
0
41
1
10
141.856669043597
20
11.708
30
0
41
1
10
141.963480741145
20
11.708
30
0
0
SPLINE
5
F7
100
AcDbEntity
8
1
62
256
6
ByLayer
370
13
48
1
60
0
100
AcDbSpline
70
4
71
3
72
80
73
76
40
0
40
0
40
0
40
0
40
0.0312500000000002
40
0.0312500000000002
40
0.0625000000000004
40
0.0625000000000004
40
0.0937500000000005
40
0.0937500000000005
40
0.125000000000001
40
0.125000000000001
40
0.156250000000001
40
0.156250000000001
40
0.187500000000001
40
0.187500000000001
40
0.218750000000001
40
0.218750000000001
40
0.250000000000001
40
0.250000000000001
40
0.281250000000002
40
0.281250000000002
40
0.296875000000002
40
0.296875000000002
40
0.304687500000002
40
0.304687500000002
40
0.312500000000002
40
0.312500000000002
40
0.343750000000002
40
0.343750000000002
40
0.375000000000002
40
0.375000000000002
40
0.406250000000001
40
0.406250000000001
40
0.437500000000001
40
0.437500000000001
40
0.468750000000001
40
0.468750000000001
40
0.500000000000001
40
0.500000000000001
40
0.531250000000001
40
0.531250000000001
40
0.562500000000001
40
0.562500000000001
40
0.593750000000001
40
0.593750000000001
40
0.609375000000001
40
0.609375000000001
40
0.625000000000001
40
0.625000000000001
40
0.656250000000001
40
0.656250000000001
40
0.687500000000001
40
0.687500000000001
40
0.718750000000001
40
0.718750000000001
40
0.750000000000001
40
0.750000000000001
40
0.781250000000001
40
0.781250000000001
40
0.812500000000001
40
0.812500000000001
40
0.843750000000001
40
0.843750000000001
40
0.875000000000001
40
0.875000000000001
40
0.906250000000001
40
0.906250000000001
40
0.914062500000001
40
0.914062500000001
40
0.921875000000001
40
0.921875000000001
40
0.937500000000001
40
0.937500000000001
40
0.96875
40
0.96875
40
1
40
1
40
1
40
1
41
1
10
141.347096141461
20
11.708
30
0
41
1
10
141.4397163535
20
11.708
30
0
41
1
10
141.532336565539
20
11.6668128313298
30
0
41
1
10
141.717576989617
20
11.4889287904748
30
0
41
1
10
141.810197201656
20
11.3521417707149
30
0
41
1
10
141.995437625734
20
10.9749569096594
30
0
41
1
10
142.088057837773
20
10.7344900209396
30
0
41
1
10
142.273298261851
20
10.1495456398874
30
0
41
1
10
142.365918473891
20
9.80504819967635
30
0
41
1
10
142.551158897969
20
9.02078277358288
30
0
41
1
10
142.643779110008
20
8.58105969390564
30
0
41
1
10
142.829019534086
20
7.62389013970176
30
0
41
1
10
142.921639746125
20
7.10654577345011
30
0
41
1
10
143.106880170203
20
6.01822799104977
30
0
41
1
10
143.199500382242
20
5.44738401979754
30
0
41
1
10
143.38474080632
20
4.27910357093427
30
0
41
1
10
143.477361018359
20
3.68178608273311
30
0
41
1
10
143.662601442437
20
2.48666613461421
30
0
41
1
10
143.755221654476
20
1.88894401563587
30
0
41
1
10
143.894151972535
20
1.00856830793217
30
0
41
1
10
143.940462078555
20
0.717772221335338
30
0
41
1
10
144.009927237584
20
0.287241198436192
30
0
41
1
10
144.033082290594
20
0.144671827234418
30
0
41
1
10
144.079392396613
20
-0.138341854393531
30
0
41
1
10
144.102547449623
20
-0.280849933947053
30
0
41
1
10
144.218322714672
20
-0.998261329331086
30
0
41
1
10
144.310942926711
20
-1.58750158299028
30
0
41
1
10
144.496183350789
20
-2.77738279532366
30
0
41
1
10
144.588803562828
20
-3.37796760177159
30
0
41
1
10
144.774043986906
20
-4.56623727857814
30
0
41
1
10
144.866664198945
20
-5.1538202163033
30
0
41
1
10
145.051904623023
20
-6.28911581915256
30
0
41
1
10
145.144524835062
20
-6.83669982678475
30
0
41
1
10
145.329765259141
20
-7.86590990502845
30
0
41
1
10
145.42238547118
20
-8.34741542914662
30
0
41
1
10
145.607625895258
20
-9.22314642788425
30
0
41
1
10
145.700246107297
20
-9.61729562505099
30
0
41
1
10
145.885486531375
20
-10.3048416737923
30
0
41
1
10
145.978106743414
20
-10.5982264572144
30
0
41
1
10
146.163347167492
20
-11.0800013341227
30
0
41
1
10
146.255967379532
20
-11.2684388256629
30
0
41
1
10
146.44120780361
20
-11.5447355599117
30
0
41
1
10
146.533828015649
20
-11.6326779961495
30
0
41
1
10
146.672758333707
20
-11.6974178830476
30
0
41
1
10
146.719068439727
20
-11.7078452505777
30
0
41
1
10
146.811688651766
20
-11.7081513267163
30
0
41
1
10
146.857998757785
20
-11.6980436667999
30
0
41
1
10
146.996929075844
20
-11.6343002824982
30
0
41
1
10
147.089549287883
20
-11.5470722559088
30
0
41
1
10
147.274789711961
20
-11.2722655491118
30
0
41
1
10
147.367409924
20
-11.0846035188846
30
0
41
1
10
147.552650348078
20
-10.6043830195854
30
0
41
1
10
147.645270560117
20
-10.3117767824811
30
0
41
1
10
147.830510984196
20
-9.62572256500442
30
0
41
1
10
147.923131196234
20
-9.23228616148612
30
0
41
1
10
148.108371620313
20
-8.35784919726737
30
0
41
1
10
148.200991832352
20
-7.87692448010316
30
0
41
1
10
148.38623225643
20
-6.84869521114771
30
0
41
1
10
148.478852468469
20
-6.3015109994478
30
0
41
1
10
148.664092892547
20
-5.16681216596274
30
0
41
1
10
148.756713104586
20
-4.57942628294569
30
0
41
1
10
148.941953528664
20
-3.39135508264516
30
0
41
1
10
149.034573740704
20
-2.79077199248732
30
0
41
1
10
149.219814164782
20
-1.60072894600711
30
0
41
1
10
149.312434376821
20
-1.01132550454375
30
0
41
1
10
149.42820964187
20
-0.293633773696485
30
0
41
1
10
149.451364694879
20
-0.151034495136059
30
0
41
1
10
149.497674800899
20
0.132042452792831
30
0
41
1
10
149.520829853909
20
0.274459982685073
30
0
41
1
10
149.590295012938
20
0.704822464421568
30
0
41
1
10
149.636605118957
20
0.995521385847411
30
0
41
1
10
149.775535437016
20
1.87565944714478
30
0
41
1
10
149.868155649055
20
2.47329535841766
30
0
41
1
10
150.053396073133
20
3.66842482399036
30
0
41
1
10
150.146016285172
20
4.26583838497894
30
0
41
1
10
150.238636497211
20
4.85017579271744
30
0
0
SPLINE
5
F8
100
AcDbEntity
8
1
62
256
6
ByLayer
370
13
48
1
60
0
100
AcDbSpline
70
4
71
3
72
22
73
18
40
0
40
0
40
0
40
0
40
0.125
40
0.125
40
0.25
40
0.25
40
0.375
40
0.375
40
0.5
40
0.5
40
0.625
40
0.625
40
0.75
40
0.75
40
0.875
40
0.875
40
1
40
1
40
1
40
1
41
1
10
139.4
20
4.02522275947413
30
0
41
1
10
139.486529451719
20
4.57990813576842
30
0
41
1
10
139.573058903439
20
5.12853063559874
30
0
41
1
10
139.746117806877
20
6.19181740229993
30
0
41
1
10
139.832647258596
20
6.70639024916136
30
0
41
1
10
140.005706162035
20
7.68016816692918
30
0
41
1
10
140.092235613754
20
8.13928542567564
30
0
41
1
10
140.265294517193
20
8.98409078613329
30
0
41
1
10
140.351823968912
20
9.3697177881117
30
0
41
1
10
140.524882872351
20
10.0551491105814
30
0
41
1
10
140.61141232407
20
10.3549338340887
30
0
41
1
10
140.784471227509
20
10.8632106439655
30
0
41
1
10
140.871000679228
20
11.0717252225571
30
0
41
1
10
141.044059582667
20
11.3988601138035
30
0
41
1
10
141.130589034386
20
11.5175328725911
30
0
41
1
10
141.303647937824
20
11.6720705428677
30
0
41
1
10
141.390177389544
20
11.708
30
0
41
1
10
141.476706841263
20
11.708
30
0
0
SPLINE
5
F9
100
AcDbEntity
8
1
62
256
6
ByLayer
370
13
48
1
60
0
100
AcDbSpline
70
4
71
3
72
82
73
78
40
0
40
0
40
0
40
0
40
0.03125
40
0.03125
40
0.0625
40
0.0625
40
0.0937500000000001
40
0.0937500000000001
40
0.125
40
0.125
40
0.15625
40
0.15625
40
0.1875
40
0.1875
40
0.21875
40
0.21875
40
0.25
40
0.25
40
0.28125
40
0.28125
40
0.2890625
40
0.2890625
40
0.296875
40
0.296875
40
0.312500000000001
40
0.312500000000001
40
0.343750000000001
40
0.343750000000001
40
0.375000000000001
40
0.375000000000001
40
0.406250000000001
40
0.406250000000001
40
0.437500000000002
40
0.437500000000002
40
0.468750000000002
40
0.468750000000002
40
0.500000000000002
40
0.500000000000002
40
0.531250000000002
40
0.531250000000002
40
0.562500000000003
40
0.562500000000003
40
0.570312500000003
40
0.570312500000003
40
0.578125000000002
40
0.578125000000002
40
0.593750000000002
40
0.593750000000002
40
0.625000000000002
40
0.625000000000002
40
0.656250000000002
40
0.656250000000002
40
0.687500000000002
40
0.687500000000002
40
0.718750000000002
40
0.718750000000002
40
0.750000000000002
40
0.750000000000002
40
0.781250000000001
40
0.781250000000001
40
0.812500000000001
40
0.812500000000001
40
0.843750000000001
40
0.843750000000001
40
0.859375000000001
40
0.859375000000001
40
0.867187500000001
40
0.867187500000001
40
0.875000000000001
40
0.875000000000001
40
0.906250000000001
40
0.906250000000001
40
0.9375
40
0.9375
40
0.96875
40
0.96875
40
1
40
1
40
1
40
1
41
1
10
140.860322241579
20
11.708
30
0
41
1
10
140.958013015075
20
11.708
30
0
41
1
10
141.055703788571
20
11.6621579935035
30
0
41
1
10
141.251085335563
20
11.4635110055343
30
0
41
1
10
141.348776109059
20
11.3105890728362
30
0
41
1
10
141.544157656052
20
10.888902521875
30
0
41
1
10
141.641848429548
20
10.6200533269606
30
0
41
1
10
141.83722997654
20
9.96743583676115
30
0
41
1
10
141.934920750036
20
9.58365478541651
30
0
41
1
10
142.130302297029
20
8.71350289178937
30
0
41
1
10
142.227993070525
20
8.22720895037097
30
0
41
1
10
142.423374617517
20
7.17484078409987
30
0
41
1
10
142.521065391014
20
6.60891412246897
30
0
41
1
10
142.716446938006
20
5.42709286904636
30
0
41
1
10
142.814137711502
20
4.81136774847897
30
0
41
1
10
143.009519258494
20
3.56180321131421
30
0
41
1
10
143.10721003199
20
2.92810273787634
30
0
41
1
10
143.302591578983
20
1.67166435239253
30
0
41
1
10
143.400282352479
20
1.04900391302374
30
0
41
1
10
143.522395819349
20
0.291880843783389
30
0
41
1
10
143.546818512723
20
0.141578226564889
30
0
41
1
10
143.595663899471
20
-0.156977052637814
30
0
41
1
10
143.620086592845
20
-0.307435493550344
30
0
41
1
10
143.693354672968
20
-0.761923721799548
30
0
41
1
10
143.742200059716
20
-1.06908062812784
30
0
41
1
10
143.88873621996
20
-1.9990890412661
30
0
41
1
10
143.986426993456
20
-2.63066489293922
30
0
41
1
10
144.181808540448
20
-3.89081168285898
30
0
41
1
10
144.279499313945
20
-4.51927189427715
30
0
41
1
10
144.474880860937
20
-5.74226412616568
30
0
41
1
10
144.572571634433
20
-6.33663603087285
30
0
41
1
10
144.767953181425
20
-7.45999686815165
30
0
41
1
10
144.865643954922
20
-7.98882043625872
30
0
41
1
10
145.061025501914
20
-8.95417338885986
30
0
41
1
10
145.15871627541
20
-9.39058646649832
30
0
41
1
10
145.354097822403
20
-10.1531816325152
30
0
41
1
10
145.451788595899
20
-10.479332497389
30
0
41
1
10
145.647170142891
20
-11.0147627165258
30
0
41
1
10
145.744860916387
20
-11.224095483169
30
0
41
1
10
145.94024246338
20
-11.5301745174073
30
0
41
1
10
146.037933236876
20
-11.627027173101
30
0
41
1
10
146.160046703746
20
-11.6856458135459
30
0
41
1
10
146.18446939712
20
-11.6942627630219
30
0
41
1
10
146.233314783868
20
-11.705532787884
30
0
41
1
10
146.257737477242
20
-11.7081862867017
30
0
41
1
10
146.331005557364
20
-11.7075970386059
30
0
41
1
10
146.379850944112
20
-11.6957620268121
30
0
41
1
10
146.526387104357
20
-11.6228526457797
30
0
41
1
10
146.624077877853
20
-11.5241539628174
30
0
41
1
10
146.819459424845
20
-11.2142278017037
30
0
41
1
10
146.917150198341
20
-11.0028944904445
30
0
41
1
10
147.112531745334
20
-10.463477829952
30
0
41
1
10
147.21022251883
20
-10.1353423193739
30
0
41
1
10
147.405604065822
20
-9.36899052202631
30
0
41
1
10
147.503294839319
20
-8.93080702884765
30
0
41
1
10
147.698676386311
20
-7.96230803724342
30
0
41
1
10
147.796367159807
20
-7.43211008380661
30
0
41
1
10
147.991748706799
20
-6.30651679413003
30
0
41
1
10
148.089439480295
20
-5.71128720156585
30
0
41
1
10
148.284821027288
20
-4.48713088094354
30
0
41
1
10
148.382511800784
20
-3.8583637266594
30
0
41
1
10
148.577893347776
20
-2.59810545636193
30
0
41
1
10
148.675584121272
20
-1.96672398776712
30
0
41
1
10
148.822120281517
20
-1.03730397190145
30
0
41
1
10
148.870965668265
20
-0.73039233043815
30
0
41
1
10
148.944233748387
20
-0.276333939787804
30
0
41
1
10
148.968656441761
20
-0.126254097366797
30
0
41
1
10
149.017501828509
20
0.17246312271584
30
0
41
1
10
149.041924521883
20
0.322997853615192
30
0
41
1
10
149.164037988753
20
1.08083376563263
30
0
41
1
10
149.26172876225
20
1.70389806541382
30
0
41
1
10
149.457110309242
20
2.96069139291509
30
0
41
1
10
149.554801082738
20
3.59434179885994
30
0
41
1
10
149.75018262973
20
4.84327142374642
30
0
41
1
10
149.847873403227
20
5.45841082854582
30
0
41
1
10
150.043254950219
20
6.63851601636551
30
0
41
1
10
150.140945723715
20
7.20331222956528
30
0
41
1
10
150.238636497211
20
7.72813284470036
30
0
0
SPLINE
5
FA
100
AcDbEntity
8
1
62
256
6
ByLayer
370
13
48
1
60
0
100
AcDbSpline
70
4
71
3
72
22
73
18
40
0
40
0
40
0
40
0
40
0.125
40
0.125
40
0.25
40
0.25
40
0.375
40
0.375
40
0.5
40
0.5
40
0.625
40
0.625
40
0.75
40
0.75
40
0.875
40
0.875
40
1
40
1
40
1
40
1
41
1
10
139.4
20
7.00968308663465
30
0
41
1
10
139.466247205891
20
7.38760006307643
30
0
41
1
10
139.532494411782
20
7.75002802581832
30
0
41
1
10
139.664988823564
20
8.43539840631112
30
0
41
1
10
139.731236029454
20
8.75832151454807
30
0
41
1
10
139.863730441236
20
9.35782576507214
30
0
41
1
10
139.929977647127
20
9.63439494923341
30
0
41
1
10
140.062472058909
20
10.1365128421662
30
0
41
1
10
140.1287192648
20
10.3620584096807
30
0
41
1
10
140.261213676581
20
10.7598589953927
30
0
41
1
10
140.327460882472
20
10.9321193686237
30
0
41
1
10
140.459955294254
20
11.2234518122623
30
0
41
1
10
140.526202500145
20
11.3425358966707
30
0
41
1
10
140.658696911927
20
11.5297214707453
30
0
41
1
10
140.724944117817
20
11.5978389377576
30
0
41
1
10
140.857438529599
20
11.6869696303729
30
0
41
1
10
140.92368573549
20
11.708
30
0
41
1
10
140.989932941381
20
11.708
30
0
0
SPLINE
5
FB
100
AcDbEntity
8
1
62
256
6
ByLayer
370
13
48
1
60
0
100
AcDbSpline
70
4
71
3
72
125
73
121
40
0
40
0
40
0
40
0
40
0.0312500000000003
40
0.0312500000000003
40
0.0625000000000007
40
0.0625000000000007
40
0.078125000000001
40
0.078125000000001
40
0.0937500000000013
40
0.0937500000000013
40
0.109375000000002
40
0.109375000000002
40
0.125000000000002
40
0.125000000000002
40
0.140625000000002
40
0.140625000000002
40
0.156250000000002
40
0.156250000000002
40
0.171875000000003
40
0.171875000000003
40
0.187500000000003
40
0.187500000000003
40
0.203125000000003
40
0.203125000000003
40
0.218750000000003
40
0.218750000000003
40
0.250000000000004
40
0.250000000000004
40
0.265625000000004
40
0.265625000000004
40
0.273437500000004
40
0.273437500000004
40
0.277343750000004
40
0.277343750000004
40
0.281250000000004
40
0.281250000000004
40
0.312500000000005
40
0.312500000000005
40
0.343750000000005
40
0.343750000000005
40
0.359375000000005
40
0.359375000000005
40
0.375000000000005
40
0.375000000000005
40
0.390625000000005
40
0.390625000000005
40
0.406250000000005
40
0.406250000000005
40
0.421875000000005
40
0.421875000000005
40
0.437500000000005
40
0.437500000000005
40
0.453125000000006
40
0.453125000000006
40
0.468750000000006
40
0.468750000000006
40
0.484375000000006
40
0.484375000000006
40
0.500000000000006
40
0.500000000000006
40
0.531250000000006
40
0.531250000000006
40
0.546875000000005
40
0.546875000000005
40
0.550781250000005
40
0.550781250000005
40
0.554687500000005
40
0.562500000000005
40
0.562500000000005
40
0.593750000000004
40
0.593750000000004
40
0.609375000000004
40
0.609375000000004
40
0.625000000000004
40
0.625000000000004
40
0.640625000000004
40
0.640625000000004
40
0.656250000000004
40
0.656250000000004
40
0.671875000000003
40
0.671875000000003
40
0.687500000000003
40
0.687500000000003
40
0.703125000000003
40
0.703125000000003
40
0.718750000000003
40
0.718750000000003
40
0.734375000000003
40
0.734375000000003
40
0.750000000000003
40
0.750000000000003
40
0.765625000000002
40
0.765625000000002
40
0.781250000000002
40
0.781250000000002
40
0.812500000000002
40
0.812500000000002
40
0.820312500000002
40
0.820312500000002
40
0.828125000000002
40
0.828125000000002
40
0.843750000000002
40
0.843750000000002
40
0.875000000000001
40
0.875000000000001
40
0.890625000000001
40
0.890625000000001
40
0.906250000000001
40
0.906250000000001
40
0.921875000000001
40
0.921875000000001
40
0.937500000000001
40
0.937500000000001
40
0.953125
40
0.953125
40
0.96875
40
0.96875
40
0.984375
40
0.984375
40
1
40
1
40
1
40
1
41
1
10
140.373548341696
20
11.708
30
0
41
1
10
140.476309676649
20
11.708
30
0
41
1
10
140.579071011603
20
11.6572498067634
30
0
41
1
10
140.784593681509
20
11.4366246440432
30
0
41
1
10
140.887355016463
20
11.2666001463178
30
0
41
1
10
141.041497018893
20
10.9150312331882
30
0
41
1
10
141.092877686369
20
10.7818330068461
30
0
41
1
10
141.195639021322
20
10.4833650406327
30
0
41
1
10
141.247019688799
20
10.3180935243907
30
0
41
1
10
141.349781023752
20
9.95626787373715
30
0
41
1
10
141.401161691229
20
9.75971375494939
30
0
41
1
10
141.503923026182
20
9.33698907640138
30
0
41
1
10
141.555303693659
20
9.11082048055803
30
0
41
1
10
141.658065028612
20
8.63138101525334
30
0
41
1
10
141.709445696089
20
8.37811398351855
30
0
41
1
10
141.812207031042
20
7.8477522528907
30
0
41
1
10
141.863587698519
20
7.57066295556703
30
0
41
1
10
141.966349033472
20
6.99655172218658
30
0
41
1
10
142.017729700949
20
6.6995362474658
30
0
41
1
10
142.120491035902
20
6.08990804146291
30
0
41
1
10
142.171871703379
20
5.77730221249666
30
0
41
1
10
142.274633038332
20
5.1410660962174
30
0
41
1
10
142.326013705809
20
4.81744251739056
30
0
41
1
10
142.428775040762
20
4.16377450462866
30
0
41
1
10
142.480155708239
20
3.83373602919656
30
0
41
1
10
142.634297710668
20
2.84065283460089
30
0
41
1
10
142.737059045622
20
2.17487880746847
30
0
41
1
10
142.891201048052
20
1.19398657524133
30
0
41
1
10
142.942581715528
20
0.869929439161439
30
0
41
1
10
143.019652716743
20
0.390556719567599
30
0
41
1
10
143.045343050482
20
0.231880331283946
30
0
41
1
10
143.083878551089
20
-0.0042080542568783
30
0
41
1
10
143.096723717958
20
-0.0826069159111
30
0
41
1
10
143.122414051697
20
-0.240465911648983
30
0
41
1
10
143.135259218566
20
-0.319708693249083
30
0
41
1
10
143.250865720388
20
-1.03552379051746
30
0
41
1
10
143.353627055341
20
-1.69086379219607
30
0
41
1
10
143.559149725248
20
-3.01310879205789
30
0
41
1
10
143.661911060201
20
-3.67991164486824
30
0
41
1
10
143.816053062631
20
-4.66329033444839
30
0
41
1
10
143.867433730108
20
-4.98823131417169
30
0
41
1
10
143.970195065061
20
-5.62783238428682
30
0
41
1
10
144.021575732538
20
-5.94248585083295
30
0
41
1
10
144.124337067491
20
-6.55692123881343
30
0
41
1
10
144.175717734968
20
-6.85669624731386
30
0
41
1
10
144.278479069921
20
-7.43698733711378
30
0
41
1
10
144.329859737398
20
-7.71749684465416
30
0
41
1
10
144.432621072351
20
-8.25527762867728
30
0
41
1
10
144.484001739828
20
-8.51254329863173
30
0
41
1
10
144.586763074781
20
-9.00045029202454
30
0
41
1
10
144.638143742257
20
-9.23108750439954
30
0
41
1
10
144.740905077211
20
-9.66309234246529
30
0
41
1
10
144.792285744687
20
-9.86445769707356
30
0
41
1
10
144.895047079641
20
-10.236111326115
30
0
41
1
10
144.946427747117
20
-10.4063992820048
30
0
41
1
10
145.049189082071
20
-10.7149674197492
30
0
41
1
10
145.100569749547
20
-10.8532491136177
30
0
41
1
10
145.2033310845
20
-11.097732243434
30
0
41
1
10
145.254711751977
20
-11.2039367057373
30
0
41
1
10
145.408853754407
20
-11.4755040953306
30
0
41
1
10
145.51161508936
20
-11.5935601595275
30
0
41
1
10
145.66575709179
20
-11.686167259114
30
0
41
1
10
145.717137759267
20
-11.7030285824574
30
0
41
1
10
145.781363593613
20
-11.7080549890461
30
0
41
1
10
145.794208760482
20
-11.7082619185184
30
0
41
1
10
145.81989909422
20
-11.7070941906654
30
0
41
1
10
145.858434594828
20
-11.7029531316314
30
0
41
1
10
145.896970095435
20
-11.6914677639332
30
0
41
1
10
146.025421764127
20
-11.6361249407014
30
0
41
1
10
146.12818309908
20
-11.5369635009212
30
0
41
1
10
146.28232510151
20
-11.2948937751329
30
0
41
1
10
146.333705768987
20
-11.1987086728366
30
0
41
1
10
146.43646710394
20
-10.9744105891843
30
0
41
1
10
146.487847771417
20
-10.846294190992
30
0
41
1
10
146.59060910637
20
-10.5579444190993
30
0
41
1
10
146.641989773846
20
-10.3977090133329
30
0
41
1
10
146.7447511088
20
-10.0457726889926
30
0
41
1
10
146.796131776276
20
-9.85407148712005
30
0
41
1
10
146.89889311123
20
-9.44073160870218
30
0
41
1
10
146.950273778706
20
-9.21909458706062
30
0
41
1
10
147.053035113659
20
-8.74826764721553
30
0
41
1
10
147.104415781136
20
-8.49908128558158
30
0
41
1
10
147.207177116089
20
-7.97631823486785
30
0
41
1
10
147.258557783566
20
-7.70274672965499
30
0
41
1
10
147.361319118519
20
-7.13502155072788
30
0
41
1
10
147.412699785996
20
-6.84087421028045
30
0
41
1
10
147.515461120949
20
-6.23627631820796
30
0
41
1
10
147.566841788426
20
-5.92583264224385
30
0
41
1
10
147.669603123379
20
-5.29319124878572
30
0
41
1
10
147.720983790856
20
-4.97100031039594
30
0
41
1
10
147.823745125809
20
-4.31947647266833
30
0
41
1
10
147.875125793286
20
-3.99014968180626
30
0
41
1
10
147.977887128239
20
-3.328833675374
30
0
41
1
10
148.029267795716
20
-2.99684946368808
30
0
41
1
10
148.183409798146
20
-2.0031713437472
30
0
41
1
10
148.286171133099
20
-1.34402258752337
30
0
41
1
10
148.414622801791
20
-0.541641817775655
30
0
41
1
10
148.440313135529
20
-0.382222886470203
30
0
41
1
10
148.491693803005
20
-0.0658499793692897
30
0
41
1
10
148.517384136744
20
0.0905248263080125
30
0
41
1
10
148.594455137959
20
0.565468694937891
30
0
41
1
10
148.645835805435
20
0.887010642040252
30
0
41
1
10
148.799977807866
20
1.86193416474867
30
0
41
1
10
148.902739142819
20
2.52584794358466
30
0
41
1
10
149.056881145249
20
3.52018992006131
30
0
41
1
10
149.108261812725
20
3.85131937245731
30
0
41
1
10
149.211023147679
20
4.50859793608143
30
0
41
1
10
149.262403815155
20
4.83474141873549
30
0
41
1
10
149.365165150108
20
5.47747756063686
30
0
41
1
10
149.416545817585
20
5.794063694199
30
0
41
1
10
149.519307152538
20
6.41308139547954
30
0
41
1
10
149.570687820015
20
6.71550605551383
30
0
41
1
10
149.673449154968
20
7.30176745959329
30
0
41
1
10
149.724829822445
20
7.58559753333557
30
0
41
1
10
149.827591157398
20
8.13061296052425
30
0
41
1
10
149.878971824875
20
8.39179251583926
30
0
41
1
10
149.981733159828
20
8.88801612208269
30
0
41
1
10
150.033113827305
20
9.12305579730761
30
0
41
1
10
150.135875162258
20
9.56422950947493
30
0
41
1
10
150.187255829735
20
9.77036097098201
30
0
41
1
10
150.238636497211
20
9.96106764369327
30
0
0
SPLINE
5
FC
100
AcDbEntity
8
1
62
256
6
ByLayer
370
13
48
1
60
0
100
AcDbSpline
70
4
71
3
72
14
73
10
40
0
40
0
40
0
40
0
40
0.25
40
0.25
40
0.5
40
0.5
40
0.75
40
0.75
40
1
40
1
40
1
40
1
41
1
10
139.4
20
9.44785977144556
30
0
41
1
10
139.491929920125
20
9.83426766282162
30
0
41
1
10
139.58385984025
20
10.1735589843114
30
0
41
1
10
139.7677196805
20
10.7495576768187
30
0
41
1
10
139.859649600624
20
10.9862855684051
30
0
41
1
10
140.043509440874
20
11.35761123502
30
0
41
1
10
140.135439360999
20
11.4922760546053
30
0
41
1
10
140.319299201249
20
11.6674269851039
30
0
41
1
10
140.411229121374
20
11.708
30
0
41
1
10
140.503159041499
20
11.708
30
0
0
SPLINE
5
FD
100
AcDbEntity
8
1
62
256
6
ByLayer
370
13
48
1
60
0
100
AcDbSpline
70
4
71
3
72
140
73
136
40
0
40
0
40
0
40
0
40
0.015625
40
0.015625
40
0.03125
40
0.03125
40
0.046875
40
0.046875
40
0.0625
40
0.0625
40
0.0781249999999999
40
0.0781249999999999
40
0.0937499999999999
40
0.0937499999999999
40
0.109375
40
0.109375
40
0.125
40
0.125
40
0.140625
40
0.140625
40
0.15625
40
0.15625
40
0.171875
40
0.171875
40
0.1875
40
0.1875
40
0.203125
40
0.203125
40
0.21875
40
0.21875
40
0.234375
40
0.234375
40
0.25
40
0.25
40
0.2578125
40
0.2578125
40
0.265625
40
0.265625
40
0.28125
40
0.28125
40
0.296875
40
0.296875
40
0.3125
40
0.3125
40
0.328125
40
0.328125
40
0.34375
40
0.34375
40
0.359375
40
0.359375
40
0.375
40
0.375
40
0.390625
40
0.390625
40
0.40625
40
0.40625
40
0.421875
40
0.421875
40
0.4375
40
0.4375
40
0.453125
40
0.453125
40
0.46875
40
0.46875
40
0.484375
40
0.484375
40
0.5
40
0.5
40
0.515625
40
0.515625
40
0.5234375
40
0.5234375
40
0.53125
40
0.53125
40
0.546875
40
0.546875
40
0.5625
40
0.5625
40
0.578125
40
0.578125
40
0.59375
40
0.59375
40
0.609375
40
0.609375
40
0.625
40
0.625
40
0.640625
40
0.640625
40
0.65625
40
0.65625
40
0.671875
40
0.671875
40
0.6875
40
0.6875
40
0.703125
40
0.703125
40
0.71875
40
0.71875
40
0.734375
40
0.734375
40
0.75
40
0.75
40
0.765624999999999
40
0.765624999999999
40
0.781249999999999
40
0.781249999999999
40
0.789062499999999
40
0.789062499999999
40
0.796874999999999
40
0.796874999999999
40
0.812499999999999
40
0.812499999999999
40
0.828124999999999
40
0.828124999999999
40
0.843749999999999
40
0.843749999999999
40
0.859374999999999
40
0.859374999999999
40
0.874999999999999
40
0.874999999999999
40
0.890624999999999
40
0.890624999999999
40
0.906249999999999
40
0.906249999999999
40
0.921874999999999
40
0.921874999999999
40
0.9375
40
0.9375
40
0.953125
40
0.953125
40
0.96875
40
0.96875
40
0.984375
40
0.984375
40
1
40
1
40
1
40
1
41
1
10
139.886774441814
20
11.708
30
0
41
1
10
139.940690390019
20
11.708
30
0
41
1
10
139.994606338224
20
11.694078818271
30
0
41
1
10
140.102438234635
20
11.6356471561658
30
0
41
1
10
140.15635418284
20
11.5911305626003
30
0
41
1
10
140.26418607925
20
11.4692170823289
30
0
41
1
10
140.318102027456
20
11.3918142090942
30
0
41
1
10
140.425933923866
20
11.2024882224417
30
0
41
1
10
140.479849872071
20
11.0905598853761
30
0
41
1
10
140.587681768482
20
10.8313647999209
30
0
41
1
10
140.641597716687
20
10.684094269874
30
0
41
1
10
140.749429613097
20
10.3543561293391
30
0
41
1
10
140.803345561302
20
10.1718867905362
30
0
41
1
10
140.911177457713
20
9.77293677645898
30
0
41
1
10
140.965093405918
20
9.556456847291
30
0
41
1
10
141.072925302328
20
9.09173194378056
30
0
41
1
10
141.126841250534
20
8.84349031695757
30
0
41
1
10
141.234673146944
20
8.31848762344109
30
0
41
1
10
141.288589095149
20
8.04173228503132
30
0
41
1
10
141.396420991559
20
7.46380974540048
30
0
41
1
10
141.450336939765
20
7.16265010240951
30
0
41
1
10
141.558168836175
20
6.54068676491761
30
0
41
1
10
141.61208478438
20
6.21989166669655
30
0
41
1
10
141.719916680791
20
5.5638398818173
30
0
41
1
10
141.773832628996
20
5.22859193571549
30
0
41
1
10
141.881664525406
20
4.54896800210645
30
0
41
1
10
141.935580473611
20
4.20460005665501
30
0
41
1
10
142.043412370022
20
3.51196583989011
30
0
41
1
10
142.097328318227
20
3.16370624865678
30
0
41
1
10
142.205160214637
20
2.46819141602046
30
0
41
1
10
142.259076162843
20
2.12094108519617
30
0
41
1
10
142.366908059253
20
1.43184521543967
30
0
41
1
10
142.420824007458
20
1.09000268219302
30
0
41
1
10
142.501697929766
20
0.584126861968059
30
0
41
1
10
142.528655903868
20
0.416644463260326
30
0
41
1
10
142.582571852074
20
0.0843737225045516
30
0
41
1
10
142.609529826176
20
-0.0796822612447556
30
0
41
1
10
142.690403748484
20
-0.578011926773655
30
0
41
1
10
142.744319696689
20
-0.91564851078013
30
0
41
1
10
142.8521515931
20
-1.59832093721417
30
0
41
1
10
142.906067541305
20
-1.94335470938088
30
0
41
1
10
143.013899437715
20
-2.63672713997639
30
0
41
1
10
143.067815385921
20
-2.98506184851814
30
0
41
1
10
143.175647282331
20
-3.68037224112834
30
0
41
1
10
143.229563230536
20
-4.02734210467199
30
0
41
1
10
143.337395126946
20
-4.71483618630285
30
0
41
1
10
143.391311075152
20
-5.05535298180476
30
0
41
1
10
143.499142971562
20
-5.7246315651085
30
0
41
1
10
143.553058919767
20
-6.05338486832153
30
0
41
1
10
143.660890816178
20
-6.6938453379334
30
0
41
1
10
143.714806764383
20
-7.00554372325138
30
0
41
1
10
143.822638660793
20
-7.60688361700852
30
0
41
1
10
143.876554608998
20
-7.89651693429468
30
0
41
1
10
143.984386505409
20
-8.44925443997394
30
0
41
1
10
144.038302453614
20
-8.71235188966071
30
0
41
1
10
144.146134350025
20
-9.20831111505197
30
0
41
1
10
144.20005029823
20
-9.44116829200638
30
0
41
1
10
144.30788219464
20
-9.87387864657063
30
0
41
1
10
144.361798142845
20
-10.0737297596154
30
0
41
1
10
144.469630039255
20
-10.4386990497581
30
0
41
1
10
144.523545987461
20
-10.6038177424272
30
0
41
1
10
144.631377883871
20
-10.8986557222565
30
0
41
1
10
144.685293832076
20
-11.0283778219846
30
0
41
1
10
144.793125728487
20
-11.2527673024384
30
0
41
1
10
144.847041676692
20
-11.34743926249
30
0
41
1
10
144.954873573102
20
-11.5029711744199
30
0
41
1
10
145.008789521307
20
-11.5638368122671
30
0
41
1
10
145.116621417718
20
-11.653740192202
30
0
41
1
10
145.170537365923
20
-11.6827840568986
30
0
41
1
10
145.251411288231
20
-11.7043882882173
30
0
41
1
10
145.278369262334
20
-11.7079332395291
30
0
41
1
10
145.332285210539
20
-11.7080648915392
30
0
41
1
10
145.359243184641
20
-11.7046549833212
30
0
41
1
10
145.440117106949
20
-11.6834657570857
30
0
41
1
10
145.494033055154
20
-11.6547116555493
30
0
41
1
10
145.601864951565
20
-11.5654095589044
30
0
41
1
10
145.65578089977
20
-11.5048554400377
30
0
41
1
10
145.76361279618
20
-11.3499621560422
30
0
41
1
10
145.817528744385
20
-11.2556172977425
30
0
41
1
10
145.925360640796
20
-11.0318898198164
30
0
41
1
10
145.979276589001
20
-10.9025026071899
30
0
41
1
10
146.087108485411
20
-10.6083330981136
30
0
41
1
10
146.141024433617
20
-10.4435479695854
30
0
41
1
10
146.248856330027
20
-10.0792345916781
30
0
41
1
10
146.302772278232
20
-9.87970580318961
30
0
41
1
10
146.410604174642
20
-9.44761881288457
30
0
41
1
10
146.464520122848
20
-9.21506265087095
30
0
41
1
10
146.572352019258
20
-8.71967468172807
30
0
41
1
10
146.626267967463
20
-8.45684745068195
30
0
41
1
10
146.734099863874
20
-7.90461142447833
30
0
41
1
10
146.788015812079
20
-7.61520935060975
30
0
41
1
10
146.895847708489
20
-7.01428671937757
30
0
41
1
10
146.949763656695
20
-6.70277434330129
30
0
41
1
10
147.057595553105
20
-6.0626367361489
30
0
41
1
10
147.11151150131
20
-5.73402028480939
30
0
41
1
10
147.21934339772
20
-5.06496482283154
30
0
41
1
10
147.273259345926
20
-4.72453430346627
30
0
41
1
10
147.381091242336
20
-4.03716318724446
30
0
41
1
10
147.435007190541
20
-3.69023002596776
30
0
41
1
10
147.542839086952
20
-2.99494656569544
30
0
41
1
10
147.596755035157
20
-2.64660210408221
30
0
41
1
10
147.704586931567
20
-1.95316847118281
30
0
41
1
10
147.758502879772
20
-1.6080832679078
30
0
41
1
10
147.866334776183
20
-0.925272185754977
30
0
41
1
10
147.920250724388
20
-0.587548394276524
30
0
41
1
10
148.001124646696
20
-0.0890659414513664
30
0
41
1
10
148.028082620798
20
0.0749915586181089
30
0
41
1
10
148.081998569004
20
0.407160302699055
30
0
41
1
10
148.108956543106
20
0.574595359330573
30
0
41
1
10
148.189830465414
20
1.08034134789338
30
0
41
1
10
148.243746413619
20
1.42211360590108
30
0
41
1
10
148.35157831003
20
2.11110771273852
30
0
41
1
10
148.405494258235
20
2.4583265737547
30
0
41
1
10
148.513326154645
20
3.15382266773747
30
0
41
1
10
148.56724210285
20
3.50209500793486
30
0
41
1
10
148.675073999261
20
4.19480294577764
30
0
41
1
10
148.728989947466
20
4.53923187861582
30
0
41
1
10
148.836821843876
20
5.21902813486886
30
0
41
1
10
148.890737792081
20
5.55438742637119
30
0
41
1
10
148.998569688492
20
6.21071208595305
30
0
41
1
10
149.052485636697
20
6.53166871633204
30
0
41
1
10
149.160317533107
20
7.15400264669626
30
0
41
1
10
149.214233481313
20
7.45537134480898
30
0
41
1
10
149.322065377723
20
8.03375441425561
30
0
41
1
10
149.375981325928
20
8.31076121354187
30
0
41
1
10
149.483813222339
20
8.83630197923347
30
0
41
1
10
149.537729170544
20
9.08483019698235
30
0
41
1
10
149.645561066954
20
9.55015452413556
30
0
41
1
10
149.699477015159
20
9.76694726189413
30
0
41
1
10
149.80730891157
20
10.1665392660843
30
0
41
1
10
149.861224859775
20
10.3493377618566
30
0
41
1
10
149.969056756185
20
10.6797405035059
30
0
41
1
10
150.022972704391
20
10.8273464558585
30
0
41
1
10
150.130804600801
20
11.0872090780927
30
0
41
1
10
150.184720549006
20
11.1994695128585
30
0
41
1
10
150.238636497211
20
11.2944586915471
30
0
0
SPLINE
5
FE
100
AcDbEntity
8
1
62
256
6
ByLayer
370
13
48
1
60
0
100
AcDbSpline
70
4
71
3
72
8
73
4
40
0
40
0
40
0
40
0
40
1
40
1
40
1
40
1
41
1
10
150.109026339341
20
11.708
30
0
41
1
10
150.152229725298
20
11.708
30
0
41
1
10
150.195433111254
20
11.69906492445
30
0
41
1
10
150.238636497211
20
11.6804782793014
30
0
0
SPLINE
5
FF
100
AcDbEntity
8
1
62
256
6
ByLayer
370
13
48
1
60
0
100
AcDbSpline
70
4
71
3
72
10
73
6
40
0
40
0
40
0
40
0
40
0.5
40
0.5
40
1
40
1
40
1
40
1
41
1
10
139.4
20
11.0326378911924
30
0
41
1
10
139.502730856936
20
11.26687186708
30
0
41
1
10
139.605461713872
20
11.436790657874
30
0
41
1
10
139.810923427744
20
11.6572800675026
30
0
41
1
10
139.91365428468
20
11.708
30
0
41
1
10
140.016385141616
20
11.708
30
0
0
SPLINE
5
100
100
AcDbEntity
8
1
62
256
6
ByLayer
370
13
48
1
60
0
100
AcDbSpline
70
4
71
3
72
134
73
130
40
0
40
0
40
0
40
0
40
0.015625
40
0.015625
40
0.03125
40
0.03125
40
0.046875
40
0.046875
40
0.0625
40
0.0625
40
0.078125
40
0.078125
40
0.09375
40
0.09375
40
0.109375
40
0.109375
40
0.125
40
0.125
40
0.140625
40
0.140625
40
0.15625
40
0.15625
40
0.171875
40
0.171875
40
0.1875
40
0.1875
40
0.203125
40
0.203125
40
0.21875
40
0.21875
40
0.234375
40
0.234375
40
0.25
40
0.25
40
0.265625
40
0.265625
40
0.28125
40
0.28125
40
0.296875
40
0.296875
40
0.3125
40
0.3125
40
0.328125
40
0.328125
40
0.34375
40
0.34375
40
0.359375
40
0.359375
40
0.375
40
0.375
40
0.390625
40
0.390625
40
0.40625
40
0.40625
40
0.421875
40
0.421875
40
0.4375
40
0.4375
40
0.453125
40
0.453125
40
0.46875
40
0.46875
40
0.484375
40
0.484375
40
0.5
40
0.5
40
0.515625
40
0.515625
40
0.53125
40
0.53125
40
0.546875
40
0.546875
40
0.5625
40
0.5625
40
0.578125
40
0.578125
40
0.59375
40
0.59375
40
0.609375
40
0.609375
40
0.625
40
0.625
40
0.640625
40
0.640625
40
0.65625
40
0.65625
40
0.671875
40
0.671875
40
0.6875
40
0.6875
40
0.703125
40
0.703125
40
0.71875
40
0.71875
40
0.734375
40
0.734375
40
0.75
40
0.75
40
0.765625
40
0.765625
40
0.78125
40
0.78125
40
0.796875
40
0.796875
40
0.8125
40
0.8125
40
0.828125
40
0.828125
40
0.84375
40
0.84375
40
0.859375
40
0.859375
40
0.875
40
0.875
40
0.890625
40
0.890625
40
0.90625
40
0.90625
40
0.921875
40
0.921875
40
0.9375
40
0.9375
40
0.953125
40
0.953125
40
0.96875
40
0.96875
40
0.984375
40
0.984375
40
1
40
1
40
1
40
1
41
1
10
139.400000541932
20
11.708
30
0
41
1
10
139.456451770866
20
11.708
30
0
41
1
10
139.512902999799
20
11.6927370617156
30
0
41
1
10
139.625805457667
20
11.6285430879926
30
0
41
1
10
139.682256686601
20
11.5796043549358
30
0
41
1
10
139.795159144468
20
11.4454741921457
30
0
41
1
10
139.851610373402
20
11.3602752878346
30
0
41
1
10
139.964512831269
20
11.1518428108675
30
0
41
1
10
140.020964060203
20
11.0286028738329
30
0
41
1
10
140.133866518071
20
10.7433201550146
30
0
41
1
10
140.190317747004
20
10.5812730506301
30
0
41
1
10
140.303220204872
20
10.218785525161
30
0
41
1
10
140.359671433805
20
10.0183436277792
30
0
41
1
10
140.472573891673
20
9.58074365675677
30
0
41
1
10
140.529025120607
20
9.34358744785709
30
0
41
1
10
140.641927578474
20
8.83549932588801
30
0
41
1
10
140.698378807408
20
8.56457266141533
30
0
41
1
10
140.811281265276
20
7.99304041268761
30
0
41
1
10
140.867732494209
20
7.69244299956978
30
0
41
1
10
140.980634952077
20
7.06661877305734
30
0
41
1
10
141.03708618101
20
6.74140215135282
30
0
41
1
10
141.149988638878
20
6.07206243792331
30
0
41
1
10
141.206439867812
20
5.72795038349153
30
0
41
1
10
141.319342325679
20
5.02689296425263
30
0
41
1
10
141.375793554613
20
4.66995825980496
30
0
41
1
10
141.48869601248
20
3.94934875639299
30
0
41
1
10
141.545147241414
20
3.5856831898916
30
0
41
1
10
141.658049699282
20
2.857422989035
30
0
41
1
10
141.714500928216
20
2.49283543638268
30
0
41
1
10
141.827403386083
20
1.76801292102743
30
0
41
1
10
141.883854615017
20
1.40778255865939
30
0
41
1
10
141.996757072884
20
0.696250560100282
30
0
41
1
10
142.053208301818
20
0.344951078825289
30
0
41
1
10
142.166110759685
20
-0.344949423064065
30
0
41
1
10
142.222561988619
20
-0.696248866606339
30
0
41
1
10
142.335464446487
20
-1.40778083679973
30
0
41
1
10
142.391915675421
20
-1.7680111883318
30
0
41
1
10
142.504818133288
20
-2.49283368993017
30
0
41
1
10
142.561269362222
20
-2.8574212396656
30
0
41
1
10
142.674171820089
20
-3.58568144361195
30
0
41
1
10
142.730623049023
20
-3.94934701612374
30
0
41
1
10
142.843525506891
20
-4.66995654114848
30
0
41
1
10
142.899976735824
20
-5.0268912612014
30
0
41
1
10
143.012879193692
20
-5.72794872146699
30
0
41
1
10
143.069330422625
20
-6.07206080132164
30
0
41
1
10
143.182232880493
20
-6.74140057512364
30
0
41
1
10
143.238684109427
20
-7.0666172317774
30
0
41
1
10
143.351586567294
20
-7.69244153689317
30
0
41
1
10
143.408037796228
20
-7.99303899366279
30
0
41
1
10
143.520940254095
20
-8.56457133708506
30
0
41
1
10
143.577391483029
20
-8.83549805259648
30
0
41
1
10
143.690293940897
20
-9.3435862823253
30
0
41
1
10
143.74674516983
20
-9.58074254794087
30
0
41
1
10
143.859647627698
20
-10.0183426361149
30
0
41
1
10
143.916098856632
20
-10.218784593927
30
0
41
1
10
144.029001314499
20
-10.5812722419237
30
0
41
1
10
144.085452543433
20
-10.7433194084006
30
0
41
1
10
144.1983550013
20
-11.0286022510896
30
0
41
1
10
144.254806230234
20
-11.1518422498984
30
0
41
1
10
144.367708688102
20
-11.3602748483275
30
0
41
1
10
144.424159917035
20
-11.4454738123238
30
0
41
1
10
144.537062374903
20
-11.5796040909327
30
0
41
1
10
144.593513603836
20
-11.6285428801221
30
0
41
1
10
144.706416061704
20
-11.6927369614548
30
0
41
1
10
144.762867290638
20
-11.7079999512166
30
0
41
1
10
144.875769748505
20
-11.7080000487832
30
0
41
1
10
144.932220977439
20
-11.6927371619762
30
0
41
1
10
145.045123435307
20
-11.6285432958629
30
0
41
1
10
145.10157466424
20
-11.5796046189387
30
0
41
1
10
145.214477122108
20
-11.4454745719674
30
0
41
1
10
145.270928351042
20
-11.3602757273415
30
0
41
1
10
145.383830808909
20
-11.1518433718363
30
0
41
1
10
145.440282037843
20
-11.028603496576
30
0
41
1
10
145.55318449571
20
-10.7433209016283
30
0
41
1
10
145.609635724644
20
-10.5812738593362
30
0
41
1
10
145.722538182512
20
-10.2187864563948
30
0
41
1
10
145.778989411445
20
-10.0183446194432
30
0
41
1
10
145.891891869313
20
-9.5807447655724
30
0
41
1
10
145.948343098247
20
-9.34358861338856
30
0
41
1
10
146.061245556114
20
-8.83550059917928
30
0
41
1
10
146.117696785048
20
-8.56457398574534
30
0
41
1
10
146.230599242915
20
-7.99304183171219
30
0
41
1
10
146.287050471849
20
-7.69244446224616
30
0
41
1
10
146.399952929717
20
-7.06662031433711
30
0
41
1
10
146.45640415865
20
-6.74140372758183
30
0
41
1
10
146.569306616518
20
-6.07206407452483
30
0
41
1
10
146.625757845451
20
-5.72795204551599
30
0
41
1
10
146.738660303319
20
-5.02689466730376
30
0
41
1
10
146.795111532253
20
-4.66995997846141
30
0
41
1
10
146.90801399012
20
-3.94935049666219
30
0
41
1
10
146.964465219054
20
-3.58568493617125
30
0
41
1
10
147.077367676922
20
-2.85742473840438
30
0
41
1
10
147.133818905855
20
-2.49283718283519
30
0
41
1
10
147.246721363723
20
-1.76801465372307
30
0
41
1
10
147.303172592656
20
-1.40778428051911
30
0
41
1
10
147.416075050524
20
-0.696252253594309
30
0
41
1
10
147.472526279458
20
-0.344952754793297
30
0
41
1
10
147.585428737325
20
0.344947787509483
30
0
41
1
10
147.641879966259
20
0.696247173112482
30
0
41
1
10
147.754782424126
20
1.40777911494013
30
0
41
1
10
147.81123365306
20
1.76800945563625
30
0
41
1
10
147.924136110928
20
2.49283194347771
30
0
41
1
10
147.980587339861
20
2.85741949029622
30
0
41
1
10
148.093489797729
20
3.58567969733227
30
0
41
1
10
148.149941026663
20
3.94934527585445
30
0
41
1
10
148.26284348453
20
4.66995482249189
30
0
41
1
10
148.319294713464
20
5.02688955815009
30
0
41
1
10
148.432197171331
20
5.7279470594423
30
0
41
1
10
148.488648400265
20
6.07205916471986
30
0
41
1
10
148.601550858133
20
6.74139899889428
30
0
41
1
10
148.658002087066
20
7.06661569049729
30
0
41
1
10
148.770904544934
20
7.69244007421639
30
0
41
1
10
148.827355773868
20
7.99303757463775
30
0
41
1
10
148.940258231735
20
8.56457001275459
30
0
41
1
10
148.996709460669
20
8.83549677930469
30
0
41
1
10
149.109611918536
20
9.34358511679329
30
0
41
1
10
149.16606314747
20
9.58074143912472
30
0
41
1
10
149.278965605338
20
10.0183416444503
30
0
41
1
10
149.335416834271
20
10.2187836626926
30
0
41
1
10
149.448319292139
20
10.581271433217
30
0
41
1
10
149.504770521073
20
10.7433186617862
30
0
41
1
10
149.61767297894
20
11.0286016283459
30
0
41
1
10
149.674124207874
20
11.151841688929
30
0
41
1
10
149.787026665741
20
11.3602744088201
30
0
41
1
10
149.843477894675
20
11.4454734325016
30
0
41
1
10
149.956380352543
20
11.5796038269293
30
0
41
1
10
150.012831581476
20
11.6285426722513
30
0
41
1
10
150.125734039344
20
11.6927368611938
30
0
41
1
10
150.182185268277
20
11.7079999024328
30
0
41
1
10
150.238636497211
20
11.7079999999995
30
0
0
SPLINE
5
101
100
AcDbEntity
8
1
62
256
6
ByLayer
370
13
48
1
60
0
100
AcDbSpline
70
4
71
3
72
10
73
6
40
0
40
0
40
0
40
0
40
0.5
40
0.5
40
1
40
1
40
1
40
1
41
1
10
149.622252439458
20
11.708
30
0
41
1
10
149.724983115751
20
11.708
30
0
41
1
10
149.827713792043
20
11.6572802468313
30
0
41
1
10
150.033175144627
20
11.4367916416828
30
0
41
1
10
150.135905820919
20
11.2668734773112
30
0
41
1
10
150.238636497211
20
11.0326403624795
30
0
0
SPLINE
5
102
100
AcDbEntity
8
1
62
256
6
ByLayer
370
13
48
1
60
0
100
AcDbSpline
70
4
71
3
72
8
73
4
40
0
40
0
40
0
40
0
40
1
40
1
40
1
40
1
41
1
10
139.4
20
11.6804778130075
30
0
41
1
10
139.443203747245
20
11.6990647749031
30
0
41
1
10
139.486407494489
20
11.708
30
0
41
1
10
139.529611241734
20
11.708
30
0
0
SPLINE
5
103
100
AcDbEntity
8
1
62
256
6
ByLayer
370
13
48
1
60
0
100
AcDbSpline
70
4
71
3
72
8
73
4
40
0
40
0
40
0
40
0
40
1
40
1
40
1
40
1
41
1
10
150.238636497212
20
7.98324393694509
30
0
41
1
10
151.659090998141
20
5.30999760479861
30
0
41
1
10
153.07954549907
20
2.64889216775936
30
0
41
1
10
154.499999999999
20
1.2221E-12
30
0
0
SPLINE
5
104
100
AcDbEntity
8
1
62
256
6
ByLayer
370
13
48
1
60
0
100
AcDbSpline
70
4
71
3
72
8
73
4
40
0
40
0
40
0
40
0
40
1
40
1
40
1
40
1
41
1
10
150.238636497211
20
-9.86642024463569
30
0
41
1
10
151.659090998141
20
-6.58656698245309
30
0
41
1
10
153.079545499071
20
-3.2977303461073
30
0
41
1
10
154.5
20
5.969E-13
30
0
0
SPLINE
5
105
100
AcDbEntity
8
1
62
256
6
ByLayer
370
13
48
1
60
0
100
AcDbSpline
70
4
71
3
72
8
73
4
40
0
40
0
40
0
40
0
40
1
40
1
40
1
40
1
41
1
10
150.238636497211
20
7.03170673373646
30
0
41
1
10
151.659090998141
20
4.70110167051439
30
0
41
1
10
153.07954549907
20
2.35717810400641
30
0
41
1
10
154.5
20
-5.68E-14
30
0
0
SPLINE
5
106
100
AcDbEntity
8
1
62
256
6
ByLayer
370
13
48
1
60
0
100
AcDbSpline
70
4
71
3
72
8
73
4
40
0
40
0
40
0
40
0
40
1
40
1
40
1
40
1
41
1
10
150.238636497211
20
11.6473794822712
30
0
41
1
10
151.659090998141
20
7.76660982571556
30
0
41
1
10
153.07954549907
20
3.88411474201087
30
0
41
1
10
154.5
20
-2.84E-14
30
0
0
SPLINE
5
107
100
AcDbEntity
8
1
62
256
6
ByLayer
370
13
48
1
60
0
100
AcDbSpline
70
4
71
3
72
8
73
4
40
0
40
0
40
0
40
0
40
1
40
1
40
1
40
1
41
1
10
150.238636497211
20
-9.88511519818303
30
0
41
1
10
151.659090998141
20
-6.58116501605255
30
0
41
1
10
153.07954549907
20
-3.28609672601348
30
0
41
1
10
154.5
20
5.68E-14
30
0
0
SPLINE
5
108
100
AcDbEntity
8
1
62
256
6
ByLayer
370
13
48
1
60
0
100
AcDbSpline
70
4
71
3
72
8
73
4
40
0
40
0
40
0
40
0
40
1
40
1
40
1
40
1
41
1
10
150.238636497211
20
10.1941035408888
30
0
41
1
10
151.659090998141
20
6.80424836850841
30
0
41
1
10
153.07954549907
20
3.40618297734415
30
0
41
1
10
154.5
20
0
30
0
0
SPLINE
5
109
100
AcDbEntity
8
1
62
256
6
ByLayer
370
13
48
1
60
0
100
AcDbSpline
70
4
71
3
72
8
73
4
40
0
40
0
40
0
40
0
40
1
40
1
40
1
40
1
41
1
10
150.238636497212
20
7.05950503711867
30
0
41
1
10
151.659090998141
20
4.69306926216973
30
0
41
1
10
153.079545499071
20
2.33987959080048
30
0
41
1
10
154.5
20
-4.263E-13
30
0
0
SPLINE
5
10A
100
AcDbEntity
8
1
62
256
6
ByLayer
370
13
48
1
60
0
100
AcDbSpline
70
4
71
3
72
8
73
4
40
0
40
0
40
0
40
0
40
1
40
1
40
1
40
1
41
1
10
150.238636497212
20
11.6508653348584
30
0
41
1
10
151.659090998141
20
7.76560257750219
30
0
41
1
10
153.07954549907
20
3.88194554246709
30
0
41
1
10
154.5
20
5.4E-13
30
0
0
SPLINE
5
10B
100
AcDbEntity
8
1
62
256
6
ByLayer
370
13
48
1
60
0
100
AcDbSpline
70
4
71
3
72
8
73
4
40
0
40
0
40
0
40
0
40
1
40
1
40
1
40
1
41
1
10
150.238636497211
20
-4.41550294687133
30
0
41
1
10
151.659090998141
20
-2.92826599145636
30
0
41
1
10
153.07954549907
20
-1.45641835878868
30
0
41
1
10
154.5
20
-8.53E-14
30
0
0
SPLINE
5
10C
100
AcDbEntity
8
1
62
256
6
ByLayer
370
13
48
1
60
0
100
AcDbSpline
70
4
71
3
72
8
73
4
40
0
40
0
40
0
40
0
40
1
40
1
40
1
40
1
41
1
10
150.238636497212
20
10.746430179846
30
0
41
1
10
151.659090998141
20
7.1576864093166
30
0
41
1
10
153.07954549907
20
3.57551051159763
30
0
41
1
10
154.499999999999
20
1.6485E-12
30
0
0
SPLINE
5
10D
100
AcDbEntity
8
1
62
256
6
ByLayer
370
13
48
1
60
0
100
AcDbSpline
70
4
71
3
72
8
73
4
40
0
40
0
40
0
40
0
40
1
40
1
40
1
40
1
41
1
10
150.238636497211
20
11.4630855462085
30
0
41
1
10
151.659090998141
20
7.64544085448793
30
0
41
1
10
153.07954549907
20
3.82437763544971
30
0
41
1
10
154.5
20
0
30
0
0
SPLINE
5
10E
100
AcDbEntity
8
1
62
256
6
ByLayer
370
13
48
1
60
0
100
AcDbSpline
70
4
71
3
72
8
73
4
40
0
40
0
40
0
40
0
40
1
40
1
40
1
40
1
41
1
10
150.238636497211
20
-11.5709548120964
30
0
41
1
10
151.659090998141
20
-7.71143275500916
30
0
41
1
10
153.07954549907
20
-3.85441280545842
30
0
41
1
10
154.5
20
8.53E-14
30
0
0
SPLINE
5
10F
100
AcDbEntity
8
1
62
256
6
ByLayer
370
13
48
1
60
0
100
AcDbSpline
70
4
71
3
72
8
73
4
40
0
40
0
40
0
40
0
40
1
40
1
40
1
40
1
41
1
10
150.238636497211
20
8.79928771445077
30
0
41
1
10
151.659090998141
20
5.87716244605113
30
0
41
1
10
153.07954549907
20
2.94403987670623
30
0
41
1
10
154.5
20
5.68E-14
30
0
0
SPLINE
5
110
100
AcDbEntity
8
1
62
256
6
ByLayer
370
13
48
1
60
0
100
AcDbSpline
70
4
71
3
72
8
73
4
40
0
40
0
40
0
40
0
40
1
40
1
40
1
40
1
41
1
10
150.238636497212
20
1.53797101052572
30
0
41
1
10
151.659090998141
20
1.00882743656504
30
0
41
1
10
153.07954549907
20
0.49616582823532
30
0
41
1
10
154.5
20
5.68E-14
30
0
0
SPLINE
5
111
100
AcDbEntity
8
1
62
256
6
ByLayer
370
13
48
1
60
0
100
AcDbSpline
70
4
71
3
72
8
73
4
40
0
40
0
40
0
40
0
40
1
40
1
40
1
40
1
41
1
10
150.238636497211
20
-9.18697438533451
30
0
41
1
10
151.659090998141
20
-6.11434010743386
30
0
41
1
10
153.07954549907
20
-3.05198753885327
30
0
41
1
10
154.5
20
5.68E-14
30
0
0
SPLINE
5
112
100
AcDbEntity
8
1
62
256
6
ByLayer
370
13
48
1
60
0
100
AcDbSpline
70
4
71
3
72
8
73
4
40
0
40
0
40
0
40
0
40
1
40
1
40
1
40
1
41
1
10
150.238636497211
20
10.7325689094865
30
0
41
1
10
151.659090998141
20
7.16169166755711
30
0
41
1
10
153.07954549907
20
3.58413619515255
30
0
41
1
10
154.5
20
0
30
0
0
SPLINE
5
113
100
AcDbEntity
8
1
62
256
6
ByLayer
370
13
48
1
60
0
100
AcDbSpline
70
4
71
3
72
8
73
4
40
0
40
0
40
0
40
0
40
1
40
1
40
1
40
1
41
1
10
150.238636497211
20
-11.5655937997447
30
0
41
1
10
151.659090998141
20
-7.71298183661173
30
0
41
1
10
153.07954549907
20
-3.85774889189852
30
0
41
1
10
154.5
20
-5.4E-13
30
0
0
SPLINE
5
114
100
AcDbEntity
8
1
62
256
6
ByLayer
370
13
48
1
60
0
100
AcDbSpline
70
4
71
3
72
8
73
4
40
0
40
0
40
0
40
0
40
1
40
1
40
1
40
1
41
1
10
150.238636497211
20
-6.54195902102421
30
0
41
1
10
151.659090998141
20
-4.34751369805977
30
0
41
1
10
153.079545499071
20
-2.16684093334678
30
0
41
1
10
154.5
20
3.979E-13
30
0
0
SPLINE
5
115
100
AcDbEntity
8
1
62
256
6
ByLayer
370
13
48
1
60
0
100
AcDbSpline
70
4
71
3
72
8
73
4
40
0
40
0
40
0
40
0
40
1
40
1
40
1
40
1
41
1
10
150.238636497212
20
-4.38324759228078
30
0
41
1
10
151.659090998141
20
-2.93758627894979
30
0
41
1
10
153.07954549907
20
-1.47649043547807
30
0
41
1
10
154.5
20
-1.99E-13
30
0
0
SPLINE
5
116
100
AcDbEntity
8
1
62
256
6
ByLayer
370
13
48
1
60
0
100
AcDbSpline
70
4
71
3
72
8
73
4
40
0
40
0
40
0
40
0
40
1
40
1
40
1
40
1
41
1
10
150.238636497211
20
-10.4782862989075
30
0
41
1
10
151.659090998141
20
-6.9781047505152
30
0
41
1
10
153.079545499071
20
-3.48531096046656
30
0
41
1
10
154.5
20
6.253E-13
30
0
0
SPLINE
5
117
100
AcDbEntity
8
1
62
256
6
ByLayer
370
13
48
1
60
0
100
AcDbSpline
70
4
71
3
72
8
73
4
40
0
40
0
40
0
40
0
40
1
40
1
40
1
40
1
41
1
10
150.238636497212
20
4.99773848435046
30
0
41
1
10
151.659090998141
20
3.31678627773107
30
0
41
1
10
153.07954549907
20
1.65085836931652
30
0
41
1
10
154.5
20
2.274E-13
30
0
0
SPLINE
5
118
100
AcDbEntity
8
1
62
256
6
ByLayer
370
13
48
1
60
0
100
AcDbSpline
70
4
71
3
72
8
73
4
40
0
40
0
40
0
40
0
40
1
40
1
40
1
40
1
41
1
10
150.238636497212
20
-2.06774272325825
30
0
41
1
10
151.659090998141
20
-1.39486441276776
30
0
41
1
10
153.07954549907
20
-0.705610530716939
30
0
41
1
10
154.5
20
-8.53E-14
30
0
0
SPLINE
5
119
100
AcDbEntity
8
1
62
256
6
ByLayer
370
13
48
1
60
0
100
AcDbSpline
70
4
71
3
72
8
73
4
40
0
40
0
40
0
40
0
40
1
40
1
40
1
40
1
41
1
10
150.238636497211
20
-11.6915392209279
30
0
41
1
10
151.659090998141
20
-7.79524104934052
30
0
41
1
10
153.07954549907
20
-3.89802592154663
30
0
41
1
10
154.5
20
8.53E-14
30
0
0
SPLINE
5
11A
100
AcDbEntity
8
1
62
256
6
ByLayer
370
13
48
1
60
0
100
AcDbSpline
70
4
71
3
72
8
73
4
40
0
40
0
40
0
40
0
40
1
40
1
40
1
40
1
41
1
10
150.238636497211
20
2.69038951907604
30
0
41
1
10
151.659090998141
20
1.80977865814862
30
0
41
1
10
153.07954549907
20
0.912973960253822
30
0
41
1
10
154.5
20
-2.84E-14
30
0
0
SPLINE
5
11B
100
AcDbEntity
8
1
62
256
6
ByLayer
370
13
48
1
60
0
100
AcDbSpline
70
4
71
3
72
8
73
4
40
0
40
0
40
0
40
0
40
1
40
1
40
1
40
1
41
1
10
150.238636497212
20
-6.51306448086777
30
0
41
1
10
151.659090998141
20
-4.355862867513
30
0
41
1
10
153.07954549907
20
-2.18482162006674
30
0
41
1
10
154.5
20
-3.126E-13
30
0
0
SPLINE
5
11C
100
AcDbEntity
8
1
62
256
6
ByLayer
370
13
48
1
60
0
100
AcDbSpline
70
4
71
3
72
8
73
4
40
0
40
0
40
0
40
0
40
1
40
1
40
1
40
1
41
1
10
150.238636497211
20
-7.50647370612341
30
0
41
1
10
151.659090998141
20
-4.99155302896793
30
0
41
1
10
153.07954549907
20
-2.4893724469716
30
0
41
1
10
154.5
20
5.68E-14
30
0
0
SPLINE
5
11D
100
AcDbEntity
8
1
62
256
6
ByLayer
370
13
48
1
60
0
100
AcDbSpline
70
4
71
3
72
8
73
4
40
0
40
0
40
0
40
0
40
1
40
1
40
1
40
1
41
1
10
150.238636497211
20
9.5473873231511
30
0
41
1
10
151.659090998141
20
6.37455098054483
30
0
41
1
10
153.07954549907
20
3.19205961488839
30
0
41
1
10
154.5
20
-5.68E-14
30
0
0
SPLINE
5
11E
100
AcDbEntity
8
1
62
256
6
ByLayer
370
13
48
1
60
0
100
AcDbSpline
70
4
71
3
72
8
73
4
40
0
40
0
40
0
40
0
40
1
40
1
40
1
40
1
41
1
10
150.238636497211
20
-11.316833719616
30
0
41
1
10
151.659090998141
20
-7.54881872425435
30
0
41
1
10
153.07954549907
20
-3.77650655405572
30
0
41
1
10
154.5
20
-5.4E-13
30
0
0
SPLINE
5
11F
100
AcDbEntity
8
1
62
256
6
ByLayer
370
13
48
1
60
0
100
AcDbSpline
70
4
71
3
72
8
73
4
40
0
40
0
40
0
40
0
40
1
40
1
40
1
40
1
41
1
10
150.238636497211
20
-9.16535730137656
30
0
41
1
10
151.659090998141
20
-6.12058643272852
30
0
41
1
10
153.07954549907
20
-3.06543956170424
30
0
41
1
10
154.5
20
-4.263E-13
30
0
0
SPLINE
5
120
100
AcDbEntity
8
1
62
256
6
ByLayer
370
13
48
1
60
0
100
AcDbSpline
70
4
71
3
72
8
73
4
40
0
40
0
40
0
40
0
40
1
40
1
40
1
40
1
41
1
10
150.238636497212
20
6.06080148623579
30
0
41
1
10
151.659090998141
20
4.02630537189739
30
0
41
1
10
153.07954549907
20
2.00601990967425
30
0
41
1
10
154.5
20
2.842E-13
30
0
0
SPLINE
5
121
100
AcDbEntity
8
1
62
256
6
ByLayer
370
13
48
1
60
0
100
AcDbSpline
70
4
71
3
72
8
73
4
40
0
40
0
40
0
40
0
40
1
40
1
40
1
40
1
41
1
10
150.238636497211
20
-7.47972960705897
30
0
41
1
10
151.659090998141
20
-4.99928082161515
30
0
41
1
10
153.07954549907
20
-2.50601494289913
30
0
41
1
10
154.5
20
5.68E-14
30
0
0
SPLINE
5
122
100
AcDbEntity
8
1
62
256
6
ByLayer
370
13
48
1
60
0
100
AcDbSpline
70
4
71
3
72
8
73
4
40
0
40
0
40
0
40
0
40
1
40
1
40
1
40
1
41
1
10
150.238636497212
20
-5.47723733785722
30
0
41
1
10
151.659090998141
20
-3.66619014934526
30
0
41
1
10
153.07954549907
20
-1.84042774854026
30
0
41
1
10
154.5
20
-2.558E-13
30
0
0
SPLINE
5
123
100
AcDbEntity
8
1
62
256
6
ByLayer
370
13
48
1
60
0
100
AcDbSpline
70
4
71
3
72
8
73
4
40
0
40
0
40
0
40
0
40
1
40
1
40
1
40
1
41
1
10
150.238636497211
20
-10.9479005556246
30
0
41
1
10
151.659090998141
20
-7.30449495494184
30
0
41
1
10
153.07954549907
20
-3.65516161772317
30
0
41
1
10
154.5
20
5.68E-14
30
0
0
SPLINE
5
124
100
AcDbEntity
8
1
62
256
6
ByLayer
370
13
48
1
60
0
100
AcDbSpline
70
4
71
3
72
8
73
4
40
0
40
0
40
0
40
0
40
1
40
1
40
1
40
1
41
1
10
150.238636497211
20
11.1570654829622
30
0
41
1
10
151.659090998141
20
7.44308519909251
30
0
41
1
10
153.07954549907
20
3.72402958896541
30
0
41
1
10
154.5
20
0
30
0
0
SPLINE
5
125
100
AcDbEntity
8
1
62
256
6
ByLayer
370
13
48
1
60
0
100
AcDbSpline
70
4
71
3
72
8
73
4
40
0
40
0
40
0
40
0
40
1
40
1
40
1
40
1
41
1
10
150.238636497211
20
-0.905521597351651
30
0
41
1
10
151.659090998141
20
-0.587100198952584
30
0
41
1
10
153.07954549907
20
-0.285256976094587
30
0
41
1
10
154.5
20
0
30
0
0
SPLINE
5
126
100
AcDbEntity
8
1
62
256
6
ByLayer
370
13
48
1
60
0
100
AcDbSpline
70
4
71
3
72
8
73
4
40
0
40
0
40
0
40
0
40
1
40
1
40
1
40
1
41
1
10
150.238636497211
20
-8.36696773135074
30
0
41
1
10
151.659090998141
20
-5.58961157762681
30
0
41
1
10
153.07954549907
20
-2.80059697574052
30
0
41
1
10
154.5
20
5.68E-14
30
0
0
SPLINE
5
127
100
AcDbEntity
8
1
62
256
6
ByLayer
370
13
48
1
60
0
100
AcDbSpline
70
4
71
3
72
8
73
4
40
0
40
0
40
0
40
0
40
1
40
1
40
1
40
1
41
1
10
150.238636497211
20
7.95774875984861
30
0
41
1
10
151.659090998141
20
5.31736451746332
30
0
41
1
10
153.07954549907
20
2.66475747621351
30
0
41
1
10
154.5
20
-1.705E-13
30
0
0
SPLINE
5
128
100
AcDbEntity
8
1
62
256
6
ByLayer
370
13
48
1
60
0
100
AcDbSpline
70
4
71
3
72
8
73
4
40
0
40
0
40
0
40
0
40
1
40
1
40
1
40
1
41
1
10
150.238636497211
20
-2.10199245529159
30
0
41
1
10
151.659090998141
20
-1.38496784355689
30
0
41
1
10
153.07954549907
20
-0.684297379561286
30
0
41
1
10
154.5
20
-2.84E-14
30
0
0
SPLINE
5
129
100
AcDbEntity
8
1
62
256
6
ByLayer
370
13
48
1
60
0
100
AcDbSpline
70
4
71
3
72
8
73
4
40
0
40
0
40
0
40
0
40
1
40
1
40
1
40
1
41
1
10
150.238636497211
20
-10.4627119968657
30
0
41
1
10
151.659090998141
20
-6.98260499471934
30
0
41
1
10
153.07954549907
20
-3.49500264077673
30
0
41
1
10
154.5
20
5.68E-14
30
0
0
SPLINE
5
12A
100
AcDbEntity
8
1
62
256
6
ByLayer
370
13
48
1
60
0
100
AcDbSpline
70
4
71
3
72
8
73
4
40
0
40
0
40
0
40
0
40
1
40
1
40
1
40
1
41
1
10
150.238636497211
20
1.50345983701501
30
0
41
1
10
151.659090998141
20
1.01879955012407
30
0
41
1
10
153.07954549907
20
0.517641670933301
30
0
41
1
10
154.5
20
2.84E-14
30
0
0
SPLINE
5
12B
100
AcDbEntity
8
1
62
256
6
ByLayer
370
13
48
1
60
0
100
AcDbSpline
70
4
71
3
72
8
73
4
40
0
40
0
40
0
40
0
40
1
40
1
40
1
40
1
41
1
10
150.238636497212
20
8.82220903281714
30
0
41
1
10
151.659090998141
20
5.87053925806794
30
0
41
1
10
153.07954549907
20
2.92977624618899
30
0
41
1
10
154.5
20
4.263E-13
30
0
0
SPLINE
5
12C
100
AcDbEntity
8
1
62
256
6
ByLayer
370
13
48
1
60
0
100
AcDbSpline
70
4
71
3
72
8
73
4
40
0
40
0
40
0
40
0
40
1
40
1
40
1
40
1
41
1
10
150.238636497211
20
4.96624081841293
30
0
41
1
10
151.659090998141
20
3.32588762867414
30
0
41
1
10
153.07954549907
20
1.67045894646941
30
0
41
1
10
154.5
20
1.137E-13
30
0
0
SPLINE
5
12D
100
AcDbEntity
8
1
62
256
6
ByLayer
370
13
48
1
60
0
100
AcDbSpline
70
4
71
3
72
8
73
4
40
0
40
0
40
0
40
0
40
1
40
1
40
1
40
1
41
1
10
150.238636497211
20
0.300564964552308
30
0
41
1
10
151.659090998141
20
0.21700184329265
30
0
41
1
10
153.07954549907
20
0.116812561789033
30
0
41
1
10
154.5
20
0
30
0
0
SPLINE
5
12E
100
AcDbEntity
8
1
62
256
6
ByLayer
370
13
48
1
60
0
100
AcDbSpline
70
4
71
3
72
8
73
4
40
0
40
0
40
0
40
0
40
1
40
1
40
1
40
1
41
1
10
150.238636497211
20
-5.50797548893678
30
0
41
1
10
151.659090998141
20
-3.65730826264104
30
0
41
1
10
153.07954549907
20
-1.82129980734746
30
0
41
1
10
154.5
20
2.84E-14
30
0
0
SPLINE
5
12F
100
AcDbEntity
8
1
62
256
6
ByLayer
370
13
48
1
60
0
100
AcDbSpline
70
4
71
3
72
8
73
4
40
0
40
0
40
0
40
0
40
1
40
1
40
1
40
1
41
1
10
150.238636497212
20
11.4701168215551
30
0
41
1
10
151.659090998141
20
7.64340914507079
30
0
41
1
10
153.07954549907
20
3.82000216663988
30
0
41
1
10
154.499999999999
20
1.7621E-12
30
0
0
SPLINE
5
130
100
AcDbEntity
8
1
62
256
6
ByLayer
370
13
48
1
60
0
100
AcDbSpline
70
4
71
3
72
8
73
4
40
0
40
0
40
0
40
0
40
1
40
1
40
1
40
1
41
1
10
150.238636497212
20
11.1675675161874
30
0
41
1
10
151.659090998141
20
7.44005060312568
30
0
41
1
10
153.079545499071
20
3.71749431384603
30
0
41
1
10
154.5
20
-6.537E-13
30
0
0
SPLINE
5
131
100
AcDbEntity
8
1
62
256
6
ByLayer
370
13
48
1
60
0
100
AcDbSpline
70
4
71
3
72
8
73
4
40
0
40
0
40
0
40
0
40
1
40
1
40
1
40
1
41
1
10
150.238636497212
20
3.88160466240328
30
0
41
1
10
151.659090998141
20
2.57204633952091
30
0
41
1
10
153.07954549907
20
1.27816641840613
30
0
41
1
10
154.5
20
1.705E-13
30
0
0
SPLINE
5
132
100
AcDbEntity
8
1
62
256
6
ByLayer
370
13
48
1
60
0
100
AcDbSpline
70
4
71
3
72
8
73
4
40
0
40
0
40
0
40
0
40
1
40
1
40
1
40
1
41
1
10
150.238636497212
20
-3.24271228514988
30
0
41
1
10
151.659090998141
20
-2.17778827678563
30
0
41
1
10
153.07954549907
20
-1.09687431919926
30
0
41
1
10
154.5
20
-1.421E-13
30
0
0
SPLINE
5
133
100
AcDbEntity
8
1
62
256
6
ByLayer
370
13
48
1
60
0
100
AcDbSpline
70
4
71
3
72
8
73
4
40
0
40
0
40
0
40
0
40
1
40
1
40
1
40
1
41
1
10
150.238636497211
20
-3.27614232470532
30
0
41
1
10
151.659090998141
20
-2.16812856032826
30
0
41
1
10
153.07954549907
20
-1.07607125173314
30
0
41
1
10
154.5
20
1.137E-13
30
0
0
SPLINE
5
134
100
AcDbEntity
8
1
62
256
6
ByLayer
370
13
48
1
60
0
100
AcDbSpline
70
4
71
3
72
8
73
4
40
0
40
0
40
0
40
0
40
1
40
1
40
1
40
1
41
1
10
150.238636497211
20
-11.6933325728936
30
0
41
1
10
151.659090998141
20
-7.79472285457516
30
0
41
1
10
153.079545499071
20
-3.89690994255162
30
0
41
1
10
154.5
20
7.105E-13
30
0
0
SPLINE
5
135
100
AcDbEntity
8
1
62
256
6
ByLayer
370
13
48
1
60
0
100
AcDbSpline
70
4
71
3
72
8
73
4
40
0
40
0
40
0
40
0
40
1
40
1
40
1
40
1
41
1
10
150.238636497211
20
3.84875004360506
30
0
41
1
10
151.659090998141
20
2.58153978631708
30
0
41
1
10
153.07954549907
20
1.29861140921454
30
0
41
1
10
154.5
20
-2.84E-14
30
0
0
SPLINE
5
136
100
AcDbEntity
8
1
62
256
6
ByLayer
370
13
48
1
60
0
100
AcDbSpline
70
4
71
3
72
8
73
4
40
0
40
0
40
0
40
0
40
1
40
1
40
1
40
1
41
1
10
150.238636497212
20
2.724252208622
30
0
41
1
10
151.659090998141
20
1.79999392609764
30
0
41
1
10
153.07954549907
20
0.891901660472598
30
0
41
1
10
154.5
20
1.137E-13
30
0
0
SPLINE
5
137
100
AcDbEntity
8
1
62
256
6
ByLayer
370
13
48
1
60
0
100
AcDbSpline
70
4
71
3
72
8
73
4
40
0
40
0
40
0
40
0
40
1
40
1
40
1
40
1
41
1
10
150.238636497212
20
10.2111768560099
30
0
41
1
10
151.659090998141
20
6.79931497969775
30
0
41
1
10
153.079545499071
20
3.39555848119971
30
0
41
1
10
154.5
20
-5.969E-13
30
0
0
SPLINE
5
138
100
AcDbEntity
8
1
62
256
6
ByLayer
370
13
48
1
60
0
100
AcDbSpline
70
4
71
3
72
8
73
4
40
0
40
0
40
0
40
0
40
1
40
1
40
1
40
1
41
1
10
150.238636497212
20
9.56749138206396
30
0
41
1
10
151.659090998141
20
6.3687418486582
30
0
41
1
10
153.07954549907
20
3.17954912733069
30
0
41
1
10
154.5
20
4.547E-13
30
0
0
SPLINE
5
139
100
AcDbEntity
8
1
62
256
6
ByLayer
370
13
48
1
60
0
100
AcDbSpline
70
4
71
3
72
8
73
4
40
0
40
0
40
0
40
0
40
1
40
1
40
1
40
1
41
1
10
150.238636497211
20
-11.3257054639404
30
0
41
1
10
151.659090998141
20
-7.54625520546116
30
0
41
1
10
153.07954549907
20
-3.77098578596278
30
0
41
1
10
154.5
20
-5.4E-13
30
0
0
SPLINE
5
13A
100
AcDbEntity
8
1
62
256
6
ByLayer
370
13
48
1
60
0
100
AcDbSpline
70
4
71
3
72
8
73
4
40
0
40
0
40
0
40
0
40
1
40
1
40
1
40
1
41
1
10
150.238636497211
20
-10.9601888231615
30
0
41
1
10
151.659090998141
20
-7.30094422087916
30
0
41
1
10
153.079545499071
20
-3.64751479283081
30
0
41
1
10
154.5
20
6.537E-13
30
0
0
SPLINE
5
13B
100
AcDbEntity
8
1
62
256
6
ByLayer
370
13
48
1
60
0
100
AcDbSpline
70
4
71
3
72
8
73
4
40
0
40
0
40
0
40
0
40
1
40
1
40
1
40
1
41
1
10
150.238636497212
20
0.335358149014979
30
0
41
1
10
151.659090998141
20
0.206948241770448
30
0
41
1
10
153.07954549907
20
0.0951612274393199
30
0
41
1
10
154.5
20
0
30
0
0
SPLINE
5
13C
100
AcDbEntity
8
1
62
256
6
ByLayer
370
13
48
1
60
0
100
AcDbSpline
70
4
71
3
72
8
73
4
40
0
40
0
40
0
40
0
40
1
40
1
40
1
40
1
41
1
10
150.238636497212
20
-0.870815869614802
30
0
41
1
10
151.659090998141
20
-0.597128529575144
30
0
41
1
10
153.07954549907
20
-0.30685388729097
30
0
41
1
10
154.5
20
-5.68E-14
30
0
0
SPLINE
5
13D
100
AcDbEntity
8
1
62
256
6
ByLayer
370
13
48
1
60
0
100
AcDbSpline
70
4
71
3
72
8
73
4
40
0
40
0
40
0
40
0
40
1
40
1
40
1
40
1
41
1
10
150.238636497211
20
6.03099524583425
30
0
41
1
10
151.659090998141
20
4.03491798004197
30
0
41
1
10
153.07954549907
20
2.02456793528936
30
0
41
1
10
154.5
20
-2.84E-14
30
0
0
SPLINE
5
13E
100
AcDbEntity
8
1
62
256
6
ByLayer
370
13
48
1
60
0
100
AcDbSpline
70
4
71
3
72
8
73
4
40
0
40
0
40
0
40
0
40
1
40
1
40
1
40
1
41
1
10
150.238636497211
20
-8.39127739461799
30
0
41
1
10
151.659090998141
20
-5.58258722296077
30
0
41
1
10
153.07954549907
20
-2.78546939672017
30
0
41
1
10
154.5
20
5.68E-14
30
0
0
LINE
5
7D
100
AcDbEntity
8
80
62
256
6
ByLayer
370
18
48
1
60
0
100
AcDbLine
10
0
20
0
30
0
11
-5
21
0
31
0
39
0
210
0
220
0
230
1
0
LINE
5
7E
100
AcDbEntity
8
81
62
256
6
ByLayer
370
18
48
1
60
0
100
AcDbLine
10
154.5
20
0
30
0
11
159.5
21
0
31
0
39
0
210
0
220
0
230
1
0
LINE
5
7F
100
AcDbEntity
8
4
62
256
6
ByLayer
370
18
48
0.05
60
0
100
AcDbLine
10
-5
20
0
30
0
11
159.5
21
0
31
0
39
0
210
0
220
0
230
1
0
LINE
5
81
100
AcDbEntity
8
SK4
62
256
6
ByLayer
370
18
48
0.05
60
0
100
AcDbLine
10
-61
20
0
30
0
11
159.5
21
0
31
0
39
0
210
0
220
0
230
1
0
LINE
5
83
100
AcDbEntity
8
1
62
256
6
ByLayer
370
18
48
1
60
0
100
AcDbLine
10
41.469287
20
-11.3
30
0
11
94.68081
21
-11.3
31
0
39
0
210
0
220
0
230
1
0
LINE
5
84
100
AcDbEntity
8
1
62
256
6
ByLayer
370
18
48
1
60
0
100
AcDbLine
10
94.68081
20
11.3
30
0
11
41.469287
21
11.3
31
0
39
0
210
0
220
0
230
1
0
LINE
5
85
100
AcDbEntity
8
1
62
256
6
ByLayer
370
18
48
1
60
0
100
AcDbLine
10
154.5
20
0
30
0
11
150.238636
21
11.708
31
0
39
0
210
0
220
0
230
1
0
LINE
5
86
100
AcDbEntity
8
1
62
256
6
ByLayer
370
18
48
1
60
0
100
AcDbLine
10
150.238636
20
-11.708
30
0
11
154.5
21
0
31
0
39
0
210
0
220
0
230
1
0
LINE
5
87
100
AcDbEntity
8
1
62
256
6
ByLayer
370
18
48
1
60
0
100
AcDbLine
10
3.506582
20
12.209078
30
0
11
0
21
12.7
31
0
39
0
210
0
220
0
230
1
0
LINE
5
88
100
AcDbEntity
8
1
62
256
6
ByLayer
370
18
48
1
60
0
100
AcDbLine
10
0
20
-12.7
30
0
11
3.506582
21
-12.209078
31
0
39
0
210
0
220
0
230
1
0
LINE
5
89
100
AcDbEntity
8
1
62
256
6
ByLayer
370
18
48
1
60
0
100
AcDbLine
10
154.5
20
0
30
0
11
150.238636
21
11.708
31
0
39
0
210
0
220
0
230
1
0
LINE
5
8A
100
AcDbEntity
8
1
62
256
6
ByLayer
370
18
48
1
60
0
100
AcDbLine
10
150.238636
20
-11.708
30
0
11
154.5
21
0
31
0
39
0
210
0
220
0
230
1
0
LINE
5
8B
100
AcDbEntity
8
1
62
256
6
ByLayer
370
18
48
1
60
0
100
AcDbLine
10
150.238636
20
11.708
30
0
11
139.4
21
11.708
31
0
39
0
210
0
220
0
230
1
0
LINE
5
8C
100
AcDbEntity
8
1
62
256
6
ByLayer
370
18
48
1
60
0
100
AcDbLine
10
139.4
20
-11.708
30
0
11
150.238636
21
-11.708
31
0
39
0
210
0
220
0
230
1
0
LINE
5
8D
100
AcDbEntity
8
SK1
62
256
6
ByLayer
370
18
48
1
60
0
100
AcDbLine
10
-56
20
-11.7
30
0
11
-55
21
-12.7
31
0
39
0
210
0
220
0
230
1
0
LINE
5
8F
100
AcDbEntity
8
SK1
62
256
6
ByLayer
370
18
48
1
60
0
100
AcDbLine
10
-55
20
12.7
30
0
11
-56
21
11.7
31
0
39
0
210
0
220
0
230
1
0
LINE
5
90
100
AcDbEntity
8
SK1
62
256
6
ByLayer
370
18
48
1
60
0
100
AcDbLine
10
-55
20
-12.7
30
0
11
0
21
-12.7
31
0
39
0
210
0
220
0
230
1
0
LINE
5
91
100
AcDbEntity
8
SK1
62
256
6
ByLayer
370
18
48
1
60
0
100
AcDbLine
10
0
20
12.7
30
0
11
-55
21
12.7
31
0
39
0
210
0
220
0
230
1
0
LINE
5
92
100
AcDbEntity
8
1
62
256
6
ByLayer
370
18
48
1
60
0
100
AcDbLine
10
0
20
12.7
30
0
11
0
21
-12.7
31
0
39
0
210
0
220
0
230
1
0
LINE
5
93
100
AcDbEntity
8
1
62
256
6
ByLayer
370
18
48
1
60
0
100
AcDbLine
10
150.238636
20
11.708
30
0
11
150.238636
21
11.336248
31
0
39
0
210
0
220
0
230
1
0
LINE
5
94
100
AcDbEntity
8
1
62
256
6
ByLayer
370
18
48
1
60
0
100
AcDbLine
10
150.238636
20
-11.708
30
0
11
150.238636
21
-1.672889
31
0
39
0
210
0
220
0
230
1
0
LINE
5
95
100
AcDbEntity
8
1
62
256
6
ByLayer
370
18
48
1
60
0
100
AcDbLine
10
10
20
-8.039367
30
0
11
10
21
10.007742
31
0
39
0
210
0
220
0
230
1
0
LINE
5
96
100
AcDbEntity
8
SK1
62
256
6
ByLayer
370
18
48
1
60
0
100
AcDbLine
10
-9.573685
20
-7.42967
30
0
11
-9.573685
21
7.42967
31
0
39
0
210
0
220
0
230
1
0
LINE
5
97
100
AcDbEntity
8
SK1
62
256
6
ByLayer
370
18
48
1
60
0
100
AcDbLine
10
-56
20
-11.7
30
0
11
-56
21
11.7
31
0
39
0
210
0
220
0
230
1
0
LINE
5
98
100
AcDbEntity
8
SK1
62
256
6
ByLayer
370
18
48
1
60
0
100
AcDbLine
10
0
20
12.7
30
0
11
0
21
-12.7
31
0
39
0
210
0
220
0
230
1
0
LINE
5
99
100
AcDbEntity
8
SK1
62
256
6
ByLayer
370
18
48
1
60
0
100
AcDbLine
10
-55
20
-12.7
30
0
11
-55
21
12.7
31
0
39
0
210
0
220
0
230
1
0
LINE
5
9A
100
AcDbEntity
8
SK1
62
256
6
ByLayer
370
18
48
1
60
0
100
AcDbLine
10
-9.573685
20
-7.42967
30
0
11
-46.761964
21
-7.42967
31
0
39
0
210
0
220
0
230
1
0
LINE
5
9B
100
AcDbEntity
8
SK1
62
256
6
ByLayer
370
18
48
1
60
0
100
AcDbLine
10
-46.761964
20
7.42967
30
0
11
-9.573685
21
7.42967
31
0
39
0
210
0
220
0
230
1
0
LINE
5
9C
100
AcDbEntity
8
SK1
62
256
6
ByLayer
370
18
48
1
60
0
100
AcDbLine
10
-46.761964
20
-7.42967
30
0
11
-46.761964
21
7.42967
31
0
39
0
210
0
220
0
230
1
0
LINE
5
9D
100
AcDbEntity
8
1
62
256
6
ByLayer
370
18
48
1
60
0
100
AcDbLine
10
150.238636
20
11.708
30
0
11
150.238636
21
-11.708
31
0
39
0
210
0
220
0
230
1
0
LINE
5
9E
100
AcDbEntity
8
1
62
256
6
ByLayer
370
18
48
1
60
0
100
AcDbLine
10
150.238636
20
11.708
30
0
11
150.238636
21
-11.708
31
0
39
0
210
0
220
0
230
1
0
LINE
5
9F
100
AcDbEntity
8
1
62
256
6
ByLayer
370
18
48
1
60
0
100
AcDbLine
10
150.238636
20
11.708
30
0
11
150.238636
21
-11.708
31
0
39
0
210
0
220
0
230
1
0
LINE
5
A0
100
AcDbEntity
8
1
62
256
6
ByLayer
370
18
48
1
60
0
100
AcDbLine
10
139.4
20
11.708
30
0
11
139.4
21
-11.708
31
0
39
0
210
0
220
0
230
1
0
LINE
5
A1
100
AcDbEntity
8
1
62
256
6
ByLayer
370
18
48
1
60
0
100
AcDbLine
10
139.4
20
11.708
30
0
11
139.4
21
-11.708
31
0
39
0
210
0
220
0
230
1
0
LINE
5
A2
100
AcDbEntity
8
1
62
256
6
ByLayer
370
18
48
1
60
0
100
AcDbLine
10
150.238636
20
11.708
30
0
11
150.238636
21
-11.708
31
0
39
0
210
0
220
0
230
1
0
LINE
5
A3
100
AcDbEntity
8
1
62
256
6
ByLayer
370
18
48
1
60
0
100
AcDbLine
10
139.4
20
11.708
30
0
11
139.4
21
-11.708
31
0
39
0
210
0
220
0
230
1
0
LINE
5
A4
100
AcDbEntity
8
1
62
256
6
ByLayer
370
18
48
1
60
0
100
AcDbLine
10
150.238636
20
11.708
30
0
11
150.238636
21
-11.708
31
0
39
0
210
0
220
0
230
1
0
LINE
5
A5
100
AcDbEntity
8
SK2
62
256
6
ByLayer
370
13
48
1
60
0
100
AcDbLine
10
-62.5
20
-12.7
30
0
11
-62.5
21
42.040455
31
0
39
0
210
0
220
0
230
1
0
LINE
5
A7
100
AcDbEntity
8
SK2
62
256
6
ByLayer
370
13
48
1
60
0
100
AcDbLine
10
-57.5875
20
12.7
30
0
11
-64.5
21
12.7
31
0
39
0
210
0
220
0
230
1
0
LINE
5
A8
100
AcDbEntity
8
SK2
62
256
6
ByLayer
370
13
48
1
60
0
100
AcDbLine
10
-57.5875
20
-12.7
30
0
11
-64.5
21
-12.7
31
0
39
0
210
0
220
0
230
1
0
LINE
5
A9
100
AcDbEntity
8
1
62
256
6
ByLayer
370
18
48
1
60
1
100
AcDbLine
10
-62.5
20
12.7
30
0
11
-62.039216
21
9.200002
31
0
39
0
210
0
220
0
230
1
0
LINE
5
AA
100
AcDbEntity
8
1
62
256
6
ByLayer
370
18
48
1
60
1
100
AcDbLine
10
-62.039216
20
9.200002
30
0
11
-62.960784
21
9.199998
31
0
39
0
210
0
220
0
230
1
0
LINE
5
AB
100
AcDbEntity
8
1
62
256
6
ByLayer
370
18
48
1
60
1
100
AcDbLine
10
-62.960784
20
9.199998
30
0
11
-62.5
21
12.7
31
0
39
0
210
0
220
0
230
1
0
LINE
5
AC
100
AcDbEntity
8
1
62
256
6
ByLayer
370
18
48
1
60
1
100
AcDbLine
10
-62.5
20
-12.7
30
0
11
-62.960784
21
-9.200002
31
0
39
0
210
0
220
0
230
1
0
LINE
5
AD
100
AcDbEntity
8
1
62
256
6
ByLayer
370
18
48
1
60
1
100
AcDbLine
10
-62.960784
20
-9.200002
30
0
11
-62.039216
21
-9.199998
31
0
39
0
210
0
220
0
230
1
0
LINE
5
AE
100
AcDbEntity
8
1
62
256
6
ByLayer
370
18
48
1
60
1
100
AcDbLine
10
-62.039216
20
-9.199998
30
0
11
-62.5
21
-12.7
31
0
39
0
210
0
220
0
230
1
0
LINE
5
AF
100
AcDbEntity
8
2
62
256
6
ByLayer
370
13
48
1
60
0
100
AcDbLine
10
162
20
-11.708
30
0
11
162
21
40.298569
31
0
39
0
210
0
220
0
230
1
0
LINE
5
B1
100
AcDbEntity
8
2
62
256
6
ByLayer
370
13
48
1
60
0
100
AcDbLine
10
151.826136
20
11.708
30
0
11
164
21
11.708
31
0
39
0
210
0
220
0
230
1
0
LINE
5
B2
100
AcDbEntity
8
2
62
256
6
ByLayer
370
13
48
1
60
0
100
AcDbLine
10
151.826136
20
-11.708
30
0
11
164
21
-11.708
31
0
39
0
210
0
220
0
230
1
0
LINE
5
B3
100
AcDbEntity
8
1
62
256
6
ByLayer
370
18
48
1
60
1
100
AcDbLine
10
162
20
11.708
30
0
11
162.460784
21
8.208002
31
0
39
0
210
0
220
0
230
1
0
LINE
5
B4
100
AcDbEntity
8
1
62
256
6
ByLayer
370
18
48
1
60
1
100
AcDbLine
10
162.460784
20
8.208002
30
0
11
161.539216
21
8.207998
31
0
39
0
210
0
220
0
230
1
0
LINE
5
B5
100
AcDbEntity
8
1
62
256
6
ByLayer
370
18
48
1
60
1
100
AcDbLine
10
161.539216
20
8.207998
30
0
11
162
21
11.708
31
0
39
0
210
0
220
0
230
1
0
LINE
5
B6
100
AcDbEntity
8
1
62
256
6
ByLayer
370
18
48
1
60
1
100
AcDbLine
10
162
20
-11.708
30
0
11
161.539216
21
-8.208002
31
0
39
0
210
0
220
0
230
1
0
LINE
5
B7
100
AcDbEntity
8
1
62
256
6
ByLayer
370
18
48
1
60
1
100
AcDbLine
10
161.539216
20
-8.208002
30
0
11
162.460784
21
-8.207998
31
0
39
0
210
0
220
0
230
1
0
LINE
5
B8
100
AcDbEntity
8
1
62
256
6
ByLayer
370
18
48
1
60
1
100
AcDbLine
10
162.460784
20
-8.207998
30
0
11
162
21
-11.708
31
0
39
0
210
0
220
0
230
1
0
LINE
5
B9
100
AcDbEntity
8
SK2
62
256
6
ByLayer
370
13
48
1
60
0
100
AcDbLine
10
155.042957
20
-1.491762
30
0
11
161.682423
21
-19.733545
31
0
39
0
210
0
220
0
230
1
0
LINE
5
BA
100
AcDbEntity
8
SK2
62
256
6
ByLayer
370
13
48
1
60
0
100
AcDbLine
10
155.042957
20
1.491762
30
0
11
161.682423
21
19.733545
31
0
39
0
210
0
220
0
230
1
0
LINE
5
BB
100
AcDbEntity
8
1
62
256
6
ByLayer
370
18
48
1
60
1
100
AcDbLine
10
160.998383
20
-17.85416
30
0
11
164.051575
21
-16.082064
31
0
39
0
210
0
220
0
230
1
0
LINE
5
BC
100
AcDbEntity
8
1
62
256
6
ByLayer
370
18
48
1
60
1
100
AcDbLine
10
164.051575
20
-16.082064
30
0
11
164.406196
21
-16.93267
31
0
39
0
210
0
220
0
230
1
0
LINE
5
BD
100
AcDbEntity
8
1
62
256
6
ByLayer
370
18
48
1
60
1
100
AcDbLine
10
164.406196
20
-16.93267
30
0
11
160.998383
21
-17.85416
31
0
39
0
210
0
220
0
230
1
0
LINE
5
BE
100
AcDbEntity
8
1
62
256
6
ByLayer
370
18
48
1
60
1
100
AcDbLine
10
160.998383
20
17.85416
30
0
11
164.406193
21
16.932671
31
0
39
0
210
0
220
0
230
1
0
LINE
5
BF
100
AcDbEntity
8
1
62
256
6
ByLayer
370
18
48
1
60
1
100
AcDbLine
10
164.406193
20
16.932671
30
0
11
164.051579
21
16.082063
31
0
39
0
210
0
220
0
230
1
0
LINE
5
C0
100
AcDbEntity
8
1
62
256
6
ByLayer
370
18
48
1
60
1
100
AcDbLine
10
164.051579
20
16.082063
30
0
11
160.998383
21
17.85416
31
0
39
0
210
0
220
0
230
1
0
LINE
5
143
100
AcDbEntity
8
1
62
256
6
ByLayer
370
18
48
1
60
1
100
AcDbLine
10
-62.5
20
12.7
30
0
11
-62.039216
21
9.200002
31
0
39
0
210
0
220
0
230
1
0
LINE
5
144
100
AcDbEntity
8
1
62
256
6
ByLayer
370
18
48
1
60
1
100
AcDbLine
10
-62.039216
20
9.200002
30
0
11
-62.960784
21
9.199998
31
0
39
0
210
0
220
0
230
1
0
LINE
5
145
100
AcDbEntity
8
1
62
256
6
ByLayer
370
18
48
1
60
1
100
AcDbLine
10
-62.960784
20
9.199998
30
0
11
-62.5
21
12.7
31
0
39
0
210
0
220
0
230
1
0
LINE
5
147
100
AcDbEntity
8
1
62
256
6
ByLayer
370
18
48
1
60
1
100
AcDbLine
10
-62.5
20
-12.7
30
0
11
-62.960784
21
-9.200002
31
0
39
0
210
0
220
0
230
1
0
LINE
5
148
100
AcDbEntity
8
1
62
256
6
ByLayer
370
18
48
1
60
1
100
AcDbLine
10
-62.960784
20
-9.200002
30
0
11
-62.039216
21
-9.199998
31
0
39
0
210
0
220
0
230
1
0
LINE
5
149
100
AcDbEntity
8
1
62
256
6
ByLayer
370
18
48
1
60
1
100
AcDbLine
10
-62.039216
20
-9.199998
30
0
11
-62.5
21
-12.7
31
0
39
0
210
0
220
0
230
1
0
LINE
5
14D
100
AcDbEntity
8
1
62
256
6
ByLayer
370
18
48
1
60
1
100
AcDbLine
10
162
20
11.708
30
0
11
162.460784
21
8.208002
31
0
39
0
210
0
220
0
230
1
0
LINE
5
14E
100
AcDbEntity
8
1
62
256
6
ByLayer
370
18
48
1
60
1
100
AcDbLine
10
162.460784
20
8.208002
30
0
11
161.539216
21
8.207998
31
0
39
0
210
0
220
0
230
1
0
LINE
5
14F
100
AcDbEntity
8
1
62
256
6
ByLayer
370
18
48
1
60
1
100
AcDbLine
10
161.539216
20
8.207998
30
0
11
162
21
11.708
31
0
39
0
210
0
220
0
230
1
0
LINE
5
151
100
AcDbEntity
8
1
62
256
6
ByLayer
370
18
48
1
60
1
100
AcDbLine
10
162
20
-11.708
30
0
11
161.539216
21
-8.208002
31
0
39
0
210
0
220
0
230
1
0
LINE
5
152
100
AcDbEntity
8
1
62
256
6
ByLayer
370
18
48
1
60
1
100
AcDbLine
10
161.539216
20
-8.208002
30
0
11
162.460784
21
-8.207998
31
0
39
0
210
0
220
0
230
1
0
LINE
5
153
100
AcDbEntity
8
1
62
256
6
ByLayer
370
18
48
1
60
1
100
AcDbLine
10
162.460784
20
-8.207998
30
0
11
162
21
-11.708
31
0
39
0
210
0
220
0
230
1
0
LINE
5
156
100
AcDbEntity
8
1
62
256
6
ByLayer
370
18
48
1
60
1
100
AcDbLine
10
160.998383
20
-17.85416
30
0
11
164.051575
21
-16.082064
31
0
39
0
210
0
220
0
230
1
0
LINE
5
157
100
AcDbEntity
8
1
62
256
6
ByLayer
370
18
48
1
60
1
100
AcDbLine
10
164.051575
20
-16.082064
30
0
11
164.406196
21
-16.93267
31
0
39
0
210
0
220
0
230
1
0
LINE
5
158
100
AcDbEntity
8
1
62
256
6
ByLayer
370
18
48
1
60
1
100
AcDbLine
10
164.406196
20
-16.93267
30
0
11
160.998383
21
-17.85416
31
0
39
0
210
0
220
0
230
1
0
LINE
5
15A
100
AcDbEntity
8
1
62
256
6
ByLayer
370
18
48
1
60
1
100
AcDbLine
10
160.998383
20
17.85416
30
0
11
164.406193
21
16.932671
31
0
39
0
210
0
220
0
230
1
0
LINE
5
15B
100
AcDbEntity
8
1
62
256
6
ByLayer
370
18
48
1
60
1
100
AcDbLine
10
164.406193
20
16.932671
30
0
11
164.051579
21
16.082063
31
0
39
0
210
0
220
0
230
1
0
LINE
5
15C
100
AcDbEntity
8
1
62
256
6
ByLayer
370
18
48
1
60
1
100
AcDbLine
10
164.051579
20
16.082063
30
0
11
160.998383
21
17.85416
31
0
39
0
210
0
220
0
230
1
0
MTEXT
5
13F
100
AcDbEntity
8
SK2
62
256
6
ByLayer
370
18
48
1
60
0
100
AcDbMText
10
-63.841114
20
24.358437
30
0
210
0
220
0
230
1
1
%%c
40
3
41
0
44
1.084337
50
90
71
7
72
5
7
iso_b_vert
0
MTEXT
5
142
100
AcDbEntity
8
SK2
62
256
6
ByLayer
370
18
48
1
60
0
100
AcDbMText
10
-63.841114
20
30.335
30
0
210
0
220
0
230
1
1
\W0.7728;25.400
40
3
41
0
44
1.084337
50
90
71
7
72
5
7
iso_b_vert
0
MTEXT
5
14B
100
AcDbEntity
8
2
62
256
6
ByLayer
370
18
48
1
60
0
100
AcDbMText
10
160.658886
20
23.366437
30
0
210
0
220
0
230
1
1
%%c
40
3
41
0
44
1.084337
50
90
71
7
72
5
7
iso_b_vert
0
MTEXT
5
14C
100
AcDbEntity
8
2
62
256
6
ByLayer
370
18
48
1
60
0
100
AcDbMText
10
160.658886
20
29.343
30
0
210
0
220
0
230
1
1
\W0.7237;23.416
40
3
41
0
44
1.084337
50
90
71
7
72
5
7
iso_b_vert
0
MTEXT
5
155
100
AcDbEntity
8
SK2
62
256
6
ByLayer
370
18
48
1
60
0
100
AcDbMText
10
174.409114
20
3.734657
30
0
210
0
220
0
230
1
1
\W0.7071;140%%d
40
3
41
0
44
1.084337
50
270
71
7
72
5
7
iso_b_vert
0
MTEXT
5
15E
100
AcDbEntity
8
SK6
62
256
6
ByLayer
370
18
48
1
60
0
100
AcDbMText
10
20.707603
20
-67.114886
30
0
210
0
220
0
230
1
1
\W0.7930;H85559/64
40
3
41
0
44
1.084337
50
0
71
7
72
5
7
iso_b_vert
0
HATCH
5
146
100
AcDbEntity
8
SK2
62
256
6
ByLayer
370
13
48
1
60
0
100
AcDbHatch
10
0
20
0
30
0
210
0
220
0
230
1
2
ANSI31
70
0
71
0
91
1
92
5
93
3
72
1
10
-62.5
20
12.7
11
-62.0392162584472
21
9.20000169255317
72
1
10
-62.0392162584472
20
9.20000169255317
11
-62.9607837415528
21
9.1999983074468
72
1
10
-62.9607837415528
20
9.1999983074468
11
-62.5
21
12.7
97
0
75
0
76
1
52
0
41
0.0062
77
0
78
1
53
45
43
0
44
0
45
-0.0139193969876572
46
0.0139193969876572
79
0
47
0
98
1
10
0
20
0
0
HATCH
5
14A
100
AcDbEntity
8
SK2
62
256
6
ByLayer
370
13
48
1
60
0
100
AcDbHatch
10
0
20
0
30
0
210
0
220
0
230
1
2
ANSI31
70
0
71
0
91
1
92
5
93
3
72
1
10
-62.5
20
-12.7
11
-62.9607837415528
21
-9.20000169255317
72
1
10
-62.9607837415528
20
-9.20000169255317
11
-62.0392162584472
21
-9.1999983074468
72
1
10
-62.0392162584472
20
-9.1999983074468
11
-62.5
21
-12.7
97
0
75
0
76
1
52
0
41
0.0062
77
0
78
1
53
45
43
0
44
0
45
-0.0139193969876572
46
0.0139193969876572
79
0
47
0
98
1
10
0
20
0
0
HATCH
5
150
100
AcDbEntity
8
2
62
256
6
ByLayer
370
13
48
1
60
0
100
AcDbHatch
10
0
20
0
30
0
210
0
220
0
230
1
2
ANSI31
70
0
71
0
91
1
92
5
93
3
72
1
10
162
20
11.708
11
162.460783741553
21
8.20800169255318
72
1
10
162.460783741553
20
8.20800169255318
11
161.539216258447
21
8.20799830744681
72
1
10
161.539216258447
20
8.20799830744681
11
162
21
11.708
97
0
75
0
76
1
52
0
41
0.0062
77
0
78
1
53
45
43
0
44
0
45
-0.0139193969876572
46
0.0139193969876572
79
0
47
0
98
1
10
0
20
0
0
HATCH
5
154
100
AcDbEntity
8
2
62
256
6
ByLayer
370
13
48
1
60
0
100
AcDbHatch
10
0
20
0
30
0
210
0
220
0
230
1
2
ANSI31
70
0
71
0
91
1
92
5
93
3
72
1
10
162
20
-11.708
11
161.539216258447
21
-8.20800169255318
72
1
10
161.539216258447
20
-8.20800169255318
11
162.460783741553
21
-8.20799830744681
72
1
10
162.460783741553
20
-8.20799830744681
11
162
21
-11.708
97
0
75
0
76
1
52
0
41
0.0062
77
0
78
1
53
45
43
0
44
0
45
-0.0139193969876572
46
0.0139193969876572
79
0
47
0
98
1
10
0
20
0
0
HATCH
5
159
100
AcDbEntity
8
SK2
62
256
6
ByLayer
370
13
48
1
60
0
100
AcDbHatch
10
0
20
0
30
0
210
0
220
0
230
1
2
ANSI31
70
0
71
0
91
1
92
5
93
3
72
1
10
160.998382723188
20
-17.8541597949323
11
164.051575425693
21
-16.0820638240608
72
1
10
164.051575425693
20
-16.0820638240608
11
164.406195833975
21
-16.9326700737196
72
1
10
164.406195833975
20
-16.9326700737196
11
160.998382723188
21
-17.8541597949323
97
0
75
0
76
1
52
0
41
0.0062
77
0
78
1
53
45
43
0
44
0
45
-0.0139193969876572
46
0.0139193969876572
79
0
47
0
98
1
10
0
20
0
0
HATCH
5
15D
100
AcDbEntity
8
SK2
62
256
6
ByLayer
370
13
48
1
60
0
100
AcDbHatch
10
0
20
0
30
0
210
0
220
0
230
1
2
ANSI31
70
0
71
0
91
1
92
5
93
3
72
1
10
160.998382723188
20
17.8541597949323
11
164.406192709519
21
16.9326713763016
72
1
10
164.406192709519
20
16.9326713763016
11
164.051578550149
21
16.0820625214788
72
1
10
164.051578550149
20
16.0820625214788
11
160.998382723188
21
17.8541597949323
97
0
75
0
76
1
52
0
41
0.0062
77
0
78
1
53
45
43
0
44
0
45
-0.0139193969876572
46
0.0139193969876572
79
0
47
0
98
1
10
0
20
0
0
DIMENSION
5
161
100
AcDbEntity
8
SK2
62
256
6
ByLayer
370
18
48
1
60
0
100
AcDbDimension
2
_U0
10
154.5
20
-45.952229
30
0
11
49.25
21
-45.952229
31
0
70
32
71
1
72
1
41
1
210
0
220
0
230
1
3
Standard
100
AcDbAlignedDimension
13
-56
23
-12.7
33
0
14
154.5
24
0
34
0
50
0
100
AcDbRotatedDimension
1001
ACAD
1000
DSTYLE
1002
{
1070
   371
1070
    13
1070
   372
1070
    13
1070
     3
1000

1070
   170
1070
     0
1070
   144
1040
1.0
1070
   277
1070
     2
1070
   284
1070
     8
1070
   278
1070
    46
1070
   146
1040
1.166667
1070
   345
1005
16
1070
   347
1005
16
1070
   346
1005
16
1070
   344
1005
0
1070
   343
1005
0
1070
   172
1070
     1
1070
    76
1070
     0
1070
    75
1070
     0
1070
   282
1070
     0
1070
   281
1070
     0
1070
    71
1070
     0
1070
    74
1070
     0
1070
   279
1070
     0
1070
   173
1070
     1
1070
   340
1005
140
1070
   271
1070
     2
1070
   272
1070
     3
1070
    77
1070
     1
1070
    73
1070
     1
1070
   171
1070
     3
1070
   274
1070
     4
1070
   177
1070
     2
1070
   176
1070
     2
1070
   178
1070
     2
1070
    78
1070
     8
1070
    48
1040
-0.1
1070
    41
1040
3.5
1070
   147
1040
1.5
1070
    42
1040
1.5875
1070
    44
1040
2.0
1070
   140
1040
3.0
1002
}
1001
ACAD_DSTYLE_DIM_LINETYPE
1070
   380
1005
16
1001
ACAD_DSTYLE_DIM_EXT1_LINETYPE
1070
   381
1005
16
1001
ACAD_DSTYLE_DIM_EXT2_LINETYPE
1070
   382
1005
16
0
DIMENSION
5
17A
100
AcDbEntity
8
SK2
62
256
6
ByLayer
370
18
48
1
60
0
100
AcDbDimension
2
_U1
10
3
20
-35.952229
30
0
11
78.75
21
-35.952229
31
0
70
32
71
1
72
1
41
1
210
0
220
0
230
1
3
Standard
100
AcDbAlignedDimension
13
154.5
23
0
33
0
14
3
24
-11.708
34
0
50
0
100
AcDbRotatedDimension
1001
ACAD
1000
DSTYLE
1002
{
1070
   371
1070
    13
1070
   372
1070
    13
1070
     3
1000

1070
   170
1070
     0
1070
   144
1040
1.0
1070
   277
1070
     2
1070
   284
1070
     8
1070
   278
1070
    46
1070
   146
1040
1.166667
1070
   345
1005
16
1070
   347
1005
16
1070
   346
1005
16
1070
   344
1005
0
1070
   343
1005
0
1070
   172
1070
     1
1070
    76
1070
     0
1070
    75
1070
     0
1070
   282
1070
     0
1070
   281
1070
     0
1070
    71
1070
     0
1070
    74
1070
     0
1070
   279
1070
     0
1070
   173
1070
     1
1070
   340
1005
140
1070
   271
1070
     2
1070
   272
1070
     3
1070
    77
1070
     1
1070
    73
1070
     1
1070
   171
1070
     3
1070
   274
1070
     4
1070
   177
1070
     2
1070
   176
1070
     2
1070
   178
1070
     2
1070
    78
1070
     8
1070
    48
1040
-0.1
1070
    41
1040
3.5
1070
   147
1040
1.5
1070
    42
1040
1.5875
1070
    44
1040
2.0
1070
   140
1040
3.0
1002
}
1001
ACAD_DSTYLE_DIM_LINETYPE
1070
   380
1005
16
1001
ACAD_DSTYLE_DIM_EXT1_LINETYPE
1070
   381
1005
16
1001
ACAD_DSTYLE_DIM_EXT2_LINETYPE
1070
   382
1005
16
0
DIMENSION
5
192
100
AcDbEntity
8
SK2
62
256
6
ByLayer
370
18
48
1
60
0
100
AcDbDimension
2
_U2
10
0
20
-35.952229
30
0
11
-28
21
-35.952229
31
0
70
32
71
1
72
1
41
1
210
0
220
0
230
1
3
Standard
100
AcDbAlignedDimension
13
-56
23
-12.7
33
0
14
0
24
-12.7
34
0
50
0
100
AcDbRotatedDimension
1001
ACAD
1000
DSTYLE
1002
{
1070
   371
1070
    13
1070
   372
1070
    13
1070
     3
1000

1070
   170
1070
     0
1070
   144
1040
1.0
1070
   277
1070
     2
1070
   284
1070
     8
1070
   278
1070
    46
1070
   146
1040
1.166667
1070
   345
1005
16
1070
   347
1005
16
1070
   346
1005
16
1070
   344
1005
0
1070
   343
1005
0
1070
   172
1070
     1
1070
    76
1070
     0
1070
    75
1070
     0
1070
   282
1070
     0
1070
   281
1070
     0
1070
    71
1070
     0
1070
    74
1070
     0
1070
   279
1070
     0
1070
   173
1070
     1
1070
   340
1005
140
1070
   271
1070
     2
1070
   272
1070
     3
1070
    77
1070
     1
1070
    73
1070
     1
1070
   171
1070
     3
1070
   274
1070
     4
1070
   177
1070
     2
1070
   176
1070
     2
1070
   178
1070
     2
1070
    78
1070
     8
1070
    48
1040
-0.1
1070
    41
1040
3.5
1070
   147
1040
1.5
1070
    42
1040
1.5875
1070
    44
1040
2.0
1070
   140
1040
3.0
1002
}
1001
ACAD_DSTYLE_DIM_LINETYPE
1070
   380
1005
16
1001
ACAD_DSTYLE_DIM_EXT1_LINETYPE
1070
   381
1005
16
1001
ACAD_DSTYLE_DIM_EXT2_LINETYPE
1070
   382
1005
16
0
DIMENSION
5
1AA
100
AcDbEntity
8
SK2
62
256
6
ByLayer
370
18
48
1
60
0
100
AcDbDimension
2
_U3
10
25
20
32.952229
30
0
11
89.75
21
32.952229
31
0
70
32
71
1
72
1
41
1
210
0
220
0
230
1
3
Standard
100
AcDbAlignedDimension
13
154.5
23
0
33
0
14
25
24
11.708
34
0
50
0
100
AcDbRotatedDimension
1001
ACAD
1000
DSTYLE
1002
{
1070
   371
1070
    13
1070
   372
1070
    13
1070
     3
1000

1070
   170
1070
     0
1070
   144
1040
1.0
1070
   277
1070
     2
1070
   284
1070
     8
1070
   278
1070
    46
1070
   146
1040
1.166667
1070
   345
1005
16
1070
   347
1005
16
1070
   346
1005
16
1070
   344
1005
0
1070
   343
1005
0
1070
   172
1070
     1
1070
    76
1070
     0
1070
    75
1070
     0
1070
   282
1070
     0
1070
   281
1070
     0
1070
    71
1070
     0
1070
    74
1070
     0
1070
   279
1070
     0
1070
   173
1070
     1
1070
   340
1005
140
1070
   271
1070
     2
1070
   272
1070
     3
1070
    77
1070
     1
1070
    73
1070
     1
1070
   171
1070
     3
1070
   274
1070
     4
1070
   177
1070
     2
1070
   176
1070
     2
1070
   178
1070
     2
1070
    78
1070
     8
1070
    48
1040
-0.1
1070
    41
1040
3.5
1070
   147
1040
1.5
1070
    42
1040
1.5875
1070
    44
1040
2.0
1070
   140
1040
3.0
1002
}
1001
ACAD_DSTYLE_DIM_LINETYPE
1070
   380
1005
16
1001
ACAD_DSTYLE_DIM_EXT1_LINETYPE
1070
   381
1005
16
1001
ACAD_DSTYLE_DIM_EXT2_LINETYPE
1070
   382
1005
16
0
ENDSEC
0
SECTION
2
OBJECTS
0
DICTIONARY
5
232
330
0
100
AcDbDictionary
280
0
281
1
3
ACAD_GROUP
350
233
3
ACAD_MLINESTYLE
350
234
0
DICTIONARY
5
233
330
0
100
AcDbDictionary
280
0
281
1
0
DICTIONARY
5
234
330
0
100
AcDbDictionary
280
0
281
1
3
Standard
350
18
0
MLINESTYLE
5
18
330
234
100
AcDbMlineStyle
2
Standard
70
0
3

62
256
51
90
52
90
71
2
49
-0.5
62
256
6
ByLayer
49
0.5
62
256
6
ByLayer
0
RASTERVARIABLES
5
220
330

100
AcDbRasterVariables
90
0
70
1
71
1
72
1
0
ENDSEC
0
EOF
