0
SECTION
2
HEADER
9
$ACADVER
1
AC1015
9
$DWGCODEPAGE
3
ANSI_1252
9
$HANDSEED
5
231
9
$ANGBASE
50
0
9
$ANGDIR
70
0
9
$ATTMODE
70
1
9
$AUNITS
70
0
9
$AUPREC
70
0
9
$CECOLOR
62
256
9
$CELTSCALE
40
1
9
$CELTYPE
6
ByLayer
9
$CELWEIGHT
370
18
9
$CLAYER
8
0
9
$CMLJUST
70
0
9
$CMLSCALE
40
1
9
$CMLSTYLE
2
Standard
9
$DIMSTYLE
2
Standard
9
$TEXTSIZE
40
0.2
9
$TEXTSTYLE
7
Standard
9
$LUNITS
70
2
9
$LUPREC
70
4
9
$EXTNAMES
290
1
9
$INSUNITS
70
4
9
$LTSCALE
40
1
9
$LWDISPLAY
290
1
9
$PDMODE
70
0
9
$PDSIZE
40
0
9
$PLINEGEN
70
0
0
ENDSEC
0
SECTION
2
CLASSES
0
CLASS
1
RASTERVARIABLES
2
AcDbRasterVariables
3
ISM
90
0
280
0
281
0
0
ENDSEC
0
SECTION
2
TABLES
0
TABLE
2
VPORT
5
227
100
AcDbSymbolTable
0
VPORT
5
1
100
AcDbSymbolTableRecord
100
AcDbViewportTableRecord
2
*Active
70
0
10
0
20
0
11
1
21
1
12
-1
22
1
13
0
23
0
14
0.5
24
0.5
15
10
25
10
16
0
26
0
36
1
17
0
27
0
37
0
0
ENDTAB
0
TABLE
2
LTYPE
5
228
100
AcDbSymbolTable
0
LTYPE
5
14
100
AcDbSymbolTableRecord
100
AcDbLinetypeTableRecord
70
0
2
ByBlock
3

72
65
73
0
40
0
0
LTYPE
5
15
100
AcDbSymbolTableRecord
100
AcDbLinetypeTableRecord
70
0
2
ByLayer
3

72
65
73
0
40
0
0
LTYPE
5
16
100
AcDbSymbolTableRecord
100
AcDbLinetypeTableRecord
70
0
2
Continuous
3
Solid line
72
65
73
0
40
0
0
LTYPE
5
6E
100
AcDbSymbolTableRecord
100
AcDbLinetypeTableRecord
70
0
2
CENTER
3
____ _ ____ _ ____ _ ____
72
65
73
4
40
47.5
49
22
74
0
49
-8.5
74
0
49
8.5
74
0
49
-8.5
74
0
0
LTYPE
5
6F
100
AcDbSymbolTableRecord
100
AcDbLinetypeTableRecord
70
0
2
DASHED
3
__ __ __ __ __ __ __ __ __
72
65
73
2
40
25.72
49
12.86
74
0
49
-12.86
74
0
0
ENDTAB
0
TABLE
2
LAYER
5
229
100
AcDbSymbolTable
0
LAYER
5
10
100
AcDbSymbolTableRecord
100
AcDbLayerTableRecord
2
0
70
0
62
7
6
Continuous
290
1
370
-3
390
0
0
LAYER
5
71
100
AcDbSymbolTableRecord
100
AcDbLayerTableRecord
2
80
70
0
62
-6
6
Continuous
290
1
370
-3
390
0
0
LAYER
5
73
100
AcDbSymbolTableRecord
100
AcDbLayerTableRecord
2
81
70
0
62
-3
6
Continuous
290
1
370
-3
390
0
0
LAYER
5
75
100
AcDbSymbolTableRecord
100
AcDbLayerTableRecord
2
1
70
0
62
4
6
Continuous
290
1
370
-3
390
0
0
LAYER
5
7F
100
AcDbSymbolTableRecord
100
AcDbLayerTableRecord
2
4
70
0
62
-2
6
CENTER
290
1
370
-3
390
0
0
LAYER
5
AF
100
AcDbSymbolTableRecord
100
AcDbLayerTableRecord
2
2
70
0
62
7
6
Continuous
290
1
370
-3
390
0
0
LAYER
5
156
100
AcDbSymbolTableRecord
100
AcDbLayerTableRecord
2
Defpoints
70
0
62
7
6
Continuous
290
0
370
-3
390
0
0
LAYER
5
213
100
AcDbSymbolTableRecord
100
AcDbLayerTableRecord
2
SK4
70
0
62
2
6
CENTER
290
1
370
-3
390
0
0
LAYER
5
214
100
AcDbSymbolTableRecord
100
AcDbLayerTableRecord
2
SK1
70
0
62
4
6
Continuous
290
1
370
-3
390
0
0
LAYER
5
215
100
AcDbSymbolTableRecord
100
AcDbLayerTableRecord
2
SK2
70
0
62
7
6
Continuous
290
1
370
-3
390
0
0
LAYER
5
216
100
AcDbSymbolTableRecord
100
AcDbLayerTableRecord
2
SK6
70
0
62
5
6
Continuous
290
1
370
-3
390
0
0
ENDTAB
0
TABLE
2
STYLE
5
22a
100
AcDbSymbolTable
0
STYLE
5
11
100
AcDbSymbolTableRecord
100
AcDbTextStyleTableRecord
2
Standard
3
txt
70
0
71
0
40
0
41
1
42
0
50
0
0
STYLE
5
132
100
AcDbSymbolTableRecord
100
AcDbTextStyleTableRecord
2
iso_b_vert
3
simplex.shx
70
0
71
0
40
0
41
1
42
0
50
0
0
STYLE
5
133
100
AcDbSymbolTableRecord
100
AcDbTextStyleTableRecord
2
DWGDirectTextStyle
3
simplex
70
0
71
0
40
0
41
1
42
0
50
0
0
ENDTAB
0
TABLE
2
DIMSTYLE
5
22b
100
AcDbSymbolTable
100
AcDbDimStyleTable
0
DIMSTYLE
105
27
100
AcDbSymbolTableRecord
100
AcDbDimStyleTableRecord
2
Standard
70
0
3
<>
41
0.18
42
0.0625
44
0.18
140
0.18
147
0.09
73
0
74
0
77
1
271
2
275
0
278
52
280
0
340
11
0
ENDTAB
0
TABLE
2
VIEW
5
22c
100
AcDbSymbolTable
0
ENDTAB
0
TABLE
2
UCS
5
22d
100
AcDbSymbolTable
0
ENDTAB
0
TABLE
2
APPID
5
22e
100
AcDbSymbolTable
0
APPID
5
12
100
AcDbSymbolTableRecord
100
AcDbRegAppTableRecord
2
ACAD
70
0
0
APPID
5
152
100
AcDbSymbolTableRecord
100
AcDbRegAppTableRecord
2
ACAD_DSTYLE_DIMBREAK
70
0
0
APPID
5
1D2
100
AcDbSymbolTableRecord
100
AcDbRegAppTableRecord
2
ACAD_DSTYLE_DIM_LINETYPE
70
0
0
APPID
5
1D3
100
AcDbSymbolTableRecord
100
AcDbRegAppTableRecord
2
ACAD_DSTYLE_DIM_EXT1_LINETYPE
70
0
0
APPID
5
1D4
100
AcDbSymbolTableRecord
100
AcDbRegAppTableRecord
2
ACAD_DSTYLE_DIM_EXT2_LINETYPE
70
0
0
APPID
5
20F
100
AcDbSymbolTableRecord
100
AcDbRegAppTableRecord
2
ACAD_MLEADERVER
70
0
0
ENDTAB
0
TABLE
2
BLOCK_RECORD
5
22f
100
AcDbSymbolTable
0
BLOCK_RECORD
5
1F
100
AcDbSymbolTableRecord
100
AcDbBlockTableRecord
2
*Model_Space
340
0
70
0
0
BLOCK_RECORD
5
1B
100
AcDbSymbolTableRecord
100
AcDbBlockTableRecord
2
*Paper_Space
340
0
70
0
0
BLOCK_RECORD
5
23
100
AcDbSymbolTableRecord
100
AcDbBlockTableRecord
2
*Paper_Space0
340
0
70
0
0
BLOCK_RECORD
5
157
100
AcDbSymbolTableRecord
100
AcDbBlockTableRecord
2
*D1
340
0
70
0
0
BLOCK_RECORD
5
163
100
AcDbSymbolTableRecord
100
AcDbBlockTableRecord
2
_U0
340
0
70
0
0
BLOCK_RECORD
5
16F
100
AcDbSymbolTableRecord
100
AcDbBlockTableRecord
2
*D3
340
0
70
0
0
BLOCK_RECORD
5
17B
100
AcDbSymbolTableRecord
100
AcDbBlockTableRecord
2
_U1
340
0
70
0
0
BLOCK_RECORD
5
187
100
AcDbSymbolTableRecord
100
AcDbBlockTableRecord
2
*D5
340
0
70
0
0
BLOCK_RECORD
5
193
100
AcDbSymbolTableRecord
100
AcDbBlockTableRecord
2
_U2
340
0
70
0
0
BLOCK_RECORD
5
19F
100
AcDbSymbolTableRecord
100
AcDbBlockTableRecord
2
*D7
340
0
70
0
0
BLOCK_RECORD
5
1AB
100
AcDbSymbolTableRecord
100
AcDbBlockTableRecord
2
_U3
340
0
70
0
0
ENDTAB
0
ENDSEC
0
SECTION
2
BLOCKS
0
BLOCK
5
20
100
AcDbEntity
8
0
100
AcDbBlockBegin
2
*Model_Space
70
0
10
0
20
0
30
0
3
*Model_Space
0
ENDBLK
5
21
100
AcDbEntity
8
0
100
AcDbBlockEnd
0
BLOCK
5
1C
100
AcDbEntity
8
0
100
AcDbBlockBegin
2
*Paper_Space
70
0
10
0
20
0
30
0
3
*Paper_Space
0
ENDBLK
5
1D
100
AcDbEntity
8
0
100
AcDbBlockEnd
0
BLOCK
5
24
100
AcDbEntity
8
0
100
AcDbBlockBegin
2
*Paper_Space0
70
0
10
0
20
0
30
0
3
*Paper_Space0
0
ENDBLK
5
25
100
AcDbEntity
8
0
100
AcDbBlockEnd
0
BLOCK
5
158
100
AcDbEntity
8
0
100
AcDbBlockBegin
2
*D1
70
1
10
0
20
0
30
0
3
*D1
0
LINE
5
15A
100
AcDbEntity
8
0
62
256
6
ByLayer
370
-2
48
1
60
0
100
AcDbLine
10
-56
20
-14.2875
30
0
11
-56
21
-47.952229
31
0
39
0
210
0
220
0
230
1
0
LINE
5
15B
100
AcDbEntity
8
0
62
256
6
ByLayer
370
-2
48
1
60
0
100
AcDbLine
10
140.5
20
-1.5875
30
0
11
140.5
21
-47.952229
31
0
39
0
210
0
220
0
230
1
0
LINE
5
15C
100
AcDbEntity
8
0
62
256
6
ByLayer
370
-2
48
1
60
0
100
AcDbLine
10
-52.5
20
-45.952229
30
0
11
137
21
-45.952229
31
0
39
0
210
0
220
0
230
1
0
SOLID
5
15D
100
AcDbEntity
8
0
62
256
6
ByLayer
370
-1
48
1
60
0
100
AcDbTrace
10
-52.5
20
-45.368896
30
0
11
-52.5
21
-46.535563
31
0
12
-56
22
-45.952229
32
0
13
-56
23
-45.952229
33
0
39
0
210
0
220
0
230
1
0
SOLID
5
15E
100
AcDbEntity
8
0
62
256
6
ByLayer
370
-1
48
1
60
0
100
AcDbTrace
10
137
20
-46.535563
30
0
11
137
21
-45.368896
31
0
12
140.5
22
-45.952229
32
0
13
140.5
23
-45.952229
33
0
39
0
210
0
220
0
230
1
0
MTEXT
5
15F
100
AcDbEntity
8
0
62
256
6
ByLayer
370
18
48
1
60
0
100
AcDbMText
10
42.25
20
-39.952229
30
0
210
0
220
0
230
1
1
\A1;196.5
40
3
41
0
44
1
50
0
71
5
72
5
7
iso_b_vert
0
POINT
5
160
100
AcDbEntity
8
Defpoints
62
0
6
ByLayer
370
-1
48
1
60
0
100
AcDbPoint
10
-56
20
-12.7
30
0
39
0
210
0
220
0
230
1
50
360
0
POINT
5
161
100
AcDbEntity
8
Defpoints
62
0
6
ByLayer
370
-1
48
1
60
0
100
AcDbPoint
10
140.5
20
0
30
0
39
0
210
0
220
0
230
1
50
360
0
POINT
5
162
100
AcDbEntity
8
Defpoints
62
0
6
ByLayer
370
-1
48
1
60
0
100
AcDbPoint
10
140.5
20
-45.952229
30
0
39
0
210
0
220
0
230
1
50
360
0
ENDBLK
5
159
100
AcDbEntity
8
0
100
AcDbBlockEnd
0
BLOCK
5
16A
100
AcDbEntity
8
0
100
AcDbBlockBegin
2
_U0
70
0
10
0
20
0
30
0
3
_U0
0
MTEXT
5
164
100
AcDbEntity
8
SK2
62
256
6
ByLayer
370
18
48
1
60
0
100
AcDbMText
10
37.021658
20
-45.067115
30
0
210
0
220
0
230
1
1
\W0.7022;196.50
40
3
41
0
44
1.084337
50
0
71
7
72
5
7
iso_b_vert
0
LINE
5
165
100
AcDbEntity
8
SK2
62
256
6
ByLayer
370
13
48
1
60
0
100
AcDbLine
10
-56
20
-14.2875
30
0
11
-56
21
-47.952229
31
0
39
0
210
0
220
0
230
1
0
LINE
5
166
100
AcDbEntity
8
SK2
62
256
6
ByLayer
370
13
48
1
60
0
100
AcDbLine
10
140.5
20
-1.5875
30
0
11
140.5
21
-47.952229
31
0
39
0
210
0
220
0
230
1
0
LINE
5
167
100
AcDbEntity
8
SK2
62
256
6
ByLayer
370
13
48
1
60
0
100
AcDbLine
10
-56
20
-45.952229
30
0
11
140.5
21
-45.952229
31
0
39
0
210
0
220
0
230
1
0
SOLID
5
168
100
AcDbEntity
8
SK2
62
256
6
ByLayer
370
18
48
1
60
0
100
AcDbTrace
10
-56
20
-45.952229
30
0
11
-52.500002
21
-45.491446
31
0
12
-52.499998
22
-46.413013
32
0
13
-52.499998
23
-46.413013
33
0
39
0
210
0
220
0
230
1
0
SOLID
5
169
100
AcDbEntity
8
SK2
62
256
6
ByLayer
370
18
48
1
60
0
100
AcDbTrace
10
140.5
20
-45.952229
30
0
11
137.000002
21
-46.413013
31
0
12
136.999998
22
-45.491446
32
0
13
136.999998
23
-45.491446
33
0
39
0
210
0
220
0
230
1
0
ENDBLK
5
16B
100
AcDbEntity
8
0
100
AcDbBlockEnd
0
BLOCK
5
170
100
AcDbEntity
8
0
100
AcDbBlockBegin
2
*D3
70
1
10
0
20
0
30
0
3
*D3
0
LINE
5
172
100
AcDbEntity
8
0
62
256
6
ByLayer
370
-2
48
1
60
0
100
AcDbLine
10
140.5
20
-1.5875
30
0
11
140.5
21
-37.952229
31
0
39
0
210
0
220
0
230
1
0
LINE
5
173
100
AcDbEntity
8
0
62
256
6
ByLayer
370
-2
48
1
60
0
100
AcDbLine
10
3
20
-11.708
30
0
11
3
21
-37.952229
31
0
39
0
210
0
220
0
230
1
0
LINE
5
174
100
AcDbEntity
8
0
62
256
6
ByLayer
370
-2
48
1
60
0
100
AcDbLine
10
137
20
-35.952229
30
0
11
6.5
21
-35.952229
31
0
39
0
210
0
220
0
230
1
0
SOLID
5
175
100
AcDbEntity
8
0
62
256
6
ByLayer
370
-1
48
1
60
0
100
AcDbTrace
10
137
20
-36.535563
30
0
11
137
21
-35.368896
31
0
12
140.5
22
-35.952229
32
0
13
140.5
23
-35.952229
33
0
39
0
210
0
220
0
230
1
0
SOLID
5
176
100
AcDbEntity
8
0
62
256
6
ByLayer
370
-1
48
1
60
0
100
AcDbTrace
10
6.5
20
-35.368896
30
0
11
6.5
21
-36.535563
31
0
12
3
22
-35.952229
32
0
13
3
23
-35.952229
33
0
39
0
210
0
220
0
230
1
0
MTEXT
5
177
100
AcDbEntity
8
0
62
256
6
ByLayer
370
18
48
1
60
0
100
AcDbMText
10
71.75
20
-29.952229
30
0
210
0
220
0
230
1
1
\A1;137.5
40
3
41
0
44
1
50
0
71
5
72
5
7
iso_b_vert
0
POINT
5
178
100
AcDbEntity
8
Defpoints
62
0
6
ByLayer
370
-1
48
1
60
0
100
AcDbPoint
10
140.5
20
0
30
0
39
0
210
0
220
0
230
1
50
360
0
POINT
5
179
100
AcDbEntity
8
Defpoints
62
0
6
ByLayer
370
-1
48
1
60
0
100
AcDbPoint
10
3
20
-10.1205
30
0
39
0
210
0
220
0
230
1
50
360
0
POINT
5
17A
100
AcDbEntity
8
Defpoints
62
0
6
ByLayer
370
-1
48
1
60
0
100
AcDbPoint
10
3
20
-35.952229
30
0
39
0
210
0
220
0
230
1
50
360
0
ENDBLK
5
171
100
AcDbEntity
8
0
100
AcDbBlockEnd
0
BLOCK
5
182
100
AcDbEntity
8
0
100
AcDbBlockBegin
2
_U1
70
0
10
0
20
0
30
0
3
_U1
0
MTEXT
5
17C
100
AcDbEntity
8
SK2
62
256
6
ByLayer
370
18
48
1
60
0
100
AcDbMText
10
66.521658
20
-35.067115
30
0
210
0
220
0
230
1
1
\W0.7022;137.50
40
3
41
0
44
1.084337
50
0
71
7
72
5
7
iso_b_vert
0
LINE
5
17D
100
AcDbEntity
8
SK2
62
256
6
ByLayer
370
13
48
1
60
0
100
AcDbLine
10
140.5
20
-1.5875
30
0
11
140.5
21
-37.952229
31
0
39
0
210
0
220
0
230
1
0
LINE
5
17E
100
AcDbEntity
8
SK2
62
256
6
ByLayer
370
13
48
1
60
0
100
AcDbLine
10
3
20
-11.708
30
0
11
3
21
-37.952229
31
0
39
0
210
0
220
0
230
1
0
LINE
5
17F
100
AcDbEntity
8
SK2
62
256
6
ByLayer
370
13
48
1
60
0
100
AcDbLine
10
140.5
20
-35.952229
30
0
11
3
21
-35.952229
31
0
39
0
210
0
220
0
230
1
0
SOLID
5
180
100
AcDbEntity
8
SK2
62
256
6
ByLayer
370
18
48
1
60
0
100
AcDbTrace
10
140.5
20
-35.952229
30
0
11
137.000002
21
-36.413013
31
0
12
136.999998
22
-35.491446
32
0
13
136.999998
23
-35.491446
33
0
39
0
210
0
220
0
230
1
0
SOLID
5
181
100
AcDbEntity
8
SK2
62
256
6
ByLayer
370
18
48
1
60
0
100
AcDbTrace
10
3
20
-35.952229
30
0
11
6.499998
21
-35.491446
31
0
12
6.500002
22
-36.413013
32
0
13
6.500002
23
-36.413013
33
0
39
0
210
0
220
0
230
1
0
ENDBLK
5
183
100
AcDbEntity
8
0
100
AcDbBlockEnd
0
BLOCK
5
188
100
AcDbEntity
8
0
100
AcDbBlockBegin
2
*D5
70
1
10
0
20
0
30
0
3
*D5
0
LINE
5
18A
100
AcDbEntity
8
0
62
256
6
ByLayer
370
-2
48
1
60
0
100
AcDbLine
10
-56
20
-14.2875
30
0
11
-56
21
-37.952229
31
0
39
0
210
0
220
0
230
1
0
LINE
5
18B
100
AcDbEntity
8
0
62
256
6
ByLayer
370
-2
48
1
60
0
100
AcDbLine
10
0
20
-14.2875
30
0
11
0
21
-37.952229
31
0
39
0
210
0
220
0
230
1
0
LINE
5
18C
100
AcDbEntity
8
0
62
256
6
ByLayer
370
-2
48
1
60
0
100
AcDbLine
10
-52.5
20
-35.952229
30
0
11
-3.5
21
-35.952229
31
0
39
0
210
0
220
0
230
1
0
SOLID
5
18D
100
AcDbEntity
8
0
62
256
6
ByLayer
370
-1
48
1
60
0
100
AcDbTrace
10
-52.5
20
-35.368896
30
0
11
-52.5
21
-36.535563
31
0
12
-56
22
-35.952229
32
0
13
-56
23
-35.952229
33
0
39
0
210
0
220
0
230
1
0
SOLID
5
18E
100
AcDbEntity
8
0
62
256
6
ByLayer
370
-1
48
1
60
0
100
AcDbTrace
10
-3.5
20
-36.535563
30
0
11
-3.5
21
-35.368896
31
0
12
0
22
-35.952229
32
0
13
0
23
-35.952229
33
0
39
0
210
0
220
0
230
1
0
MTEXT
5
18F
100
AcDbEntity
8
0
62
256
6
ByLayer
370
18
48
1
60
0
100
AcDbMText
10
-28
20
-29.952229
30
0
210
0
220
0
230
1
1
\A1;56
40
3
41
0
44
1
50
0
71
5
72
5
7
iso_b_vert
0
POINT
5
190
100
AcDbEntity
8
Defpoints
62
0
6
ByLayer
370
-1
48
1
60
0
100
AcDbPoint
10
-56
20
-12.7
30
0
39
0
210
0
220
0
230
1
50
360
0
POINT
5
191
100
AcDbEntity
8
Defpoints
62
0
6
ByLayer
370
-1
48
1
60
0
100
AcDbPoint
10
0
20
-12.7
30
0
39
0
210
0
220
0
230
1
50
360
0
POINT
5
192
100
AcDbEntity
8
Defpoints
62
0
6
ByLayer
370
-1
48
1
60
0
100
AcDbPoint
10
0
20
-35.952229
30
0
39
0
210
0
220
0
230
1
50
360
0
ENDBLK
5
189
100
AcDbEntity
8
0
100
AcDbBlockEnd
0
BLOCK
5
19A
100
AcDbEntity
8
0
100
AcDbBlockBegin
2
_U2
70
0
10
0
20
0
30
0
3
_U2
0
MTEXT
5
194
100
AcDbEntity
8
SK2
62
256
6
ByLayer
370
18
48
1
60
0
100
AcDbMText
10
-32.48237
20
-35.067115
30
0
210
0
220
0
230
1
1
\W0.7468;56.00
40
3
41
0
44
1.084337
50
0
71
7
72
5
7
iso_b_vert
0
LINE
5
195
100
AcDbEntity
8
SK2
62
256
6
ByLayer
370
13
48
1
60
0
100
AcDbLine
10
-56
20
-14.2875
30
0
11
-56
21
-37.952229
31
0
39
0
210
0
220
0
230
1
0
LINE
5
196
100
AcDbEntity
8
SK2
62
256
6
ByLayer
370
13
48
1
60
0
100
AcDbLine
10
0
20
-14.2875
30
0
11
0
21
-37.952229
31
0
39
0
210
0
220
0
230
1
0
LINE
5
197
100
AcDbEntity
8
SK2
62
256
6
ByLayer
370
13
48
1
60
0
100
AcDbLine
10
-56
20
-35.952229
30
0
11
0
21
-35.952229
31
0
39
0
210
0
220
0
230
1
0
SOLID
5
198
100
AcDbEntity
8
SK2
62
256
6
ByLayer
370
18
48
1
60
0
100
AcDbTrace
10
-56
20
-35.952229
30
0
11
-52.500002
21
-35.491446
31
0
12
-52.499998
22
-36.413013
32
0
13
-52.499998
23
-36.413013
33
0
39
0
210
0
220
0
230
1
0
SOLID
5
199
100
AcDbEntity
8
SK2
62
256
6
ByLayer
370
18
48
1
60
0
100
AcDbTrace
10
0
20
-35.952229
30
0
11
-3.499998
21
-36.413013
31
0
12
-3.500002
22
-35.491446
32
0
13
-3.500002
23
-35.491446
33
0
39
0
210
0
220
0
230
1
0
ENDBLK
5
19B
100
AcDbEntity
8
0
100
AcDbBlockEnd
0
BLOCK
5
1A0
100
AcDbEntity
8
0
100
AcDbBlockBegin
2
*D7
70
1
10
0
20
0
30
0
3
*D7
0
LINE
5
1A2
100
AcDbEntity
8
0
62
256
6
ByLayer
370
-2
48
1
60
0
100
AcDbLine
10
140.5
20
1.5875
30
0
11
140.5
21
34.952229
31
0
39
0
210
0
220
0
230
1
0
LINE
5
1A3
100
AcDbEntity
8
0
62
256
6
ByLayer
370
-2
48
1
60
0
100
AcDbLine
10
26
20
11.708
30
0
11
26
21
34.952229
31
0
39
0
210
0
220
0
230
1
0
LINE
5
1A4
100
AcDbEntity
8
0
62
256
6
ByLayer
370
-2
48
1
60
0
100
AcDbLine
10
137
20
32.952229
30
0
11
29.5
21
32.952229
31
0
39
0
210
0
220
0
230
1
0
SOLID
5
1A5
100
AcDbEntity
8
0
62
256
6
ByLayer
370
-1
48
1
60
0
100
AcDbTrace
10
137
20
32.368896
30
0
11
137
21
33.535563
31
0
12
140.5
22
32.952229
32
0
13
140.5
23
32.952229
33
0
39
0
210
0
220
0
230
1
0
SOLID
5
1A6
100
AcDbEntity
8
0
62
256
6
ByLayer
370
-1
48
1
60
0
100
AcDbTrace
10
29.5
20
33.535563
30
0
11
29.5
21
32.368896
31
0
12
26
22
32.952229
32
0
13
26
23
32.952229
33
0
39
0
210
0
220
0
230
1
0
MTEXT
5
1A7
100
AcDbEntity
8
0
62
256
6
ByLayer
370
18
48
1
60
0
100
AcDbMText
10
83.25
20
38.952229
30
0
210
0
220
0
230
1
1
\A1;114.5
40
3
41
0
44
1
50
0
71
5
72
5
7
iso_b_vert
0
POINT
5
1A8
100
AcDbEntity
8
Defpoints
62
0
6
ByLayer
370
-1
48
1
60
0
100
AcDbPoint
10
140.5
20
0
30
0
39
0
210
0
220
0
230
1
50
360
0
POINT
5
1A9
100
AcDbEntity
8
Defpoints
62
0
6
ByLayer
370
-1
48
1
60
0
100
AcDbPoint
10
26
20
10.1205
30
0
39
0
210
0
220
0
230
1
50
360
0
POINT
5
1AA
100
AcDbEntity
8
Defpoints
62
0
6
ByLayer
370
-1
48
1
60
0
100
AcDbPoint
10
26
20
32.952229
30
0
39
0
210
0
220
0
230
1
50
360
0
ENDBLK
5
1A1
100
AcDbEntity
8
0
100
AcDbBlockEnd
0
BLOCK
5
1B2
100
AcDbEntity
8
0
100
AcDbBlockBegin
2
_U3
70
0
10
0
20
0
30
0
3
_U3
0
MTEXT
5
1AC
100
AcDbEntity
8
SK2
62
256
6
ByLayer
370
18
48
1
60
0
100
AcDbMText
10
78.238658
20
33.837344
30
0
210
0
220
0
230
1
1
\W0.6746;114.50
40
3
41
0
44
1.084337
50
0
71
7
72
5
7
iso_b_vert
0
LINE
5
1AD
100
AcDbEntity
8
SK2
62
256
6
ByLayer
370
13
48
1
60
0
100
AcDbLine
10
140.5
20
1.5875
30
0
11
140.5
21
34.952229
31
0
39
0
210
0
220
0
230
1
0
LINE
5
1AE
100
AcDbEntity
8
SK2
62
256
6
ByLayer
370
13
48
1
60
0
100
AcDbLine
10
26
20
11.708
30
0
11
26
21
34.952229
31
0
39
0
210
0
220
0
230
1
0
LINE
5
1AF
100
AcDbEntity
8
SK2
62
256
6
ByLayer
370
13
48
1
60
0
100
AcDbLine
10
140.5
20
32.952229
30
0
11
26
21
32.952229
31
0
39
0
210
0
220
0
230
1
0
SOLID
5
1B0
100
AcDbEntity
8
SK2
62
256
6
ByLayer
370
18
48
1
60
0
100
AcDbTrace
10
140.5
20
32.952229
30
0
11
137.000002
21
32.491446
31
0
12
136.999998
22
33.413013
32
0
13
136.999998
23
33.413013
33
0
39
0
210
0
220
0
230
1
0
SOLID
5
1B1
100
AcDbEntity
8
SK2
62
256
6
ByLayer
370
18
48
1
60
0
100
AcDbTrace
10
26
20
32.952229
30
0
11
29.499998
21
33.413013
31
0
12
29.500002
22
32.491446
32
0
13
29.500002
23
32.491446
33
0
39
0
210
0
220
0
230
1
0
ENDBLK
5
1B3
100
AcDbEntity
8
0
100
AcDbBlockEnd
0
ENDSEC
0
SECTION
2
ENTITIES
0
ARC
5
C0
100
AcDbEntity
8
SK2
62
256
6
ByLayer
370
13
48
1
60
0
100
AcDbCircle
39
0
10
140.5
20
0
30
0
40
19
210
0
220
0
230
1
100
AcDbArc
50
290
51
70
0
ELLIPSE
5
C1
100
AcDbEntity
8
SK1
62
256
6
ByLayer
370
18
48
1
60
0
100
AcDbEllipse
10
-20.619083
20
0
30
0
11
13.6190826173124
21
-1.54317782980885E-14
31
0
210
0
220
0
230
1
40
0.932515
41
-0.624896586633934
42
0.624896586633934
0
ELLIPSE
5
C2
100
AcDbEntity
8
SK1
62
256
6
ByLayer
370
18
48
1
60
0
100
AcDbEllipse
10
-37.157058
20
0
30
0
11
-2.33287510403163E-15
21
-12.7
31
0
210
0
220
0
230
1
40
0.932515
41
-2.1956929134288
42
-0.945899740160989
0
POINT
5
70
100
AcDbEntity
8
80
62
256
6
ByLayer
370
18
48
1
60
0
100
AcDbPoint
10
0
20
0
30
0
39
0
210
0
220
0
230
1
50
360
0
POINT
5
72
100
AcDbEntity
8
81
62
256
6
ByLayer
370
18
48
1
60
0
100
AcDbPoint
10
140.5
20
0
30
0
39
0
210
0
220
0
230
1
50
360
0
POINT
5
74
100
AcDbEntity
8
1
62
256
6
ByLayer
370
18
48
1
60
1
100
AcDbPoint
10
-56
20
-12.7
30
0
39
0
210
0
220
0
230
1
50
360
0
POINT
5
76
100
AcDbEntity
8
1
62
256
6
ByLayer
370
18
48
1
60
1
100
AcDbPoint
10
140.5
20
0
30
0
39
0
210
0
220
0
230
1
50
360
0
POINT
5
77
100
AcDbEntity
8
1
62
256
6
ByLayer
370
18
48
1
60
1
100
AcDbPoint
10
140.5
20
0
30
0
39
0
210
0
220
0
230
1
50
360
0
POINT
5
78
100
AcDbEntity
8
1
62
256
6
ByLayer
370
18
48
1
60
1
100
AcDbPoint
10
3
20
-10.1205
30
0
39
0
210
0
220
0
230
1
50
360
0
POINT
5
79
100
AcDbEntity
8
1
62
256
6
ByLayer
370
18
48
1
60
1
100
AcDbPoint
10
-56
20
-12.7
30
0
39
0
210
0
220
0
230
1
50
360
0
POINT
5
7A
100
AcDbEntity
8
1
62
256
6
ByLayer
370
18
48
1
60
1
100
AcDbPoint
10
0
20
-12.7
30
0
39
0
210
0
220
0
230
1
50
360
0
POINT
5
7B
100
AcDbEntity
8
1
62
256
6
ByLayer
370
18
48
1
60
1
100
AcDbPoint
10
140.5
20
0
30
0
39
0
210
0
220
0
230
1
50
360
0
POINT
5
7C
100
AcDbEntity
8
1
62
256
6
ByLayer
370
18
48
1
60
1
100
AcDbPoint
10
26
20
10.1205
30
0
39
0
210
0
220
0
230
1
50
360
0
SPLINE
5
C3
100
AcDbEntity
8
1
62
256
6
ByLayer
370
18
48
1
60
0
100
AcDbSpline
70
4
71
3
72
14
73
10
40
0
40
0
40
0
40
0
40
0.25
40
0.25
40
0.5
40
0.5
40
0.75
40
0.75
40
1
40
1
40
1
40
1
41
1
10
13.9053014105228
20
8.73116202499935
30
0
41
1
10
13.5713810854248
20
8.78365871791837
30
0
41
1
10
13.2400932795406
20
8.83671842719258
30
0
41
1
10
12.5816910217184
20
8.94172898584952
30
0
41
1
10
12.254570905078
20
8.99368152413908
30
0
41
1
10
11.6039551320395
20
9.09495457362286
30
0
41
1
10
11.2804577364688
20
9.14428437301677
30
0
41
1
10
10.6372143870397
20
9.23934559731683
30
0
41
1
10
10.3174703259642
20
9.28509147750228
30
0
41
1
10
10
20
9.32864966910142
30
0
0
SPLINE
5
C4
100
AcDbEntity
8
1
62
256
6
ByLayer
370
18
48
1
60
0
100
AcDbSpline
70
4
71
3
72
24
73
20
40
0
40
0
40
0
40
0
40
0.124999999999998
40
0.124999999999998
40
0.187500000000001
40
0.187500000000001
40
0.250000000000004
40
0.250000000000004
40
0.5
40
0.5
40
0.624999999999998
40
0.624999999999998
40
0.687500000000001
40
0.687500000000001
40
0.750000000000004
40
0.750000000000004
40
0.875000000000002
40
0.875000000000002
40
1
40
1
40
1
40
1
41
1
10
136.816439244112
20
-1.44598754218398
30
0
41
1
10
136.381791991482
20
-1.28947834324344
30
0
41
1
10
135.947485831344
20
-1.13218740528913
30
0
41
1
10
135.296546049179
20
-0.89505995732074
30
0
41
1
10
135.079609805248
20
-0.815938190414329
30
0
41
1
10
134.645688811837
20
-0.657912689565507
30
0
41
1
10
134.428722801093
20
-0.578956893977818
30
0
41
1
10
133.343877366194
20
-0.18442715973589
30
0
41
1
10
132.47595224263
20
0.13040227442454
30
0
41
1
10
131.174254645054
20
0.602193913211266
30
0
41
1
10
130.740387926392
20
0.759384204896122
30
0
41
1
10
130.089685264443
20
0.995191465167636
30
0
41
1
10
129.87280052962
20
1.07379726375837
30
0
41
1
10
129.439071166429
20
1.23103644243608
30
0
41
1
10
129.222237925086
20
1.30970111543417
30
0
41
1
10
128.571722445432
20
1.54552659998421
30
0
41
1
10
128.13778496532
20
1.70186073735391
30
0
41
1
10
127.2693036157
20
2.01253319087118
30
0
41
1
10
126.834781455443
20
2.16693117848632
30
0
41
1
10
126.400000000001
20
2.32045264877846
30
0
0
SPLINE
5
C5
100
AcDbEntity
8
1
62
256
6
ByLayer
370
18
48
1
60
0
100
AcDbSpline
70
4
71
3
72
88
73
84
40
0
40
0
40
0
40
0
40
0.0312500000000021
40
0.0312500000000021
40
0.0625000000000043
40
0.0625000000000043
40
0.125000000000007
40
0.125000000000007
40
0.140625000000007
40
0.140625000000007
40
0.148437500000007
40
0.148437500000007
40
0.156250000000007
40
0.187500000000006
40
0.218750000000006
40
0.218750000000006
40
0.250000000000006
40
0.250000000000006
40
0.281250000000006
40
0.281250000000006
40
0.296875000000006
40
0.296875000000006
40
0.312500000000007
40
0.312500000000007
40
0.343750000000008
40
0.343750000000008
40
0.37500000000001
40
0.37500000000001
40
0.406250000000011
40
0.406250000000011
40
0.437500000000013
40
0.437500000000013
40
0.453125000000013
40
0.453125000000013
40
0.468750000000014
40
0.468750000000014
40
0.500000000000015
40
0.500000000000015
40
0.531250000000017
40
0.531250000000017
40
0.539062500000017
40
0.539062500000017
40
0.546875000000017
40
0.562500000000018
40
0.562500000000018
40
0.593750000000018
40
0.593750000000018
40
0.625000000000018
40
0.625000000000018
40
0.632812500000018
40
0.632812500000018
40
0.640625000000018
40
0.656250000000018
40
0.656250000000018
40
0.687500000000018
40
0.687500000000018
40
0.718750000000018
40
0.718750000000018
40
0.726562500000018
40
0.726562500000018
40
0.734375000000018
40
0.734375000000018
40
0.750000000000017
40
0.750000000000017
40
0.781250000000016
40
0.781250000000016
40
0.812500000000014
40
0.812500000000014
40
0.843750000000013
40
0.843750000000013
40
0.851562500000013
40
0.851562500000013
40
0.859375000000013
40
0.875000000000011
40
0.875000000000011
40
0.906250000000008
40
0.937500000000005
40
0.968750000000002
40
0.968750000000002
40
0.976562500000002
40
0.976562500000002
40
0.984375000000002
40
1
40
1
40
1
40
1
41
1
10
136.816439244109
20
9.79913621630485
30
0
41
1
10
136.879639379486
20
9.64245150730292
30
0
41
1
10
136.942939139816
20
9.48341160040911
30
0
41
1
10
137.069845753859
20
9.16099121243118
30
0
41
1
10
137.133452498094
20
8.99760990199994
30
0
41
1
10
137.324847024036
20
8.50135483808901
30
0
41
1
10
137.453226564442
20
8.16240454528898
30
0
41
1
10
137.614819320839
20
7.72932033379871
30
0
41
1
10
137.647192390059
20
7.64223087370706
30
0
41
1
10
137.695831697473
20
7.51089344154923
30
0
41
1
10
137.712069287102
20
7.46696660867346
30
0
41
1
10
137.744513039144
20
7.37903438075401
30
0
41
1
10
137.825502808181
20
7.15911683283807
30
0
41
1
10
137.970221614031
20
6.76249459496702
30
0
41
1
10
138.097247098096
20
6.40883891063851
30
0
41
1
10
138.223319827566
20
6.05459053745807
30
0
41
1
10
138.285881261088
20
5.87717051213875
30
0
41
1
10
138.409781241412
20
5.52164836237407
30
0
41
1
10
138.471122284006
20
5.34354713246663
30
0
41
1
10
138.561877151399
20
5.0757650998892
30
0
41
1
10
138.591917671269
20
4.98639877277867
30
0
41
1
10
138.651494554768
20
4.80742563341158
30
0
41
1
10
138.681040122797
20
4.71778768202594
30
0
41
1
10
138.768343667717
20
4.44977568283718
30
0
41
1
10
138.824928797689
20
4.27187361674967
30
0
41
1
10
138.933852426284
20
3.91730156660947
30
0
41
1
10
138.986196501333
20
3.74063458155405
30
0
41
1
10
139.0850450881
20
3.3881746052962
30
0
41
1
10
139.131557931103
20
3.21238235149704
30
0
41
1
10
139.216351329667
20
2.86120246186462
30
0
41
1
10
139.254635680533
20
2.68581338945953
30
0
41
1
10
139.30333224679
20
2.42260182388554
30
0
41
1
10
139.318117015928
20
2.33468631511633
30
0
41
1
10
139.344017564005
20
2.16044794762851
30
0
41
1
10
139.355168694066
20
2.07395404707609
30
0
41
1
10
139.38268187105
20
1.8164218631249
30
0
41
1
10
139.393045181654
20
1.64732438903695
30
0
41
1
10
139.395886275285
20
1.31491611215586
30
0
41
1
10
139.388347899987
20
1.15160814128791
30
0
41
1
10
139.367819267653
20
0.951621146863886
30
0
41
1
10
139.363160943729
20
0.911811490695214
30
0
41
1
10
139.352777801525
20
0.832706583830429
30
0
41
1
10
139.33567035973
20
0.715314752411842
30
0
41
1
10
139.314230994815
20
0.601671994686598
30
0
41
1
10
139.266298773099
20
0.379261977538022
30
0
41
1
10
139.227633782929
20
0.237480207600328
30
0
41
1
10
139.140379758101
20
-0.0336188225943488
30
0
41
1
10
139.09179802867
20
-0.162939747988901
30
0
41
1
10
139.026485752657
20
-0.316925767365518
30
0
41
1
10
139.013184878939
20
-0.34735377023847
30
0
41
1
10
138.986179473709
20
-0.40737666063427
30
0
41
1
10
138.945165911331
20
-0.495939482218148
30
0
41
1
10
138.90279341708
20
-0.580175241278141
30
0
41
1
10
138.816566378294
20
-0.7430525655422
30
0
41
1
10
138.757125285386
20
-0.844194104879477
30
0
41
1
10
138.63548613721
20
-1.03209710282309
30
0
41
1
10
138.573279824567
20
-1.11885581652425
30
0
41
1
10
138.4941741356
20
-1.21833611483771
30
0
41
1
10
138.478284600874
20
-1.23778271664341
30
0
41
1
10
138.446374673439
20
-1.27577342181181
30
0
41
1
10
138.430338650938
20
-1.29433438802388
30
0
41
1
10
138.382233619751
20
-1.34844373472995
30
0
41
1
10
138.350126666467
20
-1.38247311023289
30
0
41
1
10
138.25374527344
20
-1.47857022082766
30
0
41
1
10
138.189415082641
20
-1.53465932161043
30
0
41
1
10
138.060719792606
20
-1.6312984924034
30
0
41
1
10
137.99635267877
20
-1.67184692463013
30
0
41
1
10
137.867563865281
20
-1.7374334322576
30
0
41
1
10
137.803141243144
20
-1.76247149182362
30
0
41
1
10
137.722511821858
20
-1.78387243351935
30
0
41
1
10
137.706364879189
20
-1.78765938112789
30
0
41
1
10
137.674193706079
20
-1.79420859350904
30
0
41
1
10
137.626085465837
20
-1.80250746292214
30
0
41
1
10
137.578406928982
20
-1.80628296737035
30
0
41
1
10
137.483580799232
20
-1.80790677006871
30
0
41
1
10
137.358561396973
20
-1.79428680923422
30
0
41
1
10
137.174617693865
20
-1.72737670368437
30
0
41
1
10
137.053946115099
20
-1.65173813091565
30
0
41
1
10
136.979002362992
20
-1.59455728418115
30
0
41
1
10
136.964040766491
20
-1.58262667802066
30
0
41
1
10
136.934244448023
20
-1.55783804459776
30
0
41
1
10
136.889709508727
20
-1.51924069788268
30
0
41
1
10
136.84563430592
20
-1.47641424112155
30
0
41
1
10
136.816439244109
20
-1.4459875421829
30
0
0
SPLINE
5
C6
100
AcDbEntity
8
1
62
256
6
ByLayer
370
18
48
1
60
0
100
AcDbSpline
70
4
71
3
72
16
73
12
40
0
40
0
40
0
40
0
40
0.258898989423267
40
0.258898989423267
40
0.444174242067445
40
0.444174242067445
40
0.536811868389539
40
0.536811868389539
40
0.629449494711633
40
0.629449494711633
40
1
40
1
40
1
40
1
41
1
10
129.789323629276
20
10.1192440522111
30
0
41
1
10
130.395855364403
20
10.1193613089521
30
0
41
1
10
131.002306149647
20
10.1123027716835
30
0
41
1
10
132.042371969237
20
10.0878704945624
30
0
41
1
10
132.476091421109
20
10.0739872132255
30
0
41
1
10
133.126443476704
20
10.0475152947777
30
0
41
1
10
133.343173323927
20
10.0377431129072
30
0
41
1
10
133.776637401832
20
10.0163229876036
30
0
41
1
10
133.993439303046
20
10.00470108671
30
0
41
1
10
135.077916926481
20
9.9421336985144
30
0
41
1
10
135.9467775684
20
9.87779771788743
30
0
41
1
10
136.816439244112
20
9.79913621630456
30
0
0
SPLINE
5
C7
100
AcDbEntity
8
1
62
256
6
ByLayer
370
18
48
1
60
0
100
AcDbSpline
70
4
71
3
72
46
73
42
40
0
40
0
40
0
40
0
40
0.0686907551460239
40
0.0686907551460239
40
0.137381510292048
40
0.137381510292048
40
0.206072265438072
40
0.206072265438072
40
0.240417643011084
40
0.240417643011084
40
0.274763020584097
40
0.274763020584097
40
0.343453775730124
40
0.343453775730124
40
0.412144530876151
40
0.412144530876151
40
0.480835286022178
40
0.480835286022178
40
0.51518066359519
40
0.51518066359519
40
0.532353352381696
40
0.532353352381696
40
0.549526041168203
40
0.549526041168203
40
0.618216796314231
40
0.618216796314231
40
0.68690755146026
40
0.68690755146026
40
0.755598306606288
40
0.755598306606288
40
0.772770995392795
40
0.772770995392795
40
0.789943684179303
40
0.789943684179303
40
0.824289061752316
40
0.824289061752316
40
0.892979816898345
40
0.892979816898345
40
0.961670572044373
40
0.961670572044373
40
1
40
1
40
1
40
1
41
1
10
18.276411048973
20
-6.148107916763
30
0
41
1
10
18.8400021043991
20
-6.30153780441421
30
0
41
1
10
19.4035984152741
20
-6.45000835921303
30
0
41
1
10
20.5305568756442
20
-6.73788647820959
30
0
41
1
10
21.0939181462792
20
-6.87729456693125
30
0
41
1
10
22.2201852999318
20
-7.1475996536463
30
0
41
1
10
22.7830893925381
20
-7.27849998107277
30
0
41
1
10
23.6269375346938
20
-7.46871186322286
30
0
41
1
10
23.9081365324659
20
-7.53108909466471
30
0
41
1
10
24.4703486791911
20
-7.65379394400404
30
0
41
1
10
24.7513059787241
20
-7.71421546118594
30
0
41
1
10
25.5945569658636
20
-7.89122401955044
30
0
41
1
10
26.1571575789225
20
-8.00371678295181
30
0
41
1
10
27.2828860373459
20
-8.21845674338365
30
0
41
1
10
27.8460238612197
20
-8.32068513858403
30
0
41
1
10
28.9726333781515
20
-8.51518944311476
30
0
41
1
10
29.5360988698967
20
-8.60747411982558
30
0
41
1
10
30.3813997982336
20
-8.73849689347597
30
0
41
1
10
30.663182780516
20
-8.78093657489413
30
0
41
1
10
31.0858813335613
20
-8.84271349097381
30
0
41
1
10
31.2267857651322
20
-8.86298276370556
30
0
41
1
10
31.5085767789331
20
-8.90273325515545
30
0
41
1
10
31.6494731310445
20
-8.92222708366324
30
0
41
1
10
32.3539455420354
20
-9.017823263097
30
0
41
1
10
32.9174857192808
20
-9.0883289999606
30
0
41
1
10
34.0442131343807
20
-9.21795637794369
30
0
41
1
10
34.6074107647097
20
-9.27706562837938
30
0
41
1
10
35.7332539694846
20
-9.38407861467988
30
0
41
1
10
36.2958931358715
20
-9.43198616655067
30
0
41
1
10
36.9987278525321
20
-9.48480835202486
30
0
41
1
10
37.1392717981782
20
-9.49501892480649
30
0
41
1
10
37.4203115819298
20
-9.51472797617285
30
0
41
1
10
37.5608056841787
20
-9.52422663497646
30
0
41
1
10
37.9823779779242
20
-9.55156281278778
30
0
41
1
10
38.2635396011812
20
-9.56824819704948
30
0
41
1
10
39.1072940989377
20
-9.6137922644609
30
0
41
1
10
39.6701469732923
20
-9.63815163228398
30
0
41
1
10
40.7963003435867
20
-9.67510445788821
30
0
41
1
10
41.3596078764291
20
-9.68769537598806
30
0
41
1
10
42.2374271214564
20
-9.69810098127834
30
0
41
1
10
42.5518553058414
20
-9.6999865243678
30
0
41
1
10
42.8663076399024
20
-9.70000180745845
30
0
0
SPLINE
5
C8
100
AcDbEntity
8
1
62
256
6
ByLayer
370
18
48
1
60
0
100
AcDbSpline
70
4
71
3
72
36
73
32
40
0
40
0
40
0
40
0
40
0.0019959990342778
40
0.0019959990342778
40
0.10179639913084
40
0.10179639913084
40
0.201596799227402
40
0.201596799227402
40
0.25149699927568
40
0.25149699927568
40
0.276447099299819
40
0.276447099299819
40
0.301397199323958
40
0.301397199323958
40
0.401197599420529
40
0.401197599420529
40
0.5009979995171
40
0.5009979995171
40
0.60079839961367
40
0.60079839961367
40
0.650698599661957
40
0.650698599661957
40
0.675648699686103
40
0.675648699686103
40
0.700598799710249
40
0.700598799710249
40
0.800399199806833
40
0.800399199806833
40
0.900199599903417
40
0.900199599903417
40
1
40
1
40
1
40
1
41
1
10
109.459233455266
20
7.1208771075722
30
0
41
1
10
109.470507749649
20
7.12354403758653
30
0
41
1
10
109.481782045667
20
7.12620904093831
30
0
41
1
10
110.05677368796
20
7.26202674313231
30
0
41
1
10
110.620491901727
20
7.39037982736653
30
0
41
1
10
111.747719225955
20
7.63796890557614
30
0
41
1
10
112.311225922741
20
7.75720947314235
30
0
41
1
10
113.15615910387
20
7.92944741012539
30
0
41
1
10
113.437749950983
20
7.98575277773836
30
0
41
1
10
113.860042098655
20
8.06854909673169
30
0
41
1
10
114.000789232369
20
8.09587275123391
30
0
41
1
10
114.282255663731
20
8.14995548806692
30
0
41
1
10
114.422980626321
20
8.17670505521178
30
0
41
1
10
115.126824947229
20
8.30859199430117
30
0
41
1
10
115.690466467283
20
8.40837910275465
30
0
41
1
10
116.818529843441
20
8.5972434375862
30
0
41
1
10
117.383093612621
20
8.68632057952965
30
0
41
1
10
118.511238778182
20
8.85379492205143
30
0
41
1
10
119.074985610239
20
8.93223049950251
30
0
41
1
10
119.919963123461
20
9.04198900647972
30
0
41
1
10
120.201516098686
20
9.07725621557574
30
0
41
1
10
120.623673216538
20
9.12816202519664
30
0
41
1
10
120.764363290813
20
9.14479745346125
30
0
41
1
10
121.045798034046
20
9.17729397611598
30
0
41
1
10
121.186539429056
20
9.19315900484628
30
0
41
1
10
121.890351638245
20
9.27059774965122
30
0
41
1
10
122.45372993526
20
9.32653243696166
30
0
41
1
10
123.580840967572
20
9.4268375640568
30
0
41
1
10
124.144584553412
20
9.47119768485786
30
0
41
1
10
125.27222733969
20
9.54845199018604
30
0
41
1
10
125.836119987431
20
9.58134895213038
30
0
41
1
10
126.4
20
9.60842581749196
30
0
0
SPLINE
5
C9
100
AcDbEntity
8
1
62
256
6
ByLayer
370
18
48
1
60
0
100
AcDbSpline
70
4
71
3
72
70
73
66
40
0
40
0
40
0
40
0
40
0.0466526714742243
40
0.0466526714742243
40
0.0933053429484486
40
0.0933053429484486
40
0.104968510817004
40
0.104968510817004
40
0.11663167868556
40
0.139958014422671
40
0.139958014422671
40
0.186610685896891
40
0.186610685896891
40
0.233263357371112
40
0.233263357371112
40
0.256589693108223
40
0.256589693108223
40
0.279916028845334
40
0.279916028845334
40
0.326568700319556
40
0.326568700319556
40
0.349895036056666
40
0.349895036056666
40
0.373221371793776
40
0.373221371793776
40
0.419874043267995
40
0.419874043267995
40
0.431537211136548
40
0.431537211136548
40
0.443200379005101
40
0.443200379005101
40
0.466526714742207
40
0.466526714742207
40
0.513179386216418
40
0.513179386216418
40
0.559832057690628
40
0.559832057690628
40
0.606484729164839
40
0.606484729164839
40
0.618147897033391
40
0.618147897033391
40
0.629811064901943
40
0.653137400639045
40
0.676463736376148
40
0.676463736376148
40
0.69979007211325
40
0.69979007211325
40
0.746442743587452
40
0.746442743587452
40
0.769769079324554
40
0.769769079324554
40
0.793095415061655
40
0.793095415061655
40
0.83974808653586
40
0.83974808653586
40
0.886400758010064
40
0.886400758010064
40
0.933053429484269
40
0.933053429484269
40
0.94471659735282
40
0.94471659735282
40
0.956379765221372
40
0.956379765221372
40
0.979706100958477
40
1
40
1
40
1
40
1
41
1
10
126.4
20
2.07878710334342
30
0
41
1
10
125.812855950456
20
2.27830311388169
30
0
41
1
10
125.226109045836
20
2.47611729427848
30
0
41
1
10
124.053503631062
20
2.86862027151974
30
0
41
1
10
123.46764789999
20
3.06331736790239
30
0
41
1
10
122.735973186707
20
3.30493118352908
30
0
41
1
10
122.589672295244
20
3.35317044440674
30
0
41
1
10
122.297051474898
20
3.44924431338484
30
0
41
1
10
121.85809918634
20
3.59276930702407
30
0
41
1
10
121.419086986135
20
3.73455606164137
30
0
41
1
10
120.540997925711
20
4.01587248625654
30
0
41
1
10
119.95551905523
20
4.20041042589139
30
0
41
1
10
118.784479447338
20
4.56374977899614
30
0
41
1
10
118.198915854291
20
4.74254418494905
30
0
41
1
10
117.32059156732
20
5.00660589467347
30
0
41
1
10
117.027820582769
20
5.09393800554142
30
0
41
1
10
116.442301801601
20
5.26724868233555
30
0
41
1
10
116.149591176695
20
5.35331573653252
30
0
41
1
10
115.270952930538
20
5.60815296435737
30
0
41
1
10
114.684622596555
20
5.77382517974536
30
0
41
1
10
113.804338618618
20
6.0162218646831
30
0
41
1
10
113.51071210384
20
6.09601908962176
30
0
41
1
10
112.923748250773
20
6.25345832160068
30
0
41
1
10
112.630368067821
20
6.3311126251694
30
0
41
1
10
111.750548922098
20
6.56092012014341
30
0
41
1
10
111.16443103137
20
6.70992361232865
30
0
41
1
10
110.432402441004
20
6.89103705238296
30
0
41
1
10
110.286027694768
20
6.92700228108046
30
0
41
1
10
109.993342469694
20
6.99841912709977
30
0
41
1
10
109.847037196541
20
7.03388078174461
30
0
41
1
10
109.408112683588
20
7.13928207039947
30
0
41
1
10
109.115467734777
20
7.20820650101945
30
0
41
1
10
108.237458212839
20
7.41101660674943
30
0
41
1
10
107.652019679911
20
7.54094599615146
30
0
41
1
10
106.48103293396
20
7.79052891426471
30
0
41
1
10
105.895484033244
20
7.91018145346189
30
0
41
1
10
104.724374609674
20
8.13933372926144
30
0
41
1
10
104.13882969347
20
8.24885793110721
30
0
41
1
10
103.406939919513
20
8.37935995306347
30
0
41
1
10
103.260551776982
20
8.40512122236444
30
0
41
1
10
102.967689058026
20
8.45587031755548
30
0
41
1
10
102.528287774086
20
8.53086731317001
30
0
41
1
10
101.795424557301
20
8.65026576186045
30
0
41
1
10
101.2085950726
20
8.73988185683396
30
0
41
1
10
100.621507395502
20
8.826568047423
30
0
41
1
10
100.327972427303
20
8.86842554975556
30
0
41
1
10
99.4478021883881
20
8.98951850283001
30
0
41
1
10
98.8614342887863
20
9.06430242900313
30
0
41
1
10
97.982593477587
20
9.16760665019601
30
0
41
1
10
97.6897652849516
20
9.20056116618684
30
0
41
1
10
97.1043643031055
20
9.26349675443777
30
0
41
1
10
96.8117961018992
20
9.29347550669542
30
0
41
1
10
95.9338766259533
20
9.3784433592283
30
0
41
1
10
95.3484863930141
20
9.42863709274627
30
0
41
1
10
94.1775688841323
20
9.51638254102619
30
0
41
1
10
93.5920421275883
20
9.55393462715296
30
0
41
1
10
92.4209442623329
20
9.61644861881328
30
0
41
1
10
91.8353740530027
20
9.64141219344387
30
0
41
1
10
91.1034627485698
20
9.66464669049384
30
0
41
1
10
90.957084076563
20
9.66889470402657
30
0
41
1
10
90.6643293431322
20
9.67658650895243
30
0
41
1
10
90.5179490912288
20
9.68002880904334
30
0
41
1
10
90.0786801638852
20
9.68912294270092
30
0
41
1
10
89.5307897578969
20
9.69740075800411
30
0
41
1
10
88.982415676293
20
9.70000865372236
30
0
41
1
10
88.7271890871052
20
9.6999999765884
30
0
0
SPLINE
5
CA
100
AcDbEntity
8
1
62
256
6
ByLayer
370
18
48
1
60
0
100
AcDbSpline
70
4
71
3
72
20
73
16
40
0
40
0
40
0
40
0
40
0.14438501173247
40
0.14438501173247
40
0.197860948499191
40
0.197860948499191
40
0.25133688526591
40
0.25133688526591
40
0.35828875879935
40
0.35828875879935
40
0.572192505866234
40
0.572192505866234
40
0.786096252933117
40
0.786096252933117
40
1
40
1
40
1
40
1
41
1
10
22.1229215435724
20
-7.12111583891661
30
0
41
1
10
21.7274073825439
20
-7.21465342642153
30
0
41
1
10
21.3320322458772
20
-7.30613462079529
30
0
41
1
10
20.7904404234107
20
-7.42870735889187
30
0
41
1
10
20.6440861511651
20
-7.46155538536621
30
0
41
1
10
20.3514236482041
20
-7.52669231047301
30
0
41
1
10
20.2051175326697
20
-7.55898454837703
30
0
41
1
10
19.766143561458
20
-7.65479445748772
30
0
41
1
10
19.473428424386
20
-7.71726279815431
30
0
41
1
10
18.5950996910482
20
-7.90051822726227
30
0
41
1
10
18.0093050956337
20
-8.01716493629618
30
0
41
1
10
16.8373107351159
20
-8.23963762129279
30
0
41
1
10
16.2511088531434
20
-8.34546092304615
30
0
41
1
10
15.0783974458408
20
-8.54637131373894
30
0
41
1
10
14.4918886968733
20
-8.64146123546402
30
0
41
1
10
13.9053014105227
20
-8.73116202499929
30
0
0
SPLINE
5
CB
100
AcDbEntity
8
1
62
256
6
ByLayer
370
18
48
1
60
0
100
AcDbSpline
70
4
71
3
72
14
73
10
40
0
40
0
40
0
40
0
40
0.19211372871973
40
0.19211372871973
40
0.38422745743946
40
0.38422745743946
40
0.768454914878941
40
0.768454914878941
40
1
40
1
40
1
40
1
41
1
10
126.4
20
-10.0432608436195
30
0
41
1
10
126.617221897786
20
-10.0529672085014
30
0
41
1
10
126.834332569042
20
-10.0617632534831
30
0
41
1
10
127.268365792746
20
-10.0775066516716
30
0
41
1
10
127.485343709509
20
-10.0844374113492
30
0
41
1
10
128.136398941073
20
-10.1023806326667
30
0
41
1
10
128.570497627172
20
-10.1105770200702
30
0
41
1
10
129.26616871261
20
-10.1178083556038
30
0
41
1
10
129.527753662697
20
-10.1191934843878
30
0
41
1
10
129.789323557649
20
-10.1192440521973
30
0
0
SPLINE
5
CC
100
AcDbEntity
8
1
62
256
6
ByLayer
370
18
48
1
60
0
100
AcDbSpline
70
4
71
3
72
184
73
180
40
0
40
0
40
0
40
0
40
0.0117296336747212
40
0.0117296336747212
40
0.0198302104478811
40
0.0198302104478811
40
0.027930787221041
40
0.027930787221041
40
0.0441319407673607
40
0.0441319407673607
40
0.0603330943136805
40
0.0603330943136805
40
0.0765342478600003
40
0.0765342478600003
40
0.0846348246331604
40
0.0846348246331604
40
0.0886851130197404
40
0.0886851130197404
40
0.0927354014063204
40
0.0927354014063204
40
0.10893655495264
40
0.10893655495264
40
0.125137708498959
40
0.125137708498959
40
0.141338862045278
40
0.141338862045278
40
0.145389150431857
40
0.145389150431857
40
0.149439438818437
40
0.149439438818437
40
0.157540015591597
40
0.157540015591597
40
0.173741169137916
40
0.173741169137916
40
0.189942322684235
40
0.189942322684235
40
0.206143476230554
40
0.206143476230554
40
0.210193764617134
40
0.210193764617134
40
0.214244053003713
40
0.214244053003713
40
0.222344629776873
40
0.222344629776873
40
0.238545783323192
40
0.238545783323192
40
0.25474693686951
40
0.25474693686951
40
0.26284751364267
40
0.266897802029249
40
0.266897802029249
40
0.270948090415829
40
0.270948090415829
40
0.287149243962147
40
0.287149243962147
40
0.303350397508464
40
0.303350397508464
40
0.319551551054782
40
0.319551551054782
40
0.327652127827941
40
0.327652127827941
40
0.3357527046011
40
0.3357527046011
40
0.351953858147417
40
0.351953858147417
40
0.368155011693734
40
0.368155011693734
40
0.384356165240052
40
0.384356165240052
40
0.39245674201321
40
0.39245674201321
40
0.39650703039979
40
0.39650703039979
40
0.400557318786369
40
0.400557318786369
40
0.416758472332688
40
0.416758472332688
40
0.432959625879006
40
0.432959625879006
40
0.449160779425325
40
0.449160779425325
40
0.453211067811905
40
0.453211067811905
40
0.457261356198485
40
0.457261356198485
40
0.465361932971643
40
0.465361932971643
40
0.48156308651796
40
0.48156308651796
40
0.497764240064278
40
0.497764240064278
40
0.513965393610595
40
0.513965393610595
40
0.518015681997174
40
0.518015681997174
40
0.522065970383753
40
0.530166547156911
40
0.530166547156911
40
0.546367700703226
40
0.546367700703226
40
0.562568854249543
40
0.562568854249543
40
0.5706694310227
40
0.574719719409279
40
0.574719719409279
40
0.578770007795858
40
0.578770007795858
40
0.594971161342172
40
0.594971161342172
40
0.611172314888485
40
0.611172314888485
40
0.627373468434799
40
0.627373468434799
40
0.635474045207956
40
0.635474045207956
40
0.639524333594534
40
0.639524333594534
40
0.643574621981112
40
0.643574621981112
40
0.659775775527427
40
0.659775775527427
40
0.675976929073741
40
0.675976929073741
40
0.692178082620056
40
0.692178082620056
40
0.696228371006634
40
0.696228371006634
40
0.700278659393213
40
0.700278659393213
40
0.708379236166369
40
0.708379236166369
40
0.724580389712683
40
0.724580389712683
40
0.740781543258997
40
0.740781543258997
40
0.756982696805311
40
0.756982696805311
40
0.765083273578467
40
0.765083273578467
40
0.773183850351624
40
0.773183850351624
40
0.789385003897936
40
0.789385003897936
40
0.805586157444248
40
0.805586157444248
40
0.821787310990561
40
0.821787310990561
40
0.825837599377139
40
0.825837599377139
40
0.829887887763717
40
0.837988464536873
40
0.837988464536873
40
0.854189618083186
40
0.854189618083186
40
0.870390771629498
40
0.870390771629498
40
0.878491348402654
40
0.878491348402654
40
0.882541636789232
40
0.882541636789232
40
0.88659192517581
40
0.88659192517581
40
0.902793078722122
40
0.902793078722122
40
0.918994232268434
40
0.918994232268434
40
0.935195385814746
40
0.935195385814746
40
0.943295962587902
40
0.943295962587902
40
0.94734625097448
40
0.94734625097448
40
0.951396539361059
40
0.951396539361059
40
0.967597692907372
40
0.967597692907372
40
0.983798846453686
40
0.983798846453686
40
1
40
1
40
1
40
1
41
1
10
22.123271741307
20
7.12338506243711
30
0
41
1
10
22.5308826646609
20
7.21954491518161
30
0
41
1
10
22.9383575025309
20
7.31349897907279
30
0
41
1
10
23.6269375346938
20
7.46871186322289
30
0
41
1
10
23.9081365324659
20
7.53108909466474
30
0
41
1
10
24.4703486791912
20
7.65379394400407
30
0
41
1
10
24.7513059787241
20
7.71421546118597
30
0
41
1
10
25.5945569658636
20
7.89122401955044
30
0
41
1
10
26.1571575789225
20
8.00371678295184
30
0
41
1
10
27.282886037346
20
8.21845674338365
30
0
41
1
10
27.8460238612198
20
8.32068513858405
30
0
41
1
10
28.9726333781516
20
8.51518944311479
30
0
41
1
10
29.5360988698967
20
8.60747411982558
30
0
41
1
10
30.3813997982337
20
8.73849689347597
30
0
41
1
10
30.663182780516
20
8.78093657489413
30
0
41
1
10
31.0858813335613
20
8.84271349097384
30
0
41
1
10
31.2267857651323
20
8.86298276370556
30
0
41
1
10
31.5085767789332
20
8.90273325515545
30
0
41
1
10
31.6494731310445
20
8.92222708366327
30
0
41
1
10
32.3539455420353
20
9.017823263097
30
0
41
1
10
32.9174857192808
20
9.0883289999606
30
0
41
1
10
34.0442131343808
20
9.21795637794372
30
0
41
1
10
34.6074107647097
20
9.27706562837938
30
0
41
1
10
35.7332539694846
20
9.38407861467988
30
0
41
1
10
36.2958931358716
20
9.43198616655067
30
0
41
1
10
36.9987278525322
20
9.48480835202486
30
0
41
1
10
37.1392717981782
20
9.49501892480646
30
0
41
1
10
37.4203115819298
20
9.51472797617285
30
0
41
1
10
37.5608056841787
20
9.52422663497646
30
0
41
1
10
37.9823779779243
20
9.55156281278778
30
0
41
1
10
38.2635396011813
20
9.56824819704951
30
0
41
1
10
39.1072940989376
20
9.6137922644609
30
0
41
1
10
39.6701469732922
20
9.63815163228398
30
0
41
1
10
40.7963003435866
20
9.67510445788824
30
0
41
1
10
41.3596078764291
20
9.68769537598806
30
0
41
1
10
42.4864619907669
20
9.70105302245111
30
0
41
1
10
43.050004657164
20
9.70181838022665
30
0
41
1
10
43.7544922681065
20
9.69517445034145
30
0
41
1
10
43.8954028665332
20
9.69346344695913
30
0
41
1
10
44.1771914537537
20
9.68928732796076
30
0
41
1
10
44.318086467558
20
9.68682406071426
30
0
41
1
10
44.7407699141802
20
9.67831938744075
30
0
41
1
10
45.0225547791259
20
9.67116361764684
30
0
41
1
10
45.8678334406277
20
9.64529197643046
30
0
41
1
10
46.4312463014646
20
9.62217815599473
30
0
41
1
10
47.5576486141394
20
9.56429361812525
30
0
41
1
10
48.1206391867573
20
9.52952350272818
30
0
41
1
10
48.9646380493359
20
9.46846942840565
30
0
41
1
10
49.3865163187393
20
9.43571455418876
30
0
41
1
10
49.8081909969791
20
9.39956689867373
30
0
41
1
10
50.0892600436393
20
9.37470732592936
30
0
41
1
10
50.2297632104941
20
9.36189090830382
30
0
41
1
10
50.9323151628973
20
9.29601289006172
30
0
41
1
10
51.4947924407503
20
9.23783189696888
30
0
41
1
10
52.6203480237145
20
9.11058344829007
30
0
41
1
10
53.1834171533309
20
9.04150560581223
30
0
41
1
10
54.3099264667979
20
8.89226988977339
30
0
41
1
10
54.8733623433236
20
8.81210741402393
30
0
41
1
10
55.7186367464915
20
8.68321826086779
30
0
41
1
10
56.0004161800907
20
8.63881356457739
30
0
41
1
10
56.5640022755273
20
8.54705433719377
30
0
41
1
10
56.8458086458547
20
8.49963553174138
30
0
41
1
10
57.6911717316603
20
8.35412561619123
30
0
41
1
10
58.2547397487222
20
8.25249751670884
30
0
41
1
10
59.3815547707408
20
8.03977006970362
30
0
41
1
10
59.9448122351057
20
7.92868465774285
30
0
41
1
10
61.0708141825976
20
7.69675399457009
30
0
41
1
10
61.6335520875966
20
7.57589689362462
30
0
41
1
10
62.4771190371537
20
7.38690345483423
30
0
41
1
10
62.7582071954621
20
7.32259845301689
30
0
41
1
10
63.1797330166613
20
7.22424155829969
30
0
41
1
10
63.3202421510109
20
7.19117412619579
30
0
41
1
10
63.6013334185118
20
7.12461838232466
30
0
41
1
10
63.7419063429331
20
7.09111252356669
30
0
41
1
10
64.4448926335135
20
6.9224254943023
30
0
41
1
10
65.0076615583822
20
6.78376186104973
30
0
41
1
10
66.1336757210317
20
6.49857084767416
30
0
41
1
10
66.6969308681561
20
6.35206316978051
30
0
41
1
10
67.8237172428709
20
6.05069939838359
30
0
41
1
10
68.3872425674309
20
5.89582904846682
30
0
41
1
10
69.0917191727768
20
5.69664174546844
30
0
41
1
10
69.2326161561543
20
5.6565193720694
30
0
41
1
10
69.5144255501148
20
5.57572890217821
30
0
41
1
10
69.6553207811076
20
5.53508692857588
30
0
41
1
10
70.0779987453197
20
5.41280617932171
30
0
41
1
10
70.3597869582458
20
5.33071096817494
30
0
41
1
10
71.2050957959999
20
5.08257258132409
30
0
41
1
10
71.7685520930596
20
4.91465875965318
30
0
41
1
10
72.8950696278861
20
4.57335233531572
30
0
41
1
10
73.4581364014901
20
4.39997362541871
30
0
41
1
10
74.5836569996991
20
4.04715399961432
30
0
41
1
10
75.146106354221
20
3.86770053170127
30
0
41
1
10
75.8486886347289
20
3.63927111491293
30
0
41
1
10
75.9891836268334
20
3.59338578063628
30
0
41
1
10
76.2702408447247
20
3.50151239771941
30
0
41
1
10
76.6919114952598
20
3.36350593545902
30
0
41
1
10
77.1138093208628
20
3.22484848363433
30
0
41
1
10
77.9578399417958
20
2.94650093061856
30
0
41
1
10
78.5208370462566
20
2.75955295584114
30
0
41
1
10
79.6472359137832
20
2.38232485094042
30
0
41
1
10
80.2106369653359
20
2.19204287667253
30
0
41
1
10
81.0558792962201
20
1.90361213372554
30
0
41
1
10
81.4785368729492
20
1.7586469635325
30
0
41
1
10
81.9012306905124
20
1.61248553987446
30
0
41
1
10
82.1830329697601
20
1.5147712450549
30
0
41
1
10
82.3239418602919
20
1.46575993073395
30
0
41
1
10
83.0283964040577
20
1.22084898440349
30
0
41
1
10
83.5919833778162
20
1.02545187320658
30
0
41
1
10
84.7188743543871
20
0.634729081794205
30
0
41
1
10
85.2821860219664
20
0.439426116616318
30
0
41
1
10
86.4083342627825
20
0.0483264799750316
30
0
41
1
10
86.9711655832283
20
-0.147485440661995
30
0
41
1
10
87.8148915427026
20
-0.442042087264639
30
0
41
1
10
88.0960478023588
20
-0.540364050322836
30
0
41
1
10
88.5176399484086
20
-0.688088757798994
30
0
41
1
10
88.6581394819202
20
-0.737392132564594
30
0
41
1
10
88.9391651673105
20
-0.835865676662507
30
0
41
1
10
89.0797037984822
20
-0.884999920493897
30
0
41
1
10
89.7825358366637
20
-1.13013109652635
30
0
41
1
10
90.3452136936528
20
-1.32460171343598
30
0
41
1
10
91.4710773297974
20
-1.71120142855793
30
0
41
1
10
92.0342740232808
20
-1.90329902992588
30
0
41
1
10
93.160981302831
20
-2.28570544298142
30
0
41
1
10
93.7244852707241
20
-2.47603308196082
30
0
41
1
10
94.4289466498172
20
-2.71313866829286
30
0
41
1
10
94.5698432982901
20
-2.76051868055634
30
0
41
1
10
94.8516435447139
20
-2.8552011057694
30
0
41
1
10
94.9925573207846
20
-2.9025295138222
30
0
41
1
10
95.4152434999448
20
-3.04413806709547
30
0
41
1
10
95.6970191768243
20
-3.13779238172358
30
0
41
1
10
96.5423452329474
20
-3.41641978041506
30
0
41
1
10
97.1058399455633
20
-3.59921643833744
30
0
41
1
10
98.2324619571209
20
-3.95971848626084
30
0
41
1
10
98.795598155165
20
-4.13739919849394
30
0
41
1
10
99.9212961114661
20
-4.48820441060005
30
0
41
1
10
100.483852494884
20
-4.66134200704423
30
0
41
1
10
101.327123195123
20
-4.91787128910107
30
0
41
1
10
101.608075113347
20
-5.00295727255715
30
0
41
1
10
102.170275431072
20
-5.17085838012582
30
0
41
1
10
102.451484146966
20
-5.25377588137326
30
0
41
1
10
103.295366411629
20
-5.49963134277729
30
0
41
1
10
103.858287815284
20
-5.65969636853421
30
0
41
1
10
104.98456448924
20
-5.9727632804186
30
0
41
1
10
105.547923790784
20
-6.12575578471987
30
0
41
1
10
106.674862328246
20
-6.42510129399264
30
0
41
1
10
107.238422338399
20
-6.57149459118031
30
0
41
1
10
107.942974304356
20
-6.75029778829011
30
0
41
1
10
108.083861994704
20
-6.7858018318876
30
0
41
1
10
108.365671181879
20
-6.85612045556425
30
0
41
1
10
108.788409893151
20
-6.96062612612559
30
0
41
1
10
109.211197668921
20
-7.06229481054598
30
0
41
1
10
110.05677368796
20
-7.26202674313228
30
0
41
1
10
110.620491901727
20
-7.39037982736653
30
0
41
1
10
111.747719225954
20
-7.63796890557617
30
0
41
1
10
112.311225922741
20
-7.75720947314238
30
0
41
1
10
113.15615910387
20
-7.92944741012542
30
0
41
1
10
113.437749950983
20
-7.98575277773838
30
0
41
1
10
113.860042098655
20
-8.06854909673169
30
0
41
1
10
114.000789232369
20
-8.09587275123397
30
0
41
1
10
114.282255663732
20
-8.14995548806692
30
0
41
1
10
114.422980626321
20
-8.17670505521178
30
0
41
1
10
115.126824947229
20
-8.30859199430117
30
0
41
1
10
115.690466467283
20
-8.40837910275468
30
0
41
1
10
116.818529843441
20
-8.59724343758623
30
0
41
1
10
117.383093612621
20
-8.68632057952962
30
0
41
1
10
118.511238778182
20
-8.85379492205143
30
0
41
1
10
119.074985610239
20
-8.93223049950251
30
0
41
1
10
119.919963123461
20
-9.04198900647975
30
0
41
1
10
120.201516098686
20
-9.07725621557572
30
0
41
1
10
120.623673216538
20
-9.12816202519664
30
0
41
1
10
120.764363290813
20
-9.14479745346125
30
0
41
1
10
121.045798034046
20
-9.17729397611595
30
0
41
1
10
121.186539429056
20
-9.19315900484628
30
0
41
1
10
121.890351638245
20
-9.27059774965122
30
0
41
1
10
122.45372993526
20
-9.32653243696166
30
0
41
1
10
123.580840967572
20
-9.42683756405683
30
0
41
1
10
124.144584553412
20
-9.47119768485786
30
0
41
1
10
125.27222733969
20
-9.54845199018604
30
0
41
1
10
125.836119987431
20
-9.58134895213038
30
0
41
1
10
126.4
20
-9.60842581749196
30
0
0
SPLINE
5
CD
100
AcDbEntity
8
1
62
256
6
ByLayer
370
18
48
1
60
0
100
AcDbSpline
70
4
71
3
72
164
73
160
40
0
40
0
40
0
40
0
40
0.0066773330409291
40
0.0066773330409291
40
0.0250721972438789
40
0.0250721972438789
40
0.0434670614468286
40
0.0434670614468286
40
0.0618619256497784
40
0.0618619256497784
40
0.0664606417005152
40
0.0664606417005152
40
0.0710593577512521
40
0.080256789852725
40
0.0894542219541979
40
0.0894542219541979
40
0.0986516540556708
40
0.0986516540556708
40
0.117046518258618
40
0.117046518258618
40
0.126243950360091
40
0.126243950360091
40
0.135441382461564
40
0.135441382461564
40
0.153836246664512
40
0.153836246664512
40
0.172231110867459
40
0.172231110867459
40
0.190625975070406
40
0.190625975070406
40
0.195224691121143
40
0.195224691121143
40
0.199823407171879
40
0.199823407171879
40
0.209020839273351
40
0.218218271374823
40
0.218218271374823
40
0.227415703476294
40
0.227415703476294
40
0.245810567679238
40
0.245810567679238
40
0.25500799978071
40
0.25500799978071
40
0.264205431882181
40
0.264205431882181
40
0.282600296085124
40
0.282600296085124
40
0.300995160288067
40
0.300995160288067
40
0.31939002449101
40
0.31939002449101
40
0.328587456592481
40
0.328587456592481
40
0.333186172643217
40
0.333186172643217
40
0.337784888693953
40
0.356179752896897
40
0.356179752896897
40
0.365377184998369
40
0.365377184998369
40
0.374574617099841
40
0.374574617099841
40
0.392969481302785
40
0.392969481302785
40
0.402166913404257
40
0.402166913404257
40
0.411364345505729
40
0.411364345505729
40
0.429759209708673
40
0.429759209708673
40
0.448154073911617
40
0.448154073911617
40
0.457351506013088
40
0.461950222063824
40
0.461950222063824
40
0.46654893811456
40
0.46654893811456
40
0.484943802317505
40
0.484943802317505
40
0.494141234418977
40
0.494141234418977
40
0.50333866652045
40
0.50333866652045
40
0.521733530723394
40
0.521733530723394
40
0.530930962824867
40
0.530930962824867
40
0.540128394926339
40
0.540128394926339
40
0.558523259129284
40
0.576918123332229
40
0.576918123332229
40
0.595312987535174
40
0.595312987535174
40
0.599911703585911
40
0.599911703585911
40
0.604510419636647
40
0.604510419636647
40
0.61370785173812
40
0.622905283839593
40
0.622905283839593
40
0.632102715941066
40
0.632102715941066
40
0.650497580144012
40
0.650497580144012
40
0.659695012245486
40
0.659695012245486
40
0.668892444346959
40
0.668892444346959
40
0.687287308549906
40
0.687287308549906
40
0.705682172752852
40
0.705682172752852
40
0.724077036955799
40
0.724077036955799
40
0.733274469057272
40
0.733274469057272
40
0.742471901158745
40
0.742471901158745
40
0.751669333260218
40
0.751669333260218
40
0.760866765361692
40
0.760866765361692
40
0.779261629564639
40
0.779261629564639
40
0.797656493767586
40
0.797656493767586
40
0.802255209818322
40
0.802255209818322
40
0.806853925869059
40
0.816051357970532
40
0.816051357970532
40
0.83444622217348
40
0.83444622217348
40
0.852841086376427
40
0.852841086376427
40
0.862038518477901
40
0.862038518477901
40
0.871235950579374
40
0.871235950579374
40
0.880433382680847
40
0.880433382680847
40
0.889630814782321
40
0.889630814782321
40
0.908025678985267
40
0.908025678985267
40
0.926420543188214
40
0.926420543188214
40
0.931019259238951
40
0.931019259238951
40
0.935617975289687
40
0.935617975289687
40
0.94481540739116
40
0.94481540739116
40
0.963210271594107
40
0.963210271594107
40
0.981605135797053
40
0.981605135797053
40
1
40
1
40
1
40
1
41
1
10
109.460191771468
20
-7.12647246185404
30
0
41
1
10
109.247741213282
20
-7.17695351805403
30
0
41
1
10
109.035276113646
20
-7.22672984359593
30
0
41
1
10
108.237458212839
20
-7.41101660674943
30
0
41
1
10
107.652019679911
20
-7.54094599615146
30
0
41
1
10
106.48103293396
20
-7.79052891426468
30
0
41
1
10
105.895484033244
20
-7.91018145346192
30
0
41
1
10
104.724374609674
20
-8.13933372926144
30
0
41
1
10
104.13882969347
20
-8.24885793110715
30
0
41
1
10
103.406939919513
20
-8.37935995306347
30
0
41
1
10
103.260551776982
20
-8.40512122236444
30
0
41
1
10
102.967689058026
20
-8.45587031755548
30
0
41
1
10
102.528287774086
20
-8.53086731317001
30
0
41
1
10
101.795424567132
20
-8.65026577718601
30
0
41
1
10
101.2085950726
20
-8.73988185683396
30
0
41
1
10
100.621507395502
20
-8.826568047423
30
0
41
1
10
100.327972427303
20
-8.86842554975559
30
0
41
1
10
99.4478021883881
20
-8.98951850283001
30
0
41
1
10
98.8614342887863
20
-9.06430242900313
30
0
41
1
10
97.9825934775869
20
-9.16760665019601
30
0
41
1
10
97.6897652849516
20
-9.20056116618684
30
0
41
1
10
97.1043643031055
20
-9.26349675443777
30
0
41
1
10
96.8117961018992
20
-9.29347550669542
30
0
41
1
10
95.9338766259534
20
-9.3784433592283
30
0
41
1
10
95.3484863930139
20
-9.42863709274627
30
0
41
1
10
94.1775688841321
20
-9.51638254102619
30
0
41
1
10
93.5920421275883
20
-9.55393462715296
30
0
41
1
10
92.420944262333
20
-9.61644861881328
30
0
41
1
10
91.8353740530026
20
-9.64141219344387
30
0
41
1
10
91.1034627485697
20
-9.66464669049384
30
0
41
1
10
90.9570840765629
20
-9.66889470402657
30
0
41
1
10
90.6643293431322
20
-9.67658650895243
30
0
41
1
10
90.5179490912288
20
-9.68002880904334
30
0
41
1
10
90.0786801638852
20
-9.68912294270092
30
0
41
1
10
89.4927009447415
20
-9.69797622374867
30
0
41
1
10
88.9061684631025
20
-9.70034384838362
30
0
41
1
10
88.3193712671658
20
-9.69948465376677
30
0
41
1
10
88.0257643914246
20
-9.69744042344351
30
0
41
1
10
87.1452542349085
20
-9.68648120889833
30
0
41
1
10
86.5586481745286
20
-9.67275149354927
30
0
41
1
10
85.6794178951568
20
-9.64249724567605
30
0
41
1
10
85.386455177861
20
-9.63080056591645
30
0
41
1
10
84.8007744550489
20
-9.60415610570095
30
0
41
1
10
84.5080764287807
20
-9.58919871993891
30
0
41
1
10
83.6302311325806
20
-9.53945495039994
30
0
41
1
10
83.0449124222731
20
-9.50000569614116
30
0
41
1
10
81.8740798600368
20
-9.40878904170336
30
0
41
1
10
81.2885822436153
20
-9.35701407636381
30
0
41
1
10
80.1175153653806
20
-9.24112136173997
30
0
41
1
10
79.5319436913702
20
-9.17700663806616
30
0
41
1
10
78.6536199604802
20
-9.07138986313632
30
0
41
1
10
78.3608513297123
20
-9.03460798192674
30
0
41
1
10
77.9217179275809
20
-8.97703036941181
30
0
41
1
10
77.7753433961431
20
-8.95743623265307
30
0
41
1
10
77.4825142818577
20
-8.91754093649556
30
0
41
1
10
76.750261785207
20
-8.81601314048024
30
0
41
1
10
76.0171237316492
20
-8.70559476693393
30
0
41
1
10
75.1365777773253
20
-8.5645664850673
30
0
41
1
10
74.8429962153978
20
-8.5161438720697
30
0
41
1
10
74.2561715241852
20
-8.41653980761393
30
0
41
1
10
73.9628618262838
20
-8.3653483342263
30
0
41
1
10
73.083259361104
20
-8.20757737533071
30
0
41
1
10
72.4972937596271
20
-8.09680669577799
30
0
41
1
10
71.6191017168771
20
-7.92200609264071
30
0
41
1
10
71.3265301090534
20
-7.86223707463367
30
0
41
1
10
70.7412676613941
20
-7.74043490005474
30
0
41
1
10
70.4486082169499
20
-7.67835281993925
30
0
41
1
10
69.5705587755924
20
-7.48857790807833
30
0
41
1
10
68.985098340895
20
-7.35736043848624
30
0
41
1
10
67.8140784211771
20
-7.08544545388895
30
0
41
1
10
67.22851700183
20
-6.9447521220288
30
0
41
1
10
66.3501788269051
20
-6.72639570785987
30
0
41
1
10
65.9110116274682
20
-6.61538451462721
30
0
41
1
10
65.4718644491043
20
-6.50156032194298
30
0
41
1
10
65.1791061712711
20
-6.42504361316603
30
0
41
1
10
65.0327346762857
20
-6.38645831032772
30
0
41
1
10
64.3007041557383
20
-6.19235717460816
30
0
41
1
10
63.714500918509
20
-6.03338736336238
30
0
41
1
10
62.8343943002116
20
-5.78935573379925
30
0
41
1
10
62.5408230851014
20
-5.70706117801493
30
0
41
1
10
61.9537740522336
20
-5.54068532243636
30
0
41
1
10
61.6603493768935
20
-5.45661916411942
30
0
41
1
10
60.7803903922942
20
-5.2017521777376
30
0
41
1
10
60.1941693468325
20
-5.02829033398604
30
0
41
1
10
59.3155627971545
20
-4.76249749282621
30
0
41
1
10
59.0228228716467
20
-4.67294506347923
30
0
41
1
10
58.4375675877608
20
-4.49200279357379
30
0
41
1
10
58.1449619799285
20
-4.40084343254298
30
0
41
1
10
57.2669990100424
20
-4.12586668793051
30
0
41
1
10
56.0961683529758
20
-3.75478913705175
30
0
41
1
10
54.9250846980945
20
-3.37450479972134
30
0
41
1
10
53.7539691789821
20
-2.98934993171207
30
0
41
1
10
53.1683979662466
20
-2.79433094186476
30
0
41
1
10
52.436495069515
20
-2.54722896622104
30
0
41
1
10
52.2901234882158
20
-2.49762501084535
30
0
41
1
10
51.997327211591
20
-2.3982492512886
30
0
41
1
10
51.8508939078536
20
-2.34850198441782
30
0
41
1
10
51.4114856772162
20
-2.19909243584479
30
0
41
1
10
50.8253224938226
20
-1.99942337782951
30
0
41
1
10
50.2386118989061
20
-1.79879296382467
30
0
41
1
10
49.6516389709578
20
-1.59765349625727
30
0
41
1
10
49.3580268400619
20
-1.49683094663683
30
0
41
1
10
48.4777239095419
20
-1.19386264467235
30
0
41
1
10
47.891259602377
20
-0.991122564306323
30
0
41
1
10
47.0122562615099
20
-0.685619892285217
30
0
41
1
10
46.7193711646446
20
-0.583552247422887
30
0
41
1
10
46.1338503269683
20
-0.378901422582714
30
0
41
1
10
45.8412600095875
20
-0.276186602650142
30
0
41
1
10
44.9633929200219
20
0.0313640577957415
30
0
41
1
10
44.3780309185308
20
0.235639828015081
30
0
41
1
10
43.2071527107796
20
0.642922795336943
30
0
41
1
10
42.6216373601267
20
0.84593247048582
30
0
41
1
10
41.4505450974021
20
1.25095221088415
30
0
41
1
10
40.86496744067
20
1.45296021237755
30
0
41
1
10
39.986646796566
20
1.75547797443019
30
0
41
1
10
39.6939033785574
20
1.85629903316095
30
0
41
1
10
39.1083358771234
20
2.05749898432063
30
0
41
1
10
38.8154174725639
20
2.15760822294882
30
0
41
1
10
38.2292896085801
20
2.35678502126379
30
0
41
1
10
37.9360851955273
20
2.45586701798985
30
0
41
1
10
37.3494075501551
20
2.65305405480072
30
0
41
1
10
37.0558905170132
20
2.75117331076882
30
0
41
1
10
36.1752453031154
20
3.04401670890917
30
0
41
1
10
35.5884929998376
20
3.23707118659678
30
0
41
1
10
34.4157740868154
20
3.61910300045818
30
0
41
1
10
33.8298125868146
20
3.80809458199798
30
0
41
1
10
33.0979359526295
20
4.04194870198643
30
0
41
1
10
32.9515865432267
20
4.08859215386934
30
0
41
1
10
32.6588550949496
20
4.18140308528001
30
0
41
1
10
32.2197264650344
20
4.31995208999504
30
0
41
1
10
31.7805070895051
20
4.45651940850749
30
0
41
1
10
30.9019633465272
20
4.7270737268862
30
0
41
1
10
30.3161274278303
20
4.9040058847377
30
0
41
1
10
29.1442670280095
20
5.25126234485589
30
0
41
1
10
28.5582396388907
20
5.42157992216406
30
0
41
1
10
27.6791399588671
20
5.67225448843217
30
0
41
1
10
27.3860971523505
20
5.75501192699122
30
0
41
1
10
26.8000077937401
20
5.91894348916401
30
0
41
1
10
26.506988957739
20
6.00017880326345
30
0
41
1
10
25.920566445652
20
6.16017884058871
30
0
41
1
10
25.6271446461393
20
6.2390431557339
30
0
41
1
10
25.0402546782973
20
6.39444145128903
30
0
41
1
10
24.7468647287705
20
6.47095590678498
30
0
41
1
10
23.8668741747774
20
6.69700773657971
30
0
41
1
10
23.2804526721543
20
6.84305869842441
30
0
41
1
10
22.1081761128817
20
7.12608834418833
30
0
41
1
10
21.5223213294529
20
7.26306850894463
30
0
41
1
10
20.7904404234106
20
7.42870735889187
30
0
41
1
10
20.6440861511652
20
7.46155538536618
30
0
41
1
10
20.3514236482041
20
7.52669231047298
30
0
41
1
10
20.2051175326697
20
7.558984548377
30
0
41
1
10
19.7661435614581
20
7.6547944574877
30
0
41
1
10
19.473428424386
20
7.71726279815428
30
0
41
1
10
18.5950996910482
20
7.90051822726224
30
0
41
1
10
18.0093050956337
20
8.01716493629615
30
0
41
1
10
16.8373107351159
20
8.23963762129276
30
0
41
1
10
16.2511088531434
20
8.34546092304612
30
0
41
1
10
15.0783974458408
20
8.54637131373892
30
0
41
1
10
14.4918886968733
20
8.64146123546399
30
0
41
1
10
13.9053014105229
20
8.73116202499924
30
0
0
SPLINE
5
CE
100
AcDbEntity
8
1
62
256
6
ByLayer
370
18
48
1
60
0
100
AcDbSpline
70
4
71
3
72
14
73
10
40
0
40
0
40
0
40
0
40
0.25
40
0.25
40
0.5
40
0.5
40
0.75
40
0.75
40
1
40
1
40
1
40
1
41
1
10
13.9053014105228
20
-8.73116202499938
30
0
41
1
10
13.5713810854248
20
-8.78365871791837
30
0
41
1
10
13.2400932795406
20
-8.83671842719258
30
0
41
1
10
12.5816910217184
20
-8.94172898584952
30
0
41
1
10
12.254570905078
20
-8.99368152413908
30
0
41
1
10
11.6039551320394
20
-9.09495457362286
30
0
41
1
10
11.2804577364688
20
-9.1442843730168
30
0
41
1
10
10.6372143870397
20
-9.23934559731683
30
0
41
1
10
10.3174703259642
20
-9.28509147750225
30
0
41
1
10
10
20
-9.3286496691014
30
0
0
SPLINE
5
CF
100
AcDbEntity
8
1
62
256
6
ByLayer
370
18
48
1
60
0
100
AcDbSpline
70
4
71
4
72
10
73
5
40
0
40
0
40
0
40
0
40
0
40
1
40
1
40
1
40
1
40
1
41
0.998625520811278
10
14.6169265184213
20
-5.35530829516091
30
0
41
0.996904768129092
10
14.3775283022681
20
-6.06422657420297
30
0
41
0.99463782328162
10
14.1661771261878
20
-6.89777590186809
30
0
41
0.995167278241567
10
14.0073312858091
20
-7.81106755521016
30
0
41
0.996649301320651
10
13.9053014105228
20
-8.73116202499937
30
0
0
SPLINE
5
D0
100
AcDbEntity
8
1
62
256
6
ByLayer
370
18
48
1
60
0
100
AcDbSpline
70
4
71
3
72
25
73
21
40
0
40
0
40
0
40
0
40
0.125000000000003
40
0.125000000000003
40
0.250000000000006
40
0.250000000000006
40
0.375000000000009
40
0.375000000000009
40
0.40625000000001
40
0.40625000000001
40
0.437500000000011
40
0.500000000000007
40
0.500000000000007
40
0.625000000000006
40
0.625000000000006
40
0.750000000000004
40
0.750000000000004
40
0.875000000000002
40
0.875000000000002
40
1
40
1
40
1
40
1
41
1
10
10
20
-5.47894935627764
30
0
41
1
10
10.34582571641
20
-5.41282289696338
30
0
41
1
10
10.6930251268495
20
-5.36066608287356
30
0
41
1
10
11.3899591832758
20
-5.2831321497066
30
0
41
1
10
11.7396954266931
20
-5.25776670041557
30
0
41
1
10
12.4415662009357
20
-5.23282992772442
30
0
41
1
10
12.7937019661896
20
-5.23326896276754
30
0
41
1
10
13.2353035683744
20
-5.24921193580687
30
0
41
1
10
13.32371647206
20
-5.25317050868304
30
0
41
1
10
13.5005972074662
20
-5.26259816055321
30
0
41
1
10
13.7653175788871
20
-5.27896751395758
30
0
41
1
10
14.0282897460676
20
-5.30179372661766
30
0
41
1
10
14.5520419077638
20
-5.3554415598808
30
0
41
1
10
14.8982865121209
20
-5.40187501764538
30
0
41
1
10
15.5856581099432
20
-5.5126625935257
30
0
41
1
10
15.9267840582515
20
-5.57701580125172
30
0
41
1
10
16.6046758176015
20
-5.71999635144468
30
0
41
1
10
16.9414426856137
20
-5.79861572918134
30
0
41
1
10
17.6114088090459
20
-5.96637104796179
30
0
41
1
10
17.9446113810081
20
-6.05549283938396
30
0
41
1
10
18.276411048973
20
-6.14810791676297
30
0
0
SPLINE
5
D1
100
AcDbEntity
8
1
62
256
6
ByLayer
370
18
48
1
60
0
100
AcDbSpline
70
4
71
3
72
104
73
100
40
0
40
0
40
0
40
0
40
0.0624999999999939
40
0.0624999999999939
40
0.0937499999999917
40
0.0937499999999917
40
0.12499999999999
40
0.12499999999999
40
0.156249999999987
40
0.156249999999987
40
0.164062499999986
40
0.164062499999986
40
0.171874999999985
40
0.187499999999985
40
0.187499999999985
40
0.218749999999984
40
0.218749999999984
40
0.249999999999984
40
0.249999999999984
40
0.265624999999984
40
0.265624999999984
40
0.273437499999984
40
0.273437499999984
40
0.281249999999984
40
0.281249999999984
40
0.312499999999985
40
0.312499999999985
40
0.343749999999985
40
0.343749999999985
40
0.359374999999986
40
0.359374999999986
40
0.367187499999986
40
0.367187499999986
40
0.374999999999987
40
0.374999999999987
40
0.406249999999988
40
0.406249999999988
40
0.421874999999989
40
0.421874999999989
40
0.429687499999989
40
0.429687499999989
40
0.43359374999999
40
0.43359374999999
40
0.43749999999999
40
0.43749999999999
40
0.468749999999991
40
0.468749999999991
40
0.484374999999991
40
0.484374999999991
40
0.492187499999991
40
0.496093749999991
40
0.496093749999991
40
0.499999999999991
40
0.499999999999991
40
0.531249999999992
40
0.531249999999992
40
0.546874999999992
40
0.546874999999992
40
0.554687499999992
40
0.554687499999992
40
0.562499999999993
40
0.562499999999993
40
0.593749999999993
40
0.593749999999993
40
0.609374999999992
40
0.609374999999992
40
0.617187499999992
40
0.617187499999992
40
0.624999999999992
40
0.624999999999992
40
0.656249999999992
40
0.656249999999992
40
0.687499999999991
40
0.687499999999991
40
0.703124999999991
40
0.703124999999991
40
0.71093749999999
40
0.71093749999999
40
0.71874999999999
40
0.71874999999999
40
0.749999999999989
40
0.749999999999989
40
0.781249999999988
40
0.781249999999988
40
0.812499999999987
40
0.812499999999987
40
0.843749999999987
40
0.843749999999987
40
0.874999999999987
40
0.874999999999987
40
0.890624999999988
40
0.890624999999988
40
0.906249999999989
40
0.906249999999989
40
0.937499999999993
40
0.937499999999993
40
0.968749999999996
40
0.968749999999996
40
1
40
1
40
1
40
1
41
1
10
10
20
-5.47894935627764
30
0
41
1
10
9.58325596914727
20
-5.63355352402977
30
0
41
1
10
9.17334090929722
20
-5.80258931255486
30
0
41
1
10
8.56870323825024
20
-6.07783143604908
30
0
41
1
10
8.36886519687695
20
-6.17319803586508
30
0
41
1
10
7.97263672269756
20
-6.37124992423966
30
0
41
1
10
7.77624592564706
20
-6.47393441549193
30
0
41
1
10
7.38697630399759
20
-6.68677361113433
30
0
41
1
10
7.19409690761105
20
-6.79692706201615
30
0
41
1
10
6.9552619802667
20
-6.93944634692517
30
0
41
1
10
6.90758127246116
20
-6.96820877596753
30
0
41
1
10
6.81272847513802
20
-7.02605037512433
30
0
41
1
10
6.67112673784766
20
-7.11333797025233
30
0
41
1
10
6.53156843431077
20
-7.20218688809129
30
0
41
1
10
6.25521756855517
20
-7.38193361046689
30
0
41
1
10
6.07466560102733
20
-7.50449427446054
30
0
41
1
10
5.72126436026934
20
-7.75494964415975
30
0
41
1
10
5.54841217220579
20
-7.88284337962915
30
0
41
1
10
5.29532447008899
20
-8.0786542176634
30
0
41
1
10
5.21199560880132
20
-8.14458695652783
30
0
41
1
10
5.08862719247784
20
-8.24448450479744
30
0
41
1
10
5.04777537798549
20
-8.27795016082507
30
0
41
1
10
4.96662853767228
20
-8.34521610813215
30
0
41
1
10
4.92633560351982
20
-8.37901595674748
30
0
41
1
10
4.72726458093862
20
-8.54802932292685
30
0
41
1
10
4.57486614782431
20
-8.68392756983008
30
0
41
1
10
4.28473655268323
20
-8.95648239478459
30
0
41
1
10
4.1469941338251
20
-9.09314053580556
30
0
41
1
10
3.95261409010647
20
-9.29820223747592
30
0
41
1
10
3.88986612833838
20
-9.36656807202377
30
0
41
1
10
3.79904625188749
20
-9.46906592653406
30
0
41
1
10
3.76927493107456
20
-9.50328203675423
30
0
41
1
10
3.71124880760604
20
-9.57125043906748
30
0
41
1
10
3.68296713633603
20
-9.60503077335565
30
0
41
1
10
3.5452673747462
20
-9.77286658653438
30
0
41
1
10
3.44691727858583
20
-9.90373965390972
30
0
41
1
10
3.31873624419688
20
-10.0939017775845
30
0
41
1
10
3.27924428008609
20
-10.1562617123392
30
0
41
1
10
3.22519057123404
20
-10.2480928610162
30
0
41
1
10
3.20803775294394
20
-10.2784181479802
30
0
41
1
10
3.18365845539384
20
-10.3234542701366
30
0
41
1
10
3.17577102874247
20
-10.3383660082637
30
0
41
1
10
3.16052666360119
20
-10.3678897813295
30
0
41
1
10
3.1531616816718
20
-10.382516601032
30
0
41
1
10
3.08918875280733
20
-10.5129390081064
30
0
41
1
10
3.04868850170217
20
-10.6202291966149
30
0
41
1
10
3.01300873954821
20
-10.7676409399635
30
0
41
1
10
3.00530806089083
20
-10.8145191498577
30
0
41
1
10
3.00024993174563
20
-10.8813253095847
30
0
41
1
10
2.9993456276016
20
-10.9138500037704
30
0
41
1
10
3.00093162787141
20
-10.9450282602132
30
0
41
1
10
3.00254938997156
20
-10.9655109016515
30
0
41
1
10
3.0036397336051
20
-10.9756021715285
30
0
41
1
10
3.015916871363
20
-11.064529935317
30
0
41
1
10
3.04431981017754
20
-11.1311372271568
30
0
41
1
10
3.11129367675756
20
-11.2139263550069
30
0
41
1
10
3.13769638252208
20
-11.2386595957843
30
0
41
1
10
3.18331159655219
20
-11.271584524052
30
0
41
1
10
3.19951930025403
20
-11.2818632426925
30
0
41
1
10
3.23393101883801
20
-11.3010432611307
30
0
41
1
10
3.25205101586314
20
-11.3098960176287
30
0
41
1
10
3.34683623380323
20
-11.3505308283566
30
0
41
1
10
3.4362062309113
20
-11.3716041334417
30
0
41
1
10
3.5881029480029
20
-11.3886362544349
30
0
41
1
10
3.64172200692164
20
-11.3918726007941
30
0
41
1
10
3.72641510922918
20
-11.3933058412815
30
0
41
1
10
3.75539456388364
20
-11.393210702791
30
0
41
1
10
3.81436395127312
20
-11.3919281574653
30
0
41
1
10
3.84439043306361
20
-11.3907427782246
30
0
41
1
10
3.99710436210455
20
-11.3822506779147
30
0
41
1
10
4.12749721833825
20
-11.3672963407969
30
0
41
1
10
4.40218991501862
20
-11.3241653945405
30
0
41
1
10
4.54650457505446
20
-11.2959725797547
30
0
41
1
10
4.77206337118884
20
-11.2453809531842
30
0
41
1
10
4.84876828404478
20
-11.2271277433754
30
0
41
1
10
4.9659624731905
20
-11.1978270215625
30
0
41
1
10
5.00542414610521
20
-11.1877289748731
30
0
41
1
10
5.08481054817554
20
-11.1669765951873
30
0
41
1
10
5.12472570431029
20
-11.1563253692081
30
0
41
1
10
5.32536009764235
20
-11.1017694093931
30
0
41
1
10
5.48924416720863
20
-11.0539868021029
30
0
41
1
10
5.82265385562772
20
-10.9516917987321
30
0
41
1
10
5.99218284028376
20
-10.8971734039083
30
0
41
1
10
6.33599400126963
20
-10.782501455737
30
0
41
1
10
6.51027773109695
20
-10.7223444798342
30
0
41
1
10
6.86285110663079
20
-10.59719369329
30
0
41
1
10
7.0411412315155
20
-10.5321977371402
30
0
41
1
10
7.40109314228005
20
-10.3979502308592
30
0
41
1
10
7.58275471352459
20
-10.3286971530436
30
0
41
1
10
7.85738291070967
20
-10.2219386041787
30
0
41
1
10
7.94928225449814
20
-10.1858711381781
30
0
41
1
10
8.133396322789
20
-10.1129526570963
30
0
41
1
10
8.22565550320786
20
-10.0760844168719
30
0
41
1
10
8.50298772677809
20
-9.96430433147023
30
0
41
1
10
8.68861157562725
20
-9.88821886772743
30
0
41
1
10
9.06114237713876
20
-9.73313545860069
30
0
41
1
10
9.2480488322812
20
-9.65413609052044
30
0
41
1
10
9.62308574202356
20
-9.49340138895394
30
0
41
1
10
9.81121587656477
20
-9.41166471423415
30
0
41
1
10
10
20
-9.3286496691014
30
0
0
SPLINE
5
D2
100
AcDbEntity
8
1
62
256
6
ByLayer
370
18
48
1
60
0
100
AcDbSpline
70
4
71
3
72
26
73
22
40
0
40
0
40
0
40
0
40
0.0254598563909064
40
0.0254598563909064
40
0.147277374342038
40
0.147277374342038
40
0.269094892293169
40
0.269094892293169
40
0.390912410244306
40
0.390912410244306
40
0.512729928195444
40
0.512729928195444
40
0.573638687171016
40
0.573638687171016
40
0.634547446146588
40
0.634547446146588
40
0.756364964097725
40
0.756364964097725
40
0.878182482048863
40
0.878182482048863
40
1
40
1
40
1
40
1
41
1
10
5.55179981058319
20
11.0344607756979
30
0
41
1
10
5.58638961405276
20
11.0240719701441
30
0
41
1
10
5.62110770563038
20
11.0135291262288
30
0
41
1
10
5.82265385562775
20
10.9516917987321
30
0
41
1
10
5.99218284028376
20
10.8971734039083
30
0
41
1
10
6.33599400126963
20
10.782501455737
30
0
41
1
10
6.51027773109695
20
10.7223444798342
30
0
41
1
10
6.86285110663073
20
10.59719369329
30
0
41
1
10
7.04114123151544
20
10.5321977371402
30
0
41
1
10
7.40109314228002
20
10.3979502308592
30
0
41
1
10
7.58275471352459
20
10.3286971530435
30
0
41
1
10
7.85738291070967
20
10.2219386041787
30
0
41
1
10
7.94928225449817
20
10.1858711381781
30
0
41
1
10
8.133396322789
20
10.1129526570963
30
0
41
1
10
8.22565550320783
20
10.0760844168718
30
0
41
1
10
8.50298772677809
20
9.9643043314702
30
0
41
1
10
8.68861157562725
20
9.88821886772743
30
0
41
1
10
9.06114237713876
20
9.73313545860066
30
0
41
1
10
9.24804883228123
20
9.65413609052044
30
0
41
1
10
9.62308574202356
20
9.49340138895394
30
0
41
1
10
9.8112158765648
20
9.41166471423415
30
0
41
1
10
10
20
9.3286496691014
30
0
0
SPLINE
5
D3
100
AcDbEntity
8
1
62
256
6
ByLayer
370
13
48
1
60
0
100
AcDbSpline
70
4
71
3
72
43
73
39
40
0
40
0
40
0
40
0
40
0.0624999999999984
40
0.0624999999999984
40
0.124999999999997
40
0.124999999999997
40
0.187499999999995
40
0.187499999999995
40
0.249999999999994
40
0.249999999999994
40
0.312499999999992
40
0.312499999999992
40
0.343749999999991
40
0.343749999999991
40
0.351562499999991
40
0.351562499999991
40
0.359374999999991
40
0.374999999999991
40
0.374999999999991
40
0.437499999999992
40
0.437499999999992
40
0.499999999999993
40
0.499999999999993
40
0.562499999999994
40
0.562499999999994
40
0.624999999999995
40
0.624999999999995
40
0.687499999999996
40
0.687499999999996
40
0.749999999999997
40
0.749999999999997
40
0.812499999999998
40
0.812499999999998
40
0.874999999999998
40
0.874999999999998
40
0.937499999999999
40
0.937499999999999
40
1
40
1
40
1
40
1
41
1
10
126.4
20
-7.55984175807313
30
0
41
1
10
126.483281874256
20
-7.20361223907707
30
0
41
1
10
126.566563748512
20
-6.81458843593961
30
0
41
1
10
126.733127497025
20
-5.98587420418576
30
0
41
1
10
126.816409371281
20
-5.54625802371564
30
0
41
1
10
126.982973119793
20
-4.63466157679605
30
0
41
1
10
127.066254994049
20
-4.16276174841909
30
0
41
1
10
127.232818742562
20
-3.20578370813524
30
0
41
1
10
127.316100616818
20
-2.72077258377857
30
0
41
1
10
127.48266436533
20
-1.75535643922234
30
0
41
1
10
127.565946239586
20
-1.27499307688717
30
0
41
1
10
127.690869050971
20
-0.568938378034545
30
0
41
1
10
127.732509988099
20
-0.335974115911796
30
0
41
1
10
127.784561159509
20
-0.048673291037062
30
0
41
1
10
127.794971393791
20
0.0084612595904048
30
0
41
1
10
127.815791862355
20
0.123198323547683
30
0
41
1
10
127.847022565201
20
0.295894876939116
30
0
41
1
10
127.878253268047
20
0.47027007406038
30
0
41
1
10
127.982355610867
20
1.05479564553809
30
0
41
1
10
128.065637485123
20
1.53304214178439
30
0
41
1
10
128.232201233636
20
2.49671668280587
30
0
41
1
10
128.315483107892
20
2.98210741791865
30
0
41
1
10
128.482046856404
20
3.94272339439769
30
0
41
1
10
128.56532873066
20
4.41788493215685
30
0
41
1
10
128.731892479173
20
5.33896646227206
30
0
41
1
10
128.815174353429
20
5.78480692227697
30
0
41
1
10
128.981738101941
20
6.62864080958957
30
0
41
1
10
129.065019976197
20
7.0265576502523
30
0
41
1
10
129.23158372471
20
7.75882945230759
30
0
41
1
10
129.314865598966
20
8.09313097585144
30
0
41
1
10
129.481429347478
20
8.68737359526881
30
0
41
1
10
129.564711221734
20
8.94729739755175
30
0
41
1
10
129.731274970247
20
9.38800315018011
30
0
41
1
10
129.814556844503
20
9.56880453999082
30
0
41
1
10
129.981120593015
20
9.85245893315587
30
0
41
1
10
130.064402467271
20
9.95535755051526
30
0
41
1
10
130.230966215784
20
10.0893499832275
30
0
41
1
10
130.31424809004
20
10.1205
30
0
41
1
10
130.397529964296
20
10.1205
30
0
0
SPLINE
5
D4
100
AcDbEntity
8
1
62
256
6
ByLayer
370
13
48
1
60
0
100
AcDbSpline
70
4
71
3
72
78
73
74
40
0
40
0
40
0
40
0
40
0.0312500000000003
40
0.0312500000000003
40
0.0625000000000006
40
0.0625000000000006
40
0.0937500000000009
40
0.0937500000000009
40
0.125000000000001
40
0.125000000000001
40
0.156250000000001
40
0.156250000000001
40
0.187500000000002
40
0.187500000000002
40
0.218750000000002
40
0.218750000000002
40
0.250000000000003
40
0.250000000000003
40
0.281250000000003
40
0.281250000000003
40
0.312500000000003
40
0.312500000000003
40
0.343750000000004
40
0.343750000000004
40
0.375000000000004
40
0.375000000000004
40
0.390625000000004
40
0.390625000000004
40
0.398437500000004
40
0.398437500000004
40
0.406250000000005
40
0.406250000000005
40
0.437500000000005
40
0.437500000000005
40
0.468750000000005
40
0.468750000000005
40
0.500000000000005
40
0.500000000000005
40
0.531250000000006
40
0.531250000000006
40
0.562500000000006
40
0.562500000000006
40
0.593750000000006
40
0.593750000000006
40
0.625000000000007
40
0.625000000000007
40
0.656250000000007
40
0.656250000000007
40
0.687500000000007
40
0.687500000000007
40
0.718750000000008
40
0.718750000000008
40
0.750000000000008
40
0.750000000000008
40
0.781250000000008
40
0.781250000000008
40
0.796875000000008
40
0.796875000000008
40
0.804687500000008
40
0.804687500000008
40
0.812500000000008
40
0.812500000000008
40
0.843750000000006
40
0.843750000000006
40
0.875000000000005
40
0.875000000000005
40
0.906250000000004
40
0.906250000000004
40
0.937500000000003
40
0.937500000000003
40
0.968750000000001
40
0.968750000000001
40
1
40
1
40
1
40
1
41
1
10
130.350098859674
20
10.1205
30
0
41
1
10
130.417456572012
20
10.1205
30
0
41
1
10
130.48481428435
20
10.1001476015175
30
0
41
1
10
130.619529709026
20
10.0136390727768
30
0
41
1
10
130.686887421364
20
9.94746331264517
30
0
41
1
10
130.821602846039
20
9.76546137009191
30
0
41
1
10
130.888960558377
20
9.64961725739795
30
0
41
1
10
131.023675983053
20
9.36629684159763
30
0
41
1
10
131.091033695391
20
9.19880791199316
30
0
41
1
10
131.225749120066
20
8.81255363625868
30
0
41
1
10
131.293106832404
20
8.59378428840625
30
0
41
1
10
131.42782225708
20
8.1079240279166
30
0
41
1
10
131.495179969418
20
7.8408396936459
30
0
41
1
10
131.629895394094
20
7.26387050220995
30
0
41
1
10
131.697253106431
20
6.95400255393221
30
0
41
1
10
131.831968531107
20
6.29919769907798
30
0
41
1
10
131.899326243445
20
5.95428541416143
30
0
41
1
10
132.034041668121
20
5.23869871466658
30
0
41
1
10
132.101399380459
20
4.86805231946028
30
0
41
1
10
132.236114805134
20
4.11107199236
30
0
41
1
10
132.303472517472
20
3.72476471845587
30
0
41
1
10
132.438187942148
20
2.9464665457156
30
0
41
1
10
132.505545654486
20
2.55449704179048
30
0
41
1
10
132.640261079161
20
1.77407297308858
30
0
41
1
10
132.707618791499
20
1.38563233723283
30
0
41
1
10
132.808655360006
20
0.811500008395285
30
0
41
1
10
132.842334216175
20
0.621532255099737
30
0
41
1
10
132.892852500428
20
0.339316388099263
30
0
41
1
10
132.909691928513
20
0.245699574292217
30
0
41
1
10
132.943370784682
20
0.0594698235987323
30
0
41
1
10
132.960210212766
20
-0.0328371960915206
30
0
41
1
10
133.044407353189
20
-0.49792924870053
30
0
41
1
10
133.111765065527
20
-0.878168736628083
30
0
41
1
10
133.246480490202
20
-1.64839547887763
30
0
41
1
10
133.31383820254
20
-2.0383749032458
30
0
41
1
10
133.448553627216
20
-2.81990250031043
30
0
41
1
10
133.515911339554
20
-3.21143496304089
30
0
41
1
10
133.650626764229
20
-3.98664724199847
30
0
41
1
10
133.717984476567
20
-4.37030421263756
30
0
41
1
10
133.852699901243
20
-5.11968479488178
30
0
41
1
10
133.920057613581
20
-5.48538105090199
30
0
41
1
10
134.054773038257
20
-6.18886525782526
30
0
41
1
10
134.122130750595
20
-6.52662553478052
30
0
41
1
10
134.25684617527
20
-7.16521153374023
30
0
41
1
10
134.324203887608
20
-7.46601404361405
30
0
41
1
10
134.458919312284
20
-8.02338879424343
30
0
41
1
10
134.526277024622
20
-8.27994631220969
30
0
41
1
10
134.660992449297
20
-8.7438492250435
30
0
41
1
10
134.728350161635
20
-8.95119049880813
30
0
41
1
10
134.863065586311
20
-9.31428158933207
30
0
41
1
10
134.930423298649
20
-9.47003759410273
30
0
41
1
10
135.065138723325
20
-9.73014693114291
30
0
41
1
10
135.132496435662
20
-9.83451440657865
30
0
41
1
10
135.267211860338
20
-9.99428789027456
30
0
41
1
10
135.334569572676
20
-10.0497125181018
30
0
41
1
10
135.435606141183
20
-10.0992694398363
30
0
41
1
10
135.469284997352
20
-10.1102035589766
30
0
41
1
10
135.519803281605
20
-10.1187042502318
30
0
41
1
10
135.536642709689
20
-10.1202215735058
30
0
41
1
10
135.570321565858
20
-10.1207085357614
30
0
41
1
10
135.587160993943
20
-10.1196849554431
30
0
41
1
10
135.671358134365
20
-10.1080294336467
30
0
41
1
10
135.738715846703
20
-10.0777305617631
30
0
41
1
10
135.873431271379
20
-9.97032544940294
30
0
41
1
10
135.940788983717
20
-9.89319966870494
30
0
41
1
10
136.075504408392
20
-9.68866721293682
30
0
41
1
10
136.14286212073
20
-9.56124348480705
30
0
41
1
10
136.277577545406
20
-9.25462636224185
30
0
41
1
10
136.344935257744
20
-9.07542203232512
30
0
41
1
10
136.47965068242
20
-8.66617366923018
30
0
41
1
10
136.547008394757
20
-8.43612792419486
30
0
41
1
10
136.681723819433
20
-7.92874616227212
30
0
41
1
10
136.749081531771
20
-7.6514191690186
30
0
41
1
10
136.816439244109
20
-7.35347857878293
30
0
0
SPLINE
5
D5
100
AcDbEntity
8
1
62
256
6
ByLayer
370
13
48
1
60
0
100
AcDbSpline
70
4
71
3
72
42
73
38
40
0
40
0
40
0
40
0
40
0.0625000000000006
40
0.0625000000000006
40
0.125000000000001
40
0.125000000000001
40
0.187500000000002
40
0.187500000000002
40
0.250000000000002
40
0.250000000000002
40
0.265625000000002
40
0.265625000000002
40
0.281250000000002
40
0.281250000000002
40
0.312500000000002
40
0.312500000000002
40
0.375000000000002
40
0.375000000000002
40
0.437500000000002
40
0.437500000000002
40
0.500000000000002
40
0.500000000000002
40
0.562500000000001
40
0.562500000000001
40
0.625000000000001
40
0.625000000000001
40
0.687500000000001
40
0.687500000000001
40
0.750000000000001
40
0.750000000000001
40
0.812500000000001
40
0.812500000000001
40
0.875000000000001
40
0.875000000000001
40
0.9375
40
0.9375
40
1
40
1
40
1
40
1
41
1
10
126.4
20
-5.12288137859576
30
0
41
1
10
126.472995159832
20
-4.72405655161421
30
0
41
1
10
126.545990319664
20
-4.31268460819035
30
0
41
1
10
126.691980639328
20
-3.47767834852081
30
0
41
1
10
126.76497579916
20
-3.05408034364584
30
0
41
1
10
126.910966118825
20
-2.2068881907519
30
0
41
1
10
126.983961278657
20
-1.78331949757134
30
0
41
1
10
127.129951598321
20
-0.946858651834134
30
0
41
1
10
127.202946758153
20
-0.533979226870798
30
0
41
1
10
127.294190707943
20
-0.0298667892265314
30
0
41
1
10
127.312439497901
20
0.0701526044640275
30
0
41
1
10
127.348937077817
20
0.272112603313502
30
0
41
1
10
127.367185867775
20
0.37367860675343
30
0
41
1
10
127.421932237649
20
0.679954576098879
30
0
41
1
10
127.458429817565
20
0.886246994306532
30
0
41
1
10
127.567922557313
20
1.50984498677468
30
0
41
1
10
127.640917717145
20
1.9319343263391
30
0
41
1
10
127.786908036809
20
2.77863505480462
30
0
41
1
10
127.859903196641
20
3.20322370835123
30
0
41
1
10
128.005893516306
20
4.04295669391013
30
0
41
1
10
128.078888676138
20
4.45806672483471
30
0
41
1
10
128.224878995802
20
5.26598579398592
30
0
41
1
10
128.297874155634
20
5.65875362782236
30
0
41
1
10
128.443864475298
20
6.4093955140543
30
0
41
1
10
128.51685963513
20
6.76722897892776
30
0
41
1
10
128.662849954794
20
7.43693132886395
30
0
41
1
10
128.735845114626
20
7.74876851357561
30
0
41
1
10
128.88183543429
20
8.31804534887269
30
0
41
1
10
128.954830594123
20
8.57546846441466
30
0
41
1
10
129.100820913787
20
9.03086681946326
30
0
41
1
10
129.173816073619
20
9.22884291001444
30
0
41
1
10
129.319806393283
20
9.56391897577359
30
0
41
1
10
129.392801553115
20
9.70103496103206
30
0
41
1
10
129.538791872779
20
9.91631928192336
30
0
41
1
10
129.611787032611
20
9.99451342699788
30
0
41
1
10
129.757777352275
20
10.0965891465336
30
0
41
1
10
129.830772512107
20
10.1205
30
0
41
1
10
129.903767671939
20
10.1205
30
0
0
SPLINE
5
D6
100
AcDbEntity
8
1
62
256
6
ByLayer
370
13
48
1
60
0
100
AcDbSpline
70
4
71
3
72
79
73
75
40
0
40
0
40
0
40
0
40
0.0312499999999991
40
0.0312499999999991
40
0.0624999999999983
40
0.0624999999999983
40
0.0937499999999974
40
0.0937499999999974
40
0.124999999999997
40
0.124999999999997
40
0.156249999999996
40
0.156249999999996
40
0.187499999999995
40
0.187499999999995
40
0.218749999999994
40
0.218749999999994
40
0.249999999999993
40
0.249999999999993
40
0.281249999999992
40
0.281249999999992
40
0.312499999999992
40
0.312499999999992
40
0.343749999999991
40
0.343749999999991
40
0.35937499999999
40
0.35937499999999
40
0.36718749999999
40
0.36718749999999
40
0.37499999999999
40
0.37499999999999
40
0.406249999999991
40
0.406249999999991
40
0.437499999999991
40
0.437499999999991
40
0.468749999999992
40
0.468749999999992
40
0.499999999999992
40
0.499999999999992
40
0.531249999999993
40
0.531249999999993
40
0.562499999999994
40
0.562499999999994
40
0.593749999999994
40
0.593749999999994
40
0.624999999999995
40
0.624999999999995
40
0.656249999999996
40
0.656249999999996
40
0.687499999999996
40
0.687499999999996
40
0.718749999999997
40
0.718749999999997
40
0.734374999999997
40
0.734374999999997
40
0.742187499999998
40
0.746093749999998
40
0.746093749999998
40
0.749999999999998
40
0.749999999999998
40
0.781249999999998
40
0.781249999999998
40
0.812499999999998
40
0.812499999999998
40
0.843749999999999
40
0.843749999999999
40
0.874999999999999
40
0.874999999999999
40
0.906249999999999
40
0.906249999999999
40
0.937499999999999
40
0.937499999999999
40
0.96875
40
0.96875
40
1
40
1
40
1
40
1
41
1
10
129.856336567318
20
10.1205
30
0
41
1
10
129.928837636868
20
10.1205
30
0
41
1
10
130.001338706417
20
10.096912576224
30
0
41
1
10
130.146340845517
20
9.99625535206738
30
0
41
1
10
130.218841915067
20
9.91915724372063
30
0
41
1
10
130.363844054167
20
9.70690804555784
30
0
41
1
10
130.436345123717
20
9.57173191805978
30
0
41
1
10
130.581347262817
20
9.24136761732842
30
0
41
1
10
130.653848332367
20
9.0461637143959
30
0
41
1
10
130.798850471466
20
8.59703147705002
30
0
41
1
10
130.871351541017
20
8.3431018756838
30
0
41
1
10
131.016353680116
20
7.78132559079157
30
0
41
1
10
131.088854749666
20
7.47349433257028
30
0
41
1
10
131.233856888766
20
6.81203436410547
30
0
41
1
10
131.306357958316
20
6.45843580093472
30
0
41
1
10
131.451360097415
20
5.71617761900541
30
0
41
1
10
131.523861166966
20
5.3275570062813
30
0
41
1
10
131.668863306065
20
4.52754473444534
30
0
41
1
10
131.741364375615
20
4.11619308021926
30
0
41
1
10
131.886366514715
20
3.28334595076851
30
0
41
1
10
131.958867584265
20
2.86188420407572
30
0
41
1
10
132.103869723365
20
2.0206487562784
30
0
41
1
10
132.176370792915
20
1.60089786047789
30
0
41
1
10
132.28512239724
20
0.980167662877989
30
0
41
1
10
132.321372932014
20
0.774725244174164
30
0
41
1
10
132.375748734177
20
0.469565258451013
30
0
41
1
10
132.393874001564
20
0.368344785679653
30
0
41
1
10
132.430124536339
20
0.167023338660726
30
0
41
1
10
132.448249803727
20
0.0671446183201283
30
0
41
1
10
132.538876140664
20
-0.431611348981818
30
0
41
1
10
132.611377210214
20
-0.840364363149718
30
0
41
1
10
132.756379349314
20
-1.66925257495424
30
0
41
1
10
132.828880418864
20
-2.08937653191541
30
0
41
1
10
132.973882557964
20
-2.93075083171786
30
0
41
1
10
133.046383627514
20
-3.35197771065282
30
0
41
1
10
133.191385766614
20
-4.18367886822932
30
0
41
1
10
133.263886836163
20
-4.5941189267312
30
0
41
1
10
133.408888975263
20
-5.39161855529346
30
0
41
1
10
133.481390044813
20
-5.77863797116024
30
0
41
1
10
133.626392183913
20
-6.51705709469232
30
0
41
1
10
133.698893253463
20
-6.86841808354157
30
0
41
1
10
133.843895392563
20
-7.52488320885374
30
0
41
1
10
133.916396462112
20
-7.82995787899145
30
0
41
1
10
134.061398601212
20
-8.3858676155514
30
0
41
1
10
134.133899670762
20
-8.63668815583793
30
0
41
1
10
134.278901809862
20
-9.07944009286334
30
0
41
1
10
134.351402879412
20
-9.27137363690915
30
0
41
1
10
134.496405018512
20
-9.59522348175551
30
0
41
1
10
134.568906088062
20
-9.72715616992764
30
0
41
1
10
134.713908227162
20
-9.93310664877254
30
0
41
1
10
134.786409296711
20
-10.0071498093931
30
0
41
1
10
134.895160901036
20
-10.07829158818
30
0
41
1
10
134.931411435811
20
-10.0953693228959
30
0
41
1
10
134.985787237974
20
-10.1115978592062
30
0
41
1
10
135.012975139055
20
-10.1173662649363
30
0
41
1
10
135.040163040136
20
-10.1197312150324
30
0
41
1
10
135.058288307524
20
-10.1205648730389
30
0
41
1
10
135.067350941217
20
-10.1206116371259
30
0
41
1
10
135.148914644461
20
-10.1177134330384
30
0
41
1
10
135.221415714011
20
-10.0913603346664
30
0
41
1
10
135.366417853111
20
-9.98486867299502
30
0
41
1
10
135.438918922661
20
-9.90470183382638
30
0
41
1
10
135.58392106176
20
-9.68613415744605
30
0
41
1
10
135.65642213131
20
-9.54770863322875
30
0
41
1
10
135.80142427041
20
-9.21082770222111
30
0
41
1
10
135.87392533996
20
-9.01235723926465
30
0
41
1
10
136.01892747906
20
-8.55686288243189
30
0
41
1
10
136.09142854861
20
-8.29983860892841
30
0
41
1
10
136.23643068771
20
-7.73223452266359
30
0
41
1
10
136.308931757259
20
-7.42167102844462
30
0
41
1
10
136.453933896359
20
-6.75527279208063
30
0
41
1
10
136.526434965909
20
-6.39946885983059
30
0
41
1
10
136.671437105009
20
-5.65344068589931
30
0
41
1
10
136.743938174559
20
-5.26325571342801
30
0
41
1
10
136.816439244109
20
-4.86203058279912
30
0
0
SPLINE
5
D7
100
AcDbEntity
8
1
62
256
6
ByLayer
370
13
48
1
60
0
100
AcDbSpline
70
4
71
3
72
41
73
37
40
0
40
0
40
0
40
0
40
0.0625
40
0.0625
40
0.125
40
0.125
40
0.140625
40
0.140625
40
0.15625
40
0.1875
40
0.1875
40
0.25
40
0.25
40
0.3125
40
0.3125
40
0.375
40
0.375
40
0.4375
40
0.4375
40
0.5
40
0.5
40
0.5625
40
0.5625
40
0.625
40
0.625
40
0.6875
40
0.6875
40
0.75
40
0.75
40
0.8125
40
0.8125
40
0.875
40
0.875
40
0.9375
40
0.9375
40
1
40
1
40
1
40
1
41
1
10
126.4
20
-2.30680782488994
30
0
41
1
10
126.462708445408
20
-1.94320161067529
30
0
41
1
10
126.525416890816
20
-1.5806665735609
30
0
41
1
10
126.650833781632
20
-0.864244711176838
30
0
41
1
10
126.71354222704
20
-0.510363168149922
30
0
41
1
10
126.7919277838
20
-0.0767427965755019
30
0
41
1
10
126.807604895152
20
0.0092476124038967
30
0
41
1
10
126.838959117856
20
0.18223911028349
30
0
41
1
10
126.885990451912
20
0.443053857754563
30
0
41
1
10
126.933021785968
20
0.70752572569981
30
0
41
1
10
127.02708445408
20
1.24036567315127
30
0
41
1
10
127.089792899488
20
1.60082354079381
30
0
41
1
10
127.215209790304
20
2.32605413917525
30
0
41
1
10
127.277918235712
20
2.69081808295294
30
0
41
1
10
127.403335126528
20
3.41744591184943
30
0
41
1
10
127.466043571936
20
3.77929599375716
30
0
41
1
10
127.591460462752
20
4.4921612477269
30
0
41
1
10
127.65416890816
20
4.84315865755826
30
0
41
1
10
127.779585798976
20
5.52614247456754
30
0
41
1
10
127.842294244383
20
5.85810924923365
30
0
41
1
10
127.967711135199
20
6.49518444114088
30
0
41
1
10
128.030419580607
20
6.80027413947869
30
0
41
1
10
128.155836471423
20
7.37666309868857
30
0
41
1
10
128.218544916831
20
7.64794740921604
30
0
41
1
10
128.343961807647
20
8.15122466620397
30
0
41
1
10
128.406670253055
20
8.38320864012076
30
0
41
1
10
128.532087143871
20
8.80418196336041
30
0
41
1
10
128.594795589279
20
8.99316933492065
30
0
41
1
10
128.720212480095
20
9.32641077514023
30
0
41
1
10
128.782920925503
20
9.47066950968437
30
0
41
1
10
128.908337816319
20
9.71463663504085
30
0
41
1
10
128.971046261727
20
9.81435484842518
30
0
41
1
10
129.096463152543
20
9.97112154431997
30
0
41
1
10
129.159171597951
20
10.0281828923573
30
0
41
1
10
129.284588488767
20
10.1028652509531
30
0
41
1
10
129.347296934175
20
10.1205
30
0
41
1
10
129.410005379583
20
10.1205
30
0
0
SPLINE
5
D8
100
AcDbEntity
8
1
62
256
6
ByLayer
370
13
48
1
60
0
100
AcDbSpline
70
4
71
3
72
80
73
76
40
0
40
0
40
0
40
0
40
0.0312500000000002
40
0.0312500000000002
40
0.0625000000000005
40
0.0625000000000005
40
0.0937500000000007
40
0.0937500000000007
40
0.125000000000001
40
0.125000000000001
40
0.156250000000001
40
0.156250000000001
40
0.187500000000001
40
0.187500000000001
40
0.218750000000002
40
0.218750000000002
40
0.250000000000002
40
0.250000000000002
40
0.281250000000002
40
0.281250000000002
40
0.312500000000003
40
0.312500000000003
40
0.343750000000003
40
0.343750000000003
40
0.347656250000003
40
0.347656250000003
40
0.351562500000003
40
0.351562500000003
40
0.359375000000003
40
0.359375000000003
40
0.375000000000003
40
0.375000000000003
40
0.406250000000003
40
0.406250000000003
40
0.437500000000003
40
0.437500000000003
40
0.468750000000003
40
0.468750000000003
40
0.500000000000003
40
0.500000000000003
40
0.531250000000003
40
0.531250000000003
40
0.562500000000003
40
0.562500000000003
40
0.593750000000003
40
0.593750000000003
40
0.625000000000003
40
0.625000000000003
40
0.656250000000003
40
0.656250000000003
40
0.687500000000003
40
0.687500000000003
40
0.695312500000003
40
0.695312500000003
40
0.703125000000003
40
0.703125000000003
40
0.718750000000003
40
0.718750000000003
40
0.750000000000003
40
0.750000000000003
40
0.781250000000002
40
0.781250000000002
40
0.812500000000002
40
0.812500000000002
40
0.843750000000002
40
0.843750000000002
40
0.875000000000001
40
0.875000000000001
40
0.906250000000001
40
0.906250000000001
40
0.937500000000001
40
0.937500000000001
40
0.96875
40
0.96875
40
1
40
1
40
1
40
1
41
1
10
129.362574274961
20
10.1205
30
0
41
1
10
129.440218701723
20
10.1205
30
0
41
1
10
129.517863128485
20
10.0934368649455
30
0
41
1
10
129.673151982009
20
9.97750101982868
30
0
41
1
10
129.750796408771
20
9.88858854685566
30
0
41
1
10
129.906085262295
20
9.64362903832566
30
0
41
1
10
129.983729689057
20
9.48754813236391
30
0
41
1
10
130.139018542581
20
9.10649937718938
30
0
41
1
10
130.216662969343
20
8.88151324346089
30
0
41
1
10
130.371951822867
20
8.36529398595724
30
0
41
1
10
130.449596249629
20
8.0740656825985
30
0
41
1
10
130.604885103152
20
7.43262140866952
30
0
41
1
10
130.682529529914
20
7.08243512519797
30
0
41
1
10
130.837818383438
20
6.33443581663803
30
0
41
1
10
130.9154628102
20
5.93667175475451
30
0
41
1
10
131.070751663724
20
5.10777103314763
30
0
41
1
10
131.148396090486
20
4.67669135834984
30
0
41
1
10
131.30368494401
20
3.79667020438575
30
0
41
1
10
131.381329370772
20
3.34778107070767
30
0
41
1
10
131.536618224296
20
2.44722033922429
30
0
41
1
10
131.614262651058
20
1.99558686292858
30
0
41
1
10
131.769551504582
20
1.10279563926807
30
0
41
1
10
131.847195931344
20
0.661657749560817
30
0
41
1
10
131.934545911451
20
0.177208604949243
30
0
41
1
10
131.944251464796
20
0.123543352053844
30
0
41
1
10
131.963662571487
20
0.0165549739457447
30
0
41
1
10
131.973368124832
20
-0.0367069514615821
30
0
41
1
10
132.002484784868
20
-0.197318200146185
30
0
41
1
10
132.021895891558
20
-0.305072728143386
30
0
41
1
10
132.08012921163
20
-0.630164629020186
30
0
41
1
10
132.118951425011
20
-0.84933608984187
30
0
41
1
10
132.235418065154
20
-1.51226820383388
30
0
41
1
10
132.313062491916
20
-1.96152697512213
30
0
41
1
10
132.468351345439
20
-2.86235638053492
30
0
41
1
10
132.545995772201
20
-3.31389529655203
30
0
41
1
10
132.701284625725
20
-4.20475654686473
30
0
41
1
10
132.778929052487
20
-4.6440308074948
30
0
41
1
10
132.934217906011
20
-5.49483903596956
30
0
41
1
10
133.011862332773
20
-5.90631630586446
30
0
41
1
10
133.167151186297
20
-6.68661869031834
30
0
41
1
10
133.244795613059
20
-7.05539048543397
30
0
41
1
10
133.400084466583
20
-7.73768136331117
30
0
41
1
10
133.477728893345
20
-8.05116282472551
30
0
41
1
10
133.633017746869
20
-8.61399363818219
30
0
41
1
10
133.710662173631
20
-8.86332905818361
30
0
41
1
10
133.865951027155
20
-9.29350781871989
30
0
41
1
10
133.943595453916
20
-9.47436177378941
30
0
41
1
10
134.09888430744
20
-9.76778300101884
30
0
41
1
10
134.176528734202
20
-9.88037963044258
30
0
41
1
10
134.331817587726
20
-10.0414297661418
30
0
41
1
10
134.409462014488
20
-10.0899220128994
30
0
41
1
10
134.506517547941
20
-10.1148368870541
30
0
41
1
10
134.525928654631
20
-10.1180401864492
30
0
41
1
10
134.564750868012
20
-10.1210149036644
30
0
41
1
10
134.584161974703
20
-10.1208047157842
30
0
41
1
10
134.642395294774
20
-10.1150446680265
30
0
41
1
10
134.681217508155
20
-10.1043048456642
30
0
41
1
10
134.797684148298
20
-10.0499048529543
30
0
41
1
10
134.87532857506
20
-9.98397890178057
30
0
41
1
10
135.030617428584
20
-9.78654999454244
30
0
41
1
10
135.108261855346
20
-9.65500994040642
30
0
41
1
10
135.26355070887
20
-9.32319945981143
30
0
41
1
10
135.341195135632
20
-9.12290408586324
30
0
41
1
10
135.496483989156
20
-8.65458284236058
30
0
41
1
10
135.574128415918
20
-8.38655292579915
30
0
41
1
10
135.729417269442
20
-7.78838188899564
30
0
41
1
10
135.807061696204
20
-7.45826178320962
30
0
41
1
10
135.962350549727
20
-6.74590449750571
30
0
41
1
10
136.039994976489
20
-6.36371042872935
30
0
41
1
10
136.195283830013
20
-5.56059343579506
30
0
41
1
10
136.272928256775
20
-5.13972610420265
30
0
41
1
10
136.428217110299
20
-4.27452188951122
30
0
41
1
10
136.505861537061
20
-3.83024036262472
30
0
41
1
10
136.661150390585
20
-2.93362388094735
30
0
41
1
10
136.738794817347
20
-2.4813329330872
30
0
41
1
10
136.816439244109
20
-2.03203670737861
30
0
0
SPLINE
5
D9
100
AcDbEntity
8
1
62
256
6
ByLayer
370
13
48
1
60
0
100
AcDbSpline
70
4
71
3
72
34
73
30
40
0
40
0
40
0
40
0
40
0.125
40
0.125
40
0.1875
40
0.1875
40
0.25
40
0.25
40
0.3125
40
0.3125
40
0.375
40
0.375
40
0.4375
40
0.4375
40
0.5
40
0.5
40
0.5625
40
0.5625
40
0.625
40
0.625
40
0.6875
40
0.6875
40
0.75
40
0.75
40
0.8125
40
0.8125
40
0.875
40
0.875
40
1
40
1
40
1
40
1
41
1
10
126.4
20
0.48746488831506
30
0
41
1
10
126.504843461968
20
1.07423669359454
30
0
41
1
10
126.609686923935
20
1.6786691721239
30
0
41
1
10
126.766952116887
20
2.59045079032367
30
0
41
1
10
126.819373847871
20
2.89515830160045
30
0
41
1
10
126.924217309839
20
3.50181896132818
30
0
41
1
10
126.976639040823
20
3.8037662188631
30
0
41
1
10
127.08148250279
20
4.40025895245651
30
0
41
1
10
127.133904233774
20
4.69479720476173
30
0
41
1
10
127.238747695742
20
5.27169881371577
30
0
41
1
10
127.291169426726
20
5.55405420507674
30
0
41
1
10
127.396012888694
20
6.10192165151344
30
0
41
1
10
127.448434619678
20
6.36742577395813
30
0
41
1
10
127.553278081645
20
6.87726853835034
30
0
41
1
10
127.605699812629
20
7.12160011963937
30
0
41
1
10
127.710543274597
20
7.58535012673391
30
0
41
1
10
127.762965005581
20
7.80476312272825
30
0
41
1
10
127.867808467549
20
8.2156929258945
30
0
41
1
10
127.920230198532
20
8.40720647595049
30
0
41
1
10
128.0250736605
20
8.76025115247526
30
0
41
1
10
128.077495391484
20
8.92178142828394
30
0
41
1
10
128.182338853452
20
9.21373233102491
30
0
41
1
10
128.234760584436
20
9.3441544167575
30
0
41
1
10
128.339604046404
20
9.57371091870377
30
0
41
1
10
128.392025777387
20
9.67284872240606
30
0
41
1
10
128.496869239355
20
9.84053343331038
30
0
41
1
10
128.549290970339
20
9.90908508958793
30
0
41
1
10
128.706556163291
20
10.0710244857926
30
0
41
1
10
128.811399625259
20
10.1205
30
0
41
1
10
128.916243087226
20
10.1205
30
0
0
SPLINE
5
DA
100
AcDbEntity
8
1
62
256
6
ByLayer
370
13
48
1
60
0
100
AcDbSpline
70
4
71
3
72
84
73
80
40
0
40
0
40
0
40
0
40
0.0312500000000015
40
0.0312500000000015
40
0.062500000000003
40
0.062500000000003
40
0.0937500000000045
40
0.0937500000000045
40
0.125000000000006
40
0.125000000000006
40
0.156250000000007
40
0.156250000000007
40
0.187500000000009
40
0.187500000000009
40
0.21875000000001
40
0.21875000000001
40
0.250000000000012
40
0.250000000000012
40
0.281250000000013
40
0.281250000000013
40
0.312500000000015
40
0.312500000000015
40
0.320312500000015
40
0.320312500000015
40
0.328125000000015
40
0.328125000000015
40
0.343750000000016
40
0.343750000000016
40
0.375000000000016
40
0.375000000000016
40
0.406250000000016
40
0.406250000000016
40
0.437500000000016
40
0.437500000000016
40
0.468750000000016
40
0.468750000000016
40
0.500000000000017
40
0.500000000000017
40
0.531250000000017
40
0.531250000000017
40
0.562500000000017
40
0.562500000000017
40
0.593750000000017
40
0.593750000000017
40
0.625000000000017
40
0.625000000000017
40
0.640625000000017
40
0.640625000000017
40
0.648437500000018
40
0.652343750000018
40
0.652343750000018
40
0.656250000000018
40
0.656250000000018
40
0.687500000000016
40
0.687500000000016
40
0.718750000000015
40
0.718750000000015
40
0.750000000000013
40
0.750000000000013
40
0.781250000000012
40
0.781250000000012
40
0.81250000000001
40
0.81250000000001
40
0.843750000000009
40
0.843750000000009
40
0.875000000000007
40
0.875000000000007
40
0.906250000000006
40
0.906250000000006
40
0.937500000000004
40
0.937500000000004
40
0.968750000000003
40
0.968750000000003
40
0.976562500000003
40
0.980468750000002
40
0.980468750000002
40
0.984375000000002
40
0.984375000000002
40
1
40
1
40
1
40
1
41
1
10
128.868811982605
20
10.1205
30
0
41
1
10
128.951599766579
20
10.1205
30
0
41
1
10
129.034387550553
20
10.0897197927013
30
0
41
1
10
129.199963118501
20
9.95736502553538
30
0
41
1
10
129.282750902475
20
9.85573588750214
30
0
41
1
10
129.448326470423
20
9.57559195833304
30
0
41
1
10
129.531114254397
20
9.39703266821752
30
0
41
1
10
129.696689822345
20
8.96172450343818
30
0
41
1
10
129.779477606319
20
8.70495618632924
30
0
41
1
10
129.945053174267
20
8.11772934572673
30
0
41
1
10
130.027840958241
20
7.78728671917199
30
0
41
1
10
130.193416526189
20
7.06309891641226
30
0
41
1
10
130.276204310163
20
6.66940470671881
30
0
41
1
10
130.441779878111
20
5.83397353185833
30
0
41
1
10
130.524567662085
20
5.39231043847212
30
0
41
1
10
130.690143230033
20
4.47914351869608
30
0
41
1
10
130.772931014007
20
4.00771718557866
30
0
41
1
10
130.938506581955
20
3.05381979365708
30
0
41
1
10
131.021294365929
20
2.57141161591045
30
0
41
1
10
131.186869933877
20
1.6127690367548
30
0
41
1
10
131.269657717851
20
1.13657231568308
30
0
41
1
10
131.373142447818
20
0.553997765505983
30
0
41
1
10
131.393839393812
20
0.438107583006314
30
0
41
1
10
131.435233285799
20
0.207759388763947
30
0
41
1
10
131.455930231792
20
0.0934740363046842
30
0
41
1
10
131.518021069773
20
-0.248069397701016
30
0
41
1
10
131.55941496176
20
-0.478933570935368
30
0
41
1
10
131.683596637721
20
-1.17890873324308
30
0
41
1
10
131.766384421695
20
-1.65551258008745
30
0
41
1
10
131.931959989643
20
-2.61449668817917
30
0
41
1
10
132.014747773617
20
-3.09683845676088
30
0
41
1
10
132.180323341565
20
-4.05005672121706
30
0
41
1
10
132.263111125539
20
-4.52086969906483
30
0
41
1
10
132.428686693487
20
-5.43224675164467
30
0
41
1
10
132.511474477461
20
-5.87273315199525
30
0
41
1
10
132.677050045409
20
-6.70530097590915
30
0
41
1
10
132.759837829383
20
-7.09730894838751
30
0
41
1
10
132.925413397331
20
-7.81773430519334
30
0
41
1
10
133.008201181305
20
-8.14610164640553
30
0
41
1
10
133.173776749253
20
-8.72895394136165
30
0
41
1
10
133.256564533227
20
-8.98342411061381
30
0
41
1
10
133.422140101175
20
-9.41409211277491
30
0
41
1
10
133.504927885149
20
-9.59031032485191
30
0
41
1
10
133.670503453097
20
-9.86589035103896
30
0
41
1
10
133.753291237071
20
-9.96529718745313
30
0
41
1
10
133.877472913032
20
-10.0614096181011
30
0
41
1
10
133.918866805019
20
-10.0846468112105
30
0
41
1
10
133.980957642999
20
-10.1071168759644
30
0
41
1
10
134.01200306199
20
-10.1152575819054
30
0
41
1
10
134.04304848098
20
-10.1189261198491
30
0
41
1
10
134.063745426973
20
-10.1203977575194
30
0
41
1
10
134.07409389997
20
-10.1206473772536
30
0
41
1
10
134.167230156941
20
-10.1185821003159
30
0
41
1
10
134.250017940915
20
-10.0858109699582
30
0
41
1
10
134.415593508863
20
-9.94923735781975
30
0
41
1
10
134.498381292837
20
-9.84538038476683
30
0
41
1
10
134.663956860785
20
-9.56066578744799
30
0
41
1
10
134.746744644759
20
-9.37976420136232
30
0
41
1
10
134.912320212707
20
-8.93981867641813
30
0
41
1
10
134.995107996681
20
-8.68075624147369
30
0
41
1
10
135.160683564629
20
-8.08916824325061
30
0
41
1
10
135.243471348603
20
-7.75665968923676
30
0
41
1
10
135.409046916551
20
-7.02873256517699
30
0
41
1
10
135.491834700525
20
-6.63336587382366
30
0
41
1
10
135.657410268473
20
-5.79510151073293
30
0
41
1
10
135.740198052447
20
-5.35227811364064
30
0
41
1
10
135.905773620395
20
-4.43735461947495
30
0
41
1
10
135.988561404369
20
-3.9653318178068
30
0
41
1
10
136.154136972317
20
-3.01078761758896
30
0
41
1
10
136.236924756291
20
-2.52832845357364
30
0
41
1
10
136.402500324239
20
-1.57005541029639
30
0
41
1
10
136.485288108213
20
-1.09427839825207
30
0
41
1
10
136.58877283818
20
-0.512455485373437
30
0
41
1
10
136.619818257171
20
-0.338862656350329
30
0
41
1
10
136.650863676161
20
-0.166904293992303
30
0
41
1
10
136.671560622154
20
-0.0526494153307056
30
0
41
1
10
136.681909095151
20
0.0041542687675644
30
0
41
1
10
136.733651460135
20
0.289242113137419
30
0
41
1
10
136.775045352122
20
0.520442125136299
30
0
41
1
10
136.816439244109
20
0.754056941365832
30
0
0
SPLINE
5
DB
100
AcDbEntity
8
1
62
256
6
ByLayer
370
13
48
1
60
0
100
AcDbSpline
70
4
71
3
72
22
73
18
40
0
40
0
40
0
40
0
40
0.125
40
0.125
40
0.25
40
0.25
40
0.375
40
0.375
40
0.5
40
0.5
40
0.625
40
0.625
40
0.75
40
0.75
40
0.875
40
0.875
40
1
40
1
40
1
40
1
41
1
10
126.4
20
3.32550795208519
30
0
41
1
10
126.48427003312
20
3.81242702389324
30
0
41
1
10
126.568540066239
20
4.29497602598667
30
0
41
1
10
126.737080132478
20
5.23177457407627
30
0
41
1
10
126.821350165598
20
5.68594050011632
30
0
41
1
10
126.989890231837
20
6.54656734026258
30
0
41
1
10
127.074160264957
20
6.95294607359619
30
0
41
1
10
127.242700331196
20
7.7014477564324
30
0
41
1
10
127.326970364315
20
8.04351208344619
30
0
41
1
10
127.495510430554
20
8.65188411094215
30
0
41
1
10
127.579780463674
20
8.91817152493547
30
0
41
1
10
127.748320529913
20
9.36976851513009
30
0
41
1
10
127.832590563033
20
9.5550974491353
30
0
41
1
10
128.001130629272
20
9.84584129783858
30
0
41
1
10
128.085400662391
20
9.95130410487434
30
0
41
1
10
128.253940728631
20
10.0886036755007
30
0
41
1
10
128.33821076175
20
10.1205
30
0
41
1
10
128.42248079487
20
10.1205
30
0
0
SPLINE
5
DC
100
AcDbEntity
8
1
62
256
6
ByLayer
370
13
48
1
60
0
100
AcDbSpline
70
4
71
3
72
82
73
78
40
0
40
0
40
0
40
0
40
0.0312499999999998
40
0.0312499999999998
40
0.0624999999999996
40
0.0624999999999996
40
0.0937499999999994
40
0.0937499999999994
40
0.124999999999999
40
0.124999999999999
40
0.156249999999999
40
0.156249999999999
40
0.187499999999999
40
0.187499999999999
40
0.218749999999999
40
0.218749999999999
40
0.249999999999999
40
0.249999999999999
40
0.281249999999998
40
0.281249999999998
40
0.296874999999998
40
0.296874999999998
40
0.304687499999998
40
0.304687499999998
40
0.312499999999998
40
0.312499999999998
40
0.343749999999998
40
0.343749999999998
40
0.374999999999998
40
0.374999999999998
40
0.406249999999998
40
0.406249999999998
40
0.437499999999998
40
0.437499999999998
40
0.468749999999997
40
0.468749999999997
40
0.499999999999997
40
0.499999999999997
40
0.531249999999997
40
0.531249999999997
40
0.562499999999996
40
0.562499999999996
40
0.593749999999996
40
0.593749999999996
40
0.609374999999996
40
0.609374999999996
40
0.617187499999996
40
0.617187499999996
40
0.624999999999996
40
0.624999999999996
40
0.656249999999997
40
0.656249999999997
40
0.687499999999997
40
0.687499999999997
40
0.718749999999998
40
0.718749999999998
40
0.749999999999998
40
0.749999999999998
40
0.781249999999999
40
0.781249999999999
40
0.812499999999999
40
0.812499999999999
40
0.84375
40
0.84375
40
0.875000000000001
40
0.875000000000001
40
0.906250000000001
40
0.906250000000001
40
0.921875000000001
40
0.921875000000001
40
0.929687500000001
40
0.929687500000001
40
0.937500000000001
40
0.937500000000001
40
0.968750000000001
40
0.968750000000001
40
1
40
1
40
1
40
1
41
1
10
128.375049690248
20
10.1205
30
0
41
1
10
128.462980831434
20
10.1205
30
0
41
1
10
128.55091197262
20
10.0857606143224
30
0
41
1
10
128.726774254992
20
9.93583667076877
30
0
41
1
10
128.814705396178
20
9.820578717562
30
0
41
1
10
128.99056767855
20
9.50277024930872
30
0
41
1
10
129.078498819736
20
9.30016285771359
30
0
41
1
10
129.254361102109
20
8.80710596507356
30
0
41
1
10
129.342292243295
20
8.51663845086566
30
0
41
1
10
129.518154525667
20
7.85481600708667
30
0
41
1
10
129.606085666853
20
7.48349501113012
30
0
41
1
10
129.781947949225
20
6.67422155445587
30
0
41
1
10
129.869879090411
20
6.2363498791357
30
0
41
1
10
130.045741372783
20
5.31377203469577
30
0
41
1
10
130.133672513969
20
4.82917059294826
30
0
41
1
10
130.309534796341
20
3.83558645147932
30
0
41
1
10
130.397465937527
20
3.32670234210067
30
0
41
1
10
130.573328219899
20
2.30649635576097
30
0
41
1
10
130.661259361085
20
1.795243464398
30
0
41
1
10
130.793156072865
20
1.04066639789596
30
0
41
1
10
130.837121643457
20
0.791160441136498
30
0
41
1
10
130.903069999347
20
0.421373720536394
30
0
41
1
10
130.925052784644
20
0.298854511657566
30
0
41
1
10
130.969018355237
20
0.0555139484765164
30
0
41
1
10
130.991001140533
20
-0.0648838547081709
30
0
41
1
10
131.100915067016
20
-0.673453615727396
30
0
41
1
10
131.188846208202
20
-1.17403917033013
30
0
41
1
10
131.364708490574
20
-2.18726285730847
30
0
41
1
10
131.45263963176
20
-2.69986060528743
30
0
41
1
10
131.628501914132
20
-3.71735590091069
30
0
41
1
10
131.716433055318
20
-4.22217539327158
30
0
41
1
10
131.89229533769
20
-5.20180706405498
30
0
41
1
10
131.980226478876
20
-5.67651636749397
30
0
41
1
10
132.156088761248
20
-6.57384571816826
30
0
41
1
10
132.244019902434
20
-6.99636434468948
30
0
41
1
10
132.419882184807
20
-7.77063140769934
30
0
41
1
10
132.507813325992
20
-8.12230948183284
30
0
41
1
10
132.683675608364
20
-8.74230306415114
30
0
41
1
10
132.771606749551
20
-9.01059828586148
30
0
41
1
10
132.947469031923
20
-9.45873961834931
30
0
41
1
10
133.035400173109
20
-9.63861552738439
30
0
41
1
10
133.211262455481
20
-9.91217611299092
30
0
41
1
10
133.299193596667
20
-10.0059241369884
30
0
41
1
10
133.431090308446
20
-10.0880000923108
30
0
41
1
10
133.475055879039
20
-10.1056404009801
30
0
41
1
10
133.541004234928
20
-10.1185572597765
30
0
41
1
10
133.562987020225
20
-10.1206073228807
30
0
41
1
10
133.606952590818
20
-10.1203840427775
30
0
41
1
10
133.628935376115
20
-10.1181059822332
30
0
41
1
10
133.738849302597
20
-10.0954135981171
30
0
41
1
10
133.826780443783
20
-10.0409532178566
30
0
41
1
10
134.002642726155
20
-9.84933613925583
30
0
41
1
10
134.090573867341
20
-9.71210808218186
30
0
41
1
10
134.266436149714
20
-9.34954988664418
30
0
41
1
10
134.354367290899
20
-9.12417087286195
30
0
41
1
10
134.530229573272
20
-8.58661917827729
30
0
41
1
10
134.618160714458
20
-8.2744411813174
30
0
41
1
10
134.79402299683
20
-7.57220206380703
30
0
41
1
10
134.881954138016
20
-7.18218818804536
30
0
41
1
10
135.057816420388
20
-6.34017888728295
30
0
41
1
10
135.145747561574
20
-5.88827310389092
30
0
41
1
10
135.321609843946
20
-4.94326077688098
30
0
41
1
10
135.409540985132
20
-4.45026021161033
30
0
41
1
10
135.585403267504
20
-3.44567290718169
30
0
41
1
10
135.67333440869
20
-2.93417888725909
30
0
41
1
10
135.849196691062
20
-1.91396170751528
30
0
41
1
10
135.937127832248
20
-1.40529788887741
30
0
41
1
10
136.069024544027
20
-0.657695695255399
30
0
41
1
10
136.11299011462
20
-0.411026989833914
30
0
41
1
10
136.17893847051
20
-0.0461475599690004
30
0
41
1
10
136.200921255807
20
0.0742572685917935
30
0
41
1
10
136.244886826399
20
0.317772244847106
30
0
41
1
10
136.266869611696
20
0.440373436296284
30
0
41
1
10
136.376783538179
20
1.05706593106106
30
0
41
1
10
136.464714679365
20
1.56239837977696
30
0
41
1
10
136.640576961737
20
2.58041302286478
30
0
41
1
10
136.728508102923
20
3.09304482046841
30
0
41
1
10
136.816439244109
20
3.5990396039995
30
0
0
SPLINE
5
DD
100
AcDbEntity
8
1
62
256
6
ByLayer
370
13
48
1
60
0
100
AcDbSpline
70
4
71
3
72
22
73
18
40
0
40
0
40
0
40
0
40
0.125
40
0.125
40
0.25
40
0.25
40
0.375
40
0.375
40
0.5
40
0.5
40
0.625
40
0.625
40
0.75
40
0.75
40
0.875
40
0.875
40
1
40
1
40
1
40
1
41
1
10
126.4
20
6.05554716135708
30
0
41
1
10
126.463696604272
20
6.38247584652717
30
0
41
1
10
126.527393208543
20
6.69601800295138
30
0
41
1
10
126.654786417086
20
7.2889606977638
30
0
41
1
10
126.718483021357
20
7.56834448840993
30
0
41
1
10
126.8458762299
20
8.08703009262521
30
0
41
1
10
126.909572834171
20
8.32632152476145
30
0
41
1
10
127.036966042714
20
8.76076731202366
30
0
41
1
10
127.100662646985
20
8.95591892719511
30
0
41
1
10
127.228055855528
20
9.3001155748054
30
0
41
1
10
127.291752459799
20
9.44916523431522
30
0
41
1
10
127.419145668342
20
9.7012432426898
30
0
41
1
10
127.482842272614
20
9.80428199429926
30
0
41
1
10
127.610235481156
20
9.96624557771256
30
0
41
1
10
127.673932085428
20
10.0251842507982
30
0
41
1
10
127.80132529397
20
10.1023040348123
30
0
41
1
10
127.865021898242
20
10.1205
30
0
41
1
10
127.928718502513
20
10.1205
30
0
0
SPLINE
5
DE
100
AcDbEntity
8
1
62
256
6
ByLayer
370
13
48
1
60
0
100
AcDbSpline
70
4
71
3
72
87
73
83
40
0
40
0
40
0
40
0
40
0.0312500000000004
40
0.0312500000000004
40
0.0625000000000008
40
0.0625000000000008
40
0.0937500000000012
40
0.0937500000000012
40
0.125000000000002
40
0.125000000000002
40
0.156250000000002
40
0.156250000000002
40
0.187500000000003
40
0.187500000000003
40
0.218750000000003
40
0.218750000000003
40
0.250000000000004
40
0.250000000000004
40
0.281250000000004
40
0.281250000000004
40
0.289062500000004
40
0.289062500000004
40
0.292968750000004
40
0.292968750000004
40
0.296875000000005
40
0.296875000000005
40
0.312500000000005
40
0.312500000000005
40
0.343750000000006
40
0.343750000000006
40
0.375000000000006
40
0.375000000000006
40
0.406250000000007
40
0.406250000000007
40
0.437500000000007
40
0.437500000000007
40
0.468750000000007
40
0.468750000000007
40
0.500000000000008
40
0.500000000000008
40
0.531250000000008
40
0.531250000000008
40
0.562500000000009
40
0.562500000000009
40
0.578125000000009
40
0.578125000000009
40
0.582031250000009
40
0.582031250000009
40
0.585937500000009
40
0.585937500000009
40
0.593750000000009
40
0.593750000000009
40
0.62500000000001
40
0.62500000000001
40
0.65625000000001
40
0.65625000000001
40
0.687500000000011
40
0.687500000000011
40
0.718750000000011
40
0.718750000000011
40
0.750000000000011
40
0.750000000000011
40
0.781250000000012
40
0.781250000000012
40
0.812500000000012
40
0.812500000000012
40
0.843750000000013
40
0.843750000000013
40
0.859375000000013
40
0.859375000000013
40
0.867187500000013
40
0.871093750000012
40
0.871093750000012
40
0.875000000000012
40
0.875000000000012
40
0.906250000000009
40
0.906250000000009
40
0.937500000000006
40
0.937500000000006
40
0.968750000000003
40
0.968750000000003
40
1
40
1
40
1
40
1
41
1
10
127.881287397892
20
10.1205
30
0
41
1
10
127.97436189629
20
10.1205
30
0
41
1
10
128.067436394688
20
10.0815585114378
30
0
41
1
10
128.253585391484
20
9.91290562144309
30
0
41
1
10
128.346659889882
20
9.78309731048117
30
0
41
1
10
128.532808886678
20
9.4251434003699
30
0
41
1
10
128.625883385076
20
9.1969270042265
30
0
41
1
10
128.812032381873
20
8.64273783412585
30
0
41
1
10
128.905106880271
20
8.3167526448932
30
0
41
1
10
129.091255877067
20
7.57712029615345
30
0
41
1
10
129.184330375465
20
7.1635343162325
30
0
41
1
10
129.370479372261
20
6.26760992449269
30
0
41
1
10
129.463553870659
20
5.78539188108562
30
0
41
1
10
129.649702867455
20
4.77711904227337
30
0
41
1
10
129.742777365854
20
4.25120476382281
30
0
41
1
10
129.92892636265
20
3.18238187877898
30
0
41
1
10
130.022000861048
20
2.63959080042434
30
0
41
1
10
130.208149857844
20
1.56175371259721
30
0
41
1
10
130.301224356242
20
1.02677565018772
30
0
41
1
10
130.41756747924
20
0.375251885662237
30
0
41
1
10
130.440836103839
20
0.245792800276462
30
0
41
1
10
130.475739040738
20
0.0530587227954982
30
0
41
1
10
130.487373353038
20
-0.0107812370613374
30
0
41
1
10
130.510641977638
20
-0.139055995169485
30
0
41
1
10
130.522276289938
20
-0.203438834721368
30
0
41
1
10
130.580447851436
20
-0.526505560840917
30
0
41
1
10
130.626985100635
20
-0.788662077928905
30
0
41
1
10
130.766596848232
20
-1.58300615046645
30
0
41
1
10
130.859671346631
20
-2.12322984594735
30
0
41
1
10
131.045820343427
20
-3.20344917540001
30
0
41
1
10
131.138894841825
20
-3.74335813231912
30
0
41
1
10
131.325043838621
20
-4.79716276754149
30
0
41
1
10
131.418118337019
20
-5.31092875606831
30
0
41
1
10
131.604267333815
20
-6.28580480502131
30
0
41
1
10
131.697341832214
20
-6.74677615410482
30
0
41
1
10
131.88349082901
20
-7.5927397692528
30
0
41
1
10
131.976565327408
20
-7.97762873427132
30
0
41
1
10
132.162714324204
20
-8.65522530526761
30
0
41
1
10
132.255788822602
20
-8.94789727783791
30
0
41
1
10
132.441937819398
20
-9.4341646254978
30
0
41
1
10
132.535012317796
20
-9.62779568429181
30
0
41
1
10
132.721161314593
20
-9.91837658654319
30
0
41
1
10
132.814235812991
20
-10.0154102546247
30
0
41
1
10
132.953847560588
20
-10.0957886466553
30
0
41
1
10
133.000384809787
20
-10.1117684222313
30
0
41
1
10
133.058556371286
20
-10.119267683511
30
0
41
1
10
133.070190683586
20
-10.1201443207358
30
0
41
1
10
133.093459308185
20
-10.1206792325333
30
0
41
1
10
133.105093620485
20
-10.1203413304158
30
0
41
1
10
133.139996557384
20
-10.1174796221636
30
0
41
1
10
133.163265181984
20
-10.11310309722
30
0
41
1
10
133.279608304981
20
-10.0783313818858
30
0
41
1
10
133.372682803379
20
-10.0090783980981
30
0
41
1
10
133.558831800175
20
-9.77639897116018
30
0
41
1
10
133.651906298574
20
-9.6128807629382
30
0
41
1
10
133.83805529537
20
-9.18667878184516
30
0
41
1
10
133.931129793768
20
-8.92394131365367
30
0
41
1
10
134.117278790564
20
-8.30312676027935
30
0
41
1
10
134.210353288962
20
-7.9450624931396
30
0
41
1
10
134.396502285758
20
-7.14694686123471
30
0
41
1
10
134.489576784156
20
-6.7069804363588
30
0
41
1
10
134.675725780953
20
-5.76646548396067
30
0
41
1
10
134.768800279351
20
-5.26604947517978
30
0
41
1
10
134.954949276147
20
-4.23070923097114
30
0
41
1
10
135.048023774545
20
-3.69592190865751
30
0
41
1
10
135.234172771341
20
-2.61836615294646
30
0
41
1
10
135.327247269739
20
-2.07569981284607
30
0
41
1
10
135.466859017336
20
-1.27315784304949
30
0
41
1
10
135.513396266536
20
-1.00751828040896
30
0
41
1
10
135.583202140334
20
-0.613660355108578
30
0
41
1
10
135.618105077234
20
-0.417877450559757
30
0
41
1
10
135.653008014133
20
-0.224109179645382
30
0
41
1
10
135.676276638732
20
-0.0954080241227473
30
0
41
1
10
135.687910951032
20
-0.031423511768395
30
0
41
1
10
135.79261976173
20
0.544834372021057
30
0
41
1
10
135.885694260128
20
1.07322809710175
30
0
41
1
10
136.071843256924
20
2.14451008041692
30
0
41
1
10
136.164917755322
20
2.68734709400997
30
0
41
1
10
136.351066752118
20
3.76416603593842
30
0
41
1
10
136.444141250517
20
4.29804384406094
30
0
41
1
10
136.630290247313
20
5.3304202534832
30
0
41
1
10
136.723364745711
20
5.82878122550542
30
0
41
1
10
136.816439244109
20
6.29646618956662
30
0
0
SPLINE
5
DF
100
AcDbEntity
8
1
62
256
6
ByLayer
370
13
48
1
60
0
100
AcDbSpline
70
4
71
3
72
14
73
10
40
0
40
0
40
0
40
0
40
0.25
40
0.25
40
0.5
40
0.5
40
0.75
40
0.75
40
1
40
1
40
1
40
1
41
1
10
126.4
20
8.26110214891798
30
0
41
1
10
126.486246350846
20
8.57960936018949
30
0
41
1
10
126.572492701693
20
8.85883276062387
30
0
41
1
10
126.744985403385
20
9.33259491139046
30
0
41
1
10
126.831231754232
20
9.5271525166583
30
0
41
1
10
127.003724455925
20
9.83235005224907
30
0
41
1
10
127.089970806771
20
9.9430426209465
30
0
41
1
10
127.262463508464
20
10.087084220288
30
0
41
1
10
127.34870985931
20
10.1205
30
0
41
1
10
127.434956210157
20
10.1205
30
0
0
SPLINE
5
E0
100
AcDbEntity
8
1
62
256
6
ByLayer
370
13
48
1
60
0
100
AcDbSpline
70
4
71
3
72
86
73
82
40
0
40
0
40
0
40
0
40
0.0312499999999998
40
0.0312499999999998
40
0.0624999999999997
40
0.0624999999999997
40
0.0937499999999995
40
0.0937499999999995
40
0.124999999999999
40
0.124999999999999
40
0.156249999999999
40
0.156249999999999
40
0.187499999999999
40
0.187499999999999
40
0.218749999999999
40
0.218749999999999
40
0.249999999999999
40
0.249999999999999
40
0.265624999999999
40
0.265624999999999
40
0.273437499999999
40
0.273437499999999
40
0.277343749999999
40
0.277343749999999
40
0.281249999999999
40
0.281249999999999
40
0.312499999999999
40
0.312499999999999
40
0.343749999999999
40
0.343749999999999
40
0.374999999999999
40
0.374999999999999
40
0.406249999999999
40
0.406249999999999
40
0.437499999999999
40
0.437499999999999
40
0.468749999999999
40
0.468749999999999
40
0.499999999999999
40
0.499999999999999
40
0.531249999999999
40
0.531249999999999
40
0.546874999999999
40
0.546874999999999
40
0.550781249999999
40
0.550781249999999
40
0.554687499999999
40
0.554687499999999
40
0.562499999999999
40
0.562499999999999
40
0.593749999999999
40
0.593749999999999
40
0.624999999999999
40
0.624999999999999
40
0.656249999999999
40
0.656249999999999
40
0.687499999999999
40
0.687499999999999
40
0.718749999999999
40
0.718749999999999
40
0.75
40
0.75
40
0.78125
40
0.78125
40
0.8125
40
0.8125
40
0.828125
40
0.828125
40
0.8359375
40
0.8359375
40
0.84375
40
0.84375
40
0.875
40
0.875
40
0.90625
40
0.90625
40
0.9375
40
0.9375
40
0.96875
40
0.96875
40
1
40
1
40
1
40
1
41
1
10
127.387525105535
20
10.1205
30
0
41
1
10
127.485742961145
20
10.1205
30
0
41
1
10
127.583960816755
20
10.0771125894962
30
0
41
1
10
127.780396527976
20
9.88856191996894
30
0
41
1
10
127.878614383586
20
9.74327279809251
30
0
41
1
10
128.075050094806
20
9.34269714406804
30
0
41
1
10
128.173267950416
20
9.08732476329777
30
0
41
1
10
128.369703661636
20
8.46874558760413
30
0
41
1
10
128.467921517247
20
8.10553815459139
30
0
41
1
10
128.664357228467
20
7.28529282444001
30
0
41
1
10
128.762575084077
20
6.82835498977983
30
0
41
1
10
128.959010795297
20
5.84501977931245
30
0
41
1
10
129.057228650908
20
5.31879280471807
30
0
41
1
10
129.253664362128
20
4.22739997122298
30
0
41
1
10
129.351882217738
20
3.66241334563389
30
0
41
1
10
129.548317928958
20
2.52467617158183
30
0
41
1
10
129.646535784568
20
1.9520566008859
30
0
41
1
10
129.793862567984
20
1.10753698787317
30
0
41
1
10
129.842971495789
20
0.828386939476871
30
0
41
1
10
129.916634887496
20
0.415228729776658
30
0
41
1
10
129.941189351399
20
0.278433516926924
30
0
41
1
10
129.978021047252
20
0.0748476191689065
30
0
41
1
10
129.990298279204
20
0.0074373698551824
30
0
41
1
10
130.014852743106
20
-0.127846520248596
30
0
41
1
10
130.027129975058
20
-0.195763050869232
30
0
41
1
10
130.137625062619
20
-0.809325329256922
30
0
41
1
10
130.235842918229
20
-1.37147022105887
30
0
41
1
10
130.43227862945
20
-2.50707252192331
30
0
41
1
10
130.53049648506
20
-3.08044818565185
30
0
41
1
10
130.72693219628
20
-4.20988620314782
30
0
41
1
10
130.82515005189
20
-4.76579733046623
30
0
41
1
10
131.02158576311
20
-5.82880938857474
30
0
41
1
10
131.119803618721
20
-6.3357267273002
30
0
41
1
10
131.316239329941
20
-7.27158465667486
30
0
41
1
10
131.414457185551
20
-7.70037178682279
30
0
41
1
10
131.610892896771
20
-8.458441090669
30
0
41
1
10
131.709110752381
20
-8.78765476239604
30
0
41
1
10
131.905546463602
20
-9.33620191331502
30
0
41
1
10
132.003764319212
20
-9.55556735816307
30
0
41
1
10
132.200200030432
20
-9.88575812160835
30
0
41
1
10
132.298417886042
20
-9.99668781292314
30
0
41
1
10
132.445744669457
20
-10.0898291555007
30
0
41
1
10
132.494853597263
20
-10.1087307779739
30
0
41
1
10
132.556239757019
20
-10.1183824148836
30
0
41
1
10
132.56851698897
20
-10.119614689499
30
0
41
1
10
132.593071452873
20
-10.1207159195916
30
0
41
1
10
132.605348684824
20
-10.1205896841499
30
0
41
1
10
132.642180380678
20
-10.1181665044735
30
0
41
1
10
132.66673484458
20
-10.113811457881
30
0
41
1
10
132.789507164093
20
-10.0776954645965
30
0
41
1
10
132.887725019703
20
-10.0026733103208
30
0
41
1
10
133.084160730923
20
-9.74723276664767
30
0
41
1
10
133.182378586534
20
-9.5666959522859
30
0
41
1
10
133.378814297754
20
-9.09506616089749
30
0
41
1
10
133.477032153364
20
-8.80391086781438
30
0
41
1
10
133.673467864584
20
-8.11701707152102
30
0
41
1
10
133.771685720195
20
-7.72131103630869
30
0
41
1
10
133.968121431415
20
-6.84299301953564
30
0
41
1
10
134.066339287025
20
-6.36050934131811
30
0
41
1
10
134.262774998245
20
-5.33556371518557
30
0
41
1
10
134.360992853855
20
-4.79328232694576
30
0
41
1
10
134.557428565075
20
-3.68008218728511
30
0
41
1
10
134.655646420686
20
-3.10933207363453
30
0
41
1
10
134.852082131906
20
-1.96946172228536
30
0
41
1
10
134.950299987516
20
-1.40044954796508
30
0
41
1
10
135.097626770931
20
-0.566816525173778
30
0
41
1
10
135.146735698736
20
-0.292201088581805
30
0
41
1
10
135.220399090444
20
0.113027118524144
30
0
41
1
10
135.244953554346
20
0.248762814081857
30
0
41
1
10
135.294062482152
20
0.522652810282665
30
0
41
1
10
135.318616946054
20
0.66058351482377
30
0
41
1
10
135.441389265567
20
1.35438547980752
30
0
41
1
10
135.539607121177
20
1.92297210292548
30
0
41
1
10
135.736042832397
20
3.06275083759655
30
0
41
1
10
135.834260688007
20
3.63383688829896
30
0
41
1
10
136.030696399228
20
4.74856819647351
30
0
41
1
10
136.128914254838
20
5.2920459610078
30
0
41
1
10
136.325349966058
20
6.32020527268864
30
0
41
1
10
136.423567821668
20
6.80470572835497
30
0
41
1
10
136.620003532889
20
7.6876899196933
30
0
41
1
10
136.718221388499
20
8.08604318104483
30
0
41
1
10
136.816439244109
20
8.43230535492617
30
0
0
SPLINE
5
E1
100
AcDbEntity
8
1
62
256
6
ByLayer
370
13
48
1
60
0
100
AcDbSpline
70
4
71
3
72
10
73
6
40
0
40
0
40
0
40
0
40
0.5
40
0.5
40
1
40
1
40
1
40
1
41
1
10
126.4
20
9.63673774429762
30
0
41
1
10
126.4901989863
20
9.80433976436075
30
0
41
1
10
126.5803979726
20
9.92589923947105
30
0
41
1
10
126.7607959452
20
10.0839377865373
30
0
41
1
10
126.8509949315
20
10.1205
30
0
41
1
10
126.9411939178
20
10.1205
30
0
0
SPLINE
5
E2
100
AcDbEntity
8
1
62
256
6
ByLayer
370
13
48
1
60
0
100
AcDbSpline
70
4
71
3
72
132
73
128
40
0
40
0
40
0
40
0
40
0.0312499999999971
40
0.0312499999999971
40
0.0468749999999956
40
0.0468749999999956
40
0.062499999999994
40
0.062499999999994
40
0.0781249999999925
40
0.0781249999999925
40
0.093749999999991
40
0.093749999999991
40
0.109374999999989
40
0.109374999999989
40
0.124999999999988
40
0.124999999999988
40
0.140624999999986
40
0.140624999999986
40
0.156249999999985
40
0.156249999999985
40
0.171874999999983
40
0.171874999999983
40
0.187499999999982
40
0.187499999999982
40
0.20312499999998
40
0.20312499999998
40
0.218749999999979
40
0.218749999999979
40
0.249999999999975
40
0.249999999999975
40
0.257812499999975
40
0.257812499999975
40
0.261718749999974
40
0.261718749999974
40
0.265624999999974
40
0.265624999999974
40
0.281249999999973
40
0.281249999999973
40
0.312499999999972
40
0.312499999999972
40
0.328124999999972
40
0.328124999999972
40
0.343749999999971
40
0.343749999999971
40
0.359374999999971
40
0.359374999999971
40
0.37499999999997
40
0.37499999999997
40
0.39062499999997
40
0.39062499999997
40
0.406249999999969
40
0.406249999999969
40
0.421874999999969
40
0.421874999999969
40
0.437499999999968
40
0.437499999999968
40
0.453124999999968
40
0.453124999999968
40
0.468749999999967
40
0.468749999999967
40
0.499999999999966
40
0.499999999999966
40
0.515624999999965
40
0.515624999999965
40
0.523437499999965
40
0.523437499999965
40
0.527343749999965
40
0.527343749999965
40
0.531249999999965
40
0.531249999999965
40
0.562499999999966
40
0.562499999999966
40
0.578124999999967
40
0.578124999999967
40
0.593749999999968
40
0.593749999999968
40
0.609374999999968
40
0.609374999999968
40
0.624999999999969
40
0.624999999999969
40
0.64062499999997
40
0.64062499999997
40
0.65624999999997
40
0.65624999999997
40
0.671874999999971
40
0.671874999999971
40
0.687499999999972
40
0.687499999999972
40
0.703124999999972
40
0.703124999999972
40
0.718749999999973
40
0.718749999999973
40
0.734374999999974
40
0.734374999999974
40
0.749999999999974
40
0.749999999999974
40
0.781249999999976
40
0.781249999999976
40
0.785156249999976
40
0.785156249999976
40
0.789062499999976
40
0.789062499999976
40
0.796874999999977
40
0.796874999999977
40
0.812499999999979
40
0.812499999999979
40
0.843749999999982
40
0.843749999999982
40
0.859374999999984
40
0.859374999999984
40
0.874999999999986
40
0.874999999999986
40
0.890624999999987
40
0.890624999999987
40
0.906249999999989
40
0.906249999999989
40
0.921874999999991
40
0.921874999999991
40
0.937499999999993
40
0.937499999999993
40
0.953124999999995
40
0.953124999999995
40
0.968749999999996
40
0.968749999999996
40
0.984374999999998
40
0.984374999999998
40
1
40
1
40
1
40
1
41
1
10
126.893762813178
20
10.1205
30
0
41
1
10
126.997124026001
20
10.1205
30
0
41
1
10
127.100485238823
20
10.0724218748331
30
0
41
1
10
127.255527058056
20
9.9152024667122
30
0
41
1
10
127.307207664467
20
9.84865849711525
30
0
41
1
10
127.41056887729
20
9.68589515432299
30
0
41
1
10
127.462249483701
20
9.58967131684565
30
0
41
1
10
127.565610696523
20
9.3668395319479
30
0
41
1
10
127.617291302934
20
9.24022834218721
30
0
41
1
10
127.720652515756
20
8.95673290949085
30
0
41
1
10
127.772333122167
20
8.79984716625339
30
0
41
1
10
127.875694334989
20
8.45680651171955
30
0
41
1
10
127.927374941401
20
8.27065220235096
30
0
41
1
10
128.030736154223
20
7.87098580649081
30
0
41
1
10
128.082416760634
20
7.65747653637155
30
0
41
1
10
128.185777973456
20
7.20586800518723
30
0
41
1
10
128.237458579867
20
6.96777359310468
30
0
41
1
10
128.340819792689
20
6.47050297786149
30
0
41
1
10
128.3925003991
20
6.21133319400252
30
0
41
1
10
128.495861611922
20
5.67598937307014
30
0
41
1
10
128.547542218333
20
5.39982265697557
30
0
41
1
10
128.650903431156
20
4.83492298334542
30
0
41
1
10
128.702584037567
20
4.54619749036993
30
0
41
1
10
128.805945250389
20
3.96075398057599
30
0
41
1
10
128.8576258568
20
3.66404285358979
30
0
41
1
10
128.960987069622
20
3.06711947238824
30
0
41
1
10
129.012667676033
20
2.76691296409285
30
0
41
1
10
129.167709495267
20
1.86736799285177
30
0
41
1
10
129.271070708089
20
1.26938102064398
30
0
41
1
10
129.400272224117
20
0.541661364102197
30
0
41
1
10
129.426112527322
20
0.397084697789836
30
0
41
1
10
129.46487298213
20
0.181935590171577
30
0
41
1
10
129.477793133733
20
0.110504915063615
30
0
41
1
10
129.503633436939
20
-0.0317443552381462
30
0
41
1
10
129.516553588542
20
-0.102788186964176
30
0
41
1
10
129.581154346556
20
-0.460300813552721
30
0
41
1
10
129.632834952967
20
-0.751027393175548
30
0
41
1
10
129.7878767722
20
-1.63297840833331
30
0
41
1
10
129.891237985022
20
-2.23421511441526
30
0
41
1
10
130.046279804255
20
-3.13358399111104
30
0
41
1
10
130.097960410667
20
-3.43289406845739
30
0
41
1
10
130.201321623489
20
-4.02621773879739
30
0
41
1
10
130.2530022299
20
-4.32022506374648
30
0
41
1
10
130.356363442722
20
-4.89839512894164
30
0
41
1
10
130.408044049133
20
-5.1825506658638
30
0
41
1
10
130.511405261955
20
-5.7364721489017
30
0
41
1
10
130.563085868366
20
-6.00623059718754
30
0
41
1
10
130.666447081188
20
-6.52703916944091
30
0
41
1
10
130.7181276876
20
-6.77808225059334
30
0
41
1
10
130.821488900422
20
-7.25758871738057
30
0
41
1
10
130.873169506833
20
-7.48604625251471
30
0
41
1
10
130.976530719655
20
-7.91715382311031
30
0
41
1
10
131.028211326066
20
-8.11979979719143
30
0
41
1
10
131.131572538888
20
-8.49685082598842
30
0
41
1
10
131.183253145299
20
-8.67125396213595
30
0
41
1
10
131.286614358122
20
-8.99027109237872
30
0
41
1
10
131.338294964533
20
-9.1348853707174
30
0
41
1
10
131.441656177355
20
-9.39368622322203
30
0
41
1
10
131.493336783766
20
-9.507875062658
30
0
41
1
10
131.648378602999
20
-9.80514764210344
30
0
41
1
10
131.751739815822
20
-9.94262586459439
30
0
41
1
10
131.906781635055
20
-10.0657719443156
30
0
41
1
10
131.958462241466
20
-10.0930599469101
30
0
41
1
10
132.035983151082
20
-10.1149546460935
30
0
41
1
10
132.061823454288
20
-10.1190833519866
30
0
41
1
10
132.100583909096
20
-10.1207478831543
30
0
41
1
10
132.113504060699
20
-10.1205538635155
30
0
41
1
10
132.139344363905
20
-10.1186532582971
30
0
41
1
10
132.152264515508
20
-10.116943303444
30
0
41
1
10
132.268545879933
20
-10.0945462351682
30
0
41
1
10
132.371907092755
20
-10.0245214842484
30
0
41
1
10
132.526948911988
20
-9.83238163187514
30
0
41
1
10
132.578629518399
20
-9.75387227649941
30
0
41
1
10
132.681990731221
20
-9.56679701773695
30
0
41
1
10
132.733671337632
20
-9.45822707945891
30
0
41
1
10
132.837032550454
20
-9.21064407113252
30
0
41
1
10
132.888713156866
20
-9.07162841284563
30
0
41
1
10
132.992074369688
20
-8.76362321334796
30
0
41
1
10
133.043754976099
20
-8.5946329977171
30
0
41
1
10
133.147116188921
20
-8.22805438147483
30
0
41
1
10
133.198796795332
20
-8.0304674881699
30
0
41
1
10
133.302158008154
20
-7.60896597834852
30
0
41
1
10
133.353838614566
20
-7.38505504563679
30
0
41
1
10
133.457199827388
20
-6.91399250707371
30
0
41
1
10
133.508880433799
20
-6.66684646010236
30
0
41
1
10
133.612241646621
20
-6.15307723387792
30
0
41
1
10
133.663922253032
20
-5.88646093021811
30
0
41
1
10
133.767283465854
20
-5.33800231309721
30
0
41
1
10
133.818964072265
20
-5.05616747125907
30
0
41
1
10
133.922325285088
20
-4.48179235973231
30
0
41
1
10
133.974005891499
20
-4.18925940067047
30
0
41
1
10
134.077367104321
20
-3.59805343239188
30
0
41
1
10
134.129047710732
20
-3.29938690415432
30
0
41
1
10
134.232408923554
20
-2.70031461992471
30
0
41
1
10
134.284089529965
20
-2.39991402877433
30
0
41
1
10
134.439131349198
20
-1.50219323546662
30
0
41
1
10
134.542492562021
20
-0.908643055128891
30
0
41
1
10
134.658773926446
20
-0.261322542042251
30
0
41
1
10
134.671694078048
20
-0.189675924714209
30
0
41
1
10
134.697534381254
20
-0.0469800085635654
30
0
41
1
10
134.710454532857
20
0.0238864803212095
30
0
41
1
10
134.749214987665
20
0.237735741021169
30
0
41
1
10
134.775055290871
20
0.381506427416923
30
0
41
1
10
134.852576200487
20
0.815922525966727
30
0
41
1
10
134.904256806898
20
1.10968974600255
30
0
41
1
10
135.059298626132
20
1.99872919068153
30
0
41
1
10
135.162659838954
20
2.60195617021378
30
0
41
1
10
135.317701658187
20
3.49906796113413
30
0
41
1
10
135.369382264598
20
3.79675702429461
30
0
41
1
10
135.47274347742
20
4.38499800443793
30
0
41
1
10
135.524424083831
20
4.67554320583048
30
0
41
1
10
135.627785296654
20
5.24492346919911
30
0
41
1
10
135.679465903065
20
5.52375112185203
30
0
41
1
10
135.782827115887
20
6.06521618047472
30
0
41
1
10
135.834507722298
20
6.32784618133704
30
0
41
1
10
135.93786893512
20
6.83275377714781
30
0
41
1
10
135.989549541531
20
7.07502473149884
30
0
41
1
10
136.092910754354
20
7.53558367980219
30
0
41
1
10
136.144591360765
20
7.7538664924557
30
0
41
1
10
136.247952573587
20
8.1635301241821
30
0
41
1
10
136.299633179998
20
8.35490772885194
30
0
41
1
10
136.40299439282
20
8.70868112159741
30
0
41
1
10
136.454674999231
20
8.87107589872821
30
0
41
1
10
136.558036212054
20
9.16570704493518
30
0
41
1
10
136.609716818465
20
9.29794454677247
30
0
41
1
10
136.713078031287
20
9.53198544651772
30
0
41
1
10
136.764758637698
20
9.63379180078826
30
0
41
1
10
136.816439244109
20
9.72066230215816
30
0
0
SPLINE
5
E3
100
AcDbEntity
8
1
62
256
6
ByLayer
370
13
48
1
60
0
100
AcDbSpline
70
4
71
3
72
8
73
4
40
0
40
0
40
0
40
0
40
1
40
1
40
1
40
1
41
1
10
126.4
20
10.1171069306174
30
0
41
1
10
126.415810541815
20
10.1193807279285
30
0
41
1
10
126.431621083629
20
10.1205
30
0
41
1
10
126.447431625444
20
10.1205
30
0
0
SPLINE
5
E4
100
AcDbEntity
8
1
62
256
6
ByLayer
370
13
48
1
60
0
100
AcDbSpline
70
4
71
3
72
134
73
130
40
0
40
0
40
0
40
0
40
0.015625
40
0.015625
40
0.03125
40
0.03125
40
0.046875
40
0.046875
40
0.0625
40
0.0625
40
0.078125
40
0.078125
40
0.09375
40
0.09375
40
0.109375
40
0.109375
40
0.125
40
0.125
40
0.140625
40
0.140625
40
0.15625
40
0.15625
40
0.171875
40
0.171875
40
0.1875
40
0.1875
40
0.203125
40
0.203125
40
0.21875
40
0.21875
40
0.234375
40
0.234375
40
0.25
40
0.25
40
0.265625
40
0.265625
40
0.28125
40
0.28125
40
0.296875
40
0.296875
40
0.3125
40
0.3125
40
0.328125
40
0.328125
40
0.34375
40
0.34375
40
0.359375
40
0.359375
40
0.375
40
0.375
40
0.390625
40
0.390625
40
0.40625
40
0.40625
40
0.421875
40
0.421875
40
0.4375
40
0.4375
40
0.453125
40
0.453125
40
0.46875
40
0.46875
40
0.484375
40
0.484375
40
0.5
40
0.5
40
0.515625
40
0.515625
40
0.53125
40
0.53125
40
0.546875
40
0.546875
40
0.5625
40
0.5625
40
0.578125
40
0.578125
40
0.59375
40
0.59375
40
0.609375
40
0.609375
40
0.625
40
0.625
40
0.640625
40
0.640625
40
0.65625
40
0.65625
40
0.671875
40
0.671875
40
0.6875
40
0.6875
40
0.703125
40
0.703125
40
0.71875
40
0.71875
40
0.734375
40
0.734375
40
0.75
40
0.75
40
0.765625
40
0.765625
40
0.78125
40
0.78125
40
0.796875
40
0.796875
40
0.8125
40
0.8125
40
0.828125
40
0.828125
40
0.84375
40
0.84375
40
0.859375
40
0.859375
40
0.875
40
0.875
40
0.890625
40
0.890625
40
0.90625
40
0.90625
40
0.921875
40
0.921875
40
0.9375
40
0.9375
40
0.953125
40
0.953125
40
0.96875
40
0.96875
40
0.984375
40
0.984375
40
1
40
1
40
1
40
1
41
1
10
126.400000520822
20
10.1205
30
0
41
1
10
126.454252805839
20
10.1205
30
0
41
1
10
126.508505090856
20
10.1073065795262
30
0
41
1
10
126.61700966089
20
10.0518167340305
30
0
41
1
10
126.671261945908
20
10.0095136551185
30
0
41
1
10
126.779766515942
20
9.89357034178431
30
0
41
1
10
126.834018800959
20
9.8199236462701
30
0
41
1
10
126.942523370993
20
9.63975274747051
30
0
41
1
10
126.99677565601
20
9.53322304275932
30
0
41
1
10
127.105280226045
20
9.28662210700588
30
0
41
1
10
127.159532511062
20
9.14654713946891
30
0
41
1
10
127.268037081096
20
8.83320967777522
30
0
41
1
10
127.322289366113
20
8.65994590749392
30
0
41
1
10
127.430793936147
20
8.28168057552162
30
0
41
1
10
127.485046221164
20
8.07668062572921
30
0
41
1
10
127.593550791199
20
7.63748470512894
30
0
41
1
10
127.647803076216
20
7.40329327125502
30
0
41
1
10
127.75630764625
20
6.90925567958701
30
0
41
1
10
127.810559931267
20
6.64941658499708
30
0
41
1
10
127.919064501301
20
6.10844852175666
30
0
41
1
10
127.973316786319
20
5.82732836289426
30
0
41
1
10
128.081821356353
20
5.24874512324931
30
0
41
1
10
128.13607364137
20
4.95129158320174
30
0
41
1
10
128.244578211404
20
4.34529127474534
30
0
41
1
10
128.298830496421
20
4.03675372124667
30
0
41
1
10
128.407335066455
20
3.41385241621757
30
0
41
1
10
128.461587351472
20
3.09949664531072
30
0
41
1
10
128.570091921507
20
2.46998200892796
30
0
41
1
10
128.624344206524
20
2.15482926493942
30
0
41
1
10
128.732848776558
20
1.52828619467528
30
0
41
1
10
128.787101061575
20
1.2168998449703
30
0
41
1
10
128.895605631609
20
0.601845216390075
30
0
41
1
10
128.949857916627
20
0.298178800243534
30
0
41
1
10
129.058362486661
20
-0.298177368988718
30
0
41
1
10
129.112614771678
20
-0.601843752518761
30
0
41
1
10
129.221119341712
20
-1.21689835657941
30
0
41
1
10
129.275371626729
20
-1.52828469691767
30
0
41
1
10
129.383876196764
20
-2.15482775529026
30
0
41
1
10
129.438128481781
20
-2.46998049675741
30
0
41
1
10
129.546633051815
20
-3.09949513581097
30
0
41
1
10
129.600885336832
20
-3.41385091191327
30
0
41
1
10
129.709389906866
20
-4.03675223562462
30
0
41
1
10
129.763642191883
20
-4.34528980261263
30
0
41
1
10
129.872146761918
20
-4.95129014653284
30
0
41
1
10
129.926399046935
20
-5.24874370855619
30
0
41
1
10
130.034903616969
20
-5.82732700038767
30
0
41
1
10
130.089155901986
20
-6.10844718946049
30
0
41
1
10
130.19766047202
20
-6.64941532064634
30
0
41
1
10
130.251912757037
20
-6.90925445296927
30
0
41
1
10
130.360417327072
20
-7.40329212649209
30
0
41
1
10
130.414669612089
20
-7.63748360448434
30
0
41
1
10
130.523174182123
20
-8.07667961823313
30
0
41
1
10
130.57742646714
20
-8.28167961705122
30
0
41
1
10
130.685931037174
20
-8.65994505029045
30
0
41
1
10
130.740183322192
20
-8.83320887280817
30
0
41
1
10
130.848687892226
20
-9.14654644041588
30
0
41
1
10
130.902940177243
20
-9.28662146162606
30
0
41
1
10
131.011444747277
20
-9.53322250445439
30
0
41
1
10
131.065697032294
20
-9.63975226256383
30
0
41
1
10
131.174201602329
20
-9.81992326635623
30
0
41
1
10
131.228453887346
20
-9.89357001346283
30
0
41
1
10
131.33695845738
20
-10.0095134269119
30
0
41
1
10
131.391210742397
20
-10.0518165543454
30
0
41
1
10
131.499715312431
20
-10.1073064928599
30
0
41
1
10
131.553967597448
20
-10.1204999578312
30
0
41
1
10
131.662472167483
20
-10.1205000421687
30
0
41
1
10
131.7167244525
20
-10.1073066661924
30
0
41
1
10
131.825229022534
20
-10.0518169137154
30
0
41
1
10
131.879481307551
20
-10.009513883325
30
0
41
1
10
131.987985877585
20
-9.89357067010556
30
0
41
1
10
132.042238162602
20
-9.81992402618374
30
0
41
1
10
132.150742732637
20
-9.63975323237696
30
0
41
1
10
132.204995017654
20
-9.53322358106402
30
0
41
1
10
132.313499587688
20
-9.28662275238545
30
0
41
1
10
132.367751872705
20
-9.14654783852171
30
0
41
1
10
132.476256442739
20
-8.83321048274203
30
0
41
1
10
132.530508727757
20
-8.65994676469717
30
0
41
1
10
132.639013297791
20
-8.28168153399176
30
0
41
1
10
132.693265582808
20
-8.07668163322506
30
0
41
1
10
132.801770152842
20
-7.63748580577331
30
0
41
1
10
132.856022437859
20
-7.40329441601773
30
0
41
1
10
132.964527007893
20
-6.90925690620458
30
0
41
1
10
133.018779292911
20
-6.64941784934763
30
0
41
1
10
133.127283862945
20
-6.10844985405268
30
0
41
1
10
133.181536147962
20
-5.82732972540072
30
0
41
1
10
133.290040717996
20
-5.24874653794231
30
0
41
1
10
133.344293003013
20
-4.95129301987055
30
0
41
1
10
133.452797573047
20
-4.34529274687799
30
0
41
1
10
133.507049858065
20
-4.03675520686869
30
0
41
1
10
133.615554428099
20
-3.41385392052183
30
0
41
1
10
133.669806713116
20
-3.09949815481045
30
0
41
1
10
133.77831128315
20
-2.46998352109853
30
0
41
1
10
133.832563568167
20
-2.15483077458859
30
0
41
1
10
133.941068138202
20
-1.52828769243288
30
0
41
1
10
133.995320423219
20
-1.21690133336122
30
0
41
1
10
134.103824993253
20
-0.601846680261446
30
0
41
1
10
134.15807727827
20
-0.298180248965252
30
0
41
1
10
134.266581848304
20
0.298175955200719
30
0
41
1
10
134.320834133321
20
0.601842288647504
30
0
41
1
10
134.429338703356
20
1.21689686818857
30
0
41
1
10
134.483590988373
20
1.52828319916011
30
0
41
1
10
134.592095558407
20
2.15482624564112
30
0
41
1
10
134.646347843424
20
2.46997898458687
30
0
41
1
10
134.754852413458
20
3.09949362631119
30
0
41
1
10
134.809104698475
20
3.41384940760892
30
0
41
1
10
134.91760926851
20
4.03675075000251
30
0
41
1
10
134.971861553527
20
4.34528833047986
30
0
41
1
10
135.080366123561
20
4.95128870986386
30
0
41
1
10
135.134618408578
20
5.24874229386296
30
0
41
1
10
135.243122978612
20
5.82732563788093
30
0
41
1
10
135.29737526363
20
6.10844585716416
30
0
41
1
10
135.405879833664
20
6.64941405629543
30
0
41
1
10
135.460132118681
20
6.90925322635132
30
0
41
1
10
135.568636688715
20
7.40329098172896
30
0
41
1
10
135.622888973732
20
7.63748250383955
30
0
41
1
10
135.731393543766
20
8.07667861073682
30
0
41
1
10
135.785645828784
20
8.2816786585806
30
0
41
1
10
135.894150398818
20
8.65994419308672
30
0
41
1
10
135.948402683835
20
8.83320806784087
30
0
41
1
10
136.056907253869
20
9.14654574136259
30
0
41
1
10
136.111159538886
20
9.28662081624597
30
0
41
1
10
136.219664108921
20
9.5332219661492
30
0
41
1
10
136.273916393938
20
9.63975177765687
30
0
41
1
10
136.382420963972
20
9.8199228864421
30
0
41
1
10
136.436673248989
20
9.8935696851411
30
0
41
1
10
136.545177819023
20
10.009513198705
30
0
41
1
10
136.59943010404
20
10.05181637466
30
0
41
1
10
136.707934674074
20
10.1073064061933
30
0
41
1
10
136.762186959092
20
10.1204999156621
30
0
41
1
10
136.816439244109
20
10.1204999999996
30
0
0
SPLINE
5
E5
100
AcDbEntity
8
1
62
256
6
ByLayer
370
13
48
1
60
0
100
AcDbSpline
70
4
71
3
72
131
73
127
40
0
40
0
40
0
40
0
40
0.0156249999999986
40
0.0156249999999986
40
0.0312499999999971
40
0.0312499999999971
40
0.0468749999999957
40
0.0468749999999957
40
0.0624999999999943
40
0.0624999999999943
40
0.0781249999999928
40
0.0781249999999928
40
0.0937499999999914
40
0.0937499999999914
40
0.10937499999999
40
0.10937499999999
40
0.124999999999988
40
0.124999999999988
40
0.140624999999987
40
0.140624999999987
40
0.156249999999986
40
0.156249999999986
40
0.187499999999983
40
0.187499999999983
40
0.203124999999982
40
0.203124999999982
40
0.210937499999981
40
0.210937499999981
40
0.214843749999981
40
0.214843749999981
40
0.218749999999981
40
0.218749999999981
40
0.249999999999979
40
0.249999999999979
40
0.265624999999978
40
0.265624999999978
40
0.281249999999978
40
0.281249999999978
40
0.296874999999977
40
0.296874999999977
40
0.312499999999976
40
0.312499999999976
40
0.328124999999976
40
0.328124999999976
40
0.343749999999975
40
0.343749999999975
40
0.359374999999974
40
0.359374999999974
40
0.374999999999973
40
0.374999999999973
40
0.390624999999973
40
0.390624999999973
40
0.406249999999972
40
0.406249999999972
40
0.421874999999971
40
0.421874999999971
40
0.437499999999971
40
0.437499999999971
40
0.468749999999969
40
0.468749999999969
40
0.472656249999969
40
0.472656249999969
40
0.476562499999969
40
0.476562499999969
40
0.484374999999969
40
0.484374999999969
40
0.49999999999997
40
0.49999999999997
40
0.531249999999971
40
0.531249999999971
40
0.546874999999971
40
0.546874999999971
40
0.562499999999972
40
0.562499999999972
40
0.578124999999972
40
0.578124999999972
40
0.593749999999973
40
0.593749999999973
40
0.609374999999973
40
0.609374999999973
40
0.624999999999974
40
0.624999999999974
40
0.640624999999975
40
0.640624999999975
40
0.656249999999975
40
0.656249999999975
40
0.671874999999976
40
0.671874999999976
40
0.687499999999976
40
0.687499999999976
40
0.718749999999977
40
0.718749999999977
40
0.734374999999978
40
0.734374999999978
40
0.738281249999979
40
0.738281249999979
40
0.742187499999979
40
0.74999999999998
40
0.74999999999998
40
0.781249999999982
40
0.781249999999982
40
0.796874999999983
40
0.796874999999983
40
0.812499999999985
40
0.812499999999985
40
0.828124999999986
40
0.828124999999986
40
0.843749999999987
40
0.843749999999987
40
0.859374999999989
40
0.859374999999989
40
0.87499999999999
40
0.87499999999999
40
0.890624999999991
40
0.890624999999991
40
0.906249999999993
40
0.906249999999993
40
0.921874999999994
40
0.921874999999994
40
0.937499999999995
40
0.937499999999995
40
0.953124999999996
40
0.953124999999996
40
0.968749999999998
40
0.968749999999998
40
1
40
1
40
1
40
1
41
1
10
126.4
20
9.72066405306688
30
0
41
1
10
126.451680611836
20
9.63379374283585
30
0
41
1
10
126.503361223673
20
9.53198757974516
30
0
41
1
10
126.606722447345
20
9.29794705702568
30
0
41
1
10
126.658403059182
20
9.16570974102223
30
0
41
1
10
126.761764282854
20
8.87107895547408
30
0
41
1
10
126.813444894691
20
8.70868435315447
30
0
41
1
10
126.916806118363
20
8.35491129349998
30
0
41
1
10
126.9684867302
20
8.1635338470962
30
0
41
1
10
127.071847953872
20
7.75387051041889
30
0
41
1
10
127.123528565708
20
7.53558783453667
30
0
41
1
10
127.226889789381
20
7.07502913430159
30
0
41
1
10
127.278570401217
20
6.83275829123937
30
0
41
1
10
127.38193162489
20
6.32785088980555
30
0
41
1
10
127.433612236727
20
6.06522097202793
30
0
41
1
10
127.536973460399
20
5.52375605008959
30
0
41
1
10
127.588654072235
20
5.24492845103791
30
0
41
1
10
127.692015295908
20
4.67554826557245
30
0
41
1
10
127.743695907744
20
4.38500308848779
30
0
41
1
10
127.847057131417
20
3.79676212919958
30
0
41
1
10
127.898737743253
20
3.49907306259556
30
0
41
1
10
128.053779578762
20
2.6019612236891
30
0
41
1
10
128.157140802435
20
1.99873416175484
30
0
41
1
10
128.312182637944
20
1.10969454004214
30
0
41
1
10
128.36386324978
20
0.815927252156314
30
0
41
1
10
128.441384167535
20
0.381511041628983
30
0
41
1
10
128.467224473453
20
0.237740316207237
30
0
41
1
10
128.50598493233
20
0.0238909947945842
30
0
41
1
10
128.518905085289
20
-0.0469754973057377
30
0
41
1
10
128.544745391207
20
-0.189671403237128
30
0
41
1
10
128.557665544166
20
-0.26131801594434
30
0
41
1
10
128.673946920798
20
-0.908638492004343
30
0
41
1
10
128.777308144471
20
-1.50218867218737
30
0
41
1
10
128.93234997998
20
-2.39990952518949
30
0
41
1
10
128.984030591816
20
-2.70031014616311
30
0
41
1
10
129.087391815489
20
-3.29938251066918
30
0
41
1
10
129.139072427325
20
-3.59804908936454
30
0
41
1
10
129.242433650998
20
-4.18925517907252
30
0
41
1
10
129.294114262834
20
-4.48178820910792
30
0
41
1
10
129.397475486507
20
-5.05616348196853
30
0
41
1
10
129.449156098343
20
-5.33799841416558
30
0
41
1
10
129.552517322016
20
-5.88645722924238
30
0
41
1
10
129.604197933852
20
-6.15307364049428
30
0
41
1
10
129.707559157525
20
-6.66684309606444
30
0
41
1
10
129.759239769361
20
-6.91398926478143
30
0
41
1
10
129.862600993034
20
-7.38505205718869
30
0
41
1
10
129.91428160487
20
-7.60896312198886
30
0
41
1
10
130.017642828543
20
-8.03046490207504
30
0
41
1
10
130.069323440379
20
-8.22805193354549
30
0
41
1
10
130.172684664052
20
-8.59463082780556
30
0
41
1
10
130.224365275888
20
-8.76362118327859
30
0
41
1
10
130.327726499561
20
-9.07162665993076
30
0
41
1
10
130.379407111397
20
-9.21064245552176
30
0
41
1
10
130.48276833507
20
-9.45822573217407
30
0
41
1
10
130.534448946906
20
-9.56679580146852
30
0
41
1
10
130.637810170579
20
-9.75387131290057
30
0
41
1
10
130.689490782415
20
-9.83238078992713
30
0
41
1
10
130.844532617924
20
-10.0245209897725
30
0
41
1
10
130.947893841597
20
-10.0945459486469
30
0
41
1
10
131.064175218228
20
-10.1169432193497
30
0
41
1
10
131.077095371187
20
-10.1186531962646
30
0
41
1
10
131.102935677106
20
-10.1205538447423
30
0
41
1
10
131.115855830065
20
-10.1207478853981
30
0
41
1
10
131.154616288942
20
-10.1190834177416
30
0
41
1
10
131.18045659486
20
-10.1149547546463
30
0
41
1
10
131.257977512615
20
-10.0930601848903
30
0
41
1
10
131.309658124451
20
-10.0657722699705
30
0
41
1
10
131.46469995996
20
-9.94262645431311
30
0
41
1
10
131.568061183632
20
-9.80514840934129
30
0
41
1
10
131.723103019141
20
-9.50787608333167
30
0
41
1
10
131.774783630978
20
-9.39368732620437
30
0
41
1
10
131.87814485465
20
-9.13488663134194
30
0
41
1
10
131.929825466487
20
-8.99027242833017
30
0
41
1
10
132.033186690159
20
-8.67125543927446
30
0
41
1
10
132.084867301996
20
-8.49685236898063
30
0
41
1
10
132.188228525668
20
-8.1198014602877
30
0
41
1
10
132.239909137505
20
-7.9171555404516
30
0
41
1
10
132.343270361177
20
-7.4860480651403
30
0
41
1
10
132.394950973014
20
-7.25759057104202
30
0
41
1
10
132.498312196686
20
-6.77808417218546
30
0
41
1
10
132.549992808523
20
-6.52704111792687
30
0
41
1
10
132.653354032195
20
-6.00623258511794
30
0
41
1
10
132.705034644032
20
-5.73647414938429
30
0
41
1
10
132.808395867704
20
-5.18255267762876
30
0
41
1
10
132.860076479541
20
-4.89839713944053
30
0
41
1
10
132.963437703213
20
-4.3202270590541
30
0
41
1
10
133.01511831505
20
-4.02621972018505
30
0
41
1
10
133.118479538722
20
-3.43289601101247
30
0
41
1
10
133.170160150559
20
-3.13358590875939
30
0
41
1
10
133.325201986068
20
-2.23421694385294
30
0
41
1
10
133.42856320974
20
-1.63298016099856
30
0
41
1
10
133.583605045249
20
-0.75102901660506
30
0
41
1
10
133.635285657085
20
-0.460302391559054
30
0
41
1
10
133.699886421881
20
-0.102789706507053
30
0
41
1
10
133.71280657484
20
-0.0317458591446496
30
0
41
1
10
133.738646880758
20
0.110503417482619
30
0
41
1
10
133.777407339635
20
0.324794877150481
30
0
41
1
10
133.816167798513
20
0.54165988856289
30
0
41
1
10
133.945369328103
20
1.26937958905663
30
0
41
1
10
134.048730551776
20
1.86736660988296
30
0
41
1
10
134.203772387285
20
2.76691167253202
30
0
41
1
10
134.255452999121
20
3.06711821433359
30
0
41
1
10
134.358814222794
20
3.66404166779949
30
0
41
1
10
134.41049483463
20
3.96075283354273
30
0
41
1
10
134.513856058303
20
4.54619642493032
30
0
41
1
10
134.565536670139
20
4.83492196073996
30
0
41
1
10
134.668897893812
20
5.39982172264914
30
0
41
1
10
134.720578505648
20
5.67598848418495
30
0
41
1
10
134.823939729321
20
6.21133239693839
30
0
41
1
10
134.875620341157
20
6.4705022271728
30
0
41
1
10
134.97898156483
20
6.96777293435196
30
0
41
1
10
135.030662176666
20
7.20586739199047
30
0
41
1
10
135.134023400339
20
7.65747601177375
30
0
41
1
10
135.185704012175
20
7.87098532493189
30
0
41
1
10
135.289065235848
20
8.270651802846
30
0
41
1
10
135.340745847684
20
8.45680615122666
30
0
41
1
10
135.444107071357
20
8.79984687854696
30
0
41
1
10
135.495787683193
20
8.95673265555718
30
0
41
1
10
135.599148906866
20
9.24022814971718
30
0
41
1
10
135.650829518702
20
9.36683936716858
30
0
41
1
10
135.754190742375
20
9.5896712009208
30
0
41
1
10
135.805871354211
20
9.68589505956302
30
0
41
1
10
135.909232577884
20
9.84865843809888
30
0
41
1
10
135.96091318972
20
9.91520242227662
30
0
41
1
10
136.115955025229
20
10.0724218646787
30
0
41
1
10
136.219316248901
20
10.1205
30
0
41
1
10
136.322677472574
20
10.1205
30
0
0
SPLINE
5
E6
100
AcDbEntity
8
1
62
256
6
ByLayer
370
13
48
1
60
0
100
AcDbSpline
70
4
71
3
72
10
73
6
40
0
40
0
40
0
40
0
40
0.5
40
0.5
40
1
40
1
40
1
40
1
41
1
10
136.275246367953
20
10.1205
30
0
41
1
10
136.365445180645
20
10.1205
30
0
41
1
10
136.455643993338
20
10.0839379278873
30
0
41
1
10
136.636041618723
20
9.92590001065756
30
0
41
1
10
136.726240431416
20
9.80434102481649
30
0
41
1
10
136.816439244109
20
9.63673967981208
30
0
0
SPLINE
5
E7
100
AcDbEntity
8
1
62
256
6
ByLayer
370
13
48
1
60
0
100
AcDbSpline
70
4
71
3
72
86
73
82
40
0
40
0
40
0
40
0
40
0.0312500000000003
40
0.0312500000000003
40
0.0625000000000006
40
0.0625000000000006
40
0.0937500000000009
40
0.0937500000000009
40
0.125000000000001
40
0.125000000000001
40
0.156250000000002
40
0.156250000000002
40
0.164062500000002
40
0.164062500000002
40
0.171875000000002
40
0.171875000000002
40
0.187500000000002
40
0.187500000000002
40
0.218750000000002
40
0.218750000000002
40
0.250000000000002
40
0.250000000000002
40
0.281250000000002
40
0.281250000000002
40
0.312500000000002
40
0.312500000000002
40
0.343750000000002
40
0.343750000000002
40
0.375000000000002
40
0.375000000000002
40
0.406250000000002
40
0.406250000000002
40
0.437500000000002
40
0.437500000000002
40
0.445312500000002
40
0.445312500000002
40
0.449218750000002
40
0.449218750000002
40
0.453125000000002
40
0.453125000000002
40
0.468750000000002
40
0.468750000000002
40
0.500000000000002
40
0.500000000000002
40
0.531250000000002
40
0.531250000000002
40
0.562500000000002
40
0.562500000000002
40
0.593750000000002
40
0.593750000000002
40
0.625000000000002
40
0.625000000000002
40
0.656250000000002
40
0.656250000000002
40
0.687500000000002
40
0.687500000000002
40
0.718750000000002
40
0.718750000000002
40
0.722656250000002
40
0.722656250000002
40
0.726562500000002
40
0.726562500000002
40
0.734375000000002
40
0.734375000000002
40
0.750000000000002
40
0.750000000000002
40
0.781250000000002
40
0.781250000000002
40
0.812500000000002
40
0.812500000000002
40
0.843750000000001
40
0.843750000000001
40
0.875000000000001
40
0.875000000000001
40
0.906250000000001
40
0.906250000000001
40
0.937500000000001
40
0.937500000000001
40
0.96875
40
0.96875
40
1
40
1
40
1
40
1
41
1
10
126.4
20
8.4323090271881
30
0
41
1
10
126.498217866461
20
8.08604718012478
30
0
41
1
10
126.596435732921
20
7.68769421187133
30
0
41
1
10
126.792871465842
20
6.80471050797405
30
0
41
1
10
126.891089332303
20
6.32021024645132
30
0
41
1
10
127.087525065224
20
5.29205120982323
30
0
41
1
10
127.185742931685
20
4.74857352623567
30
0
41
1
10
127.382178664606
20
3.63384227242261
30
0
41
1
10
127.480396531067
20
3.06275619536382
30
0
41
1
10
127.676832263988
20
1.92297732203477
30
0
41
1
10
127.775050130448
20
1.35439058690173
30
0
41
1
10
127.897822463524
20
0.660588446428505
30
0
41
1
10
127.922376930139
20
0.522657705022567
30
0
41
1
10
127.97148586337
20
0.248767632016495
30
0
41
1
10
127.996040329985
20
0.113031852724788
30
0
41
1
10
128.06970372983
20
-0.292196321102295
30
0
41
1
10
128.118812663061
20
-0.566811742826161
30
0
41
1
10
128.266139462752
20
-1.40044474595857
30
0
41
1
10
128.364357329212
20
-1.96945694072917
30
0
41
1
10
128.560793062133
20
-3.10932741079191
30
0
41
1
10
128.659010928594
20
-3.68007762284895
30
0
41
1
10
128.855446661515
20
-4.79327803689554
30
0
41
1
10
128.953664527976
20
-5.33555960113196
30
0
41
1
10
129.150100260897
20
-6.36050564255603
30
0
41
1
10
129.248318127357
20
-6.8429895599175
30
0
41
1
10
129.444753860279
20
-7.72130809189579
30
0
41
1
10
129.542971726739
20
-8.11701440290364
30
0
41
1
10
129.73940745966
20
-8.8039087557714
30
0
41
1
10
129.837625326121
20
-9.09506432937596
30
0
41
1
10
130.034061059042
20
-9.56669465765395
30
0
41
1
10
130.132278925503
20
-9.74723172824179
30
0
41
1
10
130.328714658424
20
-10.0026727402209
30
0
41
1
10
130.426932524885
20
-10.0776951065761
30
0
41
1
10
130.549704857961
20
-10.1138113319332
30
0
41
1
10
130.574259324576
20
-10.1181664233149
30
0
41
1
10
130.611091024498
20
-10.120589667709
30
0
41
1
10
130.623368257806
20
-10.1207159241473
30
0
41
1
10
130.647922724421
20
-10.1196147364029
30
0
41
1
10
130.660199957729
20
-10.1183824830699
30
0
41
1
10
130.721586124266
20
-10.1087309530508
30
0
41
1
10
130.770695057497
20
-10.0898294176367
30
0
41
1
10
130.918021857188
20
-9.99668833819257
30
0
41
1
10
131.016239723648
20
-9.8857588250082
30
0
41
1
10
131.21267545657
20
-9.55556840567195
30
0
41
1
10
131.31089332303
20
-9.3362031266588
30
0
41
1
10
131.507329055951
20
-8.78765627604471
30
0
41
1
10
131.605546922412
20
-8.45844273861721
30
0
41
1
10
131.801982655333
20
-7.70037365622562
30
0
41
1
10
131.900200521794
20
-7.27158661311464
30
0
41
1
10
132.096636254715
20
-6.33572880296771
30
0
41
1
10
132.194854121175
20
-5.82881149642807
30
0
41
1
10
132.391289854097
20
-4.76579945025546
30
0
41
1
10
132.489507720557
20
-4.20988830279185
30
0
41
1
10
132.685943453479
20
-3.08045020351088
30
0
41
1
10
132.784161319939
20
-2.50707447829487
30
0
41
1
10
132.98059705286
20
-1.3714720283017
30
0
41
1
10
133.078814919321
20
-0.809327048987143
30
0
41
1
10
133.189310019089
20
-0.1957646660249
30
0
41
1
10
133.201587252397
20
-0.12784812369847
30
0
41
1
10
133.226141719012
20
0.0074357899630684
30
0
41
1
10
133.23841895232
20
0.0748460414519343
30
0
41
1
10
133.275250652242
20
0.278431949288859
30
0
41
1
10
133.299805118857
20
0.415227169634335
30
0
41
1
10
133.373468518703
20
0.828385404177737
30
0
41
1
10
133.422577451933
20
1.10753547228606
30
0
41
1
10
133.569904251624
20
1.95205515380775
30
0
41
1
10
133.668122118085
20
2.52467478283299
30
0
41
1
10
133.864557851006
20
3.66241209489991
30
0
41
1
10
133.962775717466
20
4.22739880015448
30
0
41
1
10
134.159211450387
20
5.31879180552934
30
0
41
1
10
134.257429316848
20
5.84501887225522
30
0
41
1
10
134.453865049769
20
6.82835426735167
30
0
41
1
10
134.55208291623
20
7.28529219439281
30
0
41
1
10
134.748518649151
20
8.10553769725536
30
0
41
1
10
134.846736515612
20
8.46874521050231
30
0
41
1
10
135.043172248533
20
9.0873245253708
30
0
41
1
10
135.141390114994
20
9.34269696504873
30
0
41
1
10
135.337825847915
20
9.74327271159416
30
0
41
1
10
135.436043714375
20
9.88856186711644
30
0
41
1
10
135.632479447297
20
10.0771125798593
30
0
41
1
10
135.730697313757
20
10.1205
30
0
41
1
10
135.828915180218
20
10.1205
30
0
0
SPLINE
5
E8
100
AcDbEntity
8
1
62
256
6
ByLayer
370
13
48
1
60
0
100
AcDbSpline
70
4
71
3
72
14
73
10
40
0
40
0
40
0
40
0
40
0.25
40
0.25
40
0.5
40
0.5
40
0.75
40
0.75
40
1
40
1
40
1
40
1
41
1
10
135.781484075596
20
10.1205
30
0
41
1
10
135.867730339639
20
10.1205
30
0
41
1
10
135.953976603682
20
10.0870842878118
30
0
41
1
10
136.126469131767
20
9.94304298833961
30
0
41
1
10
136.21271539581
20
9.83235065231767
30
0
41
1
10
136.385207923895
20
9.52715375960668
30
0
41
1
10
136.471454187938
20
9.33259656475701
30
0
41
1
10
136.643946716023
20
8.85883539866668
30
0
41
1
10
136.730192980066
20
8.57961257245745
30
0
41
1
10
136.816439244109
20
8.26110599570026
30
0
0
SPLINE
5
E9
100
AcDbEntity
8
1
62
256
6
ByLayer
370
13
48
1
60
0
100
AcDbSpline
70
4
71
3
72
87
73
83
40
0
40
0
40
0
40
0
40
0.0312499999999974
40
0.0312499999999974
40
0.0624999999999949
40
0.0624999999999949
40
0.0937499999999923
40
0.0937499999999923
40
0.12499999999999
40
0.12499999999999
40
0.12890624999999
40
0.12890624999999
40
0.132812499999989
40
0.140624999999989
40
0.140624999999989
40
0.156249999999989
40
0.156249999999989
40
0.187499999999989
40
0.187499999999989
40
0.218749999999989
40
0.218749999999989
40
0.249999999999989
40
0.249999999999989
40
0.281249999999988
40
0.281249999999988
40
0.312499999999988
40
0.312499999999988
40
0.343749999999988
40
0.343749999999988
40
0.374999999999988
40
0.374999999999988
40
0.406249999999987
40
0.406249999999987
40
0.414062499999987
40
0.414062499999987
40
0.417968749999987
40
0.417968749999987
40
0.421874999999987
40
0.421874999999987
40
0.437499999999987
40
0.437499999999987
40
0.468749999999986
40
0.468749999999986
40
0.499999999999986
40
0.499999999999986
40
0.531249999999986
40
0.531249999999986
40
0.562499999999985
40
0.562499999999985
40
0.593749999999985
40
0.593749999999985
40
0.624999999999984
40
0.624999999999984
40
0.656249999999984
40
0.656249999999984
40
0.687499999999984
40
0.687499999999984
40
0.703124999999984
40
0.703124999999984
40
0.707031249999984
40
0.707031249999984
40
0.710937499999984
40
0.710937499999984
40
0.718749999999984
40
0.718749999999984
40
0.749999999999986
40
0.749999999999986
40
0.781249999999988
40
0.781249999999988
40
0.81249999999999
40
0.81249999999999
40
0.843749999999991
40
0.843749999999991
40
0.874999999999993
40
0.874999999999993
40
0.906249999999995
40
0.906249999999995
40
0.937499999999997
40
0.937499999999997
40
0.968749999999998
40
0.968749999999998
40
1
40
1
40
1
40
1
41
1
10
126.4
20
6.29647142366491
30
0
41
1
10
126.493074509249
20
5.82878663298112
30
0
41
1
10
126.586149018497
20
5.3304257818896
30
0
41
1
10
126.772298036994
20
4.29804950844326
30
0
41
1
10
126.865372546243
20
3.76417171550349
30
0
41
1
10
127.05152156474
20
2.68735271246962
30
0
41
1
10
127.144596073988
20
2.14451562281437
30
0
41
1
10
127.330745092486
20
1.07323341997153
30
0
41
1
10
127.423819601734
20
0.544839551639285
30
0
41
1
10
127.528528424639
20
-0.0314185161752221
30
0
41
1
10
127.540162738295
20
-0.0954030102891466
30
0
41
1
10
127.563431365607
20
-0.224104155971986
30
0
41
1
10
127.598334306575
20
-0.417872413456422
30
0
41
1
10
127.633237247543
20
-0.613655308696394
30
0
41
1
10
127.70304312948
20
-1.00751322120286
30
0
41
1
10
127.749580384104
20
-1.27315278309152
30
0
41
1
10
127.889192147977
20
-2.07569477622138
30
0
41
1
10
127.982266657225
20
-2.61836116629837
30
0
41
1
10
128.168415675723
20
-3.69591709698372
30
0
41
1
10
128.261490184971
20
-4.23070454438164
30
0
41
1
10
128.447639203468
20
-5.26604510941087
30
0
41
1
10
128.540713712717
20
-5.76646131390041
30
0
41
1
10
128.726862731214
20
-6.70697671208291
30
0
41
1
10
128.819937240462
20
-7.14694338688136
30
0
41
1
10
129.006086258959
20
-7.94505954753228
30
0
41
1
10
129.099160768208
20
-8.3031240932732
30
0
41
1
10
129.285309786705
20
-8.92393920401076
30
0
41
1
10
129.378384295954
20
-9.18667695076616
30
0
41
1
10
129.564533314451
20
-9.61287946380631
30
0
41
1
10
129.657607823699
20
-9.77639792530854
30
0
41
1
10
129.843756842197
20
-10.0090778164273
30
0
41
1
10
129.936831351445
20
-10.0783310111205
30
0
41
1
10
130.053174488006
20
-10.113102958854
30
0
41
1
10
130.076443115318
20
-10.1174795287378
30
0
41
1
10
130.111346056286
20
-10.120341302065
30
0
41
1
10
130.122980369942
20
-10.1206792253391
30
0
41
1
10
130.146248997254
20
-10.1201443558034
30
0
41
1
10
130.15788331091
20
-10.1192677398144
30
0
41
1
10
130.216054879191
20
-10.1117685851822
30
0
41
1
10
130.262592133815
20
-10.0957888964362
30
0
41
1
10
130.402203897688
20
-10.0154107670609
30
0
41
1
10
130.495278406936
20
-9.91837727706277
30
0
41
1
10
130.681427425433
20
-9.62779672141642
30
0
41
1
10
130.774501934682
20
-9.43416583103337
30
0
41
1
10
130.960650953179
20
-8.94789879333354
30
0
41
1
10
131.053725462428
20
-8.65522696217406
30
0
41
1
10
131.239874480925
20
-7.97763063204846
30
0
41
1
10
131.332948990173
20
-7.59274176637973
30
0
41
1
10
131.519098008671
20
-6.74677829905568
30
0
41
1
10
131.612172517919
20
-6.28580699841567
30
0
41
1
10
131.798321536416
20
-5.31093099499608
30
0
41
1
10
131.891396045665
20
-4.79716500361945
30
0
41
1
10
132.077545064162
20
-3.74336031886423
30
0
41
1
10
132.17061957341
20
-3.20345131537837
30
0
41
1
10
132.356768591907
20
-2.12323186165978
30
0
41
1
10
132.449843101156
20
-1.58300808859752
30
0
41
1
10
132.589454865029
20
-0.788663886959483
30
0
41
1
10
132.635992119653
20
-0.526507324716306
30
0
41
1
10
132.694163687934
20
-0.203440540517221
30
0
41
1
10
132.70579800159
20
-0.139057689267275
30
0
41
1
10
132.729066628902
20
-0.0107829076227119
30
0
41
1
10
132.740700942558
20
0.0530570568085693
30
0
41
1
10
132.775603883526
20
0.245791144223176
30
0
41
1
10
132.798872510838
20
0.375250236966394
30
0
41
1
10
132.915215647399
20
1.02677404199682
30
0
41
1
10
133.008290156647
20
1.56175214885604
30
0
41
1
10
133.194439175145
20
2.63958934851019
30
0
41
1
10
133.287513684393
20
3.18238049425366
30
0
41
1
10
133.47366270289
20
4.25120353171775
30
0
41
1
10
133.566737212139
20
4.77711789516431
30
0
41
1
10
133.752886230636
20
5.78539091242726
30
0
41
1
10
133.845960739884
20
6.26760904920954
30
0
41
1
10
134.032109758381
20
7.16353362483682
30
0
41
1
10
134.12518426763
20
7.57711969517555
30
0
41
1
10
134.311333286127
20
8.31675221117098
30
0
41
1
10
134.404407795376
20
8.64273747717263
30
0
41
1
10
134.590556813873
20
9.1969267797223
30
0
41
1
10
134.683631323121
20
9.42514323152818
30
0
41
1
10
134.869780341618
20
9.78309722894511
30
0
41
1
10
134.962854850867
20
9.91290557158098
30
0
41
1
10
135.149003869364
20
10.0815585023161
30
0
41
1
10
135.242078378613
20
10.1205
30
0
41
1
10
135.335152887861
20
10.1205
30
0
0
SPLINE
5
EA
100
AcDbEntity
8
1
62
256
6
ByLayer
370
13
48
1
60
0
100
AcDbSpline
70
4
71
3
72
22
73
18
40
0
40
0
40
0
40
0
40
0.125
40
0.125
40
0.25
40
0.25
40
0.375
40
0.375
40
0.5
40
0.5
40
0.625
40
0.625
40
0.75
40
0.75
40
0.875
40
0.875
40
1
40
1
40
1
40
1
41
1
10
135.28772178324
20
10.1205
30
0
41
1
10
135.351418344109
20
10.1205
30
0
41
1
10
135.415114904979
20
10.1023040596563
30
0
41
1
10
135.542508026718
20
10.0251843835987
30
0
41
1
10
135.606204587587
20
9.96624579367622
30
0
41
1
10
135.733597709326
20
9.80428244049145
30
0
41
1
10
135.797294270196
20
9.70124383599136
30
0
41
1
10
135.924687391935
20
9.44916618686977
30
0
41
1
10
135.988383952805
20
9.30011673952927
30
0
41
1
10
136.115777074544
20
8.95592057683018
30
0
41
1
10
136.179473635413
20
8.76076923439783
30
0
41
1
10
136.306866757152
20
8.32632404275012
30
0
41
1
10
136.370563318022
20
8.08703293345349
30
0
41
1
10
136.497956439761
20
7.56834800921041
30
0
41
1
10
136.561653000631
20
7.28896457563192
30
0
41
1
10
136.68904612237
20
6.69602260953249
30
0
41
1
10
136.752742683239
20
6.38248082467175
30
0
41
1
10
136.816439244109
20
6.05555250768916
30
0
0
SPLINE
5
EB
100
AcDbEntity
8
1
62
256
6
ByLayer
370
13
48
1
60
0
100
AcDbSpline
70
4
71
3
72
82
73
78
40
0
40
0
40
0
40
0
40
0.0312500000000002
40
0.0312500000000002
40
0.0625000000000004
40
0.0625000000000004
40
0.0703125000000005
40
0.0703125000000005
40
0.0781250000000007
40
0.0781250000000007
40
0.0937500000000006
40
0.0937500000000006
40
0.125000000000001
40
0.125000000000001
40
0.156250000000001
40
0.156250000000001
40
0.187500000000001
40
0.187500000000001
40
0.218750000000001
40
0.218750000000001
40
0.250000000000002
40
0.250000000000002
40
0.281250000000002
40
0.281250000000002
40
0.312500000000002
40
0.312500000000002
40
0.343750000000002
40
0.343750000000002
40
0.375000000000002
40
0.375000000000002
40
0.382812500000002
40
0.382812500000002
40
0.390625000000002
40
0.390625000000002
40
0.406250000000002
40
0.406250000000002
40
0.437500000000002
40
0.437500000000002
40
0.468750000000001
40
0.468750000000001
40
0.500000000000001
40
0.500000000000001
40
0.531250000000001
40
0.531250000000001
40
0.5625
40
0.5625
40
0.59375
40
0.59375
40
0.624999999999999
40
0.624999999999999
40
0.656249999999999
40
0.656249999999999
40
0.687499999999998
40
0.687499999999998
40
0.695312499999998
40
0.695312499999998
40
0.703124999999998
40
0.703124999999998
40
0.718749999999998
40
0.718749999999998
40
0.749999999999998
40
0.749999999999998
40
0.781249999999999
40
0.781249999999999
40
0.812499999999999
40
0.812499999999999
40
0.843749999999999
40
0.843749999999999
40
0.874999999999999
40
0.874999999999999
40
0.906249999999999
40
0.906249999999999
40
0.9375
40
0.9375
40
0.96875
40
0.96875
40
1
40
1
40
1
40
1
41
1
10
126.4
20
3.59904559808015
30
0
41
1
10
126.487931152036
20
3.09305080546517
30
0
41
1
10
126.575862304073
20
2.58041895369905
30
0
41
1
10
126.751724608146
20
1.56240413161831
30
0
41
1
10
126.839655760182
20
1.05707155825238
30
0
41
1
10
126.949569700228
20
0.440378878330961
30
0
41
1
10
126.971552488237
20
0.31777764838543
30
0
41
1
10
127.015518064256
20
0.0742625925718983
30
0
41
1
10
127.037500852265
20
-0.0461422567734928
30
0
41
1
10
127.103449216292
20
-0.411021657340058
30
0
41
1
10
127.14741479231
20
-0.657690349948496
30
0
41
1
10
127.279311520365
20
-1.40529252764029
30
0
41
1
10
127.367242672402
20
-1.91395636587907
30
0
41
1
10
127.543104976474
20
-2.93417365397147
30
0
41
1
10
127.631036128511
20
-3.44566776273777
30
0
41
1
10
127.806898432584
20
-4.45025531502884
30
0
41
1
10
127.894829584621
20
-4.94325603934686
30
0
41
1
10
128.070691888694
20
-5.88826874569688
30
0
41
1
10
128.15862304073
20
-6.34017474931372
30
0
41
1
10
128.334485344803
20
-7.18218453339307
30
0
41
1
10
128.42241649684
20
-7.57219867209568
30
0
41
1
10
128.598278800913
20
-8.27443833391376
30
0
41
1
10
128.686209952949
20
-8.58661661206099
30
0
41
1
10
128.862072257022
20
-9.12416886214208
30
0
41
1
10
128.950003409059
20
-9.34954815009198
30
0
41
1
10
129.125865713132
20
-9.71210686597993
30
0
41
1
10
129.213796865168
20
-9.84933516917383
30
0
41
1
10
129.389659169241
20
-10.0409526983011
30
0
41
1
10
129.477590321278
20
-10.095413282984
30
0
41
1
10
129.587504261323
20
-10.1181058930051
30
0
41
1
10
129.609487049333
20
-10.1203839972673
30
0
41
1
10
129.653452625351
20
-10.1206073618598
30
0
41
1
10
129.67543541336
20
-10.1185573412174
30
0
41
1
10
129.741383777387
20
-10.1056406110701
30
0
41
1
10
129.785349353406
20
-10.088000389487
30
0
41
1
10
129.91724608146
20
-10.0059246972197
30
0
41
1
10
130.005177233497
20
-9.91217685106452
30
0
41
1
10
130.18103953757
20
-9.63861661216657
30
0
41
1
10
130.268970689606
20
-9.4587408719097
30
0
41
1
10
130.444832993679
20
-9.01059985256879
30
0
41
1
10
130.532764145716
20
-8.74230477511708
30
0
41
1
10
130.708626449789
20
-8.12231144312887
30
0
41
1
10
130.796557601825
20
-7.77063347497392
30
0
41
1
10
130.972419905898
20
-6.99636657682188
30
0
41
1
10
131.060351057935
20
-6.57384800914281
30
0
41
1
10
131.236213362008
20
-5.67651872709229
30
0
41
1
10
131.324144514044
20
-5.20180943346796
30
0
41
1
10
131.500006818117
20
-4.22217773832708
30
0
41
1
10
131.587937970154
20
-3.71735821187863
30
0
41
1
10
131.763800274227
20
-2.69986281433828
30
0
41
1
10
131.851731426264
20
-2.18726499862799
30
0
41
1
10
132.027593730336
20
-1.1740411549668
30
0
41
1
10
132.115524882373
20
-0.673455511490261
30
0
41
1
10
132.225438822419
20
-0.0648856336418078
30
0
41
1
10
132.247421610428
20
0.0555121850144928
30
0
41
1
10
132.291387186446
20
0.298852761896825
30
0
41
1
10
132.313369974455
20
0.421371978322298
30
0
41
1
10
132.379318338483
20
0.79115872367089
30
0
41
1
10
132.423283914501
20
1.04066469974686
30
0
41
1
10
132.555180642556
20
1.79524183261029
30
0
41
1
10
132.643111794592
20
2.3064947795431
30
0
41
1
10
132.818974098665
20
3.32670089694483
30
0
41
1
10
132.906905250701
20
3.83558508180945
30
0
41
1
10
133.082767554775
20
4.8291693879024
30
0
41
1
10
133.170698706811
20
5.31377091874467
30
0
41
1
10
133.346561010884
20
6.23634894590319
30
0
41
1
10
133.434492162921
20
6.67422071477642
30
0
41
1
10
133.610354466994
20
7.48349435287821
30
0
41
1
10
133.69828561903
20
7.85481543663636
30
0
41
1
10
133.874147923103
20
8.51663804131141
30
0
41
1
10
133.96207907514
20
8.80710562856683
30
0
41
1
10
134.137941379213
20
9.30016264664366
30
0
41
1
10
134.225872531249
20
9.50277009062125
30
0
41
1
10
134.401734835322
20
9.82057864094941
30
0
41
1
10
134.489665987359
20
9.93583662387644
30
0
41
1
10
134.665528291432
20
10.0857606057142
30
0
41
1
10
134.753459443468
20
10.1205
30
0
41
1
10
134.841390595505
20
10.1205
30
0
0
SPLINE
5
EC
100
AcDbEntity
8
1
62
256
6
ByLayer
370
13
48
1
60
0
100
AcDbSpline
70
4
71
3
72
22
73
18
40
0
40
0
40
0
40
0
40
0.125
40
0.125
40
0.25
40
0.25
40
0.375
40
0.375
40
0.5
40
0.5
40
0.625
40
0.625
40
0.75
40
0.75
40
0.875
40
0.875
40
1
40
1
40
1
40
1
41
1
10
134.793959490883
20
10.1205
30
0
41
1
10
134.878229480601
20
10.1205
30
0
41
1
10
134.962499470318
20
10.0886037084763
30
0
41
1
10
135.131039449754
20
9.95130428403996
30
0
41
1
10
135.215309439472
20
9.84584159036947
30
0
41
1
10
135.383849418907
20
9.55509805505986
30
0
41
1
10
135.468119408625
20
9.36976932118449
30
0
41
1
10
135.63665938806
20
8.91817281216578
30
0
41
1
10
135.720929377778
20
8.65188567921257
30
0
41
1
10
135.889469357214
20
8.04351427515323
30
0
41
1
10
135.973739346931
20
7.7014502903985
30
0
41
1
10
136.142279326367
20
6.95294932217243
30
0
41
1
10
136.226549316085
20
6.54657096095494
30
0
41
1
10
136.39508929552
20
5.68594485794122
30
0
41
1
10
136.479359285238
20
5.23177929666713
30
0
41
1
10
136.647899264673
20
4.29498143551592
30
0
41
1
10
136.732169254391
20
3.81243275541533
30
0
41
1
10
136.816439244109
20
3.32551397078777
30
0
0
SPLINE
5
ED
100
AcDbEntity
8
1
62
256
6
ByLayer
370
13
48
1
60
0
100
AcDbSpline
70
4
71
3
72
84
73
80
40
0
40
0
40
0
40
0
40
0.015625
40
0.015625
40
0.0195312499999999
40
0.0195312499999999
40
0.0234374999999999
40
0.0312499999999997
40
0.0312499999999997
40
0.0624999999999998
40
0.0624999999999998
40
0.0937499999999998
40
0.0937499999999998
40
0.125
40
0.125
40
0.15625
40
0.15625
40
0.1875
40
0.1875
40
0.21875
40
0.21875
40
0.25
40
0.25
40
0.28125
40
0.28125
40
0.3125
40
0.3125
40
0.34375
40
0.34375
40
0.34765625
40
0.34765625
40
0.351562500000001
40
0.359375000000001
40
0.359375000000001
40
0.375000000000001
40
0.375000000000001
40
0.406250000000001
40
0.406250000000001
40
0.437500000000001
40
0.437500000000001
40
0.468750000000001
40
0.468750000000001
40
0.500000000000001
40
0.500000000000001
40
0.531250000000001
40
0.531250000000001
40
0.562500000000001
40
0.562500000000001
40
0.593750000000001
40
0.593750000000001
40
0.625000000000001
40
0.625000000000001
40
0.656250000000001
40
0.656250000000001
40
0.671875000000001
40
0.671875000000001
40
0.679687500000001
40
0.679687500000001
40
0.687500000000001
40
0.687500000000001
40
0.718750000000001
40
0.718750000000001
40
0.750000000000001
40
0.750000000000001
40
0.781250000000001
40
0.781250000000001
40
0.812500000000001
40
0.812500000000001
40
0.84375
40
0.84375
40
0.875
40
0.875
40
0.90625
40
0.90625
40
0.9375
40
0.9375
40
0.96875
40
0.96875
40
1
40
1
40
1
40
1
41
1
10
126.4
20
0.754062820094759
30
0
41
1
10
126.441393897412
20
0.520447932905427
30
0
41
1
10
126.482787794825
20
0.289247844075845
30
0
41
1
10
126.53453016659
20
0.0041598979455557
30
0
41
1
10
126.544878640943
20
-0.0526437825260757
30
0
41
1
10
126.565575589649
20
-0.166898650890346
30
0
41
1
10
126.596621012708
20
-0.338856998975018
30
0
41
1
10
126.627666435767
20
-0.512449817347715
30
0
41
1
10
126.731151179298
20
-1.09427270321785
30
0
41
1
10
126.813938974122
20
-1.57004972100765
30
0
41
1
10
126.979514563771
20
-2.52832283934635
30
0
41
1
10
127.062302358596
20
-3.01078207276069
30
0
41
1
10
127.227877948245
20
-3.96532647842037
30
0
41
1
10
127.310665743069
20
-4.43734941617359
30
0
41
1
10
127.476241332718
20
-5.3522732442419
30
0
41
1
10
127.559029127542
20
-5.79509683912661
30
0
41
1
10
127.724604717191
20
-6.63336164629294
30
0
41
1
10
127.807392512016
20
-7.02872858383435
30
0
41
1
10
127.972968101665
20
-7.75665622901201
30
0
41
1
10
128.055755896489
20
-8.08916505781832
30
0
41
1
10
128.221331486138
20
-8.68075361173376
30
0
41
1
10
128.304119280963
20
-8.93981632744487
30
0
41
1
10
128.469694870612
20
-9.37976239875542
30
0
41
1
10
128.552482665436
20
-9.56066425035249
30
0
41
1
10
128.718058255085
20
-9.84537934707737
30
0
41
1
10
128.800846049909
20
-9.94923655399853
30
0
41
1
10
128.966421639558
20
-10.0858105923898
30
0
41
1
10
129.049209434383
20
-10.1185819151586
30
0
41
1
10
129.14234570356
20
-10.1206473833444
30
0
41
1
10
129.152694177913
20
-10.1203977846102
30
0
41
1
10
129.173391126619
20
-10.1189261893888
30
0
41
1
10
129.204436549679
20
-10.1152577153845
30
0
41
1
10
129.235481972738
20
-10.107117074103
30
0
41
1
10
129.297572818856
20
-10.0846471394024
30
0
41
1
10
129.338966716268
20
-10.0614100339795
30
0
41
1
10
129.463148408505
20
-9.96529786731415
30
0
41
1
10
129.545936203329
20
-9.8658912081755
30
0
41
1
10
129.711511792978
20
-9.59031152646756
30
0
41
1
10
129.794299587803
20
-9.41409348152172
30
0
41
1
10
129.959875177452
20
-8.98342578988812
30
0
41
1
10
130.042662972276
20
-8.72895576394538
30
0
41
1
10
130.208238561925
20
-8.14610371974467
30
0
41
1
10
130.29102635675
20
-7.8177364859051
30
0
41
1
10
130.456601946399
20
-7.09731129990567
30
0
41
1
10
130.539389741223
20
-6.70530339082842
30
0
41
1
10
130.704965330872
20
-5.87273564744211
30
0
41
1
10
130.787753125696
20
-5.43224926423761
30
0
41
1
10
130.953328715345
20
-4.52087220329904
30
0
41
1
10
131.03611651017
20
-4.05005920000772
30
0
41
1
10
131.201692099819
20
-3.09684085032316
30
0
41
1
10
131.284479894643
20
-2.61449902203424
30
0
41
1
10
131.450055484292
20
-1.65551477099399
30
0
41
1
10
131.532843279116
20
-1.17891084097633
30
0
41
1
10
131.657024971353
20
-0.47893554452844
30
0
41
1
10
131.698418868765
20
-0.248071325012489
30
0
41
1
10
131.760509714884
20
0.0934721798358567
30
0
41
1
10
131.78120666359
20
0.207757524658092
30
0
41
1
10
131.822600561002
20
0.438105733712462
30
0
41
1
10
131.843297509708
20
0.553995924276563
30
0
41
1
10
131.946782253239
20
1.13657051808937
30
0
41
1
10
132.029570048063
20
1.61276728478001
30
0
41
1
10
132.195145637712
20
2.57140997552267
30
0
41
1
10
132.277933432537
20
3.0538182192449
30
0
41
1
10
132.443509022186
20
4.00771575948346
30
0
41
1
10
132.52629681701
20
4.47914217492382
30
0
41
1
10
132.691872406659
20
5.39230926890426
30
0
41
1
10
132.774660201483
20
5.83397245412723
30
0
41
1
10
132.940235791132
20
6.66940381354809
30
0
41
1
10
133.023023585957
20
7.06309811590614
30
0
41
1
10
133.188599175606
20
7.7872860959591
30
0
41
1
10
133.27138697043
20
8.11772880708912
30
0
41
1
10
133.436962560079
20
8.70495580139868
30
0
41
1
10
133.519750354904
20
8.96172418760952
30
0
41
1
10
133.685325944552
20
9.397032470569
30
0
41
1
10
133.768113739377
20
9.57559180976304
30
0
41
1
10
133.933689329026
20
9.85573581577225
30
0
41
1
10
134.01647712385
20
9.95736498159138
30
0
41
1
10
134.182052713499
20
10.0897197846047
30
0
41
1
10
134.264840508324
20
10.1205
30
0
41
1
10
134.347628303148
20
10.1205
30
0
0
SPLINE
5
EE
100
AcDbEntity
8
1
62
256
6
ByLayer
370
13
48
1
60
0
100
AcDbSpline
70
4
71
3
72
34
73
30
40
0
40
0
40
0
40
0
40
0.125
40
0.125
40
0.1875
40
0.1875
40
0.25
40
0.25
40
0.3125
40
0.3125
40
0.375
40
0.375
40
0.4375
40
0.4375
40
0.5
40
0.5
40
0.5625
40
0.5625
40
0.625
40
0.625
40
0.687499999999999
40
0.687499999999999
40
0.749999999999999
40
0.749999999999999
40
0.812499999999999
40
0.812499999999999
40
0.874999999999999
40
0.874999999999999
40
1
40
1
40
1
40
1
41
1
10
134.300197198526
20
10.1205
30
0
41
1
10
134.405040617092
20
10.1205
30
0
41
1
10
134.509884035658
20
10.0710245270088
30
0
41
1
10
134.667149163507
20
9.90908527009293
30
0
41
1
10
134.71957087279
20
9.84053367306691
30
0
41
1
10
134.824414291356
20
9.6728491073942
30
0
41
1
10
134.876836000639
20
9.57371138968051
30
0
41
1
10
134.981679419205
20
9.34415508612884
30
0
41
1
10
135.034101128488
20
9.21373311280649
30
0
41
1
10
135.138944547054
20
8.92178245937657
30
0
41
1
10
135.191366256337
20
8.76025232046726
30
0
41
1
10
135.296209674903
20
8.40720793864298
30
0
41
1
10
135.348631384186
20
8.21569454638035
30
0
41
1
10
135.453474802752
20
7.80476507458857
30
0
41
1
10
135.505896512035
20
7.58535225216184
30
0
41
1
10
135.610739930601
20
7.12160260167363
30
0
41
1
10
135.663161639884
20
6.87727120340566
30
0
41
1
10
135.76800505845
20
6.36742880748273
30
0
41
1
10
135.820426767732
20
6.10192487046683
30
0
41
1
10
135.925270186298
20
5.55405779010886
30
0
41
1
10
135.977691895581
20
5.27170257937948
30
0
41
1
10
136.082535314147
20
4.69480132011628
30
0
41
1
10
136.13495702343
20
4.40026323685561
30
0
41
1
10
136.239800441996
20
3.80377082390226
30
0
41
1
10
136.292222151279
20
3.5018237179533
30
0
41
1
10
136.397065569845
20
2.89516333935904
30
0
41
1
10
136.449487279128
20
2.59045595762589
30
0
41
1
10
136.606752406977
20
1.67867469034988
30
0
41
1
10
136.711595825543
20
1.07424239479246
30
0
41
1
10
136.816439244109
20
0.487470718028476
30
0
0
SPLINE
5
EF
100
AcDbEntity
8
1
62
256
6
ByLayer
370
13
48
1
60
0
100
AcDbSpline
70
4
71
3
72
80
73
76
40
0
40
0
40
0
40
0
40
0.0312500000000003
40
0.0312500000000003
40
0.0625000000000006
40
0.0625000000000006
40
0.0937500000000009
40
0.0937500000000009
40
0.125000000000001
40
0.125000000000001
40
0.156250000000002
40
0.156250000000002
40
0.187500000000002
40
0.187500000000002
40
0.218750000000002
40
0.218750000000002
40
0.250000000000003
40
0.250000000000003
40
0.281250000000003
40
0.281250000000003
40
0.296875000000003
40
0.296875000000003
40
0.304687500000004
40
0.304687500000004
40
0.312500000000004
40
0.312500000000004
40
0.343750000000006
40
0.343750000000006
40
0.375000000000007
40
0.375000000000007
40
0.406250000000009
40
0.406250000000009
40
0.43750000000001
40
0.43750000000001
40
0.468750000000012
40
0.468750000000012
40
0.500000000000014
40
0.500000000000014
40
0.531250000000015
40
0.531250000000015
40
0.562500000000017
40
0.562500000000017
40
0.593750000000019
40
0.593750000000019
40
0.62500000000002
40
0.62500000000002
40
0.640625000000021
40
0.640625000000021
40
0.648437500000021
40
0.648437500000021
40
0.652343750000021
40
0.652343750000021
40
0.656250000000021
40
0.656250000000021
40
0.687500000000019
40
0.687500000000019
40
0.718750000000017
40
0.718750000000017
40
0.750000000000015
40
0.750000000000015
40
0.781250000000013
40
0.781250000000013
40
0.812500000000011
40
0.812500000000011
40
0.84375000000001
40
0.84375000000001
40
0.875000000000008
40
0.875000000000008
40
0.906250000000006
40
0.906250000000006
40
0.937500000000004
40
0.937500000000004
40
0.968750000000002
40
0.968750000000002
40
1
40
1
40
1
40
1
41
1
10
126.4
20
-2.03203067981576
30
0
41
1
10
126.477644437612
20
-2.48132694230165
30
0
41
1
10
126.555288875225
20
-2.93361795675705
30
0
41
1
10
126.71057775045
20
-3.83023463409157
30
0
41
1
10
126.788222188062
20
-4.27451629007606
30
0
41
1
10
126.943511063287
20
-5.13972082188286
30
0
41
1
10
127.021155500899
20
-5.56058834148106
30
0
41
1
10
127.176444376124
20
-6.36370575886039
30
0
41
1
10
127.254088813737
20
-6.74590006401203
30
0
41
1
10
127.409377688961
20
-7.45825785460946
30
0
41
1
10
127.487022126574
20
-7.78837822881258
30
0
41
1
10
127.642311001799
20
-8.38654981505221
30
0
41
1
10
127.719955439411
20
-8.65458001252435
30
0
41
1
10
127.875244314636
20
-9.12290181092638
30
0
41
1
10
127.952888752248
20
-9.32319745877865
30
0
41
1
10
128.108177627473
20
-9.65500846376071
30
0
41
1
10
128.185822065085
20
-9.7865487683377
30
0
41
1
10
128.34111094031
20
-9.98397814151775
30
0
41
1
10
128.418755377923
20
-10.0499043081941
30
0
41
1
10
128.535222034341
20
-10.1043045934944
30
0
41
1
10
128.574044253148
20
-10.1150445083191
30
0
41
1
10
128.632277581357
20
-10.1208046869697
30
0
41
1
10
128.65168869076
20
-10.1210149166904
30
0
41
1
10
128.690510909566
20
-10.1180402844144
30
0
41
1
10
128.709922018969
20
-10.1148370278202
30
0
41
1
10
128.806977565985
20
-10.0899223690101
30
0
41
1
10
128.884622003597
20
-10.0414302989079
30
0
41
1
10
129.039910878822
20
-9.88038051555452
30
0
41
1
10
129.117555316435
20
-9.76778406178096
30
0
41
1
10
129.272844191659
20
-9.47436317328302
30
0
41
1
10
129.350488629272
20
-9.29350938123443
30
0
41
1
10
129.505777504497
20
-8.86333092225314
30
0
41
1
10
129.583421942109
20
-8.61399564071863
30
0
41
1
10
129.738710817334
20
-8.05116506945311
30
0
41
1
10
129.816355254946
20
-7.73768371170888
30
0
41
1
10
129.971644130171
20
-7.05539299973555
30
0
41
1
10
130.049288567783
20
-6.68662126683051
30
0
41
1
10
130.204577443008
20
-5.90631896345059
30
0
41
1
10
130.282221880621
20
-5.49484171243404
30
0
41
1
10
130.437510755845
20
-4.64403348137699
30
0
41
1
10
130.515155193458
20
-4.20475919933222
30
0
41
1
10
130.670444068683
20
-3.31389787282524
30
0
41
1
10
130.748088506295
20
-2.86235890208832
30
0
41
1
10
130.90337738152
20
-1.96152936315522
30
0
41
1
10
130.981021819132
20
-1.51227051312185
30
0
41
1
10
131.097488475551
20
-0.849338270301473
30
0
41
1
10
131.136310694357
20
-0.630166764750584
30
0
41
1
10
131.194544022567
20
-0.305074794956766
30
0
41
1
10
131.21395513197
20
-0.197320243682753
30
0
41
1
10
131.243071796074
20
-0.0367089597272923
30
0
41
1
10
131.252777350776
20
0.0165529747472419
30
0
41
1
10
131.272188460179
20
0.123541359297661
30
0
41
1
10
131.28189401488
20
0.177206615567144
30
0
41
1
10
131.369244007194
20
0.661655791930144
30
0
41
1
10
131.446888444807
20
1.10279371979229
30
0
41
1
10
131.602177320032
20
1.99558503949839
30
0
41
1
10
131.679821757644
20
2.44721857369657
30
0
41
1
10
131.835110632869
20
3.34777943830457
30
0
41
1
10
131.912755070481
20
3.79666864719982
30
0
41
1
10
132.068043945706
20
4.67668996404029
30
0
41
1
10
132.145688383318
20
5.10776972647227
30
0
41
1
10
132.300977258543
20
5.93667062889213
30
0
41
1
10
132.378621696156
20
6.33443478391334
30
0
41
1
10
132.53391057138
20
7.08243427639121
30
0
41
1
10
132.611555008993
20
7.43262065059699
30
0
41
1
10
132.766843884218
20
8.07406509608691
30
0
41
1
10
132.84448832183
20
8.36529348023538
30
0
41
1
10
132.999777197055
20
8.88151288351099
30
0
41
1
10
133.077421634668
20
9.10649908220427
30
0
41
1
10
133.232710509892
20
9.48754794810048
30
0
41
1
10
133.310354947505
20
9.64362889982343
30
0
41
1
10
133.46564382273
20
9.88858847996599
30
0
41
1
10
133.543288260342
20
9.97750097881087
30
0
41
1
10
133.698577135567
20
10.0934368573588
30
0
41
1
10
133.776221573179
20
10.1205
30
0
41
1
10
133.853866010792
20
10.1205
30
0
0
SPLINE
5
F0
100
AcDbEntity
8
1
62
256
6
ByLayer
370
13
48
1
60
0
100
AcDbSpline
70
4
71
3
72
42
73
38
40
0
40
0
40
0
40
0
40
0.0625000000000005
40
0.0625000000000005
40
0.125000000000001
40
0.125000000000001
40
0.187500000000002
40
0.187500000000002
40
0.250000000000002
40
0.250000000000002
40
0.312500000000003
40
0.312500000000003
40
0.375000000000003
40
0.375000000000003
40
0.437500000000004
40
0.437500000000004
40
0.500000000000005
40
0.500000000000005
40
0.562500000000005
40
0.562500000000005
40
0.625000000000006
40
0.625000000000006
40
0.687500000000006
40
0.687500000000006
40
0.750000000000006
40
0.750000000000006
40
0.812500000000007
40
0.812500000000007
40
0.843750000000006
40
0.843750000000006
40
0.859375000000006
40
0.859375000000006
40
0.875000000000006
40
0.875000000000006
40
0.937500000000003
40
0.937500000000003
40
1
40
1
40
1
40
1
41
1
10
133.80643490617
20
10.1205
30
0
41
1
10
133.869143329877
20
10.1205
30
0
41
1
10
133.931851753584
20
10.1028652631808
30
0
41
1
10
134.057268600998
20
10.0281829576634
30
0
41
1
10
134.119977024705
20
9.97112165050046
30
0
41
1
10
134.245393872119
20
9.81435506774918
30
0
41
1
10
134.308102295826
20
9.7146369266548
30
0
41
1
10
134.43351914324
20
9.47066997791671
30
0
41
1
10
134.496227566948
20
9.32641134771362
30
0
41
1
10
134.621644414362
20
8.99317014620732
30
0
41
1
10
134.684352838069
20
8.80418290901898
30
0
41
1
10
134.809769685483
20
8.38320987969527
30
0
41
1
10
134.87247810919
20
8.15122606530693
30
0
41
1
10
134.997894956604
20
7.64794914507124
30
0
41
1
10
135.060603380311
20
7.37666501173808
30
0
41
1
10
135.186020227725
20
6.80027641520283
30
0
41
1
10
135.248728651432
20
6.4951869023073
30
0
41
1
10
135.374145498847
20
5.85811207926378
30
0
41
1
10
135.436853922554
20
5.52614548798013
30
0
41
1
10
135.562270769968
20
4.84316202569522
30
0
41
1
10
135.624979193675
20
4.49216478717364
30
0
41
1
10
135.750396041089
20
3.77929985514484
30
0
41
1
10
135.813104464796
20
3.41744992384832
30
0
41
1
10
135.93852131221
20
2.69082236904074
30
0
41
1
10
136.001229735917
20
2.32605854873467
30
0
41
1
10
136.126646583331
20
1.60082816628602
30
0
41
1
10
136.189355007038
20
1.24037039111104
30
0
41
1
10
136.283417642599
20
0.707530558119487
30
0
41
1
10
136.314771854452
20
0.531216013621702
30
0
41
1
10
136.361803172233
20
0.269182683845941
30
0
41
1
10
136.377480278159
20
0.182244036108898
30
0
41
1
10
136.408834490013
20
0.0092525643904366
30
0
41
1
10
136.42451159594
20
-0.076737801402686
30
0
41
1
10
136.502897125574
20
-0.510357938952779
30
0
41
1
10
136.565605549281
20
-0.864239301225865
30
0
41
1
10
136.691022396695
20
-1.58066082687432
30
0
41
1
10
136.753730820402
20
-1.943195708042
30
0
41
1
10
136.816439244109
20
-2.30680178506245
30
0
0
SPLINE
5
F1
100
AcDbEntity
8
1
62
256
6
ByLayer
370
13
48
1
60
0
100
AcDbSpline
70
4
71
3
72
79
73
75
40
0
40
0
40
0
40
0
40
0.0312500000000003
40
0.0312500000000003
40
0.0625000000000006
40
0.0625000000000006
40
0.0937500000000009
40
0.0937500000000009
40
0.125000000000001
40
0.125000000000001
40
0.156250000000002
40
0.156250000000002
40
0.187500000000002
40
0.187500000000002
40
0.218750000000002
40
0.218750000000002
40
0.250000000000003
40
0.250000000000003
40
0.253906250000003
40
0.253906250000003
40
0.257812500000003
40
0.265625000000003
40
0.265625000000003
40
0.281250000000003
40
0.281250000000003
40
0.312500000000003
40
0.312500000000003
40
0.343750000000003
40
0.343750000000003
40
0.375000000000003
40
0.375000000000003
40
0.406250000000003
40
0.406250000000003
40
0.437500000000003
40
0.437500000000003
40
0.468750000000003
40
0.468750000000003
40
0.500000000000003
40
0.500000000000003
40
0.531250000000003
40
0.531250000000003
40
0.562500000000003
40
0.562500000000003
40
0.593750000000003
40
0.593750000000003
40
0.625000000000002
40
0.625000000000002
40
0.632812500000002
40
0.632812500000002
40
0.640625000000002
40
0.640625000000002
40
0.656250000000002
40
0.656250000000002
40
0.687500000000002
40
0.687500000000002
40
0.718750000000002
40
0.718750000000002
40
0.750000000000002
40
0.750000000000002
40
0.781250000000002
40
0.781250000000002
40
0.812500000000002
40
0.812500000000002
40
0.843750000000001
40
0.843750000000001
40
0.875000000000001
40
0.875000000000001
40
0.906250000000001
40
0.906250000000001
40
0.937500000000001
40
0.937500000000001
40
0.96875
40
0.96875
40
1
40
1
40
1
40
1
41
1
10
126.4
20
-4.86202481828047
30
0
41
1
10
126.4725010804
20
-5.26325011440113
30
0
41
1
10
126.545002160801
20
-5.65343527940541
30
0
41
1
10
126.690004321602
20
-6.39946388286916
30
0
41
1
10
126.762505402002
20
-6.75526805206803
30
0
41
1
10
126.907507562803
20
-7.42166679251372
30
0
41
1
10
126.980008643203
20
-7.7322305537887
30
0
41
1
10
127.125010804004
20
-8.29983518739263
30
0
41
1
10
127.197511884404
20
-8.55685974109616
30
0
41
1
10
127.342514045205
20
-9.01235465440516
30
0
41
1
10
127.415015125605
20
-9.21082539356962
30
0
41
1
10
127.560017286406
20
-9.54770685807154
30
0
41
1
10
127.632518366806
20
-9.68613263953574
30
0
41
1
10
127.777520527607
20
-9.90470080030104
30
0
41
1
10
127.850021608007
20
-9.98486786660038
30
0
41
1
10
127.995023768808
20
-10.0913599457489
30
0
41
1
10
128.067524849208
20
-10.1177132344857
30
0
41
1
10
128.149088564659
20
-10.1206116307144
30
0
41
1
10
128.158151199709
20
-10.1205648876067
30
0
41
1
10
128.176276469809
20
-10.1197312719529
30
0
41
1
10
128.203464374959
20
-10.1173663856249
30
0
41
1
10
128.230652280109
20
-10.1115980443211
30
0
41
1
10
128.285028090409
20
-10.0953696375711
30
0
41
1
10
128.32127863061
20
-10.0782919901764
30
0
41
1
10
128.43003025121
20
-10.0071504746872
30
0
41
1
10
128.502531331611
20
-9.93310749142231
30
0
41
1
10
128.647533492411
20
-9.7271573615543
30
0
41
1
10
128.720034572812
20
-9.59522484496495
30
0
41
1
10
128.865036733612
20
-9.27137532712729
30
0
41
1
10
128.937537814013
20
-9.07944193845776
30
0
41
1
10
129.082539974814
20
-8.63669028595788
30
0
41
1
10
129.155041055214
20
-8.38586987477083
30
0
41
1
10
129.300043216015
20
-7.8299603620024
30
0
41
1
10
129.372544296415
20
-7.52488578652046
30
0
41
1
10
129.517546457216
20
-6.86842081116288
30
0
41
1
10
129.590047537616
20
-6.51705987760036
30
0
41
1
10
129.735049698417
20
-5.77864082432623
30
0
41
1
10
129.807550778817
20
-5.39162142344554
30
0
41
1
10
129.952552939618
20
-4.594121787533
30
0
41
1
10
130.025054020018
20
-4.18368170673077
30
0
41
1
10
130.170056180819
20
-3.35198047338179
30
0
41
1
10
130.242557261219
20
-2.93075354102018
30
0
41
1
10
130.38755942202
20
-2.08937911123064
30
0
41
1
10
130.460060502421
20
-1.66925507775178
30
0
41
1
10
130.605062663221
20
-0.840366698333781
30
0
41
1
10
130.677563743622
20
-0.43161359310173
30
0
41
1
10
130.768190094122
20
0.0671424921856101
30
0
41
1
10
130.786315364222
20
0.167021207326996
30
0
41
1
10
130.822565904422
20
0.368342668736972
30
0
41
1
10
130.840691174522
20
0.469563149279395
30
0
41
1
10
130.895066984823
20
0.774723160054663
30
0
41
1
10
130.931317525023
20
0.980165597781848
30
0
41
1
10
131.040069145623
20
1.60089585940031
30
0
41
1
10
131.112570226024
20
2.02064680720667
30
0
41
1
10
131.257572386824
20
2.86188237618691
30
0
41
1
10
131.330073467225
20
3.28334419205788
30
0
41
1
10
131.475075628026
20
4.11619147356083
30
0
41
1
10
131.547576708426
20
4.52754321064808
30
0
41
1
10
131.692578869227
20
5.32755565657635
30
0
41
1
10
131.765079949627
20
5.71617636050536
30
0
41
1
10
131.910082110428
20
6.45843472663245
30
0
41
1
10
131.982583190828
20
6.81203338276171
30
0
41
1
10
132.127585351629
20
7.47349353202881
30
0
41
1
10
132.200086432029
20
7.7813248780603
30
0
41
1
10
132.34508859283
20
8.3431013272895
30
0
41
1
10
132.41758967323
20
8.59703100515873
30
0
41
1
10
132.562591834031
20
9.04616337968551
30
0
41
1
10
132.635092914431
20
9.24136734328718
30
0
41
1
10
132.780095075232
20
9.57173174712227
30
0
41
1
10
132.852596155633
20
9.7069079170611
30
0
41
1
10
132.997598316433
20
9.91915718162699
30
0
41
1
10
133.070099396834
20
9.99625531395279
30
0
41
1
10
133.215101557634
20
10.0969125691457
30
0
41
1
10
133.287602638035
20
10.1205
30
0
41
1
10
133.360103718435
20
10.1205
30
0
0
SPLINE
5
F2
100
AcDbEntity
8
1
62
256
6
ByLayer
370
13
48
1
60
0
100
AcDbSpline
70
4
71
3
72
42
73
38
40
0
40
0
40
0
40
0
40
0.0625
40
0.0625
40
0.125
40
0.125
40
0.1875
40
0.1875
40
0.25
40
0.25
40
0.3125
40
0.3125
40
0.375
40
0.375
40
0.4375
40
0.4375
40
0.5
40
0.5
40
0.5625
40
0.5625
40
0.625
40
0.625
40
0.6875
40
0.6875
40
0.71875
40
0.71875
40
0.734375
40
0.734375
40
0.75
40
0.75
40
0.8125
40
0.8125
40
0.875
40
0.875
40
0.9375
40
0.9375
40
1
40
1
40
1
40
1
41
1
10
133.312672613813
20
10.1205
30
0
41
1
10
133.385667751945
20
10.1205
30
0
41
1
10
133.458662890076
20
10.0965891607877
30
0
41
1
10
133.604653166338
20
9.9945135037828
30
0
41
1
10
133.677648304469
20
9.91631940702817
30
0
41
1
10
133.823638580732
20
9.7010352199417
30
0
41
1
10
133.896633718863
20
9.56391932020247
30
0
41
1
10
134.042623995125
20
9.22884346212589
30
0
41
1
10
134.115619133256
20
9.03086749375021
30
0
41
1
10
134.261609409519
20
8.57546941476573
30
0
41
1
10
134.33460454765
20
8.31804645309339
30
0
41
1
10
134.480594823912
20
7.74876994798072
30
0
41
1
10
134.553589962043
20
7.43693293953396
30
0
41
1
10
134.699580238305
20
6.76723095201226
30
0
41
1
10
134.772575376436
20
6.40939767321902
30
0
41
1
10
134.918565652699
20
5.65875615502171
30
0
41
1
10
134.99156079083
20
5.26598850306945
30
0
41
1
10
135.137551067092
20
4.4580697802698
30
0
41
1
10
135.210546205223
20
4.04295991375983
30
0
41
1
10
135.356536481486
20
3.20322722895227
30
0
41
1
10
135.429531619617
20
2.7786387117178
30
0
41
1
10
135.575521895879
20
1.93193822095966
30
0
41
1
10
135.64851703401
20
1.50984898279447
30
0
41
1
10
135.758009741207
20
0.886251114200491
30
0
41
1
10
135.794507310273
20
0.679958732611652
30
0
41
1
10
135.849253663871
20
0.37368281119268
30
0
41
1
10
135.867502448404
20
0.272116822562992
30
0
41
1
10
135.90400001747
20
0.0701568510238815
30
0
41
1
10
135.922248802002
20
-0.0298625199101537
30
0
41
1
10
136.013492724666
20
-0.533974723023022
30
0
41
1
10
136.086487862797
20
-0.946853967662179
30
0
41
1
10
136.23247813906
20
-1.78331448347535
30
0
41
1
10
136.305473277191
20
-2.20688302712344
30
0
41
1
10
136.451463553453
20
-3.05407492899104
30
0
41
1
10
136.524458691584
20
-3.47767283246145
30
0
41
1
10
136.670448967847
20
-4.31267895339894
30
0
41
1
10
136.743444105978
20
-4.724050859588
30
0
41
1
10
136.816439244109
20
-5.12287568734834
30
0
0
SPLINE
5
F3
100
AcDbEntity
8
1
62
256
6
ByLayer
370
13
48
1
60
0
100
AcDbSpline
70
4
71
3
72
76
73
72
40
0
40
0
40
0
40
0
40
0.0312500000000002
40
0.0312500000000002
40
0.0625000000000004
40
0.0625000000000004
40
0.0937500000000006
40
0.0937500000000006
40
0.125000000000001
40
0.125000000000001
40
0.156250000000001
40
0.156250000000001
40
0.187500000000001
40
0.187500000000001
40
0.195312500000001
40
0.195312500000001
40
0.203125000000001
40
0.218750000000001
40
0.218750000000001
40
0.250000000000001
40
0.250000000000001
40
0.281250000000001
40
0.281250000000001
40
0.312500000000001
40
0.312500000000001
40
0.34375
40
0.34375
40
0.375
40
0.375
40
0.40625
40
0.40625
40
0.4375
40
0.4375
40
0.468749999999999
40
0.468749999999999
40
0.499999999999999
40
0.499999999999999
40
0.531249999999999
40
0.531249999999999
40
0.562499999999999
40
0.562499999999999
40
0.593749999999998
40
0.593749999999998
40
0.601562499999998
40
0.601562499999998
40
0.609374999999998
40
0.624999999999999
40
0.624999999999999
40
0.656249999999999
40
0.656249999999999
40
0.687499999999999
40
0.687499999999999
40
0.718749999999999
40
0.718749999999999
40
0.749999999999999
40
0.749999999999999
40
0.781249999999999
40
0.781249999999999
40
0.8125
40
0.8125
40
0.84375
40
0.84375
40
0.875
40
0.875
40
0.90625
40
0.90625
40
0.9375
40
0.9375
40
0.96875
40
0.96875
40
1
40
1
40
1
40
1
41
1
10
126.4
20
-7.35347397132079
30
0
41
1
10
126.467357723188
20
-7.65141482108564
30
0
41
1
10
126.534715446377
20
-7.92874208576021
30
0
41
1
10
126.669430892753
20
-8.43612439956704
30
0
41
1
10
126.736788615942
20
-8.66617042500442
30
0
41
1
10
126.871504062318
20
-9.07541934333111
30
0
41
1
10
126.938861785507
20
-9.25462394802898
30
0
41
1
10
127.073577231883
20
-9.56124160190754
30
0
41
1
10
127.140934955072
20
-9.68866558654167
30
0
41
1
10
127.275650401448
20
-9.89319852750398
30
0
41
1
10
127.343008124636
20
-9.97032453688612
30
0
41
1
10
127.477723571013
20
-10.0777300728497
30
0
41
1
10
127.545081294201
20
-10.1080291396648
30
0
41
1
10
127.629278448187
20
-10.119684882488
30
0
41
1
10
127.646117878984
20
-10.1207085056522
30
0
41
1
10
127.679796740578
20
-10.120221627852
30
0
41
1
10
127.730315032969
20
-10.1156708004916
30
0
41
1
10
127.780833325361
20
-10.099269751724
30
0
41
1
10
127.881869910143
20
-10.0497130917701
30
0
41
1
10
127.949227633331
20
-9.9942886410318
30
0
41
1
10
128.083943079708
20
-9.83451550891522
30
0
41
1
10
128.151300802896
20
-9.73014820794467
30
0
41
1
10
128.286016249273
20
-9.47003920841641
30
0
41
1
10
128.353373972461
20
-9.31428336665778
30
0
41
1
10
128.488089418838
20
-8.95119258177323
30
0
41
1
10
128.555447142026
20
-8.74385145059762
30
0
41
1
10
128.690162588403
20
-8.27994879456617
30
0
41
1
10
128.757520311591
20
-8.02339139077984
30
0
41
1
10
128.892235757968
20
-7.46601683422861
30
0
41
1
10
128.959593481156
20
-7.16521440423278
30
0
41
1
10
129.094308927533
20
-6.52662852776038
30
0
41
1
10
129.161666650721
20
-6.1888682934125
30
0
41
1
10
129.296382097098
20
-5.48538413471385
30
0
41
1
10
129.363739820286
20
-5.11968788432708
30
0
41
1
10
129.498455266663
20
-4.37030727968397
30
0
41
1
10
129.565812989851
20
-3.98665028104165
30
0
41
1
10
129.700528436228
20
-3.21143791807839
30
0
41
1
10
129.767886159416
20
-2.81990539937962
30
0
41
1
10
129.902601605793
20
-2.03837766940663
30
0
41
1
10
129.969959328981
20
-1.64839816812994
30
0
41
1
10
130.104674775357
20
-0.87817125846621
30
0
41
1
10
130.172032498546
20
-0.497931680056666
30
0
41
1
10
130.256229652531
20
-0.032839510145152
30
0
41
1
10
130.273069083328
20
0.0594675219026044
30
0
41
1
10
130.306747944922
20
0.245697286109873
30
0
41
1
10
130.357266237314
20
0.526546112136487
30
0
41
1
10
130.407784529705
20
0.811497768785983
30
0
41
1
10
130.508821114487
20
1.38563015750992
30
0
41
1
10
130.576178837676
20
1.77407084197083
30
0
41
1
10
130.710894284053
20
2.55449502427248
30
0
41
1
10
130.778252007241
20
2.94646459319506
30
0
41
1
10
130.912967453617
20
3.72476290976292
30
0
41
1
10
130.980325176806
20
4.11107026249078
30
0
41
1
10
131.115040623182
20
4.86805075695611
30
0
41
1
10
131.182398346371
20
5.23869724068749
30
0
41
1
10
131.317113792747
20
5.9542841216178
30
0
41
1
10
131.384471515936
20
6.29919649942099
30
0
41
1
10
131.519186962312
20
6.95400153849641
30
0
41
1
10
131.586544685501
20
7.26386957808248
30
0
41
1
10
131.721260131877
20
7.84083894481216
30
0
41
1
10
131.788617855065
20
8.10792336304553
30
0
41
1
10
131.923333301442
20
8.59378377929005
30
0
41
1
10
131.99069102463
20
8.81255319892057
30
0
41
1
10
132.125406471007
20
9.19880760268433
30
0
41
1
10
132.192764194195
20
9.36629658853678
30
0
41
1
10
132.327479640572
20
9.64961709970541
30
0
41
1
10
132.39483736376
20
9.76546125152638
30
0
41
1
10
132.529552810137
20
9.94746325530173
30
0
41
1
10
132.596910533325
20
10.0136390375417
30
0
41
1
10
132.731625979702
20
10.1001475949463
30
0
41
1
10
132.79898370289
20
10.1205
30
0
41
1
10
132.866341426079
20
10.1205
30
0
0
SPLINE
5
F4
100
AcDbEntity
8
1
62
256
6
ByLayer
370
13
48
1
60
0
100
AcDbSpline
70
4
71
3
72
43
73
39
40
0
40
0
40
0
40
0
40
0.0624999999999984
40
0.0624999999999984
40
0.124999999999997
40
0.124999999999997
40
0.187499999999995
40
0.187499999999995
40
0.249999999999994
40
0.249999999999994
40
0.312499999999992
40
0.312499999999992
40
0.37499999999999
40
0.37499999999999
40
0.437499999999989
40
0.437499999999989
40
0.499999999999987
40
0.499999999999987
40
0.562499999999985
40
0.562499999999985
40
0.624999999999984
40
0.624999999999984
40
0.640624999999983
40
0.648437499999983
40
0.648437499999983
40
0.656249999999983
40
0.656249999999983
40
0.687499999999985
40
0.687499999999985
40
0.749999999999988
40
0.749999999999988
40
0.812499999999991
40
0.812499999999991
40
0.874999999999994
40
0.874999999999994
40
0.937499999999997
40
0.937499999999997
40
1
40
1
40
1
40
1
41
1
10
132.818910321457
20
10.1205
30
0
41
1
10
132.902192174012
20
10.1205
30
0
41
1
10
132.985474026567
20
10.089349999519
30
0
41
1
10
133.152037731678
20
9.95535763896777
30
0
41
1
10
133.235319584233
20
9.85245907755009
30
0
41
1
10
133.401883289344
20
9.56880483907068
30
0
41
1
10
133.485165141899
20
9.38800354805323
30
0
41
1
10
133.651728847009
20
8.94729803319825
30
0
41
1
10
133.735010699565
20
8.68737436989477
30
0
41
1
10
133.901574404675
20
8.09313205934026
30
0
41
1
10
133.98485625723
20
7.75883070561704
30
0
41
1
10
134.151419962341
20
7.02655925908417
30
0
41
1
10
134.234701814896
20
6.62864260401295
30
0
41
1
10
134.401265520007
20
5.78480908568218
30
0
41
1
10
134.484547372562
20
5.33896880894713
30
0
41
1
10
134.651111077672
20
4.41788762564843
30
0
41
1
10
134.734392930228
20
3.94272625134627
30
0
41
1
10
134.900956635338
20
2.98211056839827
30
0
41
1
10
134.984238487893
20
2.49671996332432
30
0
41
1
10
135.150802193004
20
1.53304564114126
30
0
41
1
10
135.234084045559
20
1.05479923371217
30
0
41
1
10
135.338186361253
20
0.470273746344958
30
0
41
1
10
135.369417055961
20
0.29589857245864
30
0
41
1
10
135.40064775067
20
0.123202039329641
30
0
41
1
10
135.421468213809
20
0.0084649882249437
30
0
41
1
10
135.431878445378
20
-0.0486695414567748
30
0
41
1
10
135.483929603225
20
-0.33597024888013
30
0
41
1
10
135.525570529502
20
-0.568934419097161
30
0
41
1
10
135.650493308335
20
-1.27498885221451
30
0
41
1
10
135.733775160891
20
-1.75535205067072
30
0
41
1
10
135.900338866001
20
-2.72076791615945
30
0
41
1
10
135.983620718556
20
-3.20577892546962
30
0
41
1
10
136.150184423667
20
-4.16275680598307
30
0
41
1
10
136.233466276222
20
-4.63465658979445
30
0
41
1
10
136.400029981333
20
-5.54625303418709
30
0
41
1
10
136.483311833888
20
-5.98586925681599
30
0
41
1
10
136.649875538998
20
-6.81458366602385
30
0
41
1
10
136.733157391554
20
-7.2036076044873
30
0
41
1
10
136.816439244109
20
-7.5598373025484
30
0
0
SPLINE
5
F5
100
AcDbEntity
8
1
62
256
6
ByLayer
370
13
48
1
60
0
100
AcDbSpline
70
4
71
3
72
76
73
72
40
0
40
0
40
0
40
0
40
0.0312499999999998
40
0.0312499999999998
40
0.0624999999999996
40
0.0624999999999996
40
0.0937499999999994
40
0.0937499999999994
40
0.124999999999999
40
0.124999999999999
40
0.132812499999999
40
0.132812499999999
40
0.140625
40
0.156249999999999
40
0.156249999999999
40
0.1875
40
0.1875
40
0.21875
40
0.21875
40
0.25
40
0.25
40
0.28125
40
0.28125
40
0.3125
40
0.3125
40
0.343750000000001
40
0.343750000000001
40
0.375000000000001
40
0.375000000000001
40
0.406250000000001
40
0.406250000000001
40
0.437500000000001
40
0.437500000000001
40
0.468750000000001
40
0.468750000000001
40
0.500000000000002
40
0.500000000000002
40
0.531250000000002
40
0.531250000000002
40
0.562500000000002
40
0.562500000000002
40
0.570312500000002
40
0.570312500000002
40
0.578125000000003
40
0.593750000000003
40
0.593750000000003
40
0.625000000000002
40
0.625000000000002
40
0.656250000000002
40
0.656250000000002
40
0.687500000000002
40
0.687500000000002
40
0.718750000000002
40
0.718750000000002
40
0.750000000000002
40
0.750000000000002
40
0.781250000000001
40
0.781250000000001
40
0.812500000000001
40
0.812500000000001
40
0.843750000000001
40
0.843750000000001
40
0.875000000000001
40
0.875000000000001
40
0.906250000000001
40
0.906250000000001
40
0.9375
40
0.9375
40
0.96875
40
0.96875
40
1
40
1
40
1
40
1
41
1
10
126.4
20
-9.12801654741014
30
0
41
1
10
126.462214365976
20
-9.29611015487825
30
0
41
1
10
126.524428731953
20
-9.44221884932824
30
0
41
1
10
126.648857463905
20
-9.69051629124922
30
0
41
1
10
126.711071829882
20
-9.79271419349016
30
0
41
1
10
126.835500561834
20
-9.95491301131307
30
0
41
1
10
126.89771492781
20
-10.0149261428039
30
0
41
1
10
127.022143659763
20
-10.0958146293718
30
0
41
1
10
127.084358025739
20
-10.1167031940544
30
0
41
1
10
127.162125983209
20
-10.1208566393299
30
0
41
1
10
127.177679574704
20
-10.1206011786039
30
0
41
1
10
127.208786757692
20
-10.117894354071
30
0
41
1
10
127.255447532174
20
-10.1105225976063
30
0
41
1
10
127.302108306656
20
-10.0929152109288
30
0
41
1
10
127.39542985562
20
-10.0433132830082
30
0
41
1
10
127.457644221597
20
-9.99102784474255
30
0
41
1
10
127.582072953549
20
-9.84477657449941
30
0
41
1
10
127.644287319526
20
-9.75079818322206
30
0
41
1
10
127.768716051478
20
-9.51914995378448
30
0
41
1
10
127.830930417454
20
-9.38147021495354
30
0
41
1
10
127.955359149407
20
-9.06201403510266
30
0
41
1
10
128.017573515383
20
-8.88023238647969
30
0
41
1
10
128.142002247336
20
-8.47400724118071
30
0
41
1
10
128.204216613312
20
-8.24956474245965
30
0
41
1
10
128.328645345265
20
-7.76136111813005
30
0
41
1
10
128.390859711241
20
-7.49760769310262
30
0
41
1
10
128.515288443193
20
-6.93590408126065
30
0
41
1
10
128.57750280917
20
-6.63796751807104
30
0
41
1
10
128.701931541122
20
-6.01447397561324
30
0
41
1
10
128.764145907098
20
-5.6889345947408
30
0
41
1
10
128.888574639051
20
-5.0177893624487
30
0
41
1
10
128.950789005027
20
-4.67220243403884
30
0
41
1
10
129.07521773698
20
-3.96893513198481
30
0
41
1
10
129.137432102956
20
-3.61127231358188
30
0
41
1
10
129.261860834909
20
-2.8916879480158
30
0
41
1
10
129.324075200885
20
-2.52978046544479
30
0
41
1
10
129.448503932837
20
-1.80892136983948
30
0
41
1
10
129.510718298814
20
-1.4499791447349
30
0
41
1
10
129.635147030766
20
-0.741289586588209
30
0
41
1
10
129.697361396742
20
-0.391546768422614
30
0
41
1
10
129.775129354213
20
0.0367255728753548
30
0
41
1
10
129.790682945707
20
0.122249067174181
30
0
41
1
10
129.821790128695
20
0.294625395484985
30
0
41
1
10
129.868450903177
20
0.554449986805366
30
0
41
1
10
129.915111677659
20
0.817727508145879
30
0
41
1
10
130.008433226624
20
1.34790529998196
30
0
41
1
10
130.0706475926
20
1.70622203246913
30
0
41
1
10
130.195076324553
20
2.42647023642601
30
0
41
1
10
130.257290690529
20
2.7883927904202
30
0
41
1
10
130.381719422481
20
3.50872741573386
30
0
41
1
10
130.443933788458
20
3.86712583316532
30
0
41
1
10
130.56836252041
20
4.57262478997365
30
0
41
1
10
130.630576886386
20
4.91970802822519
30
0
41
1
10
130.755005618339
20
5.59459664692037
30
0
41
1
10
130.817219984315
20
5.92238312355315
30
0
41
1
10
130.941648716268
20
6.55105753387591
30
0
41
1
10
131.003863082244
20
6.85192762285564
30
0
41
1
10
131.128291814197
20
7.42006981796777
30
0
41
1
10
131.190506180173
20
7.68732782219902
30
0
41
1
10
131.314934912125
20
8.18295700100524
30
0
41
1
10
131.377149278102
20
8.41131985646234
30
0
41
1
10
131.501578010054
20
8.82562383953237
30
0
41
1
10
131.563792376031
20
9.01156333269114
30
0
41
1
10
131.688221107983
20
9.33939123095564
30
0
41
1
10
131.750435473959
20
9.48128430475992
30
0
41
1
10
131.874864205912
20
9.72124737241822
30
0
41
1
10
131.937078571888
20
9.81932690332062
30
0
41
1
10
132.061507303841
20
9.97352878854105
30
0
41
1
10
132.123721669817
20
10.0296635399352
30
0
41
1
10
132.248150401769
20
10.1031425425984
30
0
41
1
10
132.310364767746
20
10.1205
30
0
41
1
10
132.372579133722
20
10.1205
30
0
0
SPLINE
5
F6
100
AcDbEntity
8
1
62
256
6
ByLayer
370
13
48
1
60
0
100
AcDbSpline
70
4
71
3
72
44
73
40
40
0
40
0
40
0
40
0
40
0.0625000000000002
40
0.0625000000000002
40
0.125
40
0.125
40
0.187500000000001
40
0.187500000000001
40
0.250000000000001
40
0.250000000000001
40
0.312500000000001
40
0.312500000000001
40
0.375000000000001
40
0.375000000000001
40
0.437500000000001
40
0.437500000000001
40
0.500000000000002
40
0.500000000000002
40
0.562500000000002
40
0.562500000000002
40
0.578125000000002
40
0.578125000000002
40
0.585937500000002
40
0.585937500000002
40
0.593750000000002
40
0.593750000000002
40
0.625000000000002
40
0.625000000000002
40
0.687500000000002
40
0.687500000000002
40
0.750000000000002
40
0.750000000000002
40
0.812500000000001
40
0.812500000000001
40
0.875000000000001
40
0.875000000000001
40
0.9375
40
0.9375
40
1
40
1
40
1
40
1
41
1
10
132.3251480291
20
10.1205
30
0
41
1
10
132.41871659608
20
10.1205
30
0
41
1
10
132.512285163059
20
10.0811420386749
30
0
41
1
10
132.699422297018
20
9.91062866296787
30
0
41
1
10
132.792990863997
20
9.77937380607912
30
0
41
1
10
132.980127997956
20
9.41743306317088
30
0
41
1
10
133.073696564935
20
9.18667497492501
30
0
41
1
10
133.260833698894
20
8.62643980614931
30
0
41
1
10
133.354402265873
20
8.29695113776694
30
0
41
1
10
133.541539399832
20
7.54969002765299
30
0
41
1
10
133.635107966811
20
7.13198195602996
30
0
41
1
10
133.82224510077
20
6.22768097869283
30
0
41
1
10
133.915813667749
20
5.74121278870479
30
0
41
1
10
134.102950801708
20
4.72482638117674
30
0
41
1
10
134.196519368687
20
4.19505231296921
30
0
41
1
10
134.383656502646
20
3.11931848522613
30
0
41
1
10
134.477225069625
20
2.57347784014115
30
0
41
1
10
134.664362203584
20
1.49059256083467
30
0
41
1
10
134.757930770563
20
0.95361530602068
30
0
41
1
10
134.874891479287
20
0.300279485490052
30
0
41
1
10
134.898283621032
20
0.170491909398066
30
0
41
1
10
134.93337183365
20
-0.0226846473341311
30
0
41
1
10
134.945067904522
20
-0.0869662342513209
30
0
41
1
10
134.968460046267
20
-0.216310105870718
30
0
41
1
10
134.980156117139
20
-0.281224190975991
30
0
41
1
10
135.038636471501
20
-0.606927836839219
30
0
41
1
10
135.085420754991
20
-0.871132352126182
30
0
41
1
10
135.22577360546
20
-1.67132365012765
30
0
41
1
10
135.319342172439
20
-2.21504972177547
30
0
41
1
10
135.506479306398
20
-3.30084457911641
30
0
41
1
10
135.600047873377
20
-3.84282123736617
30
0
41
1
10
135.787185007336
20
-4.89875509726494
30
0
41
1
10
135.880753574315
20
-5.41257730415538
30
0
41
1
10
136.067890708274
20
-6.38522060992872
30
0
41
1
10
136.161459275253
20
-6.84390035255211
30
0
41
1
10
136.348596409212
20
-7.68296335764228
30
0
41
1
10
136.442164976191
20
-8.06324488936784
30
0
41
1
10
136.62930211015
20
-8.72972409312351
30
0
41
1
10
136.722870677129
20
-9.01589129851956
30
0
41
1
10
136.816439244109
20
-9.25191712322606
30
0
0
SPLINE
5
F7
100
AcDbEntity
8
1
62
256
6
ByLayer
370
13
48
1
60
0
100
AcDbSpline
70
4
71
3
72
78
73
74
40
0
40
0
40
0
40
0
40
0.0312499999999989
40
0.0312499999999989
40
0.0468749999999983
40
0.0468749999999983
40
0.0546874999999983
40
0.0546874999999983
40
0.0624999999999982
40
0.0624999999999982
40
0.093749999999999
40
0.093749999999999
40
0.125
40
0.125
40
0.156250000000001
40
0.156250000000001
40
0.187500000000001
40
0.187500000000001
40
0.218750000000002
40
0.218750000000002
40
0.250000000000003
40
0.250000000000003
40
0.281250000000004
40
0.281250000000004
40
0.312500000000004
40
0.312500000000004
40
0.343750000000005
40
0.343750000000005
40
0.375000000000006
40
0.375000000000006
40
0.406250000000007
40
0.406250000000007
40
0.437500000000007
40
0.437500000000007
40
0.468750000000008
40
0.468750000000008
40
0.500000000000009
40
0.500000000000009
40
0.51562500000001
40
0.51562500000001
40
0.52343750000001
40
0.52343750000001
40
0.53125000000001
40
0.53125000000001
40
0.562500000000009
40
0.562500000000009
40
0.593750000000008
40
0.593750000000008
40
0.625000000000008
40
0.625000000000008
40
0.656250000000007
40
0.656250000000007
40
0.687500000000007
40
0.687500000000007
40
0.718750000000006
40
0.718750000000006
40
0.750000000000005
40
0.750000000000005
40
0.781250000000004
40
0.781250000000004
40
0.812500000000004
40
0.812500000000004
40
0.843750000000003
40
0.843750000000003
40
0.875000000000002
40
0.875000000000002
40
0.906250000000002
40
0.906250000000002
40
0.937500000000001
40
0.937500000000001
40
0.968750000000001
40
0.968750000000001
40
1
40
1
40
1
40
1
41
1
10
126.4
20
-10.0049182848698
30
0
41
1
10
126.457071008764
20
-10.0549156793389
30
0
41
1
10
126.514142017528
20
-10.0879511881919
30
0
41
1
10
126.599748530675
20
-10.1141774595395
30
0
41
1
10
126.628284035057
20
-10.1190369137547
30
0
41
1
10
126.67108729163
20
-10.1208052898246
30
0
41
1
10
126.685355043821
20
-10.1204826301303
30
0
41
1
10
126.713890548203
20
-10.117986392985
30
0
41
1
10
126.728158300394
20
-10.1158091083458
30
0
41
1
10
126.79949706135
20
-10.1001498739209
30
0
41
1
10
126.856568070114
20
-10.0723267931367
30
0
41
1
10
126.970710087642
20
-9.98316849300087
30
0
41
1
10
127.027781096407
20
-9.9218247150277
30
0
41
1
10
127.141923113935
20
-9.7634142048899
30
0
41
1
10
127.198994122699
20
-9.66633969925536
30
0
41
1
10
127.313136140228
20
-9.43523265335941
30
0
41
1
10
127.370207148992
20
-9.30119426854134
30
0
41
1
10
127.48434916652
20
-8.99610890671596
30
0
41
1
10
127.541420175284
20
-8.82505909288983
30
0
41
1
10
127.655562192813
20
-8.44721908475893
30
0
41
1
10
127.712633201577
20
-8.24042982600781
30
0
41
1
10
127.826775219106
20
-7.79372898202476
30
0
41
1
10
127.88384622787
20
-7.553822335174
30
0
41
1
10
127.997988245398
20
-7.04476679806984
30
0
41
1
10
128.055059254162
20
-6.77562643293902
30
0
41
1
10
128.169201271691
20
-6.21304135843781
30
0
41
1
10
128.226272280455
20
-5.9196077451912
30
0
41
1
10
128.340414297984
20
-5.3141331017134
30
0
41
1
10
128.397485306748
20
-5.00210432659532
30
0
41
1
10
128.511627324276
20
-4.36553928994459
30
0
41
1
10
128.56869833304
20
-4.04101493342949
30
0
41
1
10
128.682840350569
20
-3.38559343576557
30
0
41
1
10
128.739911359333
20
-3.05470654471156
30
0
41
1
10
128.854053376862
20
-2.39239234824788
30
0
41
1
10
128.911124385626
20
-2.06097275429343
30
0
41
1
10
129.025266403154
20
-1.40285077871872
30
0
41
1
10
129.082337411919
20
-1.07615319322392
30
0
41
1
10
129.167943925065
20
-0.59301542900667
30
0
41
1
10
129.196479429447
20
-0.433114549678066
30
0
41
1
10
129.23928268602
20
-0.195341402200086
30
0
41
1
10
129.253550438211
20
-0.116429621091498
30
0
41
1
10
129.282085942593
20
0.04064713163649
30
0
41
1
10
129.296353694784
20
0.119139997249846
30
0
41
1
10
129.36769245574
20
0.514300949457379
30
0
41
1
10
129.424763464504
20
0.836143166849638
30
0
41
1
10
129.538905482032
20
1.48726121007118
30
0
41
1
10
129.595976490797
20
1.81653391635686
30
0
41
1
10
129.710118508325
20
2.47768698391553
30
0
41
1
10
129.767189517089
20
2.80956131221618
30
0
41
1
10
129.881331534618
20
3.47039646792464
30
0
41
1
10
129.938402543382
20
3.7993484434337
30
0
41
1
10
130.05254456091
20
4.44834663909131
30
0
41
1
10
130.109615569675
20
4.76838177949858
30
0
41
1
10
130.223757587203
20
5.39338474559568
30
0
41
1
10
130.280828595967
20
5.69834034254126
30
0
41
1
10
130.394970613496
20
6.28720763119134
30
0
41
1
10
130.45204162226
20
6.57110736854983
30
0
41
1
10
130.566183639788
20
7.1124398450271
30
0
41
1
10
130.623254648553
20
7.36986241137137
30
0
41
1
10
130.737396666081
20
7.853708669806
30
0
41
1
10
130.794467674845
20
8.08012524931422
30
0
41
1
10
130.908609692374
20
8.49858277745597
30
0
41
1
10
130.965680701138
20
8.69062045441632
30
0
41
1
10
131.079822718666
20
9.03825677601228
30
0
41
1
10
131.136893727431
20
9.19385613063821
30
0
41
1
10
131.251035744959
20
9.4679041068535
30
0
41
1
10
131.308106753723
20
9.58635694401815
30
0
41
1
10
131.422248771252
20
9.7866756174644
30
0
41
1
10
131.479319780016
20
9.8685482481344
30
0
41
1
10
131.593461797544
20
9.99737658999098
30
0
41
1
10
131.650532806309
20
10.0443405390168
30
0
41
1
10
131.764674823837
20
10.1058979558653
30
0
41
1
10
131.821745832601
20
10.1205
30
0
41
1
10
131.878816841366
20
10.1205
30
0
0
SPLINE
5
F8
100
AcDbEntity
8
1
62
256
6
ByLayer
370
13
48
1
60
0
100
AcDbSpline
70
4
71
3
72
66
73
62
40
0
40
0
40
0
40
0
40
0.0625000000000006
40
0.0625000000000006
40
0.0937500000000009
40
0.0937500000000009
40
0.125000000000001
40
0.125000000000001
40
0.156250000000002
40
0.156250000000002
40
0.187500000000002
40
0.187500000000002
40
0.218750000000002
40
0.218750000000002
40
0.250000000000003
40
0.250000000000003
40
0.281250000000003
40
0.281250000000003
40
0.312500000000003
40
0.312500000000003
40
0.343750000000003
40
0.343750000000003
40
0.375000000000004
40
0.375000000000004
40
0.406250000000004
40
0.406250000000004
40
0.437500000000004
40
0.437500000000004
40
0.500000000000005
40
0.500000000000005
40
0.515625000000005
40
0.515625000000005
40
0.523437500000005
40
0.523437500000005
40
0.531250000000005
40
0.531250000000005
40
0.562500000000004
40
0.562500000000004
40
0.625000000000003
40
0.625000000000003
40
0.656250000000003
40
0.656250000000003
40
0.687500000000003
40
0.687500000000003
40
0.718750000000002
40
0.718750000000002
40
0.750000000000002
40
0.750000000000002
40
0.781250000000002
40
0.781250000000002
40
0.812500000000002
40
0.812500000000002
40
0.843750000000001
40
0.843750000000001
40
0.875000000000001
40
0.875000000000001
40
0.906250000000001
40
0.906250000000001
40
0.937500000000001
40
0.937500000000001
40
1
40
1
40
1
40
1
41
1
10
131.831385736744
20
10.1205
30
0
41
1
10
131.935241018147
20
10.1205
30
0
41
1
10
132.039096299551
20
10.0719583620151
30
0
41
1
10
132.194879221656
20
9.91317388281902
30
0
41
1
10
132.246806862358
20
9.8459642265141
30
0
41
1
10
132.350662143761
20
9.68156904076275
30
0
41
1
10
132.402589784463
20
9.58437895337332
30
0
41
1
10
132.506445065866
20
9.35931695858267
30
0
41
1
10
132.558372706568
20
9.23144176032335
30
0
41
1
10
132.662227987971
20
8.94514104178546
30
0
41
1
10
132.714155628673
20
8.78671403318387
30
0
41
1
10
132.818010910077
20
8.44035230378631
30
0
41
1
10
132.869938550778
20
8.25241826431528
30
0
41
1
10
132.973793832182
20
7.84900951847317
30
0
41
1
10
133.025721472883
20
7.63353777071737
30
0
41
1
10
133.129576754287
20
7.17789062403273
30
0
41
1
10
133.181504394989
20
6.93772026272512
30
0
41
1
10
133.285359676392
20
6.43626185538687
30
0
41
1
10
133.337287317094
20
6.17498043817255
30
0
41
1
10
133.441142598497
20
5.6354576821266
30
0
41
1
10
133.493070239199
20
5.35722386544541
30
0
41
1
10
133.596925520602
20
4.7883107313512
30
0
41
1
10
133.648853161304
20
4.49763904473252
30
0
41
1
10
133.752708442707
20
3.90849087189955
30
0
41
1
10
133.804636083409
20
3.61002138817767
30
0
41
1
10
133.908491364813
20
3.00982232902672
30
0
41
1
10
133.960419005514
20
2.70809855078565
30
0
41
1
10
134.116201927619
20
1.8044190633731
30
0
41
1
10
134.220057209023
20
1.20424002417636
30
0
41
1
10
134.349876310777
20
0.474547839141451
30
0
41
1
10
134.375840131128
20
0.329614439188589
30
0
41
1
10
134.414785861654
20
0.113986343948938
30
0
41
1
10
134.42776777183
20
0.042539878206469
30
0
41
1
10
134.453731592181
20
-0.100328810489913
30
0
41
1
10
134.466713502356
20
-0.17207310785659
30
0
41
1
10
134.531623053233
20
-0.532241440499547
30
0
41
1
10
134.583550693935
20
-0.82502931269147
30
0
41
1
10
134.73933361604
20
-1.71283699468688
30
0
41
1
10
134.843188897443
20
-2.31754141125634
30
0
41
1
10
134.998971819549
20
-3.22086786810118
30
0
41
1
10
135.05089946025
20
-3.52128959359874
30
0
41
1
10
135.154754741654
20
-4.11633110899592
30
0
41
1
10
135.206682382356
20
-4.41094435927312
30
0
41
1
10
135.310537663759
20
-4.98974552003165
30
0
41
1
10
135.362465304461
20
-5.27392598827916
30
0
41
1
10
135.466320585864
20
-5.82726467429589
30
0
41
1
10
135.518248226566
20
-6.09641522643003
30
0
41
1
10
135.622103507969
20
-6.61535308854474
30
0
41
1
10
135.674031148671
20
-6.86513328943991
30
0
41
1
10
135.777886430074
20
-7.3414700839819
30
0
41
1
10
135.829814070776
20
-7.56802087711969
30
0
41
1
10
135.93366935218
20
-7.99471560586264
30
0
41
1
10
135.985596992881
20
-8.1948556411576
30
0
41
1
10
136.089452274285
20
-8.56637033022557
30
0
41
1
10
136.141379914987
20
-8.73774331333968
30
0
41
1
10
136.24523519639
20
-9.05027466733372
30
0
41
1
10
136.297162837092
20
-9.19143361962875
30
0
41
1
10
136.401018118495
20
-9.44301310640535
30
0
41
1
10
136.452945759197
20
-9.55343621034757
30
0
41
1
10
136.608728681302
20
-9.83912751659616
30
0
41
1
10
136.712583962706
20
-9.96851177167648
30
0
41
1
10
136.816439244109
20
-10.0425985952361
30
0
0
SPLINE
5
F9
100
AcDbEntity
8
1
62
256
6
ByLayer
370
13
48
1
60
0
100
AcDbSpline
70
4
71
3
72
66
73
62
40
0
40
0
40
0
40
0
40
0.0625000000000015
40
0.0625000000000015
40
0.0937500000000023
40
0.0937500000000023
40
0.125000000000003
40
0.125000000000003
40
0.156250000000004
40
0.156250000000004
40
0.187500000000004
40
0.187500000000004
40
0.218750000000005
40
0.218750000000005
40
0.250000000000006
40
0.250000000000006
40
0.281250000000007
40
0.281250000000007
40
0.312500000000007
40
0.312500000000007
40
0.343750000000008
40
0.343750000000008
40
0.375000000000009
40
0.375000000000009
40
0.43750000000001
40
0.43750000000001
40
0.46875000000001
40
0.46875000000001
40
0.476562500000011
40
0.476562500000011
40
0.484375000000011
40
0.484375000000011
40
0.500000000000011
40
0.500000000000011
40
0.562500000000009
40
0.562500000000009
40
0.593750000000009
40
0.593750000000009
40
0.625000000000008
40
0.625000000000008
40
0.656250000000008
40
0.656250000000008
40
0.687500000000007
40
0.687500000000007
40
0.718750000000007
40
0.718750000000007
40
0.750000000000006
40
0.750000000000006
40
0.781250000000005
40
0.781250000000005
40
0.812500000000005
40
0.812500000000005
40
0.843750000000004
40
0.843750000000004
40
0.875000000000003
40
0.875000000000003
40
0.906250000000003
40
0.906250000000003
40
0.937500000000002
40
0.937500000000002
40
1
40
1
40
1
40
1
41
1
10
126.4
20
-10.0425993383076
30
0
41
1
10
126.503855303104
20
-9.96851286632202
30
0
41
1
10
126.607710606209
20
-9.83912896718627
30
0
41
1
10
126.763493560865
20
-9.55343817137754
30
0
41
1
10
126.815421212418
20
-9.44301523360426
30
0
41
1
10
126.919276515522
20
-9.19143606587645
30
0
41
1
10
126.971204167074
20
-9.05027726644781
30
0
41
1
10
127.075059470178
20
-8.73774619979969
30
0
41
1
10
127.12698712173
20
-8.56637335115181
30
0
41
1
10
127.230842424835
20
-8.19485890819863
30
0
41
1
10
127.282770076387
20
-7.99471898454107
30
0
41
1
10
127.386625379491
20
-7.56802445286564
30
0
41
1
10
127.438553031044
20
-7.34147374515061
30
0
41
1
10
127.542408334148
20
-6.86513709318393
30
0
41
1
10
127.5943359857
20
-6.61535694943882
30
0
41
1
10
127.698191288804
20
-6.09641917277048
30
0
41
1
10
127.750118940357
20
-5.82726864893533
30
0
41
1
10
127.853974243461
20
-5.27392999155688
30
0
41
1
10
127.905901895013
20
-4.98974952365597
30
0
41
1
10
128.009757198117
20
-4.41094833785144
30
0
41
1
10
128.06168484967
20
-4.11633506219209
30
0
41
1
10
128.165540152774
20
-3.52129347356714
30
0
41
1
10
128.217467804326
20
-3.22087170023596
30
0
41
1
10
128.373250758983
20
-2.31754507217505
30
0
41
1
10
128.477106062087
20
-1.71284050453917
30
0
41
1
10
128.632889016744
20
-0.825032566547378
30
0
41
1
10
128.684816668296
20
-0.53224460413071
30
0
41
1
10
128.749726232736
20
-0.172076155127399
30
0
41
1
10
128.762708145624
20
-0.100331834308719
30
0
41
1
10
128.7886719714
20
0.0425369015922286
30
0
41
1
10
128.801653884288
20
0.113983363354549
30
0
41
1
10
128.840599622952
20
0.329611479245358
30
0
41
1
10
128.866563448728
20
0.474544894610688
30
0
41
1
10
128.996382577609
20
1.20423716502012
30
0
41
1
10
129.100237880713
20
1.80441629954251
30
0
41
1
10
129.25602083537
20
2.70809596733594
30
0
41
1
10
129.307948486922
20
3.00981981184921
30
0
41
1
10
129.411803790026
20
3.61001901422324
30
0
41
1
10
129.463731441578
20
3.90848857489382
30
0
41
1
10
129.567586744683
20
4.49763690997551
30
0
41
1
10
129.619514396235
20
4.7883086818893
30
0
41
1
10
129.723369699339
20
5.35722199198798
30
0
41
1
10
129.775297350891
20
5.63545589937127
30
0
41
1
10
129.879152653996
20
6.17497883887415
30
0
41
1
10
129.931080305548
20
6.43626034883442
30
0
41
1
10
130.034935608652
20
6.9377189401784
30
0
41
1
10
130.086863260204
20
7.17788939273646
30
0
41
1
10
130.190718563309
20
7.6335367169969
30
0
41
1
10
130.242646214861
20
7.84900855106966
30
0
41
1
10
130.346501517965
20
8.25241746155237
30
0
41
1
10
130.398429169518
20
8.44035157934067
30
0
41
1
10
130.502284472622
20
8.78671345490704
30
0
41
1
10
130.554212124174
20
8.94514053135663
30
0
41
1
10
130.658067427278
20
9.23144137339943
30
0
41
1
10
130.709995078831
20
9.35931662731508
30
0
41
1
10
130.813850381935
20
9.58437872031121
30
0
41
1
10
130.865778033487
20
9.68156885025189
30
0
41
1
10
130.969633336592
20
9.84596410786654
30
0
41
1
10
131.021560988144
20
9.91317379348766
30
0
41
1
10
131.1773439428
20
10.0719583416064
30
0
41
1
10
131.281199245905
20
10.1205
30
0
41
1
10
131.385054549009
20
10.1205
30
0
0
SPLINE
5
FA
100
AcDbEntity
8
1
62
256
6
ByLayer
370
13
48
1
60
0
100
AcDbSpline
70
4
71
3
72
77
73
73
40
0
40
0
40
0
40
0
40
0.0312499999999995
40
0.0312499999999995
40
0.0624999999999991
40
0.0624999999999991
40
0.0937499999999986
40
0.0937499999999986
40
0.124999999999998
40
0.124999999999998
40
0.156249999999998
40
0.156249999999998
40
0.187499999999997
40
0.187499999999997
40
0.218749999999997
40
0.218749999999997
40
0.249999999999996
40
0.249999999999996
40
0.281249999999996
40
0.281249999999996
40
0.312499999999995
40
0.312499999999995
40
0.343749999999995
40
0.343749999999995
40
0.374999999999994
40
0.374999999999994
40
0.406249999999994
40
0.406249999999994
40
0.437499999999993
40
0.437499999999993
40
0.468749999999993
40
0.468749999999993
40
0.476562499999993
40
0.476562499999993
40
0.484374999999993
40
0.499999999999993
40
0.499999999999993
40
0.531249999999994
40
0.531249999999994
40
0.562499999999995
40
0.562499999999995
40
0.593749999999995
40
0.593749999999995
40
0.624999999999995
40
0.624999999999995
40
0.656249999999996
40
0.656249999999996
40
0.687499999999996
40
0.687499999999996
40
0.718749999999997
40
0.718749999999997
40
0.749999999999997
40
0.749999999999997
40
0.781249999999998
40
0.781249999999998
40
0.812499999999998
40
0.812499999999998
40
0.843749999999998
40
0.843749999999998
40
0.874999999999999
40
0.874999999999999
40
0.906249999999999
40
0.906249999999999
40
0.9375
40
0.9375
40
0.9453125
40
0.9453125
40
0.953125
40
0.953125
40
0.96875
40
0.96875
40
1
40
1
40
1
40
1
41
1
10
131.337623444387
20
10.1205
30
0
41
1
10
131.394694442301
20
10.1205
30
0
41
1
10
131.451765440215
20
10.1058979614258
30
0
41
1
10
131.565907436042
20
10.0443405685665
30
0
41
1
10
131.622978433956
20
9.9973766379776
30
0
41
1
10
131.737120429783
20
9.86854834710647
30
0
41
1
10
131.794191427698
20
9.78667574899251
30
0
41
1
10
131.908333423525
20
9.58635715525497
30
0
41
1
10
131.965404421439
20
9.46790436524827
30
0
41
1
10
132.079546417266
20
9.19385649747414
30
0
41
1
10
132.13661741518
20
9.03825720413303
30
0
41
1
10
132.250759411008
20
8.69062101769541
30
0
41
1
10
132.307830408921
20
8.49858341460558
30
0
41
1
10
132.421972404749
20
8.08012604420856
30
0
41
1
10
132.479043402663
20
7.85370954856694
30
0
41
1
10
132.59318539849
20
7.36986346439699
30
0
41
1
10
132.650256396404
20
7.11244098843932
30
0
41
1
10
132.764398392232
20
6.5711086951992
30
0
41
1
10
132.821469390145
20
6.28720905067786
30
0
41
1
10
132.935611385973
20
5.69834194588432
30
0
41
1
10
132.992682383886
20
5.39338643994509
30
0
41
1
10
133.106824379714
20
4.76838364995442
30
0
41
1
10
133.163895377628
20
4.44834859463657
30
0
41
1
10
133.278037373455
20
3.79935055972101
30
0
41
1
10
133.335108371369
20
3.47039865985775
30
0
41
1
10
133.449250367196
20
2.80956364329916
30
0
41
1
10
133.50632136511
20
2.47768937850006
30
0
41
1
10
133.620463360938
20
1.81653642406371
30
0
41
1
10
133.677534358852
20
1.48726376740026
30
0
41
1
10
133.791676354679
20
0.836145808780458
30
0
41
1
10
133.848747352593
20
0.514303626372168
30
0
41
1
10
133.920086099985
20
0.119142708817833
30
0
41
1
10
133.934353849464
20
0.0406498405802722
30
0
41
1
10
133.962889348421
20
-0.116426864968474
30
0
41
1
10
134.005692596856
20
-0.353161283621944
30
0
41
1
10
134.048495845291
20
-0.593012534165553
30
0
41
1
10
134.134102342162
20
-1.07615016481273
30
0
41
1
10
134.191173340076
20
-1.40284766568993
30
0
41
1
10
134.305315335903
20
-2.06096948602379
30
0
41
1
10
134.362386333817
20
-2.39238900936908
30
0
41
1
10
134.476528329645
20
-3.05470308388149
30
0
41
1
10
134.533599327558
20
-3.38558992361035
30
0
41
1
10
134.647741323386
20
-4.04101134280984
30
0
41
1
10
134.704812321299
20
-4.36553567220321
30
0
41
1
10
134.818954317127
20
-5.00210068283306
30
0
41
1
10
134.876025315041
20
-5.31412945906729
30
0
41
1
10
134.990167310868
20
-5.91960413564925
30
0
41
1
10
135.047238308782
20
-6.2130377808939
30
0
41
1
10
135.16138030461
20
-6.77562295113293
30
0
41
1
10
135.218451302523
20
-7.04476338000612
30
0
41
1
10
135.332593298351
20
-7.5538190752309
30
0
41
1
10
135.389664296265
20
-7.79372581645413
30
0
41
1
10
135.503806292092
20
-8.24042687678329
30
0
41
1
10
135.560877290006
20
-8.44721625749486
30
0
41
1
10
135.675019285834
20
-8.82505653247262
30
0
41
1
10
135.732090283747
20
-8.99610649116704
30
0
41
1
10
135.846232279575
20
-9.30119215981802
30
0
41
1
10
135.903303277489
20
-9.43523070657361
30
0
41
1
10
136.017445273316
20
-9.66633808701602
30
0
41
1
10
136.07451627123
20
-9.7634127652411
30
0
41
1
10
136.188658267057
20
-9.92182362481762
30
0
41
1
10
136.245729264971
20
-9.98316757962436
30
0
41
1
10
136.359871260799
20
-10.0723262317767
30
0
41
1
10
136.416942258713
20
-10.1001494877344
30
0
41
1
10
136.488281006105
20
-10.1158089369456
30
0
41
1
10
136.502548755583
20
-10.1179862643355
30
0
41
1
10
136.53108425454
20
-10.1204825865008
30
0
41
1
10
136.545352004018
20
-10.1208052880567
30
0
41
1
10
136.588155252454
20
-10.1190370403379
30
0
41
1
10
136.616690751411
20
-10.1141776755144
30
0
41
1
10
136.702297248281
20
-10.087951683669
30
0
41
1
10
136.759368246195
20
-10.0549163763183
30
0
41
1
10
136.816439244109
20
-10.0049191974062
30
0
0
SPLINE
5
FB
100
AcDbEntity
8
1
62
256
6
ByLayer
370
13
48
1
60
0
100
AcDbSpline
70
4
71
3
72
44
73
40
40
0
40
0
40
0
40
0
40
0.0625
40
0.0625
40
0.125
40
0.125
40
0.1875
40
0.1875
40
0.25
40
0.25
40
0.3125
40
0.3125
40
0.375
40
0.375
40
0.40625
40
0.40625
40
0.4140625
40
0.4140625
40
0.421875
40
0.421875
40
0.4375
40
0.4375
40
0.5
40
0.5
40
0.5625
40
0.5625
40
0.625
40
0.625
40
0.6875
40
0.6875
40
0.75
40
0.75
40
0.8125
40
0.8125
40
0.875
40
0.875
40
0.9375
40
0.9375
40
1
40
1
40
1
40
1
41
1
10
126.4
20
-9.25191975076092
30
0
41
1
10
126.49356858868
20
-9.01589424044883
30
0
41
1
10
126.587137177361
20
-8.72972732361265
30
0
41
1
10
126.774274354721
20
-8.06324861467681
30
0
41
1
10
126.867842943401
20
-7.68296728897741
30
0
41
1
10
127.054980120762
20
-6.84390459441076
30
0
41
1
10
127.148548709442
20
-6.38522495620799
30
0
41
1
10
127.335685886803
20
-5.41258175551636
30
0
41
1
10
127.429254475483
20
-4.8987595493987
30
0
41
1
10
127.616391652843
20
-3.84282560155043
30
0
41
1
10
127.709960241524
20
-3.30084885481185
30
0
41
1
10
127.897097418884
20
-2.21505375624764
30
0
41
1
10
127.990666007564
20
-1.67132753210859
30
0
41
1
10
128.131018890585
20
-0.871135978673323
30
0
41
1
10
128.177803184925
20
-0.606931373794652
30
0
41
1
10
128.23628355285
20
-0.281227612454955
30
0
41
1
10
128.247979626435
20
-0.216313504079409
30
0
41
1
10
128.271371773605
20
-0.0869695856182489
30
0
41
1
10
128.28306784719
20
-0.0226879690550561
30
0
41
1
10
128.318156067945
20
0.170488606680181
30
0
41
1
10
128.341548215115
20
0.300276196913984
30
0
41
1
10
128.458508950966
20
0.953612095616819
30
0
41
1
10
128.552077539646
20
1.49058943715107
30
0
41
1
10
128.739214717006
20
2.57347493626187
30
0
41
1
10
128.832783305687
20
3.11931571445774
30
0
41
1
10
129.019920483047
20
4.19504984445055
30
0
41
1
10
129.113489071728
20
4.7248240817284
30
0
41
1
10
129.300626249088
20
5.74121084509051
30
0
41
1
10
129.394194837768
20
6.22767922168217
30
0
41
1
10
129.581332015129
20
7.13198056708669
30
0
41
1
10
129.674900603809
20
7.54968881998036
30
0
41
1
10
129.86203778117
20
8.29695026573452
30
0
41
1
10
129.95560636985
20
8.62643908834391
30
0
41
1
10
130.14274354721
20
9.18667452333605
30
0
41
1
10
130.236312135891
20
9.41743272353372
30
0
41
1
10
130.423449313251
20
9.77937364205698
30
0
41
1
10
130.517017901931
20
9.91062856267089
30
0
41
1
10
130.704155079292
20
10.0811420203328
30
0
41
1
10
130.797723667972
20
10.1205
30
0
41
1
10
130.891292256652
20
10.1205
30
0
0
SPLINE
5
FC
100
AcDbEntity
8
1
62
256
6
ByLayer
370
13
48
1
60
0
100
AcDbSpline
70
4
71
3
72
78
73
74
40
0
40
0
40
0
40
0
40
0.0312499999999991
40
0.0312499999999991
40
0.0624999999999982
40
0.0624999999999982
40
0.0937499999999973
40
0.0937499999999973
40
0.124999999999996
40
0.124999999999996
40
0.156249999999996
40
0.156249999999996
40
0.187499999999995
40
0.187499999999995
40
0.218749999999994
40
0.218749999999994
40
0.249999999999993
40
0.249999999999993
40
0.281249999999992
40
0.281249999999992
40
0.312499999999991
40
0.312499999999991
40
0.34374999999999
40
0.34374999999999
40
0.374999999999989
40
0.374999999999989
40
0.406249999999988
40
0.406249999999988
40
0.421874999999988
40
0.421874999999988
40
0.429687499999988
40
0.429687499999988
40
0.437499999999988
40
0.437499999999988
40
0.468749999999988
40
0.468749999999988
40
0.499999999999988
40
0.499999999999988
40
0.531249999999989
40
0.531249999999989
40
0.562499999999989
40
0.562499999999989
40
0.593749999999989
40
0.593749999999989
40
0.62499999999999
40
0.62499999999999
40
0.65624999999999
40
0.65624999999999
40
0.68749999999999
40
0.68749999999999
40
0.71874999999999
40
0.71874999999999
40
0.749999999999991
40
0.749999999999991
40
0.781249999999991
40
0.781249999999991
40
0.812499999999991
40
0.812499999999991
40
0.843749999999991
40
0.843749999999991
40
0.859374999999991
40
0.859374999999991
40
0.867187499999992
40
0.867187499999992
40
0.874999999999992
40
0.874999999999992
40
0.906249999999994
40
0.906249999999994
40
0.937499999999996
40
0.937499999999996
40
0.968749999999998
40
0.968749999999998
40
1
40
1
40
1
40
1
41
1
10
130.843861152031
20
10.1205
30
0
41
1
10
130.906075507156
20
10.1205
30
0
41
1
10
130.968289862282
20
10.1031425486637
30
0
41
1
10
131.092718572534
20
10.029663572315
30
0
41
1
10
131.15493292766
20
9.97352884118163
30
0
41
1
10
131.279361637911
20
9.8193270120409
30
0
41
1
10
131.341575993037
20
9.72124751696765
30
0
41
1
10
131.466004703289
20
9.48128453686593
30
0
41
1
10
131.528219058415
20
9.33939151479535
30
0
41
1
10
131.652647768666
20
9.01156373494678
30
0
41
1
10
131.714862123792
20
8.82562430847022
30
0
41
1
10
131.839290834044
20
8.41132047137077
30
0
41
1
10
131.90150518917
20
8.18295769519474
30
0
41
1
10
132.025933899421
20
7.68732868392749
30
0
41
1
10
132.088148254547
20
7.4200707679401
30
0
41
1
10
132.212576964799
20
6.85192875369927
30
0
41
1
10
132.274791319925
20
6.55105875732872
30
0
41
1
10
132.399220030176
20
5.92238453154573
30
0
41
1
10
132.461434385302
20
5.59459814682461
30
0
41
1
10
132.585863095553
20
4.91970970631596
30
0
41
1
10
132.648077450679
20
4.57262655432336
30
0
41
1
10
132.772506160931
20
3.86712776007855
30
0
41
1
10
132.834720516057
20
3.50872941894141
30
0
41
1
10
132.959149226308
20
2.78839493298634
30
0
41
1
10
133.021363581434
20
2.42647244205287
30
0
41
1
10
133.145792291686
20
1.70622434896197
30
0
41
1
10
133.208006646812
20
1.34790766428264
30
0
41
1
10
133.3013281795
20
0.817729932143322
30
0
41
1
10
133.332435357063
20
0.642211602488914
30
0
41
1
10
133.379096123408
20
0.381236455216737
30
0
41
1
10
133.394649712189
20
0.294627868728128
30
0
41
1
10
133.425756889752
20
0.122251554356836
30
0
41
1
10
133.441310478533
20
0.0367280589715619
30
0
41
1
10
133.519078422441
20
-0.391544164456718
30
0
41
1
10
133.581292777566
20
-0.74128689123134
30
0
41
1
10
133.705721487818
20
-1.4499762781569
30
0
41
1
10
133.767935842944
20
-1.80891842344749
30
0
41
1
10
133.892364553196
20
-2.52977737722995
30
0
41
1
10
133.954578908321
20
-2.89168479781401
30
0
41
1
10
134.079007618573
20
-3.61126906335198
30
0
41
1
10
134.141221973699
20
-3.96893184373869
30
0
41
1
10
134.265650683951
20
-4.67219909902849
30
0
41
1
10
134.327865039076
20
-5.01778601871371
30
0
41
1
10
134.452293749328
20
-5.68893126658742
30
0
41
1
10
134.514508104454
20
-6.01447067178287
30
0
41
1
10
134.638936814705
20
-6.63796429750047
30
0
41
1
10
134.701151169831
20
-6.93590091963279
30
0
41
1
10
134.825579880083
20
-7.49760468302452
30
0
41
1
10
134.887794235209
20
-7.76135820065215
30
0
41
1
10
135.01222294546
20
-8.24956204037599
30
0
41
1
10
135.074437300586
20
-8.47400466187278
30
0
41
1
10
135.198866010838
20
-8.88023007731212
30
0
41
1
10
135.261080365964
20
-9.06201187327392
30
0
41
1
10
135.385509076215
20
-9.38146836533207
30
0
41
1
10
135.447723431341
20
-9.51914826900361
30
0
41
1
10
135.572152141593
20
-9.75079683796565
30
0
41
1
10
135.634366496719
20
-9.84477540390205
30
0
41
1
10
135.75879520697
20
-9.9910270258022
30
0
41
1
10
135.821009562096
20
-10.0433126410476
30
0
41
1
10
135.914331094785
20
-10.0929148311929
30
0
41
1
10
135.945438272348
20
-10.1046531758536
30
0
41
1
10
135.992099038692
20
-10.1154366810886
30
0
41
1
10
136.007652627473
20
-10.1178942329599
30
0
41
1
10
136.038759805036
20
-10.1206011425092
30
0
41
1
10
136.054313393818
20
-10.1208566450444
30
0
41
1
10
136.132081337725
20
-10.1167034145817
30
0
41
1
10
136.194295692851
20
-10.0958150385014
30
0
41
1
10
136.318724403102
20
-10.0149269610069
30
0
41
1
10
136.380938758228
20
-9.95491404999837
30
0
41
1
10
136.50536746848
20
-9.79271570073783
30
0
41
1
10
136.567581823606
20
-9.69051804657713
30
0
41
1
10
136.692010533857
20
-9.4422211212833
30
0
41
1
10
136.754224888983
20
-9.29611269536602
30
0
41
1
10
136.816439244109
20
-9.12801936176905
30
0
0
SPLINE
5
FD
100
AcDbEntity
8
1
62
256
6
ByLayer
370
13
48
1
60
0
100
AcDbSpline
70
4
71
3
72
8
73
4
40
0
40
0
40
0
40
0
40
1
40
1
40
1
40
1
41
1
10
136.816439244109
20
-10.1094071978639
30
0
41
1
10
138.044292829406
20
-6.74018645182858
30
0
41
1
10
139.272146414703
20
-3.3703611894671
30
0
41
1
10
140.5
20
4.832E-13
30
0
0
SPLINE
5
FE
100
AcDbEntity
8
1
62
256
6
ByLayer
370
13
48
1
60
0
100
AcDbSpline
70
4
71
3
72
8
73
4
40
0
40
0
40
0
40
0
40
1
40
1
40
1
40
1
41
1
10
136.816439244109
20
7.01468373272962
30
0
41
1
10
138.044292829406
20
4.68541315741169
30
0
41
1
10
139.272146414703
20
2.34716936300052
30
0
41
1
10
140.5
20
1.137E-13
30
0
0
SPLINE
5
FF
100
AcDbEntity
8
1
62
256
6
ByLayer
370
13
48
1
60
0
100
AcDbSpline
70
4
71
3
72
8
73
4
40
0
40
0
40
0
40
0
40
1
40
1
40
1
40
1
41
1
10
136.816439244109
20
-7.14212137051715
30
0
41
1
10
138.044292829406
20
-4.75261004682628
30
0
41
1
10
139.272146414703
20
-2.37188679179403
30
0
41
1
10
140.5
20
-1.137E-13
30
0
0
SPLINE
5
100
100
AcDbEntity
8
1
62
256
6
ByLayer
370
13
48
1
60
0
100
AcDbSpline
70
4
71
3
72
8
73
4
40
0
40
0
40
0
40
0
40
1
40
1
40
1
40
1
41
1
10
136.816439244109
20
4.86923828006391
30
0
41
1
10
138.044292829406
20
3.23526515265965
30
0
41
1
10
139.272146414703
20
1.61217473914559
30
0
41
1
10
140.5
20
-2.274E-13
30
0
0
SPLINE
5
101
100
AcDbEntity
8
1
62
256
6
ByLayer
370
13
48
1
60
0
100
AcDbSpline
70
4
71
3
72
8
73
4
40
0
40
0
40
0
40
0
40
1
40
1
40
1
40
1
41
1
10
136.816439244109
20
-8.10137897772753
30
0
41
1
10
138.044292829406
20
-5.40836705556711
30
0
41
1
10
139.272146414703
20
-2.70788905874753
30
0
41
1
10
140.5
20
-1.137E-13
30
0
0
SPLINE
5
102
100
AcDbEntity
8
1
62
256
6
ByLayer
370
13
48
1
60
0
100
AcDbSpline
70
4
71
3
72
8
73
4
40
0
40
0
40
0
40
0
40
1
40
1
40
1
40
1
41
1
10
136.816439244109
20
9.49356046699458
30
0
41
1
10
138.044292829406
20
6.32473461729236
30
0
41
1
10
139.272146414703
20
3.1601930023036
30
0
41
1
10
140.5
20
7.105E-13
30
0
0
SPLINE
5
103
100
AcDbEntity
8
1
62
256
6
ByLayer
370
13
48
1
60
0
100
AcDbSpline
70
4
71
3
72
8
73
4
40
0
40
0
40
0
40
0
40
1
40
1
40
1
40
1
41
1
10
136.816439244109
20
-6.23898191469786
30
0
41
1
10
138.044292829406
20
-4.1495369223411
30
0
41
1
10
139.272146414703
20
-2.06986219718885
30
0
41
1
10
140.5
20
-8.53E-14
30
0
0
SPLINE
5
104
100
AcDbEntity
8
1
62
256
6
ByLayer
370
13
48
1
60
0
100
AcDbSpline
70
4
71
3
72
8
73
4
40
0
40
0
40
0
40
0
40
1
40
1
40
1
40
1
41
1
10
136.816439244109
20
10.0530844655502
30
0
41
1
10
138.044292829406
20
6.70062439249631
30
0
41
1
10
139.272146414703
20
3.3495735061631
30
0
41
1
10
140.5
20
-4.832E-13
30
0
0
SPLINE
5
105
100
AcDbEntity
8
1
62
256
6
ByLayer
370
13
48
1
60
0
100
AcDbSpline
70
4
71
3
72
8
73
4
40
0
40
0
40
0
40
0
40
1
40
1
40
1
40
1
41
1
10
136.816439244109
20
9.89997916906691
30
0
41
1
10
138.044292829406
20
6.60256604689354
30
0
41
1
10
139.272146414703
20
3.30255059655323
30
0
41
1
10
140.5
20
0
30
0
0
SPLINE
5
106
100
AcDbEntity
8
1
62
256
6
ByLayer
370
13
48
1
60
0
100
AcDbSpline
70
4
71
3
72
8
73
4
40
0
40
0
40
0
40
0
40
1
40
1
40
1
40
1
41
1
10
136.816439244109
20
-9.30441250431903
30
0
41
1
10
138.044292829406
20
-6.20783038184888
30
0
41
1
10
139.272146414703
20
-3.10633849470483
30
0
41
1
10
140.5
20
-1.421E-13
30
0
0
SPLINE
5
107
100
AcDbEntity
8
1
62
256
6
ByLayer
370
13
48
1
60
0
100
AcDbSpline
70
4
71
3
72
8
73
4
40
0
40
0
40
0
40
0
40
1
40
1
40
1
40
1
41
1
10
136.816439244109
20
-9.63596235110754
30
0
41
1
10
138.044292829406
20
-6.4201759388464
30
0
41
1
10
139.272146414703
20
-3.20816670597486
30
0
41
1
10
140.5
20
-7.39E-13
30
0
0
SPLINE
5
108
100
AcDbEntity
8
1
62
256
6
ByLayer
370
13
48
1
60
0
100
AcDbSpline
70
4
71
3
72
8
73
4
40
0
40
0
40
0
40
0
40
1
40
1
40
1
40
1
41
1
10
136.816439244109
20
1.71168429120584
30
0
41
1
10
138.044292829406
20
1.15337033301043
30
0
41
1
10
139.272146414703
20
0.582805004050442
30
0
41
1
10
140.5
20
8.53E-14
30
0
0
SPLINE
5
109
100
AcDbEntity
8
1
62
256
6
ByLayer
370
13
48
1
60
0
100
AcDbSpline
70
4
71
3
72
8
73
4
40
0
40
0
40
0
40
0
40
1
40
1
40
1
40
1
41
1
10
136.816439244109
20
-7.32277821045153
30
0
41
1
10
138.044292829406
20
-4.89042968320729
30
0
41
1
10
139.272146414703
20
-2.44948703367916
30
0
41
1
10
140.5
20
-5.684E-13
30
0
0
SPLINE
5
10A
100
AcDbEntity
8
1
62
256
6
ByLayer
370
13
48
1
60
0
100
AcDbSpline
70
4
71
3
72
8
73
4
40
0
40
0
40
0
40
0
40
1
40
1
40
1
40
1
41
1
10
136.816439244109
20
0.513658554969794
30
0
41
1
10
138.044292829406
20
0.354849513241362
30
0
41
1
10
139.272146414703
20
0.18362880524765
30
0
41
1
10
140.5
20
2.84E-14
30
0
0
SPLINE
5
10B
100
AcDbEntity
8
1
62
256
6
ByLayer
370
13
48
1
60
0
100
AcDbSpline
70
4
71
3
72
8
73
4
40
0
40
0
40
0
40
0
40
1
40
1
40
1
40
1
41
1
10
136.816439244109
20
9.84313479811536
30
0
41
1
10
138.044292829406
20
6.55920056713757
30
0
41
1
10
139.272146414703
20
3.27813338136534
30
0
41
1
10
140.500000000001
20
-1.6769E-12
30
0
0
SPLINE
5
10C
100
AcDbEntity
8
1
62
256
6
ByLayer
370
13
48
1
60
0
100
AcDbSpline
70
4
71
3
72
8
73
4
40
0
40
0
40
0
40
0
40
1
40
1
40
1
40
1
41
1
10
136.816439244109
20
-6.44030398559815
30
0
41
1
10
138.044292829406
20
-4.30312166686002
30
0
41
1
10
139.272146414703
20
-2.15633908566033
30
0
41
1
10
140.5
20
-8.53E-14
30
0
0
SPLINE
5
10D
100
AcDbEntity
8
1
62
256
6
ByLayer
370
13
48
1
60
0
100
AcDbSpline
70
4
71
3
72
8
73
4
40
0
40
0
40
0
40
0
40
1
40
1
40
1
40
1
41
1
10
136.816439244109
20
-2.14027694873013
30
0
41
1
10
138.044292829406
20
-1.43899673470159
30
0
41
1
10
139.272146414703
20
-0.725566217563483
30
0
41
1
10
140.5
20
1.137E-13
30
0
0
SPLINE
5
10E
100
AcDbEntity
8
1
62
256
6
ByLayer
370
13
48
1
60
0
100
AcDbSpline
70
4
71
3
72
8
73
4
40
0
40
0
40
0
40
0
40
1
40
1
40
1
40
1
41
1
10
136.816439244109
20
-10.0940260542761
30
0
41
1
10
138.044292829406
20
-6.72845247254986
30
0
41
1
10
139.272146414703
20
-3.36375429618127
30
0
41
1
10
140.5
20
-1.421E-13
30
0
0
SPLINE
5
10F
100
AcDbEntity
8
1
62
256
6
ByLayer
370
13
48
1
60
0
100
AcDbSpline
70
4
71
3
72
8
73
4
40
0
40
0
40
0
40
0
40
1
40
1
40
1
40
1
41
1
10
136.816439244109
20
-3.05588593809429
30
0
41
1
10
138.044292829406
20
-2.02541082212031
30
0
41
1
10
139.272146414703
20
-1.00677529219428
30
0
41
1
10
140.5
20
-5.68E-14
30
0
0
SPLINE
5
110
100
AcDbEntity
8
1
62
256
6
ByLayer
370
13
48
1
60
0
100
AcDbSpline
70
4
71
3
72
8
73
4
40
0
40
0
40
0
40
0
40
1
40
1
40
1
40
1
41
1
10
136.816439244109
20
2.63694236221693
30
0
41
1
10
138.044292829406
20
1.74596430449978
30
0
41
1
10
139.272146414703
20
0.866977580953801
30
0
41
1
10
140.5
20
-1.137E-13
30
0
0
SPLINE
5
111
100
AcDbEntity
8
1
62
256
6
ByLayer
370
13
48
1
60
0
100
AcDbSpline
70
4
71
3
72
8
73
4
40
0
40
0
40
0
40
0
40
1
40
1
40
1
40
1
41
1
10
136.816439244109
20
9.57995645750935
30
0
41
1
10
138.044292829406
20
6.39064446051668
30
0
41
1
10
139.272146414703
20
3.19730396784567
30
0
41
1
10
140.5
20
0
30
0
0
SPLINE
5
112
100
AcDbEntity
8
1
62
256
6
ByLayer
370
13
48
1
60
0
100
AcDbSpline
70
4
71
3
72
8
73
4
40
0
40
0
40
0
40
0
40
1
40
1
40
1
40
1
41
1
10
136.816439244109
20
-4.41510255472537
30
0
41
1
10
138.044292829406
20
-2.95458335726943
30
0
41
1
10
139.272146414703
20
-1.48287249594423
30
0
41
1
10
140.5
20
1.99E-13
30
0
0
SPLINE
5
113
100
AcDbEntity
8
1
62
256
6
ByLayer
370
13
48
1
60
0
100
AcDbSpline
70
4
71
3
72
8
73
4
40
0
40
0
40
0
40
0
40
1
40
1
40
1
40
1
41
1
10
136.816439244109
20
1.45658053424288
30
0
41
1
10
138.044292829406
20
0.958756572264889
30
0
41
1
10
139.272146414703
20
0.473226461365499
30
0
41
1
10
140.5
20
-5.68E-14
30
0
0
SPLINE
5
114
100
AcDbEntity
8
1
62
256
6
ByLayer
370
13
48
1
60
0
100
AcDbSpline
70
4
71
3
72
8
73
4
40
0
40
0
40
0
40
0
40
1
40
1
40
1
40
1
41
1
10
136.816439244109
20
-1.88715430004601
30
0
41
1
10
138.044292829406
20
-1.24589432344459
30
0
41
1
10
139.272146414703
20
-0.616838650029706
30
0
41
1
10
140.5
20
2.84E-14
30
0
0
SPLINE
5
115
100
AcDbEntity
8
1
62
256
6
ByLayer
370
13
48
1
60
0
100
AcDbSpline
70
4
71
3
72
8
73
4
40
0
40
0
40
0
40
0
40
1
40
1
40
1
40
1
41
1
10
136.816439244109
20
-7.94394998229993
30
0
41
1
10
138.044292829406
20
-5.28826749601811
30
0
41
1
10
139.272146414703
20
-2.64026622127673
30
0
41
1
10
140.5
20
-1.137E-13
30
0
0
SPLINE
5
116
100
AcDbEntity
8
1
62
256
6
ByLayer
370
13
48
1
60
0
100
AcDbSpline
70
4
71
3
72
8
73
4
40
0
40
0
40
0
40
0
40
1
40
1
40
1
40
1
41
1
10
136.816439244109
20
-5.24734262935789
30
0
41
1
10
138.044292829406
20
-3.48760270236986
30
0
41
1
10
139.272146414703
20
-1.73847665009382
30
0
41
1
10
140.5
20
-8.53E-14
30
0
0
SPLINE
5
117
100
AcDbEntity
8
1
62
256
6
ByLayer
370
13
48
1
60
0
100
AcDbSpline
70
4
71
3
72
8
73
4
40
0
40
0
40
0
40
0
40
1
40
1
40
1
40
1
41
1
10
136.816439244109
20
4.0182455887057
30
0
41
1
10
138.044292829406
20
2.69023544205223
30
0
41
1
10
139.272146414703
20
1.35081113302772
30
0
41
1
10
140.5
20
5.68E-14
30
0
0
SPLINE
5
118
100
AcDbEntity
8
1
62
256
6
ByLayer
370
13
48
1
60
0
100
AcDbSpline
70
4
71
3
72
8
73
4
40
0
40
0
40
0
40
0
40
1
40
1
40
1
40
1
41
1
10
136.816439244109
20
3.77989921727991
30
0
41
1
10
138.044292829406
20
2.5084055691587
30
0
41
1
10
139.272146414703
20
1.24843064147385
30
0
41
1
10
140.5
20
-1.705E-13
30
0
0
SPLINE
5
119
100
AcDbEntity
8
1
62
256
6
ByLayer
370
13
48
1
60
0
100
AcDbSpline
70
4
71
3
72
8
73
4
40
0
40
0
40
0
40
0
40
1
40
1
40
1
40
1
41
1
10
136.816439244109
20
8.53870371475082
30
0
41
1
10
138.044292829406
20
5.69913979711524
30
0
41
1
10
139.272146414703
20
2.85288590073074
30
0
41
1
10
140.5
20
0
30
0
0
SPLINE
5
11A
100
AcDbEntity
8
1
62
256
6
ByLayer
370
13
48
1
60
0
100
AcDbSpline
70
4
71
3
72
8
73
4
40
0
40
0
40
0
40
0
40
1
40
1
40
1
40
1
41
1
10
136.816439244109
20
9.12404226158839
30
0
41
1
10
138.044292829406
20
6.08807171454106
30
0
41
1
10
139.272146414703
20
3.04670364843199
30
0
41
1
10
140.5
20
-8.53E-14
30
0
0
SPLINE
5
11B
100
AcDbEntity
8
1
62
256
6
ByLayer
370
13
48
1
60
0
100
AcDbSpline
70
4
71
3
72
8
73
4
40
0
40
0
40
0
40
0
40
1
40
1
40
1
40
1
41
1
10
136.816439244109
20
-8.76506185163342
30
0
41
1
10
138.044292829406
20
-5.84958685301729
30
0
41
1
10
139.272146414703
20
-2.9278797334814
30
0
41
1
10
140.5
20
-6.821E-13
30
0
0
SPLINE
5
11C
100
AcDbEntity
8
1
62
256
6
ByLayer
370
13
48
1
60
0
100
AcDbSpline
70
4
71
3
72
8
73
4
40
0
40
0
40
0
40
0
40
1
40
1
40
1
40
1
41
1
10
136.816439244109
20
9.00932017685031
30
0
41
1
10
138.044292829406
20
6.00055243761162
30
0
41
1
10
139.272146414703
20
2.99742535081339
30
0
41
1
10
140.5
20
6.821E-13
30
0
0
SPLINE
5
11D
100
AcDbEntity
8
1
62
256
6
ByLayer
370
13
48
1
60
0
100
AcDbSpline
70
4
71
3
72
8
73
4
40
0
40
0
40
0
40
0
40
1
40
1
40
1
40
1
41
1
10
136.816439244109
20
5.88950729847639
30
0
41
1
10
138.044292829406
20
3.91623256683243
30
0
41
1
10
139.272146414703
20
1.95305017146092
30
0
41
1
10
140.5
20
-2.842E-13
30
0
0
SPLINE
5
11E
100
AcDbEntity
8
1
62
256
6
ByLayer
370
13
48
1
60
0
100
AcDbSpline
70
4
71
3
72
8
73
4
40
0
40
0
40
0
40
0
40
1
40
1
40
1
40
1
41
1
10
136.816439244109
20
-3.30110278914827
30
0
41
1
10
138.044292829406
20
-2.21248205207749
30
0
41
1
10
139.272146414703
20
-1.11210696390356
30
0
41
1
10
140.5
20
1.705E-13
30
0
0
SPLINE
5
11F
100
AcDbEntity
8
1
62
256
6
ByLayer
370
13
48
1
60
0
100
AcDbSpline
70
4
71
3
72
8
73
4
40
0
40
0
40
0
40
0
40
1
40
1
40
1
40
1
41
1
10
136.816439244109
20
0.255557141493341
30
0
41
1
10
138.044292829406
20
0.15794889786676
30
0
41
1
10
139.272146414703
20
0.0727626342027463
30
0
41
1
10
140.5
20
0
30
0
0
SPLINE
5
120
100
AcDbEntity
8
1
62
256
6
ByLayer
370
13
48
1
60
0
100
AcDbSpline
70
4
71
3
72
8
73
4
40
0
40
0
40
0
40
0
40
1
40
1
40
1
40
1
41
1
10
136.816439244109
20
-8.63309382775924
30
0
41
1
10
138.044292829406
20
-5.74891098007009
30
0
41
1
10
139.272146414703
20
-2.87119352897631
30
0
41
1
10
140.5
20
-1.137E-13
30
0
0
SPLINE
5
121
100
AcDbEntity
8
1
62
256
6
ByLayer
370
13
48
1
60
0
100
AcDbSpline
70
4
71
3
72
8
73
4
40
0
40
0
40
0
40
0
40
1
40
1
40
1
40
1
41
1
10
136.816439244109
20
-9.71178025792258
30
0
41
1
10
138.044292829406
20
-6.47801596500983
30
0
41
1
10
139.272146414703
20
-3.24073390857947
30
0
41
1
10
140.5
20
-7.39E-13
30
0
0
SPLINE
5
122
100
AcDbEntity
8
1
62
256
6
ByLayer
370
13
48
1
60
0
100
AcDbSpline
70
4
71
3
72
8
73
4
40
0
40
0
40
0
40
0
40
1
40
1
40
1
40
1
41
1
10
136.816439244109
20
2.88542982114606
30
0
41
1
10
138.044292829406
20
1.93553061844207
30
0
41
1
10
139.272146414703
20
0.973714125915365
30
0
41
1
10
140.5
20
5.68E-14
30
0
0
SPLINE
5
123
100
AcDbEntity
8
1
62
256
6
ByLayer
370
13
48
1
60
0
100
AcDbSpline
70
4
71
3
72
8
73
4
40
0
40
0
40
0
40
0
40
1
40
1
40
1
40
1
41
1
10
136.816439244109
20
6.09762048949443
30
0
41
1
10
138.044292829406
20
4.07499812656766
30
0
41
1
10
139.272146414703
20
2.04244415160756
30
0
41
1
10
140.5
20
-8.53E-14
30
0
0
SPLINE
5
124
100
AcDbEntity
8
1
62
256
6
ByLayer
370
13
48
1
60
0
100
AcDbSpline
70
4
71
3
72
8
73
4
40
0
40
0
40
0
40
0
40
1
40
1
40
1
40
1
41
1
10
136.816439244109
20
10.0795708807114
30
0
41
1
10
138.044292829406
20
6.72083037034864
30
0
41
1
10
139.272146414703
20
3.36095061330158
30
0
41
1
10
140.5
20
0
30
0
0
SPLINE
5
125
100
AcDbEntity
8
1
62
256
6
ByLayer
370
13
48
1
60
0
100
AcDbSpline
70
4
71
3
72
8
73
4
40
0
40
0
40
0
40
0
40
1
40
1
40
1
40
1
41
1
10
136.816439244109
20
-0.691653417252866
30
0
41
1
10
138.044292829406
20
-0.448704839539431
30
0
41
1
10
139.272146414703
20
-0.21815216436255
30
0
41
1
10
140.5
20
-2.84E-14
30
0
0
SPLINE
5
126
100
AcDbEntity
8
1
62
256
6
ByLayer
370
13
48
1
60
0
100
AcDbSpline
70
4
71
3
72
8
73
4
40
0
40
0
40
0
40
0
40
1
40
1
40
1
40
1
41
1
10
136.816439244109
20
-4.18126989726588
30
0
41
1
10
138.044292829406
20
-2.77619691014277
30
0
41
1
10
139.272146414703
20
-1.38243084764574
30
0
41
1
10
140.5
20
5.68E-14
30
0
0
SPLINE
5
127
100
AcDbEntity
8
1
62
256
6
ByLayer
370
13
48
1
60
0
100
AcDbSpline
70
4
71
3
72
8
73
4
40
0
40
0
40
0
40
0
40
1
40
1
40
1
40
1
41
1
10
136.816439244109
20
8.39728286619058
30
0
41
1
10
138.044292829406
20
5.59125254561442
30
0
41
1
10
139.272146414703
20
2.79213928266748
30
0
41
1
10
140.500000000001
20
-1.4211E-12
30
0
0
SPLINE
5
128
100
AcDbEntity
8
1
62
256
6
ByLayer
370
13
48
1
60
0
100
AcDbSpline
70
4
71
3
72
8
73
4
40
0
40
0
40
0
40
0
40
1
40
1
40
1
40
1
41
1
10
136.816439244109
20
-0.949091324026739
30
0
41
1
10
138.044292829406
20
-0.645099278383299
30
0
41
1
10
139.272146414703
20
-0.328733329422363
30
0
41
1
10
140.5
20
5.68E-14
30
0
0
SPLINE
5
129
100
AcDbEntity
8
1
62
256
6
ByLayer
370
13
48
1
60
0
100
AcDbSpline
70
4
71
3
72
8
73
4
40
0
40
0
40
0
40
0
40
1
40
1
40
1
40
1
41
1
10
136.816439244109
20
7.83224383218661
30
0
41
1
10
138.044292829406
20
5.22936569944986
30
0
41
1
10
139.272146414703
20
2.61860002548744
30
0
41
1
10
140.5
20
0
30
0
0
SPLINE
5
12A
100
AcDbEntity
8
1
62
256
6
ByLayer
370
13
48
1
60
0
100
AcDbSpline
70
4
71
3
72
8
73
4
40
0
40
0
40
0
40
0
40
1
40
1
40
1
40
1
41
1
10
136.816439244109
20
5.09406262563354
30
0
41
1
10
138.044292829406
20
3.40677933151522
30
0
41
1
10
139.272146414703
20
1.7087469121349
30
0
41
1
10
140.5
20
8.53E-14
30
0
0
SPLINE
5
12B
100
AcDbEntity
8
1
62
256
6
ByLayer
370
13
48
1
60
0
100
AcDbSpline
70
4
71
3
72
8
73
4
40
0
40
0
40
0
40
0
40
1
40
1
40
1
40
1
41
1
10
136.816439244109
20
-9.19977741568954
30
0
41
1
10
138.044292829406
20
-6.12800628068098
30
0
41
1
10
139.272146414703
20
-3.06139301580552
30
0
41
1
10
140.5
20
-1.421E-13
30
0
0
SPLINE
5
12C
100
AcDbEntity
8
1
62
256
6
ByLayer
370
13
48
1
60
0
100
AcDbSpline
70
4
71
3
72
8
73
4
40
0
40
0
40
0
40
0
40
1
40
1
40
1
40
1
41
1
10
136.816439244109
20
-5.46647418180939
30
0
41
1
10
138.044292829406
20
-3.65477395860006
30
0
41
1
10
139.272146414703
20
-1.83260351227608
30
0
41
1
10
140.5
20
2.558E-13
30
0
0
SPLINE
5
12D
100
AcDbEntity
8
1
62
256
6
ByLayer
370
13
48
1
60
0
100
AcDbSpline
70
4
71
3
72
8
73
4
40
0
40
0
40
0
40
0
40
1
40
1
40
1
40
1
41
1
10
136.816439244109
20
-9.93546135971891
30
0
41
1
10
138.044292829406
20
-6.6212755340029
30
0
41
1
10
139.272146414703
20
-3.30943261772151
30
0
41
1
10
140.5
20
-1.421E-13
30
0
0
SPLINE
5
12E
100
AcDbEntity
8
1
62
256
6
ByLayer
370
13
48
1
60
0
100
AcDbSpline
70
4
71
3
72
8
73
4
40
0
40
0
40
0
40
0
40
1
40
1
40
1
40
1
41
1
10
136.816439244109
20
-9.98138660927825
30
0
41
1
10
138.044292829406
20
-6.65631102558589
30
0
41
1
10
139.272146414703
20
-3.32915957893508
30
0
41
1
10
140.5
20
4.832E-13
30
0
0
SPLINE
5
12F
100
AcDbEntity
8
1
62
256
6
ByLayer
370
13
48
1
60
0
100
AcDbSpline
70
4
71
3
72
8
73
4
40
0
40
0
40
0
40
0
40
1
40
1
40
1
40
1
41
1
10
136.816439244109
20
7.66613027161824
30
0
41
1
10
138.044292829406
20
5.10264085181163
30
0
41
1
10
139.272146414703
20
2.54724677650341
30
0
41
1
10
140.5
20
-3.695E-13
30
0
0
SPLINE
5
130
100
AcDbEntity
8
1
62
256
6
ByLayer
370
13
48
1
60
0
100
AcDbSpline
70
4
71
3
72
8
73
4
40
0
40
0
40
0
40
0
40
1
40
1
40
1
40
1
41
1
10
136.816439244109
20
6.82623377757685
30
0
41
1
10
138.044292829406
20
4.54164830298043
30
0
41
1
10
139.272146414703
20
2.26622162745721
30
0
41
1
10
140.5
20
-3.126E-13
30
0
0
LINE
5
7D
100
AcDbEntity
8
80
62
256
6
ByLayer
370
18
48
1
60
0
100
AcDbLine
10
0
20
0
30
0
11
-5
21
0
31
0
39
0
210
0
220
0
230
1
0
LINE
5
7E
100
AcDbEntity
8
4
62
256
6
ByLayer
370
18
48
0.05
60
0
100
AcDbLine
10
-5
20
0
30
0
11
145.5
21
0
31
0
39
0
210
0
220
0
230
1
0
LINE
5
80
100
AcDbEntity
8
81
62
256
6
ByLayer
370
18
48
1
60
0
100
AcDbLine
10
140.5
20
0
30
0
11
145.5
21
0
31
0
39
0
210
0
220
0
230
1
0
LINE
5
81
100
AcDbEntity
8
SK4
62
256
6
ByLayer
370
18
48
0.05
60
0
100
AcDbLine
10
-61
20
0
30
0
11
145.5
21
0
31
0
39
0
210
0
220
0
230
1
0
LINE
5
83
100
AcDbEntity
8
1
62
256
6
ByLayer
370
18
48
1
60
0
100
AcDbLine
10
42.865503
20
-9.7
30
0
11
88.727021
21
-9.7
31
0
39
0
210
0
220
0
230
1
0
LINE
5
84
100
AcDbEntity
8
1
62
256
6
ByLayer
370
18
48
1
60
0
100
AcDbLine
10
88.727021
20
9.7
30
0
11
42.865503
21
9.7
31
0
39
0
210
0
220
0
230
1
0
LINE
5
85
100
AcDbEntity
8
1
62
256
6
ByLayer
370
18
48
1
60
0
100
AcDbLine
10
140.5
20
0
30
0
11
136.816439
21
10.1205
31
0
39
0
210
0
220
0
230
1
0
LINE
5
86
100
AcDbEntity
8
1
62
256
6
ByLayer
370
18
48
1
60
0
100
AcDbLine
10
136.816439
20
-10.1205
30
0
11
140.5
21
0
31
0
39
0
210
0
220
0
230
1
0
LINE
5
87
100
AcDbEntity
8
1
62
256
6
ByLayer
370
18
48
1
60
0
100
AcDbLine
10
5.555401
20
11.03338
30
0
11
0
21
12.7
31
0
39
0
210
0
220
0
230
1
0
LINE
5
88
100
AcDbEntity
8
1
62
256
6
ByLayer
370
18
48
1
60
0
100
AcDbLine
10
0
20
-12.7
30
0
11
5.555401
21
-11.03338
31
0
39
0
210
0
220
0
230
1
0
LINE
5
89
100
AcDbEntity
8
1
62
256
6
ByLayer
370
18
48
1
60
0
100
AcDbLine
10
140.5
20
0
30
0
11
136.816439
21
10.1205
31
0
39
0
210
0
220
0
230
1
0
LINE
5
8A
100
AcDbEntity
8
1
62
256
6
ByLayer
370
18
48
1
60
0
100
AcDbLine
10
136.816439
20
-10.1205
30
0
11
140.5
21
0
31
0
39
0
210
0
220
0
230
1
0
LINE
5
8B
100
AcDbEntity
8
1
62
256
6
ByLayer
370
18
48
1
60
0
100
AcDbLine
10
126.4
20
-10.1205
30
0
11
136.816439
21
-10.1205
31
0
39
0
210
0
220
0
230
1
0
LINE
5
8C
100
AcDbEntity
8
SK1
62
256
6
ByLayer
370
18
48
1
60
0
100
AcDbLine
10
-56
20
-11.7
30
0
11
-55
21
-12.7
31
0
39
0
210
0
220
0
230
1
0
LINE
5
8E
100
AcDbEntity
8
SK1
62
256
6
ByLayer
370
18
48
1
60
0
100
AcDbLine
10
-55
20
12.7
30
0
11
-56
21
11.7
31
0
39
0
210
0
220
0
230
1
0
LINE
5
8F
100
AcDbEntity
8
SK1
62
256
6
ByLayer
370
18
48
1
60
0
100
AcDbLine
10
-55
20
-12.7
30
0
11
0
21
-12.7
31
0
39
0
210
0
220
0
230
1
0
LINE
5
90
100
AcDbEntity
8
SK1
62
256
6
ByLayer
370
18
48
1
60
0
100
AcDbLine
10
0
20
12.7
30
0
11
-55
21
12.7
31
0
39
0
210
0
220
0
230
1
0
LINE
5
91
100
AcDbEntity
8
1
62
256
6
ByLayer
370
18
48
1
60
0
100
AcDbLine
10
0
20
12.7
30
0
11
0
21
-12.7
31
0
39
0
210
0
220
0
230
1
0
LINE
5
92
100
AcDbEntity
8
1
62
256
6
ByLayer
370
18
48
1
60
0
100
AcDbLine
10
136.816439
20
10.1205
30
0
11
136.816439
21
9.799136
31
0
39
0
210
0
220
0
230
1
0
LINE
5
93
100
AcDbEntity
8
1
62
256
6
ByLayer
370
18
48
1
60
0
100
AcDbLine
10
136.816439
20
-10.1205
30
0
11
136.816439
21
-1.445988
31
0
39
0
210
0
220
0
230
1
0
LINE
5
94
100
AcDbEntity
8
1
62
256
6
ByLayer
370
18
48
1
60
0
100
AcDbLine
10
10
20
-5.478949
30
0
11
10
21
9.32865
31
0
39
0
210
0
220
0
230
1
0
LINE
5
95
100
AcDbEntity
8
SK1
62
256
6
ByLayer
370
18
48
1
60
0
100
AcDbLine
10
-9.573685
20
-7.42967
30
0
11
-9.573685
21
7.42967
31
0
39
0
210
0
220
0
230
1
0
LINE
5
96
100
AcDbEntity
8
SK1
62
256
6
ByLayer
370
18
48
1
60
0
100
AcDbLine
10
-56
20
-11.7
30
0
11
-56
21
11.7
31
0
39
0
210
0
220
0
230
1
0
LINE
5
97
100
AcDbEntity
8
SK1
62
256
6
ByLayer
370
18
48
1
60
0
100
AcDbLine
10
0
20
12.7
30
0
11
0
21
-12.7
31
0
39
0
210
0
220
0
230
1
0
LINE
5
98
100
AcDbEntity
8
SK1
62
256
6
ByLayer
370
18
48
1
60
0
100
AcDbLine
10
-55
20
-12.7
30
0
11
-55
21
12.7
31
0
39
0
210
0
220
0
230
1
0
LINE
5
99
100
AcDbEntity
8
SK1
62
256
6
ByLayer
370
18
48
1
60
0
100
AcDbLine
10
-9.573685
20
-7.42967
30
0
11
-46.761964
21
-7.42967
31
0
39
0
210
0
220
0
230
1
0
LINE
5
9A
100
AcDbEntity
8
SK1
62
256
6
ByLayer
370
18
48
1
60
0
100
AcDbLine
10
-46.761964
20
7.42967
30
0
11
-9.573685
21
7.42967
31
0
39
0
210
0
220
0
230
1
0
LINE
5
9B
100
AcDbEntity
8
SK1
62
256
6
ByLayer
370
18
48
1
60
0
100
AcDbLine
10
-46.761964
20
-7.42967
30
0
11
-46.761964
21
7.42967
31
0
39
0
210
0
220
0
230
1
0
LINE
5
9C
100
AcDbEntity
8
1
62
256
6
ByLayer
370
18
48
1
60
0
100
AcDbLine
10
136.816439
20
10.1205
30
0
11
136.816439
21
-10.1205
31
0
39
0
210
0
220
0
230
1
0
LINE
5
9D
100
AcDbEntity
8
1
62
256
6
ByLayer
370
18
48
1
60
0
100
AcDbLine
10
136.816439
20
10.1205
30
0
11
136.816439
21
-10.1205
31
0
39
0
210
0
220
0
230
1
0
LINE
5
9E
100
AcDbEntity
8
1
62
256
6
ByLayer
370
18
48
1
60
0
100
AcDbLine
10
136.816439
20
10.1205
30
0
11
136.816439
21
-10.1205
31
0
39
0
210
0
220
0
230
1
0
LINE
5
9F
100
AcDbEntity
8
1
62
256
6
ByLayer
370
18
48
1
60
0
100
AcDbLine
10
126.4
20
10.1205
30
0
11
126.4
21
-10.1205
31
0
39
0
210
0
220
0
230
1
0
LINE
5
A0
100
AcDbEntity
8
1
62
256
6
ByLayer
370
18
48
1
60
0
100
AcDbLine
10
126.4
20
10.1205
30
0
11
126.4
21
-10.1205
31
0
39
0
210
0
220
0
230
1
0
LINE
5
A1
100
AcDbEntity
8
1
62
256
6
ByLayer
370
18
48
1
60
0
100
AcDbLine
10
136.816439
20
10.1205
30
0
11
136.816439
21
-10.1205
31
0
39
0
210
0
220
0
230
1
0
LINE
5
A2
100
AcDbEntity
8
1
62
256
6
ByLayer
370
18
48
1
60
0
100
AcDbLine
10
126.4
20
10.1205
30
0
11
126.4
21
-10.1205
31
0
39
0
210
0
220
0
230
1
0
LINE
5
A3
100
AcDbEntity
8
1
62
256
6
ByLayer
370
18
48
1
60
0
100
AcDbLine
10
136.816439
20
10.1205
30
0
11
136.816439
21
-10.1205
31
0
39
0
210
0
220
0
230
1
0
LINE
5
A4
100
AcDbEntity
8
SK2
62
256
6
ByLayer
370
13
48
1
60
0
100
AcDbLine
10
-62.5
20
-12.7
30
0
11
-62.5
21
42.040455
31
0
39
0
210
0
220
0
230
1
0
LINE
5
A6
100
AcDbEntity
8
SK2
62
256
6
ByLayer
370
13
48
1
60
0
100
AcDbLine
10
-57.5875
20
12.7
30
0
11
-64.5
21
12.7
31
0
39
0
210
0
220
0
230
1
0
LINE
5
A7
100
AcDbEntity
8
SK2
62
256
6
ByLayer
370
13
48
1
60
0
100
AcDbLine
10
-57.5875
20
-12.7
30
0
11
-64.5
21
-12.7
31
0
39
0
210
0
220
0
230
1
0
LINE
5
A8
100
AcDbEntity
8
1
62
256
6
ByLayer
370
18
48
1
60
1
100
AcDbLine
10
-62.5
20
12.7
30
0
11
-62.039216
21
9.200002
31
0
39
0
210
0
220
0
230
1
0
LINE
5
A9
100
AcDbEntity
8
1
62
256
6
ByLayer
370
18
48
1
60
1
100
AcDbLine
10
-62.039216
20
9.200002
30
0
11
-62.960784
21
9.199998
31
0
39
0
210
0
220
0
230
1
0
LINE
5
AA
100
AcDbEntity
8
1
62
256
6
ByLayer
370
18
48
1
60
1
100
AcDbLine
10
-62.960784
20
9.199998
30
0
11
-62.5
21
12.7
31
0
39
0
210
0
220
0
230
1
0
LINE
5
AB
100
AcDbEntity
8
1
62
256
6
ByLayer
370
18
48
1
60
1
100
AcDbLine
10
-62.5
20
-12.7
30
0
11
-62.960784
21
-9.200002
31
0
39
0
210
0
220
0
230
1
0
LINE
5
AC
100
AcDbEntity
8
1
62
256
6
ByLayer
370
18
48
1
60
1
100
AcDbLine
10
-62.960784
20
-9.200002
30
0
11
-62.039216
21
-9.199998
31
0
39
0
210
0
220
0
230
1
0
LINE
5
AD
100
AcDbEntity
8
1
62
256
6
ByLayer
370
18
48
1
60
1
100
AcDbLine
10
-62.039216
20
-9.199998
30
0
11
-62.5
21
-12.7
31
0
39
0
210
0
220
0
230
1
0
LINE
5
AE
100
AcDbEntity
8
2
62
256
6
ByLayer
370
13
48
1
60
0
100
AcDbLine
10
148
20
-10.1205
30
0
11
148
21
38.711069
31
0
39
0
210
0
220
0
230
1
0
LINE
5
B0
100
AcDbEntity
8
2
62
256
6
ByLayer
370
13
48
1
60
0
100
AcDbLine
10
138.403939
20
10.1205
30
0
11
150
21
10.1205
31
0
39
0
210
0
220
0
230
1
0
LINE
5
B1
100
AcDbEntity
8
2
62
256
6
ByLayer
370
13
48
1
60
0
100
AcDbLine
10
138.403939
20
-10.1205
30
0
11
150
21
-10.1205
31
0
39
0
210
0
220
0
230
1
0
LINE
5
B2
100
AcDbEntity
8
1
62
256
6
ByLayer
370
18
48
1
60
1
100
AcDbLine
10
148
20
10.1205
30
0
11
148.460784
21
6.620502
31
0
39
0
210
0
220
0
230
1
0
LINE
5
B3
100
AcDbEntity
8
1
62
256
6
ByLayer
370
18
48
1
60
1
100
AcDbLine
10
148.460784
20
6.620502
30
0
11
147.539216
21
6.620498
31
0
39
0
210
0
220
0
230
1
0
LINE
5
B4
100
AcDbEntity
8
1
62
256
6
ByLayer
370
18
48
1
60
1
100
AcDbLine
10
147.539216
20
6.620498
30
0
11
148
21
10.1205
31
0
39
0
210
0
220
0
230
1
0
LINE
5
B5
100
AcDbEntity
8
1
62
256
6
ByLayer
370
18
48
1
60
1
100
AcDbLine
10
148
20
-10.1205
30
0
11
147.539216
21
-6.620502
31
0
39
0
210
0
220
0
230
1
0
LINE
5
B6
100
AcDbEntity
8
1
62
256
6
ByLayer
370
18
48
1
60
1
100
AcDbLine
10
147.539216
20
-6.620502
30
0
11
148.460784
21
-6.620498
31
0
39
0
210
0
220
0
230
1
0
LINE
5
B7
100
AcDbEntity
8
1
62
256
6
ByLayer
370
18
48
1
60
1
100
AcDbLine
10
148.460784
20
-6.620498
30
0
11
148
21
-10.1205
31
0
39
0
210
0
220
0
230
1
0
LINE
5
B8
100
AcDbEntity
8
SK2
62
256
6
ByLayer
370
13
48
1
60
0
100
AcDbLine
10
141.042957
20
-1.491762
30
0
11
147.682423
21
-19.733545
31
0
39
0
210
0
220
0
230
1
0
LINE
5
B9
100
AcDbEntity
8
SK2
62
256
6
ByLayer
370
13
48
1
60
0
100
AcDbLine
10
141.042957
20
1.491762
30
0
11
147.682423
21
19.733545
31
0
39
0
210
0
220
0
230
1
0
LINE
5
BA
100
AcDbEntity
8
1
62
256
6
ByLayer
370
18
48
1
60
1
100
AcDbLine
10
146.998383
20
-17.85416
30
0
11
150.051575
21
-16.082064
31
0
39
0
210
0
220
0
230
1
0
LINE
5
BB
100
AcDbEntity
8
1
62
256
6
ByLayer
370
18
48
1
60
1
100
AcDbLine
10
150.051575
20
-16.082064
30
0
11
150.406196
21
-16.93267
31
0
39
0
210
0
220
0
230
1
0
LINE
5
BC
100
AcDbEntity
8
1
62
256
6
ByLayer
370
18
48
1
60
1
100
AcDbLine
10
150.406196
20
-16.93267
30
0
11
146.998383
21
-17.85416
31
0
39
0
210
0
220
0
230
1
0
LINE
5
BD
100
AcDbEntity
8
1
62
256
6
ByLayer
370
18
48
1
60
1
100
AcDbLine
10
146.998383
20
17.85416
30
0
11
150.406193
21
16.932671
31
0
39
0
210
0
220
0
230
1
0
LINE
5
BE
100
AcDbEntity
8
1
62
256
6
ByLayer
370
18
48
1
60
1
100
AcDbLine
10
150.406193
20
16.932671
30
0
11
150.051579
21
16.082063
31
0
39
0
210
0
220
0
230
1
0
LINE
5
BF
100
AcDbEntity
8
1
62
256
6
ByLayer
370
18
48
1
60
1
100
AcDbLine
10
150.051579
20
16.082063
30
0
11
146.998383
21
17.85416
31
0
39
0
210
0
220
0
230
1
0
LINE
5
135
100
AcDbEntity
8
1
62
256
6
ByLayer
370
18
48
1
60
1
100
AcDbLine
10
-62.5
20
12.7
30
0
11
-62.039216
21
9.200002
31
0
39
0
210
0
220
0
230
1
0
LINE
5
136
100
AcDbEntity
8
1
62
256
6
ByLayer
370
18
48
1
60
1
100
AcDbLine
10
-62.039216
20
9.200002
30
0
11
-62.960784
21
9.199998
31
0
39
0
210
0
220
0
230
1
0
LINE
5
137
100
AcDbEntity
8
1
62
256
6
ByLayer
370
18
48
1
60
1
100
AcDbLine
10
-62.960784
20
9.199998
30
0
11
-62.5
21
12.7
31
0
39
0
210
0
220
0
230
1
0
LINE
5
139
100
AcDbEntity
8
1
62
256
6
ByLayer
370
18
48
1
60
1
100
AcDbLine
10
-62.5
20
-12.7
30
0
11
-62.960784
21
-9.200002
31
0
39
0
210
0
220
0
230
1
0
LINE
5
13A
100
AcDbEntity
8
1
62
256
6
ByLayer
370
18
48
1
60
1
100
AcDbLine
10
-62.960784
20
-9.200002
30
0
11
-62.039216
21
-9.199998
31
0
39
0
210
0
220
0
230
1
0
LINE
5
13B
100
AcDbEntity
8
1
62
256
6
ByLayer
370
18
48
1
60
1
100
AcDbLine
10
-62.039216
20
-9.199998
30
0
11
-62.5
21
-12.7
31
0
39
0
210
0
220
0
230
1
0
LINE
5
13F
100
AcDbEntity
8
1
62
256
6
ByLayer
370
18
48
1
60
1
100
AcDbLine
10
148
20
10.1205
30
0
11
148.460784
21
6.620502
31
0
39
0
210
0
220
0
230
1
0
LINE
5
140
100
AcDbEntity
8
1
62
256
6
ByLayer
370
18
48
1
60
1
100
AcDbLine
10
148.460784
20
6.620502
30
0
11
147.539216
21
6.620498
31
0
39
0
210
0
220
0
230
1
0
LINE
5
141
100
AcDbEntity
8
1
62
256
6
ByLayer
370
18
48
1
60
1
100
AcDbLine
10
147.539216
20
6.620498
30
0
11
148
21
10.1205
31
0
39
0
210
0
220
0
230
1
0
LINE
5
143
100
AcDbEntity
8
1
62
256
6
ByLayer
370
18
48
1
60
1
100
AcDbLine
10
148
20
-10.1205
30
0
11
147.539216
21
-6.620502
31
0
39
0
210
0
220
0
230
1
0
LINE
5
144
100
AcDbEntity
8
1
62
256
6
ByLayer
370
18
48
1
60
1
100
AcDbLine
10
147.539216
20
-6.620502
30
0
11
148.460784
21
-6.620498
31
0
39
0
210
0
220
0
230
1
0
LINE
5
145
100
AcDbEntity
8
1
62
256
6
ByLayer
370
18
48
1
60
1
100
AcDbLine
10
148.460784
20
-6.620498
30
0
11
148
21
-10.1205
31
0
39
0
210
0
220
0
230
1
0
LINE
5
148
100
AcDbEntity
8
1
62
256
6
ByLayer
370
18
48
1
60
1
100
AcDbLine
10
146.998383
20
-17.85416
30
0
11
150.051575
21
-16.082064
31
0
39
0
210
0
220
0
230
1
0
LINE
5
149
100
AcDbEntity
8
1
62
256
6
ByLayer
370
18
48
1
60
1
100
AcDbLine
10
150.051575
20
-16.082064
30
0
11
150.406196
21
-16.93267
31
0
39
0
210
0
220
0
230
1
0
LINE
5
14A
100
AcDbEntity
8
1
62
256
6
ByLayer
370
18
48
1
60
1
100
AcDbLine
10
150.406196
20
-16.93267
30
0
11
146.998383
21
-17.85416
31
0
39
0
210
0
220
0
230
1
0
LINE
5
14C
100
AcDbEntity
8
1
62
256
6
ByLayer
370
18
48
1
60
1
100
AcDbLine
10
146.998383
20
17.85416
30
0
11
150.406193
21
16.932671
31
0
39
0
210
0
220
0
230
1
0
LINE
5
14D
100
AcDbEntity
8
1
62
256
6
ByLayer
370
18
48
1
60
1
100
AcDbLine
10
150.406193
20
16.932671
30
0
11
150.051579
21
16.082063
31
0
39
0
210
0
220
0
230
1
0
LINE
5
14E
100
AcDbEntity
8
1
62
256
6
ByLayer
370
18
48
1
60
1
100
AcDbLine
10
150.051579
20
16.082063
30
0
11
146.998383
21
17.85416
31
0
39
0
210
0
220
0
230
1
0
MTEXT
5
131
100
AcDbEntity
8
SK2
62
256
6
ByLayer
370
18
48
1
60
0
100
AcDbMText
10
-63.841114
20
24.358437
30
0
210
0
220
0
230
1
1
%%c
40
3
41
0
44
1.084337
50
90
71
7
72
5
7
iso_b_vert
0
MTEXT
5
134
100
AcDbEntity
8
SK2
62
256
6
ByLayer
370
18
48
1
60
0
100
AcDbMText
10
-63.841114
20
30.335
30
0
210
0
220
0
230
1
1
\W0.7728;25.400
40
3
41
0
44
1.084337
50
90
71
7
72
5
7
iso_b_vert
0
MTEXT
5
13D
100
AcDbEntity
8
2
62
256
6
ByLayer
370
18
48
1
60
0
100
AcDbMText
10
146.658886
20
21.778937
30
0
210
0
220
0
230
1
1
%%c
40
3
41
0
44
1.084337
50
90
71
7
72
5
7
iso_b_vert
0
MTEXT
5
13E
100
AcDbEntity
8
2
62
256
6
ByLayer
370
18
48
1
60
0
100
AcDbMText
10
146.658886
20
27.7555
30
0
210
0
220
0
230
1
1
\W0.7667;20.241
40
3
41
0
44
1.084337
50
90
71
7
72
5
7
iso_b_vert
0
MTEXT
5
147
100
AcDbEntity
8
SK2
62
256
6
ByLayer
370
18
48
1
60
0
100
AcDbMText
10
160.409114
20
3.734657
30
0
210
0
220
0
230
1
1
\W0.7071;140%%d
40
3
41
0
44
1.084337
50
270
71
7
72
5
7
iso_b_vert
0
MTEXT
5
150
100
AcDbEntity
8
SK6
62
256
6
ByLayer
370
18
48
1
60
0
100
AcDbMText
10
14.457489
20
-67.114886
30
0
210
0
220
0
230
1
1
\W0.7662;H85551/64
40
3
41
0
44
1.084337
50
0
71
7
72
5
7
iso_b_vert
0
HATCH
5
138
100
AcDbEntity
8
SK2
62
256
6
ByLayer
370
13
48
1
60
0
100
AcDbHatch
10
0
20
0
30
0
210
0
220
0
230
1
2
ANSI31
70
0
71
0
91
1
92
5
93
3
72
1
10
-62.5
20
12.7
11
-62.0392162584472
21
9.20000169255317
72
1
10
-62.0392162584472
20
9.20000169255317
11
-62.9607837415528
21
9.1999983074468
72
1
10
-62.9607837415528
20
9.1999983074468
11
-62.5
21
12.7
97
0
75
0
76
1
52
0
41
0.0062
77
0
78
1
53
45
43
0
44
0
45
-0.0139193969876572
46
0.0139193969876572
79
0
47
0
98
1
10
0
20
0
0
HATCH
5
13C
100
AcDbEntity
8
SK2
62
256
6
ByLayer
370
13
48
1
60
0
100
AcDbHatch
10
0
20
0
30
0
210
0
220
0
230
1
2
ANSI31
70
0
71
0
91
1
92
5
93
3
72
1
10
-62.5
20
-12.7
11
-62.9607837415528
21
-9.2000016925532
72
1
10
-62.9607837415528
20
-9.2000016925532
11
-62.0392162584472
21
-9.19999830744683
72
1
10
-62.0392162584472
20
-9.19999830744683
11
-62.5
21
-12.7
97
0
75
0
76
1
52
0
41
0.0062
77
0
78
1
53
45
43
0
44
0
45
-0.0139193969876572
46
0.0139193969876572
79
0
47
0
98
1
10
0
20
0
0
HATCH
5
142
100
AcDbEntity
8
2
62
256
6
ByLayer
370
13
48
1
60
0
100
AcDbHatch
10
0
20
0
30
0
210
0
220
0
230
1
2
ANSI31
70
0
71
0
91
1
92
5
93
3
72
1
10
148
20
10.1205
11
148.460783741553
21
6.62050169255318
72
1
10
148.460783741553
20
6.62050169255318
11
147.539216258447
21
6.62049830744681
72
1
10
147.539216258447
20
6.62049830744681
11
148
21
10.1205
97
0
75
0
76
1
52
0
41
0.0062
77
0
78
1
53
45
43
0
44
0
45
-0.0139193969876572
46
0.0139193969876572
79
0
47
0
98
1
10
0
20
0
0
HATCH
5
146
100
AcDbEntity
8
2
62
256
6
ByLayer
370
13
48
1
60
0
100
AcDbHatch
10
0
20
0
30
0
210
0
220
0
230
1
2
ANSI31
70
0
71
0
91
1
92
5
93
3
72
1
10
148
20
-10.1205
11
147.539216258447
21
-6.62050169255318
72
1
10
147.539216258447
20
-6.62050169255318
11
148.460783741553
21
-6.62049830744681
72
1
10
148.460783741553
20
-6.62049830744681
11
148
21
-10.1205
97
0
75
0
76
1
52
0
41
0.0062
77
0
78
1
53
45
43
0
44
0
45
-0.0139193969876572
46
0.0139193969876572
79
0
47
0
98
1
10
0
20
0
0
HATCH
5
14B
100
AcDbEntity
8
SK2
62
256
6
ByLayer
370
13
48
1
60
0
100
AcDbHatch
10
0
20
0
30
0
210
0
220
0
230
1
2
ANSI31
70
0
71
0
91
1
92
5
93
3
72
1
10
146.998382723188
20
-17.8541597949323
11
150.051575425693
21
-16.0820638240607
72
1
10
150.051575425693
20
-16.0820638240607
11
150.406195833975
21
-16.9326700737196
72
1
10
150.406195833975
20
-16.9326700737196
11
146.998382723188
21
-17.8541597949323
97
0
75
0
76
1
52
0
41
0.0062
77
0
78
1
53
45
43
0
44
0
45
-0.0139193969876572
46
0.0139193969876572
79
0
47
0
98
1
10
0
20
0
0
HATCH
5
14F
100
AcDbEntity
8
SK2
62
256
6
ByLayer
370
13
48
1
60
0
100
AcDbHatch
10
0
20
0
30
0
210
0
220
0
230
1
2
ANSI31
70
0
71
0
91
1
92
5
93
3
72
1
10
146.998382723188
20
17.8541597949323
11
150.406192709519
21
16.9326713763016
72
1
10
150.406192709519
20
16.9326713763016
11
150.051578550149
21
16.0820625214787
72
1
10
150.051578550149
20
16.0820625214787
11
146.998382723188
21
17.8541597949323
97
0
75
0
76
1
52
0
41
0.0062
77
0
78
1
53
45
43
0
44
0
45
-0.0139193969876572
46
0.0139193969876572
79
0
47
0
98
1
10
0
20
0
0
DIMENSION
5
153
100
AcDbEntity
8
SK2
62
256
6
ByLayer
370
18
48
1
60
0
100
AcDbDimension
2
_U0
10
140.5
20
-45.952229
30
0
11
42.25
21
-45.952229
31
0
70
32
71
1
72
1
41
1
210
0
220
0
230
1
3
Standard
100
AcDbAlignedDimension
13
-56
23
-12.7
33
0
14
140.5
24
0
34
0
50
0
100
AcDbRotatedDimension
1001
ACAD
1000
DSTYLE
1002
{
1070
   371
1070
    13
1070
   372
1070
    13
1070
     3
1000

1070
   170
1070
     0
1070
   144
1040
1.0
1070
   277
1070
     2
1070
   284
1070
     8
1070
   278
1070
    46
1070
   146
1040
1.166667
1070
   345
1005
16
1070
   347
1005
16
1070
   346
1005
16
1070
   344
1005
0
1070
   343
1005
0
1070
   172
1070
     1
1070
    76
1070
     0
1070
    75
1070
     0
1070
   282
1070
     0
1070
   281
1070
     0
1070
    71
1070
     0
1070
    74
1070
     0
1070
   279
1070
     0
1070
   173
1070
     1
1070
   340
1005
132
1070
   271
1070
     2
1070
   272
1070
     3
1070
    77
1070
     1
1070
    73
1070
     1
1070
   171
1070
     3
1070
   274
1070
     4
1070
   177
1070
     2
1070
   176
1070
     2
1070
   178
1070
     2
1070
    78
1070
     8
1070
    48
1040
-0.1
1070
    41
1040
3.5
1070
   147
1040
1.5
1070
    42
1040
1.5875
1070
    44
1040
2.0
1070
   140
1040
3.0
1002
}
1001
ACAD_DSTYLE_DIM_LINETYPE
1070
   380
1005
16
1001
ACAD_DSTYLE_DIM_EXT1_LINETYPE
1070
   381
1005
16
1001
ACAD_DSTYLE_DIM_EXT2_LINETYPE
1070
   382
1005
16
0
DIMENSION
5
16C
100
AcDbEntity
8
SK2
62
256
6
ByLayer
370
18
48
1
60
0
100
AcDbDimension
2
_U1
10
3
20
-35.952229
30
0
11
71.75
21
-35.952229
31
0
70
32
71
1
72
1
41
1
210
0
220
0
230
1
3
Standard
100
AcDbAlignedDimension
13
140.5
23
0
33
0
14
3
24
-10.1205
34
0
50
0
100
AcDbRotatedDimension
1001
ACAD
1000
DSTYLE
1002
{
1070
   371
1070
    13
1070
   372
1070
    13
1070
     3
1000

1070
   170
1070
     0
1070
   144
1040
1.0
1070
   277
1070
     2
1070
   284
1070
     8
1070
   278
1070
    46
1070
   146
1040
1.166667
1070
   345
1005
16
1070
   347
1005
16
1070
   346
1005
16
1070
   344
1005
0
1070
   343
1005
0
1070
   172
1070
     1
1070
    76
1070
     0
1070
    75
1070
     0
1070
   282
1070
     0
1070
   281
1070
     0
1070
    71
1070
     0
1070
    74
1070
     0
1070
   279
1070
     0
1070
   173
1070
     1
1070
   340
1005
132
1070
   271
1070
     2
1070
   272
1070
     3
1070
    77
1070
     1
1070
    73
1070
     1
1070
   171
1070
     3
1070
   274
1070
     4
1070
   177
1070
     2
1070
   176
1070
     2
1070
   178
1070
     2
1070
    78
1070
     8
1070
    48
1040
-0.1
1070
    41
1040
3.5
1070
   147
1040
1.5
1070
    42
1040
1.5875
1070
    44
1040
2.0
1070
   140
1040
3.0
1002
}
1001
ACAD_DSTYLE_DIM_LINETYPE
1070
   380
1005
16
1001
ACAD_DSTYLE_DIM_EXT1_LINETYPE
1070
   381
1005
16
1001
ACAD_DSTYLE_DIM_EXT2_LINETYPE
1070
   382
1005
16
0
DIMENSION
5
184
100
AcDbEntity
8
SK2
62
256
6
ByLayer
370
18
48
1
60
0
100
AcDbDimension
2
_U2
10
0
20
-35.952229
30
0
11
-28
21
-35.952229
31
0
70
32
71
1
72
1
41
1
210
0
220
0
230
1
3
Standard
100
AcDbAlignedDimension
13
-56
23
-12.7
33
0
14
0
24
-12.7
34
0
50
0
100
AcDbRotatedDimension
1001
ACAD
1000
DSTYLE
1002
{
1070
   371
1070
    13
1070
   372
1070
    13
1070
     3
1000

1070
   170
1070
     0
1070
   144
1040
1.0
1070
   277
1070
     2
1070
   284
1070
     8
1070
   278
1070
    46
1070
   146
1040
1.166667
1070
   345
1005
16
1070
   347
1005
16
1070
   346
1005
16
1070
   344
1005
0
1070
   343
1005
0
1070
   172
1070
     1
1070
    76
1070
     0
1070
    75
1070
     0
1070
   282
1070
     0
1070
   281
1070
     0
1070
    71
1070
     0
1070
    74
1070
     0
1070
   279
1070
     0
1070
   173
1070
     1
1070
   340
1005
132
1070
   271
1070
     2
1070
   272
1070
     3
1070
    77
1070
     1
1070
    73
1070
     1
1070
   171
1070
     3
1070
   274
1070
     4
1070
   177
1070
     2
1070
   176
1070
     2
1070
   178
1070
     2
1070
    78
1070
     8
1070
    48
1040
-0.1
1070
    41
1040
3.5
1070
   147
1040
1.5
1070
    42
1040
1.5875
1070
    44
1040
2.0
1070
   140
1040
3.0
1002
}
1001
ACAD_DSTYLE_DIM_LINETYPE
1070
   380
1005
16
1001
ACAD_DSTYLE_DIM_EXT1_LINETYPE
1070
   381
1005
16
1001
ACAD_DSTYLE_DIM_EXT2_LINETYPE
1070
   382
1005
16
0
DIMENSION
5
19C
100
AcDbEntity
8
SK2
62
256
6
ByLayer
370
18
48
1
60
0
100
AcDbDimension
2
_U3
10
26
20
32.952229
30
0
11
83.25
21
32.952229
31
0
70
32
71
1
72
1
41
1
210
0
220
0
230
1
3
Standard
100
AcDbAlignedDimension
13
140.5
23
0
33
0
14
26
24
10.1205
34
0
50
0
100
AcDbRotatedDimension
1001
ACAD
1000
DSTYLE
1002
{
1070
   371
1070
    13
1070
   372
1070
    13
1070
     3
1000

1070
   170
1070
     0
1070
   144
1040
1.0
1070
   277
1070
     2
1070
   284
1070
     8
1070
   278
1070
    46
1070
   146
1040
1.166667
1070
   345
1005
16
1070
   347
1005
16
1070
   346
1005
16
1070
   344
1005
0
1070
   343
1005
0
1070
   172
1070
     1
1070
    76
1070
     0
1070
    75
1070
     0
1070
   282
1070
     0
1070
   281
1070
     0
1070
    71
1070
     0
1070
    74
1070
     0
1070
   279
1070
     0
1070
   173
1070
     1
1070
   340
1005
132
1070
   271
1070
     2
1070
   272
1070
     3
1070
    77
1070
     1
1070
    73
1070
     1
1070
   171
1070
     3
1070
   274
1070
     4
1070
   177
1070
     2
1070
   176
1070
     2
1070
   178
1070
     2
1070
    78
1070
     8
1070
    48
1040
-0.1
1070
    41
1040
3.5
1070
   147
1040
1.5
1070
    42
1040
1.5875
1070
    44
1040
2.0
1070
   140
1040
3.0
1002
}
1001
ACAD_DSTYLE_DIM_LINETYPE
1070
   380
1005
16
1001
ACAD_DSTYLE_DIM_EXT1_LINETYPE
1070
   381
1005
16
1001
ACAD_DSTYLE_DIM_EXT2_LINETYPE
1070
   382
1005
16
0
ENDSEC
0
SECTION
2
OBJECTS
0
DICTIONARY
5
224
330
0
100
AcDbDictionary
280
0
281
1
3
ACAD_GROUP
350
225
3
ACAD_MLINESTYLE
350
226
0
DICTIONARY
5
225
330
0
100
AcDbDictionary
280
0
281
1
0
DICTIONARY
5
226
330
0
100
AcDbDictionary
280
0
281
1
3
Standard
350
18
0
MLINESTYLE
5
18
330
226
100
AcDbMlineStyle
2
Standard
70
0
3

62
256
51
90
52
90
71
2
49
-0.5
62
256
6
ByLayer
49
0.5
62
256
6
ByLayer
0
RASTERVARIABLES
5
212
330

100
AcDbRasterVariables
90
0
70
1
71
1
72
1
0
ENDSEC
0
EOF
