0
SECTION
2
HEADER
9
$ACADVER
1
AC1015
9
$DWGCODEPAGE
3
ANSI_1252
9
$HANDSEED
5
220
9
$ANGBASE
50
0
9
$ANGDIR
70
0
9
$ATTMODE
70
1
9
$AUNITS
70
0
9
$AUPREC
70
0
9
$CECOLOR
62
256
9
$CELTSCALE
40
1
9
$CELTYPE
6
ByLayer
9
$CELWEIGHT
370
18
9
$CLAYER
8
0
9
$CMLJUST
70
0
9
$CMLSCALE
40
1
9
$CMLSTYLE
2
Standard
9
$DIMSTYLE
2
Standard
9
$TEXTSIZE
40
0.2
9
$TEXTSTYLE
7
Standard
9
$LUNITS
70
2
9
$LUPREC
70
4
9
$EXTNAMES
290
1
9
$INSUNITS
70
4
9
$LTSCALE
40
1
9
$LWDISPLAY
290
1
9
$PDMODE
70
0
9
$PDSIZE
40
0
9
$PLINEGEN
70
0
0
ENDSEC
0
SECTION
2
CLASSES
0
CLASS
1
RASTERVARIABLES
2
AcDbRasterVariables
3
ISM
90
0
280
0
281
0
0
ENDSEC
0
SECTION
2
TABLES
0
TABLE
2
VPORT
5
216
100
AcDbSymbolTable
0
VPORT
5
1
100
AcDbSymbolTableRecord
100
AcDbViewportTableRecord
2
*Active
70
0
10
0
20
0
11
1
21
1
12
-1
22
1
13
0
23
0
14
0.5
24
0.5
15
10
25
10
16
0
26
0
36
1
17
0
27
0
37
0
0
ENDTAB
0
TABLE
2
LTYPE
5
217
100
AcDbSymbolTable
0
LTYPE
5
14
100
AcDbSymbolTableRecord
100
AcDbLinetypeTableRecord
70
0
2
ByBlock
3

72
65
73
0
40
0
0
LTYPE
5
15
100
AcDbSymbolTableRecord
100
AcDbLinetypeTableRecord
70
0
2
ByLayer
3

72
65
73
0
40
0
0
LTYPE
5
16
100
AcDbSymbolTableRecord
100
AcDbLinetypeTableRecord
70
0
2
Continuous
3
Solid line
72
65
73
0
40
0
0
LTYPE
5
6E
100
AcDbSymbolTableRecord
100
AcDbLinetypeTableRecord
70
0
2
CENTER
3
____ _ ____ _ ____ _ ____
72
65
73
4
40
47.5
49
22
74
0
49
-8.5
74
0
49
8.5
74
0
49
-8.5
74
0
0
LTYPE
5
6F
100
AcDbSymbolTableRecord
100
AcDbLinetypeTableRecord
70
0
2
DASHED
3
__ __ __ __ __ __ __ __ __
72
65
73
2
40
25.72
49
12.86
74
0
49
-12.86
74
0
0
ENDTAB
0
TABLE
2
LAYER
5
218
100
AcDbSymbolTable
0
LAYER
5
10
100
AcDbSymbolTableRecord
100
AcDbLayerTableRecord
2
0
70
0
62
7
6
Continuous
290
1
370
-3
390
0
0
LAYER
5
71
100
AcDbSymbolTableRecord
100
AcDbLayerTableRecord
2
81
70
0
62
-3
6
Continuous
290
1
370
-3
390
0
0
LAYER
5
73
100
AcDbSymbolTableRecord
100
AcDbLayerTableRecord
2
80
70
0
62
-6
6
Continuous
290
1
370
-3
390
0
0
LAYER
5
75
100
AcDbSymbolTableRecord
100
AcDbLayerTableRecord
2
1
70
0
62
4
6
Continuous
290
1
370
-3
390
0
0
LAYER
5
7F
100
AcDbSymbolTableRecord
100
AcDbLayerTableRecord
2
4
70
0
62
-2
6
CENTER
290
1
370
-3
390
0
0
LAYER
5
AF
100
AcDbSymbolTableRecord
100
AcDbLayerTableRecord
2
2
70
0
62
7
6
Continuous
290
1
370
-3
390
0
0
LAYER
5
145
100
AcDbSymbolTableRecord
100
AcDbLayerTableRecord
2
Defpoints
70
0
62
7
6
Continuous
290
0
370
-3
390
0
0
LAYER
5
202
100
AcDbSymbolTableRecord
100
AcDbLayerTableRecord
2
SK4
70
0
62
2
6
CENTER
290
1
370
-3
390
0
0
LAYER
5
203
100
AcDbSymbolTableRecord
100
AcDbLayerTableRecord
2
SK1
70
0
62
4
6
Continuous
290
1
370
-3
390
0
0
LAYER
5
204
100
AcDbSymbolTableRecord
100
AcDbLayerTableRecord
2
SK2
70
0
62
7
6
Continuous
290
1
370
-3
390
0
0
LAYER
5
205
100
AcDbSymbolTableRecord
100
AcDbLayerTableRecord
2
SK6
70
0
62
5
6
Continuous
290
1
370
-3
390
0
0
ENDTAB
0
TABLE
2
STYLE
5
219
100
AcDbSymbolTable
0
STYLE
5
11
100
AcDbSymbolTableRecord
100
AcDbTextStyleTableRecord
2
Standard
3
txt
70
0
71
0
40
0
41
1
42
0
50
0
0
STYLE
5
121
100
AcDbSymbolTableRecord
100
AcDbTextStyleTableRecord
2
iso_b_vert
3
simplex.shx
70
0
71
0
40
0
41
1
42
0
50
0
0
STYLE
5
122
100
AcDbSymbolTableRecord
100
AcDbTextStyleTableRecord
2
DWGDirectTextStyle
3
simplex
70
0
71
0
40
0
41
1
42
0
50
0
0
ENDTAB
0
TABLE
2
DIMSTYLE
5
21a
100
AcDbSymbolTable
100
AcDbDimStyleTable
0
DIMSTYLE
105
27
100
AcDbSymbolTableRecord
100
AcDbDimStyleTableRecord
2
Standard
70
0
3
<>
41
0.18
42
0.0625
44
0.18
140
0.18
147
0.09
73
0
74
0
77
1
271
2
275
0
278
52
280
0
340
11
0
ENDTAB
0
TABLE
2
VIEW
5
21b
100
AcDbSymbolTable
0
ENDTAB
0
TABLE
2
UCS
5
21c
100
AcDbSymbolTable
0
ENDTAB
0
TABLE
2
APPID
5
21d
100
AcDbSymbolTable
0
APPID
5
12
100
AcDbSymbolTableRecord
100
AcDbRegAppTableRecord
2
ACAD
70
0
0
APPID
5
141
100
AcDbSymbolTableRecord
100
AcDbRegAppTableRecord
2
ACAD_DSTYLE_DIMBREAK
70
0
0
APPID
5
1C1
100
AcDbSymbolTableRecord
100
AcDbRegAppTableRecord
2
ACAD_DSTYLE_DIM_LINETYPE
70
0
0
APPID
5
1C2
100
AcDbSymbolTableRecord
100
AcDbRegAppTableRecord
2
ACAD_DSTYLE_DIM_EXT1_LINETYPE
70
0
0
APPID
5
1C3
100
AcDbSymbolTableRecord
100
AcDbRegAppTableRecord
2
ACAD_DSTYLE_DIM_EXT2_LINETYPE
70
0
0
APPID
5
1FE
100
AcDbSymbolTableRecord
100
AcDbRegAppTableRecord
2
ACAD_MLEADERVER
70
0
0
ENDTAB
0
TABLE
2
BLOCK_RECORD
5
21e
100
AcDbSymbolTable
0
BLOCK_RECORD
5
1F
100
AcDbSymbolTableRecord
100
AcDbBlockTableRecord
2
*Model_Space
340
0
70
0
0
BLOCK_RECORD
5
1B
100
AcDbSymbolTableRecord
100
AcDbBlockTableRecord
2
*Paper_Space
340
0
70
0
0
BLOCK_RECORD
5
23
100
AcDbSymbolTableRecord
100
AcDbBlockTableRecord
2
*Paper_Space0
340
0
70
0
0
BLOCK_RECORD
5
146
100
AcDbSymbolTableRecord
100
AcDbBlockTableRecord
2
*D1
340
0
70
0
0
BLOCK_RECORD
5
152
100
AcDbSymbolTableRecord
100
AcDbBlockTableRecord
2
_U0
340
0
70
0
0
BLOCK_RECORD
5
15E
100
AcDbSymbolTableRecord
100
AcDbBlockTableRecord
2
*D3
340
0
70
0
0
BLOCK_RECORD
5
16A
100
AcDbSymbolTableRecord
100
AcDbBlockTableRecord
2
_U1
340
0
70
0
0
BLOCK_RECORD
5
176
100
AcDbSymbolTableRecord
100
AcDbBlockTableRecord
2
*D5
340
0
70
0
0
BLOCK_RECORD
5
182
100
AcDbSymbolTableRecord
100
AcDbBlockTableRecord
2
_U2
340
0
70
0
0
BLOCK_RECORD
5
18E
100
AcDbSymbolTableRecord
100
AcDbBlockTableRecord
2
*D7
340
0
70
0
0
BLOCK_RECORD
5
19A
100
AcDbSymbolTableRecord
100
AcDbBlockTableRecord
2
_U3
340
0
70
0
0
ENDTAB
0
ENDSEC
0
SECTION
2
BLOCKS
0
BLOCK
5
20
100
AcDbEntity
8
0
100
AcDbBlockBegin
2
*Model_Space
70
0
10
0
20
0
30
0
3
*Model_Space
0
ENDBLK
5
21
100
AcDbEntity
8
0
100
AcDbBlockEnd
0
BLOCK
5
1C
100
AcDbEntity
8
0
100
AcDbBlockBegin
2
*Paper_Space
70
0
10
0
20
0
30
0
3
*Paper_Space
0
ENDBLK
5
1D
100
AcDbEntity
8
0
100
AcDbBlockEnd
0
BLOCK
5
24
100
AcDbEntity
8
0
100
AcDbBlockBegin
2
*Paper_Space0
70
0
10
0
20
0
30
0
3
*Paper_Space0
0
ENDBLK
5
25
100
AcDbEntity
8
0
100
AcDbBlockEnd
0
BLOCK
5
147
100
AcDbEntity
8
0
100
AcDbBlockBegin
2
*D1
70
1
10
0
20
0
30
0
3
*D1
0
LINE
5
149
100
AcDbEntity
8
0
62
256
6
ByLayer
370
-2
48
1
60
0
100
AcDbLine
10
-48
20
-11.1125
30
0
11
-48
21
-47.952229
31
0
39
0
210
0
220
0
230
1
0
LINE
5
14A
100
AcDbEntity
8
0
62
256
6
ByLayer
370
-2
48
1
60
0
100
AcDbLine
10
118.5
20
-1.5875
30
0
11
118.5
21
-47.952229
31
0
39
0
210
0
220
0
230
1
0
LINE
5
14B
100
AcDbEntity
8
0
62
256
6
ByLayer
370
-2
48
1
60
0
100
AcDbLine
10
-44.5
20
-45.952229
30
0
11
115
21
-45.952229
31
0
39
0
210
0
220
0
230
1
0
SOLID
5
14C
100
AcDbEntity
8
0
62
256
6
ByLayer
370
-1
48
1
60
0
100
AcDbTrace
10
-44.5
20
-45.368896
30
0
11
-44.5
21
-46.535563
31
0
12
-48
22
-45.952229
32
0
13
-48
23
-45.952229
33
0
39
0
210
0
220
0
230
1
0
SOLID
5
14D
100
AcDbEntity
8
0
62
256
6
ByLayer
370
-1
48
1
60
0
100
AcDbTrace
10
115
20
-46.535563
30
0
11
115
21
-45.368896
31
0
12
118.5
22
-45.952229
32
0
13
118.5
23
-45.952229
33
0
39
0
210
0
220
0
230
1
0
MTEXT
5
14E
100
AcDbEntity
8
0
62
256
6
ByLayer
370
18
48
1
60
0
100
AcDbMText
10
35.25
20
-39.952229
30
0
210
0
220
0
230
1
1
\A1;166.5
40
3
41
0
44
1
50
0
71
5
72
5
7
iso_b_vert
0
POINT
5
14F
100
AcDbEntity
8
Defpoints
62
0
6
ByLayer
370
-1
48
1
60
0
100
AcDbPoint
10
-48
20
-9.525
30
0
39
0
210
0
220
0
230
1
50
360
0
POINT
5
150
100
AcDbEntity
8
Defpoints
62
0
6
ByLayer
370
-1
48
1
60
0
100
AcDbPoint
10
118.5
20
0
30
0
39
0
210
0
220
0
230
1
50
360
0
POINT
5
151
100
AcDbEntity
8
Defpoints
62
0
6
ByLayer
370
-1
48
1
60
0
100
AcDbPoint
10
118.5
20
-45.952229
30
0
39
0
210
0
220
0
230
1
50
360
0
ENDBLK
5
148
100
AcDbEntity
8
0
100
AcDbBlockEnd
0
BLOCK
5
159
100
AcDbEntity
8
0
100
AcDbBlockBegin
2
_U0
70
0
10
0
20
0
30
0
3
_U0
0
MTEXT
5
153
100
AcDbEntity
8
SK2
62
256
6
ByLayer
370
18
48
1
60
0
100
AcDbMText
10
30.021658
20
-45.067115
30
0
210
0
220
0
230
1
1
\W0.7022;166.50
40
3
41
0
44
1.084337
50
0
71
7
72
5
7
iso_b_vert
0
LINE
5
154
100
AcDbEntity
8
SK2
62
256
6
ByLayer
370
13
48
1
60
0
100
AcDbLine
10
-48
20
-11.1125
30
0
11
-48
21
-47.952229
31
0
39
0
210
0
220
0
230
1
0
LINE
5
155
100
AcDbEntity
8
SK2
62
256
6
ByLayer
370
13
48
1
60
0
100
AcDbLine
10
118.5
20
-1.5875
30
0
11
118.5
21
-47.952229
31
0
39
0
210
0
220
0
230
1
0
LINE
5
156
100
AcDbEntity
8
SK2
62
256
6
ByLayer
370
13
48
1
60
0
100
AcDbLine
10
-48
20
-45.952229
30
0
11
118.5
21
-45.952229
31
0
39
0
210
0
220
0
230
1
0
SOLID
5
157
100
AcDbEntity
8
SK2
62
256
6
ByLayer
370
18
48
1
60
0
100
AcDbTrace
10
-48
20
-45.952229
30
0
11
-44.500002
21
-45.491446
31
0
12
-44.499998
22
-46.413013
32
0
13
-44.499998
23
-46.413013
33
0
39
0
210
0
220
0
230
1
0
SOLID
5
158
100
AcDbEntity
8
SK2
62
256
6
ByLayer
370
18
48
1
60
0
100
AcDbTrace
10
118.5
20
-45.952229
30
0
11
115.000002
21
-46.413013
31
0
12
114.999998
22
-45.491446
32
0
13
114.999998
23
-45.491446
33
0
39
0
210
0
220
0
230
1
0
ENDBLK
5
15A
100
AcDbEntity
8
0
100
AcDbBlockEnd
0
BLOCK
5
15F
100
AcDbEntity
8
0
100
AcDbBlockBegin
2
*D3
70
1
10
0
20
0
30
0
3
*D3
0
LINE
5
161
100
AcDbEntity
8
0
62
256
6
ByLayer
370
-2
48
1
60
0
100
AcDbLine
10
118.5
20
-1.5875
30
0
11
118.5
21
-37.952229
31
0
39
0
210
0
220
0
230
1
0
LINE
5
162
100
AcDbEntity
8
0
62
256
6
ByLayer
370
-2
48
1
60
0
100
AcDbLine
10
3
20
-9.7235
30
0
11
3
21
-37.952229
31
0
39
0
210
0
220
0
230
1
0
LINE
5
163
100
AcDbEntity
8
0
62
256
6
ByLayer
370
-2
48
1
60
0
100
AcDbLine
10
115
20
-35.952229
30
0
11
6.5
21
-35.952229
31
0
39
0
210
0
220
0
230
1
0
SOLID
5
164
100
AcDbEntity
8
0
62
256
6
ByLayer
370
-1
48
1
60
0
100
AcDbTrace
10
115
20
-36.535563
30
0
11
115
21
-35.368896
31
0
12
118.5
22
-35.952229
32
0
13
118.5
23
-35.952229
33
0
39
0
210
0
220
0
230
1
0
SOLID
5
165
100
AcDbEntity
8
0
62
256
6
ByLayer
370
-1
48
1
60
0
100
AcDbTrace
10
6.5
20
-35.368896
30
0
11
6.5
21
-36.535563
31
0
12
3
22
-35.952229
32
0
13
3
23
-35.952229
33
0
39
0
210
0
220
0
230
1
0
MTEXT
5
166
100
AcDbEntity
8
0
62
256
6
ByLayer
370
18
48
1
60
0
100
AcDbMText
10
60.75
20
-29.952229
30
0
210
0
220
0
230
1
1
\A1;115.5
40
3
41
0
44
1
50
0
71
5
72
5
7
iso_b_vert
0
POINT
5
167
100
AcDbEntity
8
Defpoints
62
0
6
ByLayer
370
-1
48
1
60
0
100
AcDbPoint
10
118.5
20
0
30
0
39
0
210
0
220
0
230
1
50
360
0
POINT
5
168
100
AcDbEntity
8
Defpoints
62
0
6
ByLayer
370
-1
48
1
60
0
100
AcDbPoint
10
3
20
-8.136
30
0
39
0
210
0
220
0
230
1
50
360
0
POINT
5
169
100
AcDbEntity
8
Defpoints
62
0
6
ByLayer
370
-1
48
1
60
0
100
AcDbPoint
10
3
20
-35.952229
30
0
39
0
210
0
220
0
230
1
50
360
0
ENDBLK
5
160
100
AcDbEntity
8
0
100
AcDbBlockEnd
0
BLOCK
5
171
100
AcDbEntity
8
0
100
AcDbBlockBegin
2
_U1
70
0
10
0
20
0
30
0
3
_U1
0
MTEXT
5
16B
100
AcDbEntity
8
SK2
62
256
6
ByLayer
370
18
48
1
60
0
100
AcDbMText
10
55.896601
20
-35.067115
30
0
210
0
220
0
230
1
1
\W0.6532;115.50
40
3
41
0
44
1.084337
50
0
71
7
72
5
7
iso_b_vert
0
LINE
5
16C
100
AcDbEntity
8
SK2
62
256
6
ByLayer
370
13
48
1
60
0
100
AcDbLine
10
118.5
20
-1.5875
30
0
11
118.5
21
-37.952229
31
0
39
0
210
0
220
0
230
1
0
LINE
5
16D
100
AcDbEntity
8
SK2
62
256
6
ByLayer
370
13
48
1
60
0
100
AcDbLine
10
3
20
-9.7235
30
0
11
3
21
-37.952229
31
0
39
0
210
0
220
0
230
1
0
LINE
5
16E
100
AcDbEntity
8
SK2
62
256
6
ByLayer
370
13
48
1
60
0
100
AcDbLine
10
118.5
20
-35.952229
30
0
11
3
21
-35.952229
31
0
39
0
210
0
220
0
230
1
0
SOLID
5
16F
100
AcDbEntity
8
SK2
62
256
6
ByLayer
370
18
48
1
60
0
100
AcDbTrace
10
118.5
20
-35.952229
30
0
11
115.000002
21
-36.413013
31
0
12
114.999998
22
-35.491446
32
0
13
114.999998
23
-35.491446
33
0
39
0
210
0
220
0
230
1
0
SOLID
5
170
100
AcDbEntity
8
SK2
62
256
6
ByLayer
370
18
48
1
60
0
100
AcDbTrace
10
3
20
-35.952229
30
0
11
6.499998
21
-35.491446
31
0
12
6.500002
22
-36.413013
32
0
13
6.500002
23
-36.413013
33
0
39
0
210
0
220
0
230
1
0
ENDBLK
5
172
100
AcDbEntity
8
0
100
AcDbBlockEnd
0
BLOCK
5
177
100
AcDbEntity
8
0
100
AcDbBlockBegin
2
*D5
70
1
10
0
20
0
30
0
3
*D5
0
LINE
5
179
100
AcDbEntity
8
0
62
256
6
ByLayer
370
-2
48
1
60
0
100
AcDbLine
10
-48
20
-11.1125
30
0
11
-48
21
-37.952229
31
0
39
0
210
0
220
0
230
1
0
LINE
5
17A
100
AcDbEntity
8
0
62
256
6
ByLayer
370
-2
48
1
60
0
100
AcDbLine
10
0
20
-11.1125
30
0
11
0
21
-37.952229
31
0
39
0
210
0
220
0
230
1
0
LINE
5
17B
100
AcDbEntity
8
0
62
256
6
ByLayer
370
-2
48
1
60
0
100
AcDbLine
10
-44.5
20
-35.952229
30
0
11
-3.5
21
-35.952229
31
0
39
0
210
0
220
0
230
1
0
SOLID
5
17C
100
AcDbEntity
8
0
62
256
6
ByLayer
370
-1
48
1
60
0
100
AcDbTrace
10
-44.5
20
-35.368896
30
0
11
-44.5
21
-36.535563
31
0
12
-48
22
-35.952229
32
0
13
-48
23
-35.952229
33
0
39
0
210
0
220
0
230
1
0
SOLID
5
17D
100
AcDbEntity
8
0
62
256
6
ByLayer
370
-1
48
1
60
0
100
AcDbTrace
10
-3.5
20
-36.535563
30
0
11
-3.5
21
-35.368896
31
0
12
0
22
-35.952229
32
0
13
0
23
-35.952229
33
0
39
0
210
0
220
0
230
1
0
MTEXT
5
17E
100
AcDbEntity
8
0
62
256
6
ByLayer
370
18
48
1
60
0
100
AcDbMText
10
-24
20
-29.952229
30
0
210
0
220
0
230
1
1
\A1;48
40
3
41
0
44
1
50
0
71
5
72
5
7
iso_b_vert
0
POINT
5
17F
100
AcDbEntity
8
Defpoints
62
0
6
ByLayer
370
-1
48
1
60
0
100
AcDbPoint
10
-48
20
-9.525
30
0
39
0
210
0
220
0
230
1
50
360
0
POINT
5
180
100
AcDbEntity
8
Defpoints
62
0
6
ByLayer
370
-1
48
1
60
0
100
AcDbPoint
10
0
20
-9.525
30
0
39
0
210
0
220
0
230
1
50
360
0
POINT
5
181
100
AcDbEntity
8
Defpoints
62
0
6
ByLayer
370
-1
48
1
60
0
100
AcDbPoint
10
0
20
-35.952229
30
0
39
0
210
0
220
0
230
1
50
360
0
ENDBLK
5
178
100
AcDbEntity
8
0
100
AcDbBlockEnd
0
BLOCK
5
189
100
AcDbEntity
8
0
100
AcDbBlockBegin
2
_U2
70
0
10
0
20
0
30
0
3
_U2
0
MTEXT
5
183
100
AcDbEntity
8
SK2
62
256
6
ByLayer
370
18
48
1
60
0
100
AcDbMText
10
-28.640313
20
-35.067115
30
0
210
0
220
0
230
1
1
\W0.7694;48.00
40
3
41
0
44
1.084337
50
0
71
7
72
5
7
iso_b_vert
0
LINE
5
184
100
AcDbEntity
8
SK2
62
256
6
ByLayer
370
13
48
1
60
0
100
AcDbLine
10
-48
20
-11.1125
30
0
11
-48
21
-37.952229
31
0
39
0
210
0
220
0
230
1
0
LINE
5
185
100
AcDbEntity
8
SK2
62
256
6
ByLayer
370
13
48
1
60
0
100
AcDbLine
10
0
20
-11.1125
30
0
11
0
21
-37.952229
31
0
39
0
210
0
220
0
230
1
0
LINE
5
186
100
AcDbEntity
8
SK2
62
256
6
ByLayer
370
13
48
1
60
0
100
AcDbLine
10
-48
20
-35.952229
30
0
11
0
21
-35.952229
31
0
39
0
210
0
220
0
230
1
0
SOLID
5
187
100
AcDbEntity
8
SK2
62
256
6
ByLayer
370
18
48
1
60
0
100
AcDbTrace
10
-48
20
-35.952229
30
0
11
-44.500002
21
-35.491446
31
0
12
-44.499998
22
-36.413013
32
0
13
-44.499998
23
-36.413013
33
0
39
0
210
0
220
0
230
1
0
SOLID
5
188
100
AcDbEntity
8
SK2
62
256
6
ByLayer
370
18
48
1
60
0
100
AcDbTrace
10
0
20
-35.952229
30
0
11
-3.499998
21
-36.413013
31
0
12
-3.500002
22
-35.491446
32
0
13
-3.500002
23
-35.491446
33
0
39
0
210
0
220
0
230
1
0
ENDBLK
5
18A
100
AcDbEntity
8
0
100
AcDbBlockEnd
0
BLOCK
5
18F
100
AcDbEntity
8
0
100
AcDbBlockBegin
2
*D7
70
1
10
0
20
0
30
0
3
*D7
0
LINE
5
191
100
AcDbEntity
8
0
62
256
6
ByLayer
370
-2
48
1
60
0
100
AcDbLine
10
118.5
20
1.5875
30
0
11
118.5
21
34.952229
31
0
39
0
210
0
220
0
230
1
0
LINE
5
192
100
AcDbEntity
8
0
62
256
6
ByLayer
370
-2
48
1
60
0
100
AcDbLine
10
26
20
9.7235
30
0
11
26
21
34.952229
31
0
39
0
210
0
220
0
230
1
0
LINE
5
193
100
AcDbEntity
8
0
62
256
6
ByLayer
370
-2
48
1
60
0
100
AcDbLine
10
115
20
32.952229
30
0
11
29.5
21
32.952229
31
0
39
0
210
0
220
0
230
1
0
SOLID
5
194
100
AcDbEntity
8
0
62
256
6
ByLayer
370
-1
48
1
60
0
100
AcDbTrace
10
115
20
32.368896
30
0
11
115
21
33.535563
31
0
12
118.5
22
32.952229
32
0
13
118.5
23
32.952229
33
0
39
0
210
0
220
0
230
1
0
SOLID
5
195
100
AcDbEntity
8
0
62
256
6
ByLayer
370
-1
48
1
60
0
100
AcDbTrace
10
29.5
20
33.535563
30
0
11
29.5
21
32.368896
31
0
12
26
22
32.952229
32
0
13
26
23
32.952229
33
0
39
0
210
0
220
0
230
1
0
MTEXT
5
196
100
AcDbEntity
8
0
62
256
6
ByLayer
370
18
48
1
60
0
100
AcDbMText
10
72.25
20
38.952229
30
0
210
0
220
0
230
1
1
\A1;92.5
40
3
41
0
44
1
50
0
71
5
72
5
7
iso_b_vert
0
POINT
5
197
100
AcDbEntity
8
Defpoints
62
0
6
ByLayer
370
-1
48
1
60
0
100
AcDbPoint
10
118.5
20
0
30
0
39
0
210
0
220
0
230
1
50
360
0
POINT
5
198
100
AcDbEntity
8
Defpoints
62
0
6
ByLayer
370
-1
48
1
60
0
100
AcDbPoint
10
26
20
8.136
30
0
39
0
210
0
220
0
230
1
50
360
0
POINT
5
199
100
AcDbEntity
8
Defpoints
62
0
6
ByLayer
370
-1
48
1
60
0
100
AcDbPoint
10
26
20
32.952229
30
0
39
0
210
0
220
0
230
1
50
360
0
ENDBLK
5
190
100
AcDbEntity
8
0
100
AcDbBlockEnd
0
BLOCK
5
1A1
100
AcDbEntity
8
0
100
AcDbBlockBegin
2
_U3
70
0
10
0
20
0
30
0
3
_U3
0
MTEXT
5
19B
100
AcDbEntity
8
SK2
62
256
6
ByLayer
370
18
48
1
60
0
100
AcDbMText
10
67.76763
20
33.837344
30
0
210
0
220
0
230
1
1
\W0.7468;92.50
40
3
41
0
44
1.084337
50
0
71
7
72
5
7
iso_b_vert
0
LINE
5
19C
100
AcDbEntity
8
SK2
62
256
6
ByLayer
370
13
48
1
60
0
100
AcDbLine
10
118.5
20
1.5875
30
0
11
118.5
21
34.952229
31
0
39
0
210
0
220
0
230
1
0
LINE
5
19D
100
AcDbEntity
8
SK2
62
256
6
ByLayer
370
13
48
1
60
0
100
AcDbLine
10
26
20
9.7235
30
0
11
26
21
34.952229
31
0
39
0
210
0
220
0
230
1
0
LINE
5
19E
100
AcDbEntity
8
SK2
62
256
6
ByLayer
370
13
48
1
60
0
100
AcDbLine
10
118.5
20
32.952229
30
0
11
26
21
32.952229
31
0
39
0
210
0
220
0
230
1
0
SOLID
5
19F
100
AcDbEntity
8
SK2
62
256
6
ByLayer
370
18
48
1
60
0
100
AcDbTrace
10
118.5
20
32.952229
30
0
11
115.000002
21
32.491446
31
0
12
114.999998
22
33.413013
32
0
13
114.999998
23
33.413013
33
0
39
0
210
0
220
0
230
1
0
SOLID
5
1A0
100
AcDbEntity
8
SK2
62
256
6
ByLayer
370
18
48
1
60
0
100
AcDbTrace
10
26
20
32.952229
30
0
11
29.499998
21
33.413013
31
0
12
29.500002
22
32.491446
32
0
13
29.500002
23
32.491446
33
0
39
0
210
0
220
0
230
1
0
ENDBLK
5
1A2
100
AcDbEntity
8
0
100
AcDbBlockEnd
0
ENDSEC
0
SECTION
2
ENTITIES
0
ARC
5
C0
100
AcDbEntity
8
SK2
62
256
6
ByLayer
370
13
48
1
60
0
100
AcDbCircle
39
0
10
118.5
20
0
30
0
40
19
210
0
220
0
230
1
100
AcDbArc
50
290
51
70
0
ELLIPSE
5
C1
100
AcDbEntity
8
SK1
62
256
6
ByLayer
370
18
48
1
60
0
100
AcDbEllipse
10
-32.117794
20
0
30
0
11
-1.74965632802376E-15
21
-9.52500000000022
31
0
210
0
220
0
230
1
40
0.932515
41
-1.99646903598621
42
-1.14512361760358
0
ELLIPSE
5
C2
100
AcDbEntity
8
SK1
62
256
6
ByLayer
370
18
48
1
60
0
100
AcDbEllipse
10
-15.214312
20
0
30
0
11
10.2143119629885
21
-1.15738337235711E-14
31
0
210
0
220
0
230
1
40
0.932515
41
-0.425672709191254
42
0.425672709191253
0
POINT
5
70
100
AcDbEntity
8
81
62
256
6
ByLayer
370
18
48
1
60
0
100
AcDbPoint
10
118.5
20
0
30
0
39
0
210
0
220
0
230
1
50
360
0
POINT
5
72
100
AcDbEntity
8
80
62
256
6
ByLayer
370
18
48
1
60
0
100
AcDbPoint
10
0
20
0
30
0
39
0
210
0
220
0
230
1
50
360
0
POINT
5
74
100
AcDbEntity
8
1
62
256
6
ByLayer
370
18
48
1
60
1
100
AcDbPoint
10
-48
20
-9.525
30
0
39
0
210
0
220
0
230
1
50
360
0
POINT
5
76
100
AcDbEntity
8
1
62
256
6
ByLayer
370
18
48
1
60
1
100
AcDbPoint
10
118.5
20
0
30
0
39
0
210
0
220
0
230
1
50
360
0
POINT
5
77
100
AcDbEntity
8
1
62
256
6
ByLayer
370
18
48
1
60
1
100
AcDbPoint
10
118.5
20
0
30
0
39
0
210
0
220
0
230
1
50
360
0
POINT
5
78
100
AcDbEntity
8
1
62
256
6
ByLayer
370
18
48
1
60
1
100
AcDbPoint
10
3
20
-8.136
30
0
39
0
210
0
220
0
230
1
50
360
0
POINT
5
79
100
AcDbEntity
8
1
62
256
6
ByLayer
370
18
48
1
60
1
100
AcDbPoint
10
-48
20
-9.525
30
0
39
0
210
0
220
0
230
1
50
360
0
POINT
5
7A
100
AcDbEntity
8
1
62
256
6
ByLayer
370
18
48
1
60
1
100
AcDbPoint
10
0
20
-9.525
30
0
39
0
210
0
220
0
230
1
50
360
0
POINT
5
7B
100
AcDbEntity
8
1
62
256
6
ByLayer
370
18
48
1
60
1
100
AcDbPoint
10
118.5
20
0
30
0
39
0
210
0
220
0
230
1
50
360
0
POINT
5
7C
100
AcDbEntity
8
1
62
256
6
ByLayer
370
18
48
1
60
1
100
AcDbPoint
10
26
20
8.136
30
0
39
0
210
0
220
0
230
1
50
360
0
SPLINE
5
C3
100
AcDbEntity
8
1
62
256
6
ByLayer
370
18
48
1
60
0
100
AcDbSpline
70
4
71
3
72
14
73
10
40
0
40
0
40
0
40
0
40
0.25
40
0.25
40
0.5
40
0.5
40
0.75
40
0.75
40
1
40
1
40
1
40
1
41
1
10
12.9677094157164
20
7.38551839725656
30
0
41
1
10
12.7159370328904
20
7.41089678431749
30
0
41
1
10
12.4655953979843
20
7.43572978124155
30
0
41
1
10
11.9671950397788
20
7.48327224536078
30
0
41
1
10
11.7191343389132
20
7.50598263908344
30
0
41
1
10
11.2248928895843
20
7.54848926171908
30
0
41
1
10
10.9787108697085
20
7.56828830418209
30
0
41
1
10
10.4880543896483
20
7.60436910256601
30
0
41
1
10
10.2435795754876
20
7.62065515801029
30
0
41
1
10
10
20
7.63492050304743
30
0
0
SPLINE
5
C4
100
AcDbEntity
8
1
62
256
6
ByLayer
370
18
48
1
60
0
100
AcDbSpline
70
4
71
3
72
22
73
18
40
0
40
0
40
0
40
0
40
0.249999999999985
40
0.249999999999985
40
0.312499999999982
40
0.312499999999982
40
0.374999999999978
40
0.374999999999978
40
0.499999999999979
40
0.499999999999979
40
0.749999999999989
40
0.749999999999989
40
0.87499999999999
40
0.87499999999999
40
0.937499999999995
40
0.937499999999995
40
1
40
1
40
1
40
1
41
1
10
115.53873817404
20
-1.1627966884748
30
0
41
1
10
114.817492386352
20
-0.903908987948626
30
0
41
1
10
114.097025241877
20
-0.643494575846262
30
0
41
1
10
113.197709863039
20
-0.315259131082939
30
0
41
1
10
113.017923112307
20
-0.249440625827504
30
0
41
1
10
112.658351017519
20
-0.117880429014576
30
0
41
1
10
112.478545670045
20
-0.0521940858251071
30
0
41
1
10
111.939060686545
20
0.144554273922353
30
0
41
1
10
111.579321167085
20
0.275330830895001
30
0
41
1
10
110.499928097571
20
0.666704159651943
30
0
41
1
10
109.780083383443
20
0.9263004219805
30
0
41
1
10
108.700255638735
20
1.31457435434709
30
0
41
1
10
108.340306422301
20
1.44382135238138
30
0
41
1
10
107.80040468399
20
1.63750892911983
30
0
41
1
10
107.620443477301
20
1.70204729100791
30
0
41
1
10
107.260344371649
20
1.83055857133542
30
0
41
1
10
107.080211945532
20
1.89454658265458
30
0
41
1
10
106.9
20
1.95827644536877
30
0
0
SPLINE
5
C5
100
AcDbEntity
8
1
62
256
6
ByLayer
370
18
48
1
60
0
100
AcDbSpline
70
4
71
3
72
83
73
79
40
0
40
0
40
0
40
0
40
0.0312499999999971
40
0.0312499999999971
40
0.0624999999999943
40
0.0624999999999943
40
0.12499999999999
40
0.12499999999999
40
0.14062499999999
40
0.14062499999999
40
0.156249999999989
40
0.156249999999989
40
0.187499999999988
40
0.187499999999988
40
0.249999999999984
40
0.249999999999984
40
0.281249999999981
40
0.281249999999981
40
0.296874999999979
40
0.296874999999979
40
0.312499999999978
40
0.312499999999978
40
0.343749999999974
40
0.343749999999974
40
0.374999999999971
40
0.374999999999971
40
0.406249999999968
40
0.406249999999968
40
0.437499999999965
40
0.437499999999965
40
0.445312499999964
40
0.445312499999964
40
0.453124999999963
40
0.468749999999962
40
0.468749999999962
40
0.499999999999961
40
0.499999999999961
40
0.531249999999959
40
0.531249999999959
40
0.539062499999959
40
0.539062499999959
40
0.546874999999959
40
0.562499999999958
40
0.562499999999958
40
0.593749999999957
40
0.593749999999957
40
0.624999999999957
40
0.624999999999957
40
0.632812499999957
40
0.632812499999957
40
0.640624999999957
40
0.656249999999957
40
0.656249999999957
40
0.687499999999955
40
0.687499999999955
40
0.718749999999953
40
0.718749999999953
40
0.726562499999952
40
0.726562499999952
40
0.734374999999952
40
0.734374999999952
40
0.749999999999954
40
0.749999999999954
40
0.781249999999958
40
0.781249999999958
40
0.812499999999962
40
0.843749999999965
40
0.843749999999965
40
0.851562499999967
40
0.851562499999967
40
0.859374999999968
40
0.874999999999971
40
0.874999999999971
40
0.906249999999978
40
0.937499999999985
40
0.968749999999993
40
0.968749999999993
40
1
40
1
40
1
40
1
41
1
10
115.538738174037
20
7.87766145490258
30
0
41
1
10
115.589552301513
20
7.751658568132
30
0
41
1
10
115.640445110744
20
7.6237628405506
30
0
41
1
10
115.742475150612
20
7.36448271482794
30
0
41
1
10
115.793612293903
20
7.23309765043473
30
0
41
1
10
115.947481753711
20
6.83403042424084
30
0
41
1
10
116.050686494235
20
6.5614630443643
30
0
41
1
10
116.180582411422
20
6.21320275353852
30
0
41
1
10
116.206604899267
20
6.14317133809087
30
0
41
1
10
116.258733813007
20
6.00235848884461
30
0
41
1
10
116.284850650114
20
5.93154784738636
30
0
41
1
10
116.362857573122
20
5.71926048916771
30
0
41
1
10
116.414560316191
20
5.57751463938752
30
0
41
1
10
116.568704407332
20
5.15161407962796
30
0
41
1
10
116.670231840071
20
4.86681515098772
30
0
41
1
10
116.81967062325
20
4.43800415896339
30
0
41
1
10
116.868997276116
20
4.29479413434706
30
0
41
1
10
116.941983375083
20
4.07947344883141
30
0
41
1
10
116.966143442181
20
4.00761511783554
30
0
41
1
10
117.01406080393
20
3.86370554147135
30
0
41
1
10
117.03782090216
20
3.7916435700067
30
0
41
1
10
117.108036235586
20
3.57617167914762
30
0
41
1
10
117.153554837957
20
3.43313089617797
30
0
41
1
10
117.241176076182
20
3.14803030949366
30
0
41
1
10
117.283284491471
20
3.00597144742184
30
0
41
1
10
117.362805207401
20
2.72254024985432
30
0
41
1
10
117.400224272989
20
2.58116854373691
30
0
41
1
10
117.468437107985
20
2.29872849208945
30
0
41
1
10
117.499234013087
20
2.15765902618727
30
0
41
1
10
117.531869940871
20
1.98121701645425
30
0
41
1
10
117.538108650635
20
1.94588310082292
30
0
41
1
10
117.549911248898
20
1.87540214961805
30
0
41
1
10
117.566591347627
20
1.77004708837649
30
0
41
1
10
117.580020074004
20
1.66580507972597
30
0
41
1
10
117.602103225806
20
1.45886219654628
30
0
41
1
10
117.610412727652
20
1.32294787740429
30
0
41
1
10
117.612638489695
20
1.0556938585969
30
0
41
1
10
117.606541459569
20
0.924356315607213
30
0
41
1
10
117.589969707796
20
0.763472270149947
30
0
41
1
10
117.586204903356
20
0.731407713961346
30
0
41
1
10
117.577844173897
20
0.667896694842483
30
0
41
1
10
117.564072871059
20
0.57363839772151
30
0
41
1
10
117.546823168756
20
0.48236822732207
30
0
41
1
10
117.508262442335
20
0.303717328777481
30
0
41
1
10
117.477162282966
20
0.189795457998855
30
0
41
1
10
117.406970796767
20
-0.0280860718654878
30
0
41
1
10
117.367885467796
20
-0.132048688360896
30
0
41
1
10
117.315329018355
20
-0.255864643463894
30
0
41
1
10
117.304618126928
20
-0.280348006768179
30
0
41
1
10
117.282917056975
20
-0.328545077925469
30
0
41
1
10
117.249958325602
20
-0.399664242651255
30
0
41
1
10
117.215904007874
20
-0.467322629117604
30
0
41
1
10
117.146598291907
20
-0.598161767627289
30
0
41
1
10
117.09881411005
20
-0.679430107690933
30
0
41
1
10
117.001009423949
20
-0.830440184501413
30
0
41
1
10
116.950982353976
20
-0.900179804733085
30
0
41
1
10
116.887350660612
20
-0.980155840918655
30
0
41
1
10
116.87456862094
20
-0.995790278817793
30
0
41
1
10
116.848897865289
20
-1.02633448521851
30
0
41
1
10
116.836013084766
20
-1.04123841319344
30
0
41
1
10
116.797375978707
20
-1.08467205635233
30
0
41
1
10
116.771585195799
20
-1.11199203986632
30
0
41
1
10
116.694155065581
20
-1.18915260180663
30
0
41
1
10
116.642461783545
20
-1.23420366010899
30
0
41
1
10
116.539022864466
20
-1.31183903117241
30
0
41
1
10
116.435529118563
20
-1.37700512188303
30
0
41
1
10
116.331896442974
20
-1.41724903827398
30
0
41
1
10
116.267028842958
20
-1.43443931099509
30
0
41
1
10
116.254057869723
20
-1.43747547451895
30
0
41
1
10
116.228222348257
20
-1.44272500990749
30
0
41
1
10
116.189585729127
20
-1.44937678450339
30
0
41
1
10
116.151286598438
20
-1.45240087310782
30
0
41
1
10
116.075105110219
20
-1.45369208122801
30
0
41
1
10
115.974640923346
20
-1.44274503466406
30
0
41
1
10
115.826752961802
20
-1.38897057337095
30
0
41
1
10
115.729687530262
20
-1.32815028542117
30
0
41
1
10
115.633210925943
20
-1.25455902659556
30
0
41
1
10
115.585675123379
20
-1.21168908669853
30
0
41
1
10
115.538738174037
20
-1.16279668847372
30
0
0
SPLINE
5
C6
100
AcDbEntity
8
1
62
256
6
ByLayer
370
18
48
1
60
0
100
AcDbSpline
70
4
71
3
72
18
73
14
40
0
40
0
40
0
40
0
40
0.0446163963940253
40
0.0446163963940253
40
0.235693117115212
40
0.235693117115212
40
0.331231477475813
40
0.331231477475813
40
0.426769837836412
40
0.426769837836412
40
0.617846558557613
40
0.617846558557613
40
1
40
1
40
1
40
1
41
1
10
109.888947656497
20
8.13498335635995
30
0
41
1
10
109.972956182115
20
8.13500195191057
30
0
41
1
10
110.056955316794
20
8.13484860668484
30
0
41
1
10
110.500641127523
20
8.13312826493376
30
0
41
1
10
110.860141677986
20
8.12857024126652
30
0
41
1
10
111.399113902058
20
8.11689146553596
30
0
41
1
10
111.578755274518
20
8.11219411657206
30
0
41
1
10
111.938206543817
20
8.1012427212365
30
0
41
1
10
112.117993773161
20
8.09498591935036
30
0
41
1
10
112.657504704934
20
8.07389001603909
30
0
41
1
10
113.017370936726
20
8.05672614650291
30
0
41
1
10
114.097381587412
20
7.9959735304175
30
0
41
1
10
114.817957760005
20
7.94317855496118
30
0
41
1
10
115.53873817404
20
7.8776614549023
30
0
0
SPLINE
5
C7
100
AcDbEntity
8
1
62
256
6
ByLayer
370
18
48
1
60
0
100
AcDbSpline
70
4
71
3
72
50
73
46
40
0
40
0
40
0
40
0
40
0.0597800104763046
40
0.0597800104763046
40
0.119560020952609
40
0.119560020952609
40
0.179340031428914
40
0.179340031428914
40
0.209230036667066
40
0.209230036667066
40
0.239120041905218
40
0.239120041905218
40
0.298900052381522
40
0.298900052381522
40
0.358680062857825
40
0.358680062857825
40
0.418460073334128
40
0.418460073334128
40
0.44835007857228
40
0.44835007857228
40
0.478240083810432
40
0.478240083810432
40
0.538020094286737
40
0.538020094286737
40
0.597800104763042
40
0.597800104763042
40
0.657580115239346
40
0.657580115239346
40
0.687470120477499
40
0.687470120477499
40
0.717360125715651
40
0.717360125715651
40
0.777140136191957
40
0.777140136191957
40
0.836920146668263
40
0.836920146668263
40
0.866810151906416
40
0.866810151906416
40
0.881755154525493
40
0.881755154525493
40
0.89670015714457
40
0.89670015714457
40
0.956480167620877
40
0.956480167620877
40
1
40
1
40
1
40
1
41
1
10
16.4579846464234
20
-3.78061978758692
30
0
41
1
10
16.9294190269679
20
-3.92343115156751
30
0
41
1
10
17.4008717315049
20
-4.06256426247253
30
0
41
1
10
18.34359138771
20
-4.33428654535089
30
0
41
1
10
18.8148575026761
20
-4.46687675605341
30
0
41
1
10
19.7569988057037
20
-4.72607781957365
30
0
41
1
10
20.2278726018481
20
-4.85269163306231
30
0
41
1
10
20.9337405884495
20
-5.03840333118774
30
0
41
1
10
21.168956696792
20
-5.09960300839592
30
0
41
1
10
21.639223238676
20
-5.22061104718458
30
0
41
1
10
21.874253696417
20
-5.28045772605978
30
0
41
1
10
22.5797385011173
20
-5.45652809159427
30
0
41
1
10
23.0504534815138
20
-5.56959169754535
30
0
41
1
10
23.9923331450366
20
-5.78793042208571
30
0
41
1
10
24.4635128987413
20
-5.89317273075292
30
0
41
1
10
25.4061582451471
20
-6.0961671213156
30
0
41
1
10
25.8776176469458
20
-6.19393058787662
30
0
41
1
10
26.584886396717
20
-6.33507232260959
30
0
41
1
10
26.8206863562108
20
-6.38125306123578
30
0
41
1
10
27.2920216083308
20
-6.47144196040264
30
0
41
1
10
27.5276715973167
20
-6.51531724387073
30
0
41
1
10
28.2346643146277
20
-6.64320244770724
30
0
41
1
10
28.7059714299777
20
-6.72360890696859
30
0
41
1
10
29.6482998207722
20
-6.87527488397242
30
0
41
1
10
30.1193324495111
20
-6.94651718744962
30
0
41
1
10
31.0609260390279
20
-7.08006268286542
30
0
41
1
10
31.5314828547805
20
-7.14236966337231
30
0
41
1
10
32.236835839677
20
-7.22908728447965
30
0
41
1
10
32.4718779691076
20
-7.25685587322354
30
0
41
1
10
32.9422504159527
20
-7.30969472263737
30
0
41
1
10
33.1775386483558
20
-7.33481207781114
30
0
41
1
10
33.8836363933803
20
-7.40637649494425
30
0
41
1
10
34.3546705198293
20
-7.44904958138002
30
0
41
1
10
35.2971459838655
20
-7.52455999225924
30
0
41
1
10
35.7685890658796
20
-7.55739668557385
30
0
41
1
10
36.475909099574
20
-7.59926433624204
30
0
41
1
10
36.7117088543524
20
-7.61198655006245
30
0
41
1
10
37.0654353617771
20
-7.62919697401841
30
0
41
1
10
37.1833440870654
20
-7.63462121758403
30
0
41
1
10
37.4190482316442
20
-7.64483503505232
30
0
41
1
10
37.5368591951442
20
-7.64962454511263
30
0
41
1
10
38.1258661532838
20
-7.67192836897411
30
0
41
1
10
38.5971255231463
20
-7.68446576859532
30
0
41
1
10
39.4113430557748
20
-7.69729974665446
30
0
41
1
10
39.7543296830508
20
-7.69999735659209
30
0
41
1
10
40.0972404612227
20
-7.70000126863886
30
0
0
SPLINE
5
C8
100
AcDbEntity
8
1
62
256
6
ByLayer
370
18
48
1
60
0
100
AcDbSpline
70
4
71
3
72
34
73
30
40
0
40
0
40
0
40
0
40
0.0470139432624847
40
0.0470139432624847
40
0.0999576130812339
40
0.0999576130812339
40
0.152901282899984
40
0.152901282899984
40
0.258788622537483
40
0.258788622537483
40
0.311732292356233
40
0.311732292356233
40
0.364675962174982
40
0.364675962174982
40
0.470563301812482
40
0.470563301812482
40
0.523506971631235
40
0.523506971631235
40
0.576450641449987
40
0.576450641449987
40
0.682337981087492
40
0.682337981087492
40
0.788225320724996
40
0.788225320724996
40
0.894112660362501
40
0.894112660362501
40
0.94705633018125
40
0.94705633018125
40
1
40
1
40
1
40
1
41
1
10
93.550771493846
20
5.63136656464272
30
0
41
1
10
93.759916685949
20
5.6803273653926
30
0
41
1
10
93.9690469100417
20
5.72859741227143
30
0
41
1
10
94.4136327566079
20
5.82978909165831
30
0
41
1
10
94.6490822785377
20
5.88252712129741
30
0
41
1
10
95.1199016348017
20
5.98629528678615
30
0
41
1
10
95.3552385913127
20
6.03738384463512
30
0
41
1
10
96.0614032413669
20
6.18754837191358
30
0
41
1
10
96.5327333983951
20
6.28291491695856
30
0
41
1
10
97.2403667751027
20
6.4193273152562
30
0
41
1
10
97.4763795046698
20
6.46369962231165
30
0
41
1
10
97.9484520954967
20
6.55025592018981
30
0
41
1
10
98.1844208784835
20
6.59242289929571
30
0
41
1
10
98.8920886260813
20
6.71565270252086
30
0
41
1
10
99.3635450815954
20
6.79345818797941
30
0
41
1
10
100.070096432569
20
6.90375747524169
30
0
41
1
10
100.305507787301
20
6.93945388394314
30
0
41
1
10
100.776105505647
20
7.00868826773706
30
0
41
1
10
101.011323505774
20
7.04218113204064
30
0
41
1
10
101.717313357608
20
7.13862682346431
30
0
41
1
10
102.18823185897
20
7.19780028598672
30
0
41
1
10
103.130278787596
20
7.30644219437988
30
0
41
1
10
103.601422299746
20
7.35589260501351
30
0
41
1
10
104.543749672183
20
7.44521548797053
30
0
41
1
10
105.014927544081
20
7.48509228810133
30
0
41
1
10
105.721590487216
20
7.5376442493469
30
0
41
1
10
105.957089725615
20
7.553967934513
30
0
41
1
10
106.428305475939
20
7.58401125472534
30
0
41
1
10
106.664078932023
20
7.59770521245918
30
0
41
1
10
106.9
20
7.61009999490264
30
0
0
SPLINE
5
C9
100
AcDbEntity
8
1
62
256
6
ByLayer
370
18
48
1
60
0
100
AcDbSpline
70
4
71
3
72
62
73
58
40
0
40
0
40
0
40
0
40
0.0487353176949026
40
0.0487353176949026
40
0.0974706353898053
40
0.0974706353898053
40
0.121838294237255
40
0.121838294237255
40
0.146205953084705
40
0.146205953084705
40
0.170573611932156
40
0.170573611932156
40
0.194941270779606
40
0.194941270779606
40
0.243676588474503
40
0.243676588474503
40
0.292411906169401
40
0.292411906169401
40
0.31677956501685
40
0.31677956501685
40
0.341147223864299
40
0.341147223864299
40
0.389882541559196
40
0.389882541559196
40
0.438617859254094
40
0.438617859254094
40
0.487353176948992
40
0.487353176948992
40
0.511720835796439
40
0.511720835796439
40
0.536088494643887
40
0.536088494643887
40
0.584823812338782
40
0.584823812338782
40
0.633559130033677
40
0.633559130033677
40
0.657926788881125
40
0.657926788881125
40
0.682294447728573
40
0.682294447728573
40
0.731029765423465
40
0.731029765423465
40
0.779765083118358
40
0.779765083118358
40
0.828500400813251
40
0.828500400813251
40
0.852868059660697
40
0.852868059660697
40
0.877235718508144
40
0.877235718508144
40
0.925971036203039
40
0.925971036203039
40
0.974706353897934
40
0.974706353897934
40
0.99907401274538
40
0.99907401274538
40
1
40
1
40
1
40
1
41
1
10
106.9
20
1.70750944341461
30
0
41
1
10
106.409880700195
20
1.87234032017895
30
0
41
1
10
105.919964593344
20
2.03526446189653
30
0
41
1
10
104.940614542671
20
2.35759635797427
30
0
41
1
10
104.451177838131
20
2.51699644805271
30
0
41
1
10
103.717458925637
20
2.75366160324341
30
0
41
1
10
103.472959921495
20
2.8321469002752
30
0
41
1
10
102.984121252032
20
2.98833292265314
30
0
41
1
10
102.739796351906
20
3.0660730326359
30
0
41
1
10
102.251241303049
20
3.22058164409248
30
0
41
1
10
102.006946874598
20
3.29717813706213
30
0
41
1
10
101.518223638254
20
3.44880127234938
30
0
41
1
10
101.273811039797
20
3.52387139264852
30
0
41
1
10
100.540440373674
20
3.74692504910937
30
0
41
1
10
100.051347960893
20
3.89275078925729
30
0
41
1
10
99.0728897569762
20
4.17888069241653
30
0
41
1
10
98.5835243090135
20
4.31918623439481
30
0
41
1
10
97.849354335891
20
4.52565653132598
30
0
41
1
10
97.6046147397332
20
4.59382398474273
30
0
41
1
10
97.1150808549259
20
4.7287771895204
30
0
41
1
10
96.8702417786777
20
4.79545503313108
30
0
41
1
10
96.1351860666741
20
4.99234379726391
30
0
41
1
10
95.6452832028779
20
5.11949240596846
30
0
41
1
10
94.6659531264535
20
5.36588231277244
30
0
41
1
10
94.1765021971955
20
5.48512331475752
30
0
41
1
10
93.1981221263467
20
5.71590408890484
30
0
41
1
10
92.7091993076124
20
5.82745667471883
30
0
41
1
10
91.9762895402097
20
5.98905829353649
30
0
41
1
10
91.732055592375
20
6.04194718600311
30
0
41
1
10
91.24340992251
20
6.14519808506256
30
0
41
1
10
90.9990293711083
20
6.19562009862287
30
0
41
1
10
90.2657338365078
20
6.34334211313535
30
0
41
1
10
89.7766662886056
20
6.43710526600711
30
0
41
1
10
88.7982063692054
20
6.61538824177728
30
0
41
1
10
88.308811971803
20
6.69990587511705
30
0
41
1
10
87.5745581548972
20
6.8197972701773
30
0
41
1
10
87.3297794981913
20
6.85861156225158
30
0
41
1
10
86.8401766083401
20
6.93392560251235
30
0
41
1
10
86.5953760985605
20
6.97045210961366
30
0
41
1
10
85.8604582643747
20
7.07596062103579
30
0
41
1
10
85.3705793635555
20
7.14086811619913
30
0
41
1
10
84.3912882224843
20
7.26011924611535
30
0
41
1
10
83.9018325124472
20
7.31446606136242
30
0
41
1
10
82.923386382401
20
7.41272889995344
30
0
41
1
10
82.4344005066479
20
7.45664939483305
30
0
41
1
10
81.7013584876419
20
7.51465984810247
30
0
41
1
10
81.4571142727274
20
7.53269902134232
30
0
41
1
10
80.9685557392613
20
7.56599537375391
30
0
41
1
10
80.7242125320963
20
7.58124043245073
30
0
41
1
10
79.9910076023936
20
7.62282133286129
30
0
41
1
10
79.501973685774
20
7.64501071703987
30
0
41
1
10
78.523531043151
20
7.6784625247908
30
0
41
1
10
78.0341196135926
20
7.68972494335191
30
0
41
1
10
77.2997958366866
20
7.6983718722021
30
0
41
1
10
77.0549876987966
20
7.69987802679427
30
0
41
1
10
76.8008465013207
20
7.69999725665397
30
0
41
1
10
76.7915425131743
20
7.69999960868302
30
0
41
1
10
76.7822385098724
20
7.69999994712899
30
0
0
SPLINE
5
CA
100
AcDbEntity
8
1
62
256
6
ByLayer
370
18
48
1
60
0
100
AcDbSpline
70
4
71
3
72
24
73
20
40
0
40
0
40
0
40
0
40
0.0092003278660345
40
0.0092003278660345
40
0.150743138170885
40
0.150743138170885
40
0.292285948475735
40
0.292285948475735
40
0.433828758780585
40
0.433828758780585
40
0.504600163933012
40
0.504600163933012
40
0.575371569085437
40
0.575371569085437
40
0.716914379390292
40
0.716914379390292
40
0.858457189695146
40
0.858457189695146
40
1
40
1
40
1
40
1
41
1
10
23.3244801943732
20
-5.63367128605077
30
0
41
1
10
23.2927179623147
20
-5.64116930665261
30
0
41
1
10
23.2609564628112
20
-5.64864866820724
30
0
41
1
10
22.7405654444863
20
-5.77087743847201
30
0
41
1
10
22.25197482224
20
-5.88097713978706
30
0
41
1
10
21.2749591393977
20
-6.09220880470696
30
0
41
1
10
20.7865323412977
20
-6.19333706158838
30
0
41
1
10
19.8099251794945
20
-6.38680555584011
30
0
41
1
10
19.3217481987659
20
-6.47915219495889
30
0
41
1
10
18.5897543227825
20
-6.61112413378081
30
0
41
1
10
18.3458249865831
20
-6.65405521117867
30
0
41
1
10
17.857921951307
20
-6.7375061081994
30
0
41
1
10
17.6138910812265
20
-6.7779448966761
30
0
41
1
10
16.8815287384897
20
-6.89539372756786
30
0
41
1
10
16.3929500686088
20
-6.96857443059739
30
0
41
1
10
15.4152075822069
20
-7.104900998413
30
0
41
1
10
14.9260424918661
20
-7.16804567540649
30
0
41
1
10
13.947215795514
20
-7.28432363842748
30
0
41
1
10
13.4575547300877
20
-7.33745930232959
30
0
41
1
10
12.9677094157164
20
-7.38551839725656
30
0
0
SPLINE
5
CB
100
AcDbEntity
8
1
62
256
6
ByLayer
370
18
48
1
60
0
100
AcDbSpline
70
4
71
3
72
10
73
6
40
0
40
0
40
0
40
0
40
0.722935084983336
40
0.722935084983336
40
1
40
1
40
1
40
1
41
1
10
106.9
20
-8.06210980964929
30
0
41
1
10
107.620745318497
20
-8.09719106299312
30
0
41
1
10
108.341320263048
20
-8.11946116870172
30
0
41
1
10
109.337304127795
20
-8.1330084651301
30
0
41
1
10
109.613176504458
20
-8.13492231368213
30
0
41
1
10
109.888947685895
20
-8.1349833563664
30
0
0
SPLINE
5
CC
100
AcDbEntity
8
1
62
256
6
ByLayer
370
18
48
1
60
0
100
AcDbSpline
70
4
71
3
72
174
73
170
40
0
40
0
40
0
40
0
40
0.0023503967948872
40
0.0023503967948872
40
0.0192597121034491
40
0.0192597121034491
40
0.036169027412011
40
0.036169027412011
40
0.0446236850662921
40
0.0446236850662921
40
0.0530783427205733
40
0.0530783427205733
40
0.0699876580291352
40
0.0699876580291352
40
0.086896973337697
40
0.086896973337697
40
0.103806288646259
40
0.103806288646259
40
0.11226094630054
40
0.11226094630054
40
0.120715603954821
40
0.120715603954821
40
0.137624919263382
40
0.137624919263382
40
0.154534234571944
40
0.154534234571944
40
0.162988892226224
40
0.162988892226224
40
0.167216221053365
40
0.167216221053365
40
0.171443549880505
40
0.171443549880505
40
0.188352865189067
40
0.188352865189067
40
0.205262180497629
40
0.205262180497629
40
0.222171495806191
40
0.222171495806191
40
0.230626153460471
40
0.230626153460471
40
0.239080811114752
40
0.239080811114752
40
0.255990126423313
40
0.255990126423313
40
0.272899441731875
40
0.272899441731875
40
0.281354099386156
40
0.281354099386156
40
0.289808757040437
40
0.289808757040437
40
0.298263414694718
40
0.298263414694718
40
0.306718072348999
40
0.306718072348999
40
0.32362738765756
40
0.32362738765756
40
0.340536702966122
40
0.340536702966122
40
0.357446018274684
40
0.357446018274684
40
0.361673347101825
40
0.361673347101825
40
0.365900675928965
40
0.374355333583246
40
0.374355333583246
40
0.391264648891808
40
0.391264648891808
40
0.40817396420037
40
0.40817396420037
40
0.41662862185465
40
0.41662862185465
40
0.425083279508931
40
0.425083279508931
40
0.441992594817493
40
0.441992594817493
40
0.458901910126054
40
0.458901910126054
40
0.475811225434616
40
0.475811225434616
40
0.484265883088896
40
0.484265883088896
40
0.488493211916037
40
0.488493211916037
40
0.492720540743177
40
0.492720540743177
40
0.509629856051738
40
0.509629856051738
40
0.5265391713603
40
0.5265391713603
40
0.53499382901458
40
0.53499382901458
40
0.543448486668861
40
0.543448486668861
40
0.551903144323141
40
0.551903144323141
40
0.560357801977421
40
0.560357801977421
40
0.577267117285982
40
0.577267117285982
40
0.594176432594543
40
0.594176432594543
40
0.602631090248824
40
0.602631090248824
40
0.611085747903104
40
0.611085747903104
40
0.615313076730244
40
0.615313076730244
40
0.619540405557385
40
0.627995063211665
40
0.627995063211665
40
0.644904378520226
40
0.644904378520226
40
0.653359036174507
40
0.653359036174507
40
0.661813693828787
40
0.661813693828787
40
0.670268351483068
40
0.670268351483068
40
0.678723009137348
40
0.678723009137348
40
0.695632324445908
40
0.695632324445908
40
0.712541639754468
40
0.712541639754468
40
0.729450955063028
40
0.729450955063028
40
0.737905612717308
40
0.737905612717308
40
0.746360270371588
40
0.746360270371588
40
0.763269585680149
40
0.763269585680149
40
0.78017890098871
40
0.78017890098871
40
0.797088216297271
40
0.797088216297271
40
0.805542873951552
40
0.805542873951552
40
0.813997531605832
40
0.813997531605832
40
0.830906846914394
40
0.830906846914394
40
0.847816162222956
40
0.847816162222956
40
0.856270819877237
40
0.856270819877237
40
0.864725477531518
40
0.864725477531518
40
0.881634792840079
40
0.881634792840079
40
0.890089450494359
40
0.890089450494359
40
0.89854410814864
40
0.89854410814864
40
0.915453423457201
40
0.915453423457201
40
0.923908081111481
40
0.923908081111481
40
0.932362738765761
40
0.932362738765761
40
0.949272054074321
40
0.949272054074321
40
0.966181369382881
40
0.966181369382881
40
0.983090684691441
40
0.983090684691441
40
0.991545342345721
40
0.991545342345721
40
1
40
1
40
1
40
1
41
1
10
23.3250247204647
20
5.63301054083442
30
0
41
1
10
23.3904762748407
20
5.64833671089778
30
0
41
1
10
23.4559326218777
20
5.66358650576072
30
0
41
1
10
23.9923331450366
20
5.78793042208571
30
0
41
1
10
24.4635128987413
20
5.89317273075295
30
0
41
1
10
25.4061582451471
20
6.09616712131563
30
0
41
1
10
25.8776176469458
20
6.19393058787662
30
0
41
1
10
26.584886396717
20
6.33507232260959
30
0
41
1
10
26.8206863562109
20
6.38125306123578
30
0
41
1
10
27.2920216083309
20
6.47144196040267
30
0
41
1
10
27.5276715973167
20
6.51531724387075
30
0
41
1
10
28.2346643146277
20
6.64320244770727
30
0
41
1
10
28.7059714299777
20
6.72360890696859
30
0
41
1
10
29.6482998207721
20
6.87527488397242
30
0
41
1
10
30.1193324495111
20
6.94651718744962
30
0
41
1
10
31.0609260390279
20
7.08006268286542
30
0
41
1
10
31.5314828547805
20
7.14236966337231
30
0
41
1
10
32.236835839677
20
7.22908728447965
30
0
41
1
10
32.4718779691077
20
7.25685587322357
30
0
41
1
10
32.9422504159527
20
7.30969472263737
30
0
41
1
10
33.1775386483558
20
7.33481207781114
30
0
41
1
10
33.8836363933803
20
7.40637649494425
30
0
41
1
10
34.3546705198293
20
7.44904958138005
30
0
41
1
10
35.2971459838656
20
7.52455999225927
30
0
41
1
10
35.7685890658796
20
7.55739668557385
30
0
41
1
10
36.475909099574
20
7.59926433624204
30
0
41
1
10
36.7117088543524
20
7.61198655006245
30
0
41
1
10
37.0654353617772
20
7.62919697401841
30
0
41
1
10
37.1833440870654
20
7.63462121758403
30
0
41
1
10
37.4190482316441
20
7.64483503505232
30
0
41
1
10
37.5368591951442
20
7.64962454511263
30
0
41
1
10
38.1258661532838
20
7.67192836897411
30
0
41
1
10
38.5971255231463
20
7.68446576859532
30
0
41
1
10
39.5395070657523
20
7.69931991206002
30
0
41
1
10
40.0106221100942
20
7.70163494590514
30
0
41
1
10
40.9525156102394
20
7.6961217950965
30
0
41
1
10
41.4232888190263
20
7.6882935792533
30
0
41
1
10
42.1290403835498
20
7.66880305054195
30
0
41
1
10
42.3642225599945
20
7.66101250235116
30
0
41
1
10
42.8344386983804
20
7.6428006854849
30
0
41
1
10
43.0695058329595
20
7.63238420818936
30
0
41
1
10
43.7751534766579
20
7.59744795602467
30
0
41
1
10
44.2459911698319
20
7.56919876205717
30
0
41
1
10
45.1881681821268
20
7.50283181043386
30
0
41
1
10
45.6595225090059
20
7.46471981106251
30
0
41
1
10
46.3668052187955
20
7.40002746216376
30
0
41
1
10
46.6026073977015
20
7.37720669869529
30
0
41
1
10
47.074271122117
20
7.32900496235769
30
0
41
1
10
47.3101920760823
20
7.30361723676714
30
0
41
1
10
47.7817517958736
20
7.25026175688723
30
0
41
1
10
48.01733276595
20
7.22225383867735
30
0
41
1
10
48.4884269704525
20
7.16390242701925
30
0
41
1
10
48.7239953902414
20
7.13362272560607
30
0
41
1
10
49.430713997695
20
7.03948107299985
30
0
41
1
10
49.9018564850405
20
6.97229993150964
30
0
41
1
10
50.8439115579706
20
6.82897711237283
30
0
41
1
10
51.3148327352515
20
6.752846020634
30
0
41
1
10
52.2562505020135
20
6.59130406323104
30
0
41
1
10
52.7267329801168
20
6.50586942862947
30
0
41
1
10
53.3144991752345
20
6.39301676701763
30
0
41
1
10
53.4320425464407
20
6.37015369955776
30
0
41
1
10
53.6671801966603
20
6.32395918284368
30
0
41
1
10
54.0199746877102
20
6.25398534432543
30
0
41
1
10
54.3730080525287
20
6.18194881849547
30
0
41
1
10
55.0793205602632
20
6.0350415609808
30
0
41
1
10
55.5505201745984
20
5.9333245866884
30
0
41
1
10
56.4933801052566
20
5.72203797933432
30
0
41
1
10
56.9650387842428
20
5.61246585427463
30
0
41
1
10
57.6727224617583
20
5.44180702152352
30
0
41
1
10
57.9086323732267
20
5.38387395627888
30
0
41
1
10
58.3800212327394
20
5.26595893231112
30
0
41
1
10
58.615517624969
20
5.20586993480623
30
0
41
1
10
59.3220197031447
20
5.02353079146056
30
0
41
1
10
59.7931281137269
20
4.89942915874946
30
0
41
1
10
60.735218714955
20
4.64553570722796
30
0
41
1
10
61.2062144247842
20
4.51577231072912
30
0
41
1
10
62.1479171641359
20
4.25019011643184
30
0
41
1
10
62.6186181732447
20
4.11435679264261
30
0
41
1
10
63.3243019631894
20
3.90562065165932
30
0
41
1
10
63.5594582592406
20
3.83518322489761
30
0
41
1
10
63.9121276432915
20
3.7283308224246
30
0
41
1
10
64.0296809254185
20
3.69253336432672
30
0
41
1
10
64.264853640226
20
3.6207661594035
30
0
41
1
10
64.3824701860713
20
3.58478928132467
30
0
41
1
10
64.9706881055305
20
3.40440540175066
30
0
41
1
10
65.4416824466481
20
3.25847380737309
30
0
41
1
10
66.3842260519352
20
2.96269881986612
30
0
41
1
10
66.8557890821049
20
2.81289142287395
30
0
41
1
10
67.5634211522089
20
2.5848637489726
30
0
41
1
10
67.7993864175972
20
2.50828600876329
30
0
41
1
10
68.2712062418914
20
2.35400266534083
30
0
41
1
10
68.5069729622364
20
2.27632681442765
30
0
41
1
10
68.9781994733118
20
2.11984494166654
30
0
41
1
10
69.2136225354182
20
2.04093312658836
30
0
41
1
10
69.6845437989039
20
1.88307304344218
30
0
41
1
10
69.920034626903
20
1.80410438488195
30
0
41
1
10
70.6265277608541
20
1.56688826673903
30
0
41
1
10
71.097539267666
20
1.40829840455601
30
0
41
1
10
72.0393880175096
20
1.08964554934443
30
0
41
1
10
72.5102306618411
20
0.929598197524513
30
0
41
1
10
73.2162120958812
20
0.687975351115909
30
0
41
1
10
73.4514921481957
20
0.607175539361776
30
0
41
1
10
73.9219380865797
20
0.444996851624779
30
0
41
1
10
74.1570858719146
20
0.363564876356548
30
0
41
1
10
74.5097769346759
20
0.2411408203196
30
0
41
1
10
74.6273464557422
20
0.200318838208005
30
0
41
1
10
74.8625587778658
20
0.118828099346274
30
0
41
1
10
75.2154694212024
20
-0.003230205206961
30
0
41
1
10
75.5686273817118
20
-0.124838135927604
30
0
41
1
10
76.2752026657683
20
-0.367656650352956
30
0
41
1
10
76.7466018553825
20
-0.528995833467548
30
0
41
1
10
77.4540841828007
20
-0.770606056841928
30
0
41
1
10
77.6899751860288
20
-0.851077640460915
30
0
41
1
10
78.1618586639306
20
-1.0119683763433
30
0
41
1
10
78.397880379126
20
-1.09239809955565
30
0
41
1
10
78.869533513727
20
-1.25311073266798
30
0
41
1
10
79.1052200515821
20
-1.33341158455033
30
0
41
1
10
79.5762927028842
20
-1.49395009309879
30
0
41
1
10
79.8116560536425
20
-1.57425158286816
30
0
41
1
10
80.5179300119436
20
-1.81321318626291
30
0
41
1
10
80.9889019517539
20
-1.97030076364678
30
0
41
1
10
81.9307688070319
20
-2.28105609264597
30
0
41
1
10
82.4016786635849
20
-2.43468002425385
30
0
41
1
10
83.343256865604
20
-2.73897159920119
30
0
41
1
10
83.8139189568009
20
-2.88965638968364
30
0
41
1
10
84.5195856372034
20
-3.11380677481893
30
0
41
1
10
84.7547288374675
20
-3.18827527155995
30
0
41
1
10
85.2250292634891
20
-3.33624290217261
30
0
41
1
10
85.4602731163345
20
-3.4095121580433
30
0
41
1
10
86.1663959459738
20
-3.62690658412512
30
0
41
1
10
86.6375792095173
20
-3.7688527355015
30
0
41
1
10
87.5805551908862
20
-4.04750603097111
30
0
41
1
10
88.0523601607285
20
-4.18418306495758
30
0
41
1
10
88.9963998383722
20
-4.45271107120158
30
0
41
1
10
89.4679551751169
20
-4.58437994510044
30
0
41
1
10
90.1744629771537
20
-4.7781728000574
30
0
41
1
10
90.4098290333688
20
-4.84214304723045
30
0
41
1
10
90.8807343908725
20
-4.96781494160177
30
0
41
1
10
91.1162325079752
20
-5.02961544203819
30
0
41
1
10
91.8227922663528
20
-5.21211365141673
30
0
41
1
10
92.2939109043443
20
-5.32993147579043
30
0
41
1
10
93.2361103537531
20
-5.5583750992358
30
0
41
1
10
93.7071931306168
20
-5.66899717106162
30
0
41
1
10
94.4136327566079
20
-5.82978909165831
30
0
41
1
10
94.6490822785376
20
-5.88252712129741
30
0
41
1
10
95.1199016348017
20
-5.98629528678615
30
0
41
1
10
95.3552385913127
20
-6.03738384463509
30
0
41
1
10
96.0614032413669
20
-6.18754837191363
30
0
41
1
10
96.5327333983952
20
-6.28291491695859
30
0
41
1
10
97.2403667751028
20
-6.41932731525623
30
0
41
1
10
97.4763795046698
20
-6.46369962231165
30
0
41
1
10
97.9484520954967
20
-6.55025592018984
30
0
41
1
10
98.1844208784835
20
-6.59242289929574
30
0
41
1
10
98.8920886260813
20
-6.71565270252089
30
0
41
1
10
99.3635450815954
20
-6.79345818797941
30
0
41
1
10
100.070096432569
20
-6.90375747524169
30
0
41
1
10
100.305507787301
20
-6.93945388394314
30
0
41
1
10
100.776105505647
20
-7.00868826773706
30
0
41
1
10
101.011323505774
20
-7.04218113204067
30
0
41
1
10
101.717313357608
20
-7.13862682346431
30
0
41
1
10
102.18823185897
20
-7.19780028598672
30
0
41
1
10
103.130278787596
20
-7.30644219437988
30
0
41
1
10
103.601422299746
20
-7.35589260501354
30
0
41
1
10
104.543749672183
20
-7.44521548797053
30
0
41
1
10
105.014927544081
20
-7.48509228810133
30
0
41
1
10
105.721590487216
20
-7.5376442493469
30
0
41
1
10
105.957089725615
20
-7.553967934513
30
0
41
1
10
106.428305475939
20
-7.58401125472534
30
0
41
1
10
106.664078932024
20
-7.59770521245918
30
0
41
1
10
106.9
20
-7.61009999490261
30
0
0
SPLINE
5
CD
100
AcDbEntity
8
1
62
256
6
ByLayer
370
18
48
1
60
0
100
AcDbSpline
70
4
71
3
72
150
73
146
40
0
40
0
40
0
40
0
40
0.0165188375202092
40
0.0165188375202092
40
0.025625144580206
40
0.025625144580206
40
0.0347314516402029
40
0.0347314516402029
40
0.0529440657601966
40
0.0529440657601966
40
0.0711566798801903
40
0.0711566798801903
40
0.0802629869401871
40
0.0802629869401871
40
0.089369294000184
40
0.089369294000184
40
0.107581908120179
40
0.107581908120179
40
0.125794522240173
40
0.125794522240173
40
0.144007136360168
40
0.144007136360168
40
0.153113443420165
40
0.153113443420165
40
0.162219750480162
40
0.162219750480162
40
0.180432364600158
40
0.180432364600158
40
0.198644978720153
40
0.198644978720153
40
0.207751285780151
40
0.207751285780151
40
0.216857592840148
40
0.216857592840148
40
0.225963899900146
40
0.225963899900146
40
0.235070206960143
40
0.235070206960143
40
0.253282821080137
40
0.253282821080137
40
0.271495435200132
40
0.271495435200132
40
0.28060174226013
40
0.28060174226013
40
0.289708049320127
40
0.289708049320127
40
0.307920663440122
40
0.307920663440122
40
0.326133277560117
40
0.326133277560117
40
0.344345891680112
40
0.344345891680112
40
0.35345219874011
40
0.35345219874011
40
0.362558505800107
40
0.362558505800107
40
0.380771119920102
40
0.380771119920102
40
0.398983734040098
40
0.398983734040098
40
0.408090041100095
40
0.408090041100095
40
0.417196348160092
40
0.417196348160092
40
0.435408962280088
40
0.435408962280088
40
0.453621576400083
40
0.453621576400083
40
0.471834190520078
40
0.471834190520078
40
0.480940497580075
40
0.480940497580075
40
0.490046804640073
40
0.490046804640073
40
0.508259418760068
40
0.508259418760068
40
0.526472032880064
40
0.526472032880064
40
0.535578339940062
40
0.535578339940062
40
0.54468464700006
40
0.54468464700006
40
0.562897261120056
40
0.562897261120056
40
0.581109875240053
40
0.581109875240053
40
0.59932248936005
40
0.59932248936005
40
0.608428796420048
40
0.608428796420048
40
0.617535103480046
40
0.617535103480046
40
0.635747717600043
40
0.635747717600043
40
0.65396033172004
40
0.65396033172004
40
0.672172945840037
40
0.672172945840037
40
0.681279252900035
40
0.681279252900035
40
0.690385559960034
40
0.690385559960034
40
0.708598174080032
40
0.708598174080032
40
0.72681078820003
40
0.72681078820003
40
0.735917095260029
40
0.735917095260029
40
0.745023402320028
40
0.745023402320028
40
0.763236016440025
40
0.763236016440025
40
0.781448630560023
40
0.781448630560023
40
0.799661244680021
40
0.799661244680021
40
0.80876755174002
40
0.80876755174002
40
0.817873858800019
40
0.817873858800019
40
0.836086472920018
40
0.836086472920018
40
0.845192779980017
40
0.845192779980017
40
0.854299087040016
40
0.854299087040016
40
0.863405394100015
40
0.863405394100015
40
0.872511701160015
40
0.872511701160015
40
0.890724315280013
40
0.890724315280013
40
0.908936929400011
40
0.908936929400011
40
0.92714954352001
40
0.92714954352001
40
0.936255850580008
40
0.936255850580008
40
0.945362157640007
40
0.945362157640007
40
0.963574771760005
40
0.963574771760005
40
0.981787385880002
40
0.981787385880002
40
1
40
1
40
1
40
1
41
1
10
93.5508348339223
20
-5.6326081220445
30
0
41
1
10
93.1071850306147
20
-5.7366198890609
30
0
41
1
10
92.6637588084944
20
-5.83747599571018
30
0
41
1
10
91.9762895402097
20
-5.98905829353652
30
0
41
1
10
91.732055592375
20
-6.04194718600309
30
0
41
1
10
91.24340992251
20
-6.14519808506256
30
0
41
1
10
90.9990293711082
20
-6.19562009862287
30
0
41
1
10
90.2657338365077
20
-6.34334211313532
30
0
41
1
10
89.7766662886056
20
-6.43710526600711
30
0
41
1
10
88.7982063692054
20
-6.61538824177725
30
0
41
1
10
88.3088119718032
20
-6.69990587511708
30
0
41
1
10
87.5745581548973
20
-6.81979727017728
30
0
41
1
10
87.3297794981914
20
-6.85861156225155
30
0
41
1
10
86.8401766083402
20
-6.93392560251235
30
0
41
1
10
86.5953760985605
20
-6.97045210961366
30
0
41
1
10
85.8604582643747
20
-7.07596062103579
30
0
41
1
10
85.3705793635557
20
-7.14086811619913
30
0
41
1
10
84.3912882224844
20
-7.26011924611532
30
0
41
1
10
83.9018325124472
20
-7.3144660613624
30
0
41
1
10
82.9233863824012
20
-7.41272889995344
30
0
41
1
10
82.434400506648
20
-7.45664939483305
30
0
41
1
10
81.7013584876421
20
-7.51465984810247
30
0
41
1
10
81.4571142727274
20
-7.53269902134232
30
0
41
1
10
80.9685557392612
20
-7.56599537375391
30
0
41
1
10
80.7242125320963
20
-7.58124043245073
30
0
41
1
10
79.9910076023936
20
-7.62282133286129
30
0
41
1
10
79.501973685774
20
-7.64501071703987
30
0
41
1
10
78.5235310431511
20
-7.6784625247908
30
0
41
1
10
78.0341196135926
20
-7.68972494335191
30
0
41
1
10
77.2997958366866
20
-7.69837187220207
30
0
41
1
10
77.0549876987966
20
-7.69987802679427
30
0
41
1
10
76.5653132584899
20
-7.70010775662715
30
0
41
1
10
76.3204685427886
20
-7.69882868544468
30
0
41
1
10
75.8306062518017
20
-7.69345829508123
30
0
41
1
10
75.5856628195679
20
-7.68937589645711
30
0
41
1
10
75.0958899086233
20
-7.67846180215028
30
0
41
1
10
74.8510396882373
20
-7.67162913515804
30
0
41
1
10
74.116614660025
20
-7.64704108441461
30
0
41
1
10
73.6271634584
20
-7.62520239388024
30
0
41
1
10
72.6486725707825
20
-7.57067583414917
30
0
41
1
10
72.1596342386692
20
-7.53798824359336
30
0
41
1
10
71.4264749144618
20
-7.48068096812241
30
0
41
1
10
71.1821649892282
20
-7.46018954383626
30
0
41
1
10
70.6936348385143
20
-7.41644501333894
30
0
41
1
10
70.4493552659651
20
-7.39323558548455
30
0
41
1
10
69.7162565377628
20
-7.31980694502241
30
0
41
1
10
69.2272655254768
20
-7.2657284815067
30
0
41
1
10
68.2488593227781
20
-7.14736322872736
30
0
41
1
10
67.7594414168505
20
-7.08307946811965
30
0
41
1
10
66.7802708795035
20
-6.94414715910168
30
0
41
1
10
66.2905293283508
20
-6.86948417726282
30
0
41
1
10
65.5557183890452
20
-6.74945502225592
30
0
41
1
10
65.310828902099
20
-6.7081706104679
30
0
41
1
10
64.8211205316712
20
-6.62348084614069
30
0
41
1
10
64.5762959481976
20
-6.58002745571986
30
0
41
1
10
63.8419281612323
20
-6.44635201930666
30
0
41
1
10
63.3524907700637
20
-6.352819662342
30
0
41
1
10
62.3739754897506
20
-6.15687900387655
30
0
41
1
10
61.8848961225685
20
-6.05447407519102
30
0
41
1
10
61.1516343460427
20
-5.894003781729
30
0
41
1
10
60.9072728095975
20
-5.83936937795497
30
0
41
1
10
60.4186792120281
20
-5.72776782306681
30
0
41
1
10
60.1744532716867
20
-5.67078458955157
30
0
41
1
10
59.4414759501053
20
-5.49730186512323
30
0
41
1
10
58.9525379143313
20
-5.37806508065805
30
0
41
1
10
57.9741874409571
20
-5.13234953600903
30
0
41
1
10
57.4847726101037
20
-5.00587574989987
30
0
41
1
10
56.5055520026349
20
-4.74548167131238
30
0
41
1
10
56.0157515368113
20
-4.6115496504078
30
0
41
1
10
55.280832119898
20
-4.4047601877154
30
0
41
1
10
55.035949813
20
-4.33480115291522
30
0
41
1
10
54.5463154052046
20
-4.19372004620087
30
0
41
1
10
54.3015217073637
20
-4.12258506608052
30
0
41
1
10
53.5672257987749
20
-3.90738085921936
30
0
41
1
10
53.0778110392721
20
-3.76150906859226
30
0
41
1
10
52.0992906331743
20
-3.46481543150119
30
0
41
1
10
51.6101822648936
20
-3.31400098193305
30
0
41
1
10
50.8768325069879
20
-3.08383807129434
30
0
41
1
10
50.6324352643442
20
-3.0064580851278
30
0
41
1
10
50.1437569184533
20
-2.85034124061553
30
0
41
1
10
49.8995041594002
20
-2.77152613577221
30
0
41
1
10
49.1666577668497
20
-2.53374698863868
30
0
41
1
10
48.677786599912
20
-2.37397735308943
30
0
41
1
10
47.699511021419
20
-2.05178842743689
30
0
41
1
10
47.2101086055247
20
-1.88936358228904
30
0
41
1
10
46.2308592528398
20
-1.56161414232017
30
0
41
1
10
45.7410147360999
20
-1.39628295086624
30
0
41
1
10
45.0059935549853
20
-1.1458247821007
30
0
41
1
10
44.7610421907734
20
-1.06190582611146
30
0
41
1
10
44.2714579770122
20
-0.893660207686196
30
0
41
1
10
44.0267120981654
20
-0.809508100052625
30
0
41
1
10
43.2925032287611
20
-0.55728539493154
30
0
41
1
10
42.8031198957747
20
-0.38929693652571
30
0
41
1
10
41.8246133105671
20
-0.0533861797998156
30
0
41
1
10
41.3354872926047
20
0.114527996440387
30
0
41
1
10
40.357590711939
20
0.450568639721325
30
0
41
1
10
39.8688427806074
20
0.618761129256796
30
0
41
1
10
39.1360108321027
20
0.871265049659144
30
0
41
1
10
38.8917222511447
20
0.955294894699762
30
0
41
1
10
38.4029344119588
20
1.12253225891419
30
0
41
1
10
38.1584612622378
20
1.20581593178045
30
0
41
1
10
37.4248249580419
20
1.45472503023814
30
0
41
1
10
36.9354442629995
20
1.61940701678225
30
0
41
1
10
35.9561865844825
20
1.94650027620506
30
0
41
1
10
35.4663089101907
20
2.10890965370149
30
0
41
1
10
34.731200285354
20
2.35104211703876
30
0
41
1
10
34.4861771399219
20
2.43148471091593
30
0
41
1
10
33.9965104531612
20
2.59173238023447
30
0
41
1
10
33.7517961086376
20
2.67149473002684
30
0
41
1
10
33.0175702806898
20
2.90848699810431
30
0
41
1
10
32.5281032292733
20
3.06378620480805
30
0
41
1
10
31.54929114052
20
3.36933035385408
30
0
41
1
10
31.0599435089766
20
3.51956827397694
30
0
41
1
10
30.081457022147
20
3.81521900432193
30
0
41
1
10
29.5923241201816
20
3.96064727110021
30
0
41
1
10
28.8588638076671
20
4.17530685907926
30
0
41
1
10
28.6144340887952
20
4.24631849956978
30
0
41
1
10
28.1253366969925
20
4.38639457006167
30
0
41
1
10
27.8806907001027
20
4.45551452368343
30
0
41
1
10
27.1464802115774
20
4.66018627032625
30
0
41
1
10
26.6566455601462
20
4.79305861292377
30
0
41
1
10
25.9214154873236
20
4.98717546964875
30
0
41
1
10
25.6761938977016
20
5.05103109285784
30
0
41
1
10
25.1860630885389
20
5.17691308558699
30
0
41
1
10
24.9411280422825
20
5.23894716852513
30
0
41
1
10
24.4515351871268
20
5.36123037442468
30
0
41
1
10
24.2068769889428
20
5.42147856419419
30
0
41
1
10
23.7178488790256
20
5.54019464072349
30
0
41
1
10
23.473510320965
20
5.59872429253139
30
0
41
1
10
22.7405654444863
20
5.77087743847201
30
0
41
1
10
22.25197482224
20
5.88097713978704
30
0
41
1
10
21.2749591393977
20
6.09220880470696
30
0
41
1
10
20.7865323412977
20
6.19333706158838
30
0
41
1
10
19.8099251794945
20
6.38680555584008
30
0
41
1
10
19.3217481987659
20
6.47915219495886
30
0
41
1
10
18.5897543227825
20
6.61112413378078
30
0
41
1
10
18.3458249865831
20
6.65405521117864
30
0
41
1
10
17.8579219513069
20
6.7375061081994
30
0
41
1
10
17.6138910812265
20
6.7779448966761
30
0
41
1
10
16.8815287384897
20
6.89539372756786
30
0
41
1
10
16.3929500686088
20
6.96857443059739
30
0
41
1
10
15.4152075822069
20
7.104900998413
30
0
41
1
10
14.9260424918661
20
7.16804567540646
30
0
41
1
10
13.947215795514
20
7.28432363842745
30
0
41
1
10
13.4575547300876
20
7.33745930232956
30
0
41
1
10
12.9677094157164
20
7.38551839725656
30
0
0
SPLINE
5
CE
100
AcDbEntity
8
1
62
256
6
ByLayer
370
18
48
1
60
0
100
AcDbSpline
70
4
71
3
72
14
73
10
40
0
40
0
40
0
40
0
40
0.205403183278107
40
0.205403183278107
40
0.470268788852072
40
0.470268788852072
40
0.735134394426035
40
0.735134394426035
40
1
40
1
40
1
40
1
41
1
10
7.99524734519918
20
8.06586669205325
30
0
41
1
10
8.13078477855839
20
8.04109624956584
30
0
41
1
10
8.2668165402842
20
8.0152566457555
30
0
41
1
10
8.57925863301915
20
7.95378364662213
30
0
41
1
10
8.75601926225241
20
7.9174648208317
30
0
41
1
10
9.11012715619839
20
7.84180154066846
30
0
41
1
10
9.2875574873427
20
7.80244050891272
30
0
41
1
10
9.64317903480543
20
7.72081813117751
30
0
41
1
10
9.82137017773127
20
7.67855553139464
30
0
41
1
10
10
20
7.6349205030474
30
0
0
SPLINE
5
CF
100
AcDbEntity
8
1
62
256
6
ByLayer
370
18
48
1
60
0
100
AcDbSpline
70
4
71
3
72
100
73
96
40
0
40
0
40
0
40
0
40
0.0624999999999984
40
0.0624999999999984
40
0.124999999999997
40
0.124999999999997
40
0.156249999999996
40
0.156249999999996
40
0.187499999999995
40
0.187499999999995
40
0.203124999999995
40
0.203124999999995
40
0.218749999999995
40
0.218749999999995
40
0.249999999999993
40
0.249999999999993
40
0.281249999999991
40
0.281249999999991
40
0.29687499999999
40
0.29687499999999
40
0.30468749999999
40
0.30468749999999
40
0.312499999999989
40
0.312499999999989
40
0.343749999999989
40
0.343749999999989
40
0.374999999999989
40
0.374999999999989
40
0.382812499999989
40
0.382812499999989
40
0.39062499999999
40
0.39062499999999
40
0.40624999999999
40
0.40624999999999
40
0.421874999999991
40
0.421874999999991
40
0.429687499999992
40
0.433593749999992
40
0.433593749999992
40
0.437499999999993
40
0.437499999999993
40
0.468749999999994
40
0.468749999999994
40
0.484374999999995
40
0.484374999999995
40
0.488281249999995
40
0.488281249999995
40
0.492187499999995
40
0.492187499999995
40
0.499999999999996
40
0.499999999999996
40
0.531249999999998
40
0.531249999999998
40
0.535156249999999
40
0.535156249999999
40
0.539062499999999
40
0.539062499999999
40
0.546875
40
0.546875
40
0.562500000000001
40
0.562500000000001
40
0.593750000000002
40
0.593750000000002
40
0.601562500000002
40
0.601562500000002
40
0.609375000000002
40
0.609375000000002
40
0.625000000000003
40
0.625000000000003
40
0.656250000000005
40
0.656250000000005
40
0.687500000000007
40
0.687500000000007
40
0.695312500000008
40
0.695312500000008
40
0.703125000000008
40
0.718750000000008
40
0.718750000000008
40
0.750000000000007
40
0.750000000000007
40
0.781250000000006
40
0.781250000000006
40
0.812500000000005
40
0.812500000000005
40
0.843750000000004
40
0.843750000000004
40
0.875000000000004
40
0.875000000000004
40
0.906250000000003
40
0.906250000000003
40
0.937500000000002
40
0.937500000000002
40
0.968750000000001
40
0.968750000000001
40
1
40
1
40
1
40
1
41
1
10
10
20
-2.87858582882214
30
0
41
1
10
9.60429962571578
20
-2.947367517342
30
0
41
1
10
9.2135357133013
20
-3.03205774044841
30
0
41
1
10
8.44210710064698
20
-3.23434972279392
30
0
41
1
10
8.06143488152978
20
-3.35192455336738
30
0
41
1
10
7.49831713559027
20
-3.55444742295995
30
0
41
1
10
7.31192854788392
20
-3.62632446899346
30
0
41
1
10
6.94188300847909
20
-3.77924075865693
30
0
41
1
10
6.75822537046059
20
-3.86027738018566
30
0
41
1
10
6.48489541457846
20
-3.98915911327023
30
0
41
1
10
6.39414527896906
20
-4.03334251698544
30
0
41
1
10
6.21338938566731
20
-4.12425699168
30
0
41
1
10
6.1232704892937
20
-4.1710532701149
30
0
41
1
10
5.85599706090366
20
-4.31439191931656
30
0
41
1
10
5.68137463668799
20
-4.41413561495085
30
0
41
1
10
5.33975120579996
20
-4.62228154838462
30
0
41
1
10
5.17274543633388
20
-4.73067949741483
30
0
41
1
10
4.92855045624367
20
-4.90019125583063
30
0
41
1
10
4.84820716036566
20
-4.9578501730187
30
0
41
1
10
4.72938313173128
20
-5.04615442775395
30
0
41
1
10
4.69003804439831
20
-5.07590685210471
30
0
41
1
10
4.61201542590379
20
-5.13597196081335
30
0
41
1
10
4.5734408407896
20
-5.16620491995397
30
0
41
1
10
4.38280011284581
20
-5.3183699492613
30
0
41
1
10
4.23739398145122
20
-5.44329101672233
30
0
41
1
10
3.96256504411105
20
-5.69963646086435
30
0
41
1
10
3.83311421800107
20
-5.83105278849337
30
0
41
1
10
3.68320128663703
20
-5.99971574376775
30
0
41
1
10
3.6538183730033
20
-6.0336693708301
30
0
41
1
10
3.59632243802901
20
-6.10203375846282
30
0
41
1
10
3.56839445970127
20
-6.13622491156349
30
0
41
1
10
3.48714025711445
20
-6.23879526937827
30
0
41
1
10
3.43633512682004
20
-6.30717613806848
30
0
41
1
10
3.34187657530336
20
-6.44383733170395
30
0
41
1
10
3.29822143842364
20
-6.51211774620873
30
0
41
1
10
3.23854408445891
20
-6.61438596232671
30
0
41
1
10
3.21015894790821
20
-6.66548194479134
30
0
41
1
10
3.18406093431105
20
-6.71650589835295
30
0
41
1
10
3.16718433081815
20
-6.75050417201419
30
0
41
1
10
3.15899734813237
20
-6.76751530484498
30
0
41
1
10
3.08793291026458
20
-6.92008740367649
30
0
41
1
10
3.04419462259369
20
-7.04989587115853
30
0
41
1
10
3.00868591650686
20
-7.23522749787324
30
0
41
1
10
3.0018868400617
20
-7.29543773578905
30
0
41
1
10
2.99995756390433
20
-7.36864041742689
30
0
41
1
10
2.99990069541872
20
-7.38317784664022
30
0
41
1
10
3.00045387280096
20
-7.41204352847598
30
0
41
1
10
3.00106541149967
20
-7.42639231510987
30
0
41
1
10
3.00390467943743
20
-7.46897376245391
30
0
41
1
10
3.00712450499009
20
-7.49662829137176
30
0
41
1
10
3.02964541062227
20
-7.63135508732907
30
0
41
1
10
3.0680991194651
20
-7.72783964254586
30
0
41
1
10
3.13242573386521
20
-7.82489243441449
30
0
41
1
10
3.13986743146265
20
-7.83551570754989
30
0
41
1
10
3.15533547048142
20
-7.85644453180032
30
0
41
1
10
3.16337233126495
20
-7.86676271356083
30
0
41
1
10
3.18827672991532
20
-7.89715093085934
30
0
41
1
10
3.20589467259299
20
-7.91660897732675
30
0
41
1
10
3.26161769792961
20
-7.97273224561994
30
0
41
1
10
3.3025857829268
20
-8.00715155681957
30
0
41
1
10
3.4358137461052
20
-8.1024160224386
30
0
41
1
10
3.5383440619097
20
-8.1553119795405
30
0
41
1
10
3.6810506511755
20
-8.2105219442218
30
0
41
1
10
3.71036326271093
20
-8.2210254945966
30
0
41
1
10
3.76996204273797
20
-8.24084293009599
30
0
41
1
10
3.80029273352594
20
-8.25017616014358
30
0
41
1
10
3.8927803342705
20
-8.27656987573323
30
0
41
1
10
3.95642977289265
20
-8.29202813278752
30
0
41
1
10
4.15269445046309
20
-8.33279320549957
30
0
41
1
10
4.29059927060294
20
-8.35252535765486
30
0
41
1
10
4.57795830347612
20
-8.38020654603136
30
0
41
1
10
4.72742724615392
20
-8.38813826547113
30
0
41
1
10
4.92033977932505
20
-8.39201005035054
30
0
41
1
10
4.95916715336193
20
-8.39247895806224
30
0
41
1
10
5.03711516625509
20
-8.39284034775812
30
0
41
1
10
5.15455801792299
20
-8.3925187757024
30
0
41
1
10
5.27347491479154
20
-8.38976611332023
30
0
41
1
10
5.51306944754771
20
-8.38137610163173
30
0
41
1
10
5.67514026375318
20
-8.37195154826063
30
0
41
1
10
6.0030761434588
20
-8.34688158745954
30
0
41
1
10
6.16894369973735
20
-8.33123042431339
30
0
41
1
10
6.50377388326041
20
-8.29471533898348
30
0
41
1
10
6.67273765218494
20
-8.27384809787353
30
0
41
1
10
7.0131893124784
20
-8.22762464068265
30
0
41
1
10
7.18467758612209
20
-8.20226631056931
30
0
41
1
10
7.52971463934236
20
-8.14757757412818
30
0
41
1
10
7.70326335522623
20
-8.11824564006727
30
0
41
1
10
8.05206132348866
20
-8.05597224521458
30
0
41
1
10
8.22731027471519
20
-8.02302950570476
30
0
41
1
10
8.57925863301915
20
-7.95378364662213
30
0
41
1
10
8.75601926225241
20
-7.9174648208317
30
0
41
1
10
9.11012715619839
20
-7.84180154066846
30
0
41
1
10
9.28755748734267
20
-7.8024405089127
30
0
41
1
10
9.64317903480543
20
-7.72081813117748
30
0
41
1
10
9.82137017773127
20
-7.67855553139464
30
0
41
1
10
10
20
-7.6349205030474
30
0
0
SPLINE
5
D0
100
AcDbEntity
8
1
62
256
6
ByLayer
370
18
48
1
60
0
100
AcDbSpline
70
4
71
3
72
14
73
10
40
0
40
0
40
0
40
0
40
0.25
40
0.25
40
0.5
40
0.5
40
0.75
40
0.75
40
1
40
1
40
1
40
1
41
1
10
12.9677094157164
20
-7.38551839725656
30
0
41
1
10
12.7159370328904
20
-7.41089678431752
30
0
41
1
10
12.4655953979843
20
-7.43572978124155
30
0
41
1
10
11.9671950397788
20
-7.48327224536081
30
0
41
1
10
11.7191343389132
20
-7.50598263908344
30
0
41
1
10
11.2248928895843
20
-7.54848926171908
30
0
41
1
10
10.9787108697085
20
-7.56828830418209
30
0
41
1
10
10.4880543896483
20
-7.60436910256601
30
0
41
1
10
10.2435795754876
20
-7.62065515801029
30
0
41
1
10
10
20
-7.63492050304743
30
0
0
SPLINE
5
D1
100
AcDbEntity
8
1
62
256
6
ByLayer
370
18
48
1
60
0
100
AcDbSpline
70
4
71
4
72
13
73
8
40
0
40
0
40
0
40
0
40
0
40
0.223532901236373
40
0.223532901236373
40
0.223532901236373
40
1
40
1
40
1
40
1
40
1
41
0.998275427958682
10
14.1162388713531
20
-3.14498402733254
30
0
41
0.998933138972863
10
14.0284411304283
20
-3.31645794997666
30
0
41
0.999560009701362
10
13.943553305012
20
-3.49993074507297
30
0
41
1
10
13.8623054256409
20
-3.69314699909538
30
0
41
1
10
13.5177609633079
20
-4.58795729453269
30
0
41
0.994691078456578
10
13.2658537585702
20
-5.45789998156141
30
0
41
0.994681733113663
10
13.0793303145127
20
-6.43151210336029
30
0
41
0.996448247546704
10
12.9677094157163
20
-7.38551839725658
30
0
0
SPLINE
5
D2
100
AcDbEntity
8
1
62
256
6
ByLayer
370
18
48
1
60
0
100
AcDbSpline
70
4
71
3
72
23
73
19
40
0
40
0
40
0
40
0
40
0.124999999999999
40
0.124999999999999
40
0.249999999999998
40
0.249999999999998
40
0.374999999999997
40
0.374999999999997
40
0.499999999999996
40
0.499999999999996
40
0.562499999999995
40
0.593749999999995
40
0.593749999999995
40
0.624999999999995
40
0.624999999999995
40
0.749999999999996
40
0.749999999999996
40
1
40
1
40
1
40
1
41
1
10
10
20
-2.87858582882214
30
0
41
1
10
10.2754435276997
20
-2.85282773481811
30
0
41
1
10
10.5501492816679
20
-2.83704039094812
30
0
41
1
10
11.0982052732151
20
-2.82393785990274
30
0
41
1
10
11.3715548890411
20
-2.82662949384601
30
0
41
1
10
11.9169943821279
20
-2.84915421261587
30
0
41
1
10
12.1890837976788
20
-2.86899233437282
30
0
41
1
10
12.7320920411837
20
-2.92442445352788
30
0
41
1
10
13.0030105159816
20
-2.96002201395086
30
0
41
1
10
13.4085812562885
20
-3.02405843606664
30
0
41
1
10
13.6111649971545
20
-3.05873401347685
30
0
41
1
10
13.8134610862041
20
-3.09714710246109
30
0
41
1
10
13.9482629871361
20
-3.12355674186355
30
0
41
1
10
14.0156505393825
20
-3.13716611787226
30
0
41
1
10
14.3518264757921
20
-3.20700963908337
30
0
41
1
10
14.6187853653782
20
-3.26872054837412
30
0
41
1
10
15.4146199060774
20
-3.46790742382711
30
0
41
1
10
15.9384714510076
20
-3.61934512830749
30
0
41
1
10
16.4579846464234
20
-3.78061978758692
30
0
0
SPLINE
5
D3
100
AcDbEntity
8
1
62
256
6
ByLayer
370
13
48
1
60
0
100
AcDbSpline
70
4
71
3
72
79
73
75
40
0
40
0
40
0
40
0
40
0.0312500000000004
40
0.0312500000000004
40
0.0625000000000009
40
0.0625000000000009
40
0.0937500000000013
40
0.0937500000000013
40
0.125000000000002
40
0.125000000000002
40
0.156250000000002
40
0.156250000000002
40
0.187500000000003
40
0.187500000000003
40
0.218750000000003
40
0.218750000000003
40
0.250000000000004
40
0.250000000000004
40
0.281250000000004
40
0.281250000000004
40
0.312500000000004
40
0.312500000000004
40
0.343750000000005
40
0.343750000000005
40
0.351562500000005
40
0.351562500000005
40
0.359375000000004
40
0.359375000000004
40
0.375000000000004
40
0.375000000000004
40
0.406250000000004
40
0.406250000000004
40
0.437500000000003
40
0.437500000000003
40
0.468750000000003
40
0.468750000000003
40
0.500000000000002
40
0.500000000000002
40
0.531250000000002
40
0.531250000000002
40
0.562500000000001
40
0.562500000000001
40
0.593750000000001
40
0.593750000000001
40
0.625
40
0.625
40
0.65625
40
0.65625
40
0.6875
40
0.6875
40
0.6953125
40
0.699218749999999
40
0.699218749999999
40
0.703124999999999
40
0.703124999999999
40
0.718749999999999
40
0.718749999999999
40
0.749999999999999
40
0.749999999999999
40
0.781249999999999
40
0.781249999999999
40
0.812499999999999
40
0.812499999999999
40
0.84375
40
0.84375
40
0.875
40
0.875
40
0.90625
40
0.90625
40
0.9375
40
0.9375
40
0.96875
40
0.96875
40
1
40
1
40
1
40
1
41
1
10
109.379801463385
20
8.136
30
0
41
1
10
109.443957054121
20
8.136
30
0
41
1
10
109.508112644857
20
8.11440447279915
30
0
41
1
10
109.636423826328
20
8.02191096066716
30
0
41
1
10
109.700579417064
20
7.95098158974628
30
0
41
1
10
109.828890598535
20
7.75557377724684
30
0
41
1
10
109.893046189271
20
7.63106854051651
30
0
41
1
10
110.021357370742
20
7.32708631025875
30
0
41
1
10
110.085512961478
20
7.14759470999348
30
0
41
1
10
110.213824142949
20
6.73569136299565
30
0
41
1
10
110.277979733685
20
6.50328312651763
30
0
41
1
10
110.406290915156
20
5.99125869899993
30
0
41
1
10
110.470446505892
20
5.71166559806633
30
0
41
1
10
110.598757687363
20
5.11424544856533
30
0
41
1
10
110.662913278099
20
4.79645679173487
30
0
41
1
10
110.79122445957
20
4.13393708078738
30
0
41
1
10
110.855380050306
20
3.78925096721062
30
0
41
1
10
110.983691231777
20
3.08525853984983
30
0
41
1
10
111.047846822513
20
2.72599377414471
30
0
41
1
10
111.176158003984
20
2.0048616553924
30
0
41
1
10
111.24031359472
20
1.64302483838455
30
0
41
1
10
111.368624776191
20
0.927354276311007
30
0
41
1
10
111.432780366927
20
0.573536738489082
30
0
41
1
10
111.512974855347
20
0.141569201811279
30
0
41
1
10
111.52901375303
20
0.0558984977402019
30
0
41
1
10
111.561091548398
20
-0.115257363402861
30
0
41
1
10
111.577130446082
20
-0.201387158505099
30
0
41
1
10
111.625247139134
20
-0.461265347890048
30
0
41
1
10
111.657324934502
20
-0.636507136306761
30
0
41
1
10
111.753558320605
20
-1.16669987264362
30
0
41
1
10
111.817713911341
20
-1.52618268062318
30
0
41
1
10
111.946025092812
20
-2.24751013743739
30
0
41
1
10
112.010180683548
20
-2.60933044903896
30
0
41
1
10
112.138491865019
20
-3.32385032755934
30
0
41
1
10
112.202647455755
20
-3.67651250949214
30
0
41
1
10
112.330958637226
20
-4.36038639163633
30
0
41
1
10
112.395114227962
20
-4.69155349276727
30
0
41
1
10
112.523425409434
20
-5.32051710873208
30
0
41
1
10
112.587581000169
20
-5.6182710977601
30
0
41
1
10
112.71589218164
20
-6.17024315544694
30
0
41
1
10
112.780047772376
20
-6.42443051682673
30
0
41
1
10
112.908358953847
20
-6.88199368276597
30
0
41
1
10
112.972514544583
20
-7.08535716233999
30
0
41
1
10
113.100825726054
20
-7.43755300479191
30
0
41
1
10
113.16498131679
20
-7.58639248550654
30
0
41
1
10
113.293292498261
20
-7.82945346145854
30
0
41
1
10
113.357448088997
20
-7.92369727148326
30
0
41
1
10
113.485759270469
20
-8.06065060472207
30
0
41
1
10
113.549914861204
20
-8.10339040651209
30
0
41
1
10
113.630109349624
20
-8.12800367079021
30
0
41
1
10
113.65416769615
20
-8.13323341886309
30
0
41
1
10
113.678226042676
20
-8.13534407446045
30
0
41
1
10
113.69426494036
20
-8.13607107968443
30
0
41
1
10
113.702284389201
20
-8.1360960232563
30
0
41
1
10
113.742381633411
20
-8.13453159605245
30
0
41
1
10
113.774459428779
20
-8.12784359369439
30
0
41
1
10
113.870692814883
20
-8.09027182858364
30
0
41
1
10
113.934848405618
20
-8.04181537887087
30
0
41
1
10
114.06315958709
20
-7.89293305233056
30
0
41
1
10
114.127315177825
20
-7.79247742246909
30
0
41
1
10
114.255626359297
20
-7.53682500049075
30
0
41
1
10
114.319781950032
20
-7.38160731149409
30
0
41
1
10
114.448093131504
20
-7.01689144763779
30
0
41
1
10
114.512248722239
20
-6.80738827300743
30
0
41
1
10
114.640559903711
20
-6.33820848046321
30
0
41
1
10
114.704715494446
20
-6.07854648154194
30
0
41
1
10
114.833026675918
20
-5.51666796159873
30
0
41
1
10
114.897182266653
20
-5.21448394058777
30
0
41
1
10
115.025493448125
20
-4.57797287287951
30
0
41
1
10
115.08964903886
20
-4.24368911538718
30
0
41
1
10
115.217960220332
20
-3.55501398694844
30
0
41
1
10
115.282115811067
20
-3.20066681063557
30
0
41
1
10
115.410426992539
20
-2.48417262634146
30
0
41
1
10
115.474582583274
20
-2.12206170766251
30
0
41
1
10
115.53873817401
20
-1.76172255476311
30
0
0
SPLINE
5
D4
100
AcDbEntity
8
1
62
256
6
ByLayer
370
13
48
1
60
0
100
AcDbSpline
70
4
71
3
72
8
73
4
40
0
40
0
40
0
40
0
40
1
40
1
40
1
40
1
41
1
10
106.9
20
8.05693600641911
30
0
41
1
10
106.969138366341
20
8.11090740541425
30
0
41
1
10
107.038276732682
20
8.136
30
0
41
1
10
107.107415099023
20
8.136
30
0
0
SPLINE
5
D5
100
AcDbEntity
8
1
62
256
6
ByLayer
370
13
48
1
60
0
100
AcDbSpline
70
4
71
3
72
82
73
78
40
0
40
0
40
0
40
0
40
0.0312499999999989
40
0.0312499999999989
40
0.0624999999999979
40
0.0624999999999979
40
0.0937499999999969
40
0.0937499999999969
40
0.124999999999996
40
0.124999999999996
40
0.156249999999995
40
0.156249999999995
40
0.187499999999994
40
0.187499999999994
40
0.218749999999993
40
0.218749999999993
40
0.249999999999992
40
0.249999999999992
40
0.281249999999991
40
0.281249999999991
40
0.31249999999999
40
0.31249999999999
40
0.320312499999989
40
0.320312499999989
40
0.328124999999989
40
0.328124999999989
40
0.343749999999989
40
0.343749999999989
40
0.37499999999999
40
0.37499999999999
40
0.406249999999991
40
0.406249999999991
40
0.437499999999991
40
0.437499999999991
40
0.468749999999992
40
0.468749999999992
40
0.499999999999992
40
0.499999999999992
40
0.531249999999993
40
0.531249999999993
40
0.562499999999993
40
0.562499999999993
40
0.593749999999994
40
0.593749999999994
40
0.624999999999994
40
0.624999999999994
40
0.640624999999995
40
0.640624999999995
40
0.648437499999995
40
0.648437499999995
40
0.656249999999995
40
0.656249999999995
40
0.687499999999995
40
0.687499999999995
40
0.718749999999996
40
0.718749999999996
40
0.749999999999996
40
0.749999999999996
40
0.781249999999996
40
0.781249999999996
40
0.812499999999997
40
0.812499999999997
40
0.843749999999997
40
0.843749999999997
40
0.874999999999998
40
0.874999999999998
40
0.906249999999998
40
0.906249999999998
40
0.937499999999998
40
0.937499999999998
40
0.968749999999999
40
0.968749999999999
40
0.976562499999999
40
0.976562499999999
40
0.984374999999999
40
0.984374999999999
40
1
40
1
40
1
40
1
41
1
10
108.883841257096
20
8.136
30
0
41
1
10
108.95316309998
20
8.136
30
0
41
1
10
109.022484942865
20
8.11077357042478
30
0
41
1
10
109.161128628634
20
8.00223786338657
30
0
41
1
10
109.230450471518
20
7.91888258380948
30
0
41
1
10
109.369094157287
20
7.68909681501404
30
0
41
1
10
109.438416000172
20
7.54262909593868
30
0
41
1
10
109.577059685941
20
7.18564693349882
30
0
41
1
10
109.646381528825
20
6.9751168738791
30
0
41
1
10
109.785025214594
20
6.49390062770811
30
0
41
1
10
109.854347057479
20
6.22322906359574
30
0
41
1
10
109.992990743248
20
5.63052368925466
30
0
41
1
10
110.062312586133
20
5.30853409775281
30
0
41
1
10
110.200956271902
20
4.62599415382732
30
0
41
1
10
110.270278114786
20
4.26550674062355
30
0
41
1
10
110.408921800555
20
3.5211221169906
30
0
41
1
10
110.47824364344
20
3.1372898578548
30
0
41
1
10
110.616887329209
20
2.36173068142543
30
0
41
1
10
110.686209172093
20
1.97005536746877
30
0
41
1
10
110.824852857862
20
1.19288608395493
30
0
41
1
10
110.894174700747
20
0.80742189844392
30
0
41
1
10
110.980827004353
20
0.336574373164837
30
0
41
1
10
110.998157465074
20
0.242946500133058
30
0
41
1
10
111.032818386516
20
0.0569202834953728
30
0
41
1
10
111.050148847237
20
-0.0351077027679878
30
0
41
1
10
111.1021402294
20
-0.313856216005235
30
0
41
1
10
111.136801150843
20
-0.502175850376403
30
0
41
1
10
111.24078391517
20
-1.07277742664991
30
0
41
1
10
111.310105758054
20
-1.46079161443373
30
0
41
1
10
111.448749443823
20
-2.24003273330211
30
0
41
1
10
111.518071286708
20
-2.63122454818637
30
0
41
1
10
111.656714972477
20
-3.40231993802362
30
0
41
1
10
111.726036815361
20
-3.78216777986975
30
0
41
1
10
111.86468050113
20
-4.51499049011818
30
0
41
1
10
111.934002344015
20
-4.86789934544225
30
0
41
1
10
112.072646029784
20
-5.53204981479141
30
0
41
1
10
112.141967872668
20
-5.84323142283671
30
0
41
1
10
112.280611558437
20
-6.41188028077718
30
0
41
1
10
112.349933401322
20
-6.66930950251188
30
0
41
1
10
112.488577087091
20
-7.12268200381587
30
0
41
1
10
112.557898929975
20
-7.31861796159419
30
0
41
1
10
112.696542615745
20
-7.64621247096304
30
0
41
1
10
112.765864458629
20
-7.77789263315123
30
0
41
1
10
112.904508144398
20
-7.97893320698805
30
0
41
1
10
112.973829987283
20
-8.0483340379364
30
0
41
1
10
113.07781275161
20
-8.10999419106136
30
0
41
1
10
113.112473673052
20
-8.12349941756787
30
0
41
1
10
113.164465055215
20
-8.13389899477843
30
0
41
1
10
113.181795515936
20
-8.13572351659866
30
0
41
1
10
113.216456437379
20
-8.13621822073071
30
0
41
1
10
113.2337868981
20
-8.13489728161696
30
0
41
1
10
113.320439201705
20
-8.12013628789757
30
0
41
1
10
113.38976104459
20
-8.08212683959817
30
0
41
1
10
113.528404730359
20
-7.94658266909923
30
0
41
1
10
113.597726573243
20
-7.84900282268919
30
0
41
1
10
113.736370259013
20
-7.59014691521639
30
0
41
1
10
113.805692101897
20
-7.42883752005508
30
0
41
1
10
113.944335787666
20
-7.04262094966333
30
0
41
1
10
114.013657630551
20
-6.81770463368892
30
0
41
1
10
114.15230131632
20
-6.30932464066694
30
0
41
1
10
114.221623159204
20
-6.02588285754828
30
0
41
1
10
114.360266844973
20
-5.4102812310658
30
0
41
1
10
114.429588687858
20
-5.07817119978765
30
0
41
1
10
114.568232373627
20
-4.37874295843
30
0
41
1
10
114.637554216511
20
-4.01148970126459
30
0
41
1
10
114.77619790228
20
-3.25718707123787
30
0
41
1
10
114.845519745165
20
-2.87020074798178
30
0
41
1
10
114.984163430934
20
-2.09175964110031
30
0
41
1
10
115.053485273818
20
-1.70035187681501
30
0
41
1
10
115.192128959588
20
-0.926611024920362
30
0
41
1
10
115.261450802472
20
-0.544302382918744
30
0
41
1
10
115.348103106078
20
-0.0787564716688678
30
0
41
1
10
115.365433566799
20
0.0133189260165807
30
0
41
1
10
115.400094488241
20
0.198955679478672
30
0
41
1
10
115.417424948962
20
0.29239973212637
30
0
41
1
10
115.469416331126
20
0.574392522255295
30
0
41
1
10
115.504077252568
20
0.764608076674847
30
0
41
1
10
115.53873817401
20
0.956391409101627
30
0
0
SPLINE
5
D6
100
AcDbEntity
8
1
62
256
6
ByLayer
370
13
48
1
60
0
100
AcDbSpline
70
4
71
3
72
83
73
79
40
0
40
0
40
0
40
0
40
0.0312499999999996
40
0.0312499999999996
40
0.0624999999999992
40
0.0624999999999992
40
0.0937499999999988
40
0.0937499999999988
40
0.124999999999998
40
0.124999999999998
40
0.156249999999998
40
0.156249999999998
40
0.187499999999998
40
0.187499999999998
40
0.218749999999997
40
0.218749999999997
40
0.249999999999997
40
0.249999999999997
40
0.281249999999996
40
0.281249999999996
40
0.296874999999996
40
0.296874999999996
40
0.300781249999996
40
0.300781249999996
40
0.304687499999996
40
0.304687499999996
40
0.312499999999996
40
0.312499999999996
40
0.343749999999996
40
0.343749999999996
40
0.374999999999995
40
0.374999999999995
40
0.406249999999995
40
0.406249999999995
40
0.437499999999994
40
0.437499999999994
40
0.468749999999994
40
0.468749999999994
40
0.499999999999993
40
0.499999999999993
40
0.531249999999993
40
0.531249999999993
40
0.562499999999993
40
0.562499999999993
40
0.593749999999992
40
0.593749999999992
40
0.601562499999992
40
0.601562499999992
40
0.605468749999992
40
0.605468749999992
40
0.609374999999992
40
0.624999999999992
40
0.624999999999992
40
0.656249999999992
40
0.656249999999992
40
0.687499999999993
40
0.687499999999993
40
0.718749999999993
40
0.718749999999993
40
0.749999999999994
40
0.749999999999994
40
0.781249999999994
40
0.781249999999994
40
0.812499999999995
40
0.812499999999995
40
0.843749999999995
40
0.843749999999995
40
0.874999999999996
40
0.874999999999996
40
0.890624999999996
40
0.890624999999996
40
0.906249999999996
40
0.906249999999996
40
0.937499999999998
40
0.937499999999998
40
0.968749999999999
40
0.968749999999999
40
1
40
1
40
1
40
1
41
1
10
108.387881050806
20
8.136
30
0
41
1
10
108.462369145839
20
8.136
30
0
41
1
10
108.536857240873
20
8.10685701754653
30
0
41
1
10
108.685833430939
20
7.98092092380932
30
0
41
1
10
108.760321525973
20
7.88406234921413
30
0
41
1
10
108.90929771604
20
7.61697364006133
30
0
41
1
10
108.983785811073
20
7.44669381017712
30
0
41
1
10
109.13276200114
20
7.03261569670181
30
0
41
1
10
109.207250096173
20
6.78880411481362
30
0
41
1
10
109.35622628624
20
6.23411107448899
30
0
41
1
10
109.430714381273
20
5.9232639637728
30
0
41
1
10
109.57969057134
20
5.24725702186529
30
0
41
1
10
109.654178666373
20
4.88217284736612
30
0
41
1
10
109.80315485644
20
4.11506428155067
30
0
41
1
10
109.877642951473
20
3.71313423522338
30
0
41
1
10
110.02661914154
20
2.89167273342701
30
0
41
1
10
110.101107236574
20
2.47222645201617
30
0
41
1
10
110.250083426641
20
1.63423889698376
30
0
41
1
10
110.324571521674
20
1.21575355239389
30
0
41
1
10
110.436303664224
20
0.600323092888033
30
0
41
1
10
110.47354771174
20
0.397200512746025
30
0
41
1
10
110.520102771136
20
0.146788931200916
30
0
41
1
10
110.529413783016
20
0.0968805402621342
30
0
41
1
10
110.548035806774
20
-0.0025668964858596
30
0
41
1
10
110.557346818653
20
-0.0521189704597305
30
0
41
1
10
110.585279854291
20
-0.201692416013231
30
0
41
1
10
110.603901878049
20
-0.302131738494751
30
0
41
1
10
110.697011996841
20
-0.807498477396166
30
0
41
1
10
110.771500091874
20
-1.22209604092848
30
0
41
1
10
110.920476281941
20
-2.05779545754521
30
0
41
1
10
110.994964376974
20
-2.47885298318005
30
0
41
1
10
111.143940567041
20
-3.3098287786116
30
0
41
1
10
111.218428662074
20
-3.71966993820931
30
0
41
1
10
111.367404852141
20
-4.50889048247262
30
0
41
1
10
111.441892947174
20
-4.88817561484058
30
0
41
1
10
111.590869137241
20
-5.59792797623817
30
0
41
1
10
111.665357232275
20
-5.92831035613762
30
0
41
1
10
111.814333422341
20
-6.52566275671538
30
0
41
1
10
111.888821517375
20
-6.79258319983089
30
0
41
1
10
112.037797707441
20
-7.25428773293501
30
0
41
1
10
112.112285802475
20
-7.44906992058341
30
0
41
1
10
112.261261992542
20
-7.76444730180631
30
0
41
1
10
112.335750087575
20
-7.88508226067572
30
0
41
1
10
112.484726277642
20
-8.05618046695486
30
0
41
1
10
112.559214372675
20
-8.10670637698087
30
0
41
1
10
112.652324491467
20
-8.1312972044652
30
0
41
1
10
112.670946515225
20
-8.13429511503023
30
0
41
1
10
112.698879550863
20
-8.1360305115326
30
0
41
1
10
112.708190562742
20
-8.13615055896551
30
0
41
1
10
112.7268125865
20
-8.13548179211551
30
0
41
1
10
112.773367645896
20
-8.13152411131111
30
0
41
1
10
112.819922705292
20
-8.11586771799975
30
0
41
1
10
112.931654847842
20
-8.05402721618486
30
0
41
1
10
113.006142942875
20
-7.98031169427838
30
0
41
1
10
113.155119132942
20
-7.76085528477043
30
0
41
1
10
113.229607227976
20
-7.61505710001461
30
0
41
1
10
113.378583418042
20
-7.24928942490408
30
0
41
1
10
113.453071513076
20
-7.02929272910509
30
0
41
1
10
113.602047703142
20
-6.51936641981376
30
0
41
1
10
113.676535798176
20
-6.22945522781836
30
0
41
1
10
113.825511988242
20
-5.59050305800813
30
0
41
1
10
113.900000083276
20
-5.24152599554995
30
0
41
1
10
114.048976273343
20
-4.50055585938068
30
0
41
1
10
114.123464368376
20
-4.10865409032013
30
0
41
1
10
114.272440558443
20
-3.30084565370359
30
0
41
1
10
114.346928653476
20
-2.88502999552094
30
0
41
1
10
114.495904843543
20
-2.04845779508628
30
0
41
1
10
114.570392938576
20
-1.62776817575082
30
0
41
1
10
114.682125081126
20
-1.00552709977316
30
0
41
1
10
114.719369128643
20
-0.799553948308528
30
0
41
1
10
114.793857223676
20
-0.392206790373848
30
0
41
1
10
114.831101271193
20
-0.19098221572392
30
0
41
1
10
114.942833413743
20
0.40451488414692
30
0
41
1
10
115.017321508777
20
0.813684681542384
30
0
41
1
10
115.166297698843
20
1.6436259421213
30
0
41
1
10
115.240785793877
20
2.0643647757224
30
0
41
1
10
115.389761983944
20
2.90080615662723
30
0
41
1
10
115.464250078977
20
3.31644137873084
30
0
41
1
10
115.53873817401
20
3.7200422157089
30
0
0
SPLINE
5
D7
100
AcDbEntity
8
1
62
256
6
ByLayer
370
13
48
1
60
0
100
AcDbSpline
70
4
71
3
72
84
73
80
40
0
40
0
40
0
40
0
40
0.0312499999999983
40
0.0312499999999983
40
0.0624999999999967
40
0.0624999999999967
40
0.093749999999995
40
0.093749999999995
40
0.124999999999993
40
0.124999999999993
40
0.156249999999992
40
0.156249999999992
40
0.18749999999999
40
0.18749999999999
40
0.218749999999989
40
0.218749999999989
40
0.249999999999987
40
0.249999999999987
40
0.281249999999985
40
0.281249999999985
40
0.285156249999985
40
0.285156249999985
40
0.289062499999985
40
0.296874999999984
40
0.296874999999984
40
0.312499999999984
40
0.312499999999984
40
0.343749999999983
40
0.343749999999983
40
0.374999999999982
40
0.374999999999982
40
0.406249999999981
40
0.406249999999981
40
0.437499999999981
40
0.437499999999981
40
0.46874999999998
40
0.46874999999998
40
0.499999999999979
40
0.499999999999979
40
0.531249999999978
40
0.531249999999978
40
0.562499999999977
40
0.562499999999977
40
0.566406249999977
40
0.566406249999977
40
0.570312499999977
40
0.578124999999978
40
0.578124999999978
40
0.593749999999979
40
0.593749999999979
40
0.62499999999998
40
0.62499999999998
40
0.656249999999982
40
0.656249999999982
40
0.687499999999984
40
0.687499999999984
40
0.718749999999985
40
0.718749999999985
40
0.749999999999987
40
0.749999999999987
40
0.781249999999988
40
0.781249999999988
40
0.81249999999999
40
0.81249999999999
40
0.843749999999991
40
0.843749999999991
40
0.851562499999992
40
0.851562499999992
40
0.859374999999993
40
0.859374999999993
40
0.874999999999993
40
0.874999999999993
40
0.906249999999995
40
0.906249999999995
40
0.937499999999997
40
0.937499999999997
40
0.968749999999998
40
0.968749999999998
40
1
40
1
40
1
40
1
41
1
10
107.891920844516
20
8.136
30
0
41
1
10
107.971575191698
20
8.136
30
0
41
1
10
108.051229538881
20
8.10265361709543
30
0
41
1
10
108.210538233245
20
7.95794552200735
30
0
41
1
10
108.290192580428
20
7.84649302949714
30
0
41
1
10
108.449501274792
20
7.53917727474223
30
0
41
1
10
108.529155621974
20
7.34325018928917
30
0
41
1
10
108.688464316338
20
6.86813865515236
30
0
41
1
10
108.768118663521
20
6.58894897068384
30
0
41
1
10
108.927427357885
20
5.95716320960457
30
0
41
1
10
109.007081705067
20
5.60463310497431
30
0
41
1
10
109.166390399432
20
4.84382498480085
30
0
41
1
10
109.246044746614
20
4.43566593490638
30
0
41
1
10
109.405353440979
20
3.58619150995148
30
0
41
1
10
109.485007788161
20
3.14500692949713
30
0
41
1
10
109.644316482525
20
2.25308881943263
30
0
41
1
10
109.723970829708
20
1.80245673981074
30
0
41
1
10
109.883279524072
20
0.912635854157458
30
0
41
1
10
109.962933871254
20
0.473497808758282
30
0
41
1
10
110.052545011834
20
-0.0050761707267384
30
0
41
1
10
110.062501805232
20
-0.0580683382555662
30
0
41
1
10
110.082415392027
20
-0.164748569809603
30
0
41
1
10
110.112285772221
20
-0.325386496155119
30
0
41
1
10
110.142156152414
20
-0.487758564843603
30
0
41
1
10
110.201896912801
20
-0.814467524498696
30
0
41
1
10
110.241724086392
20
-1.03490369175057
30
0
41
1
10
110.361205607165
20
-1.70093462590253
30
0
41
1
10
110.440859954348
20
-2.15137784656545
30
0
41
1
10
110.600168648712
20
-3.04462563647186
30
0
41
1
10
110.679822995894
20
-3.48733215398116
30
0
41
1
10
110.839131690259
20
-4.34164514723429
30
0
41
1
10
110.918786037441
20
-4.75312176747357
30
0
41
1
10
111.078094731805
20
-5.52214882662085
30
0
41
1
10
111.157749078987
20
-5.87957781594733
30
0
41
1
10
111.317057773352
20
-6.52225709243726
30
0
41
1
10
111.396712120534
20
-6.8074363839751
30
0
41
1
10
111.556020814899
20
-7.29497554378844
30
0
41
1
10
111.635675162081
20
-7.49733535897957
30
0
41
1
10
111.794983856445
20
-7.81732245051035
30
0
41
1
10
111.874638203628
20
-7.93501011294899
30
0
41
1
10
112.033946897992
20
-8.09149480789779
30
0
41
1
10
112.113601245174
20
-8.13038178659951
30
0
41
1
10
112.203212385754
20
-8.13606092673118
30
0
41
1
10
112.213169179152
20
-8.13616796040031
30
0
41
1
10
112.233082765948
20
-8.13534173943003
30
0
41
1
10
112.262953146141
20
-8.1325312389296
30
0
41
1
10
112.292823526334
20
-8.12489484632277
30
0
41
1
10
112.352564286721
20
-8.10290429707214
30
0
41
1
10
112.392391460312
20
-8.07927840557974
30
0
41
1
10
112.511872981086
20
-7.97950138501449
30
0
41
1
10
112.591527328268
20
-7.87424656501705
30
0
41
1
10
112.750836022632
20
-7.57957077689534
30
0
41
1
10
112.830490369814
20
-7.39008273877528
30
0
41
1
10
112.989799064179
20
-6.92746202028735
30
0
41
1
10
113.069453411361
20
-6.65431889369589
30
0
41
1
10
113.228762105725
20
-6.03358601750068
30
0
41
1
10
113.308416452908
20
-5.68605710844065
30
0
41
1
10
113.467725147272
20
-4.9337011650336
30
0
41
1
10
113.547379494455
20
-4.52899036572433
30
0
41
1
10
113.706688188819
20
-3.68462149521022
30
0
41
1
10
113.786342536001
20
-3.24509491291209
30
0
41
1
10
113.945651230366
20
-2.35476305089347
30
0
41
1
10
114.025305577548
20
-1.9040624963024
30
0
41
1
10
114.184614271912
20
-1.0126737189569
30
0
41
1
10
114.264268619094
20
-0.572040260762662
30
0
41
1
10
114.363836553072
20
-0.0377901835445869
30
0
41
1
10
114.383750139868
20
0.0679097062277094
30
0
41
1
10
114.423577313459
20
0.281914635639424
30
0
41
1
10
114.443490900255
20
0.389720713027572
30
0
41
1
10
114.503231660641
20
0.715212188606444
30
0
41
1
10
114.543058834232
20
0.934981410799281
30
0
41
1
10
114.662540355006
20
1.59952203893931
30
0
41
1
10
114.742194702188
20
2.04965785790966
30
0
41
1
10
114.901503396552
20
2.94398113226472
30
0
41
1
10
114.981157743735
20
3.38807404594164
30
0
41
1
10
115.140466438099
20
4.24695791638825
30
0
41
1
10
115.220120785281
20
4.66162019553661
30
0
41
1
10
115.379429479646
20
5.43862886524025
30
0
41
1
10
115.459083826828
20
5.80085157422707
30
0
41
1
10
115.53873817401
20
6.12755496600951
30
0
0
SPLINE
5
D8
100
AcDbEntity
8
1
62
256
6
ByLayer
370
13
48
1
60
0
100
AcDbSpline
70
4
71
3
72
86
73
82
40
0
40
0
40
0
40
0
40
0.0312500000000011
40
0.0312500000000011
40
0.0625000000000021
40
0.0625000000000021
40
0.0937500000000032
40
0.0937500000000032
40
0.125000000000004
40
0.125000000000004
40
0.156250000000005
40
0.156250000000005
40
0.187500000000006
40
0.187500000000006
40
0.218750000000007
40
0.218750000000007
40
0.250000000000008
40
0.250000000000008
40
0.257812500000008
40
0.257812500000008
40
0.265625000000009
40
0.265625000000009
40
0.281250000000009
40
0.281250000000009
40
0.31250000000001
40
0.31250000000001
40
0.343750000000011
40
0.343750000000011
40
0.375000000000011
40
0.375000000000011
40
0.406250000000012
40
0.406250000000012
40
0.437500000000013
40
0.437500000000013
40
0.468750000000014
40
0.468750000000014
40
0.500000000000015
40
0.500000000000015
40
0.515625000000015
40
0.515625000000015
40
0.523437500000015
40
0.523437500000015
40
0.527343750000015
40
0.527343750000015
40
0.531250000000015
40
0.531250000000015
40
0.562500000000014
40
0.562500000000014
40
0.593750000000013
40
0.593750000000013
40
0.625000000000012
40
0.625000000000012
40
0.656250000000011
40
0.656250000000011
40
0.687500000000011
40
0.687500000000011
40
0.71875000000001
40
0.71875000000001
40
0.750000000000009
40
0.750000000000009
40
0.781250000000008
40
0.781250000000008
40
0.789062500000008
40
0.789062500000008
40
0.792968750000008
40
0.792968750000008
40
0.796875000000008
40
0.796875000000008
40
0.812500000000007
40
0.812500000000007
40
0.843750000000006
40
0.843750000000006
40
0.875000000000005
40
0.875000000000005
40
0.906250000000004
40
0.906250000000004
40
0.937500000000002
40
0.937500000000002
40
0.968750000000001
40
0.968750000000001
40
1
40
1
40
1
40
1
41
1
10
107.395960638226
20
8.136
30
0
41
1
10
107.480781237558
20
8.136
30
0
41
1
10
107.565601836889
20
8.09816203836189
30
0
41
1
10
107.735243035551
20
7.93329769699156
30
0
41
1
10
107.820063634882
20
7.80614827744898
30
0
41
1
10
107.989704833544
20
7.45569165856813
30
0
41
1
10
108.074525432875
20
7.23230560115434
30
0
41
1
10
108.244166631537
20
6.69241625311221
30
0
41
1
10
108.328987230868
20
6.37592470880759
30
0
41
1
10
108.498628429531
20
5.66404040072192
30
0
41
1
10
108.583449028862
20
5.2687606385177
30
0
41
1
10
108.753090227524
20
4.42281222018912
30
0
41
1
10
108.837910826855
20
3.9723181847886
30
0
41
1
10
109.007552025517
20
3.0442387605124
30
0
41
1
10
109.092372624848
20
2.5668221100596
30
0
41
1
10
109.26201382351
20
1.61256339304094
30
0
41
1
10
109.346834422841
20
1.1358301606318
30
0
41
1
10
109.452860172005
20
0.55445540647824
30
0
41
1
10
109.474065321838
20
0.438891772153028
30
0
41
1
10
109.516475621504
20
0.209472091597149
30
0
41
1
10
109.537680771336
20
0.0957994918146596
30
0
41
1
10
109.601296220835
20
-0.243418268323722
30
0
41
1
10
109.6437065205
20
-0.47345623604059
30
0
41
1
10
109.770937419497
20
-1.17196483966356
30
0
41
1
10
109.855758018828
20
-1.64902379637391
30
0
41
1
10
110.02539921749
20
-2.60328054030254
30
0
41
1
10
110.110219816821
20
-3.08036759833209
30
0
41
1
10
110.279861015483
20
-4.00705461697135
30
0
41
1
10
110.364681614814
20
-4.45648488339361
30
0
41
1
10
110.534322813477
20
-5.29962310227381
30
0
41
1
10
110.619143412808
20
-5.69315719765746
30
0
41
1
10
110.78878461147
20
-6.40105361194222
30
0
41
1
10
110.873605210801
20
-6.71530521355243
30
0
41
1
10
111.043246409463
20
-7.25049213567718
30
0
41
1
10
111.128067008794
20
-7.47141836112186
30
0
41
1
10
111.297708207456
20
-7.81701567926336
30
0
41
1
10
111.382528806787
20
-7.94176741380676
30
0
41
1
10
111.509759705784
20
-8.06203013104016
30
0
41
1
10
111.552170005449
20
-8.09104303900702
30
0
41
1
10
111.615785454948
20
-8.11911148417113
30
0
41
1
10
111.636990604781
20
-8.12589539142371
30
0
41
1
10
111.66879832953
20
-8.13238044041935
30
0
41
1
10
111.679400904446
20
-8.13392712326427
30
0
41
1
10
111.700606054279
20
-8.13581988109965
30
0
41
1
10
111.711208629195
20
-8.13616696655976
30
0
41
1
10
111.806631803443
20
-8.13400360008285
30
0
41
1
10
111.891452402774
20
-8.09404056432516
30
0
41
1
10
112.061093601436
20
-7.9246483219265
30
0
41
1
10
112.145914200767
20
-7.79509653762062
30
0
41
1
10
112.315555399429
20
-7.43977786838653
30
0
41
1
10
112.40037599876
20
-7.21393394131289
30
0
41
1
10
112.570017197422
20
-6.66935351827581
30
0
41
1
10
112.654837796754
20
-6.35063142775979
30
0
41
1
10
112.824478995416
20
-5.63478420325399
30
0
41
1
10
112.909299594747
20
-5.23777432804118
30
0
41
1
10
113.078940793409
20
-4.38904997329763
30
0
41
1
10
113.16376139274
20
-3.93751083179544
30
0
41
1
10
113.333402591402
20
-3.00807585235032
30
0
41
1
10
113.418223190733
20
-2.53034776057169
30
0
41
1
10
113.587864389395
20
-1.57612001806308
30
0
41
1
10
113.672684988727
20
-1.09972729669693
30
0
41
1
10
113.77871073789
20
-0.519083809590825
30
0
41
1
10
113.799915887723
20
-0.403681590518545
30
0
41
1
10
113.831723612472
20
-0.231879537860948
30
0
41
1
10
113.842326187389
20
-0.174828845627559
30
0
41
1
10
113.863531337221
20
-0.0611933702553813
30
0
41
1
10
113.874133912138
20
-0.0047698995188057
30
0
41
1
10
113.92714678672
20
0.278401727877593
30
0
41
1
10
113.969557086385
20
0.508781558935823
30
0
41
1
10
114.096787985382
20
1.20813026321463
30
0
41
1
10
114.181608584713
20
1.68550004810092
30
0
41
1
10
114.351249783375
20
2.63972170732018
30
0
41
1
10
114.436070382706
20
3.11646096789642
30
0
41
1
10
114.605711581368
20
4.04171870954019
30
0
41
1
10
114.690532180699
20
4.49006657770357
30
0
41
1
10
114.860173379362
20
5.33036049236051
30
0
41
1
10
114.944993978693
20
5.72213349164517
30
0
41
1
10
115.114635177355
20
6.42601734270602
30
0
41
1
10
115.199455776686
20
6.73801978775913
30
0
41
1
10
115.369096975348
20
7.26849330350217
30
0
41
1
10
115.453917574679
20
7.48695792165444
30
0
41
1
10
115.53873817401
20
7.65732847095109
30
0
0
SPLINE
5
D9
100
AcDbEntity
8
1
62
256
6
ByLayer
370
13
48
1
60
0
100
AcDbSpline
70
4
71
3
72
102
73
98
40
0
40
0
40
0
40
0
40
0.0312499999999999
40
0.0312499999999999
40
0.0624999999999999
40
0.0624999999999999
40
0.0781249999999998
40
0.0781249999999998
40
0.0937499999999998
40
0.0937499999999998
40
0.109375
40
0.109375
40
0.125
40
0.125
40
0.140625
40
0.140625
40
0.15625
40
0.15625
40
0.171875
40
0.171875
40
0.1875
40
0.1875
40
0.21875
40
0.21875
40
0.25
40
0.25
40
0.28125
40
0.28125
40
0.3125
40
0.3125
40
0.328125
40
0.328125
40
0.34375
40
0.34375
40
0.359375
40
0.359375
40
0.375
40
0.375
40
0.390624999999999
40
0.390624999999999
40
0.406249999999999
40
0.406249999999999
40
0.421874999999999
40
0.421874999999999
40
0.437499999999999
40
0.437499999999999
40
0.468749999999999
40
0.468749999999999
40
0.499999999999999
40
0.499999999999999
40
0.531249999999999
40
0.531249999999999
40
0.562499999999999
40
0.562499999999999
40
0.578124999999999
40
0.578124999999999
40
0.593749999999999
40
0.593749999999999
40
0.609374999999999
40
0.609374999999999
40
0.624999999999999
40
0.624999999999999
40
0.640624999999999
40
0.640624999999999
40
0.656249999999999
40
0.656249999999999
40
0.671874999999999
40
0.671874999999999
40
0.687499999999999
40
0.687499999999999
40
0.718749999999999
40
0.718749999999999
40
0.749999999999999
40
0.749999999999999
40
0.781249999999999
40
0.781249999999999
40
0.812499999999999
40
0.812499999999999
40
0.828124999999999
40
0.828124999999999
40
0.843749999999999
40
0.843749999999999
40
0.859374999999999
40
0.859374999999999
40
0.874999999999999
40
0.874999999999999
40
0.890625
40
0.890625
40
0.90625
40
0.90625
40
0.921875
40
0.921875
40
0.9375
40
0.9375
40
0.96875
40
0.96875
40
1
40
1
40
1
40
1
41
1
10
106.900000431937
20
8.136
30
0
41
1
10
106.989987283417
20
8.136
30
0
41
1
10
107.079974134897
20
8.09338081089751
30
0
41
1
10
107.259947837857
20
7.90696417193948
30
0
41
1
10
107.349934689336
20
7.76300333803025
30
0
41
1
10
107.484914966556
20
7.46563484636133
30
0
41
1
10
107.529908392296
20
7.35302677997322
30
0
41
1
10
107.619895243776
20
7.10113076808253
30
0
41
1
10
107.664888669516
20
6.961841796687
30
0
41
1
10
107.754875520996
20
6.65774943554607
30
0
41
1
10
107.799868946736
20
6.49294734162669
30
0
41
1
10
107.889855798216
20
6.13987209732019
30
0
41
1
10
107.934849223956
20
5.95160259423258
30
0
41
1
10
108.024836075436
20
5.55443942583074
30
0
41
1
10
108.069829501176
20
5.34555143871708
30
0
41
1
10
108.159816352656
20
4.91066026115431
30
0
41
1
10
108.204809778396
20
4.68466415300705
30
0
41
1
10
108.294796629876
20
4.21953365177177
30
0
41
1
10
108.339790055616
20
3.98040692860329
30
0
41
1
10
108.429776907096
20
3.49323549343691
30
0
41
1
10
108.474770332836
20
3.24519818942375
30
0
41
1
10
108.609750610056
20
2.4940606441863
30
0
41
1
10
108.699737461535
20
1.98413794865687
30
0
41
1
10
108.879711164495
20
0.976765897934229
30
0
41
1
10
108.969698015975
20
0.479418963017452
30
0
41
1
10
109.149671718935
20
-0.479417812413345
30
0
41
1
10
109.239658570415
20
-0.976764698647543
30
0
41
1
10
109.419632273375
20
-1.98413673025061
30
0
41
1
10
109.509619124855
20
-2.49405942734731
30
0
41
1
10
109.644599402075
20
-3.24519699511308
30
0
41
1
10
109.689592827815
20
-3.49323430997049
30
0
41
1
10
109.779579679295
20
-3.98040577364668
30
0
41
1
10
109.824573105035
20
-4.21953251448181
30
0
41
1
10
109.914559956514
20
-4.68466305767046
30
0
41
1
10
109.959553382254
20
-4.9106591901043
30
0
41
1
10
110.049540233735
20
-5.34555042228928
30
0
41
1
10
110.094533659474
20
-5.55443843973697
30
0
41
1
10
110.184520510954
20
-5.95160167394295
30
0
41
1
10
110.229513936694
20
-6.13987121249787
30
0
41
1
10
110.319500788174
20
-6.49294653168764
30
0
41
1
10
110.364494213914
20
-6.6577486650194
30
0
41
1
10
110.454481065394
20
-6.96184110757008
30
0
41
1
10
110.499474491134
20
-7.10113012095917
30
0
41
1
10
110.589461342614
20
-7.35302621799551
30
0
41
1
10
110.634454768354
20
-7.4656343275322
30
0
41
1
10
110.769435045574
20
-7.76300294831941
30
0
41
1
10
110.859421897054
20
-7.90696386775582
30
0
41
1
10
111.039395600014
20
-8.09338066768103
30
0
41
1
10
111.129382451494
20
-8.13599993219992
30
0
41
1
10
111.309356154453
20
-8.13600006779993
30
0
41
1
10
111.399343005934
20
-8.0933809541138
30
0
41
1
10
111.579316708893
20
-7.90696447612294
30
0
41
1
10
111.669303560373
20
-7.76300372774085
30
0
41
1
10
111.804283837593
20
-7.46563536519025
30
0
41
1
10
111.849277263333
20
-7.35302734195074
30
0
41
1
10
111.939264114813
20
-7.10113141520568
30
0
41
1
10
111.984257540553
20
-6.96184248580369
30
0
41
1
10
112.074244392033
20
-6.65775020607251
30
0
41
1
10
112.119237817773
20
-6.49294815156554
30
0
41
1
10
112.209224669253
20
-6.13987298214235
30
0
41
1
10
112.254218094993
20
-5.95160351452205
30
0
41
1
10
112.344204946473
20
-5.55444041192436
30
0
41
1
10
112.389198372213
20
-5.34555245514474
30
0
41
1
10
112.479185223693
20
-4.9106613322042
30
0
41
1
10
112.524178649433
20
-4.68466524834349
30
0
41
1
10
112.614165500913
20
-4.21953478906167
30
0
41
1
10
112.659158926652
20
-3.98040808355978
30
0
41
1
10
112.749145778132
20
-3.49323667690325
30
0
41
1
10
112.794139203872
20
-3.24519938373436
30
0
41
1
10
112.929119481092
20
-2.4940618610253
30
0
41
1
10
113.019106332572
20
-1.98413916706312
30
0
41
1
10
113.199080035532
20
-0.976767097220943
30
0
41
1
10
113.289066887012
20
-0.479420141705305
30
0
41
1
10
113.469040589972
20
0.479416689892815
30
0
41
1
10
113.559027441452
20
0.976763499360914
30
0
41
1
10
113.739001144412
20
1.98413551184436
30
0
41
1
10
113.828987995891
20
2.49405821050828
30
0
41
1
10
113.963968273111
20
3.24519580080238
30
0
41
1
10
114.008961698851
20
3.49323312650404
30
0
41
1
10
114.098948550331
20
3.98040461869002
30
0
41
1
10
114.143941976071
20
4.21953137719174
30
0
41
1
10
114.233928827551
20
4.68466196233379
30
0
41
1
10
114.278922253291
20
4.91065811905415
30
0
41
1
10
114.368909104771
20
5.34554940586133
30
0
41
1
10
114.413902530511
20
5.55443745364306
30
0
41
1
10
114.503889381991
20
5.95160075365317
30
0
41
1
10
114.548882807731
20
6.13987032767537
30
0
41
1
10
114.638869659211
20
6.49294572174841
30
0
41
1
10
114.683863084951
20
6.65774789449256
30
0
41
1
10
114.773849936431
20
6.96184041845299
30
0
41
1
10
114.818843362171
20
7.10112947383561
30
0
41
1
10
114.908830213651
20
7.35302565601759
30
0
41
1
10
114.953823639391
20
7.46563380870288
30
0
41
1
10
115.088803916611
20
7.76300255860838
30
0
41
1
10
115.17879076809
20
7.90696356357196
30
0
41
1
10
115.35876447105
20
8.09338052446435
30
0
41
1
10
115.44875132253
20
8.13599986439965
30
0
41
1
10
115.53873817401
20
8.13599999999968
30
0
0
SPLINE
5
DA
100
AcDbEntity
8
1
62
256
6
ByLayer
370
13
48
1
60
0
100
AcDbSpline
70
4
71
3
72
84
73
80
40
0
40
0
40
0
40
0
40
0.0312500000000014
40
0.0312500000000014
40
0.0625000000000028
40
0.0625000000000028
40
0.0937500000000043
40
0.0937500000000043
40
0.125000000000006
40
0.125000000000006
40
0.156250000000007
40
0.156250000000007
40
0.187500000000008
40
0.187500000000008
40
0.203125000000009
40
0.203125000000009
40
0.207031250000009
40
0.207031250000009
40
0.210937500000009
40
0.218750000000009
40
0.218750000000009
40
0.250000000000009
40
0.250000000000009
40
0.281250000000009
40
0.281250000000009
40
0.312500000000009
40
0.312500000000009
40
0.343750000000009
40
0.343750000000009
40
0.375000000000009
40
0.375000000000009
40
0.406250000000009
40
0.406250000000009
40
0.437500000000009
40
0.437500000000009
40
0.468750000000009
40
0.468750000000009
40
0.472656250000009
40
0.472656250000009
40
0.476562500000009
40
0.484375000000009
40
0.484375000000009
40
0.500000000000009
40
0.500000000000009
40
0.531250000000009
40
0.531250000000009
40
0.56250000000001
40
0.56250000000001
40
0.59375000000001
40
0.59375000000001
40
0.62500000000001
40
0.62500000000001
40
0.65625000000001
40
0.65625000000001
40
0.687500000000011
40
0.687500000000011
40
0.718750000000011
40
0.718750000000011
40
0.734375000000011
40
0.734375000000011
40
0.742187500000011
40
0.742187500000011
40
0.750000000000011
40
0.750000000000011
40
0.78125000000001
40
0.78125000000001
40
0.812500000000008
40
0.812500000000008
40
0.843750000000007
40
0.843750000000007
40
0.875000000000005
40
0.875000000000005
40
0.906250000000004
40
0.906250000000004
40
0.937500000000003
40
0.937500000000003
40
0.968750000000001
40
0.968750000000001
40
1
40
1
40
1
40
1
41
1
10
106.9
20
7.65733020612529
30
0
41
1
10
106.98482060833
20
7.4869599622707
30
0
41
1
10
107.06964121666
20
7.26849564394348
30
0
41
1
10
107.239282433319
20
6.73802268120235
30
0
41
1
10
107.324103041649
20
6.42602048898905
30
0
41
1
10
107.493744258308
20
5.72213706616392
30
0
41
1
10
107.578564866638
20
5.33036424204192
30
0
41
1
10
107.748206083298
20
4.49007058384916
30
0
41
1
10
107.833026691627
20
4.04172279697781
30
0
41
1
10
108.002667908287
20
3.11646512601024
30
0
41
1
10
108.087488516617
20
2.6397258550131
30
0
41
1
10
108.257129733276
20
1.68550410037338
30
0
41
1
10
108.341950341606
20
1.20813423075839
30
0
41
1
10
108.469181254101
20
0.50878536233256
30
0
41
1
10
108.511591558265
20
0.278405470416288
30
0
41
1
10
108.564604438472
20
-0.0047662387415812
30
0
41
1
10
108.575207014513
20
-0.0611897033045352
30
0
41
1
10
108.596412166595
20
-0.174825170670743
30
0
41
1
10
108.628219894719
20
-0.345976795188676
30
0
41
1
10
108.660027622843
20
-0.519080116604528
30
0
41
1
10
108.766053383255
20
-1.09972358836347
30
0
41
1
10
108.850873991585
20
-1.57611632536225
30
0
41
1
10
109.020515208244
20
-2.53034416436793
30
0
41
1
10
109.105335816574
20
-3.00807233714536
30
0
41
1
10
109.274977033233
20
-3.93750754328926
30
0
41
1
10
109.359797641563
20
-4.38904683049981
30
0
41
1
10
109.529438858223
20
-5.23777152807617
30
0
41
1
10
109.614259466552
20
-5.63478160025755
30
0
41
1
10
109.783900683212
20
-6.35062924623227
30
0
41
1
10
109.868721291542
20
-6.66935156099171
30
0
41
1
10
110.038362508201
20
-7.21393243209732
30
0
41
1
10
110.123183116531
20
-7.43977658276654
30
0
41
1
10
110.29282433319
20
-7.79509567456503
30
0
41
1
10
110.37764494152
20
-7.92464765773508
30
0
41
1
10
110.54728615818
20
-8.09404025808379
30
0
41
1
10
110.63210676651
20
-8.13400345295591
30
0
41
1
10
110.727529950881
20
-8.13616697324503
30
0
41
1
10
110.738132526922
20
-8.13581990466815
30
0
41
1
10
110.759337679004
20
-8.13392718102071
30
0
41
1
10
110.791145407128
20
-8.12928745434687
30
0
41
1
10
110.822953135252
20
-8.11911164568687
30
0
41
1
10
110.886568591499
20
-8.09104330557955
30
0
41
1
10
110.928978895664
20
-8.06203046848384
30
0
41
1
10
111.056209808158
20
-7.94176796375996
30
0
41
1
10
111.141030416488
20
-7.8170163708011
30
0
41
1
10
111.310671633148
20
-7.47141931949477
30
0
41
1
10
111.395492241477
20
-7.25049321914801
30
0
41
1
10
111.565133458137
20
-6.7153065147742
30
0
41
1
10
111.649954066467
20
-6.40105500566753
30
0
41
1
10
111.819595283126
20
-5.69315873288232
30
0
41
1
10
111.904415891456
20
-5.2996246864285
30
0
41
1
10
112.074057108116
20
-4.45648651941019
30
0
41
1
10
112.158877716445
20
-4.00705625597212
30
0
41
1
10
112.328518933105
20
-3.08036920365919
30
0
41
1
10
112.413339541435
20
-2.6032821091041
30
0
41
1
10
112.582980758094
20
-1.64902526470823
30
0
41
1
10
112.667801366424
20
-1.1719662441935
30
0
41
1
10
112.795032278919
20
-0.473457534619797
30
0
41
1
10
112.837442583084
20
-0.24341952987686
30
0
41
1
10
112.901058039331
20
0.0957982872090781
30
0
41
1
10
112.922263191413
20
0.209470880601287
30
0
41
1
10
112.964673495578
20
0.438890573556478
30
0
41
1
10
112.985878647661
20
0.554454214736836
30
0
41
1
10
113.091904408073
20
1.13582900646017
30
0
41
1
10
113.176725016403
20
1.61256227963395
30
0
41
1
10
113.346366233062
20
2.56682109746708
30
0
41
1
10
113.431186841392
20
3.04423780796753
30
0
41
1
10
113.600828058051
20
3.97231736504099
30
0
41
1
10
113.685648666381
20
4.4228114731265
30
0
41
1
10
113.855289883041
20
5.26876003937011
30
0
41
1
10
113.940110491371
20
5.66403987669705
30
0
41
1
10
114.10975170803
20
6.37592432653992
30
0
41
1
10
114.19457231636
20
6.69241593738164
30
0
41
1
10
114.364213533019
20
7.23230540138925
30
0
41
1
10
114.449034141349
20
7.45569150819188
30
0
41
1
10
114.618675358009
20
7.80614820474389
30
0
41
1
10
114.703495966338
20
7.93329765259512
30
0
41
1
10
114.873137182998
20
8.09816203028657
30
0
41
1
10
114.957957791328
20
8.136
30
0
41
1
10
115.042778399657
20
8.136
30
0
0
SPLINE
5
DB
100
AcDbEntity
8
1
62
256
6
ByLayer
370
13
48
1
60
0
100
AcDbSpline
70
4
71
3
72
84
73
80
40
0
40
0
40
0
40
0
40
0.0312499999999993
40
0.0312499999999993
40
0.0624999999999985
40
0.0624999999999985
40
0.0937499999999978
40
0.0937499999999978
40
0.124999999999997
40
0.124999999999997
40
0.140624999999997
40
0.140624999999997
40
0.148437499999997
40
0.148437499999997
40
0.156249999999997
40
0.156249999999997
40
0.187499999999998
40
0.187499999999998
40
0.218749999999999
40
0.218749999999999
40
0.25
40
0.25
40
0.281250000000001
40
0.281250000000001
40
0.312500000000002
40
0.312500000000002
40
0.343750000000003
40
0.343750000000003
40
0.375000000000004
40
0.375000000000004
40
0.406250000000005
40
0.406250000000005
40
0.421875000000006
40
0.421875000000006
40
0.429687500000006
40
0.433593750000006
40
0.433593750000006
40
0.437500000000006
40
0.437500000000006
40
0.468750000000005
40
0.468750000000005
40
0.500000000000005
40
0.500000000000005
40
0.531250000000005
40
0.531250000000005
40
0.562500000000005
40
0.562500000000005
40
0.593750000000004
40
0.593750000000004
40
0.625000000000004
40
0.625000000000004
40
0.656250000000004
40
0.656250000000004
40
0.687500000000003
40
0.687500000000003
40
0.703125000000003
40
0.703125000000003
40
0.710937500000003
40
0.714843750000003
40
0.714843750000003
40
0.718750000000003
40
0.718750000000003
40
0.750000000000003
40
0.750000000000003
40
0.781250000000003
40
0.781250000000003
40
0.812500000000002
40
0.812500000000002
40
0.843750000000002
40
0.843750000000002
40
0.875000000000002
40
0.875000000000002
40
0.906250000000001
40
0.906250000000001
40
0.937500000000001
40
0.937500000000001
40
0.96875
40
0.96875
40
1
40
1
40
1
40
1
41
1
10
106.9
20
6.12755850919831
30
0
41
1
10
106.979654356181
20
5.80085533539997
30
0
41
1
10
107.059308712362
20
5.43863280848942
30
0
41
1
10
107.218617424724
20
4.66162441582313
30
0
41
1
10
107.298271780905
20
4.24696223160757
30
0
41
1
10
107.457580493266
20
3.38807846338116
30
0
41
1
10
107.537234849447
20
2.94398555712206
30
0
41
1
10
107.696543561809
20
2.04966222294075
30
0
41
1
10
107.77619791799
20
1.59952633693413
30
0
41
1
10
107.895679452261
20
0.934985568040958
30
0
41
1
10
107.935506630352
20
0.715216292272146
30
0
41
1
10
107.995247397488
20
0.389724728462795
30
0
41
1
10
108.015160986533
20
0.28191862035365
30
0
41
1
10
108.054988164623
20
0.0679136272285348
30
0
41
1
10
108.074901753668
20
-0.037786280293858
30
0
41
1
10
108.174469698894
20
-0.572036318705699
30
0
41
1
10
108.254124055076
20
-1.01266976966383
30
0
41
1
10
108.413432767437
20
-1.90405859086408
30
0
41
1
10
108.493087123618
20
-2.3547591966711
30
0
41
1
10
108.65239583598
20
-3.24509122346274
30
0
41
1
10
108.732050192161
20
-3.68461791937915
30
0
41
1
10
108.891358904523
20
-4.52898707349118
30
0
41
1
10
108.971013260704
20
-4.93369804272683
30
0
41
1
10
109.130321973066
20
-5.68605436609715
30
0
41
1
10
109.209976329247
20
-6.03358348503073
30
0
41
1
10
109.369285041608
20
-6.6543167978989
30
0
41
1
10
109.448939397789
20
-6.92746015108494
30
0
41
1
10
109.608248110151
20
-7.39008131540476
30
0
41
1
10
109.687902466332
20
-7.57956957260541
30
0
41
1
10
109.847211178694
20
-7.87424577190455
30
0
41
1
10
109.926865534875
20
-7.97950078394203
30
0
41
1
10
110.046347069146
20
-8.07927806361243
30
0
41
1
10
110.086174247236
20
-8.10290403671439
30
0
41
1
10
110.145915014372
20
-8.12489470074263
30
0
41
1
10
110.17578539794
20
-8.13253114883491
30
0
41
1
10
110.205655781508
20
-8.13534170192219
30
0
41
1
10
110.225569370553
20
-8.13616795730459
30
0
41
1
10
110.235526165076
20
-8.13606094047282
30
0
41
1
10
110.325137315779
20
-8.13038195382609
30
0
41
1
10
110.40479167196
20
-8.09149511704419
30
0
41
1
10
110.564100384322
20
-7.93501070539702
30
0
41
1
10
110.643754740503
20
-7.81732318426612
30
0
41
1
10
110.803063452865
20
-7.49733636039795
30
0
41
1
10
110.882717809046
20
-7.29497667144335
30
0
41
1
10
111.042026521407
20
-6.80743773483476
30
0
41
1
10
111.121680877589
20
-6.5222585401458
30
0
41
1
10
111.28098958995
20
-5.87957941762969
30
0
41
1
10
111.360643946131
20
-5.52215048536402
30
0
41
1
10
111.519952658493
20
-4.75312349698294
30
0
41
1
10
111.599607014674
20
-4.34164689047134
30
0
41
1
10
111.758915727036
20
-3.48733388521822
30
0
41
1
10
111.838570083217
20
-3.0446273420732
30
0
41
1
10
111.997878795579
20
-2.15137947105029
30
0
41
1
10
112.077533151759
20
-1.70093619501864
30
0
41
1
10
112.197014686031
20
-1.03490516447155
30
0
41
1
10
112.236841864121
20
-0.814468962872041
30
0
41
1
10
112.296582631257
20
-0.487759949462003
30
0
41
1
10
112.326453014825
20
-0.325387853336821
30
0
41
1
10
112.356323398393
20
-0.164749898908951
30
0
41
1
10
112.376236987438
20
-0.0580696485103545
30
0
41
1
10
112.386193781961
20
-0.0050774708679455
30
0
41
1
10
112.475804932664
20
0.473496531782104
30
0
41
1
10
112.555459288845
20
0.912634607626757
30
0
41
1
10
112.714768001207
20
1.80245557375201
30
0
41
1
10
112.794422357388
20
2.25308770341962
30
0
41
1
10
112.953731069749
20
3.14500592951887
30
0
41
1
10
113.03338542593
20
3.58619057594015
30
0
41
1
10
113.192694138292
20
4.43566514151971
30
0
41
1
10
113.272348494473
20
4.84382426600575
30
0
41
1
10
113.431657206835
20
5.60463253452278
30
0
41
1
10
113.511311563016
20
5.95716271281876
30
0
41
1
10
113.670620275378
20
6.58894861098284
30
0
41
1
10
113.750274631559
20
6.86813835880304
30
0
41
1
10
113.90958334392
20
7.34325000257112
30
0
41
1
10
113.989237700101
20
7.53917713428311
30
0
41
1
10
114.148546412463
20
7.84649296164838
30
0
41
1
10
114.228200768644
20
7.95794548053573
30
0
41
1
10
114.387509481006
20
8.10265360952329
30
0
41
1
10
114.467163837187
20
8.136
30
0
41
1
10
114.546818193368
20
8.136
30
0
0
SPLINE
5
DC
100
AcDbEntity
8
1
62
256
6
ByLayer
370
13
48
1
60
0
100
AcDbSpline
70
4
71
3
72
83
73
79
40
0
40
0
40
0
40
0
40
0.0312500000000011
40
0.0312500000000011
40
0.0625000000000022
40
0.0625000000000022
40
0.0937500000000034
40
0.0937500000000034
40
0.109375000000004
40
0.109375000000004
40
0.125000000000005
40
0.125000000000005
40
0.156250000000006
40
0.156250000000006
40
0.187500000000008
40
0.187500000000008
40
0.218750000000009
40
0.218750000000009
40
0.250000000000011
40
0.250000000000011
40
0.281250000000012
40
0.281250000000012
40
0.312500000000014
40
0.312500000000014
40
0.343750000000016
40
0.343750000000016
40
0.375000000000017
40
0.375000000000017
40
0.390625000000018
40
0.390625000000018
40
0.394531250000018
40
0.394531250000018
40
0.398437500000018
40
0.398437500000018
40
0.406250000000018
40
0.406250000000018
40
0.43750000000002
40
0.43750000000002
40
0.468750000000021
40
0.468750000000021
40
0.500000000000022
40
0.500000000000022
40
0.531250000000023
40
0.531250000000023
40
0.562500000000025
40
0.562500000000025
40
0.593750000000026
40
0.593750000000026
40
0.625000000000027
40
0.625000000000027
40
0.656250000000028
40
0.656250000000028
40
0.687500000000029
40
0.687500000000029
40
0.69531250000003
40
0.69531250000003
40
0.699218750000029
40
0.699218750000029
40
0.703125000000029
40
0.718750000000028
40
0.718750000000028
40
0.750000000000025
40
0.750000000000025
40
0.781250000000022
40
0.781250000000022
40
0.812500000000019
40
0.812500000000019
40
0.843750000000016
40
0.843750000000016
40
0.875000000000012
40
0.875000000000012
40
0.906250000000009
40
0.906250000000009
40
0.937500000000006
40
0.937500000000006
40
0.968750000000003
40
0.968750000000003
40
1
40
1
40
1
40
1
41
1
10
106.9
20
3.72004689645885
30
0
41
1
10
106.974488104032
20
3.31644610408858
30
0
41
1
10
107.048976208064
20
2.90081088605407
30
0
41
1
10
107.197952416128
20
2.06436944375906
30
0
41
1
10
107.27244052016
20
1.6436305448583
30
0
41
1
10
107.421416728225
20
0.813689102452202
30
0
41
1
10
107.495904832257
20
0.404519188676659
30
0
41
1
10
107.607636988305
20
-0.190978109187654
30
0
41
1
10
107.644881040321
20
-0.392202589800746
30
0
41
1
10
107.719369144353
20
-0.799549733903945
30
0
41
1
10
107.756613196369
20
-1.00552288448236
30
0
41
1
10
107.868345352417
20
-1.62776397758901
30
0
41
1
10
107.942833456449
20
-2.04845363494243
30
0
41
1
10
108.091809664513
20
-2.88502596949672
30
0
41
1
10
108.166297768545
20
-3.30084172384488
30
0
41
1
10
108.315273976609
20
-4.10865040824109
30
0
41
1
10
108.389762080641
20
-4.50055232890469
30
0
41
1
10
108.538738288705
20
-5.24152281244477
30
0
41
1
10
108.613226392738
20
-5.59050007057354
30
0
41
1
10
108.762202600802
20
-6.22945265757778
30
0
41
1
10
108.836690704834
20
-6.51936407094496
30
0
41
1
10
108.985666912898
20
-7.02929082738723
30
0
41
1
10
109.06015501693
20
-7.24928774881892
30
0
41
1
10
109.209131224994
20
-7.61505585973603
30
0
41
1
10
109.283619329026
20
-7.76085425457623
30
0
41
1
10
109.43259553709
20
-7.98031105422294
30
0
41
1
10
109.507083641122
20
-8.05402675616875
30
0
41
1
10
109.61881579717
20
-8.11586749976092
30
0
41
1
10
109.656059849186
20
-8.12839269034328
30
0
41
1
10
109.702614914206
20
-8.13468989020259
30
0
41
1
10
109.71192592721
20
-8.13548175615915
30
0
41
1
10
109.730547953218
20
-8.13615055735275
30
0
41
1
10
109.739858966222
20
-8.13603052676601
30
0
41
1
10
109.767792005234
20
-8.13429518141939
30
0
41
1
10
109.786414031242
20
-8.13129730527052
30
0
41
1
10
109.879524161283
20
-8.10670665108688
30
0
41
1
10
109.954012265315
20
-8.05618088371759
30
0
41
1
10
110.102988473379
20
-7.88508296008476
30
0
41
1
10
110.177476577411
20
-7.76444814114126
30
0
41
1
10
110.326452785475
20
-7.44907102433754
30
0
41
1
10
110.400940889507
20
-7.25428896108974
30
0
41
1
10
110.549917097571
20
-6.79258464897868
30
0
41
1
10
110.624405201603
20
-6.52566430236485
30
0
41
1
10
110.773381409667
20
-5.92831205788409
30
0
41
1
10
110.847869513699
20
-5.59792973752906
30
0
41
1
10
110.996845721764
20
-4.88817745475836
30
0
41
1
10
111.071333825796
20
-4.50889234148389
30
0
41
1
10
111.22031003386
20
-3.71967179758997
30
0
41
1
10
111.294798137892
20
-3.30983061933253
30
0
41
1
10
111.443774345956
20
-2.47885475641684
30
0
41
1
10
111.518262449988
20
-2.05779718204371
30
0
41
1
10
111.667238658052
20
-1.22209764805601
30
0
41
1
10
111.741726762084
20
-0.807500015965161
30
0
41
1
10
111.834836892124
20
-0.302133185408167
30
0
41
1
10
111.853458918132
20
-0.201693844295107
30
0
41
1
10
111.881391957144
20
-0.0521203704531104
30
0
41
1
10
111.890702970148
20
-0.0025682866690602
30
0
41
1
10
111.909324996156
20
0.096879155223121
30
0
41
1
10
111.955880061176
20
0.346418496241142
30
0
41
1
10
112.002435126196
20
0.600321738576099
30
0
41
1
10
112.114167282244
20
1.2157522462083
30
0
41
1
10
112.188655386276
20
1.63423763224236
30
0
41
1
10
112.337631594341
20
2.47222528712271
30
0
41
1
10
112.412119698373
20
2.89167162693701
30
0
41
1
10
112.561095906437
20
3.71313325770856
30
0
41
1
10
112.635584010469
20
4.11506337457445
30
0
41
1
10
112.784560218533
20
4.8821720862444
30
0
41
1
10
112.859048322565
20
5.2472563359996
30
0
41
1
10
113.008024530629
20
5.92326342464261
30
0
41
1
10
113.082512634661
20
6.23411060677347
30
0
41
1
10
113.231488842725
20
6.78880377839928
30
0
41
1
10
113.305976946757
20
7.03261542013027
30
0
41
1
10
113.454953154822
20
7.44669363653674
30
0
41
1
10
113.529441258854
20
7.61697350950109
30
0
41
1
10
113.678417466918
20
7.88406228617717
30
0
41
1
10
113.75290557095
20
7.98092088523882
30
0
41
1
10
113.901881779014
20
8.10685701047512
30
0
41
1
10
113.976369883046
20
8.136
30
0
41
1
10
114.050857987078
20
8.136
30
0
0
SPLINE
5
DD
100
AcDbEntity
8
1
62
256
6
ByLayer
370
13
48
1
60
0
100
AcDbSpline
70
4
71
3
72
82
73
78
40
0
40
0
40
0
40
0
40
0.0156249999999994
40
0.0156249999999994
40
0.023437499999999
40
0.023437499999999
40
0.0312499999999985
40
0.0312499999999985
40
0.0624999999999978
40
0.0624999999999978
40
0.0937499999999971
40
0.0937499999999971
40
0.124999999999996
40
0.124999999999996
40
0.156249999999996
40
0.156249999999996
40
0.187499999999995
40
0.187499999999995
40
0.218749999999994
40
0.218749999999994
40
0.249999999999994
40
0.249999999999994
40
0.281249999999993
40
0.281249999999993
40
0.312499999999993
40
0.312499999999993
40
0.343749999999992
40
0.343749999999992
40
0.351562499999992
40
0.351562499999992
40
0.359374999999992
40
0.359374999999992
40
0.374999999999992
40
0.374999999999992
40
0.406249999999992
40
0.406249999999992
40
0.437499999999992
40
0.437499999999992
40
0.468749999999993
40
0.468749999999993
40
0.499999999999993
40
0.499999999999993
40
0.531249999999993
40
0.531249999999993
40
0.562499999999993
40
0.562499999999993
40
0.593749999999993
40
0.593749999999993
40
0.624999999999994
40
0.624999999999994
40
0.656249999999994
40
0.656249999999994
40
0.671874999999994
40
0.671874999999994
40
0.679687499999994
40
0.679687499999994
40
0.687499999999994
40
0.687499999999994
40
0.718749999999995
40
0.718749999999995
40
0.749999999999996
40
0.749999999999996
40
0.781249999999996
40
0.781249999999996
40
0.812499999999997
40
0.812499999999997
40
0.843749999999997
40
0.843749999999997
40
0.874999999999998
40
0.874999999999998
40
0.906249999999998
40
0.906249999999998
40
0.937499999999999
40
0.937499999999999
40
0.968749999999999
40
0.968749999999999
40
1
40
1
40
1
40
1
41
1
10
106.9
20
0.956396189026691
30
0
41
1
10
106.934660925942
20
0.764612805791273
30
0
41
1
10
106.969321851883
20
0.574397195139625
30
0
41
1
10
107.021313240795
20
0.292404314134387
30
0
41
1
10
107.038643703766
20
0.198960230106536
30
0
41
1
10
107.073304629708
20
0.0133234119718395
30
0
41
1
10
107.090635092679
20
-0.0787519829917187
30
0
41
1
10
107.177287407533
20
-0.544297856691827
30
0
41
1
10
107.246609259416
20
-0.926606489448147
30
0
41
1
10
107.385252963182
20
-1.7003473727336
30
0
41
1
10
107.454574815066
20
-2.09175517772886
30
0
41
1
10
107.593218518832
20
-2.8701964200352
30
0
41
1
10
107.662540370715
20
-3.25718283805381
30
0
41
1
10
107.801184074482
20
-4.01148570948632
30
0
41
1
10
107.870505926365
20
-4.37873911329052
30
0
41
1
10
108.009149630131
20
-5.0781676906968
30
0
41
1
10
108.078471482015
20
-5.41027791131927
30
0
41
1
10
108.217115185781
20
-6.02587994420412
30
0
41
1
10
108.286437037664
20
-6.30932194427163
30
0
41
1
10
108.425080741431
20
-6.81770238061256
30
0
41
1
10
108.494402593314
20
-7.04261892284131
30
0
41
1
10
108.63304629708
20
-7.42883593716479
30
0
41
1
10
108.702368148964
20
-7.59014554991887
30
0
41
1
10
108.84101185273
20
-7.84900186943676
30
0
41
1
10
108.910333704613
20
-7.94658191026556
30
0
41
1
10
109.04897740838
20
-8.08212643715891
30
0
41
1
10
109.118299260263
20
-8.12013604744811
30
0
41
1
10
109.204951575117
20
-8.13489722101252
30
0
41
1
10
109.222282038088
20
-8.13621819477706
30
0
41
1
10
109.256942964029
20
-8.13572355854143
30
0
41
1
10
109.274273427
20
-8.13389907097462
30
0
41
1
10
109.326264815912
20
-8.12349959726689
30
0
41
1
10
109.360925741854
20
-8.10999444075745
30
0
41
1
10
109.464908519679
20
-8.04833449903691
30
0
41
1
10
109.534230371562
20
-7.97893381096412
30
0
41
1
10
109.672874075328
20
-7.77789351671018
30
0
41
1
10
109.742195927212
20
-7.64621349117292
30
0
41
1
10
109.880839630978
20
-7.31861923773991
30
0
41
1
10
109.950161482861
20
-7.12268339917463
30
0
41
1
10
110.088805186628
20
-6.66931110862436
30
0
41
1
10
110.158127038511
20
-6.41188197836553
30
0
41
1
10
110.296770742277
20
-5.84323326843716
30
0
41
1
10
110.366092594161
20
-5.5320517168945
30
0
41
1
10
110.504736297927
20
-4.86790132294774
30
0
41
1
10
110.57405814981
20
-4.5149924865336
30
0
41
1
10
110.712701853577
20
-3.78216977882568
30
0
41
1
10
110.78202370546
20
-3.40232192065761
30
0
41
1
10
110.920667409226
20
-2.63122646929944
30
0
41
1
10
110.98998926111
20
-2.24003460928057
30
0
41
1
10
111.128632964876
20
-1.46079337998057
30
0
41
1
10
111.197954816759
20
-1.07277912695835
30
0
41
1
10
111.301937594584
20
-0.502177444529934
30
0
41
1
10
111.336598520525
20
-0.313857773388236
30
0
41
1
10
111.388589909438
20
-0.0351092036945602
30
0
41
1
10
111.405920372409
20
0.056918792850837
30
0
41
1
10
111.44058129835
20
0.242945020560313
30
0
41
1
10
111.457911761321
20
0.336572899659984
30
0
41
1
10
111.544564076175
20
0.807420457963644
30
0
41
1
10
111.613885928058
20
1.19288467857299
30
0
41
1
10
111.752529631825
20
1.97005404896831
30
0
41
1
10
111.821851483708
20
2.36172941471588
30
0
41
1
10
111.960495187475
20
3.13728870835169
30
0
41
1
10
112.029817039358
20
3.52112103288928
30
0
41
1
10
112.168460743124
20
4.26550579552105
30
0
41
1
10
112.237782595007
20
4.62599328228575
30
0
41
1
10
112.376426298774
20
5.30853337448212
30
0
41
1
10
112.445748150657
20
5.63052304064493
30
0
41
1
10
112.584391854423
20
6.22322855811694
30
0
41
1
10
112.653713706307
20
6.49390019065413
30
0
41
1
10
112.792357410073
20
6.97511656133145
30
0
41
1
10
112.861679261956
20
7.18564667700673
30
0
41
1
10
113.000322965723
20
7.54262893537123
30
0
41
1
10
113.069644817606
20
7.68909669431511
30
0
41
1
10
113.208288521372
20
7.9188825255371
30
0
41
1
10
113.277610373255
20
8.00223782769226
30
0
41
1
10
113.416254077022
20
8.11077356385195
30
0
41
1
10
113.485575928905
20
8.136
30
0
41
1
10
113.554897780788
20
8.136
30
0
0
SPLINE
5
DE
100
AcDbEntity
8
1
62
256
6
ByLayer
370
13
48
1
60
0
100
AcDbSpline
70
4
71
3
72
8
73
4
40
0
40
0
40
0
40
0
40
1
40
1
40
1
40
1
41
1
10
115.331323938862
20
8.136
30
0
41
1
10
115.400462017244
20
8.136
30
0
41
1
10
115.469600095627
20
8.11090761517895
30
0
41
1
10
115.53873817401
20
8.05693668078237
30
0
0
SPLINE
5
DF
100
AcDbEntity
8
1
62
256
6
ByLayer
370
13
48
1
60
0
100
AcDbSpline
70
4
71
3
72
79
73
75
40
0
40
0
40
0
40
0
40
0.0312499999999984
40
0.0312499999999984
40
0.0624999999999968
40
0.0624999999999968
40
0.0937499999999952
40
0.0937499999999952
40
0.124999999999994
40
0.124999999999994
40
0.156249999999992
40
0.156249999999992
40
0.18749999999999
40
0.18749999999999
40
0.218749999999989
40
0.218749999999989
40
0.249999999999987
40
0.249999999999987
40
0.281249999999986
40
0.281249999999986
40
0.296874999999985
40
0.296874999999985
40
0.300781249999985
40
0.300781249999985
40
0.304687499999984
40
0.312499999999985
40
0.312499999999985
40
0.343749999999986
40
0.343749999999986
40
0.374999999999987
40
0.374999999999987
40
0.406249999999988
40
0.406249999999988
40
0.437499999999989
40
0.437499999999989
40
0.468749999999991
40
0.468749999999991
40
0.499999999999992
40
0.499999999999992
40
0.531249999999993
40
0.531249999999993
40
0.562499999999994
40
0.562499999999994
40
0.593749999999995
40
0.593749999999995
40
0.624999999999996
40
0.624999999999996
40
0.640624999999997
40
0.640624999999997
40
0.648437499999997
40
0.648437499999997
40
0.656249999999997
40
0.656249999999997
40
0.687499999999997
40
0.687499999999997
40
0.718749999999998
40
0.718749999999998
40
0.749999999999998
40
0.749999999999998
40
0.781249999999998
40
0.781249999999998
40
0.812499999999998
40
0.812499999999998
40
0.843749999999999
40
0.843749999999999
40
0.874999999999999
40
0.874999999999999
40
0.906249999999999
40
0.906249999999999
40
0.9375
40
0.9375
40
0.96875
40
0.96875
40
1
40
1
40
1
40
1
41
1
10
106.9
20
-1.7617177026911
30
0
41
1
10
106.964155599734
20
-2.12205689080719
30
0
41
1
10
107.028311199469
20
-2.48416786883996
30
0
41
1
10
107.156622398937
20
-3.20066222182669
30
0
41
1
10
107.220777998672
20
-3.55500950750323
30
0
41
1
10
107.349089198141
20
-4.243684901195
30
0
41
1
10
107.413244797875
20
-4.57796881456284
30
0
41
1
10
107.541555997344
20
-5.21448023160835
30
0
41
1
10
107.605711597078
20
-5.5166644460264
30
0
41
1
10
107.734022796547
20
-6.07854337698598
30
0
41
1
10
107.798178396281
20
-6.33820559343457
30
0
41
1
10
107.92648959575
20
-6.8073858295225
30
0
41
1
10
107.990645195484
20
-7.01688923008425
30
0
41
1
10
108.118956394953
20
-7.38160553885328
30
0
41
1
10
108.183111994687
20
-7.5368234467671
30
0
41
1
10
108.311423194156
20
-7.79247628678863
30
0
41
1
10
108.37557879389
20
-7.89293211574628
30
0
41
1
10
108.503889993359
20
-8.04181481189534
30
0
41
1
10
108.568045593093
20
-8.09027143212472
30
0
41
1
10
108.664278992695
20
-8.1278434282965
30
0
41
1
10
108.696356792562
20
-8.13453150358967
30
0
41
1
10
108.736454042396
20
-8.13609601674787
30
0
41
1
10
108.744473492363
20
-8.1360710900382
30
0
41
1
10
108.760512392297
20
-8.13534411886448
30
0
41
1
10
108.784570742197
20
-8.13323351454741
30
0
41
1
10
108.808629092097
20
-8.12800381831551
30
0
41
1
10
108.888823591765
20
-8.10339072782591
30
0
41
1
10
108.9529791915
20
-8.06065106829269
30
0
41
1
10
109.081290390968
20
-7.9236980181129
30
0
41
1
10
109.145445990703
20
-7.82945434885718
30
0
41
1
10
109.273757190171
20
-7.5863936436611
30
0
41
1
10
109.337912789906
20
-7.4375542928847
30
0
41
1
10
109.466223989374
20
-7.08535869005797
30
0
41
1
10
109.530379589109
20
-6.88199532011782
30
0
41
1
10
109.658690788578
20
-6.42443234516119
30
0
41
1
10
109.722846388312
20
-6.17024506508849
30
0
41
1
10
109.851157587781
20
-5.61827313661499
30
0
41
1
10
109.915313187515
20
-5.32051919547672
30
0
41
1
10
110.043624386984
20
-4.69155564061171
30
0
41
1
10
110.107779986718
20
-4.36038855270436
30
0
41
1
10
110.236091186187
20
-3.6765146649372
30
0
41
1
10
110.300246785921
20
-3.3238524641952
30
0
41
1
10
110.42855798539
20
-2.60933252168641
30
0
41
1
10
110.492713585124
20
-2.24751216495309
30
0
41
1
10
110.621024784593
20
-1.52618459896712
30
0
41
1
10
110.685180384327
20
-1.16670172699085
30
0
41
1
10
110.781413783929
20
-0.636508886333331
30
0
41
1
10
110.813491583796
20
-0.461267061753972
30
0
41
1
10
110.861608283597
20
-0.201388816720879
30
0
41
1
10
110.87764718353
20
-0.115259002834733
30
0
41
1
10
110.909724983398
20
0.0558968962385507
30
0
41
1
10
110.925763883331
20
0.141567596421567
30
0
41
1
10
111.005958382999
20
0.573535162265472
30
0
41
1
10
111.070113982734
20
0.92735273138851
30
0
41
1
10
111.198425182202
20
1.64302337183415
30
0
41
1
10
111.262580781937
20
2.00486023592188
30
0
41
1
10
111.390891981405
20
2.725992462606
30
0
41
1
10
111.45504758114
20
3.08525728915868
30
0
41
1
10
111.583358780608
20
3.78924984803572
30
0
41
1
10
111.647514380343
20
4.13393603226095
30
0
41
1
10
111.775825579811
20
4.7964558887877
30
0
41
1
10
111.839981179546
20
5.11424462051613
30
0
41
1
10
111.968292379015
20
5.71166491778351
30
0
41
1
10
112.032447978749
20
5.99125809154904
30
0
41
1
10
112.160759178218
20
6.50328265669367
30
0
41
1
10
112.224914777952
20
6.73569095793763
30
0
41
1
10
112.353225977421
20
7.14759442175156
30
0
41
1
10
112.417381577155
20
7.3270860740534
30
0
41
1
10
112.545692776624
20
7.63106839298339
30
0
41
1
10
112.609848376358
20
7.75557366635294
30
0
41
1
10
112.738159575827
20
7.95098153618869
30
0
41
1
10
112.802315175561
20
8.021910927823
30
0
41
1
10
112.93062637503
20
8.11440446672293
30
0
41
1
10
112.994781974764
20
8.136
30
0
41
1
10
113.058937574499
20
8.136
30
0
0
SPLINE
5
E0
100
AcDbEntity
8
1
62
256
6
ByLayer
370
13
48
1
60
0
100
AcDbSpline
70
4
71
3
72
14
73
10
40
0
40
0
40
0
40
0
40
0.25
40
0.25
40
0.5
40
0.5
40
0.75
40
0.75
40
1
40
1
40
1
40
1
41
1
10
114.835363732572
20
8.136
30
0
41
1
10
114.893978269358
20
8.136
30
0
41
1
10
114.952592806145
20
8.11798251801156
30
0
41
1
10
115.069821879718
20
8.04120162525314
30
0
41
1
10
115.128436416504
20
7.98241816507692
30
0
41
1
10
115.245665490077
20
7.82064089615471
30
0
41
1
10
115.304280026864
20
7.71762913990611
30
0
41
1
10
115.421509100437
20
7.46579919848935
30
0
41
1
10
115.480123637224
20
7.3169692303818
30
0
41
1
10
115.53873817401
20
7.14560313964054
30
0
0
SPLINE
5
E1
100
AcDbEntity
8
1
62
256
6
ByLayer
370
13
48
1
60
0
100
AcDbSpline
70
4
71
3
72
78
73
74
40
0
40
0
40
0
40
0
40
0.0312499999999984
40
0.0312499999999984
40
0.0624999999999969
40
0.0624999999999969
40
0.0937499999999953
40
0.0937499999999953
40
0.124999999999994
40
0.124999999999994
40
0.156249999999992
40
0.156249999999992
40
0.187499999999991
40
0.187499999999991
40
0.218749999999989
40
0.218749999999989
40
0.234374999999988
40
0.234374999999988
40
0.242187499999988
40
0.242187499999988
40
0.249999999999988
40
0.249999999999988
40
0.281249999999987
40
0.281249999999987
40
0.312499999999987
40
0.312499999999987
40
0.343749999999987
40
0.343749999999987
40
0.374999999999987
40
0.374999999999987
40
0.406249999999987
40
0.406249999999987
40
0.437499999999987
40
0.437499999999987
40
0.468749999999987
40
0.468749999999987
40
0.499999999999986
40
0.499999999999986
40
0.531249999999986
40
0.531249999999986
40
0.562499999999986
40
0.562499999999986
40
0.593749999999986
40
0.593749999999986
40
0.609374999999986
40
0.609374999999986
40
0.617187499999985
40
0.617187499999985
40
0.624999999999985
40
0.624999999999985
40
0.656249999999987
40
0.656249999999987
40
0.687499999999988
40
0.687499999999988
40
0.718749999999989
40
0.718749999999989
40
0.74999999999999
40
0.74999999999999
40
0.781249999999991
40
0.781249999999991
40
0.812499999999993
40
0.812499999999993
40
0.843749999999994
40
0.843749999999994
40
0.874999999999995
40
0.874999999999995
40
0.906249999999996
40
0.906249999999996
40
0.937499999999998
40
0.937499999999998
40
0.968749999999999
40
0.968749999999999
40
1
40
1
40
1
40
1
41
1
10
106.9
20
-4.48407581641374
30
0
41
1
10
106.958989347585
20
-4.78818969367276
30
0
41
1
10
107.017978695171
20
-5.08082780575666
30
0
41
1
10
107.135957390342
20
-5.63440316813902
30
0
41
1
10
107.194946737928
20
-5.89531469151487
30
0
41
1
10
107.312925433099
20
-6.3782222254774
30
0
41
1
10
107.371914780684
20
-6.60020135120396
30
0
41
1
10
107.489893475855
20
-7.0002804592047
30
0
41
1
10
107.548882823441
20
-7.17837522454062
30
0
41
1
10
107.666861518612
20
-7.48831285455213
30
0
41
1
10
107.725850866197
20
-7.62016204254604
30
0
41
1
10
107.843829561368
20
-7.83780671657982
30
0
41
1
10
107.902818908954
20
-7.92361735105234
30
0
41
1
10
108.020797604125
20
-8.05161947684431
30
0
41
1
10
108.07978695171
20
-8.09383084299199
30
0
41
1
10
108.168270973088
20
-8.12753029326262
30
0
41
1
10
108.197765646881
20
-8.13383845384752
30
0
41
1
10
108.24200765757
20
-8.13637840607907
30
0
41
1
10
108.256754994467
20
-8.13608383553239
30
0
41
1
10
108.28624966826
20
-8.13318127983186
30
0
41
1
10
108.300997005156
20
-8.13056622177564
30
0
41
1
10
108.374733689638
20
-8.11147599117143
30
0
41
1
10
108.433723037223
20
-8.07690815915501
30
0
41
1
10
108.551701732394
20
-7.96484730633981
30
0
41
1
10
108.61069107998
20
-7.88733400540897
30
0
41
1
10
108.728669775151
20
-7.68658184732024
30
0
41
1
10
108.787659122736
20
-7.56332664229109
30
0
41
1
10
108.905637817907
20
-7.27042998058454
30
0
41
1
10
108.964627165493
20
-7.10078030517354
30
0
41
1
10
109.082605860664
20
-6.71695811131576
30
0
41
1
10
109.141595208249
20
-6.50278857968618
30
0
41
1
10
109.25957390342
20
-6.03440280607992
30
0
41
1
10
109.318563251006
20
-5.78020142200205
30
0
41
1
10
109.436541946177
20
-5.23857288824655
30
0
41
1
10
109.495531293762
20
-4.95117016250711
30
0
41
1
10
109.613509988934
20
-4.35170369168509
30
0
41
1
10
109.672499336519
20
-4.03966923009381
30
0
41
1
10
109.79047803169
20
-3.40042222244907
30
0
41
1
10
109.849467379275
20
-3.07323821587619
30
0
41
1
10
109.967446074447
20
-2.41320411518211
30
0
41
1
10
110.026435422032
20
-2.08037704996758
30
0
41
1
10
110.144414117203
20
-1.41780732607384
30
0
41
1
10
110.203403464789
20
-1.08807945017691
30
0
41
1
10
110.291887486167
20
-0.601360961905158
30
0
41
1
10
110.32138215996
20
-0.440421901067765
30
0
41
1
10
110.365624170649
20
-0.201543031308717
30
0
41
1
10
110.380371507545
20
-0.122337539510482
30
0
41
1
10
110.409866181338
20
0.0351453101818606
30
0
41
1
10
110.424613518234
20
0.113765744231017
30
0
41
1
10
110.498350202716
20
0.510312924017654
30
0
41
1
10
110.557339550302
20
0.834610810392093
30
0
41
1
10
110.675318245473
20
1.49088910814587
30
0
41
1
10
110.734307593058
20
1.82285995785531
30
0
41
1
10
110.852286288229
20
2.48649038312863
30
0
41
1
10
110.911275635815
20
2.81813163672845
30
0
41
1
10
111.029254330986
20
3.47197326906428
30
0
41
1
10
111.088243678571
20
3.79414791071846
30
0
41
1
10
111.206222373742
20
4.4194593715068
30
0
41
1
10
111.265211721328
20
4.72256668918243
30
0
41
1
10
111.383190416499
20
5.30052412697583
30
0
41
1
10
111.442179764084
20
5.57534627810287
30
0
41
1
10
111.560158459255
20
6.08877523784997
30
0
41
1
10
111.619147806841
20
6.32736106342506
30
0
41
1
10
111.737126502012
20
6.76237521872073
30
0
41
1
10
111.796115849597
20
6.95879341946926
30
0
41
1
10
111.914094544768
20
7.30602561717737
30
0
41
1
10
111.973083892354
20
7.45684143538745
30
0
41
1
10
112.091062587525
20
7.7120435835289
30
0
41
1
10
112.15005193511
20
7.81644191365081
30
0
41
1
10
112.268030630281
20
7.9803886056533
30
0
41
1
10
112.327019977867
20
8.0399554390566
30
0
41
1
10
112.444998673038
20
8.11775078873069
30
0
41
1
10
112.503988020623
20
8.136
30
0
41
1
10
112.562977368209
20
8.136
30
0
0
SPLINE
5
E2
100
AcDbEntity
8
1
62
256
6
ByLayer
370
13
48
1
60
0
100
AcDbSpline
70
4
71
3
72
22
73
18
40
0
40
0
40
0
40
0
40
0.125
40
0.125
40
0.25
40
0.25
40
0.375
40
0.375
40
0.5
40
0.5
40
0.625
40
0.625
40
0.75
40
0.75
40
0.875
40
0.875
40
1
40
1
40
1
40
1
41
1
10
114.339403526282
20
8.136
30
0
41
1
10
114.389375803271
20
8.136
30
0
41
1
10
114.439348080259
20
8.12291234640946
30
0
41
1
10
114.539292634237
20
8.06759584931538
30
0
41
1
10
114.589264911225
20
8.02535795817289
30
0
41
1
10
114.689209465203
20
7.9093899718423
30
0
41
1
10
114.739181742191
20
7.83565130449946
30
0
41
1
10
114.839126296169
20
7.65523132857038
30
0
41
1
10
114.889098573157
20
7.54854323511461
30
0
41
1
10
114.989043127135
20
7.30191015989337
30
0
41
1
10
115.039015404124
20
7.16196149063052
30
0
41
1
10
115.138959958101
20
6.84979125057822
30
0
41
1
10
115.188932235089
20
6.67757007975803
30
0
41
1
10
115.288876789067
20
6.3031897536454
30
0
41
1
10
115.338849066056
20
6.10103545431835
30
0
41
1
10
115.438793620033
20
5.670396590221
30
0
41
1
10
115.488765897021
20
5.44192091386742
30
0
41
1
10
115.53873817401
20
5.20261606038918
30
0
0
SPLINE
5
E3
100
AcDbEntity
8
1
62
256
6
ByLayer
370
13
48
1
60
0
100
AcDbSpline
70
4
71
3
72
76
73
72
40
0
40
0
40
0
40
0
40
0.0312499999999999
40
0.0312499999999999
40
0.0624999999999999
40
0.0624999999999999
40
0.0937499999999998
40
0.0937499999999998
40
0.125
40
0.125
40
0.15625
40
0.15625
40
0.171875
40
0.171875
40
0.1875
40
0.1875
40
0.21875
40
0.21875
40
0.25
40
0.25
40
0.28125
40
0.28125
40
0.3125
40
0.3125
40
0.34375
40
0.34375
40
0.375
40
0.375
40
0.40625
40
0.40625
40
0.4375
40
0.4375
40
0.46875
40
0.46875
40
0.5
40
0.5
40
0.53125
40
0.53125
40
0.5625
40
0.5625
40
0.578125
40
0.578125
40
0.5859375
40
0.5859375
40
0.59375
40
0.59375
40
0.625
40
0.625
40
0.65625
40
0.65625
40
0.6875
40
0.6875
40
0.71875
40
0.71875
40
0.75
40
0.75
40
0.78125
40
0.78125
40
0.8125
40
0.8125
40
0.84375
40
0.84375
40
0.875
40
0.875
40
0.90625
40
0.90625
40
0.9375
40
0.9375
40
0.96875
40
0.96875
40
1
40
1
40
1
40
1
41
1
10
106.9
20
-6.67920260339616
30
0
41
1
10
106.953823095437
20
-6.86952260008482
30
0
41
1
10
107.007646190873
20
-7.04191139762924
30
0
41
1
10
107.115292381747
20
-7.34855276592464
30
0
41
1
10
107.169115477183
20
-7.48280738091225
30
0
41
1
10
107.276761668057
20
-7.71270720567338
30
0
41
1
10
107.330584763493
20
-7.80836021114013
30
0
41
1
10
107.438230954367
20
-7.96224090330304
30
0
41
1
10
107.492054049803
20
-8.0204801455229
30
0
41
1
10
107.599700240677
20
-8.10207609055101
30
0
41
1
10
107.653523336113
20
-8.1254458546922
30
0
41
1
10
107.734257979268
20
-8.13698120344915
30
0
41
1
10
107.761169526987
20
-8.13697513510022
30
0
41
1
10
107.814992622423
20
-8.12925944079754
30
0
41
1
10
107.841904170141
20
-8.12148731861174
30
0
41
1
10
107.922638813297
20
-8.08573678420149
30
0
41
1
10
107.976461908733
20
-8.04529239369919
30
0
41
1
10
108.084108099606
20
-7.92812550255178
30
0
41
1
10
108.137931195043
20
-7.85139042013049
30
0
41
1
10
108.245577385917
20
-7.65973065323493
30
0
41
1
10
108.299400481353
20
-7.54479601611163
30
0
41
1
10
108.407046672227
20
-7.27634371670885
30
0
41
1
10
108.460869767663
20
-7.1228209316447
30
0
41
1
10
108.568515958536
20
-6.77855143306761
30
0
41
1
10
108.622339053973
20
-6.58780604808234
30
0
41
1
10
108.729985244846
20
-6.17226531006403
30
0
41
1
10
108.783808340283
20
-5.94747820465255
30
0
41
1
10
108.891454531156
20
-5.46869968504475
30
0
41
1
10
108.945277626593
20
-5.21472246690297
30
0
41
1
10
109.052923817466
20
-4.68373924021014
30
0
41
1
10
109.106746912903
20
-4.40675113663445
30
0
41
1
10
109.214393103776
20
-3.83676027950878
30
0
41
1
10
109.268216199213
20
-3.54377622205936
30
0
41
1
10
109.375862390086
20
-2.94908555752286
30
0
41
1
10
109.429685485523
20
-2.64739562265191
30
0
41
1
10
109.537331676396
20
-2.0423222316544
30
0
41
1
10
109.591154771833
20
-1.73895137847157
30
0
41
1
10
109.698800962706
20
-1.13683595972213
30
0
41
1
10
109.752624058143
20
-0.838098985850849
30
0
41
1
10
109.833358701298
20
-0.39744204155906
30
0
41
1
10
109.860270249016
20
-0.251789207470352
30
0
41
1
10
109.900637570594
20
-0.0355743771884249
30
0
41
1
10
109.914093344453
20
0.0359249393325456
30
0
41
1
10
109.941004892171
20
0.180070610495108
30
0
41
1
10
109.95446066603
20
0.252520219358047
30
0
41
1
10
110.021739535326
20
0.616484889801228
30
0
41
1
10
110.075562630763
20
0.913194686641077
30
0
41
1
10
110.183208821636
20
1.51268088320296
30
0
41
1
10
110.237031917073
20
1.81545095937125
30
0
41
1
10
110.344678107946
20
2.42097870594551
30
0
41
1
10
110.398501203383
20
2.72372498069342
30
0
41
1
10
110.506147394256
20
3.32232512436241
30
0
41
1
10
110.559970489693
20
3.6181631855689
30
0
41
1
10
110.667616680566
20
4.19567765384326
30
0
41
1
10
110.721439776003
20
4.47733562702348
30
0
41
1
10
110.829085966876
20
5.01935307673537
30
0
41
1
10
110.882909062313
20
5.27969416809421
30
0
41
1
10
110.990555253186
20
5.77263676014707
30
0
41
1
10
111.044378348623
20
6.00522289027577
30
0
41
1
10
111.152024539496
20
6.43742801419464
30
0
41
1
10
111.205847634933
20
6.63703712865953
30
0
41
1
10
111.313493825806
20
6.99966177458026
30
0
41
1
10
111.367316921243
20
7.16267423992983
30
0
41
1
10
111.474963112116
20
7.45027824238849
30
0
41
1
10
111.528786207553
20
7.57487340736083
30
0
41
1
10
111.636432398426
20
7.78560431180944
30
0
41
1
10
111.690255493863
20
7.87174899297429
30
0
41
1
10
111.797901684736
20
8.00713437879057
30
0
41
1
10
111.851724780173
20
8.05638722271109
30
0
41
1
10
111.959370971046
20
8.1208134784018
30
0
41
1
10
112.013194066483
20
8.136
30
0
41
1
10
112.067017161919
20
8.136
30
0
0
SPLINE
5
E4
100
AcDbEntity
8
1
62
256
6
ByLayer
370
13
48
1
60
0
100
AcDbSpline
70
4
71
3
72
22
73
18
40
0
40
0
40
0
40
0
40
0.125
40
0.125
40
0.25
40
0.25
40
0.375
40
0.375
40
0.5
40
0.5
40
0.625
40
0.625
40
0.75
40
0.75
40
0.875
40
0.875
40
1
40
1
40
1
40
1
41
1
10
113.843443319992
20
8.136
30
0
41
1
10
113.914080605577
20
8.136
30
0
41
1
10
113.984717891161
20
8.10980348097476
30
0
41
1
10
114.125992462329
20
7.9969666800466
30
0
41
1
10
114.196629747913
20
7.91027593918619
30
0
41
1
10
114.337904319081
20
7.6712697031883
30
0
41
1
10
114.408541604665
20
7.51891398802488
30
0
41
1
10
114.549816175833
20
7.14777692788175
30
0
41
1
10
114.620453461417
20
6.92898015774622
30
0
41
1
10
114.761728032585
20
6.4294296310679
30
0
41
1
10
114.832365318169
20
6.1486945781528
30
0
41
1
10
114.973639889338
20
5.53498396020808
30
0
41
1
10
115.044277174922
20
5.20205956449698
30
0
41
1
10
115.18555174609
20
4.49786770444533
30
0
41
1
10
115.256189031674
20
4.1266705680107
30
0
41
1
10
115.397463602842
20
3.36212819773488
30
0
41
1
10
115.468100888426
20
2.96885318919166
30
0
41
1
10
115.53873817401
20
2.57265814313217
30
0
0
SPLINE
5
E5
100
AcDbEntity
8
1
62
256
6
ByLayer
370
13
48
1
60
0
100
AcDbSpline
70
4
71
3
72
77
73
73
40
0
40
0
40
0
40
0
40
0.03125
40
0.03125
40
0.0625
40
0.0625
40
0.0703125
40
0.0703125
40
0.078125
40
0.078125
40
0.09375
40
0.09375
40
0.125
40
0.125
40
0.15625
40
0.15625
40
0.1875
40
0.1875
40
0.21875
40
0.21875
40
0.25
40
0.25
40
0.28125
40
0.28125
40
0.3125
40
0.3125
40
0.34375
40
0.34375
40
0.375
40
0.375
40
0.40625
40
0.40625
40
0.4375
40
0.4375
40
0.46875
40
0.46875
40
0.5
40
0.5
40
0.53125
40
0.53125
40
0.5390625
40
0.5390625
40
0.546875
40
0.5625
40
0.5625
40
0.59375
40
0.59375
40
0.625
40
0.625
40
0.65625
40
0.65625
40
0.6875
40
0.6875
40
0.71875
40
0.71875
40
0.75
40
0.75
40
0.78125
40
0.78125
40
0.8125
40
0.8125
40
0.84375
40
0.84375
40
0.875
40
0.875
40
0.90625
40
0.90625
40
0.9375
40
0.9375
40
0.96875
40
0.96875
40
1
40
1
40
1
40
1
41
1
10
106.9
20
-7.90152863649919
30
0
41
1
10
106.948656843288
20
-7.96867569127301
30
0
41
1
10
106.997313686576
20
-8.02060413892463
30
0
41
1
10
107.094627373151
20
-8.09590694531596
30
0
41
1
10
107.143284216439
20
-8.11928919393361
30
0
41
1
10
107.204105270549
20
-8.13226968610397
30
0
41
1
10
107.216269481371
20
-8.13405469981834
30
0
41
1
10
107.240597903015
20
-8.13604693184129
30
0
41
1
10
107.252762113837
20
-8.1362580137087
30
0
41
1
10
107.289254746302
20
-8.1345635677518
30
0
41
1
10
107.313583167946
20
-8.13030244288296
30
0
41
1
10
107.386568432878
20
-8.10759653330331
30
0
41
1
10
107.435225276166
20
-8.07921023679896
30
0
41
1
10
107.532538962741
20
-7.99349899626557
30
0
41
1
10
107.581195806029
20
-7.93616622668662
30
0
41
1
10
107.678509492605
20
-7.79080793063477
30
0
41
1
10
107.727166335893
20
-7.70277556750324
30
0
41
1
10
107.824480022468
20
-7.49519016092685
30
0
41
1
10
107.873136865756
20
-7.37563238941488
30
0
41
1
10
107.970450552332
20
-7.10527226729661
30
0
41
1
10
108.01910739562
20
-6.95446828866545
30
0
41
1
10
108.116421082195
20
-6.62309483290585
30
0
41
1
10
108.165077925483
20
-6.44252743510893
30
0
41
1
10
108.262391612058
20
-6.05430430634362
30
0
41
1
10
108.311048455346
20
-5.84665438476719
30
0
41
1
10
108.408362141922
20
-5.40802258306508
30
0
41
1
10
108.45701898521
20
-5.17704961540869
30
0
41
1
10
108.554332671786
20
-4.69638342275783
30
0
41
1
10
108.602989515073
20
-4.44670104570341
30
0
41
1
10
108.700303201649
20
-3.93378168347982
30
0
41
1
10
108.748960044937
20
-3.67055603011482
30
0
41
1
10
108.846273731512
20
-3.13593123310804
30
0
41
1
10
108.8949305748
20
-2.86454248984779
30
0
41
1
10
108.992244261376
20
-2.31885677838892
30
0
41
1
10
109.040901104664
20
-2.0445681806888
30
0
41
1
10
109.138214791239
20
-1.49794672451424
30
0
41
1
10
109.186871634527
20
-1.22561958786602
30
0
41
1
10
109.284185321103
20
-0.68717040022463
30
0
41
1
10
109.33284216439
20
-0.421051303834418
30
0
41
1
10
109.3936632185
20
-0.0944709600029228
30
0
41
1
10
109.405827429322
20
-0.029625796621815
30
0
41
1
10
109.430155850966
20
0.100218684449743
30
0
41
1
10
109.466648483432
20
0.295934638631763
30
0
41
1
10
109.503141115898
20
0.494287192972166
30
0
41
1
10
109.57612638083
20
0.893875467400306
30
0
41
1
10
109.624783224117
20
1.16413470379519
30
0
41
1
10
109.722096910693
20
1.70844095503668
30
0
41
1
10
109.770753753981
20
1.98248339247905
30
0
41
1
10
109.868067440556
20
2.52972800980163
30
0
41
1
10
109.916724283844
20
2.80292285792052
30
0
41
1
10
110.01403797042
20
3.34334513672135
30
0
41
1
10
110.062694813707
20
3.61056289020723
30
0
41
1
10
110.160008500283
20
4.1336619346296
30
0
41
1
10
110.208665343571
20
4.38953211658963
30
0
41
1
10
110.305979030147
20
4.8846409196579
30
0
41
1
10
110.354635873435
20
5.12386831408756
30
0
41
1
10
110.45194956001
20
5.58081084965548
30
0
41
1
10
110.500606403298
20
5.79851612186823
30
0
41
1
10
110.597920089873
20
6.20827032580513
30
0
41
1
10
110.646576933161
20
6.40031206717782
30
0
41
1
10
110.743890619737
20
6.75559246303433
30
0
41
1
10
110.792547463025
20
6.91882747691292
30
0
41
1
10
110.8898611496
20
7.21451032941079
30
0
41
1
10
110.938517992888
20
7.34695832219745
30
0
41
1
10
111.035831679464
20
7.58029832260183
30
0
41
1
10
111.084488522751
20
7.68119389305349
30
0
41
1
10
111.181802209327
20
7.85181770678057
30
0
41
1
10
111.230459052615
20
7.92155205753121
30
0
41
1
10
111.327772739191
20
8.03125078823987
30
0
41
1
10
111.376429582478
20
8.07122272227252
30
0
41
1
10
111.473743269054
20
8.12359336953332
30
0
41
1
10
111.522400112342
20
8.136
30
0
41
1
10
111.57105695563
20
8.136
30
0
0
SPLINE
5
E6
100
AcDbEntity
8
1
62
256
6
ByLayer
370
13
48
1
60
0
100
AcDbSpline
70
4
71
3
72
38
73
34
40
0
40
0
40
0
40
0
40
0.124999999999999
40
0.124999999999999
40
0.187499999999999
40
0.187499999999999
40
0.25
40
0.25
40
0.3125
40
0.3125
40
0.375
40
0.375
40
0.4375
40
0.4375
40
0.5
40
0.5
40
0.5625
40
0.5625
40
0.625
40
0.625
40
0.687500000000001
40
0.687500000000001
40
0.750000000000001
40
0.750000000000001
40
0.812500000000001
40
0.812500000000001
40
0.875000000000001
40
0.875000000000001
40
0.937500000000001
40
0.937500000000001
40
0.968750000000001
40
0.968750000000001
40
1
40
1
40
1
40
1
41
1
10
113.347483113703
20
8.136
30
0
41
1
10
113.438785407882
20
8.136
30
0
41
1
10
113.530087702062
20
8.09211694855719
30
0
41
1
10
113.667041143331
20
7.94802045725459
30
0
41
1
10
113.712692290421
20
7.88699190325735
30
0
41
1
10
113.8039945846
20
7.73768387115666
30
0
41
1
10
113.84964573169
20
7.64939969104123
30
0
41
1
10
113.940948025869
20
7.44506387022841
30
0
41
1
10
113.986599172959
20
7.32900910993172
30
0
41
1
10
114.077901467139
20
7.06948842144854
30
0
41
1
10
114.123552614228
20
6.92602156420395
30
0
41
1
10
114.214854908408
20
6.61296872990098
30
0
41
1
10
114.260506055498
20
6.44338437211434
30
0
41
1
10
114.351808349677
20
6.08031507471406
30
0
41
1
10
114.397459496767
20
5.8868343018718
30
0
41
1
10
114.488761790946
20
5.47903002574489
30
0
41
1
10
114.534412938036
20
5.26471284365414
30
0
41
1
10
114.625715232215
20
4.81897369121361
30
0
41
1
10
114.671366379305
20
4.58755947072359
30
0
41
1
10
114.762668673484
20
4.11183011040976
30
0
41
1
10
114.808319820574
20
3.86752323089547
30
0
41
1
10
114.899622114754
20
3.37043451015279
30
0
41
1
10
114.945273261844
20
3.11766050945417
30
0
41
1
10
115.036575556023
20
2.60804052329325
30
0
41
1
10
115.082226703113
20
2.35120118476777
30
0
41
1
10
115.173528997292
20
1.8376103994984
30
0
41
1
10
115.219180144382
20
1.58086390167463
30
0
41
1
10
115.310482438561
20
1.07119995068879
30
0
41
1
10
115.356133585651
20
0.818285550941823
30
0
41
1
10
115.424610306286
20
0.444187163916666
30
0
41
1
10
115.447435879831
20
0.320362084322284
30
0
41
1
10
115.49308702692
20
0.0748044114776292
30
0
41
1
10
115.515912600465
20
-0.0462866176664534
30
0
41
1
10
115.53873817401
20
-0.168901673899825
30
0
0
SPLINE
5
E7
100
AcDbEntity
8
1
62
256
6
ByLayer
370
13
48
1
60
0
100
AcDbSpline
70
4
71
3
72
50
73
46
40
0
40
0
40
0
40
0
40
0.0625000000000006
40
0.0625000000000006
40
0.125000000000001
40
0.125000000000001
40
0.187500000000002
40
0.187500000000002
40
0.218750000000002
40
0.218750000000002
40
0.250000000000002
40
0.250000000000002
40
0.312500000000001
40
0.312500000000001
40
0.375000000000001
40
0.375000000000001
40
0.4375
40
0.4375
40
0.46875
40
0.46875
40
0.4765625
40
0.4765625
40
0.484375
40
0.484375
40
0.5
40
0.5
40
0.5625
40
0.5625
40
0.625
40
0.625
40
0.6875
40
0.6875
40
0.71875
40
0.71875
40
0.75
40
0.75
40
0.78125
40
0.78125
40
0.8125
40
0.8125
40
0.875
40
0.875
40
0.9375
40
0.9375
40
1
40
1
40
1
40
1
41
1
10
106.9
20
-8.09831636572406
30
0
41
1
10
106.986981182278
20
-8.05207829341413
30
0
41
1
10
107.073962364556
20
-7.96160679367327
30
0
41
1
10
107.247924729112
20
-7.68139134738544
30
0
41
1
10
107.33490591139
20
-7.49153033663433
30
0
41
1
10
107.508868275945
20
-7.0112340949841
30
0
41
1
10
107.595849458223
20
-6.72076862823155
30
0
41
1
10
107.72632123164
20
-6.2178341441608
30
0
41
1
10
107.769811822779
20
-6.03908157246374
30
0
41
1
10
107.856793005057
20
-5.66182532004254
30
0
41
1
10
107.900283596196
20
-5.46332617980812
30
0
41
1
10
108.030755369613
20
-4.84280996248324
30
0
41
1
10
108.117736551891
20
-4.39566195918781
30
0
41
1
10
108.291698916447
20
-3.46357446092546
30
0
41
1
10
108.378680098725
20
-2.97883624193989
30
0
41
1
10
108.55264246328
20
-2.00218650077812
30
0
41
1
10
108.639623645558
20
-1.51042117678654
30
0
41
1
10
108.770095418975
20
-0.787081542243158
30
0
41
1
10
108.813586010114
20
-0.548305126963982
30
0
41
1
10
108.867949249038
20
-0.254366177383417
30
0
41
1
10
108.878821896823
20
-0.195803760186237
30
0
41
1
10
108.900567192392
20
-0.0791650623206692
30
0
41
1
10
108.911439840177
20
-0.0212368005715575
30
0
41
1
10
108.944057783531
20
0.152863187193731
30
0
41
1
10
108.9658030791
20
0.269942141530379
30
0
41
1
10
109.074529556948
20
0.859693626653012
30
0
41
1
10
109.161510739226
20
1.34572970670934
30
0
41
1
10
109.335473103782
20
2.32337349856329
30
0
41
1
10
109.42245428606
20
2.81487312110733
30
0
41
1
10
109.596416650615
20
3.77436796558715
30
0
41
1
10
109.683397832893
20
4.242179326609
30
0
41
1
10
109.81386960631
20
4.90321139428232
30
0
41
1
10
109.857360197449
20
5.1167803912922
30
0
41
1
10
109.944341379727
20
5.52690155757651
30
0
41
1
10
109.987831970866
20
5.7234480374583
30
0
41
1
10
110.074813153144
20
6.09650654325176
30
0
41
1
10
110.118303744283
20
6.27301419197391
30
0
41
1
10
110.205284926561
20
6.60359260832001
30
0
41
1
10
110.2487755177
20
6.75766074824315
30
0
41
1
10
110.379247291116
20
7.18368885815337
30
0
41
1
10
110.466228473395
20
7.41908834280483
30
0
41
1
10
110.64019083795
20
7.78844661744739
30
0
41
1
10
110.727172020228
20
7.92249054332581
30
0
41
1
10
110.901134384784
20
8.09619780379677
30
0
41
1
10
110.988115567062
20
8.136
30
0
41
1
10
111.07509674934
20
8.136
30
0
0
SPLINE
5
E8
100
AcDbEntity
8
1
62
256
6
ByLayer
370
13
48
1
60
0
100
AcDbSpline
70
4
71
3
72
42
73
38
40
0
40
0
40
0
40
0
40
0.0625000000000004
40
0.0625000000000004
40
0.125000000000001
40
0.125000000000001
40
0.187500000000001
40
0.187500000000001
40
0.250000000000002
40
0.250000000000002
40
0.312500000000002
40
0.312500000000002
40
0.375000000000002
40
0.375000000000002
40
0.437500000000003
40
0.437500000000003
40
0.500000000000003
40
0.500000000000003
40
0.562500000000003
40
0.562500000000003
40
0.625000000000004
40
0.625000000000004
40
0.687500000000004
40
0.687500000000004
40
0.750000000000005
40
0.750000000000005
40
0.781250000000005
40
0.781250000000005
40
0.796875000000005
40
0.796875000000005
40
0.812500000000005
40
0.812500000000005
40
0.875000000000003
40
0.875000000000003
40
0.937500000000002
40
0.937500000000002
40
1
40
1
40
1
40
1
41
1
10
112.851522907413
20
8.136
30
0
41
1
10
112.907506558801
20
8.136
30
0
41
1
10
112.963490210188
20
8.11956709344079
30
0
41
1
10
113.075457512963
20
8.04971051189145
30
0
41
1
10
113.13144116435
20
7.99627088455716
30
0
41
1
10
113.243408467125
20
7.84929234818324
30
0
41
1
10
113.299392118513
20
7.75573888032577
30
0
41
1
10
113.411359421287
20
7.52693835477555
30
0
41
1
10
113.467343072675
20
7.39168107395705
30
0
41
1
10
113.57931037545
20
7.07977619252438
30
0
41
1
10
113.635294026837
20
6.90312541022499
30
0
41
1
10
113.747261329612
20
6.51084530565606
30
0
41
1
10
113.803244980999
20
6.29522142543181
30
0
41
1
10
113.915212283774
20
5.82948614948879
30
0
41
1
10
113.971195935162
20
5.57938859424087
30
0
41
1
10
114.083163237937
20
5.05098416888944
30
0
41
1
10
114.139146889324
20
4.77269737835579
30
0
41
1
10
114.251114192099
20
4.19546093489757
30
0
41
1
10
114.307097843487
20
3.89653406531542
30
0
41
1
10
114.419065146262
20
3.28617458977854
30
0
41
1
10
114.475048797649
20
2.97476359076003
30
0
41
1
10
114.587016100424
20
2.34752291293654
30
0
41
1
10
114.642999751811
20
2.03171050265178
30
0
41
1
10
114.754967054586
20
1.40308963755527
30
0
41
1
10
114.810950705973
20
1.0902923484459
30
0
41
1
10
114.894926183055
20
0.628094097344984
30
0
41
1
10
114.922918008748
20
0.475184717300664
30
0
41
1
10
114.964905747289
20
0.248054985001772
30
0
41
1
10
114.978901660136
20
0.172716798602806
30
0
41
1
10
115.006893485829
20
0.0228590125049664
30
0
41
1
10
115.020889398676
20
-0.0515131686370864
30
0
41
1
10
115.090868962911
20
-0.426677642720676
30
0
41
1
10
115.146852614298
20
-0.733336874535979
30
0
41
1
10
115.258819917073
20
-1.35434337323687
30
0
41
1
10
115.314803568461
20
-1.66868408649009
30
0
41
1
10
115.426770871235
20
-2.29839831914865
30
0
41
1
10
115.482754522623
20
-2.61375886471421
30
0
41
1
10
115.53873817401
20
-2.92581073398446
30
0
0
SPLINE
5
E9
100
AcDbEntity
8
1
62
256
6
ByLayer
370
13
48
1
60
0
100
AcDbSpline
70
4
71
3
72
42
73
38
40
0
40
0
40
0
40
0
40
0.0625000000000016
40
0.0625000000000016
40
0.125000000000003
40
0.125000000000003
40
0.187500000000005
40
0.187500000000005
40
0.250000000000006
40
0.250000000000006
40
0.312500000000008
40
0.312500000000008
40
0.37500000000001
40
0.37500000000001
40
0.40625000000001
40
0.40625000000001
40
0.42187500000001
40
0.42187500000001
40
0.437500000000011
40
0.437500000000011
40
0.500000000000009
40
0.500000000000009
40
0.562500000000008
40
0.562500000000008
40
0.625000000000007
40
0.625000000000007
40
0.687500000000006
40
0.687500000000006
40
0.750000000000005
40
0.750000000000005
40
0.812500000000004
40
0.812500000000004
40
0.875000000000002
40
0.875000000000002
40
0.937500000000001
40
0.937500000000001
40
1
40
1
40
1
40
1
41
1
10
106.9
20
-7.32148704954139
30
0
41
1
10
106.97664867798
20
-7.11860669708477
30
0
41
1
10
107.05329735596
20
-6.87657857070016
30
0
41
1
10
107.206594711921
20
-6.32041251675591
30
0
41
1
10
107.283243389901
20
-6.00630833475654
30
0
41
1
10
107.436540745862
20
-5.31931621094137
30
0
41
1
10
107.513189423842
20
-4.94651255687933
30
0
41
1
10
107.666486779802
20
-4.16081755944066
30
0
41
1
10
107.743135457782
20
-3.74803468223519
30
0
41
1
10
107.896432813743
20
-2.90343862128904
30
0
41
1
10
107.973081491723
20
-2.47172409680473
30
0
41
1
10
108.126378847683
20
-1.60944672395908
30
0
41
1
10
108.203027525664
20
-1.17894798089873
30
0
41
1
10
108.318000542634
20
-0.546651779440737
30
0
41
1
10
108.356324881624
20
-0.33809593966879
30
0
41
1
10
108.413811390109
20
-0.0298185584706516
30
0
41
1
10
108.432973559604
20
0.0719177973321052
30
0
41
1
10
108.471297898595
20
0.2778472004685
30
0
41
1
10
108.490460068089
20
0.38155595803903
30
0
41
1
10
108.586270915565
20
0.90331962280527
30
0
41
1
10
108.662919593545
20
1.33121054540942
30
0
41
1
10
108.816216949505
20
2.19222728600877
30
0
41
1
10
108.892865627486
20
2.62529798603199
30
0
41
1
10
109.046162983446
20
3.47712495028699
30
0
41
1
10
109.122811661426
20
3.89578847888995
30
0
41
1
10
109.276109017387
20
4.69770373734849
30
0
41
1
10
109.352757695367
20
5.0808463279198
30
0
41
1
10
109.506055051327
20
5.7922018152756
30
0
41
1
10
109.582703729307
20
6.12032244488844
30
0
41
1
10
109.736001085268
20
6.70685037982528
30
0
41
1
10
109.812649763248
20
6.96521175929661
30
0
41
1
10
109.965947119208
20
7.40434602531235
30
0
41
1
10
110.042595797189
20
7.58512970200414
30
0
41
1
10
110.195893153149
20
7.86868644146713
30
0
41
1
10
110.272541831129
20
7.97151493925213
30
0
41
1
10
110.42583918709
20
8.10513407961483
30
0
41
1
10
110.50248786507
20
8.136
30
0
41
1
10
110.57913654305
20
8.136
30
0
0
SPLINE
5
EA
100
AcDbEntity
8
1
62
256
6
ByLayer
370
13
48
1
60
0
100
AcDbSpline
70
4
71
3
72
42
73
38
40
0
40
0
40
0
40
0
40
0.0624999999999988
40
0.0624999999999988
40
0.124999999999998
40
0.124999999999998
40
0.187499999999997
40
0.187499999999997
40
0.249999999999995
40
0.249999999999995
40
0.312499999999994
40
0.312499999999994
40
0.374999999999993
40
0.374999999999993
40
0.437499999999992
40
0.437499999999992
40
0.499999999999991
40
0.499999999999991
40
0.56249999999999
40
0.56249999999999
40
0.624999999999988
40
0.624999999999988
40
0.656249999999988
40
0.656249999999988
40
0.671874999999988
40
0.671874999999988
40
0.687499999999988
40
0.687499999999988
40
0.74999999999999
40
0.74999999999999
40
0.812499999999993
40
0.812499999999993
40
0.874999999999995
40
0.874999999999995
40
0.937499999999998
40
0.937499999999998
40
1
40
1
40
1
40
1
41
1
10
112.355562701123
20
8.136
30
0
41
1
10
112.421878856809
20
8.136
30
0
41
1
10
112.488195012494
20
8.11292068188033
30
0
41
1
10
112.620827323864
20
8.01388254283373
30
0
41
1
10
112.687143479549
20
7.9378867515594
30
0
41
1
10
112.819775790919
20
7.72845733809075
30
0
41
1
10
112.886091946604
20
7.5949928145364
30
0
41
1
10
113.018724257975
20
7.26935264988677
30
0
41
1
10
113.08504041366
20
7.07716170059129
30
0
41
1
10
113.21767272503
20
6.63681006700153
30
0
41
1
10
113.283988880715
20
6.38865668627895
30
0
41
1
10
113.416621192086
20
5.84327901640782
30
0
41
1
10
113.482937347771
20
5.5460855292668
30
0
41
1
10
113.615569659141
20
4.91310850167503
30
0
41
1
10
113.681885814826
20
4.57737273587065
30
0
41
1
10
113.814518126197
20
3.88016335881315
30
0
41
1
10
113.880834281882
20
3.51874281551912
30
0
41
1
10
114.013466593252
20
2.783826609447
30
0
41
1
10
114.079782748937
20
2.41037714605673
30
0
41
1
10
114.212415060307
20
1.66434208340647
30
0
41
1
10
114.278731215993
20
1.29178755151139
30
0
41
1
10
114.37820544952
20
0.741875579708051
30
0
41
1
10
114.411363527363
20
0.560040455482095
30
0
41
1
10
114.461100644127
20
0.290343824324339
30
0
41
1
10
114.477679683048
20
0.200952992274665
30
0
41
1
10
114.51083776089
20
0.0233137171683779
30
0
41
1
10
114.527416799812
20
-0.0647519308556923
30
0
41
1
10
114.610311994418
20
-0.509733216755137
30
0
41
1
10
114.676628150103
20
-0.874809523060406
30
0
41
1
10
114.809260461474
20
-1.61395053095671
30
0
41
1
10
114.875576617159
20
-1.98799675118465
30
0
41
1
10
115.008208928529
20
-2.73343836703901
30
0
41
1
10
115.074525084214
20
-3.1047978083663
30
0
41
1
10
115.207157395584
20
-3.83160242281932
30
0
41
1
10
115.27347355127
20
-4.18699832808974
30
0
41
1
10
115.40610586264
20
-4.86828868574767
30
0
41
1
10
115.472422018325
20
-5.19413027516444
30
0
41
1
10
115.53873817401
20
-5.49905285324874
30
0
0
SPLINE
5
EB
100
AcDbEntity
8
1
62
256
6
ByLayer
370
13
48
1
60
0
100
AcDbSpline
70
4
71
3
72
42
73
38
40
0
40
0
40
0
40
0
40
0.0624999999999999
40
0.0624999999999999
40
0.125
40
0.125
40
0.1875
40
0.1875
40
0.25
40
0.25
40
0.3125
40
0.3125
40
0.328125
40
0.328125
40
0.343750000000001
40
0.343750000000001
40
0.375000000000001
40
0.375000000000001
40
0.437500000000001
40
0.437500000000001
40
0.5
40
0.5
40
0.5625
40
0.5625
40
0.625
40
0.625
40
0.6875
40
0.6875
40
0.75
40
0.75
40
0.8125
40
0.8125
40
0.875
40
0.875
40
0.9375
40
0.9375
40
1
40
1
40
1
40
1
41
1
10
106.9
20
-5.49905682535098
30
0
41
1
10
106.966316173683
20
-5.19413434539061
30
0
41
1
10
107.032632347365
20
-4.86829281841625
30
0
41
1
10
107.16526469473
20
-4.1870025156334
30
0
41
1
10
107.231580868413
20
-3.83160660285662
30
0
41
1
10
107.364213215778
20
-3.10480191264495
30
0
41
1
10
107.43052938946
20
-2.73344240316706
30
0
41
1
10
107.563161736825
20
-1.98800060489231
30
0
41
1
10
107.629477910508
20
-1.61395427050112
30
0
41
1
10
107.762110257873
20
-0.874813004885056
30
0
41
1
10
107.828426431555
20
-0.509736555105775
30
0
41
1
10
107.911321648658
20
-0.0647550814250906
30
0
41
1
10
107.927900692079
20
0.0233105969002452
30
0
41
1
10
107.96105877892
20
0.200949893573778
30
0
41
1
10
107.977637822341
20
0.290340737423122
30
0
41
1
10
108.027374952603
20
0.560037407058502
30
0
41
1
10
108.060533039444
20
0.741872561048325
30
0
41
1
10
108.160007299968
20
1.29178463447954
30
0
41
1
10
108.22632347365
20
1.66433925070987
30
0
41
1
10
108.358955821015
20
2.41037451221089
30
0
41
1
10
108.425271994698
20
2.78382409011695
30
0
41
1
10
108.557904342063
20
3.51874054812055
30
0
41
1
10
108.624220515745
20
3.88016122879373
30
0
41
1
10
108.75685286311
20
4.57737089239876
30
0
41
1
10
108.823169036793
20
4.91310680730206
30
0
41
1
10
108.955801384158
20
5.54608413156333
30
0
41
1
10
109.02211755784
20
5.84327776619151
30
0
41
1
10
109.154749905205
20
6.38865571636538
30
0
41
1
10
109.221066078888
20
6.63680922983289
30
0
41
1
10
109.353698426253
20
7.07716110368898
30
0
41
1
10
109.420014599935
20
7.26935216046954
30
0
41
1
10
109.5526469473
20
7.5949925085817
30
0
41
1
10
109.618963120983
20
7.72845710811791
30
0
41
1
10
109.751595468348
20
7.93788664051314
30
0
41
1
10
109.81791164203
20
8.013882474768
30
0
41
1
10
109.950543989396
20
8.11292066931293
30
0
41
1
10
110.016860163078
20
8.136
30
0
41
1
10
110.083176336761
20
8.136
30
0
0
SPLINE
5
EC
100
AcDbEntity
8
1
62
256
6
ByLayer
370
13
48
1
60
0
100
AcDbSpline
70
4
71
3
72
42
73
38
40
0
40
0
40
0
40
0
40
0.0625
40
0.0625
40
0.125
40
0.125
40
0.1875
40
0.1875
40
0.25
40
0.25
40
0.3125
40
0.3125
40
0.375
40
0.375
40
0.4375
40
0.4375
40
0.5
40
0.5
40
0.5625
40
0.5625
40
0.578124999999999
40
0.578124999999999
40
0.593749999999999
40
0.593749999999999
40
0.625
40
0.625
40
0.6875
40
0.6875
40
0.75
40
0.75
40
0.8125
40
0.8125
40
0.875
40
0.875
40
0.9375
40
0.9375
40
1
40
1
40
1
40
1
41
1
10
111.859602494834
20
8.136
30
0
41
1
10
111.936251154817
20
8.136
30
0
41
1
10
112.012899814799
20
8.1051340941759
30
0
41
1
10
112.166197134765
20
7.97151501881373
30
0
41
1
10
112.242845794748
20
7.86868657155452
30
0
41
1
10
112.396143114714
20
7.58512997139724
30
0
41
1
10
112.472791774696
20
7.40434638353432
30
0
41
1
10
112.626089094662
20
6.9652123290665
30
0
41
1
10
112.702737754645
20
6.70685107228863
30
0
41
1
10
112.856035074611
20
6.12032340505002
30
0
41
1
10
112.932683734594
20
5.79220292033619
30
0
41
1
10
113.085981054559
20
5.08084772828937
30
0
41
1
10
113.162629714542
20
4.6977052879808
30
0
41
1
10
113.315927034508
20
3.89579031752126
30
0
41
1
10
113.392575694491
20
3.47712692652809
30
0
41
1
10
113.545873014456
20
2.62530021004017
30
0
41
1
10
113.622521674439
20
2.192229620115
30
0
41
1
10
113.775818994405
20
1.33121306337523
30
0
41
1
10
113.852467654388
20
0.903322214546961
30
0
41
1
10
113.948278479366
20
0.381558617924725
30
0
41
1
10
113.967440644362
20
0.277849872794121
30
0
41
1
10
114.005764974353
20
0.0719204921815617
30
0
41
1
10
114.024927139349
20
-0.029815845480158
30
0
41
1
10
114.082413634336
20
-0.338093113808213
30
0
41
1
10
114.120737964328
20
-0.546648880258147
30
0
41
1
10
114.235710954302
20
-1.17894487134615
30
0
41
1
10
114.312359614285
20
-1.6094434869411
30
0
41
1
10
114.46565693425
20
-2.47172065245576
30
0
41
1
10
114.542305594233
20
-2.90343509725568
30
0
41
1
10
114.695602914199
20
-3.74803106696288
30
0
41
1
10
114.772251574182
20
-4.16081393279907
30
0
41
1
10
114.925548894147
20
-4.94650898864916
30
0
41
1
10
115.00219755413
20
-5.31931271259728
30
0
41
1
10
115.155494874096
20
-6.00630505815889
30
0
41
1
10
115.232143534079
20
-6.32040939198507
30
0
41
1
10
115.385440854045
20
-6.87657581893248
30
0
41
1
10
115.462089514027
20
-7.11860416633135
30
0
41
1
10
115.53873817401
20
-7.32148476296382
30
0
0
SPLINE
5
ED
100
AcDbEntity
8
1
62
256
6
ByLayer
370
13
48
1
60
0
100
AcDbSpline
70
4
71
3
72
41
73
37
40
0
40
0
40
0
40
0
40
0.0625000000000033
40
0.0625000000000033
40
0.125000000000007
40
0.125000000000007
40
0.18750000000001
40
0.18750000000001
40
0.20312500000001
40
0.20312500000001
40
0.21875000000001
40
0.25000000000001
40
0.25000000000001
40
0.312500000000009
40
0.312500000000009
40
0.375000000000008
40
0.375000000000008
40
0.437500000000008
40
0.437500000000008
40
0.500000000000007
40
0.500000000000007
40
0.562500000000006
40
0.562500000000006
40
0.625000000000005
40
0.625000000000005
40
0.687500000000004
40
0.687500000000004
40
0.750000000000003
40
0.750000000000003
40
0.812500000000003
40
0.812500000000003
40
0.875000000000002
40
0.875000000000002
40
0.937500000000001
40
0.937500000000001
40
1
40
1
40
1
40
1
41
1
10
106.9
20
-2.92581554920128
30
0
41
1
10
106.955983669385
20
-2.61376361396134
30
0
41
1
10
107.01196733877
20
-2.29840297974096
30
0
41
1
10
107.123934677539
20
-1.6686885355935
30
0
41
1
10
107.179918346924
20
-1.35434769955771
30
0
41
1
10
107.291885685694
20
-0.733340933026682
30
0
41
1
10
107.347869355078
20
-0.426681556202652
30
0
41
1
10
107.417848941809
20
-0.051516893907916
30
0
41
1
10
107.431844859156
20
0.0228553163974254
30
0
41
1
10
107.459836693848
20
0.172713123843778
30
0
41
1
10
107.501824445887
20
0.398726387111168
30
0
41
1
10
107.543812197925
20
0.628090499561381
30
0
41
1
10
107.627787702002
20
1.09028884586479
30
0
41
1
10
107.683771371387
20
1.40308621243471
30
0
41
1
10
107.795738710157
20
2.03170725892815
30
0
41
1
10
107.851722379542
20
2.3475197731542
30
0
41
1
10
107.963689718311
20
2.97476068126741
30
0
41
1
10
108.019673387696
20
3.28617180662428
30
0
41
1
10
108.131640726466
20
3.89653155064809
30
0
41
1
10
108.187624395851
20
4.19545856235271
30
0
41
1
10
108.29959173462
20
4.77269529728361
30
0
41
1
10
108.355575404005
20
5.05098223712909
30
0
41
1
10
108.467542742775
20
5.57938695875043
30
0
41
1
10
108.523526412159
20
5.82948466091383
30
0
41
1
10
108.635493750929
20
6.29522021900195
30
0
41
1
10
108.691477420314
20
6.51084423441898
30
0
41
1
10
108.803444759084
20
6.9031245898353
30
0
41
1
10
108.859428428468
20
7.07977548776634
30
0
41
1
10
108.971395767238
20
7.39168057547764
30
0
41
1
10
109.027379436623
20
7.52693794693778
30
0
41
1
10
109.139346775392
20
7.75573862617961
30
0
41
1
10
109.195330444777
20
7.84929215709781
30
0
41
1
10
109.307297783547
20
7.99627079214255
30
0
41
1
10
109.363281452932
20
8.0497104551084
30
0
41
1
10
109.475248791701
20
8.11956708285229
30
0
41
1
10
109.531232461086
20
8.136
30
0
41
1
10
109.587216130471
20
8.136
30
0
0
SPLINE
5
EE
100
AcDbEntity
8
1
62
256
6
ByLayer
370
13
48
1
60
0
100
AcDbSpline
70
4
71
3
72
50
73
46
40
0
40
0
40
0
40
0
40
0.062500000000001
40
0.062500000000001
40
0.125000000000002
40
0.125000000000002
40
0.187500000000003
40
0.187500000000003
40
0.218750000000003
40
0.218750000000003
40
0.250000000000003
40
0.250000000000003
40
0.281250000000004
40
0.281250000000004
40
0.312500000000004
40
0.312500000000004
40
0.375000000000004
40
0.375000000000004
40
0.437500000000004
40
0.437500000000004
40
0.500000000000004
40
0.500000000000004
40
0.515625000000004
40
0.515625000000004
40
0.523437500000004
40
0.523437500000004
40
0.531250000000004
40
0.531250000000004
40
0.562500000000004
40
0.562500000000004
40
0.625000000000003
40
0.625000000000003
40
0.687500000000001
40
0.687500000000001
40
0.75
40
0.75
40
0.78125
40
0.78125
40
0.8125
40
0.8125
40
0.875
40
0.875
40
0.9375
40
0.9375
40
1
40
1
40
1
40
1
41
1
10
111.363642288544
20
8.136
30
0
41
1
10
111.450623452825
20
8.136
30
0
41
1
10
111.537604617105
20
8.09619782036989
30
0
41
1
10
111.711566945666
20
7.92249063457854
30
0
41
1
10
111.798548109947
20
7.78844676694456
30
0
41
1
10
111.972510438508
20
7.41908865185351
30
0
41
1
10
112.059491602788
20
7.18368926856093
30
0
41
1
10
112.189963349209
20
6.75766133638874
30
0
41
1
10
112.233453931349
20
6.60359325990893
30
0
41
1
10
112.32043509563
20
6.27301497679196
30
0
41
1
10
112.36392567777
20
6.09650739785022
30
0
41
1
10
112.450906842051
20
5.72344903541824
30
0
41
1
10
112.494397424191
20
5.52690262911042
30
0
41
1
10
112.581378588471
20
5.11678161094076
30
0
41
1
10
112.624869170612
20
4.90321268846378
30
0
41
1
10
112.755340917033
20
4.24218084149172
30
0
41
1
10
112.842322081313
20
3.77436962353383
30
0
41
1
10
113.016284409874
20
2.81487503670266
30
0
41
1
10
113.103265574155
20
2.32337552862117
30
0
41
1
10
113.277227902716
20
1.34573192464359
30
0
41
1
10
113.364209066997
20
0.859695918018332
30
0
41
1
10
113.472935522347
20
0.269944497316061
30
0
41
1
10
113.494680813417
20
0.152865554516751
30
0
41
1
10
113.527298750023
20
-0.0212344179343518
30
0
41
1
10
113.538171395558
20
-0.0791626556738834
30
0
41
1
10
113.559916686628
20
-0.195801315931533
30
0
41
1
10
113.570789332163
20
-0.254363714462585
30
0
41
1
10
113.625152559838
20
-0.548302571525653
30
0
41
1
10
113.668643141979
20
-0.787078915381414
30
0
41
1
10
113.799114888399
20
-1.51041834849292
30
0
41
1
10
113.88609605268
20
-2.0021835553631
30
0
41
1
10
114.060058381241
20
-2.97883312496506
30
0
41
1
10
114.147039545522
20
-3.46357128982791
30
0
41
1
10
114.321001874083
20
-4.39565876592997
30
0
41
1
10
114.407983038363
20
-4.84280680144633
30
0
41
1
10
114.538454784784
20
-5.46332313822504
30
0
41
1
10
114.581945366924
20
-5.66182232999
30
0
41
1
10
114.668926531205
20
-6.03907870812714
30
0
41
1
10
114.712417113345
20
-6.21783135400642
30
0
41
1
10
114.842888859766
20
-6.72076609164523
30
0
41
1
10
114.929870024046
20
-7.0112317691775
30
0
41
1
10
115.103832352607
20
-7.49152848853652
30
0
41
1
10
115.190813516888
20
-7.68138976586295
30
0
41
1
10
115.364775845449
20
-7.9616057661072
30
0
41
1
10
115.45175700973
20
-8.05207755293159
30
0
41
1
10
115.53873817401
20
-8.09831590649847
30
0
0
SPLINE
5
EF
100
AcDbEntity
8
1
62
256
6
ByLayer
370
13
48
1
60
0
100
AcDbSpline
70
4
71
3
72
38
73
34
40
0
40
0
40
0
40
0
40
0.0312499999999994
40
0.0312499999999994
40
0.0624999999999988
40
0.0624999999999988
40
0.124999999999999
40
0.124999999999999
40
0.187499999999999
40
0.187499999999999
40
0.249999999999999
40
0.249999999999999
40
0.312499999999999
40
0.312499999999999
40
0.374999999999999
40
0.374999999999999
40
0.437499999999999
40
0.437499999999999
40
0.499999999999999
40
0.499999999999999
40
0.562499999999999
40
0.562499999999999
40
0.624999999999999
40
0.624999999999999
40
0.687499999999999
40
0.687499999999999
40
0.749999999999999
40
0.749999999999999
40
0.812499999999999
40
0.812499999999999
40
0.874999999999999
40
0.874999999999999
40
1
40
1
40
1
40
1
41
1
10
106.9
20
-0.168906314481831
30
0
41
1
10
106.922825582544
20
-0.046291183233734
30
0
41
1
10
106.945651165087
20
0.0747998870400863
30
0
41
1
10
106.991302330174
20
0.320357605624395
30
0
41
1
10
107.014127912718
20
0.444182710898588
30
0
41
1
10
107.082604660349
20
0.818281183471072
30
0
41
1
10
107.128255825436
20
1.07119565163396
30
0
41
1
10
107.21955815561
20
1.58085976173774
30
0
41
1
10
107.265209320697
20
1.83760635026798
30
0
41
1
10
107.356511650871
20
2.35119733741524
30
0
41
1
10
107.402162815958
20
2.60803678711196
30
0
41
1
10
107.493465146132
20
3.11765701283741
30
0
41
1
10
107.53911631122
20
3.37043114192335
30
0
41
1
10
107.630418641394
20
3.86752013208928
30
0
41
1
10
107.676069806481
20
4.11182715262774
30
0
41
1
10
107.767372136655
20
4.58755680200167
30
0
41
1
10
107.813023301742
20
4.8189711705113
30
0
41
1
10
107.904325631916
20
5.26471061973055
30
0
41
1
10
107.949976797004
20
5.47902795056169
30
0
41
1
10
108.041279127178
20
5.88683251853763
30
0
41
1
10
108.086930292265
20
6.08031343447027
30
0
41
1
10
108.178232622439
20
6.44338300651526
30
0
41
1
10
108.223883787526
20
6.61296749584139
30
0
41
1
10
108.3151861177
20
6.926020576757
30
0
41
1
10
108.360837282788
20
7.0694875490654
30
0
41
1
10
108.452139612962
20
7.32900844762472
30
0
41
1
10
108.497790778049
20
7.44506330293075
30
0
41
1
10
108.589093108223
20
7.6493992916578
30
0
41
1
10
108.63474427331
20
7.7376835446812
30
0
41
1
10
108.726046603484
20
7.88699169996792
30
0
41
1
10
108.771697768571
20
7.94802030425103
30
0
41
1
10
108.908651263833
20
8.09211691371524
30
0
41
1
10
108.999953594007
20
8.136
30
0
41
1
10
109.091255924181
20
8.136
30
0
0
SPLINE
5
F0
100
AcDbEntity
8
1
62
256
6
ByLayer
370
13
48
1
60
0
100
AcDbSpline
70
4
71
3
72
78
73
74
40
0
40
0
40
0
40
0
40
0.03125
40
0.03125
40
0.0625
40
0.0625
40
0.09375
40
0.09375
40
0.125
40
0.125
40
0.15625
40
0.15625
40
0.1875
40
0.1875
40
0.21875
40
0.21875
40
0.25
40
0.25
40
0.28125
40
0.28125
40
0.3125
40
0.3125
40
0.34375
40
0.34375
40
0.375
40
0.375
40
0.40625
40
0.40625
40
0.4375
40
0.4375
40
0.453125
40
0.453125
40
0.4609375
40
0.4609375
40
0.46875
40
0.46875
40
0.5
40
0.5
40
0.53125
40
0.53125
40
0.5625
40
0.5625
40
0.59375
40
0.59375
40
0.625
40
0.625
40
0.65625
40
0.65625
40
0.6875
40
0.6875
40
0.71875
40
0.71875
40
0.75
40
0.75
40
0.78125
40
0.78125
40
0.8125
40
0.8125
40
0.84375
40
0.84375
40
0.875
40
0.875
40
0.90625
40
0.90625
40
0.921875
40
0.921875
40
0.9296875
40
0.9296875
40
0.9375
40
0.9375
40
0.96875
40
0.96875
40
1
40
1
40
1
40
1
41
1
10
110.867682082254
20
8.136
30
0
41
1
10
110.916338916543
20
8.136
30
0
41
1
10
110.964995750833
20
8.12359337412954
30
0
41
1
10
111.062309419411
20
8.07122274673287
30
0
41
1
10
111.1109662537
20
8.03125082797547
30
0
41
1
10
111.208279922278
20
7.9215521395229
30
0
41
1
10
111.256936756567
20
7.85181781575974
30
0
41
1
10
111.354250425146
20
7.68119406807361
30
0
41
1
10
111.402907259435
20
7.58029853667992
30
0
41
1
10
111.500220928013
20
7.34695862597124
30
0
41
1
10
111.548877762302
20
7.21451068382339
30
0
41
1
10
111.64619143088
20
6.91882794276216
30
0
41
1
10
111.694848265169
20
6.75559298967812
30
0
41
1
10
111.792161933748
20
6.40031272324563
30
0
41
1
10
111.840818768037
20
6.20827105049483
30
0
41
1
10
111.938132436615
20
5.79851698857291
30
0
41
1
10
111.986789270904
20
5.58081178974246
30
0
41
1
10
112.084102939482
20
5.12386940218732
30
0
41
1
10
112.132759773772
20
4.88464208237596
30
0
41
1
10
112.23007344235
20
4.38953342616222
30
0
41
1
10
112.278730276639
20
4.13366331642703
30
0
41
1
10
112.376043945217
20
3.61056441069644
30
0
41
1
10
112.424700779506
20
3.34334672366879
30
0
41
1
10
112.522014448085
20
2.80292456921353
30
0
41
1
10
112.570671282374
20
2.52972977897707
30
0
41
1
10
112.667984950952
20
1.98248526680666
30
0
41
1
10
112.716641785241
20
1.70844287663309
30
0
41
1
10
112.813955453819
20
1.16413670813353
30
0
41
1
10
112.862612288108
20
0.893877507214256
30
0
41
1
10
112.935597539542
20
0.494289276889873
30
0
41
1
10
112.959925956687
20
0.362054253852165
30
0
41
1
10
112.996418582404
20
0.165459705930999
30
0
41
1
10
113.008582790976
20
0.100220804561104
30
0
41
1
10
113.03291120812
20
-0.0296236663124319
30
0
41
1
10
113.045075416693
20
-0.0944688044303348
30
0
41
1
10
113.105896459554
20
-0.421049054419683
30
0
41
1
10
113.154553293843
20
-0.687168078241399
30
0
41
1
10
113.251866962421
20
-1.22561712992419
30
0
41
1
10
113.30052379671
20
-1.49794420319299
30
0
41
1
10
113.397837465289
20
-2.04456554625844
30
0
41
1
10
113.446494299578
20
-2.31885409424294
30
0
41
1
10
113.543807968156
20
-2.86453972430763
30
0
41
1
10
113.592464802445
20
-3.13592843590516
30
0
41
1
10
113.689778471024
20
-3.6705531914717
30
0
41
1
10
113.738435305313
20
-3.93377883507426
30
0
41
1
10
113.835748973891
20
-4.44669820249385
30
0
41
1
10
113.88440580818
20
-4.6963805945181
30
0
41
1
10
113.981719476758
20
-5.17704684324474
30
0
41
1
10
114.030376311047
20
-5.40801985201225
30
0
41
1
10
114.127689979626
20
-5.84665176180872
30
0
41
1
10
114.176346813915
20
-6.05430175036611
30
0
41
1
10
114.273660482493
20
-6.44252503697513
30
0
41
1
10
114.322317316782
20
-6.62309252562517
30
0
41
1
10
114.41963098536
20
-6.95446618343794
30
0
41
1
10
114.468287819649
20
-7.10527027325406
30
0
41
1
10
114.565601488228
20
-7.37563063338837
30
0
41
1
10
114.614258322517
20
-7.49518853171378
30
0
41
1
10
114.711571991095
20
-7.70277420219867
30
0
41
1
10
114.760228825384
20
-7.79080670240819
30
0
41
1
10
114.857542493962
20
-7.93616527740181
30
0
41
1
10
114.906199328252
20
-7.99349818883053
30
0
41
1
10
115.00351299683
20
-8.07920971269786
30
0
41
1
10
115.052169831119
20
-8.1075961506769
30
0
41
1
10
115.125155082553
20
-8.1303022688578
30
0
41
1
10
115.149483499697
20
-8.13456346266491
30
0
41
1
10
115.185976125414
20
-8.13625801078328
30
0
41
1
10
115.198140333986
20
-8.13604696270227
30
0
41
1
10
115.222468751131
20
-8.13405480049065
30
0
41
1
10
115.234632959703
20
-8.13226982247051
30
0
41
1
10
115.295454002565
20
-8.11928951269044
30
0
41
1
10
115.344110836854
20
-8.09590742259394
30
0
41
1
10
115.441424505432
20
-8.02060495682119
30
0
41
1
10
115.490081339721
20
-7.96867669127269
30
0
41
1
10
115.53873817401
20
-7.9015298286543
30
0
0
SPLINE
5
F1
100
AcDbEntity
8
1
62
256
6
ByLayer
370
13
48
1
60
0
100
AcDbSpline
70
4
71
3
72
22
73
18
40
0
40
0
40
0
40
0
40
0.125
40
0.125
40
0.25
40
0.25
40
0.375
40
0.375
40
0.5
40
0.5
40
0.625
40
0.625
40
0.75
40
0.75
40
0.875
40
0.875
40
1
40
1
40
1
40
1
41
1
10
106.9
20
2.57265329777991
30
0
41
1
10
106.970637321579
20
2.96884856991113
30
0
41
1
10
107.041274643158
20
3.36212383354095
30
0
41
1
10
107.182549286315
20
4.12666675083605
30
0
41
1
10
107.253186607894
20
4.49786417905932
30
0
41
1
10
107.394461251052
20
5.20205663083311
30
0
41
1
10
107.46509857263
20
5.53498132626953
30
0
41
1
10
107.606373215788
20
6.14869252114951
30
0
41
1
10
107.677010537367
20
6.42942785107493
30
0
41
1
10
107.818285180524
20
6.92897888305839
30
0
41
1
10
107.888922502103
20
7.14777588136892
30
0
41
1
10
108.030197145261
20
7.5189133324497
30
0
41
1
10
108.10083446684
20
7.67126921036731
30
0
41
1
10
108.242109109997
20
7.91027570126249
30
0
41
1
10
108.312746431576
20
7.99696653434961
30
0
41
1
10
108.454021074734
20
8.10980345417644
30
0
41
1
10
108.524658396313
20
8.136
30
0
41
1
10
108.595295717892
20
8.136
30
0
0
SPLINE
5
F2
100
AcDbEntity
8
1
62
256
6
ByLayer
370
13
48
1
60
0
100
AcDbSpline
70
4
71
3
72
76
73
72
40
0
40
0
40
0
40
0
40
0.03125
40
0.03125
40
0.0625000000000001
40
0.0625000000000001
40
0.0937500000000001
40
0.0937500000000001
40
0.125
40
0.125
40
0.15625
40
0.15625
40
0.1875
40
0.1875
40
0.21875
40
0.21875
40
0.25
40
0.25
40
0.28125
40
0.28125
40
0.3125
40
0.3125
40
0.34375
40
0.34375
40
0.375
40
0.375
40
0.40625
40
0.40625
40
0.4140625
40
0.4140625
40
0.421875
40
0.421875
40
0.4375
40
0.4375
40
0.46875
40
0.46875
40
0.5
40
0.5
40
0.53125
40
0.53125
40
0.5625
40
0.5625
40
0.59375
40
0.59375
40
0.625
40
0.625
40
0.65625
40
0.65625
40
0.6875
40
0.6875
40
0.71875
40
0.71875
40
0.75
40
0.75
40
0.78125
40
0.78125
40
0.8125
40
0.8125
40
0.828125
40
0.828125
40
0.84375
40
0.84375
40
0.875
40
0.875
40
0.90625
40
0.90625
40
0.9375
40
0.9375
40
0.96875
40
0.96875
40
1
40
1
40
1
40
1
41
1
10
110.371721875965
20
8.136
30
0
41
1
10
110.425544962403
20
8.136
30
0
41
1
10
110.479368048841
20
8.12081348348994
30
0
41
1
10
110.587014221717
20
8.05638724993722
30
0
41
1
10
110.640837308155
20
8.0071344230775
30
0
41
1
10
110.748483481031
20
7.87174908449785
30
0
41
1
10
110.802306567469
20
7.78560443351824
30
0
41
1
10
110.909952740344
20
7.57487360274098
30
0
41
1
10
110.963775826782
20
7.45027848126003
30
0
41
1
10
111.071421999658
20
7.16267457807257
30
0
41
1
10
111.125245086096
20
6.99966216850174
30
0
41
1
10
111.232891258972
20
6.6370376441464
30
0
41
1
10
111.28671434541
20
6.43742859545975
30
0
41
1
10
111.394360518286
20
6.00522360969762
30
0
41
1
10
111.448183604724
20
5.7726375519328
30
0
41
1
10
111.5558297776
20
5.27969510702528
30
0
41
1
10
111.609652864038
20
5.01935409042997
30
0
41
1
10
111.717299036914
20
4.47733678820683
30
0
41
1
10
111.771122123352
20
4.19567888773437
30
0
41
1
10
111.878768296228
20
3.61816455865369
30
0
41
1
10
111.932591382666
20
3.32232656391977
30
0
41
1
10
112.040237555542
20
2.72372654353544
30
0
41
1
10
112.09406064198
20
2.42098032559261
30
0
41
1
10
112.201706814856
20
1.815452680585
30
0
41
1
10
112.255529901294
20
1.51268264917786
30
0
41
1
10
112.36317607417
20
0.913196528878586
30
0
41
1
10
112.416999160608
20
0.616486763545026
30
0
41
1
10
112.484278018655
20
0.252522124121612
30
0
41
1
10
112.497733790265
20
0.180072521046895
30
0
41
1
10
112.524645333484
20
0.0359268606364651
30
0
41
1
10
112.538101105093
20
-0.0355724439946812
30
0
41
1
10
112.578468419922
20
-0.251787217725649
30
0
41
1
10
112.605379963141
20
-0.397440014773963
30
0
41
1
10
112.686114592798
20
-0.838096850851372
30
0
41
1
10
112.739937679235
20
-1.13683375644496
30
0
41
1
10
112.847583852111
20
-1.73894905170232
30
0
41
1
10
112.901406938549
20
-2.04231984968993
30
0
41
1
10
113.009053111425
20
-2.64739314882865
30
0
41
1
10
113.062876197863
20
-2.94908304705922
30
0
41
1
10
113.170522370739
20
-3.54377366177869
30
0
41
1
10
113.224345457177
20
-3.83675770607451
30
0
41
1
10
113.331991630053
20
-4.40674856404144
30
0
41
1
10
113.385814716491
20
-4.68373668162965
30
0
41
1
10
113.493460889367
20
-5.2147199653017
30
0
41
1
10
113.547283975805
20
-5.46869722641776
30
0
41
1
10
113.654930148681
20
-5.94747586045861
30
0
41
1
10
113.708753235119
20
-6.17226303732394
30
0
41
1
10
113.816399407995
20
-6.58780394394202
30
0
41
1
10
113.870222494433
20
-6.77854942605666
30
0
41
1
10
113.977868667309
20
-7.12281913979771
30
0
41
1
10
114.031691753747
20
-7.27634204287222
30
0
41
1
10
114.139337926623
20
-7.5447945930506
30
0
41
1
10
114.193161013061
20
-7.65972936291266
30
0
41
1
10
114.300807185937
20
-7.85138940331146
30
0
41
1
10
114.354630272375
20
-7.92812462647385
30
0
41
1
10
114.462276445251
20
-8.04529180058992
30
0
41
1
10
114.516099531689
20
-8.08573633330309
30
0
41
1
10
114.596834161346
20
-8.12148707784311
30
0
41
1
10
114.623745704565
20
-8.12925926954892
30
0
41
1
10
114.677568791003
20
-8.13697510123902
30
0
41
1
10
114.704480334222
20
-8.13698123630959
30
0
41
1
10
114.785214963879
20
-8.12544610140085
30
0
41
1
10
114.839038050317
20
-8.10207649384014
30
0
41
1
10
114.946684223193
20
-8.02048088816193
30
0
41
1
10
115.000507309631
20
-7.96224182872032
30
0
41
1
10
115.108153482506
20
-7.80836152399695
30
0
41
1
10
115.161976568944
20
-7.71270872318843
30
0
41
1
10
115.26962274182
20
-7.48280932272075
30
0
41
1
10
115.323445828258
20
-7.34855492735053
30
0
41
1
10
115.431092001134
20
-7.04191400406683
30
0
41
1
10
115.484915087572
20
-6.86952543188477
30
0
41
1
10
115.53873817401
20
-6.67920565807697
30
0
0
SPLINE
5
F3
100
AcDbEntity
8
1
62
256
6
ByLayer
370
13
48
1
60
0
100
AcDbSpline
70
4
71
3
72
22
73
18
40
0
40
0
40
0
40
0
40
0.125
40
0.125
40
0.25
40
0.25
40
0.375
40
0.375
40
0.5
40
0.5
40
0.625
40
0.625
40
0.75
40
0.75
40
0.875
40
0.875
40
1
40
1
40
1
40
1
41
1
10
106.9
20
5.20261192351049
30
0
41
1
10
106.949972312983
20
5.44191707373793
30
0
41
1
10
106.999944625967
20
5.6703930458948
30
0
41
1
10
107.099889251934
20
6.10103248472228
30
0
41
1
10
107.149861564917
20
6.30318706292633
30
0
41
1
10
107.249806190884
20
6.67756791652377
30
0
41
1
10
107.299778503867
20
6.84978933591538
30
0
41
1
10
107.399723129834
20
7.16196003247586
30
0
41
1
10
107.449695442818
20
7.30190890965815
30
0
41
1
10
107.549640068784
20
7.54854235356848
30
0
41
1
10
107.599612381768
20
7.65523060779645
30
0
41
1
10
107.699557007735
20
7.83565085567378
30
0
41
1
10
107.749529320718
20
7.90938963421166
30
0
41
1
10
107.849473946685
20
8.02535779461695
30
0
41
1
10
107.899446259668
20
8.06759574866831
30
0
41
1
10
107.999390885635
20
8.12291232752403
30
0
41
1
10
108.049363198618
20
8.136
30
0
41
1
10
108.099335511602
20
8.136
30
0
0
SPLINE
5
F4
100
AcDbEntity
8
1
62
256
6
ByLayer
370
13
48
1
60
0
100
AcDbSpline
70
4
71
3
72
77
73
73
40
0
40
0
40
0
40
0
40
0.0312499999999997
40
0.0312499999999997
40
0.0624999999999994
40
0.0624999999999994
40
0.0937499999999992
40
0.0937499999999992
40
0.124999999999999
40
0.124999999999999
40
0.156249999999999
40
0.156249999999999
40
0.187499999999998
40
0.187499999999998
40
0.218749999999998
40
0.218749999999998
40
0.249999999999998
40
0.249999999999998
40
0.281249999999998
40
0.281249999999998
40
0.312499999999997
40
0.312499999999997
40
0.343749999999997
40
0.343749999999997
40
0.374999999999997
40
0.374999999999997
40
0.382812499999997
40
0.382812499999997
40
0.390624999999997
40
0.406249999999997
40
0.406249999999997
40
0.437499999999997
40
0.437499999999997
40
0.468749999999997
40
0.468749999999997
40
0.499999999999997
40
0.499999999999997
40
0.531249999999997
40
0.531249999999997
40
0.562499999999998
40
0.562499999999998
40
0.593749999999998
40
0.593749999999998
40
0.624999999999998
40
0.624999999999998
40
0.656249999999998
40
0.656249999999998
40
0.687499999999998
40
0.687499999999998
40
0.718749999999998
40
0.718749999999998
40
0.749999999999999
40
0.749999999999999
40
0.757812499999999
40
0.757812499999999
40
0.765624999999999
40
0.765624999999999
40
0.781249999999999
40
0.781249999999999
40
0.812499999999999
40
0.812499999999999
40
0.843749999999999
40
0.843749999999999
40
0.874999999999999
40
0.874999999999999
40
0.906249999999999
40
0.906249999999999
40
0.9375
40
0.9375
40
0.96875
40
0.96875
40
1
40
1
40
1
40
1
41
1
10
109.875761669675
20
8.136
30
0
41
1
10
109.934751008262
20
8.136
30
0
41
1
10
109.993740346849
20
8.11775079431212
30
0
41
1
10
110.111719024022
20
8.03995546907765
30
0
41
1
10
110.170708362609
20
7.98038865454831
30
0
41
1
10
110.288687039783
20
7.81644201481387
30
0
41
1
10
110.34767637837
20
7.71204371809878
30
0
41
1
10
110.465655055543
20
7.45684165119189
30
0
41
1
10
110.52464439413
20
7.30602588081467
30
0
41
1
10
110.642623071304
20
6.9587937914653
30
0
41
1
10
110.701612409891
20
6.76237565123699
30
0
41
1
10
110.819591087064
20
6.32736162631446
30
0
41
1
10
110.878580425651
20
6.08877587057549
30
0
41
1
10
110.996559102825
20
5.57534705517995
30
0
41
1
10
111.055548441412
20
5.3005249785439
30
0
41
1
10
111.173527118585
20
4.72256768910108
30
0
41
1
10
111.232516457172
20
4.41946044525918
30
0
41
1
10
111.350495134346
20
3.79414912632083
30
0
41
1
10
111.409484472932
20
3.47197455266209
30
0
41
1
10
111.527463150106
20
2.81813304616441
30
0
41
1
10
111.586452488693
20
2.48649185039591
30
0
41
1
10
111.704431165867
20
1.82286152764556
30
0
41
1
10
111.763420504453
20
1.49089072262683
30
0
41
1
10
111.881399181627
20
0.834612499663336
30
0
41
1
10
111.940388520214
20
0.510314643395787
30
0
41
1
10
112.014125193447
20
0.113767492110583
30
0
41
1
10
112.028872528094
20
0.0351470569737273
30
0
41
1
10
112.058367197387
20
-0.122335754828043
30
0
41
1
10
112.102609201328
20
-0.359950529639207
30
0
41
1
10
112.146851205268
20
-0.60135906649387
30
0
41
1
10
112.235335213148
20
-1.0880774496749
30
0
41
1
10
112.294324551735
20
-1.41780526045366
30
0
41
1
10
112.412303228908
20
-2.08037487050319
30
0
41
1
10
112.471292567495
20
-2.41320188702176
30
0
41
1
10
112.589271244669
20
-3.07323591313764
30
0
41
1
10
112.648260583256
20
-3.40041989386242
30
0
41
1
10
112.766239260429
20
-4.03966687793053
30
0
41
1
10
112.825228599016
20
-4.35170134182326
30
0
41
1
10
112.94320727619
20
-4.95116784856168
30
0
41
1
10
113.002196614777
20
-5.23857060793299
30
0
41
1
10
113.12017529195
20
-5.7801992406107
30
0
41
1
10
113.179164630537
20
-6.03440068997688
30
0
41
1
10
113.297143307711
20
-6.50278662307318
30
0
41
1
10
113.356132646298
20
-6.71695624888326
30
0
41
1
10
113.474111323471
20
-7.10077865453474
30
0
41
1
10
113.533100662058
20
-7.27042844752449
30
0
41
1
10
113.651079339232
20
-7.56332536046605
30
0
41
1
10
113.710068677819
20
-7.68658069911328
30
0
41
1
10
113.828047354992
20
-7.88733313241278
30
0
41
1
10
113.887036693579
20
-7.96484657490342
30
0
41
1
10
114.005015370753
20
-8.07690771106118
30
0
41
1
10
114.06400470934
20
-8.11147568483852
30
0
41
1
10
114.137741382573
20
-8.13056608868169
30
0
41
1
10
114.15248871722
20
-8.13318118119125
30
0
41
1
10
114.181983386513
20
-8.13608380532307
30
0
41
1
10
114.19673072116
20
-8.13637840944253
30
0
41
1
10
114.2409727251
20
-8.13383856103258
30
0
41
1
10
114.270467394393
20
-8.12753047349486
30
0
41
1
10
114.358951402274
20
-8.0938312536407
30
0
41
1
10
114.417940740861
20
-8.05162005624155
30
0
41
1
10
114.535919418034
20
-7.92361829471392
30
0
41
1
10
114.594908756621
20
-7.83780785576212
30
0
41
1
10
114.712887433795
20
-7.62016359265701
30
0
41
1
10
114.771876772382
20
-7.48831462005421
30
0
41
1
10
114.889855449555
20
-7.1783774305772
30
0
41
1
10
114.948844788142
20
-7.00028289034449
30
0
41
1
10
115.066823465316
20
-6.60020422976916
30
0
41
1
10
115.125812803903
20
-6.3782253263073
30
0
41
1
10
115.243791481076
20
-5.89531822065871
30
0
41
1
10
115.302780819663
20
-5.63440690327019
30
0
41
1
10
115.420759496837
20
-5.08083192415825
30
0
41
1
10
115.479748835423
20
-4.78819398930673
30
0
41
1
10
115.53873817401
20
-4.48408027003077
30
0
0
SPLINE
5
F5
100
AcDbEntity
8
1
62
256
6
ByLayer
370
13
48
1
60
0
100
AcDbSpline
70
4
71
3
72
14
73
10
40
0
40
0
40
0
40
0
40
0.25
40
0.25
40
0.5
40
0.5
40
0.75
40
0.75
40
1
40
1
40
1
40
1
41
1
10
106.9
20
7.14560061400817
30
0
41
1
10
106.958614608776
20
7.3169671356255
30
0
41
1
10
107.017229217552
20
7.46579748390917
30
0
41
1
10
107.134458435104
20
7.71762807084105
30
0
41
1
10
107.19307304388
20
7.82064009247054
30
0
41
1
10
107.310302261432
20
7.98241777660601
30
0
41
1
10
107.368916870208
20
8.04120138671422
30
0
41
1
10
107.48614608776
20
8.11798247364689
30
0
41
1
10
107.544760696536
20
8.136
30
0
41
1
10
107.603375305312
20
8.136
30
0
0
SPLINE
5
F6
100
AcDbEntity
8
1
62
256
6
ByLayer
370
13
48
1
60
0
100
AcDbSpline
70
4
71
3
72
8
73
4
40
0
40
0
40
0
40
0
40
1
40
1
40
1
40
1
41
1
10
115.53873817401
20
-5.3454558935743
30
0
41
1
10
116.52582544934
20
-3.5575829002149
30
0
41
1
10
117.51291272467
20
-1.77575646543013
30
0
41
1
10
118.5
20
0
30
0
0
SPLINE
5
F7
100
AcDbEntity
8
1
62
256
6
ByLayer
370
13
48
1
60
0
100
AcDbSpline
70
4
71
3
72
8
73
4
40
0
40
0
40
0
40
0
40
1
40
1
40
1
40
1
41
1
10
115.53873817401
20
4.70067267616619
30
0
41
1
10
116.52582544934
20
3.14033668076414
30
0
41
1
10
117.51291272467
20
1.57343890904448
30
0
41
1
10
118.5
20
0
30
0
0
SPLINE
5
F8
100
AcDbEntity
8
1
62
256
6
ByLayer
370
13
48
1
60
0
100
AcDbSpline
70
4
71
3
72
8
73
4
40
0
40
0
40
0
40
0
40
1
40
1
40
1
40
1
41
1
10
115.53873817401
20
-3.89731505463155
30
0
41
1
10
116.52582544934
20
-2.605259624902
30
0
41
1
10
117.51291272467
20
-1.30614890042034
30
0
41
1
10
118.5
20
-5.969E-13
30
0
0
SPLINE
5
F9
100
AcDbEntity
8
1
62
256
6
ByLayer
370
13
48
1
60
0
100
AcDbSpline
70
4
71
3
72
8
73
4
40
0
40
0
40
0
40
0
40
1
40
1
40
1
40
1
41
1
10
115.53873817401
20
-2.19028376434076
30
0
41
1
10
116.52582544934
20
-1.45245472206201
30
0
41
1
10
117.51291272467
20
-0.722356944128904
30
0
41
1
10
118.5
20
0
30
0
0
SPLINE
5
FA
100
AcDbEntity
8
1
62
256
6
ByLayer
370
13
48
1
60
0
100
AcDbSpline
70
4
71
3
72
8
73
4
40
0
40
0
40
0
40
0
40
1
40
1
40
1
40
1
41
1
10
115.53873817401
20
0.192103368357806
30
0
41
1
10
116.52582544934
20
0.136097615356874
30
0
41
1
10
117.51291272467
20
0.0720628667424137
30
0
41
1
10
118.5
20
0
30
0
0
SPLINE
5
FB
100
AcDbEntity
8
1
62
256
6
ByLayer
370
13
48
1
60
0
100
AcDbSpline
70
4
71
3
72
8
73
4
40
0
40
0
40
0
40
0
40
1
40
1
40
1
40
1
41
1
10
115.53873817401
20
3.66938069700194
30
0
41
1
10
116.52582544934
20
2.45342158384142
30
0
41
1
10
117.51291272467
20
1.23028931152521
30
0
41
1
10
118.5
20
0
30
0
0
SPLINE
5
FC
100
AcDbEntity
8
1
62
256
6
ByLayer
370
13
48
1
60
0
100
AcDbSpline
70
4
71
3
72
8
73
4
40
0
40
0
40
0
40
0
40
1
40
1
40
1
40
1
41
1
10
115.53873817401
20
7.0985264424294
30
0
41
1
10
116.52582544934
20
4.73627522864496
30
0
41
1
10
117.51291272467
20
2.37008936752625
30
0
41
1
10
118.5
20
-5.68E-14
30
0
0
SPLINE
5
FD
100
AcDbEntity
8
1
62
256
6
ByLayer
370
13
48
1
60
0
100
AcDbSpline
70
4
71
3
72
8
73
4
40
0
40
0
40
0
40
0
40
1
40
1
40
1
40
1
41
1
10
115.53873817401
20
6.43422041873691
30
0
41
1
10
116.52582544934
20
4.29439546868397
30
0
41
1
10
117.51291272467
20
2.14964591823832
30
0
41
1
10
118.5
20
0
30
0
0
SPLINE
5
FE
100
AcDbEntity
8
1
62
256
6
ByLayer
370
13
48
1
60
0
100
AcDbSpline
70
4
71
3
72
8
73
4
40
0
40
0
40
0
40
0
40
1
40
1
40
1
40
1
41
1
10
115.53873817401
20
7.60743597819865
30
0
41
1
10
116.52582544934
20
5.07447142239849
30
0
41
1
10
117.51291272467
20
2.53864830715369
30
0
41
1
10
118.5
20
0
30
0
0
SPLINE
5
FF
100
AcDbEntity
8
1
62
256
6
ByLayer
370
13
48
1
60
0
100
AcDbSpline
70
4
71
3
72
8
73
4
40
0
40
0
40
0
40
0
40
1
40
1
40
1
40
1
41
1
10
115.53873817401
20
-4.90844374318925
30
0
41
1
10
116.52582544934
20
-3.27870062397201
30
0
41
1
10
117.51291272467
20
-1.64254552647105
30
0
41
1
10
118.5
20
0
30
0
0
SPLINE
5
100
100
AcDbEntity
8
1
62
256
6
ByLayer
370
13
48
1
60
0
100
AcDbSpline
70
4
71
3
72
8
73
4
40
0
40
0
40
0
40
0
40
1
40
1
40
1
40
1
41
1
10
115.53873817401
20
-5.81211986042157
30
0
41
1
10
116.52582544934
20
-3.88036636573355
30
0
41
1
10
117.51291272467
20
-1.94298457623648
30
0
41
1
10
118.5
20
4.547E-13
30
0
0
SPLINE
5
101
100
AcDbEntity
8
1
62
256
6
ByLayer
370
13
48
1
60
0
100
AcDbSpline
70
4
71
3
72
8
73
4
40
0
40
0
40
0
40
0
40
1
40
1
40
1
40
1
41
1
10
115.53873817401
20
-8.13112795268489
30
0
41
1
10
116.52582544934
20
-5.42102985450501
30
0
41
1
10
117.51291272467
20
-2.71064198613851
30
0
41
1
10
118.5
20
6.253E-13
30
0
0
SPLINE
5
102
100
AcDbEntity
8
1
62
256
6
ByLayer
370
13
48
1
60
0
100
AcDbSpline
70
4
71
3
72
8
73
4
40
0
40
0
40
0
40
0
40
1
40
1
40
1
40
1
41
1
10
115.53873817401
20
2.55776093744663
30
0
41
1
10
116.52582544934
20
1.7127977206535
30
0
41
1
10
117.51291272467
20
0.860206992167008
30
0
41
1
10
118.5
20
0
30
0
0
SPLINE
5
103
100
AcDbEntity
8
1
62
256
6
ByLayer
370
13
48
1
60
0
100
AcDbSpline
70
4
71
3
72
8
73
4
40
0
40
0
40
0
40
0
40
1
40
1
40
1
40
1
41
1
10
115.53873817401
20
8.05046560982754
30
0
41
1
10
116.52582544934
20
5.36581561939082
30
0
41
1
10
117.51291272467
20
2.68231531863617
30
0
41
1
10
118.5
20
0
30
0
0
SPLINE
5
104
100
AcDbEntity
8
1
62
256
6
ByLayer
370
13
48
1
60
0
100
AcDbSpline
70
4
71
3
72
8
73
4
40
0
40
0
40
0
40
0
40
1
40
1
40
1
40
1
41
1
10
115.53873817401
20
-8.00058817900913
30
0
41
1
10
116.52582544934
20
-5.33518456827167
30
0
41
1
10
117.51291272467
20
-2.66831014685624
30
0
41
1
10
118.5
20
0
30
0
0
SPLINE
5
105
100
AcDbEntity
8
1
62
256
6
ByLayer
370
13
48
1
60
0
100
AcDbSpline
70
4
71
3
72
8
73
4
40
0
40
0
40
0
40
0
40
1
40
1
40
1
40
1
41
1
10
115.53873817401
20
4.16282048356902
30
0
41
1
10
116.52582544934
20
2.76831353992407
30
0
41
1
10
117.51291272467
20
1.38070063814496
30
0
41
1
10
118.5
20
0
30
0
0
SPLINE
5
106
100
AcDbEntity
8
1
62
256
6
ByLayer
370
13
48
1
60
0
100
AcDbSpline
70
4
71
3
72
8
73
4
40
0
40
0
40
0
40
0
40
1
40
1
40
1
40
1
41
1
10
115.53873817401
20
6.02186649019157
30
0
41
1
10
116.52582544934
20
4.00917732558335
30
0
41
1
10
117.51291272467
20
2.00187970238883
30
0
41
1
10
118.5
20
0
30
0
0
SPLINE
5
107
100
AcDbEntity
8
1
62
256
6
ByLayer
370
13
48
1
60
0
100
AcDbSpline
70
4
71
3
72
8
73
4
40
0
40
0
40
0
40
0
40
1
40
1
40
1
40
1
41
1
10
115.53873817401
20
1.94125001591675
30
0
41
1
10
116.52582544934
20
1.28636768551277
30
0
41
1
10
117.51291272467
20
0.639281521114185
30
0
41
1
10
118.5
20
0
30
0
0
SPLINE
5
108
100
AcDbEntity
8
1
62
256
6
ByLayer
370
13
48
1
60
0
100
AcDbSpline
70
4
71
3
72
8
73
4
40
0
40
0
40
0
40
0
40
1
40
1
40
1
40
1
41
1
10
115.53873817401
20
-7.85924184624056
30
0
41
1
10
116.52582544934
20
-5.23741773309553
30
0
41
1
10
117.51291272467
20
-2.6176589676833
30
0
41
1
10
118.5
20
0
30
0
0
SPLINE
5
109
100
AcDbEntity
8
1
62
256
6
ByLayer
370
13
48
1
60
0
100
AcDbSpline
70
4
71
3
72
8
73
4
40
0
40
0
40
0
40
0
40
1
40
1
40
1
40
1
41
1
10
115.53873817401
20
-7.22076889318316
30
0
41
1
10
116.52582544934
20
-4.81754651787719
30
0
41
1
10
117.51291272467
20
-2.41061299484235
30
0
41
1
10
118.5
20
-5.684E-13
30
0
0
SPLINE
5
10A
100
AcDbEntity
8
1
62
256
6
ByLayer
370
13
48
1
60
0
100
AcDbSpline
70
4
71
3
72
8
73
4
40
0
40
0
40
0
40
0
40
1
40
1
40
1
40
1
41
1
10
115.53873817401
20
5.62906047786814
30
0
41
1
10
116.52582544934
20
3.75850549702628
30
0
41
1
10
117.51291272467
20
1.88214376899589
30
0
41
1
10
118.5
20
-1.137E-13
30
0
0
SPLINE
5
10B
100
AcDbEntity
8
1
62
256
6
ByLayer
370
13
48
1
60
0
100
AcDbSpline
70
4
71
3
72
8
73
4
40
0
40
0
40
0
40
0
40
1
40
1
40
1
40
1
41
1
10
115.53873817401
20
-6.19196514118039
30
0
41
1
10
116.52582544934
20
-4.12276721528627
30
0
41
1
10
117.51291272467
20
-2.05876979288229
30
0
41
1
10
118.5
20
0
30
0
0
SPLINE
5
10C
100
AcDbEntity
8
1
62
256
6
ByLayer
370
13
48
1
60
0
100
AcDbSpline
70
4
71
3
72
8
73
4
40
0
40
0
40
0
40
0
40
1
40
1
40
1
40
1
41
1
10
115.53873817401
20
-7.69490454774248
30
0
41
1
10
116.52582544934
20
-5.13254476826748
30
0
41
1
10
117.51291272467
20
-2.56756533568785
30
0
41
1
10
118.5
20
0
30
0
0
SPLINE
5
10D
100
AcDbEntity
8
1
62
256
6
ByLayer
370
13
48
1
60
0
100
AcDbSpline
70
4
71
3
72
8
73
4
40
0
40
0
40
0
40
0
40
1
40
1
40
1
40
1
41
1
10
115.53873817401
20
6.76320651963198
30
0
41
1
10
116.52582544934
20
4.50434018667156
30
0
41
1
10
117.51291272467
20
2.24992813548513
30
0
41
1
10
118.5
20
-1.0232E-12
30
0
0
SPLINE
5
10E
100
AcDbEntity
8
1
62
256
6
ByLayer
370
13
48
1
60
0
100
AcDbSpline
70
4
71
3
72
8
73
4
40
0
40
0
40
0
40
0
40
1
40
1
40
1
40
1
41
1
10
115.53873817401
20
0.754191828873047
30
0
41
1
10
116.52582544934
20
0.494798189654944
30
0
41
1
10
117.51291272467
20
0.243399822791162
30
0
41
1
10
118.5
20
0
30
0
0
SPLINE
5
10F
100
AcDbEntity
8
1
62
256
6
ByLayer
370
13
48
1
60
0
100
AcDbSpline
70
4
71
3
72
8
73
4
40
0
40
0
40
0
40
0
40
1
40
1
40
1
40
1
41
1
10
115.53873817401
20
7.788731150399
30
0
41
1
10
116.52582544934
20
5.19016616967349
30
0
41
1
10
117.51291272467
20
2.59391107295079
30
0
41
1
10
118.5
20
-1.1937E-12
30
0
0
SPLINE
5
110
100
AcDbEntity
8
1
62
256
6
ByLayer
370
13
48
1
60
0
100
AcDbSpline
70
4
71
3
72
8
73
4
40
0
40
0
40
0
40
0
40
1
40
1
40
1
40
1
41
1
10
115.53873817401
20
3.08581157537148
30
0
41
1
10
116.52582544934
20
2.04977682694664
30
0
41
1
10
117.51291272467
20
1.02116846940265
30
0
41
1
10
118.5
20
0
30
0
0
SPLINE
5
111
100
AcDbEntity
8
1
62
256
6
ByLayer
370
13
48
1
60
0
100
AcDbSpline
70
4
71
3
72
8
73
4
40
0
40
0
40
0
40
0
40
1
40
1
40
1
40
1
41
1
10
115.53873817401
20
-8.0836661739329
30
0
41
1
10
116.52582544934
20
-5.38820135581344
30
0
41
1
10
117.51291272467
20
-2.69363415146586
30
0
41
1
10
118.5
20
-6.253E-13
30
0
0
SPLINE
5
112
100
AcDbEntity
8
1
62
256
6
ByLayer
370
13
48
1
60
0
100
AcDbSpline
70
4
71
3
72
8
73
4
40
0
40
0
40
0
40
0
40
1
40
1
40
1
40
1
41
1
10
115.53873817401
20
-6.90292377217807
30
0
41
1
10
116.52582544934
20
-4.59769849672082
30
0
41
1
10
117.51291272467
20
-2.29671382350912
30
0
41
1
10
118.5
20
0
30
0
0
SPLINE
5
113
100
AcDbEntity
8
1
62
256
6
ByLayer
370
13
48
1
60
0
100
AcDbSpline
70
4
71
3
72
8
73
4
40
0
40
0
40
0
40
0
40
1
40
1
40
1
40
1
41
1
10
115.53873817401
20
-1.01014694966648
30
0
41
1
10
116.52582544934
20
-0.665462497121467
30
0
41
1
10
117.51291272467
20
-0.328745382538386
30
0
41
1
10
118.5
20
0
30
0
0
SPLINE
5
114
100
AcDbEntity
8
1
62
256
6
ByLayer
370
13
48
1
60
0
100
AcDbSpline
70
4
71
3
72
8
73
4
40
0
40
0
40
0
40
0
40
1
40
1
40
1
40
1
41
1
10
115.53873817401
20
-3.3224722608262
30
0
41
1
10
116.52582544934
20
-2.20765071936208
30
0
41
1
10
117.51291272467
20
-1.10015512063811
30
0
41
1
10
118.5
20
-1.137E-13
30
0
0
SPLINE
5
115
100
AcDbEntity
8
1
62
256
6
ByLayer
370
13
48
1
60
0
100
AcDbSpline
70
4
71
3
72
8
73
4
40
0
40
0
40
0
40
0
40
1
40
1
40
1
40
1
41
1
10
115.53873817401
20
8.11814840097699
30
0
41
1
10
116.52582544934
20
5.41263064569509
30
0
41
1
10
117.51291272467
20
2.70656931316356
30
0
41
1
10
118.5
20
0
30
0
0
SPLINE
5
116
100
AcDbEntity
8
1
62
256
6
ByLayer
370
13
48
1
60
0
100
AcDbSpline
70
4
71
3
72
8
73
4
40
0
40
0
40
0
40
0
40
1
40
1
40
1
40
1
41
1
10
115.53873817401
20
5.14869953710615
30
0
41
1
10
116.52582544934
20
3.42624806946736
30
0
41
1
10
117.51291272467
20
1.71000737463947
30
0
41
1
10
118.5
20
-7.958E-13
30
0
0
SPLINE
5
117
100
AcDbEntity
8
1
62
256
6
ByLayer
370
13
48
1
60
0
100
AcDbSpline
70
4
71
3
72
8
73
4
40
0
40
0
40
0
40
0
40
1
40
1
40
1
40
1
41
1
10
115.53873817401
20
-7.46276792620677
30
0
41
1
10
116.52582544934
20
-4.97197984683305
30
0
41
1
10
117.51291272467
20
-2.48437963585607
30
0
41
1
10
118.5
20
0
30
0
0
SPLINE
5
118
100
AcDbEntity
8
1
62
256
6
ByLayer
370
13
48
1
60
0
100
AcDbSpline
70
4
71
3
72
8
73
4
40
0
40
0
40
0
40
0
40
1
40
1
40
1
40
1
41
1
10
115.53873817401
20
7.35649067455051
30
0
41
1
10
116.52582544934
20
4.90089685799776
30
0
41
1
10
117.51291272467
20
2.44872255323693
30
0
41
1
10
118.5
20
1.1369E-12
30
0
0
SPLINE
5
119
100
AcDbEntity
8
1
62
256
6
ByLayer
370
13
48
1
60
0
100
AcDbSpline
70
4
71
3
72
8
73
4
40
0
40
0
40
0
40
0
40
1
40
1
40
1
40
1
41
1
10
115.53873817401
20
-6.58856069565226
30
0
41
1
10
116.52582544934
20
-4.39708556119737
30
0
41
1
10
117.51291272467
20
-2.20088902650744
30
0
41
1
10
118.5
20
-5.116E-13
30
0
0
SPLINE
5
11A
100
AcDbEntity
8
1
62
256
6
ByLayer
370
13
48
1
60
0
100
AcDbSpline
70
4
71
3
72
8
73
4
40
0
40
0
40
0
40
0
40
1
40
1
40
1
40
1
41
1
10
115.53873817401
20
7.94980829773007
30
0
41
1
10
116.52582544934
20
5.30158047102367
30
0
41
1
10
117.51291272467
20
2.65163275055244
30
0
41
1
10
118.5
20
0
30
0
0
SPLINE
5
11B
100
AcDbEntity
8
1
62
256
6
ByLayer
370
13
48
1
60
0
100
AcDbSpline
70
4
71
3
72
8
73
4
40
0
40
0
40
0
40
0
40
1
40
1
40
1
40
1
41
1
10
115.53873817401
20
1.39014827994976
30
0
41
1
10
116.52582544934
20
0.93467836421479
30
0
41
1
10
117.51291272467
20
0.471293560950016
30
0
41
1
10
118.5
20
0
30
0
0
SPLINE
5
11C
100
AcDbEntity
8
1
62
256
6
ByLayer
370
13
48
1
60
0
100
AcDbSpline
70
4
71
3
72
8
73
4
40
0
40
0
40
0
40
0
40
1
40
1
40
1
40
1
41
1
10
115.53873817401
20
-2.80086878971039
30
0
41
1
10
116.52582544934
20
-1.87478591642051
30
0
41
1
10
117.51291272467
20
-0.941158881996984
30
0
41
1
10
118.5
20
0
30
0
0
SPLINE
5
11D
100
AcDbEntity
8
1
62
256
6
ByLayer
370
13
48
1
60
0
100
AcDbSpline
70
4
71
3
72
8
73
4
40
0
40
0
40
0
40
0
40
1
40
1
40
1
40
1
41
1
10
115.53873817401
20
-1.64310766224912
30
0
41
1
10
116.52582544934
20
-1.10327057072303
30
0
41
1
10
117.51291272467
20
-0.55556560372483
30
0
41
1
10
118.5
20
0
30
0
0
SPLINE
5
11E
100
AcDbEntity
8
1
62
256
6
ByLayer
370
13
48
1
60
0
100
AcDbSpline
70
4
71
3
72
8
73
4
40
0
40
0
40
0
40
0
40
1
40
1
40
1
40
1
41
1
10
115.53873817401
20
-4.38192727878729
30
0
41
1
10
116.52582544934
20
-2.91451821198822
30
0
41
1
10
117.51291272467
20
-1.45386939138101
30
0
41
1
10
118.5
20
0
30
0
0
SPLINE
5
11F
100
AcDbEntity
8
1
62
256
6
ByLayer
370
13
48
1
60
0
100
AcDbSpline
70
4
71
3
72
8
73
4
40
0
40
0
40
0
40
0
40
1
40
1
40
1
40
1
41
1
10
115.53873817401
20
-0.449376652578621
30
0
41
1
10
116.52582544934
20
-0.307603117780502
30
0
41
1
10
117.51291272467
20
-0.157810231766064
30
0
41
1
10
118.5
20
-8.53E-14
30
0
0
LINE
5
7D
100
AcDbEntity
8
80
62
256
6
ByLayer
370
18
48
1
60
0
100
AcDbLine
10
0
20
0
30
0
11
-5
21
0
31
0
39
0
210
0
220
0
230
1
0
LINE
5
7E
100
AcDbEntity
8
4
62
256
6
ByLayer
370
18
48
0.05
60
0
100
AcDbLine
10
-5
20
0
30
0
11
123.5
21
0
31
0
39
0
210
0
220
0
230
1
0
LINE
5
80
100
AcDbEntity
8
81
62
256
6
ByLayer
370
18
48
1
60
0
100
AcDbLine
10
118.5
20
0
30
0
11
123.5
21
0
31
0
39
0
210
0
220
0
230
1
0
LINE
5
81
100
AcDbEntity
8
SK4
62
256
6
ByLayer
370
18
48
0.05
60
0
100
AcDbLine
10
-53
20
0
30
0
11
123.5
21
0
31
0
39
0
210
0
220
0
230
1
0
LINE
5
83
100
AcDbEntity
8
1
62
256
6
ByLayer
370
18
48
1
60
0
100
AcDbLine
10
40.09692
20
-7.7
30
0
11
76.782734
21
-7.7
31
0
39
0
210
0
220
0
230
1
0
LINE
5
84
100
AcDbEntity
8
1
62
256
6
ByLayer
370
18
48
1
60
0
100
AcDbLine
10
76.782734
20
7.7
30
0
11
40.09692
21
7.7
31
0
39
0
210
0
220
0
230
1
0
LINE
5
85
100
AcDbEntity
8
1
62
256
6
ByLayer
370
18
48
1
60
0
100
AcDbLine
10
118.5
20
0
30
0
11
115.538738
21
8.136
31
0
39
0
210
0
220
0
230
1
0
LINE
5
86
100
AcDbEntity
8
1
62
256
6
ByLayer
370
18
48
1
60
0
100
AcDbLine
10
115.538738
20
-8.136
30
0
11
118.5
21
0
31
0
39
0
210
0
220
0
230
1
0
LINE
5
87
100
AcDbEntity
8
1
62
256
6
ByLayer
370
18
48
1
60
0
100
AcDbLine
10
7.997556
20
8.065446
30
0
11
0
21
9.525
31
0
39
0
210
0
220
0
230
1
0
LINE
5
88
100
AcDbEntity
8
1
62
256
6
ByLayer
370
18
48
1
60
0
100
AcDbLine
10
0
20
-9.525
30
0
11
7.997556
21
-8.065446
31
0
39
0
210
0
220
0
230
1
0
LINE
5
89
100
AcDbEntity
8
1
62
256
6
ByLayer
370
18
48
1
60
0
100
AcDbLine
10
118.5
20
0
30
0
11
115.538738
21
8.136
31
0
39
0
210
0
220
0
230
1
0
LINE
5
8A
100
AcDbEntity
8
1
62
256
6
ByLayer
370
18
48
1
60
0
100
AcDbLine
10
115.538738
20
-8.136
30
0
11
118.5
21
0
31
0
39
0
210
0
220
0
230
1
0
LINE
5
8B
100
AcDbEntity
8
1
62
256
6
ByLayer
370
18
48
1
60
0
100
AcDbLine
10
106.9
20
-8.136
30
0
11
115.538738
21
-8.136
31
0
39
0
210
0
220
0
230
1
0
LINE
5
8C
100
AcDbEntity
8
SK1
62
256
6
ByLayer
370
18
48
1
60
0
100
AcDbLine
10
-48
20
-8.525
30
0
11
-47
21
-9.525
31
0
39
0
210
0
220
0
230
1
0
LINE
5
8E
100
AcDbEntity
8
SK1
62
256
6
ByLayer
370
18
48
1
60
0
100
AcDbLine
10
-47
20
9.525
30
0
11
-48
21
8.525
31
0
39
0
210
0
220
0
230
1
0
LINE
5
8F
100
AcDbEntity
8
SK1
62
256
6
ByLayer
370
18
48
1
60
0
100
AcDbLine
10
-47
20
-9.525
30
0
11
0
21
-9.525
31
0
39
0
210
0
220
0
230
1
0
LINE
5
90
100
AcDbEntity
8
SK1
62
256
6
ByLayer
370
18
48
1
60
0
100
AcDbLine
10
0
20
9.525
30
0
11
-47
21
9.525
31
0
39
0
210
0
220
0
230
1
0
LINE
5
91
100
AcDbEntity
8
1
62
256
6
ByLayer
370
18
48
1
60
0
100
AcDbLine
10
0
20
9.525
30
0
11
0
21
-9.525
31
0
39
0
210
0
220
0
230
1
0
LINE
5
92
100
AcDbEntity
8
1
62
256
6
ByLayer
370
18
48
1
60
0
100
AcDbLine
10
115.538738
20
8.136
30
0
11
115.538738
21
7.877661
31
0
39
0
210
0
220
0
230
1
0
LINE
5
93
100
AcDbEntity
8
1
62
256
6
ByLayer
370
18
48
1
60
0
100
AcDbLine
10
115.538738
20
-8.136
30
0
11
115.538738
21
-1.162797
31
0
39
0
210
0
220
0
230
1
0
LINE
5
94
100
AcDbEntity
8
1
62
256
6
ByLayer
370
18
48
1
60
0
100
AcDbLine
10
10
20
-2.878586
30
0
11
10
21
7.634921
31
0
39
0
210
0
220
0
230
1
0
LINE
5
95
100
AcDbEntity
8
SK1
62
256
6
ByLayer
370
18
48
1
60
0
100
AcDbLine
10
-48
20
-8.525
30
0
11
-48
21
8.525
31
0
39
0
210
0
220
0
230
1
0
LINE
5
96
100
AcDbEntity
8
SK1
62
256
6
ByLayer
370
18
48
1
60
0
100
AcDbLine
10
-40.207362
20
-3.933192
30
0
11
-40.207362
21
3.933192
31
0
39
0
210
0
220
0
230
1
0
LINE
5
97
100
AcDbEntity
8
SK1
62
256
6
ByLayer
370
18
48
1
60
0
100
AcDbLine
10
0
20
9.525
30
0
11
0
21
-9.525
31
0
39
0
210
0
220
0
230
1
0
LINE
5
98
100
AcDbEntity
8
SK1
62
256
6
ByLayer
370
18
48
1
60
0
100
AcDbLine
10
-47
20
-9.525
30
0
11
-47
21
9.525
31
0
39
0
210
0
220
0
230
1
0
LINE
5
99
100
AcDbEntity
8
SK1
62
256
6
ByLayer
370
18
48
1
60
0
100
AcDbLine
10
-5.911513
20
-3.933192
30
0
11
-40.207362
21
-3.933192
31
0
39
0
210
0
220
0
230
1
0
LINE
5
9A
100
AcDbEntity
8
SK1
62
256
6
ByLayer
370
18
48
1
60
0
100
AcDbLine
10
-40.207362
20
3.933192
30
0
11
-5.911513
21
3.933192
31
0
39
0
210
0
220
0
230
1
0
LINE
5
9B
100
AcDbEntity
8
SK1
62
256
6
ByLayer
370
18
48
1
60
0
100
AcDbLine
10
-5.911513
20
-3.933192
30
0
11
-5.911513
21
3.933192
31
0
39
0
210
0
220
0
230
1
0
LINE
5
9C
100
AcDbEntity
8
1
62
256
6
ByLayer
370
18
48
1
60
0
100
AcDbLine
10
115.538738
20
8.136
30
0
11
115.538738
21
-8.136
31
0
39
0
210
0
220
0
230
1
0
LINE
5
9D
100
AcDbEntity
8
1
62
256
6
ByLayer
370
18
48
1
60
0
100
AcDbLine
10
115.538738
20
8.136
30
0
11
115.538738
21
-8.136
31
0
39
0
210
0
220
0
230
1
0
LINE
5
9E
100
AcDbEntity
8
1
62
256
6
ByLayer
370
18
48
1
60
0
100
AcDbLine
10
115.538738
20
8.136
30
0
11
115.538738
21
-8.136
31
0
39
0
210
0
220
0
230
1
0
LINE
5
9F
100
AcDbEntity
8
1
62
256
6
ByLayer
370
18
48
1
60
0
100
AcDbLine
10
106.9
20
8.136
30
0
11
106.9
21
-8.136
31
0
39
0
210
0
220
0
230
1
0
LINE
5
A0
100
AcDbEntity
8
1
62
256
6
ByLayer
370
18
48
1
60
0
100
AcDbLine
10
106.9
20
8.136
30
0
11
106.9
21
-8.136
31
0
39
0
210
0
220
0
230
1
0
LINE
5
A1
100
AcDbEntity
8
1
62
256
6
ByLayer
370
18
48
1
60
0
100
AcDbLine
10
115.538738
20
8.136
30
0
11
115.538738
21
-8.136
31
0
39
0
210
0
220
0
230
1
0
LINE
5
A2
100
AcDbEntity
8
1
62
256
6
ByLayer
370
18
48
1
60
0
100
AcDbLine
10
106.9
20
8.136
30
0
11
106.9
21
-8.136
31
0
39
0
210
0
220
0
230
1
0
LINE
5
A3
100
AcDbEntity
8
1
62
256
6
ByLayer
370
18
48
1
60
0
100
AcDbLine
10
115.538738
20
8.136
30
0
11
115.538738
21
-8.136
31
0
39
0
210
0
220
0
230
1
0
LINE
5
A4
100
AcDbEntity
8
SK2
62
256
6
ByLayer
370
13
48
1
60
0
100
AcDbLine
10
-54.5
20
-9.525
30
0
11
-54.5
21
37.799683
31
0
39
0
210
0
220
0
230
1
0
LINE
5
A6
100
AcDbEntity
8
SK2
62
256
6
ByLayer
370
13
48
1
60
0
100
AcDbLine
10
-49.5875
20
9.525
30
0
11
-56.5
21
9.525
31
0
39
0
210
0
220
0
230
1
0
LINE
5
A7
100
AcDbEntity
8
SK2
62
256
6
ByLayer
370
13
48
1
60
0
100
AcDbLine
10
-49.5875
20
-9.525
30
0
11
-56.5
21
-9.525
31
0
39
0
210
0
220
0
230
1
0
LINE
5
A8
100
AcDbEntity
8
1
62
256
6
ByLayer
370
18
48
1
60
1
100
AcDbLine
10
-54.5
20
9.525
30
0
11
-54.039216
21
6.025002
31
0
39
0
210
0
220
0
230
1
0
LINE
5
A9
100
AcDbEntity
8
1
62
256
6
ByLayer
370
18
48
1
60
1
100
AcDbLine
10
-54.039216
20
6.025002
30
0
11
-54.960784
21
6.024998
31
0
39
0
210
0
220
0
230
1
0
LINE
5
AA
100
AcDbEntity
8
1
62
256
6
ByLayer
370
18
48
1
60
1
100
AcDbLine
10
-54.960784
20
6.024998
30
0
11
-54.5
21
9.525
31
0
39
0
210
0
220
0
230
1
0
LINE
5
AB
100
AcDbEntity
8
1
62
256
6
ByLayer
370
18
48
1
60
1
100
AcDbLine
10
-54.5
20
-9.525
30
0
11
-54.960784
21
-6.025002
31
0
39
0
210
0
220
0
230
1
0
LINE
5
AC
100
AcDbEntity
8
1
62
256
6
ByLayer
370
18
48
1
60
1
100
AcDbLine
10
-54.960784
20
-6.025002
30
0
11
-54.039216
21
-6.024998
31
0
39
0
210
0
220
0
230
1
0
LINE
5
AD
100
AcDbEntity
8
1
62
256
6
ByLayer
370
18
48
1
60
1
100
AcDbLine
10
-54.039216
20
-6.024998
30
0
11
-54.5
21
-9.525
31
0
39
0
210
0
220
0
230
1
0
LINE
5
AE
100
AcDbEntity
8
2
62
256
6
ByLayer
370
13
48
1
60
0
100
AcDbLine
10
126
20
-8.136
30
0
11
126
21
36.410683
31
0
39
0
210
0
220
0
230
1
0
LINE
5
B0
100
AcDbEntity
8
2
62
256
6
ByLayer
370
13
48
1
60
0
100
AcDbLine
10
117.126238
20
8.136
30
0
11
128
21
8.136
31
0
39
0
210
0
220
0
230
1
0
LINE
5
B1
100
AcDbEntity
8
2
62
256
6
ByLayer
370
13
48
1
60
0
100
AcDbLine
10
117.126238
20
-8.136
30
0
11
128
21
-8.136
31
0
39
0
210
0
220
0
230
1
0
LINE
5
B2
100
AcDbEntity
8
1
62
256
6
ByLayer
370
18
48
1
60
1
100
AcDbLine
10
126
20
8.136
30
0
11
126.460784
21
4.636002
31
0
39
0
210
0
220
0
230
1
0
LINE
5
B3
100
AcDbEntity
8
1
62
256
6
ByLayer
370
18
48
1
60
1
100
AcDbLine
10
126.460784
20
4.636002
30
0
11
125.539216
21
4.635998
31
0
39
0
210
0
220
0
230
1
0
LINE
5
B4
100
AcDbEntity
8
1
62
256
6
ByLayer
370
18
48
1
60
1
100
AcDbLine
10
125.539216
20
4.635998
30
0
11
126
21
8.136
31
0
39
0
210
0
220
0
230
1
0
LINE
5
B5
100
AcDbEntity
8
1
62
256
6
ByLayer
370
18
48
1
60
1
100
AcDbLine
10
126
20
-8.136
30
0
11
125.539216
21
-4.636002
31
0
39
0
210
0
220
0
230
1
0
LINE
5
B6
100
AcDbEntity
8
1
62
256
6
ByLayer
370
18
48
1
60
1
100
AcDbLine
10
125.539216
20
-4.636002
30
0
11
126.460784
21
-4.635998
31
0
39
0
210
0
220
0
230
1
0
LINE
5
B7
100
AcDbEntity
8
1
62
256
6
ByLayer
370
18
48
1
60
1
100
AcDbLine
10
126.460784
20
-4.635998
30
0
11
126
21
-8.136
31
0
39
0
210
0
220
0
230
1
0
LINE
5
B8
100
AcDbEntity
8
SK2
62
256
6
ByLayer
370
13
48
1
60
0
100
AcDbLine
10
119.042957
20
-1.491762
30
0
11
125.682423
21
-19.733545
31
0
39
0
210
0
220
0
230
1
0
LINE
5
B9
100
AcDbEntity
8
SK2
62
256
6
ByLayer
370
13
48
1
60
0
100
AcDbLine
10
119.042957
20
1.491762
30
0
11
125.682423
21
19.733545
31
0
39
0
210
0
220
0
230
1
0
LINE
5
BA
100
AcDbEntity
8
1
62
256
6
ByLayer
370
18
48
1
60
1
100
AcDbLine
10
124.998383
20
-17.85416
30
0
11
128.051575
21
-16.082064
31
0
39
0
210
0
220
0
230
1
0
LINE
5
BB
100
AcDbEntity
8
1
62
256
6
ByLayer
370
18
48
1
60
1
100
AcDbLine
10
128.051575
20
-16.082064
30
0
11
128.406196
21
-16.93267
31
0
39
0
210
0
220
0
230
1
0
LINE
5
BC
100
AcDbEntity
8
1
62
256
6
ByLayer
370
18
48
1
60
1
100
AcDbLine
10
128.406196
20
-16.93267
30
0
11
124.998383
21
-17.85416
31
0
39
0
210
0
220
0
230
1
0
LINE
5
BD
100
AcDbEntity
8
1
62
256
6
ByLayer
370
18
48
1
60
1
100
AcDbLine
10
124.998383
20
17.85416
30
0
11
128.406193
21
16.932671
31
0
39
0
210
0
220
0
230
1
0
LINE
5
BE
100
AcDbEntity
8
1
62
256
6
ByLayer
370
18
48
1
60
1
100
AcDbLine
10
128.406193
20
16.932671
30
0
11
128.051579
21
16.082063
31
0
39
0
210
0
220
0
230
1
0
LINE
5
BF
100
AcDbEntity
8
1
62
256
6
ByLayer
370
18
48
1
60
1
100
AcDbLine
10
128.051579
20
16.082063
30
0
11
124.998383
21
17.85416
31
0
39
0
210
0
220
0
230
1
0
LINE
5
124
100
AcDbEntity
8
1
62
256
6
ByLayer
370
18
48
1
60
1
100
AcDbLine
10
-54.5
20
9.525
30
0
11
-54.039216
21
6.025002
31
0
39
0
210
0
220
0
230
1
0
LINE
5
125
100
AcDbEntity
8
1
62
256
6
ByLayer
370
18
48
1
60
1
100
AcDbLine
10
-54.039216
20
6.025002
30
0
11
-54.960784
21
6.024998
31
0
39
0
210
0
220
0
230
1
0
LINE
5
126
100
AcDbEntity
8
1
62
256
6
ByLayer
370
18
48
1
60
1
100
AcDbLine
10
-54.960784
20
6.024998
30
0
11
-54.5
21
9.525
31
0
39
0
210
0
220
0
230
1
0
LINE
5
128
100
AcDbEntity
8
1
62
256
6
ByLayer
370
18
48
1
60
1
100
AcDbLine
10
-54.5
20
-9.525
30
0
11
-54.960784
21
-6.025002
31
0
39
0
210
0
220
0
230
1
0
LINE
5
129
100
AcDbEntity
8
1
62
256
6
ByLayer
370
18
48
1
60
1
100
AcDbLine
10
-54.960784
20
-6.025002
30
0
11
-54.039216
21
-6.024998
31
0
39
0
210
0
220
0
230
1
0
LINE
5
12A
100
AcDbEntity
8
1
62
256
6
ByLayer
370
18
48
1
60
1
100
AcDbLine
10
-54.039216
20
-6.024998
30
0
11
-54.5
21
-9.525
31
0
39
0
210
0
220
0
230
1
0
LINE
5
12E
100
AcDbEntity
8
1
62
256
6
ByLayer
370
18
48
1
60
1
100
AcDbLine
10
126
20
8.136
30
0
11
126.460784
21
4.636002
31
0
39
0
210
0
220
0
230
1
0
LINE
5
12F
100
AcDbEntity
8
1
62
256
6
ByLayer
370
18
48
1
60
1
100
AcDbLine
10
126.460784
20
4.636002
30
0
11
125.539216
21
4.635998
31
0
39
0
210
0
220
0
230
1
0
LINE
5
130
100
AcDbEntity
8
1
62
256
6
ByLayer
370
18
48
1
60
1
100
AcDbLine
10
125.539216
20
4.635998
30
0
11
126
21
8.136
31
0
39
0
210
0
220
0
230
1
0
LINE
5
132
100
AcDbEntity
8
1
62
256
6
ByLayer
370
18
48
1
60
1
100
AcDbLine
10
126
20
-8.136
30
0
11
125.539216
21
-4.636002
31
0
39
0
210
0
220
0
230
1
0
LINE
5
133
100
AcDbEntity
8
1
62
256
6
ByLayer
370
18
48
1
60
1
100
AcDbLine
10
125.539216
20
-4.636002
30
0
11
126.460784
21
-4.635998
31
0
39
0
210
0
220
0
230
1
0
LINE
5
134
100
AcDbEntity
8
1
62
256
6
ByLayer
370
18
48
1
60
1
100
AcDbLine
10
126.460784
20
-4.635998
30
0
11
126
21
-8.136
31
0
39
0
210
0
220
0
230
1
0
LINE
5
137
100
AcDbEntity
8
1
62
256
6
ByLayer
370
18
48
1
60
1
100
AcDbLine
10
124.998383
20
-17.85416
30
0
11
128.051575
21
-16.082064
31
0
39
0
210
0
220
0
230
1
0
LINE
5
138
100
AcDbEntity
8
1
62
256
6
ByLayer
370
18
48
1
60
1
100
AcDbLine
10
128.051575
20
-16.082064
30
0
11
128.406196
21
-16.93267
31
0
39
0
210
0
220
0
230
1
0
LINE
5
139
100
AcDbEntity
8
1
62
256
6
ByLayer
370
18
48
1
60
1
100
AcDbLine
10
128.406196
20
-16.93267
30
0
11
124.998383
21
-17.85416
31
0
39
0
210
0
220
0
230
1
0
LINE
5
13B
100
AcDbEntity
8
1
62
256
6
ByLayer
370
18
48
1
60
1
100
AcDbLine
10
124.998383
20
17.85416
30
0
11
128.406193
21
16.932671
31
0
39
0
210
0
220
0
230
1
0
LINE
5
13C
100
AcDbEntity
8
1
62
256
6
ByLayer
370
18
48
1
60
1
100
AcDbLine
10
128.406193
20
16.932671
30
0
11
128.051579
21
16.082063
31
0
39
0
210
0
220
0
230
1
0
LINE
5
13D
100
AcDbEntity
8
1
62
256
6
ByLayer
370
18
48
1
60
1
100
AcDbLine
10
128.051579
20
16.082063
30
0
11
124.998383
21
17.85416
31
0
39
0
210
0
220
0
230
1
0
MTEXT
5
120
100
AcDbEntity
8
SK2
62
256
6
ByLayer
370
18
48
1
60
0
100
AcDbMText
10
-55.841114
20
21.183438
30
0
210
0
220
0
230
1
1
%%c
40
3
41
0
44
1.084337
50
90
71
7
72
5
7
iso_b_vert
0
MTEXT
5
123
100
AcDbEntity
8
SK2
62
256
6
ByLayer
370
18
48
1
60
0
100
AcDbMText
10
-55.841114
20
27.16
30
0
210
0
220
0
230
1
1
\W0.7022;19.050
40
3
41
0
44
1.084337
50
90
71
7
72
5
7
iso_b_vert
0
MTEXT
5
12C
100
AcDbEntity
8
2
62
256
6
ByLayer
370
18
48
1
60
0
100
AcDbMText
10
124.658886
20
19.794437
30
0
210
0
220
0
230
1
1
%%c
40
3
41
0
44
1.084337
50
90
71
7
72
5
7
iso_b_vert
0
MTEXT
5
12D
100
AcDbEntity
8
2
62
256
6
ByLayer
370
18
48
1
60
0
100
AcDbMText
10
124.658886
20
25.771
30
0
210
0
220
0
230
1
1
\W0.7022;16.272
40
3
41
0
44
1.084337
50
90
71
7
72
5
7
iso_b_vert
0
MTEXT
5
136
100
AcDbEntity
8
SK2
62
256
6
ByLayer
370
18
48
1
60
0
100
AcDbMText
10
138.409114
20
3.734657
30
0
210
0
220
0
230
1
1
\W0.7071;140%%d
40
3
41
0
44
1.084337
50
270
71
7
72
5
7
iso_b_vert
0
MTEXT
5
13F
100
AcDbEntity
8
SK6
62
256
6
ByLayer
370
18
48
1
60
0
100
AcDbMText
10
7.141603
20
-67.114886
30
0
210
0
220
0
230
1
1
\W0.7771;H85541/64
40
3
41
0
44
1.084337
50
0
71
7
72
5
7
iso_b_vert
0
HATCH
5
127
100
AcDbEntity
8
SK2
62
256
6
ByLayer
370
13
48
1
60
0
100
AcDbHatch
10
0
20
0
30
0
210
0
220
0
230
1
2
ANSI31
70
0
71
0
91
1
92
5
93
3
72
1
10
-54.5
20
9.52500000000001
11
-54.0392162584472
21
6.02500169255319
72
1
10
-54.0392162584472
20
6.02500169255319
11
-54.9607837415528
21
6.02499830744682
72
1
10
-54.9607837415528
20
6.02499830744682
11
-54.5
21
9.52500000000001
97
0
75
0
76
1
52
0
41
0.0062
77
0
78
1
53
45
43
0
44
0
45
-0.0139193969876572
46
0.0139193969876572
79
0
47
0
98
1
10
0
20
0
0
HATCH
5
12B
100
AcDbEntity
8
SK2
62
256
6
ByLayer
370
13
48
1
60
0
100
AcDbHatch
10
0
20
0
30
0
210
0
220
0
230
1
2
ANSI31
70
0
71
0
91
1
92
5
93
3
72
1
10
-54.5
20
-9.52500000000001
11
-54.9607837415528
21
-6.02500169255319
72
1
10
-54.9607837415528
20
-6.02500169255319
11
-54.0392162584472
21
-6.02499830744682
72
1
10
-54.0392162584472
20
-6.02499830744682
11
-54.5
21
-9.52500000000001
97
0
75
0
76
1
52
0
41
0.0062
77
0
78
1
53
45
43
0
44
0
45
-0.0139193969876572
46
0.0139193969876572
79
0
47
0
98
1
10
0
20
0
0
HATCH
5
131
100
AcDbEntity
8
2
62
256
6
ByLayer
370
13
48
1
60
0
100
AcDbHatch
10
0
20
0
30
0
210
0
220
0
230
1
2
ANSI31
70
0
71
0
91
1
92
5
93
3
72
1
10
126
20
8.136
11
126.460783741553
21
4.63600169255318
72
1
10
126.460783741553
20
4.63600169255318
11
125.539216258447
21
4.63599830744681
72
1
10
125.539216258447
20
4.63599830744681
11
126
21
8.136
97
0
75
0
76
1
52
0
41
0.0062
77
0
78
1
53
45
43
0
44
0
45
-0.0139193969876572
46
0.0139193969876572
79
0
47
0
98
1
10
0
20
0
0
HATCH
5
135
100
AcDbEntity
8
2
62
256
6
ByLayer
370
13
48
1
60
0
100
AcDbHatch
10
0
20
0
30
0
210
0
220
0
230
1
2
ANSI31
70
0
71
0
91
1
92
5
93
3
72
1
10
126
20
-8.136
11
125.539216258447
21
-4.63600169255318
72
1
10
125.539216258447
20
-4.63600169255318
11
126.460783741553
21
-4.63599830744681
72
1
10
126.460783741553
20
-4.63599830744681
11
126
21
-8.136
97
0
75
0
76
1
52
0
41
0.0062
77
0
78
1
53
45
43
0
44
0
45
-0.0139193969876572
46
0.0139193969876572
79
0
47
0
98
1
10
0
20
0
0
HATCH
5
13A
100
AcDbEntity
8
SK2
62
256
6
ByLayer
370
13
48
1
60
0
100
AcDbHatch
10
0
20
0
30
0
210
0
220
0
230
1
2
ANSI31
70
0
71
0
91
1
92
5
93
3
72
1
10
124.998382723188
20
-17.8541597949323
11
128.051575425693
21
-16.0820638240608
72
1
10
128.051575425693
20
-16.0820638240608
11
128.406195833975
21
-16.9326700737196
72
1
10
128.406195833975
20
-16.9326700737196
11
124.998382723188
21
-17.8541597949323
97
0
75
0
76
1
52
0
41
0.0062
77
0
78
1
53
45
43
0
44
0
45
-0.0139193969876572
46
0.0139193969876572
79
0
47
0
98
1
10
0
20
0
0
HATCH
5
13E
100
AcDbEntity
8
SK2
62
256
6
ByLayer
370
13
48
1
60
0
100
AcDbHatch
10
0
20
0
30
0
210
0
220
0
230
1
2
ANSI31
70
0
71
0
91
1
92
5
93
3
72
1
10
124.998382723188
20
17.8541597949323
11
128.406192709519
21
16.9326713763016
72
1
10
128.406192709519
20
16.9326713763016
11
128.051578550149
21
16.0820625214788
72
1
10
128.051578550149
20
16.0820625214788
11
124.998382723188
21
17.8541597949323
97
0
75
0
76
1
52
0
41
0.0062
77
0
78
1
53
45
43
0
44
0
45
-0.0139193969876572
46
0.0139193969876572
79
0
47
0
98
1
10
0
20
0
0
DIMENSION
5
142
100
AcDbEntity
8
SK2
62
256
6
ByLayer
370
18
48
1
60
0
100
AcDbDimension
2
_U0
10
118.5
20
-45.952229
30
0
11
35.25
21
-45.952229
31
0
70
32
71
1
72
1
41
1
210
0
220
0
230
1
3
Standard
100
AcDbAlignedDimension
13
-48
23
-9.525
33
0
14
118.5
24
0
34
0
50
0
100
AcDbRotatedDimension
1001
ACAD
1000
DSTYLE
1002
{
1070
   371
1070
    13
1070
   372
1070
    13
1070
     3
1000

1070
   170
1070
     0
1070
   144
1040
1.0
1070
   277
1070
     2
1070
   284
1070
     8
1070
   278
1070
    46
1070
   146
1040
1.166667
1070
   345
1005
16
1070
   347
1005
16
1070
   346
1005
16
1070
   344
1005
0
1070
   343
1005
0
1070
   172
1070
     1
1070
    76
1070
     0
1070
    75
1070
     0
1070
   282
1070
     0
1070
   281
1070
     0
1070
    71
1070
     0
1070
    74
1070
     0
1070
   279
1070
     0
1070
   173
1070
     1
1070
   340
1005
121
1070
   271
1070
     2
1070
   272
1070
     3
1070
    77
1070
     1
1070
    73
1070
     1
1070
   171
1070
     3
1070
   274
1070
     4
1070
   177
1070
     2
1070
   176
1070
     2
1070
   178
1070
     2
1070
    78
1070
     8
1070
    48
1040
-0.1
1070
    41
1040
3.5
1070
   147
1040
1.5
1070
    42
1040
1.5875
1070
    44
1040
2.0
1070
   140
1040
3.0
1002
}
1001
ACAD_DSTYLE_DIM_LINETYPE
1070
   380
1005
16
1001
ACAD_DSTYLE_DIM_EXT1_LINETYPE
1070
   381
1005
16
1001
ACAD_DSTYLE_DIM_EXT2_LINETYPE
1070
   382
1005
16
0
DIMENSION
5
15B
100
AcDbEntity
8
SK2
62
256
6
ByLayer
370
18
48
1
60
0
100
AcDbDimension
2
_U1
10
3
20
-35.952229
30
0
11
60.75
21
-35.952229
31
0
70
32
71
1
72
1
41
1
210
0
220
0
230
1
3
Standard
100
AcDbAlignedDimension
13
118.5
23
0
33
0
14
3
24
-8.136
34
0
50
0
100
AcDbRotatedDimension
1001
ACAD
1000
DSTYLE
1002
{
1070
   371
1070
    13
1070
   372
1070
    13
1070
     3
1000

1070
   170
1070
     0
1070
   144
1040
1.0
1070
   277
1070
     2
1070
   284
1070
     8
1070
   278
1070
    46
1070
   146
1040
1.166667
1070
   345
1005
16
1070
   347
1005
16
1070
   346
1005
16
1070
   344
1005
0
1070
   343
1005
0
1070
   172
1070
     1
1070
    76
1070
     0
1070
    75
1070
     0
1070
   282
1070
     0
1070
   281
1070
     0
1070
    71
1070
     0
1070
    74
1070
     0
1070
   279
1070
     0
1070
   173
1070
     1
1070
   340
1005
121
1070
   271
1070
     2
1070
   272
1070
     3
1070
    77
1070
     1
1070
    73
1070
     1
1070
   171
1070
     3
1070
   274
1070
     4
1070
   177
1070
     2
1070
   176
1070
     2
1070
   178
1070
     2
1070
    78
1070
     8
1070
    48
1040
-0.1
1070
    41
1040
3.5
1070
   147
1040
1.5
1070
    42
1040
1.5875
1070
    44
1040
2.0
1070
   140
1040
3.0
1002
}
1001
ACAD_DSTYLE_DIM_LINETYPE
1070
   380
1005
16
1001
ACAD_DSTYLE_DIM_EXT1_LINETYPE
1070
   381
1005
16
1001
ACAD_DSTYLE_DIM_EXT2_LINETYPE
1070
   382
1005
16
0
DIMENSION
5
173
100
AcDbEntity
8
SK2
62
256
6
ByLayer
370
18
48
1
60
0
100
AcDbDimension
2
_U2
10
0
20
-35.952229
30
0
11
-24
21
-35.952229
31
0
70
32
71
1
72
1
41
1
210
0
220
0
230
1
3
Standard
100
AcDbAlignedDimension
13
-48
23
-9.525
33
0
14
0
24
-9.525
34
0
50
0
100
AcDbRotatedDimension
1001
ACAD
1000
DSTYLE
1002
{
1070
   371
1070
    13
1070
   372
1070
    13
1070
     3
1000

1070
   170
1070
     0
1070
   144
1040
1.0
1070
   277
1070
     2
1070
   284
1070
     8
1070
   278
1070
    46
1070
   146
1040
1.166667
1070
   345
1005
16
1070
   347
1005
16
1070
   346
1005
16
1070
   344
1005
0
1070
   343
1005
0
1070
   172
1070
     1
1070
    76
1070
     0
1070
    75
1070
     0
1070
   282
1070
     0
1070
   281
1070
     0
1070
    71
1070
     0
1070
    74
1070
     0
1070
   279
1070
     0
1070
   173
1070
     1
1070
   340
1005
121
1070
   271
1070
     2
1070
   272
1070
     3
1070
    77
1070
     1
1070
    73
1070
     1
1070
   171
1070
     3
1070
   274
1070
     4
1070
   177
1070
     2
1070
   176
1070
     2
1070
   178
1070
     2
1070
    78
1070
     8
1070
    48
1040
-0.1
1070
    41
1040
3.5
1070
   147
1040
1.5
1070
    42
1040
1.5875
1070
    44
1040
2.0
1070
   140
1040
3.0
1002
}
1001
ACAD_DSTYLE_DIM_LINETYPE
1070
   380
1005
16
1001
ACAD_DSTYLE_DIM_EXT1_LINETYPE
1070
   381
1005
16
1001
ACAD_DSTYLE_DIM_EXT2_LINETYPE
1070
   382
1005
16
0
DIMENSION
5
18B
100
AcDbEntity
8
SK2
62
256
6
ByLayer
370
18
48
1
60
0
100
AcDbDimension
2
_U3
10
26
20
32.952229
30
0
11
72.25
21
32.952229
31
0
70
32
71
1
72
1
41
1
210
0
220
0
230
1
3
Standard
100
AcDbAlignedDimension
13
118.5
23
0
33
0
14
26
24
8.136
34
0
50
0
100
AcDbRotatedDimension
1001
ACAD
1000
DSTYLE
1002
{
1070
   371
1070
    13
1070
   372
1070
    13
1070
     3
1000

1070
   170
1070
     0
1070
   144
1040
1.0
1070
   277
1070
     2
1070
   284
1070
     8
1070
   278
1070
    46
1070
   146
1040
1.166667
1070
   345
1005
16
1070
   347
1005
16
1070
   346
1005
16
1070
   344
1005
0
1070
   343
1005
0
1070
   172
1070
     1
1070
    76
1070
     0
1070
    75
1070
     0
1070
   282
1070
     0
1070
   281
1070
     0
1070
    71
1070
     0
1070
    74
1070
     0
1070
   279
1070
     0
1070
   173
1070
     1
1070
   340
1005
121
1070
   271
1070
     2
1070
   272
1070
     3
1070
    77
1070
     1
1070
    73
1070
     1
1070
   171
1070
     3
1070
   274
1070
     4
1070
   177
1070
     2
1070
   176
1070
     2
1070
   178
1070
     2
1070
    78
1070
     8
1070
    48
1040
-0.1
1070
    41
1040
3.5
1070
   147
1040
1.5
1070
    42
1040
1.5875
1070
    44
1040
2.0
1070
   140
1040
3.0
1002
}
1001
ACAD_DSTYLE_DIM_LINETYPE
1070
   380
1005
16
1001
ACAD_DSTYLE_DIM_EXT1_LINETYPE
1070
   381
1005
16
1001
ACAD_DSTYLE_DIM_EXT2_LINETYPE
1070
   382
1005
16
0
ENDSEC
0
SECTION
2
OBJECTS
0
DICTIONARY
5
213
330
0
100
AcDbDictionary
280
0
281
1
3
ACAD_GROUP
350
214
3
ACAD_MLINESTYLE
350
215
0
DICTIONARY
5
214
330
0
100
AcDbDictionary
280
0
281
1
0
DICTIONARY
5
215
330
0
100
AcDbDictionary
280
0
281
1
3
Standard
350
18
0
MLINESTYLE
5
18
330
215
100
AcDbMlineStyle
2
Standard
70
0
3

62
256
51
90
52
90
71
2
49
-0.5
62
256
6
ByLayer
49
0.5
62
256
6
ByLayer
0
RASTERVARIABLES
5
201
330

100
AcDbRasterVariables
90
0
70
1
71
1
72
1
0
ENDSEC
0
EOF
