0
SECTION
2
HEADER
9
$ACADVER
1
AC1015
9
$DWGCODEPAGE
3
ANSI_1252
9
$HANDSEED
5
21c
9
$ANGBASE
50
0
9
$ANGDIR
70
0
9
$ATTMODE
70
1
9
$AUNITS
70
0
9
$AUPREC
70
0
9
$CECOLOR
62
256
9
$CELTSCALE
40
1
9
$CELTYPE
6
ByLayer
9
$CELWEIGHT
370
18
9
$CLAYER
8
0
9
$CMLJUST
70
0
9
$CMLSCALE
40
1
9
$CMLSTYLE
2
Standard
9
$DIMSTYLE
2
Standard
9
$TEXTSIZE
40
0.2
9
$TEXTSTYLE
7
Standard
9
$LUNITS
70
2
9
$LUPREC
70
4
9
$EXTNAMES
290
1
9
$INSUNITS
70
4
9
$LTSCALE
40
1
9
$LWDISPLAY
290
1
9
$PDMODE
70
0
9
$PDSIZE
40
0
9
$PLINEGEN
70
0
0
ENDSEC
0
SECTION
2
CLASSES
0
CLASS
1
RASTERVARIABLES
2
AcDbRasterVariables
3
ISM
90
0
280
0
281
0
0
ENDSEC
0
SECTION
2
TABLES
0
TABLE
2
VPORT
5
212
100
AcDbSymbolTable
0
VPORT
5
1
100
AcDbSymbolTableRecord
100
AcDbViewportTableRecord
2
*Active
70
0
10
0
20
0
11
1
21
1
12
-1
22
1
13
0
23
0
14
0.5
24
0.5
15
10
25
10
16
0
26
0
36
1
17
0
27
0
37
0
0
ENDTAB
0
TABLE
2
LTYPE
5
213
100
AcDbSymbolTable
0
LTYPE
5
14
100
AcDbSymbolTableRecord
100
AcDbLinetypeTableRecord
70
0
2
ByBlock
3

72
65
73
0
40
0
0
LTYPE
5
15
100
AcDbSymbolTableRecord
100
AcDbLinetypeTableRecord
70
0
2
ByLayer
3

72
65
73
0
40
0
0
LTYPE
5
16
100
AcDbSymbolTableRecord
100
AcDbLinetypeTableRecord
70
0
2
Continuous
3
Solid line
72
65
73
0
40
0
0
LTYPE
5
6E
100
AcDbSymbolTableRecord
100
AcDbLinetypeTableRecord
70
0
2
CENTER
3
____ _ ____ _ ____ _ ____
72
65
73
4
40
47.5
49
22
74
0
49
-8.5
74
0
49
8.5
74
0
49
-8.5
74
0
0
LTYPE
5
6F
100
AcDbSymbolTableRecord
100
AcDbLinetypeTableRecord
70
0
2
DASHED
3
__ __ __ __ __ __ __ __ __
72
65
73
2
40
25.72
49
12.86
74
0
49
-12.86
74
0
0
ENDTAB
0
TABLE
2
LAYER
5
214
100
AcDbSymbolTable
0
LAYER
5
10
100
AcDbSymbolTableRecord
100
AcDbLayerTableRecord
2
0
70
0
62
7
6
Continuous
290
1
370
-3
390
0
0
LAYER
5
71
100
AcDbSymbolTableRecord
100
AcDbLayerTableRecord
2
81
70
0
62
-3
6
Continuous
290
1
370
-3
390
0
0
LAYER
5
73
100
AcDbSymbolTableRecord
100
AcDbLayerTableRecord
2
80
70
0
62
-6
6
Continuous
290
1
370
-3
390
0
0
LAYER
5
75
100
AcDbSymbolTableRecord
100
AcDbLayerTableRecord
2
1
70
0
62
4
6
Continuous
290
1
370
-3
390
0
0
LAYER
5
7F
100
AcDbSymbolTableRecord
100
AcDbLayerTableRecord
2
4
70
0
62
-2
6
CENTER
290
1
370
-3
390
0
0
LAYER
5
AF
100
AcDbSymbolTableRecord
100
AcDbLayerTableRecord
2
2
70
0
62
7
6
Continuous
290
1
370
-3
390
0
0
LAYER
5
141
100
AcDbSymbolTableRecord
100
AcDbLayerTableRecord
2
Defpoints
70
0
62
7
6
Continuous
290
0
370
-3
390
0
0
LAYER
5
1fe
100
AcDbSymbolTableRecord
100
AcDbLayerTableRecord
2
SK4
70
0
62
2
6
CENTER
290
1
370
-3
390
0
0
LAYER
5
1ff
100
AcDbSymbolTableRecord
100
AcDbLayerTableRecord
2
SK1
70
0
62
4
6
Continuous
290
1
370
-3
390
0
0
LAYER
5
200
100
AcDbSymbolTableRecord
100
AcDbLayerTableRecord
2
SK2
70
0
62
7
6
Continuous
290
1
370
-3
390
0
0
LAYER
5
201
100
AcDbSymbolTableRecord
100
AcDbLayerTableRecord
2
SK6
70
0
62
5
6
Continuous
290
1
370
-3
390
0
0
ENDTAB
0
TABLE
2
STYLE
5
215
100
AcDbSymbolTable
0
STYLE
5
11
100
AcDbSymbolTableRecord
100
AcDbTextStyleTableRecord
2
Standard
3
txt
70
0
71
0
40
0
41
1
42
0
50
0
0
STYLE
5
11D
100
AcDbSymbolTableRecord
100
AcDbTextStyleTableRecord
2
iso_b_vert
3
simplex.shx
70
0
71
0
40
0
41
1
42
0
50
0
0
STYLE
5
11E
100
AcDbSymbolTableRecord
100
AcDbTextStyleTableRecord
2
DWGDirectTextStyle
3
simplex
70
0
71
0
40
0
41
1
42
0
50
0
0
ENDTAB
0
TABLE
2
DIMSTYLE
5
216
100
AcDbSymbolTable
100
AcDbDimStyleTable
0
DIMSTYLE
105
27
100
AcDbSymbolTableRecord
100
AcDbDimStyleTableRecord
2
Standard
70
0
3
<>
41
0.18
42
0.0625
44
0.18
140
0.18
147
0.09
73
0
74
0
77
1
271
2
275
0
278
52
280
0
340
11
0
ENDTAB
0
TABLE
2
VIEW
5
217
100
AcDbSymbolTable
0
ENDTAB
0
TABLE
2
UCS
5
218
100
AcDbSymbolTable
0
ENDTAB
0
TABLE
2
APPID
5
219
100
AcDbSymbolTable
0
APPID
5
12
100
AcDbSymbolTableRecord
100
AcDbRegAppTableRecord
2
ACAD
70
0
0
APPID
5
13D
100
AcDbSymbolTableRecord
100
AcDbRegAppTableRecord
2
ACAD_DSTYLE_DIMBREAK
70
0
0
APPID
5
1BD
100
AcDbSymbolTableRecord
100
AcDbRegAppTableRecord
2
ACAD_DSTYLE_DIM_LINETYPE
70
0
0
APPID
5
1BE
100
AcDbSymbolTableRecord
100
AcDbRegAppTableRecord
2
ACAD_DSTYLE_DIM_EXT1_LINETYPE
70
0
0
APPID
5
1BF
100
AcDbSymbolTableRecord
100
AcDbRegAppTableRecord
2
ACAD_DSTYLE_DIM_EXT2_LINETYPE
70
0
0
APPID
5
1FA
100
AcDbSymbolTableRecord
100
AcDbRegAppTableRecord
2
ACAD_MLEADERVER
70
0
0
ENDTAB
0
TABLE
2
BLOCK_RECORD
5
21a
100
AcDbSymbolTable
0
BLOCK_RECORD
5
1F
100
AcDbSymbolTableRecord
100
AcDbBlockTableRecord
2
*Model_Space
340
0
70
0
0
BLOCK_RECORD
5
1B
100
AcDbSymbolTableRecord
100
AcDbBlockTableRecord
2
*Paper_Space
340
0
70
0
0
BLOCK_RECORD
5
23
100
AcDbSymbolTableRecord
100
AcDbBlockTableRecord
2
*Paper_Space0
340
0
70
0
0
BLOCK_RECORD
5
142
100
AcDbSymbolTableRecord
100
AcDbBlockTableRecord
2
*D1
340
0
70
0
0
BLOCK_RECORD
5
14E
100
AcDbSymbolTableRecord
100
AcDbBlockTableRecord
2
_U0
340
0
70
0
0
BLOCK_RECORD
5
15A
100
AcDbSymbolTableRecord
100
AcDbBlockTableRecord
2
*D3
340
0
70
0
0
BLOCK_RECORD
5
166
100
AcDbSymbolTableRecord
100
AcDbBlockTableRecord
2
_U1
340
0
70
0
0
BLOCK_RECORD
5
172
100
AcDbSymbolTableRecord
100
AcDbBlockTableRecord
2
*D5
340
0
70
0
0
BLOCK_RECORD
5
17E
100
AcDbSymbolTableRecord
100
AcDbBlockTableRecord
2
_U2
340
0
70
0
0
BLOCK_RECORD
5
18A
100
AcDbSymbolTableRecord
100
AcDbBlockTableRecord
2
*D7
340
0
70
0
0
BLOCK_RECORD
5
196
100
AcDbSymbolTableRecord
100
AcDbBlockTableRecord
2
_U3
340
0
70
0
0
ENDTAB
0
ENDSEC
0
SECTION
2
BLOCKS
0
BLOCK
5
20
100
AcDbEntity
8
0
100
AcDbBlockBegin
2
*Model_Space
70
0
10
0
20
0
30
0
3
*Model_Space
0
ENDBLK
5
21
100
AcDbEntity
8
0
100
AcDbBlockEnd
0
BLOCK
5
1C
100
AcDbEntity
8
0
100
AcDbBlockBegin
2
*Paper_Space
70
0
10
0
20
0
30
0
3
*Paper_Space
0
ENDBLK
5
1D
100
AcDbEntity
8
0
100
AcDbBlockEnd
0
BLOCK
5
24
100
AcDbEntity
8
0
100
AcDbBlockBegin
2
*Paper_Space0
70
0
10
0
20
0
30
0
3
*Paper_Space0
0
ENDBLK
5
25
100
AcDbEntity
8
0
100
AcDbBlockEnd
0
BLOCK
5
143
100
AcDbEntity
8
0
100
AcDbBlockBegin
2
*D1
70
1
10
0
20
0
30
0
3
*D1
0
LINE
5
145
100
AcDbEntity
8
0
62
256
6
ByLayer
370
-2
48
1
60
0
100
AcDbLine
10
-48
20
-11.1125
30
0
11
-48
21
-47.952229
31
0
39
0
210
0
220
0
230
1
0
LINE
5
146
100
AcDbEntity
8
0
62
256
6
ByLayer
370
-2
48
1
60
0
100
AcDbLine
10
108.5
20
-1.5875
30
0
11
108.5
21
-47.952229
31
0
39
0
210
0
220
0
230
1
0
LINE
5
147
100
AcDbEntity
8
0
62
256
6
ByLayer
370
-2
48
1
60
0
100
AcDbLine
10
-44.5
20
-45.952229
30
0
11
105
21
-45.952229
31
0
39
0
210
0
220
0
230
1
0
SOLID
5
148
100
AcDbEntity
8
0
62
256
6
ByLayer
370
-1
48
1
60
0
100
AcDbTrace
10
-44.5
20
-45.368896
30
0
11
-44.5
21
-46.535563
31
0
12
-48
22
-45.952229
32
0
13
-48
23
-45.952229
33
0
39
0
210
0
220
0
230
1
0
SOLID
5
149
100
AcDbEntity
8
0
62
256
6
ByLayer
370
-1
48
1
60
0
100
AcDbTrace
10
105
20
-46.535563
30
0
11
105
21
-45.368896
31
0
12
108.5
22
-45.952229
32
0
13
108.5
23
-45.952229
33
0
39
0
210
0
220
0
230
1
0
MTEXT
5
14A
100
AcDbEntity
8
0
62
256
6
ByLayer
370
18
48
1
60
0
100
AcDbMText
10
30.25
20
-39.952229
30
0
210
0
220
0
230
1
1
\A1;156.5
40
3
41
0
44
1
50
0
71
5
72
5
7
iso_b_vert
0
POINT
5
14B
100
AcDbEntity
8
Defpoints
62
0
6
ByLayer
370
-1
48
1
60
0
100
AcDbPoint
10
-48
20
-9.525
30
0
39
0
210
0
220
0
230
1
50
360
0
POINT
5
14C
100
AcDbEntity
8
Defpoints
62
0
6
ByLayer
370
-1
48
1
60
0
100
AcDbPoint
10
108.5
20
0
30
0
39
0
210
0
220
0
230
1
50
360
0
POINT
5
14D
100
AcDbEntity
8
Defpoints
62
0
6
ByLayer
370
-1
48
1
60
0
100
AcDbPoint
10
108.5
20
-45.952229
30
0
39
0
210
0
220
0
230
1
50
360
0
ENDBLK
5
144
100
AcDbEntity
8
0
100
AcDbBlockEnd
0
BLOCK
5
155
100
AcDbEntity
8
0
100
AcDbBlockBegin
2
_U0
70
0
10
0
20
0
30
0
3
_U0
0
MTEXT
5
14F
100
AcDbEntity
8
SK2
62
256
6
ByLayer
370
18
48
1
60
0
100
AcDbMText
10
25.021658
20
-45.067115
30
0
210
0
220
0
230
1
1
\W0.7022;156.50
40
3
41
0
44
1.084337
50
0
71
7
72
5
7
iso_b_vert
0
LINE
5
150
100
AcDbEntity
8
SK2
62
256
6
ByLayer
370
13
48
1
60
0
100
AcDbLine
10
-48
20
-11.1125
30
0
11
-48
21
-47.952229
31
0
39
0
210
0
220
0
230
1
0
LINE
5
151
100
AcDbEntity
8
SK2
62
256
6
ByLayer
370
13
48
1
60
0
100
AcDbLine
10
108.5
20
-1.5875
30
0
11
108.5
21
-47.952229
31
0
39
0
210
0
220
0
230
1
0
LINE
5
152
100
AcDbEntity
8
SK2
62
256
6
ByLayer
370
13
48
1
60
0
100
AcDbLine
10
-48
20
-45.952229
30
0
11
108.5
21
-45.952229
31
0
39
0
210
0
220
0
230
1
0
SOLID
5
153
100
AcDbEntity
8
SK2
62
256
6
ByLayer
370
18
48
1
60
0
100
AcDbTrace
10
-48
20
-45.952229
30
0
11
-44.500002
21
-45.491446
31
0
12
-44.499998
22
-46.413013
32
0
13
-44.499998
23
-46.413013
33
0
39
0
210
0
220
0
230
1
0
SOLID
5
154
100
AcDbEntity
8
SK2
62
256
6
ByLayer
370
18
48
1
60
0
100
AcDbTrace
10
108.5
20
-45.952229
30
0
11
105.000002
21
-46.413013
31
0
12
104.999998
22
-45.491446
32
0
13
104.999998
23
-45.491446
33
0
39
0
210
0
220
0
230
1
0
ENDBLK
5
156
100
AcDbEntity
8
0
100
AcDbBlockEnd
0
BLOCK
5
15B
100
AcDbEntity
8
0
100
AcDbBlockBegin
2
*D3
70
1
10
0
20
0
30
0
3
*D3
0
LINE
5
15D
100
AcDbEntity
8
0
62
256
6
ByLayer
370
-2
48
1
60
0
100
AcDbLine
10
108.5
20
-1.5875
30
0
11
108.5
21
-37.952229
31
0
39
0
210
0
220
0
230
1
0
LINE
5
15E
100
AcDbEntity
8
0
62
256
6
ByLayer
370
-2
48
1
60
0
100
AcDbLine
10
3
20
-9.3265
30
0
11
3
21
-37.952229
31
0
39
0
210
0
220
0
230
1
0
LINE
5
15F
100
AcDbEntity
8
0
62
256
6
ByLayer
370
-2
48
1
60
0
100
AcDbLine
10
105
20
-35.952229
30
0
11
6.5
21
-35.952229
31
0
39
0
210
0
220
0
230
1
0
SOLID
5
160
100
AcDbEntity
8
0
62
256
6
ByLayer
370
-1
48
1
60
0
100
AcDbTrace
10
105
20
-36.535563
30
0
11
105
21
-35.368896
31
0
12
108.5
22
-35.952229
32
0
13
108.5
23
-35.952229
33
0
39
0
210
0
220
0
230
1
0
SOLID
5
161
100
AcDbEntity
8
0
62
256
6
ByLayer
370
-1
48
1
60
0
100
AcDbTrace
10
6.5
20
-35.368896
30
0
11
6.5
21
-36.535563
31
0
12
3
22
-35.952229
32
0
13
3
23
-35.952229
33
0
39
0
210
0
220
0
230
1
0
MTEXT
5
162
100
AcDbEntity
8
0
62
256
6
ByLayer
370
18
48
1
60
0
100
AcDbMText
10
55.75
20
-29.952229
30
0
210
0
220
0
230
1
1
\A1;105.5
40
3
41
0
44
1
50
0
71
5
72
5
7
iso_b_vert
0
POINT
5
163
100
AcDbEntity
8
Defpoints
62
0
6
ByLayer
370
-1
48
1
60
0
100
AcDbPoint
10
108.5
20
0
30
0
39
0
210
0
220
0
230
1
50
360
0
POINT
5
164
100
AcDbEntity
8
Defpoints
62
0
6
ByLayer
370
-1
48
1
60
0
100
AcDbPoint
10
3
20
-7.739
30
0
39
0
210
0
220
0
230
1
50
360
0
POINT
5
165
100
AcDbEntity
8
Defpoints
62
0
6
ByLayer
370
-1
48
1
60
0
100
AcDbPoint
10
3
20
-35.952229
30
0
39
0
210
0
220
0
230
1
50
360
0
ENDBLK
5
15C
100
AcDbEntity
8
0
100
AcDbBlockEnd
0
BLOCK
5
16D
100
AcDbEntity
8
0
100
AcDbBlockBegin
2
_U1
70
0
10
0
20
0
30
0
3
_U1
0
MTEXT
5
167
100
AcDbEntity
8
SK2
62
256
6
ByLayer
370
18
48
1
60
0
100
AcDbMText
10
50.521658
20
-35.067115
30
0
210
0
220
0
230
1
1
\W0.7022;105.50
40
3
41
0
44
1.084337
50
0
71
7
72
5
7
iso_b_vert
0
LINE
5
168
100
AcDbEntity
8
SK2
62
256
6
ByLayer
370
13
48
1
60
0
100
AcDbLine
10
108.5
20
-1.5875
30
0
11
108.5
21
-37.952229
31
0
39
0
210
0
220
0
230
1
0
LINE
5
169
100
AcDbEntity
8
SK2
62
256
6
ByLayer
370
13
48
1
60
0
100
AcDbLine
10
3
20
-9.3265
30
0
11
3
21
-37.952229
31
0
39
0
210
0
220
0
230
1
0
LINE
5
16A
100
AcDbEntity
8
SK2
62
256
6
ByLayer
370
13
48
1
60
0
100
AcDbLine
10
108.5
20
-35.952229
30
0
11
3
21
-35.952229
31
0
39
0
210
0
220
0
230
1
0
SOLID
5
16B
100
AcDbEntity
8
SK2
62
256
6
ByLayer
370
18
48
1
60
0
100
AcDbTrace
10
108.5
20
-35.952229
30
0
11
105.000002
21
-36.413013
31
0
12
104.999998
22
-35.491446
32
0
13
104.999998
23
-35.491446
33
0
39
0
210
0
220
0
230
1
0
SOLID
5
16C
100
AcDbEntity
8
SK2
62
256
6
ByLayer
370
18
48
1
60
0
100
AcDbTrace
10
3
20
-35.952229
30
0
11
6.499998
21
-35.491446
31
0
12
6.500002
22
-36.413013
32
0
13
6.500002
23
-36.413013
33
0
39
0
210
0
220
0
230
1
0
ENDBLK
5
16E
100
AcDbEntity
8
0
100
AcDbBlockEnd
0
BLOCK
5
173
100
AcDbEntity
8
0
100
AcDbBlockBegin
2
*D5
70
1
10
0
20
0
30
0
3
*D5
0
LINE
5
175
100
AcDbEntity
8
0
62
256
6
ByLayer
370
-2
48
1
60
0
100
AcDbLine
10
-48
20
-11.1125
30
0
11
-48
21
-37.952229
31
0
39
0
210
0
220
0
230
1
0
LINE
5
176
100
AcDbEntity
8
0
62
256
6
ByLayer
370
-2
48
1
60
0
100
AcDbLine
10
0
20
-11.1125
30
0
11
0
21
-37.952229
31
0
39
0
210
0
220
0
230
1
0
LINE
5
177
100
AcDbEntity
8
0
62
256
6
ByLayer
370
-2
48
1
60
0
100
AcDbLine
10
-44.5
20
-35.952229
30
0
11
-3.5
21
-35.952229
31
0
39
0
210
0
220
0
230
1
0
SOLID
5
178
100
AcDbEntity
8
0
62
256
6
ByLayer
370
-1
48
1
60
0
100
AcDbTrace
10
-44.5
20
-35.368896
30
0
11
-44.5
21
-36.535563
31
0
12
-48
22
-35.952229
32
0
13
-48
23
-35.952229
33
0
39
0
210
0
220
0
230
1
0
SOLID
5
179
100
AcDbEntity
8
0
62
256
6
ByLayer
370
-1
48
1
60
0
100
AcDbTrace
10
-3.5
20
-36.535563
30
0
11
-3.5
21
-35.368896
31
0
12
0
22
-35.952229
32
0
13
0
23
-35.952229
33
0
39
0
210
0
220
0
230
1
0
MTEXT
5
17A
100
AcDbEntity
8
0
62
256
6
ByLayer
370
18
48
1
60
0
100
AcDbMText
10
-24
20
-29.952229
30
0
210
0
220
0
230
1
1
\A1;48
40
3
41
0
44
1
50
0
71
5
72
5
7
iso_b_vert
0
POINT
5
17B
100
AcDbEntity
8
Defpoints
62
0
6
ByLayer
370
-1
48
1
60
0
100
AcDbPoint
10
-48
20
-9.525
30
0
39
0
210
0
220
0
230
1
50
360
0
POINT
5
17C
100
AcDbEntity
8
Defpoints
62
0
6
ByLayer
370
-1
48
1
60
0
100
AcDbPoint
10
0
20
-9.525
30
0
39
0
210
0
220
0
230
1
50
360
0
POINT
5
17D
100
AcDbEntity
8
Defpoints
62
0
6
ByLayer
370
-1
48
1
60
0
100
AcDbPoint
10
0
20
-35.952229
30
0
39
0
210
0
220
0
230
1
50
360
0
ENDBLK
5
174
100
AcDbEntity
8
0
100
AcDbBlockEnd
0
BLOCK
5
185
100
AcDbEntity
8
0
100
AcDbBlockBegin
2
_U2
70
0
10
0
20
0
30
0
3
_U2
0
MTEXT
5
17F
100
AcDbEntity
8
SK2
62
256
6
ByLayer
370
18
48
1
60
0
100
AcDbMText
10
-28.640313
20
-35.067115
30
0
210
0
220
0
230
1
1
\W0.7694;48.00
40
3
41
0
44
1.084337
50
0
71
7
72
5
7
iso_b_vert
0
LINE
5
180
100
AcDbEntity
8
SK2
62
256
6
ByLayer
370
13
48
1
60
0
100
AcDbLine
10
-48
20
-11.1125
30
0
11
-48
21
-37.952229
31
0
39
0
210
0
220
0
230
1
0
LINE
5
181
100
AcDbEntity
8
SK2
62
256
6
ByLayer
370
13
48
1
60
0
100
AcDbLine
10
0
20
-11.1125
30
0
11
0
21
-37.952229
31
0
39
0
210
0
220
0
230
1
0
LINE
5
182
100
AcDbEntity
8
SK2
62
256
6
ByLayer
370
13
48
1
60
0
100
AcDbLine
10
-48
20
-35.952229
30
0
11
0
21
-35.952229
31
0
39
0
210
0
220
0
230
1
0
SOLID
5
183
100
AcDbEntity
8
SK2
62
256
6
ByLayer
370
18
48
1
60
0
100
AcDbTrace
10
-48
20
-35.952229
30
0
11
-44.500002
21
-35.491446
31
0
12
-44.499998
22
-36.413013
32
0
13
-44.499998
23
-36.413013
33
0
39
0
210
0
220
0
230
1
0
SOLID
5
184
100
AcDbEntity
8
SK2
62
256
6
ByLayer
370
18
48
1
60
0
100
AcDbTrace
10
0
20
-35.952229
30
0
11
-3.499998
21
-36.413013
31
0
12
-3.500002
22
-35.491446
32
0
13
-3.500002
23
-35.491446
33
0
39
0
210
0
220
0
230
1
0
ENDBLK
5
186
100
AcDbEntity
8
0
100
AcDbBlockEnd
0
BLOCK
5
18B
100
AcDbEntity
8
0
100
AcDbBlockBegin
2
*D7
70
1
10
0
20
0
30
0
3
*D7
0
LINE
5
18D
100
AcDbEntity
8
0
62
256
6
ByLayer
370
-2
48
1
60
0
100
AcDbLine
10
108.5
20
1.5875
30
0
11
108.5
21
34.952229
31
0
39
0
210
0
220
0
230
1
0
LINE
5
18E
100
AcDbEntity
8
0
62
256
6
ByLayer
370
-2
48
1
60
0
100
AcDbLine
10
22
20
9.3265
30
0
11
22
21
34.952229
31
0
39
0
210
0
220
0
230
1
0
LINE
5
18F
100
AcDbEntity
8
0
62
256
6
ByLayer
370
-2
48
1
60
0
100
AcDbLine
10
105
20
32.952229
30
0
11
25.5
21
32.952229
31
0
39
0
210
0
220
0
230
1
0
SOLID
5
190
100
AcDbEntity
8
0
62
256
6
ByLayer
370
-1
48
1
60
0
100
AcDbTrace
10
105
20
32.368896
30
0
11
105
21
33.535563
31
0
12
108.5
22
32.952229
32
0
13
108.5
23
32.952229
33
0
39
0
210
0
220
0
230
1
0
SOLID
5
191
100
AcDbEntity
8
0
62
256
6
ByLayer
370
-1
48
1
60
0
100
AcDbTrace
10
25.5
20
33.535563
30
0
11
25.5
21
32.368896
31
0
12
22
22
32.952229
32
0
13
22
23
32.952229
33
0
39
0
210
0
220
0
230
1
0
MTEXT
5
192
100
AcDbEntity
8
0
62
256
6
ByLayer
370
18
48
1
60
0
100
AcDbMText
10
65.25
20
38.952229
30
0
210
0
220
0
230
1
1
\A1;86.5
40
3
41
0
44
1
50
0
71
5
72
5
7
iso_b_vert
0
POINT
5
193
100
AcDbEntity
8
Defpoints
62
0
6
ByLayer
370
-1
48
1
60
0
100
AcDbPoint
10
108.5
20
0
30
0
39
0
210
0
220
0
230
1
50
360
0
POINT
5
194
100
AcDbEntity
8
Defpoints
62
0
6
ByLayer
370
-1
48
1
60
0
100
AcDbPoint
10
22
20
7.739
30
0
39
0
210
0
220
0
230
1
50
360
0
POINT
5
195
100
AcDbEntity
8
Defpoints
62
0
6
ByLayer
370
-1
48
1
60
0
100
AcDbPoint
10
22
20
32.952229
30
0
39
0
210
0
220
0
230
1
50
360
0
ENDBLK
5
18C
100
AcDbEntity
8
0
100
AcDbBlockEnd
0
BLOCK
5
19D
100
AcDbEntity
8
0
100
AcDbBlockBegin
2
_U3
70
0
10
0
20
0
30
0
3
_U3
0
MTEXT
5
197
100
AcDbEntity
8
SK2
62
256
6
ByLayer
370
18
48
1
60
0
100
AcDbMText
10
60.76763
20
33.837344
30
0
210
0
220
0
230
1
1
\W0.7468;86.50
40
3
41
0
44
1.084337
50
0
71
7
72
5
7
iso_b_vert
0
LINE
5
198
100
AcDbEntity
8
SK2
62
256
6
ByLayer
370
13
48
1
60
0
100
AcDbLine
10
108.5
20
1.5875
30
0
11
108.5
21
34.952229
31
0
39
0
210
0
220
0
230
1
0
LINE
5
199
100
AcDbEntity
8
SK2
62
256
6
ByLayer
370
13
48
1
60
0
100
AcDbLine
10
22
20
9.3265
30
0
11
22
21
34.952229
31
0
39
0
210
0
220
0
230
1
0
LINE
5
19A
100
AcDbEntity
8
SK2
62
256
6
ByLayer
370
13
48
1
60
0
100
AcDbLine
10
108.5
20
32.952229
30
0
11
22
21
32.952229
31
0
39
0
210
0
220
0
230
1
0
SOLID
5
19B
100
AcDbEntity
8
SK2
62
256
6
ByLayer
370
18
48
1
60
0
100
AcDbTrace
10
108.5
20
32.952229
30
0
11
105.000002
21
32.491446
31
0
12
104.999998
22
33.413013
32
0
13
104.999998
23
33.413013
33
0
39
0
210
0
220
0
230
1
0
SOLID
5
19C
100
AcDbEntity
8
SK2
62
256
6
ByLayer
370
18
48
1
60
0
100
AcDbTrace
10
22
20
32.952229
30
0
11
25.499998
21
33.413013
31
0
12
25.500002
22
32.491446
32
0
13
25.500002
23
32.491446
33
0
39
0
210
0
220
0
230
1
0
ENDBLK
5
19E
100
AcDbEntity
8
0
100
AcDbBlockEnd
0
ENDSEC
0
SECTION
2
ENTITIES
0
ARC
5
C0
100
AcDbEntity
8
SK2
62
256
6
ByLayer
370
13
48
1
60
0
100
AcDbCircle
39
0
10
108.5
20
0
30
0
40
18.9999999999999
210
0
220
0
230
1
100
AcDbArc
50
290
51
70
0
ELLIPSE
5
C1
100
AcDbEntity
8
SK1
62
256
6
ByLayer
370
18
48
1
60
0
100
AcDbEllipse
10
-32.117794
20
0
30
0
11
-1.74965632802376E-15
21
-9.52500000000022
31
0
210
0
220
0
230
1
40
0.932515
41
-1.99646903598621
42
-1.14512361760358
0
ELLIPSE
5
C2
100
AcDbEntity
8
SK1
62
256
6
ByLayer
370
18
48
1
60
0
100
AcDbEllipse
10
-15.214312
20
0
30
0
11
10.2143119629885
21
-1.15738337235711E-14
31
0
210
0
220
0
230
1
40
0.932515
41
-0.425672709191254
42
0.425672709191253
0
POINT
5
70
100
AcDbEntity
8
81
62
256
6
ByLayer
370
18
48
1
60
0
100
AcDbPoint
10
108.5
20
0
30
0
39
0
210
0
220
0
230
1
50
360
0
POINT
5
72
100
AcDbEntity
8
80
62
256
6
ByLayer
370
18
48
1
60
0
100
AcDbPoint
10
0
20
0
30
0
39
0
210
0
220
0
230
1
50
360
0
POINT
5
74
100
AcDbEntity
8
1
62
256
6
ByLayer
370
18
48
1
60
1
100
AcDbPoint
10
-48
20
-9.525
30
0
39
0
210
0
220
0
230
1
50
360
0
POINT
5
76
100
AcDbEntity
8
1
62
256
6
ByLayer
370
18
48
1
60
1
100
AcDbPoint
10
108.5
20
0
30
0
39
0
210
0
220
0
230
1
50
360
0
POINT
5
77
100
AcDbEntity
8
1
62
256
6
ByLayer
370
18
48
1
60
1
100
AcDbPoint
10
108.5
20
0
30
0
39
0
210
0
220
0
230
1
50
360
0
POINT
5
78
100
AcDbEntity
8
1
62
256
6
ByLayer
370
18
48
1
60
1
100
AcDbPoint
10
3
20
-7.739
30
0
39
0
210
0
220
0
230
1
50
360
0
POINT
5
79
100
AcDbEntity
8
1
62
256
6
ByLayer
370
18
48
1
60
1
100
AcDbPoint
10
-48
20
-9.525
30
0
39
0
210
0
220
0
230
1
50
360
0
POINT
5
7A
100
AcDbEntity
8
1
62
256
6
ByLayer
370
18
48
1
60
1
100
AcDbPoint
10
0
20
-9.525
30
0
39
0
210
0
220
0
230
1
50
360
0
POINT
5
7B
100
AcDbEntity
8
1
62
256
6
ByLayer
370
18
48
1
60
1
100
AcDbPoint
10
108.5
20
0
30
0
39
0
210
0
220
0
230
1
50
360
0
POINT
5
7C
100
AcDbEntity
8
1
62
256
6
ByLayer
370
18
48
1
60
1
100
AcDbPoint
10
22
20
7.739
30
0
39
0
210
0
220
0
230
1
50
360
0
SPLINE
5
C3
100
AcDbEntity
8
1
62
256
6
ByLayer
370
18
48
1
60
0
100
AcDbSpline
70
4
71
3
72
14
73
10
40
0
40
0
40
0
40
0
40
0.25
40
0.25
40
0.5
40
0.5
40
0.75
40
0.75
40
1
40
1
40
1
40
1
41
1
10
13.0188040022269
20
6.24055572793864
30
0
41
1
10
12.762404236555
20
6.28535184722753
30
0
41
1
10
12.5075507834299
20
6.33053249061209
30
0
41
1
10
12.0003170708468
20
6.42021454757739
30
0
41
1
10
11.7479346008968
20
6.46471563049357
30
0
41
1
10
11.2452080219644
20
6.55194443636626
30
0
41
1
10
10.9948624281356
20
6.59467434564249
30
0
41
1
10
10.4960216075372
20
6.67759882142295
30
0
41
1
10
10.2475258478004
20
6.7177978249052
30
0
41
1
10
10
20
6.75646376223099
30
0
0
SPLINE
5
C4
100
AcDbEntity
8
1
62
256
6
ByLayer
370
18
48
1
60
0
100
AcDbSpline
70
4
71
3
72
16
73
12
40
0
40
0
40
0
40
0
40
0.363504124164622
40
0.363504124164622
40
0.545256186246946
40
0.545256186246946
40
0.72700824832927
40
0.72700824832927
40
0.908760310411594
40
0.908760310411594
40
1
40
1
40
1
40
1
41
1
10
97.4999999999997
20
-7.66967278616389
30
0
41
1
10
97.8416399980275
20
-7.6861024311749
30
0
41
1
10
98.1830567132969
20
-7.69959379506443
30
0
41
1
10
98.6947823165136
20
-7.71540388993699
30
0
41
1
10
98.8652912644542
20
-7.71993530928805
30
0
41
1
10
99.2061684635984
20
-7.72750940259604
30
0
41
1
10
99.3765244414904
20
-7.73055305613053
30
0
41
1
10
99.7171588648152
20
-7.73512922078143
30
0
41
1
10
99.8874728557348
20
-7.73665808670381
30
0
41
1
10
100.143352503182
20
-7.73782255191804
30
0
41
1
10
100.228880354935
20
-7.73802229575463
30
0
41
1
10
100.314414256191
20
-7.73803361179947
30
0
0
SPLINE
5
C5
100
AcDbEntity
8
1
62
256
6
ByLayer
370
18
48
1
60
0
100
AcDbSpline
70
4
71
3
72
164
73
160
40
0
40
0
40
0
40
0
40
0.0110380900586612
40
0.0110380900586612
40
0.0269890886061004
40
0.0269890886061004
40
0.0349645878798203
40
0.0349645878798203
40
0.0429400871535401
40
0.0429400871535401
40
0.0588910857009793
40
0.0588910857009793
40
0.0748420842484185
40
0.0748420842484185
40
0.0907930827958577
40
0.0907930827958577
40
0.0987685820695775
40
0.0987685820695775
40
0.106744081343297
40
0.106744081343297
40
0.122695079890737
40
0.122695079890737
40
0.138646078438178
40
0.138646078438178
40
0.154597076985618
40
0.154597076985618
40
0.162572576259338
40
0.162572576259338
40
0.170548075533058
40
0.170548075533058
40
0.1864990740805
40
0.1864990740805
40
0.202450072627941
40
0.202450072627941
40
0.218401071175382
40
0.218401071175382
40
0.226376570449102
40
0.226376570449102
40
0.234352069722823
40
0.234352069722823
40
0.250303068270264
40
0.250303068270264
40
0.266254066817706
40
0.266254066817706
40
0.282205065365147
40
0.282205065365147
40
0.290180564638868
40
0.290180564638868
40
0.298156063912589
40
0.298156063912589
40
0.31410706246003
40
0.31410706246003
40
0.330058061007471
40
0.330058061007471
40
0.346009059554912
40
0.346009059554912
40
0.353984558828633
40
0.353984558828633
40
0.361960058102353
40
0.361960058102353
40
0.377911056649794
40
0.377911056649794
40
0.393862055197235
40
0.393862055197235
40
0.401837554470956
40
0.401837554470956
40
0.409813053744677
40
0.409813053744677
40
0.417788553018397
40
0.417788553018397
40
0.425764052292118
40
0.425764052292118
40
0.44171505083956
40
0.44171505083956
40
0.457666049387001
40
0.457666049387001
40
0.465641548660722
40
0.465641548660722
40
0.473617047934442
40
0.473617047934442
40
0.489568046481884
40
0.489568046481884
40
0.521470043576765
40
0.521470043576765
40
0.529445542850486
40
0.529445542850486
40
0.537421042124206
40
0.537421042124206
40
0.553372040671647
40
0.553372040671647
40
0.585274037766531
40
0.585274037766531
40
0.593249537040251
40
0.593249537040251
40
0.601225036313972
40
0.601225036313972
40
0.617176034861412
40
0.617176034861412
40
0.633127033408853
40
0.633127033408853
40
0.649078031956293
40
0.649078031956293
40
0.657053531230013
40
0.657053531230013
40
0.665029030503734
40
0.665029030503734
40
0.680980029051174
40
0.680980029051174
40
0.696931027598614
40
0.696931027598614
40
0.712882026146054
40
0.712882026146054
40
0.720857525419774
40
0.720857525419774
40
0.728833024693494
40
0.728833024693494
40
0.744784023240936
40
0.744784023240936
40
0.760735021788377
40
0.760735021788377
40
0.776686020335819
40
0.776686020335819
40
0.784661519609539
40
0.784661519609539
40
0.79263701888326
40
0.79263701888326
40
0.808588017430703
40
0.808588017430703
40
0.824539015978145
40
0.824539015978145
40
0.832514515251866
40
0.832514515251866
40
0.840490014525588
40
0.840490014525588
40
0.848465513799309
40
0.848465513799309
40
0.85644101307303
40
0.85644101307303
40
0.872392011620472
40
0.872392011620472
40
0.888343010167914
40
0.888343010167914
40
0.896318509441634
40
0.896318509441634
40
0.904294008715354
40
0.904294008715354
40
0.920245007262795
40
0.920245007262795
40
0.936196005810236
40
0.936196005810236
40
0.952147004357676
40
0.952147004357676
40
0.960122503631397
40
0.960122503631397
40
0.968098002905117
40
0.968098002905117
40
0.984049001452558
40
0.984049001452558
40
1
40
1
40
1
40
1
41
1
10
17.9662500679752
20
5.2387380707554
30
0
41
1
10
18.2589521598495
20
5.30651582249675
30
0
41
1
10
18.5516759491577
20
5.37271750353119
30
0
41
1
10
19.2673967292753
20
5.53088906959798
30
0
41
1
10
19.6903870597065
20
5.62121368684038
30
0
41
1
10
20.3247376627989
20
5.75212231404905
30
0
41
1
10
20.5361657507096
20
5.79499358482369
30
0
41
1
10
20.9589627419911
20
5.87921092993199
30
0
41
1
10
21.1703250570203
20
5.92061276063907
30
0
41
1
10
21.8044469865239
20
6.0419054088228
30
0
41
1
10
22.2273736910144
20
6.11863467113901
30
0
41
1
10
23.0733193043226
20
6.26446041032457
30
0
41
1
10
23.4963440597257
20
6.3335447300995
30
0
41
1
10
24.3423483448548
20
6.46430638304679
30
0
41
1
10
24.7653243789151
20
6.52598866780781
30
0
41
1
10
25.3996338620281
20
6.61302355650167
30
0
41
1
10
25.6110452036084
20
6.64111825559769
30
0
41
1
10
26.0338033110488
20
6.69546177952316
30
0
41
1
10
26.2451527484373
20
6.72171634341098
30
0
41
1
10
26.8793391133481
20
6.79709568108245
30
0
41
1
10
27.302290906003
20
6.84300148126567
30
0
41
1
10
28.1482581896427
20
6.92656467739565
30
0
41
1
10
28.5712847617408
20
6.96420921637917
30
0
41
1
10
29.4172711332954
20
7.03136040501522
30
0
41
1
10
29.8402266510564
20
7.060869980858
30
0
41
1
10
30.4744942829101
20
7.09898823445803
30
0
41
1
10
30.6858822911705
20
7.11067135610423
30
0
41
1
10
31.1086250619803
20
7.13194294177768
30
0
41
1
10
31.3199928079966
20
7.14150347575031
30
0
41
1
10
31.9542499297537
20
7.16686685198434
30
0
41
1
10
32.3772235859931
20
7.17942383533611
30
0
41
1
10
33.2232136234262
20
7.19606747597226
30
0
41
1
10
33.6462407768904
20
7.20014999946727
30
0
41
1
10
34.4922017987119
20
7.19984159807797
30
0
41
1
10
34.9151315417458
20
7.19545025064946
30
0
41
1
10
35.5493475496257
20
7.18236151368325
30
0
41
1
10
35.7607162345477
20
7.17690525915651
30
0
41
1
10
36.1834524151647
20
7.16382900626337
30
0
41
1
10
36.3948496381846
20
7.15622988727657
30
0
41
1
10
37.0291609375005
20
7.13031426838012
30
0
41
1
10
37.4521484998348
20
7.10887279263318
30
0
41
1
10
38.2981520495118
20
7.05771479318702
30
0
41
1
10
38.7211766171154
20
7.02800166386658
30
0
41
1
10
39.5671089562793
20
6.96017522501191
30
0
41
1
10
39.9900134719843
20
6.92205889589721
30
0
41
1
10
40.6241815633229
20
6.85835271492687
30
0
41
1
10
40.835533301491
20
6.83599423651324
30
0
41
1
10
41.2583030550622
20
6.78938738520282
30
0
41
1
10
41.4697318854673
20
6.76514014392188
30
0
41
1
10
42.1040944598745
20
6.68955922225049
30
0
41
1
10
42.5270948621158
20
6.63538166378814
30
0
41
1
10
43.3731078378496
20
6.51935795533316
30
0
41
1
10
43.7961256115682
20
6.4575178324572
30
0
41
1
10
44.642018308045
20
6.32591559970103
30
0
41
1
10
45.0648884700207
20
6.25614560889932
30
0
41
1
10
45.6990020999424
20
6.14526993050626
30
0
41
1
10
45.9103596138941
20
6.10731674964225
30
0
41
1
10
46.333174308295
20
6.02994103405624
30
0
41
1
10
46.5446204073109
20
5.99046218242412
30
0
41
1
10
47.1790198076912
20
5.86959899388688
30
0
41
1
10
47.6020285913517
20
5.78578269812559
30
0
41
1
10
48.4480442233102
20
5.61147234445235
30
0
41
1
10
48.8710525024218
20
5.52098113787332
30
0
41
1
10
49.5054415394806
20
5.37995809727332
30
0
41
1
10
49.7168841693726
20
5.33206839728794
30
0
41
1
10
50.1397133329928
20
5.23447359661119
30
0
41
1
10
50.351086728246
20
5.18473208179438
30
0
41
1
10
50.7738366499998
20
5.08356541206268
30
0
41
1
10
50.9852122703298
20
5.03229653971857
30
0
41
1
10
51.4080705469869
20
4.92863287769776
30
0
41
1
10
51.6195328090866
20
4.876195659274
30
0
41
1
10
52.2539651319992
20
4.71697554617179
30
0
41
1
10
52.6769826332704
20
4.60829153586081
30
0
41
1
10
53.5229950137712
20
4.38555593627922
30
0
41
1
10
53.9459881058518
20
4.27150047904681
30
0
41
1
10
54.5803376340349
20
4.09604918828933
30
0
41
1
10
54.7917646231951
20
4.03683756452494
30
0
41
1
10
55.2145581102668
20
3.91690378342025
30
0
41
1
10
55.4259178834304
20
3.85609268936352
30
0
41
1
10
56.0600329643149
20
3.67229920670766
30
0
41
1
10
56.4829573968221
20
3.54834073775271
30
0
41
1
10
57.7518682014152
20
3.17129036625354
30
0
41
1
10
58.5980260264604
20
2.91314922184986
30
0
41
1
10
59.6552117931147
20
2.57980328283028
30
0
41
1
10
59.8666240668034
20
2.51259908804025
30
0
41
1
10
60.2893846130673
20
2.37706702448205
30
0
41
1
10
60.5007357793708
20
2.30871866955516
30
0
41
1
10
61.1349278367751
20
2.10358221165782
30
0
41
1
10
61.5578816922981
20
1.96633289533605
30
0
41
1
10
62.8268359975326
20
1.55208198225122
30
0
41
1
10
63.6729739045391
20
1.27272452826998
30
0
41
1
10
64.7300801459585
20
0.917207439107131
30
0
41
1
10
64.9414658022082
20
0.845764667297516
30
0
41
1
10
65.3642079471547
20
0.702317353477724
30
0
41
1
10
65.5755731264916
20
0.630490472075479
30
0
41
1
10
66.2098280052177
20
0.415649132322898
30
0
41
1
10
66.6328002171791
20
0.272868513185728
30
0
41
1
10
67.4787889129932
20
-0.012472826750809
30
0
41
1
10
67.9018161190908
20
-0.15500178201205
30
0
41
1
10
68.7477783939661
20
-0.440243337808596
30
0
41
1
10
69.1707093601239
20
-0.582968071731727
30
0
41
1
10
69.8049283618732
20
-0.797511911256265
30
0
41
1
10
70.0162993645318
20
-0.869185712496034
30
0
41
1
10
70.4390366017142
20
-1.01220996140964
30
0
41
1
10
70.6504366269148
20
-1.08336962010097
30
0
41
1
10
71.2847519548662
20
-1.29574262891685
30
0
41
1
10
71.7077407146733
20
-1.43597476193105
30
0
41
1
10
72.5537451874234
20
-1.71434579792486
30
0
41
1
10
72.9767693121492
20
-1.85246013363073
30
0
41
1
10
73.8226988107355
20
-2.12700427881083
30
0
41
1
10
74.2456009922248
20
-2.26344299464046
30
0
41
1
10
74.8797646188952
20
-2.46708461563188
30
0
41
1
10
75.0911144430293
20
-2.53487649221662
30
0
41
1
10
75.5138826578654
20
-2.66917797842717
30
0
41
1
10
75.7253107663637
20
-2.73571462706801
30
0
41
1
10
76.3596713065938
20
-2.93365986866459
30
0
41
1
10
76.7826706187584
20
-3.06343182795317
30
0
41
1
10
77.6286830926039
20
-3.31910466057479
30
0
41
1
10
78.0517012779768
20
-3.44499210641487
30
0
41
1
10
78.8975959604006
20
-3.69327508117558
30
0
41
1
10
79.3204667800189
20
-3.81568444117249
30
0
41
1
10
79.9545856753795
20
-3.99680642983506
30
0
41
1
10
80.1659443617796
20
-4.05667364752264
30
0
41
1
10
80.5887623746912
20
-4.17463763661451
30
0
41
1
10
80.8002097572825
20
-4.23282958283511
30
0
41
1
10
81.434611949046
20
-4.4051975125065
30
0
41
1
10
81.8576214899481
20
-4.51718154422176
30
0
41
1
10
82.7036370302887
20
-4.735706214076
30
0
41
1
10
83.1266442661129
20
-4.84224427348718
30
0
41
1
10
83.7610304079051
20
-4.99819775701155
30
0
41
1
10
83.9724718714959
20
-5.04953846002408
30
0
41
1
10
84.3952983524586
20
-5.15094747581588
30
0
41
1
10
84.6066726905781
20
-5.20105366936468
30
0
41
1
10
85.0294159819608
20
-5.2997989108901
30
0
41
1
10
85.2407920612245
20
-5.34828606072267
30
0
41
1
10
85.6636489091215
20
-5.44332525736016
30
0
41
1
10
85.8751104826097
20
-5.48991660934331
30
0
41
1
10
86.5095409967522
20
-5.62704087051776
30
0
41
1
10
86.9325579562101
20
-5.71492379485991
30
0
41
1
10
87.7785706187799
20
-5.88394423374146
30
0
41
1
10
88.2015644121087
20
-5.96508543066233
30
0
41
1
10
88.8359160133047
20
-6.08188012661628
30
0
41
1
10
89.0473438735329
20
-6.11999001837893
30
0
41
1
10
89.4701394784784
20
-6.1945659774037
30
0
41
1
10
89.6815079922844
20
-6.2310828241759
30
0
41
1
10
90.3155815411315
20
-6.33755576321337
30
0
41
1
10
90.7383855968523
20
-6.40427654646084
30
0
41
1
10
91.5839044050874
20
-6.52980216134958
30
0
41
1
10
92.0066269818088
20
-6.58859287713389
30
0
41
1
10
92.851851550468
20
-6.69845755804039
30
0
41
1
10
93.2743499547256
20
-6.74953580123653
30
0
41
1
10
93.9078108453308
20
-6.82040746972541
30
0
41
1
10
94.1189172681837
20
-6.84307165265599
30
0
41
1
10
94.5410209462341
20
-6.88646526377732
30
0
41
1
10
94.7520146112897
20
-6.90719259593627
30
0
41
1
10
95.3853666868361
20
-6.96601112103028
30
0
41
1
10
95.8079696459581
20
-7.00087198465454
30
0
41
1
10
96.6536499376895
20
-7.06225033867651
30
0
41
1
10
97.076738410229
20
-7.08875764377453
30
0
41
1
10
97.4999999999998
20
-7.11112073229043
30
0
0
SPLINE
5
C6
100
AcDbEntity
8
1
62
256
6
ByLayer
370
18
48
1
60
0
100
AcDbSpline
70
4
71
3
72
152
73
148
40
0
40
0
40
0
40
0
40
0.0065128566616802
40
0.0065128566616802
40
0.0249107667235032
40
0.0249107667235032
40
0.0433086767853261
40
0.0433086767853261
40
0.0525076318162371
40
0.0525076318162371
40
0.0617065868471481
40
0.0617065868471481
40
0.080104496908969
40
0.080104496908969
40
0.0893034519398794
40
0.0893034519398794
40
0.0985024069707898
40
0.0985024069707898
40
0.1077013620017
40
0.1077013620017
40
0.116900317032611
40
0.116900317032611
40
0.153696137156252
40
0.153696137156252
40
0.172094047218073
40
0.172094047218073
40
0.181293002248984
40
0.181293002248984
40
0.190491957279894
40
0.190491957279894
40
0.227287777403536
40
0.227287777403536
40
0.236486732434446
40
0.236486732434446
40
0.245685687465356
40
0.245685687465356
40
0.254884642496266
40
0.254884642496266
40
0.264083597527176
40
0.264083597527176
40
0.282481507588996
40
0.282481507588996
40
0.300879417650816
40
0.300879417650816
40
0.310078372681726
40
0.310078372681726
40
0.319277327712636
40
0.319277327712636
40
0.337675237774457
40
0.337675237774457
40
0.356073147836277
40
0.356073147836277
40
0.365272102867187
40
0.365272102867187
40
0.374471057898097
40
0.374471057898097
40
0.383670012929007
40
0.383670012929007
40
0.392868967959918
40
0.392868967959918
40
0.411266878021738
40
0.411266878021738
40
0.429664788083559
40
0.429664788083559
40
0.43886374311447
40
0.43886374311447
40
0.44806269814538
40
0.44806269814538
40
0.457261653176291
40
0.457261653176291
40
0.466460608207201
40
0.466460608207201
40
0.484858518269022
40
0.484858518269022
40
0.503256428330844
40
0.503256428330844
40
0.521654338392665
40
0.521654338392665
40
0.530853293423576
40
0.530853293423576
40
0.540052248454487
40
0.540052248454487
40
0.558450158516308
40
0.558450158516308
40
0.567649113547218
40
0.567649113547218
40
0.576848068578128
40
0.576848068578128
40
0.586047023609039
40
0.586047023609039
40
0.595245978639949
40
0.595245978639949
40
0.632041798763591
40
0.632041798763591
40
0.650439708825411
40
0.650439708825411
40
0.659638663856322
40
0.659638663856322
40
0.668837618887232
40
0.668837618887232
40
0.705633439010872
40
0.705633439010872
40
0.714832394041783
40
0.714832394041783
40
0.724031349072693
40
0.724031349072693
40
0.733230304103604
40
0.733230304103604
40
0.742429259134514
40
0.742429259134514
40
0.760827169196336
40
0.760827169196336
40
0.770026124227246
40
0.770026124227246
40
0.779225079258157
40
0.779225079258157
40
0.788424034289067
40
0.788424034289067
40
0.797622989319977
40
0.797622989319977
40
0.816020899381798
40
0.816020899381798
40
0.834418809443619
40
0.834418809443619
40
0.85281671950544
40
0.85281671950544
40
0.86201567453635
40
0.86201567453635
40
0.87121462956726
40
0.87121462956726
40
0.889612539629081
40
0.889612539629081
40
0.908010449690901
40
0.908010449690901
40
0.917209404721811
40
0.917209404721811
40
0.926408359752721
40
0.926408359752721
40
0.935607314783631
40
0.935607314783631
40
0.944806269814541
40
0.944806269814541
40
0.963204179876361
40
0.963204179876361
40
0.98160208993818
40
0.98160208993818
40
1
40
1
40
1
40
1
41
1
10
84.7674041269175
20
-5.24431985006493
30
0
41
1
10
84.6116382695892
20
-5.28039019530598
30
0
41
1
10
84.4558587720276
20
-5.3160215879526
30
0
41
1
10
83.8599770504422
20
-5.45064452907653
30
0
41
1
10
83.4197879182535
20
-5.54660040429803
30
0
41
1
10
82.5392777264648
20
-5.73166992996562
30
0
41
1
10
82.0991493878964
20
-5.82075824816027
30
0
41
1
10
81.4394759766494
20
-5.949121385035
30
0
41
1
10
81.2196312735596
20
-5.99098857978817
30
0
41
1
10
80.7798247847099
20
-6.07254535240847
30
0
41
1
10
80.5598871513179
20
-6.11227684842467
30
0
41
1
10
79.899984146025
20
-6.22837771405977
30
0
41
1
10
79.4599292392881
20
-6.30165821797905
30
0
41
1
10
78.7997115138598
20
-6.405500688589
30
0
41
1
10
78.5796162717378
20
-6.43910067430556
30
0
41
1
10
78.1393887127076
20
-6.50427851912403
30
0
41
1
10
77.9192298294439
20
-6.53586022866529
30
0
41
1
10
77.4790544715611
20
-6.59697964714422
30
0
41
1
10
77.2590340088827
20
-6.62651767132806
30
0
41
1
10
76.8191351090496
20
-6.68354104007358
30
0
41
1
10
76.5992806561769
20
-6.711050045582
30
0
41
1
10
75.4999038819206
20
-6.84293171867787
30
0
41
1
10
74.6198339020411
20
-6.93021657847379
30
0
41
1
10
73.2992474045207
20
-7.03463577701524
30
0
41
1
10
72.8588830592673
20
-7.06501067765697
30
0
41
1
10
72.198863407675
20
-7.10383174746838
30
0
41
1
10
71.978934228537
20
-7.1156520064086
30
0
41
1
10
71.5391850150252
20
-7.13700966000675
30
0
41
1
10
71.3193217310705
20
-7.14652753780331
30
0
41
1
10
70.219746270167
20
-7.18824225594918
30
0
41
1
10
69.339551978029
20
-7.20303992371046
30
0
41
1
10
68.2389505390751
20
-7.19859806121355
30
0
41
1
10
68.0187959162424
20
-7.19655636605222
30
0
41
1
10
67.5786683822548
20
-7.19015360565547
30
0
41
1
10
67.3586724155133
20
-7.18579264647923
30
0
41
1
10
66.9188239062132
20
-7.17472967377375
30
0
41
1
10
66.6989859967969
20
-7.16802018066949
30
0
41
1
10
66.2592107800658
20
-7.1523184882254
30
0
41
1
10
66.0392880796199
20
-7.14332601752275
30
0
41
1
10
65.3794265581404
20
-7.11295328567584
30
0
41
1
10
64.939395918637
20
-7.08818163043586
30
0
41
1
10
64.0591479598539
20
-7.02963667474171
30
0
41
1
10
63.6188926471919
20
-6.99586167295396
30
0
41
1
10
62.958537065599
20
-6.93837340825053
30
0
41
1
10
62.7384850534944
20
-6.91807680337308
30
0
41
1
10
62.2985213178403
20
-6.87519394969286
30
0
41
1
10
62.0786254477109
20
-6.85259244640309
30
0
41
1
10
61.4190254036536
20
-6.78143537694399
30
0
41
1
10
60.9791808341573
20
-6.72974990785613
30
0
41
1
10
60.0992280510193
20
-6.6180802702695
30
0
41
1
10
59.6591367619271
20
-6.55808006083282
30
0
41
1
10
58.9988719533211
20
-6.46180260697309
30
0
41
1
10
58.7787621926739
20
-6.42866310924336
30
0
41
1
10
58.3385092068887
20
-6.36026914780931
30
0
41
1
10
58.1183745502059
20
-6.32501486433884
30
0
41
1
10
57.6782952317872
20
-6.25239769757363
30
0
41
1
10
57.4583244235354
20
-6.21503059929086
30
0
41
1
10
57.0185258285398
20
-6.13815319726774
30
0
41
1
10
56.7986848124879
20
-6.09866001909009
30
0
41
1
10
56.1389857179971
20
-5.97757773518902
30
0
41
1
10
55.6990485027423
20
-5.89324712916365
30
0
41
1
10
54.8189643626123
20
-5.71736692922161
30
0
41
1
10
54.3788163224391
20
-5.62581913180583
30
0
41
1
10
53.718481061025
20
-5.48299795029902
30
0
41
1
10
53.4983239948317
20
-5.43446701377582
30
0
41
1
10
53.0581342937233
20
-5.33557005059242
30
0
41
1
10
52.8381065119029
20
-5.28520600317873
30
0
41
1
10
52.3981925816348
20
-5.18261909439838
30
0
41
1
10
52.1783293528926
20
-5.13034735249857
30
0
41
1
10
51.7385889849809
20
-5.02425645543428
30
0
41
1
10
51.5186836549108
20
-4.9704986602888
30
0
41
1
10
50.8588692370659
20
-4.80709838375179
30
0
41
1
10
50.4188651543248
20
-4.69532486916327
30
0
41
1
10
49.5386622423566
20
-4.46602436165469
30
0
41
1
10
49.0984620229667
20
-4.34850073561273
30
0
41
1
10
48.2179325143514
20
-4.10751328836105
30
0
41
1
10
47.7778743656561
20
-3.98407731872715
30
0
41
1
10
47.1182338130363
20
-3.79452290507769
30
0
41
1
10
46.8983771681067
20
-3.73070846683191
30
0
41
1
10
46.4585539596996
20
-3.60222537950151
30
0
41
1
10
46.2386083914841
20
-3.5375044768339
30
0
41
1
10
45.5786834005485
20
-3.34188300351965
30
0
41
1
10
45.1386154783568
20
-3.20952643259969
30
0
41
1
10
44.4783809956971
20
-3.0079797409725
30
0
41
1
10
44.2582805735316
20
-2.9402954144397
30
0
41
1
10
43.8180438780589
20
-2.80389578621262
30
0
41
1
10
43.5978863090613
20
-2.73517285202769
30
0
41
1
10
43.1577443330295
20
-2.59672119951887
30
0
41
1
10
42.9377409884236
20
-2.52698809490593
30
0
41
1
10
42.4978773165644
20
-2.38648027845369
30
0
41
1
10
42.2780372828445
20
-2.31564780488026
30
0
41
1
10
41.1786264871098
20
-1.96046708616188
30
0
41
1
10
40.2985323737798
20
-1.67280336146564
30
0
41
1
10
38.9779137080885
20
-1.23509966959409
30
0
41
1
10
38.5375606532295
20
-1.08813158827189
30
0
41
1
10
37.8775881764424
20
-0.866139532615961
30
0
41
1
10
37.6576798708702
20
-0.791841931270397
30
0
41
1
10
37.2179421077864
20
-0.642899237945556
30
0
41
1
10
36.9980631394755
20
-0.56840015527419
30
0
41
1
10
35.8984466045245
20
-0.196274242175718
30
0
41
1
10
35.0182267099002
20
0.100778226931453
30
0
41
1
10
33.9176034853028
20
0.472192390494001
30
0
41
1
10
33.6974611487858
20
0.546483484140111
30
0
41
1
10
33.2573672831061
20
0.695035876282873
30
0
41
1
10
33.0373885912554
20
0.769305035839551
30
0
41
1
10
32.5975756430336
20
0.917848845943809
30
0
41
1
10
32.3777390552594
20
0.992115901141744
30
0
41
1
10
31.9379502753225
20
1.13989157928896
30
0
41
1
10
31.7180209055506
20
1.21346776906086
30
0
41
1
10
31.0581402997229
20
1.4333036042074
30
0
41
1
10
30.6180977885306
20
1.57867489483888
30
0
41
1
10
29.9578948827167
20
1.79508946922164
30
0
41
1
10
29.7378040258253
20
1.86695363480595
30
0
41
1
10
29.2975836845464
20
2.01015551989028
30
0
41
1
10
29.0774291258399
20
2.08150147112278
30
0
41
1
10
28.6372229972934
20
2.22365430940275
30
0
41
1
10
28.4171865600014
20
2.29445581823947
30
0
41
1
10
27.9772543613373
20
2.43552271137068
30
0
41
1
10
27.7573794513543
20
2.50584546806061
30
0
41
1
10
27.0977744554859
20
2.71546637912388
30
0
41
1
10
26.6579010839089
20
2.85297218591254
30
0
41
1
10
25.7779201158538
20
3.12367348471699
30
0
41
1
10
25.3378164727124
20
3.25687982923878
30
0
41
1
10
24.4574424016728
20
3.51917243272573
30
0
41
1
10
24.0170714907533
20
3.64828771251439
30
0
41
1
10
23.3570037160087
20
3.83882382027795
30
0
41
1
10
23.1370531730692
20
3.90182240063868
30
0
41
1
10
22.6972839267569
20
4.0267486279586
30
0
41
1
10
22.4774351518954
20
4.08860025004475
30
0
41
1
10
21.8177158427206
20
4.27164783869429
30
0
41
1
10
21.3777658971568
20
4.39057300641244
30
0
41
1
10
20.4976571258566
20
4.62243970070583
30
0
41
1
10
20.0574971058704
20
4.73537839292175
30
0
41
1
10
19.3971450341137
20
4.90039270172818
30
0
41
1
10
19.1769813502462
20
4.95467200168761
30
0
41
1
10
18.7368400379257
20
5.06172865973295
30
0
41
1
10
18.5168472853952
20
5.11450893664684
30
0
41
1
10
18.0770253888408
20
5.21857492056517
30
0
41
1
10
17.857219493088
20
5.26990570570817
30
0
41
1
10
17.417567119848
20
5.3706483695334
30
0
41
1
10
17.1977166783865
20
5.42005545581148
30
0
41
1
10
16.5381031674513
20
5.56543355860654
30
0
41
1
10
16.0982794393907
20
5.65856802523837
30
0
41
1
10
15.2185278799309
20
5.83744680024478
30
0
41
1
10
14.778599461064
20
5.9231902611028
30
0
41
1
10
13.8987041103788
20
6.08735927988801
30
0
41
1
10
13.4587375491795
20
6.16578661240183
30
0
41
1
10
13.0188040022271
20
6.24055572793858
30
0
0
SPLINE
5
C7
100
AcDbEntity
8
1
62
256
6
ByLayer
370
18
48
1
60
0
100
AcDbSpline
70
4
71
3
72
18
73
14
40
0
40
0
40
0
40
0
40
0.249999999999998
40
0.249999999999998
40
0.499999999999996
40
0.499999999999996
40
0.562499999999995
40
0.562499999999995
40
0.624999999999994
40
0.624999999999994
40
0.749999999999993
40
0.749999999999993
40
1
40
1
40
1
40
1
41
1
10
105.68323435704
20
-1.10268345930081
30
0
41
1
10
105.000754759363
20
-0.855624948780559
30
0
41
1
10
104.31842842303
20
-0.608749289448838
30
0
41
1
10
102.954385153833
20
-0.114488840299828
30
0
41
1
10
102.272658168523
20
0.132868190301934
30
0
41
1
10
101.421130211577
20
0.443065367531091
30
0
41
1
10
101.250861143609
20
0.505168465516959
30
0
41
1
10
100.910363285834
20
0.629410863592284
30
0
41
1
10
100.740114967559
20
0.691496218215349
30
0
41
1
10
100.229191787233
20
0.87714869302232
30
0
41
1
10
99.8883960386408
20
1.0002706676255
30
0
41
1
10
98.865540942421
20
1.36790406116194
30
0
41
1
10
98.1830021326261
20
1.61065261749923
30
0
41
1
10
97.5000000000002
20
1.85153007810706
30
0
0
SPLINE
5
C8
100
AcDbEntity
8
1
62
256
6
ByLayer
370
18
48
1
60
0
100
AcDbSpline
70
4
71
3
72
83
73
79
40
0
40
0
40
0
40
0
40
0.0312499999999995
40
0.0312499999999995
40
0.0624999999999989
40
0.0624999999999989
40
0.125
40
0.125
40
0.140625
40
0.140625
40
0.156250000000001
40
0.156250000000001
40
0.187500000000001
40
0.187500000000001
40
0.250000000000003
40
0.250000000000003
40
0.281250000000002
40
0.281250000000002
40
0.296875000000002
40
0.296875000000002
40
0.312500000000001
40
0.312500000000001
40
0.343750000000001
40
0.343750000000001
40
0.375000000000001
40
0.375000000000001
40
0.40625
40
0.40625
40
0.4375
40
0.4375
40
0.453125
40
0.453125
40
0.468749999999999
40
0.468749999999999
40
0.499999999999998
40
0.499999999999998
40
0.531249999999997
40
0.531249999999997
40
0.539062499999997
40
0.539062499999997
40
0.546874999999996
40
0.562499999999996
40
0.562499999999996
40
0.593749999999996
40
0.593749999999996
40
0.624999999999996
40
0.624999999999996
40
0.640624999999997
40
0.640624999999997
40
0.656249999999998
40
0.656249999999998
40
0.687499999999998
40
0.687499999999998
40
0.718749999999998
40
0.718749999999998
40
0.726562499999998
40
0.726562499999998
40
0.734374999999998
40
0.734374999999998
40
0.749999999999998
40
0.749999999999998
40
0.781249999999996
40
0.781249999999996
40
0.812499999999994
40
0.843749999999992
40
0.843749999999992
40
0.851562499999992
40
0.851562499999992
40
0.859374999999991
40
0.874999999999992
40
0.874999999999992
40
0.906249999999994
40
0.937499999999996
40
0.968749999999998
40
0.968749999999998
40
0.984374999999999
40
0.984374999999999
40
1
40
1
40
1
40
1
41
1
10
105.683234357038
20
7.49326245137655
30
0
41
1
10
105.731572934283
20
7.37340195328659
30
0
41
1
10
105.77998756753
20
7.25174364530491
30
0
41
1
10
105.877050907943
20
7.00511558308901
30
0
41
1
10
105.925699529236
20
6.880145197373
30
0
41
1
10
106.072082707628
20
6.50057449329202
30
0
41
1
10
106.170267820294
20
6.24134123887498
30
0
41
1
10
106.293849920639
20
5.9101421217091
30
0
41
1
10
106.318607815598
20
5.84354226702365
30
0
41
1
10
106.368204453724
20
5.709628354855
30
0
41
1
10
106.393052459502
20
5.6422882771206
30
0
41
1
10
106.467269184272
20
5.44040709827897
30
0
41
1
10
106.516459987511
20
5.30560920824453
30
0
41
1
10
106.66311088492
20
4.90057991574534
30
0
41
1
10
106.759698954988
20
4.62973193741976
30
0
41
1
10
106.901864461064
20
4.22191961316042
30
0
41
1
10
106.948789783963
20
4.08572137242544
30
0
41
1
10
107.018221611132
20
3.88094140019649
30
0
41
1
10
107.041204933962
20
3.812600502387
30
0
41
1
10
107.086787908691
20
3.67573463728445
30
0
41
1
10
107.10939823122
20
3.60717527546754
30
0
41
1
10
107.176212408523
20
3.402181397947
30
0
41
1
10
107.219518531472
20
3.26611304699065
30
0
41
1
10
107.302865860882
20
2.99493946109425
30
0
41
1
10
107.342912514937
20
2.85983511882645
30
0
41
1
10
107.41852397162
20
2.59030688339848
30
0
41
1
10
107.454095125688
20
2.45588355718948
30
0
41
1
10
107.518923429034
20
2.18735169292128
30
0
41
1
10
107.548183417719
20
2.0532420398163
30
0
41
1
10
107.585381601445
20
1.85197826843304
30
0
41
1
10
107.596666222666
20
1.78478258357492
30
0
41
1
10
107.616424177737
20
1.65163719456905
30
0
41
1
10
107.624926814419
20
1.58554039930289
30
0
41
1
10
107.645892771634
20
1.38873028554636
30
0
41
1
10
107.653769745127
20
1.2594900949538
30
0
41
1
10
107.655852921518
20
1.00539691782751
30
0
41
1
10
107.650046705775
20
0.880546180328224
30
0
41
1
10
107.634297687974
20
0.727632935950538
30
0
41
1
10
107.630722861418
20
0.697174361595671
30
0
41
1
10
107.622769535373
20
0.636736694298548
30
0
41
1
10
107.609669494721
20
0.547042584039787
30
0
41
1
10
107.593261738834
20
0.460200750990168
30
0
41
1
10
107.55658556323
20
0.290229608535725
30
0
41
1
10
107.527008296785
20
0.181858790883666
30
0
41
1
10
107.460264150677
20
-0.0253770756759195
30
0
41
1
10
107.423102944127
20
-0.124244998751294
30
0
41
1
10
107.363149110832
20
-0.265524067758634
30
0
41
1
10
107.342430728855
20
-0.311487034325211
30
0
41
1
10
107.30015597521
20
-0.400261631622556
30
0
41
1
10
107.278556558484
20
-0.443180959350599
30
0
41
1
10
107.212623374406
20
-0.567666737888032
30
0
41
1
10
107.167169682334
20
-0.644972846816984
30
0
41
1
10
107.07414785608
20
-0.78859523092612
30
0
41
1
10
107.026573438882
20
-0.854909462972842
30
0
41
1
10
106.96607018329
20
-0.930943975885128
30
0
41
1
10
106.953917000849
20
-0.9458071597507
30
0
41
1
10
106.929510094613
20
-0.974843235108551
30
0
41
1
10
106.917247255182
20
-0.989025627256495
30
0
41
1
10
106.880470260361
20
-1.03035924124836
30
0
41
1
10
106.855923270353
20
-1.05635324806249
30
0
41
1
10
106.782233738871
20
-1.12975530837031
30
0
41
1
10
106.73304629588
20
-1.17259286188738
30
0
41
1
10
106.634638593237
20
-1.24638168059443
30
0
41
1
10
106.536195004191
20
-1.30828176973375
30
0
41
1
10
106.437654562274
20
-1.34643861407704
30
0
41
1
10
106.375984724474
20
-1.36270693104956
30
0
41
1
10
106.363638043672
20
-1.36558185241697
30
0
41
1
10
106.339045055578
20
-1.37054646225303
30
0
41
1
10
106.302268631265
20
-1.37682679686509
30
0
41
1
10
106.265819300022
20
-1.37964632160168
30
0
41
1
10
106.193324733142
20
-1.38074937844004
30
0
41
1
10
106.097742675806
20
-1.37013950010447
30
0
41
1
10
105.957096580842
20
-1.31864020880295
30
0
41
1
10
105.864818984095
20
-1.26054092993638
30
0
41
1
10
105.796043336202
20
-1.20786147916323
30
0
41
1
10
105.773253193227
20
-1.18882823144699
30
0
41
1
10
105.728015997209
20
-1.14791046071869
30
0
41
1
10
105.705553329572
20
-1.12601407360461
30
0
41
1
10
105.683234357039
20
-1.10268345930038
30
0
0
SPLINE
5
C9
100
AcDbEntity
8
1
62
256
6
ByLayer
370
18
48
1
60
0
100
AcDbSpline
70
4
71
3
72
18
73
14
40
0
40
0
40
0
40
0
40
0.0474376462597268
40
0.0474376462597268
40
0.237950117007776
40
0.237950117007776
40
0.618975058503861
40
0.618975058503861
40
0.714231293877892
40
0.714231293877892
40
0.809487529251924
40
0.809487529251924
40
1
40
1
40
1
40
1
41
1
10
100.314413601649
20
7.73803361171287
30
0
41
1
10
100.399265887646
20
7.73804483853436
30
0
41
1
10
100.484124127117
20
7.73787062873822
30
0
41
1
10
100.909801493727
20
7.73607160367061
30
0
41
1
10
101.250685700797
20
7.73165848160025
30
0
41
1
10
102.273416757039
20
7.70957563335722
30
0
41
1
10
102.955351186983
20
7.68310699687518
30
0
41
1
10
103.807486313137
20
7.63494921058458
30
0
41
1
10
103.97790009727
20
7.62456099741601
30
0
41
1
10
104.318694359495
20
7.60225017764239
30
0
41
1
10
104.48906220721
20
7.59031859580708
30
0
41
1
10
105.000421315828
20
7.55237334358011
30
0
41
1
10
105.341690448263
20
7.52423741898644
30
0
41
1
10
105.683234357039
20
7.49326245137715
30
0
0
SPLINE
5
CA
100
AcDbEntity
8
1
62
256
6
ByLayer
370
18
48
1
60
0
100
AcDbSpline
70
4
71
3
72
40
73
36
40
0
40
0
40
0
40
0
40
0.0715307570643535
40
0.0715307570643535
40
0.143061514128707
40
0.143061514128707
40
0.214592271193061
40
0.214592271193061
40
0.250357649725238
40
0.250357649725238
40
0.286123028257416
40
0.286123028257416
40
0.357653785321774
40
0.357653785321774
40
0.429184542386131
40
0.429184542386131
40
0.500715299450489
40
0.500715299450489
40
0.536480677982668
40
0.536480677982668
40
0.572246056514847
40
0.572246056514847
40
0.643776813579207
40
0.643776813579207
40
0.715307570643566
40
0.715307570643566
40
0.786838327707926
40
0.786838327707926
40
0.822603706240107
40
0.822603706240107
40
0.858369084772288
40
0.858369084772288
40
0.929899841836652
40
0.929899841836652
40
1
40
1
40
1
40
1
41
1
10
16.3069076658783
20
-4.83697199311337
30
0
41
1
10
16.7296151678985
20
-4.94396251973453
30
0
41
1
10
17.1524877146288
20
-5.04730434631088
30
0
41
1
10
17.9983759955627
20
-5.24728527343311
30
0
41
1
10
18.4213910496728
20
-5.34392503702909
30
0
41
1
10
19.2673967292753
20
-5.53088906959798
30
0
41
1
10
19.6903870597065
20
-5.62121368684035
30
0
41
1
10
20.3247376627989
20
-5.75212231404905
30
0
41
1
10
20.5361657507096
20
-5.79499358482369
30
0
41
1
10
20.9589627419912
20
-5.87921092993196
30
0
41
1
10
21.1703250570203
20
-5.92061276063907
30
0
41
1
10
21.8044469865239
20
-6.04190540882274
30
0
41
1
10
22.2273736910144
20
-6.11863467113898
30
0
41
1
10
23.0733193043226
20
-6.26446041032457
30
0
41
1
10
23.4963440597257
20
-6.3335447300995
30
0
41
1
10
24.3423483448547
20
-6.46430638304679
30
0
41
1
10
24.7653243789151
20
-6.52598866780781
30
0
41
1
10
25.3996338620281
20
-6.61302355650167
30
0
41
1
10
25.6110452036084
20
-6.64111825559769
30
0
41
1
10
26.0338033110488
20
-6.69546177952316
30
0
41
1
10
26.2451527484373
20
-6.72171634341098
30
0
41
1
10
26.8793391133481
20
-6.79709568108242
30
0
41
1
10
27.302290906003
20
-6.84300148126567
30
0
41
1
10
28.1482581896427
20
-6.92656467739567
30
0
41
1
10
28.5712847617409
20
-6.96420921637917
30
0
41
1
10
29.4172711332954
20
-7.03136040501522
30
0
41
1
10
29.8402266510564
20
-7.06086998085797
30
0
41
1
10
30.4744942829101
20
-7.09898823445803
30
0
41
1
10
30.6858822911705
20
-7.11067135610423
30
0
41
1
10
31.1086250619804
20
-7.13194294177768
30
0
41
1
10
31.3199928079965
20
-7.14150347575031
30
0
41
1
10
31.9542499297536
20
-7.16686685198434
30
0
41
1
10
32.3772235859932
20
-7.17942383533611
30
0
41
1
10
33.2147538190882
20
-7.19590104145527
30
0
41
1
10
33.6293198956927
20
-7.19998500470103
30
0
41
1
10
34.0438426899061
20
-7.19999996673513
30
0
0
SPLINE
5
CB
100
AcDbEntity
8
1
62
256
6
ByLayer
370
18
48
1
60
0
100
AcDbSpline
70
4
71
3
72
34
73
30
40
0
40
0
40
0
40
0
40
0.0039840673524455
40
0.0039840673524455
40
0.0537848639848302
40
0.0537848639848302
40
0.103585660617215
40
0.103585660617215
40
0.203187253881979
40
0.203187253881979
40
0.302788847146742
40
0.302788847146742
40
0.352589643779121
40
0.352589643779121
40
0.4023904404115
40
0.4023904404115
40
0.501992033676252
40
0.501992033676252
40
0.601593626941003
40
0.601593626941003
40
0.701195220205756
40
0.701195220205756
40
0.750996016838132
40
0.750996016838132
40
0.800796813470508
40
0.800796813470508
40
0.900398406735254
40
0.900398406735254
40
1
40
1
40
1
40
1
41
1
10
84.7673150249523
20
5.23856283500163
30
0
41
1
10
84.7842248249827
20
5.24252196874957
30
0
41
1
10
84.8011345892419
20
5.24647647687567
30
0
41
1
10
85.0294159819609
20
5.2997989108901
30
0
41
1
10
85.2407920612245
20
5.34828606072267
30
0
41
1
10
85.6636489091215
20
5.44332525736016
30
0
41
1
10
85.8751104826098
20
5.48991660934331
30
0
41
1
10
86.5095409967524
20
5.62704087051776
30
0
41
1
10
86.9325579562102
20
5.71492379485994
30
0
41
1
10
87.7785706187799
20
5.88394423374149
30
0
41
1
10
88.2015644121088
20
5.96508543066236
30
0
41
1
10
88.8359160133047
20
6.08188012661631
30
0
41
1
10
89.047343873533
20
6.11999001837896
30
0
41
1
10
89.4701394784786
20
6.1945659774037
30
0
41
1
10
89.6815079922845
20
6.23108282417593
30
0
41
1
10
90.3155815411317
20
6.33755576321337
30
0
41
1
10
90.7383855968524
20
6.40427654646086
30
0
41
1
10
91.5839044050875
20
6.52980216134961
30
0
41
1
10
92.0066269818089
20
6.58859287713389
30
0
41
1
10
92.8518515504683
20
6.69845755804042
30
0
41
1
10
93.2743499547256
20
6.74953580123656
30
0
41
1
10
93.9078108453309
20
6.82040746972541
30
0
41
1
10
94.1189172681839
20
6.84307165265602
30
0
41
1
10
94.5410209462343
20
6.88646526377732
30
0
41
1
10
94.7520146112897
20
6.90719259593627
30
0
41
1
10
95.3853666868363
20
6.96601112103028
30
0
41
1
10
95.8079696459582
20
7.00087198465454
30
0
41
1
10
96.6536499376896
20
7.06225033867654
30
0
41
1
10
97.0767384102289
20
7.0887576437745
30
0
41
1
10
97.4999999999996
20
7.11112073229043
30
0
0
SPLINE
5
CC
100
AcDbEntity
8
1
62
256
6
ByLayer
370
18
48
1
60
0
100
AcDbSpline
70
4
71
3
72
64
73
60
40
0
40
0
40
0
40
0
40
0.0229273661450555
40
0.0229273661450555
40
0.0458547322901109
40
0.0458547322901109
40
0.0687820984351663
40
0.0687820984351663
40
0.0917094645802218
40
0.0917094645802218
40
0.13756419687033
40
0.13756419687033
40
0.160491563015384
40
0.160491563015384
40
0.183418929160438
40
0.183418929160438
40
0.206346295305493
40
0.206346295305493
40
0.229273661450547
40
0.229273661450547
40
0.275128393740658
40
0.275128393740658
40
0.320983126030769
40
0.320983126030769
40
0.366837858320879
40
0.366837858320879
40
0.389765224465935
40
0.389765224465935
40
0.41269259061099
40
0.41269259061099
40
0.458547322901104
40
0.458547322901104
40
0.504402055191217
40
0.504402055191217
40
0.550256787481331
40
0.550256787481331
40
0.573184153626389
40
0.573184153626389
40
0.596111519771447
40
0.596111519771447
40
0.64196625206156
40
0.64196625206156
40
0.664893618206617
40
0.664893618206617
40
0.687820984351674
40
0.687820984351674
40
0.710748350496731
40
0.710748350496731
40
0.733675716641787
40
0.733675716641787
40
0.825385181222009
40
0.825385181222009
40
0.871239913512119
40
0.871239913512119
40
0.894167279657175
40
0.894167279657175
40
0.917094645802231
40
0.917094645802231
40
1
40
1
40
1
40
1
41
1
10
97.5000000000003
20
1.54947507845489
30
0
41
1
10
97.2798651140543
20
1.62218311116723
30
0
41
1
10
97.0597962323961
20
1.6947044997672
30
0
41
1
10
96.6197979135421
20
1.83939024352401
30
0
41
1
10
96.3998788921074
20
1.91158422036952
30
0
41
1
10
95.9601350508009
20
2.05547847753269
30
0
41
1
10
95.7402625360401
20
2.12704273196863
30
0
41
1
10
95.3004222848178
20
2.26914598492732
30
0
41
1
10
95.0804688790247
20
2.33972589732699
30
0
41
1
10
94.4205226212437
20
2.55009818653946
30
0
41
1
10
93.9804429269033
20
2.68852235753931
30
0
41
1
10
93.320194572051
20
2.89355550803538
30
0
41
1
10
93.1000901310989
20
2.96146515981482
30
0
41
1
10
92.6598470530005
20
3.09643715160195
30
0
41
1
10
92.4396977617986
20
3.16350391275432
30
0
41
1
10
91.9995871940247
20
3.29674776453962
30
0
41
1
10
91.7796001629913
20
3.36293151589226
30
0
41
1
10
91.3397704978959
20
3.49443206387934
30
0
41
1
10
91.1199343760674
20
3.5597635854501
30
0
41
1
10
90.4602607577956
20
3.75346841895691
30
0
41
1
10
90.0203385834134
20
3.8797698475239
30
0
41
1
10
89.1402809828999
20
4.12694432036051
30
0
41
1
10
88.700144520063
20
4.2478146851285
30
0
41
1
10
87.8197165751039
20
4.48426801565557
30
0
41
1
10
87.3793830658954
20
4.59986778851206
30
0
41
1
10
86.7194598177687
20
4.76921203918229
30
0
41
1
10
86.4995744268354
20
4.82502935719856
30
0
41
1
10
86.0598387000935
20
4.93507493079238
30
0
41
1
10
85.8399438762452
20
4.98920762763223
30
0
41
1
10
85.1801490612722
20
5.14889841200511
30
0
41
1
10
84.7401569696631
20
5.25179229858946
30
0
41
1
10
83.8599770504422
20
5.45064452907656
30
0
41
1
10
83.4197879182535
20
5.54660040429803
30
0
41
1
10
82.5392777264647
20
5.73166992996562
30
0
41
1
10
82.0991493878964
20
5.82075824816016
30
0
41
1
10
81.4394759766494
20
5.94912138503506
30
0
41
1
10
81.2196312735597
20
5.99098857978817
30
0
41
1
10
80.7798247847099
20
6.07254535240847
30
0
41
1
10
80.5598871513179
20
6.1122768484247
30
0
41
1
10
79.899984146025
20
6.22837771405977
30
0
41
1
10
79.4599292392881
20
6.30165821797905
30
0
41
1
10
78.7997115138599
20
6.405500688589
30
0
41
1
10
78.5796162717377
20
6.43910067430556
30
0
41
1
10
78.1393887127075
20
6.50427851912403
30
0
41
1
10
77.9192298294438
20
6.53586022866531
30
0
41
1
10
77.4790544715611
20
6.59697964714422
30
0
41
1
10
77.2590340088827
20
6.62651767132809
30
0
41
1
10
76.8191351090496
20
6.68354104007358
30
0
41
1
10
76.5992806561769
20
6.711050045582
30
0
41
1
10
75.4999038819206
20
6.84293171867787
30
0
41
1
10
74.6198339020411
20
6.93021657847376
30
0
41
1
10
73.2992474045206
20
7.03463577701524
30
0
41
1
10
72.8588830592673
20
7.06501067765697
30
0
41
1
10
72.198863407675
20
7.10383174746838
30
0
41
1
10
71.978934228537
20
7.11565200640857
30
0
41
1
10
71.5391850150253
20
7.13700966000675
30
0
41
1
10
71.3193217310706
20
7.14652753780331
30
0
41
1
10
70.3041936826643
20
7.18503856494686
30
0
41
1
10
69.5085443956998
20
7.20002759188779
30
0
41
1
10
68.7126413000799
20
7.20000226877315
30
0
0
SPLINE
5
CD
100
AcDbEntity
8
1
62
256
6
ByLayer
370
18
48
1
60
0
100
AcDbSpline
70
4
71
3
72
16
73
12
40
0
40
0
40
0
40
0
40
0.0666667485663719
40
0.0666667485663719
40
0.200000070199748
40
0.200000070199748
40
0.466666713466496
40
0.466666713466496
40
0.733333356733246
40
0.733333356733246
40
1
40
1
40
1
40
1
41
1
10
17.9671334702112
20
-5.24403250441193
30
0
41
1
10
17.8572147097031
20
-5.2696657754681
30
0
41
1
10
17.7473065444506
20
-5.295091338514
30
0
41
1
10
17.417567119848
20
-5.3706483695334
30
0
41
1
10
17.1977166783865
20
-5.42005545581151
30
0
41
1
10
16.5381031674513
20
-5.56543355860657
30
0
41
1
10
16.0982794393907
20
-5.65856802523837
30
0
41
1
10
15.2185278799309
20
-5.8374468002448
30
0
41
1
10
14.7785994610639
20
-5.9231902611028
30
0
41
1
10
13.8987041103788
20
-6.08735927988801
30
0
41
1
10
13.4587375491795
20
-6.16578661240183
30
0
41
1
10
13.018804002227
20
-6.24055572793861
30
0
0
SPLINE
5
CE
100
AcDbEntity
8
1
62
256
6
ByLayer
370
18
48
1
60
0
100
AcDbSpline
70
4
71
3
72
14
73
10
40
0
40
0
40
0
40
0
40
0.25
40
0.25
40
0.5
40
0.5
40
0.75
40
0.75
40
1
40
1
40
1
40
1
41
1
10
13.0188040022269
20
-6.24055572793864
30
0
41
1
10
12.762404236555
20
-6.28535184722753
30
0
41
1
10
12.50755078343
20
-6.33053249061209
30
0
41
1
10
12.0003170708468
20
-6.42021454757736
30
0
41
1
10
11.7479346008968
20
-6.46471563049357
30
0
41
1
10
11.2452080219644
20
-6.55194443636626
30
0
41
1
10
10.9948624281356
20
-6.59467434564249
30
0
41
1
10
10.4960216075372
20
-6.67759882142295
30
0
41
1
10
10.2475258478004
20
-6.71779782490523
30
0
41
1
10
10
20
-6.75646376223102
30
0
0
SPLINE
5
CF
100
AcDbEntity
8
1
62
256
6
ByLayer
370
18
48
1
60
0
100
AcDbSpline
70
4
71
4
72
10
73
5
40
0
40
0
40
0
40
0
40
0
40
1
40
1
40
1
40
1
40
1
41
0.99769895009779
10
13.4426257635528
20
-4.2293756515126
30
0
41
0.996300640338257
10
13.305747534452
20
-4.6662588084203
30
0
41
0.995050269428914
10
13.1849974982488
20
-5.16012261259814
30
0
41
0.995250270385584
10
13.0886046672087
20
-5.69368533329023
30
0
41
0.996206756705278
10
13.018804002227
20
-6.24055572793865
30
0
0
SPLINE
5
D0
100
AcDbEntity
8
1
62
256
6
ByLayer
370
18
48
1
60
0
100
AcDbSpline
70
4
71
3
72
23
73
19
40
0
40
0
40
0
40
0
40
0.124999999999996
40
0.124999999999996
40
0.249999999999991
40
0.249999999999991
40
0.374999999999987
40
0.374999999999987
40
0.499999999999983
40
0.499999999999983
40
0.56249999999998
40
0.593749999999981
40
0.593749999999981
40
0.624999999999981
40
0.624999999999981
40
0.74999999999999
40
0.74999999999999
40
1
40
1
40
1
40
1
41
1
10
10
20
-4.09893483419521
30
0
41
1
10
10.2686452845436
20
-4.07592079686469
30
0
41
1
10
10.5366183933711
20
-4.06141712894086
30
0
41
1
10
11.071331680354
20
-4.04826323063466
30
0
41
1
10
11.338071268562
20
-4.04961806824849
30
0
41
1
10
11.870404997622
20
-4.06703328380294
30
0
41
1
10
12.1359987098439
20
-4.08309731452849
30
0
41
1
10
12.6661208177762
20
-4.12865959573324
30
0
41
1
10
12.9306488897419
20
-4.15816020157527
30
0
41
1
10
13.3267049495527
20
-4.21137299252058
30
0
41
1
10
13.5245490569703
20
-4.24021702082354
30
0
41
1
10
13.7221303127135
20
-4.27218095772679
30
0
41
1
10
13.8537942882592
20
-4.29415535234452
30
0
41
1
10
13.9196264794987
20
-4.30548040659491
30
0
41
1
10
14.2481290174201
20
-4.36360326508125
30
0
41
1
10
14.5090370206073
20
-4.41492510685586
30
0
41
1
10
15.2869107717408
20
-4.58013926654354
30
0
41
1
10
15.7990407754711
20
-4.70519268031364
30
0
41
1
10
16.3069076658782
20
-4.83697199311328
30
0
0
SPLINE
5
D1
100
AcDbEntity
8
1
62
256
6
ByLayer
370
18
48
1
60
0
100
AcDbSpline
70
4
71
3
72
105
73
101
40
0
40
0
40
0
40
0
40
0.0624999999999891
40
0.0624999999999891
40
0.124999999999978
40
0.124999999999978
40
0.156249999999973
40
0.156249999999973
40
0.187499999999967
40
0.187499999999967
40
0.218749999999962
40
0.218749999999962
40
0.226562499999961
40
0.226562499999961
40
0.23437499999996
40
0.24999999999996
40
0.24999999999996
40
0.281249999999959
40
0.281249999999959
40
0.296874999999958
40
0.296874999999958
40
0.304687499999958
40
0.304687499999958
40
0.312499999999958
40
0.312499999999958
40
0.343749999999959
40
0.343749999999959
40
0.37499999999996
40
0.37499999999996
40
0.390624999999961
40
0.390624999999961
40
0.398437499999962
40
0.398437499999962
40
0.406249999999962
40
0.406249999999962
40
0.421874999999962
40
0.421874999999962
40
0.437499999999962
40
0.437499999999962
40
0.441406249999962
40
0.441406249999962
40
0.445312499999963
40
0.445312499999963
40
0.453124999999963
40
0.453124999999963
40
0.468749999999963
40
0.468749999999963
40
0.484374999999963
40
0.484374999999963
40
0.492187499999963
40
0.492187499999963
40
0.499999999999963
40
0.499999999999963
40
0.515624999999963
40
0.515624999999963
40
0.531249999999964
40
0.531249999999964
40
0.539062499999964
40
0.539062499999964
40
0.546874999999964
40
0.546874999999964
40
0.562499999999964
40
0.562499999999964
40
0.578124999999964
40
0.578124999999964
40
0.585937499999964
40
0.585937499999964
40
0.593749999999964
40
0.593749999999964
40
0.609374999999964
40
0.609374999999964
40
0.624999999999965
40
0.624999999999965
40
0.656249999999965
40
0.656249999999965
40
0.671874999999966
40
0.671874999999966
40
0.679687499999967
40
0.679687499999967
40
0.687499999999967
40
0.687499999999967
40
0.71874999999997
40
0.71874999999997
40
0.749999999999974
40
0.749999999999974
40
0.781249999999977
40
0.781249999999977
40
0.81249999999998
40
0.81249999999998
40
0.843749999999984
40
0.843749999999984
40
0.874999999999987
40
0.874999999999987
40
0.90624999999999
40
0.90624999999999
40
0.937499999999993
40
0.937499999999993
40
0.968749999999997
40
0.968749999999997
40
1
40
1
40
1
40
1
41
1
10
10
20
-4.09893483419521
30
0
41
1
10
9.611866393345
20
-4.18696328951066
30
0
41
1
10
9.22831747187917
20
-4.28772173938577
30
0
41
1
10
8.47053444403741
20
-4.51513825541727
30
0
41
1
10
8.09629448141075
20
-4.64177981132468
30
0
41
1
10
7.54213354087096
20
-4.85180171202583
30
0
41
1
10
7.35861469448145
20
-4.92515700408805
30
0
41
1
10
6.99404859847428
20
-5.07876468114918
30
0
41
1
10
6.81300082348127
20
-5.15901556992335
30
0
41
1
10
6.45348088845421
20
-5.32671674726902
30
0
41
1
10
6.27500782927882
20
-5.41416447230401
30
0
41
1
10
6.05362660101403
20
-5.52826363689579
30
0
41
1
10
6.0093950206122
20
-5.55134534829222
30
0
41
1
10
5.92136578988848
20
-5.5978605994076
30
0
41
1
10
5.78995589338268
20
-5.66816821782058
30
0
41
1
10
5.66047574065914
20
-5.74007530121861
30
0
41
1
10
5.40418272530511
20
-5.88601844028173
30
0
41
1
10
5.23686594071594
20
-5.98614756147862
30
0
41
1
10
4.99175094476155
20
-6.14065096997004
30
0
41
1
10
4.91102512438349
20
-6.19287149650359
30
0
41
1
10
4.79150257616584
20
-6.27230179035629
30
0
41
1
10
4.75192300254093
20
-6.29896191292653
30
0
41
1
10
4.67330605929212
20
-6.35265376641453
30
0
41
1
10
4.63422652807222
20
-6.3797157210717
30
0
41
1
10
4.44113426603269
20
-6.51533566607088
30
0
41
1
10
4.29350795887254
20
-6.62514813464878
30
0
41
1
10
4.0136218357481
20
-6.84688879436325
30
0
41
1
10
3.88133453703924
20
-6.95881760793264
30
0
41
1
10
3.69661500435143
20
-7.1279157027198
30
0
41
1
10
3.63733904899527
20
-7.18448254589305
30
0
41
1
10
3.55231349988515
20
-7.26958537020769
30
0
41
1
10
3.5245549526752
20
-7.29806670963646
30
0
41
1
10
3.47089512373862
20
-7.3546099599416
30
0
41
1
10
3.44496598193359
20
-7.38269581220266
30
0
41
1
10
3.36996448128377
20
-7.46635542348739
30
0
41
1
10
3.32367136973591
20
-7.52133265078558
30
0
41
1
10
3.23908733178314
20
-7.62945000423244
30
0
41
1
10
3.20079345666912
20
-7.68259087493095
30
0
41
1
10
3.1584464165891
20
-7.74768236342115
30
0
41
1
10
3.15025376812144
20
-7.76063376473528
30
0
41
1
10
3.13443829774465
20
-7.78639736037397
30
0
41
1
10
3.12680493173741
20
-7.79922877689455
30
0
41
1
10
3.10491767708692
20
-7.83727190636029
30
0
41
1
10
3.09164182979166
20
-7.86208365240949
30
0
41
1
10
3.05577639152511
20
-7.93484563785299
30
0
41
1
10
3.03714208350948
20
-7.98112461874175
30
0
41
1
10
3.0106645229279
20
-8.06906126905125
30
0
41
1
10
3.00282022531678
20
-8.11071939965123
30
0
41
1
10
2.99949838419687
20
-8.16956670432228
30
0
41
1
10
2.99980043431384
20
-8.18857524094761
30
0
41
1
10
3.00330690120273
20
-8.22534091507788
30
0
41
1
10
3.00649354010727
20
-8.24289741705516
30
0
41
1
10
3.02019353552788
20
-8.2931008841046
30
0
41
1
10
3.03484284501366
20
-8.32332008002422
30
0
41
1
10
3.07456470972929
20
-8.3776484342271
30
0
41
1
10
3.09963925513173
20
-8.40175661442674
30
0
41
1
10
3.14477546073874
20
-8.43354907159596
30
0
41
1
10
3.16111860981951
20
-8.44343271030442
30
0
41
1
10
3.19584771909189
20
-8.4615702708806
30
0
41
1
10
3.21426785557151
20
-8.46985508344167
30
0
41
1
10
3.27250133790756
20
-8.49251559388634
30
0
41
1
10
3.31528074561862
20
-8.50470272417087
30
0
41
1
10
3.40792881981901
20
-8.52392226072595
30
0
41
1
10
3.45780008049641
20
-8.53095278439116
30
0
41
1
10
3.53745636142085
20
-8.53803010294814
30
0
41
1
10
3.5648179725828
20
-8.53981013033055
30
0
41
1
10
3.62109485192787
20
-8.54226836243546
30
0
41
1
10
3.65004308949108
20
-8.54294462125046
30
0
41
1
10
3.7384054650785
20
-8.54340548819079
30
0
41
1
10
3.7995450596737
20
-8.5416418394833
30
0
41
1
10
3.9257219399324
20
-8.53456584598615
30
0
41
1
10
3.99076087509738
20
-8.52925183110068
30
0
41
1
10
4.19106887727645
20
-8.50867019997486
30
0
41
1
10
4.33150247736228
20
-8.4887938077338
30
0
41
1
10
4.55055273995961
20
-8.45172357008752
30
0
41
1
10
4.62497728118532
20
-8.43814868369577
30
0
41
1
10
4.73853749257654
20
-8.41614257870162
30
0
41
1
10
4.77667308820946
20
-8.4085399755171
30
0
41
1
10
4.85323285818896
20
-8.39288254971061
30
0
41
1
10
4.89169356716843
20
-8.38482069183144
30
0
41
1
10
5.08484715275148
20
-8.34342080857365
30
0
41
1
10
5.24207584439515
20
-8.30683624242391
30
0
41
1
10
5.56082111807865
20
-8.22820501810605
30
0
41
1
10
5.72234231179505
20
-8.18615042713142
30
0
41
1
10
6.04883413697337
20
-8.09753727131653
30
0
41
1
10
6.21380692628691
20
-8.05097443004522
30
0
41
1
10
6.54653658355824
20
-7.95399447835069
30
0
41
1
10
6.71429436857892
20
-7.90357477107995
30
0
41
1
10
7.05205952603381
20
-7.79931911741664
30
0
41
1
10
7.22206712561675
20
-7.74548136461911
30
0
41
1
10
7.56391296832749
20
-7.63467908753498
30
0
41
1
10
7.73575105160518
20
-7.57771310535762
30
0
41
1
10
8.08095452241938
20
-7.46084275878545
30
0
41
1
10
8.25436068363476
20
-7.40092094735596
30
0
41
1
10
8.60162710969456
20
-7.27858875684518
30
0
41
1
10
8.775600369648
20
-7.21613946111486
30
0
41
1
10
9.12419967255659
20
-7.0888030566874
30
0
41
1
10
9.29882553326499
20
-7.02391468171552
30
0
41
1
10
9.6488124394694
20
-6.89185170181636
30
0
41
1
10
9.82417347845862
20
-6.82467598506764
30
0
41
1
10
10
20
-6.75646376223102
30
0
0
SPLINE
5
D2
100
AcDbEntity
8
1
62
256
6
ByLayer
370
18
48
1
60
0
100
AcDbSpline
70
4
71
3
72
26
73
22
40
0
40
0
40
0
40
0
40
0.0472661846207341
40
0.0472661846207341
40
0.153125497440653
40
0.153125497440653
40
0.258984810260571
40
0.258984810260571
40
0.364844123080489
40
0.364844123080489
40
0.470703435900408
40
0.470703435900408
40
0.576562748720326
40
0.576562748720326
40
0.682422061540245
40
0.682422061540245
40
0.788281374360163
40
0.788281374360163
40
0.894140687180081
40
0.894140687180081
40
1
40
1
40
1
40
1
41
1
10
5.18930110865813
20
8.31848518903777
30
0
41
1
10
5.25955613394609
20
8.30208500548687
30
0
41
1
10
5.33028859670912
20
8.28507505163122
30
0
41
1
10
5.56082111807871
20
8.22820501810605
30
0
41
1
10
5.72234231179507
20
8.18615042713142
30
0
41
1
10
6.04883413697337
20
8.09753727131653
30
0
41
1
10
6.21380692628691
20
8.05097443004519
30
0
41
1
10
6.54653658355824
20
7.95399447835067
30
0
41
1
10
6.71429436857889
20
7.90357477107995
30
0
41
1
10
7.05205952603381
20
7.79931911741664
30
0
41
1
10
7.22206712561677
20
7.74548136461911
30
0
41
1
10
7.56391296832749
20
7.63467908753498
30
0
41
1
10
7.73575105160512
20
7.57771310535759
30
0
41
1
10
8.08095452241938
20
7.46084275878542
30
0
41
1
10
8.25436068363479
20
7.40092094735593
30
0
41
1
10
8.60162710969462
20
7.27858875684515
30
0
41
1
10
8.77560036964803
20
7.21613946111486
30
0
41
1
10
9.12419967255659
20
7.0888030566874
30
0
41
1
10
9.29882553326499
20
7.02391468171552
30
0
41
1
10
9.6488124394694
20
6.89185170181636
30
0
41
1
10
9.82417347845865
20
6.82467598506764
30
0
41
1
10
10
20
6.75646376223102
30
0
0
SPLINE
5
D3
100
AcDbEntity
8
1
62
256
6
ByLayer
370
13
48
1
60
0
100
AcDbSpline
70
4
71
3
72
8
73
4
40
0
40
0
40
0
40
0
40
1
40
1
40
1
40
1
41
1
10
105.430621086578
20
7.739
30
0
41
1
10
105.514825510056
20
7.739
30
0
41
1
10
105.599029933535
20
7.69944777830762
30
0
41
1
10
105.683234357014
20
7.61301661321878
30
0
0
SPLINE
5
D4
100
AcDbEntity
8
1
62
256
6
ByLayer
370
13
48
1
60
0
100
AcDbSpline
70
4
71
3
72
78
73
74
40
0
40
0
40
0
40
0
40
0.0312500000000008
40
0.0312500000000008
40
0.0625000000000016
40
0.0625000000000016
40
0.0937500000000024
40
0.0937500000000024
40
0.125000000000003
40
0.125000000000003
40
0.156250000000004
40
0.156250000000004
40
0.187500000000005
40
0.187500000000005
40
0.203125000000005
40
0.203125000000005
40
0.210937500000005
40
0.210937500000005
40
0.218750000000005
40
0.218750000000005
40
0.250000000000004
40
0.250000000000004
40
0.281250000000002
40
0.281250000000002
40
0.312500000000001
40
0.312500000000001
40
0.34375
40
0.34375
40
0.374999999999999
40
0.374999999999999
40
0.406249999999997
40
0.406249999999997
40
0.437499999999996
40
0.437499999999996
40
0.468749999999995
40
0.468749999999995
40
0.499999999999994
40
0.499999999999994
40
0.531249999999992
40
0.531249999999992
40
0.562499999999991
40
0.562499999999991
40
0.59374999999999
40
0.59374999999999
40
0.60156249999999
40
0.60156249999999
40
0.60937499999999
40
0.60937499999999
40
0.62499999999999
40
0.62499999999999
40
0.656249999999991
40
0.656249999999991
40
0.687499999999992
40
0.687499999999992
40
0.718749999999992
40
0.718749999999992
40
0.749999999999993
40
0.749999999999993
40
0.781249999999994
40
0.781249999999994
40
0.812499999999995
40
0.812499999999995
40
0.843749999999996
40
0.843749999999996
40
0.874999999999996
40
0.874999999999996
40
0.906249999999997
40
0.906249999999997
40
0.937499999999998
40
0.937499999999998
40
0.968749999999999
40
0.968749999999999
40
1
40
1
40
1
40
1
41
1
10
97.5
20
-5.03699949719399
30
0
41
1
10
97.5542630417931
20
-5.29482448567236
30
0
41
1
10
97.6085260835863
20
-5.53868703564214
30
0
41
1
10
97.7170521671727
20
-5.99209760667102
30
0
41
1
10
97.7713152089658
20
-6.20163085290184
30
0
41
1
10
97.8798412925522
20
-6.5818080471546
30
0
41
1
10
97.9341043343454
20
-6.75244639247245
30
0
41
1
10
98.0426304179317
20
-7.05243006931619
30
0
41
1
10
98.0968934597249
20
-7.18177917536883
30
0
41
1
10
98.2054195433113
20
-7.39897776721247
30
0
41
1
10
98.2596825851044
20
-7.4868385666708
30
0
41
1
10
98.3682086686907
20
-7.62281595116914
30
0
41
1
10
98.422471710484
20
-7.67094832379408
30
0
41
1
10
98.5038662731737
20
-7.71581245477648
30
0
41
1
10
98.5309977940703
20
-7.72622191849104
30
0
41
1
10
98.5716950754152
20
-7.73540272743983
30
0
41
1
10
98.5852608358635
20
-7.73739122137098
30
0
41
1
10
98.6123923567601
20
-7.73929353982058
30
0
41
1
10
98.6259581172084
20
-7.7392169204343
30
0
41
1
10
98.6937869194498
20
-7.73367493798088
30
0
41
1
10
98.7480499612431
20
-7.71256722910704
30
0
41
1
10
98.8565760448293
20
-7.63292922425114
30
0
41
1
10
98.9108390866225
20
-7.57438195733766
30
0
41
1
10
99.0193651702089
20
-7.41692951195444
30
0
41
1
10
99.0736282120021
20
-7.31800941893366
30
0
41
1
10
99.1821542955883
20
-7.07853756115037
30
0
41
1
10
99.2364173373816
20
-6.93797624124181
30
0
41
1
10
99.3449434209679
20
-6.61598968336537
30
0
41
1
10
99.3992064627611
20
-6.43456308619449
30
0
41
1
10
99.5077325463474
20
-6.03382900717082
30
0
41
1
10
99.5619955881405
20
-5.81452971036012
30
0
41
1
10
99.6705216717269
20
-5.34314949825983
30
0
41
1
10
99.7247847135201
20
-5.0910854955693
30
0
41
1
10
99.8333107971065
20
-4.56100949050389
30
0
41
1
10
99.8875738388996
20
-4.28302020362582
30
0
41
1
10
99.9960999224859
20
-3.70905405057133
30
0
41
1
10
100.050362964279
20
-3.41310151294772
30
0
41
1
10
100.158889047866
20
-2.81157348928741
30
0
41
1
10
100.213152089659
20
-2.50601976027434
30
0
41
1
10
100.321678173245
20
-1.89335124503154
30
0
41
1
10
100.375941215038
20
-1.58625260179053
30
0
41
1
10
100.484467298624
20
-0.977674529113614
30
0
41
1
10
100.538730340418
20
-0.676204300709003
30
0
41
1
10
100.606559142659
20
-0.306575386347447
30
0
41
1
10
100.620124903107
20
-0.233006664553443
30
0
41
1
10
100.647256424004
20
-0.0866616977597801
30
0
41
1
10
100.660822184452
20
-0.0141568009003663
30
0
41
1
10
100.701519465797
20
0.204238656950565
30
0
41
1
10
100.728650986694
20
0.351492006102688
30
0
41
1
10
100.810045549384
20
0.797278412439795
30
0
41
1
10
100.864308591177
20
1.09987976516507
30
0
41
1
10
100.972834674763
20
1.70982388310148
30
0
41
1
10
101.027097716556
20
2.01715649973366
30
0
41
1
10
101.135623800142
20
2.62925106849556
30
0
41
1
10
101.189886841936
20
2.9339960059701
30
0
41
1
10
101.298412925522
20
3.53278579017092
30
0
41
1
10
101.352675967315
20
3.82680832302867
30
0
41
1
10
101.461202050902
20
4.39580433846641
30
0
41
1
10
101.515465092695
20
4.67075345234849
30
0
41
1
10
101.623991176281
20
5.19374845770062
30
0
41
1
10
101.678254218074
20
5.44177218567478
30
0
41
1
10
101.786780301661
20
5.90427206985026
30
0
41
1
10
101.841043343454
20
6.11873235756701
30
0
41
1
10
101.94956942704
20
6.50925641321584
30
0
41
1
10
102.003832468833
20
6.68531328271425
30
0
41
1
10
102.11235855242
20
6.99632701392503
30
0
41
1
10
102.166621594213
20
7.1312864575703
30
0
41
1
10
102.275147677799
20
7.35961185791635
30
0
41
1
10
102.329410719592
20
7.45298827659809
30
0
41
1
10
102.437936803179
20
7.59966054185986
30
0
41
1
10
102.492199844972
20
7.65297176991166
30
0
41
1
10
102.600725928558
20
7.72263299324032
30
0
41
1
10
102.654988970351
20
7.739
30
0
41
1
10
102.709252012145
20
7.739
30
0
0
SPLINE
5
D5
100
AcDbEntity
8
1
62
256
6
ByLayer
370
13
48
1
60
0
100
AcDbSpline
70
4
71
3
72
14
73
10
40
0
40
0
40
0
40
0
40
0.25
40
0.25
40
0.5
40
0.5
40
0.75
40
0.75
40
1
40
1
40
1
40
1
41
1
10
104.934957294239
20
7.739
30
0
41
1
10
104.997313716137
20
7.739
30
0
41
1
10
105.059670138035
20
7.71737029416374
30
0
41
1
10
105.184382981831
20
7.62459273694191
30
0
41
1
10
105.246739403729
20
7.55341098111785
30
0
41
1
10
105.371452247524
20
7.35726062273079
30
0
41
1
10
105.433808669422
20
7.23226354129446
30
0
41
1
10
105.558521513218
20
6.92723482461088
30
0
41
1
10
105.620877935116
20
6.74718875116395
30
0
41
1
10
105.683234357014
20
6.54085045479943
30
0
0
SPLINE
5
D6
100
AcDbEntity
8
1
62
256
6
ByLayer
370
13
48
1
60
0
100
AcDbSpline
70
4
71
3
72
76
73
72
40
0
40
0
40
0
40
0
40
0.0312500000000005
40
0.0312500000000005
40
0.0625000000000009
40
0.0625000000000009
40
0.0937500000000014
40
0.0937500000000014
40
0.125000000000002
40
0.125000000000002
40
0.132812500000002
40
0.132812500000002
40
0.140625000000002
40
0.156250000000002
40
0.156250000000002
40
0.187500000000002
40
0.187500000000002
40
0.218750000000002
40
0.218750000000002
40
0.250000000000002
40
0.250000000000002
40
0.281250000000002
40
0.281250000000002
40
0.312500000000002
40
0.312500000000002
40
0.343750000000002
40
0.343750000000002
40
0.375000000000002
40
0.375000000000002
40
0.406250000000002
40
0.406250000000002
40
0.437500000000002
40
0.437500000000002
40
0.468750000000002
40
0.468750000000002
40
0.500000000000002
40
0.500000000000002
40
0.531250000000002
40
0.531250000000002
40
0.562500000000002
40
0.562500000000002
40
0.570312500000002
40
0.570312500000002
40
0.578125000000002
40
0.593750000000001
40
0.593750000000001
40
0.625000000000001
40
0.625000000000001
40
0.656250000000001
40
0.656250000000001
40
0.687500000000001
40
0.687500000000001
40
0.718750000000001
40
0.718750000000001
40
0.750000000000001
40
0.750000000000001
40
0.781250000000001
40
0.781250000000001
40
0.812500000000001
40
0.812500000000001
40
0.843750000000001
40
0.843750000000001
40
0.875
40
0.875
40
0.90625
40
0.90625
40
0.9375
40
0.9375
40
0.96875
40
0.96875
40
1
40
1
40
1
40
1
41
1
10
97.5
20
-6.92248277352718
30
0
41
1
10
97.5490998772896
20
-7.05653443500137
30
0
41
1
10
97.5981997545793
20
-7.17367526410828
30
0
41
1
10
97.6963995091586
20
-7.37397311416598
30
0
41
1
10
97.7454993864483
20
-7.45713682467192
30
0
41
1
10
97.8436991410276
20
-7.59064957045422
30
0
41
1
10
97.8927990183172
20
-7.64100793153582
30
0
41
1
10
97.9909987728965
20
-7.71115885119528
30
0
41
1
10
98.0400986501861
20
-7.73096172672285
30
0
41
1
10
98.1014734967982
20
-7.73850396046839
30
0
41
1
10
98.1137484661206
20
-7.73915387654247
30
0
41
1
10
98.1382984047654
20
-7.73878532235864
30
0
41
1
10
98.1751233127326
20
-7.73571664032107
30
0
41
1
10
98.2119482206999
20
-7.72486311035107
30
0
41
1
10
98.2855980366344
20
-7.69218935397839
30
0
41
1
10
98.334697913924
20
-7.65575880243506
30
0
41
1
10
98.4328976685033
20
-7.55098752491696
30
0
41
1
10
98.4819975457929
20
-7.4826368358639
30
0
41
1
10
98.5801973003722
20
-7.31233705405202
30
0
41
1
10
98.6292971776619
20
-7.21037989403158
30
0
41
1
10
98.7274969322412
20
-6.97240218837089
30
0
41
1
10
98.7765968095308
20
-6.8363770966933
30
0
41
1
10
98.8747965641101
20
-6.5312171841158
30
0
41
1
10
98.9238964413997
20
-6.36208259823769
30
0
41
1
10
99.022096195979
20
-5.99314499147587
30
0
41
1
10
99.0711960732687
20
-5.79334747736323
30
0
41
1
10
99.169395827848
20
-5.36692781739779
30
0
41
1
10
99.2184957051376
20
-5.14031593752827
30
0
41
1
10
99.3166954597169
20
-4.66527426141491
30
0
41
1
10
99.3657953370065
20
-4.41685802911783
30
0
41
1
10
99.4639950915858
20
-3.90401333780957
30
0
41
1
10
99.5130949688755
20
-3.63959967901744
30
0
41
1
10
99.6112947234548
20
-3.10093096031039
30
0
41
1
10
99.6603946007444
20
-2.82668979365349
30
0
41
1
10
99.7585943553238
20
-2.2744634450782
30
0
41
1
10
99.8076942326134
20
-1.99648952241483
30
0
41
1
10
99.9058939871927
20
-1.44243817026953
30
0
41
1
10
99.9549938644823
20
-1.1663683675003
30
0
41
1
10
100.053193619062
20
-0.621022457450607
30
0
41
1
10
100.102293496351
20
-0.351750135369201
30
0
41
1
10
100.163668342963
20
-0.0218949147183309
30
0
41
1
10
100.175943312286
20
0.0436131215991793
30
0
41
1
10
100.200493250931
20
0.175701680814314
30
0
41
1
10
100.237318158898
20
0.374827793723739
30
0
41
1
10
100.274143066865
20
0.576684238324674
30
0
41
1
10
100.347792882799
20
0.983287735917287
30
0
41
1
10
100.396892760089
20
1.25823805922525
30
0
41
1
10
100.495092514668
20
1.81121046774336
30
0
41
1
10
100.544192391958
20
2.08922578888704
30
0
41
1
10
100.642392146538
20
2.64283972024293
30
0
41
1
10
100.691492023827
20
2.91842782163661
30
0
41
1
10
100.789691778406
20
3.46116718524962
30
0
41
1
10
100.838791655696
20
3.7283050133656
30
0
41
1
10
100.936991410275
20
4.2479551929614
30
0
41
1
10
100.986091287565
20
4.50045276838398
30
0
41
1
10
101.084291042144
20
4.98489529432933
30
0
41
1
10
101.133390919434
20
5.21682621602542
30
0
41
1
10
101.231590674013
20
5.65491028669265
30
0
41
1
10
101.280690551303
20
5.86105228116404
30
0
41
1
10
101.378890305882
20
6.24342116249312
30
0
41
1
10
101.427990183172
20
6.41964140285057
30
0
41
1
10
101.526189937751
20
6.73938992632876
30
0
41
1
10
101.575289815041
20
6.88291681051501
30
0
41
1
10
101.67348956962
20
7.13598484938382
30
0
41
1
10
101.722589446909
20
7.24552957388983
30
0
41
1
10
101.820789201489
20
7.43078801737389
30
0
41
1
10
101.869889078779
20
7.506509154779
30
0
41
1
10
101.968088833358
20
7.62555381799729
30
0
41
1
10
102.017188710648
20
7.66888702901664
30
0
41
1
10
102.115388465227
20
7.72560495417289
30
0
41
1
10
102.164488342516
20
7.739
30
0
41
1
10
102.213588219806
20
7.739
30
0
0
SPLINE
5
D7
100
AcDbEntity
8
1
62
256
6
ByLayer
370
13
48
1
60
0
100
AcDbSpline
70
4
71
3
72
22
73
18
40
0
40
0
40
0
40
0
40
0.125
40
0.125
40
0.25
40
0.25
40
0.375
40
0.375
40
0.5
40
0.5
40
0.625
40
0.625
40
0.75
40
0.75
40
0.875
40
0.875
40
1
40
1
40
1
40
1
41
1
10
104.439293501901
20
7.739
30
0
41
1
10
104.491124370864
20
7.739
30
0
41
1
10
104.542955239827
20
7.72407028962013
30
0
41
1
10
104.646616977753
20
7.66067974689975
30
0
41
1
10
104.698447846716
20
7.61220537784089
30
0
41
1
10
104.802109584642
20
7.478927254968
30
0
41
1
10
104.853940453605
20
7.39411103960924
30
0
41
1
10
104.957602191531
20
7.18664795015951
30
0
41
1
10
105.009433060494
20
7.06399207005404
30
0
41
1
10
105.11309479842
20
6.78097682825791
30
0
41
1
10
105.164925667383
20
6.62061414864695
30
0
41
1
10
105.268587405309
20
6.26413400614493
30
0
41
1
10
105.320418274272
20
6.06802030923882
30
0
41
1
10
105.424080012199
20
5.64380591415818
30
0
41
1
10
105.475910881162
20
5.41571606562641
30
0
41
1
10
105.579572619088
20
4.93291546248179
30
0
41
1
10
105.631403488051
20
4.67822108729575
30
0
41
1
10
105.683234357014
20
4.41349050913954
30
0
0
SPLINE
5
D8
100
AcDbEntity
8
1
62
256
6
ByLayer
370
13
48
1
60
0
100
AcDbSpline
70
4
71
3
72
72
73
68
40
0
40
0
40
0
40
0
40
0.0156250000000001
40
0.0156250000000001
40
0.0234375000000001
40
0.0234375000000001
40
0.0312500000000001
40
0.0312500000000001
40
0.0625000000000002
40
0.0625000000000002
40
0.0937500000000003
40
0.0937500000000003
40
0.125
40
0.125
40
0.156250000000001
40
0.156250000000001
40
0.187500000000001
40
0.187500000000001
40
0.218750000000001
40
0.218750000000001
40
0.250000000000001
40
0.250000000000001
40
0.281250000000001
40
0.281250000000001
40
0.312500000000001
40
0.312500000000001
40
0.343750000000001
40
0.343750000000001
40
0.375000000000001
40
0.375000000000001
40
0.406250000000001
40
0.406250000000001
40
0.437500000000002
40
0.437500000000002
40
0.500000000000001
40
0.500000000000001
40
0.515625000000001
40
0.515625000000001
40
0.531250000000001
40
0.531250000000001
40
0.562500000000001
40
0.562500000000001
40
0.593750000000001
40
0.593750000000001
40
0.625000000000001
40
0.625000000000001
40
0.656250000000001
40
0.656250000000001
40
0.687500000000001
40
0.687500000000001
40
0.71875
40
0.71875
40
0.75
40
0.75
40
0.78125
40
0.78125
40
0.8125
40
0.8125
40
0.84375
40
0.84375
40
0.875
40
0.875
40
0.90625
40
0.90625
40
0.9375
40
0.9375
40
1
40
1
40
1
40
1
41
1
10
97.5
20
-7.70846455255673
30
0
41
1
10
97.5219683563931
20
-7.71926075943918
30
0
41
1
10
97.5439367127861
20
-7.72710633006142
30
0
41
1
10
97.5768892473757
20
-7.73465476648289
30
0
41
1
10
97.5878734255723
20
-7.73646778229329
30
0
41
1
10
97.6098417819654
20
-7.73872394611641
30
0
41
1
10
97.6208259601618
20
-7.73916797985882
30
0
41
1
10
97.6757468511445
20
-7.73804767319456
30
0
41
1
10
97.7196835639306
20
-7.72637842279335
30
0
41
1
10
97.8075569895029
20
-7.6792384894739
30
0
41
1
10
97.851493702289
20
-7.64376187652979
30
0
41
1
10
97.9393671278611
20
-7.54718041770005
30
0
41
1
10
97.9833038406474
20
-7.48606987802032
30
0
41
1
10
98.0711772662195
20
-7.33701039451856
30
0
41
1
10
98.1151139790057
20
-7.24905672712012
30
0
41
1
10
98.2029874045779
20
-7.04587666040985
30
0
41
1
10
98.2469241173641
20
-6.93064726306727
30
0
41
1
10
98.3347975429363
20
-6.67337597621773
30
0
41
1
10
98.3787342557224
20
-6.53133343874407
30
0
41
1
10
98.4666076812946
20
-6.22184759777059
30
0
41
1
10
98.5105443940807
20
-6.05440633449368
30
0
41
1
10
98.598417819653
20
-5.69646634273039
30
0
41
1
10
98.6423545324391
20
-5.50597228386764
30
0
41
1
10
98.7302279580114
20
-5.10510028230161
30
0
41
1
10
98.7741646707976
20
-4.89472915979516
30
0
41
1
10
98.8620380963698
20
-4.45793229023846
30
0
41
1
10
98.9059748091559
20
-4.23151469579858
30
0
41
1
10
98.9938482347282
20
-3.76688177504778
30
0
41
1
10
99.0377849475142
20
-3.52867494111356
30
0
41
1
10
99.1256583730865
20
-3.04489444542429
30
0
41
1
10
99.1695950858725
20
-2.79932864819551
30
0
41
1
10
99.2574685114449
20
-2.30518612659765
30
0
41
1
10
99.301405224231
20
-2.05661587169712
30
0
41
1
10
99.4332153625893
20
-1.31248343573117
30
0
41
1
10
99.5210887881615
20
-0.818798096566184
30
0
41
1
10
99.6309305701269
20
-0.221268521544772
30
0
41
1
10
99.6528989265199
20
-0.102892533978775
30
0
41
1
10
99.696835639306
20
0.132343283200015
30
0
41
1
10
99.7188039956991
20
0.251065379335017
30
0
41
1
10
99.7847090648784
20
0.610057852276867
30
0
41
1
10
99.8286457776645
20
0.853173058242021
30
0
41
1
10
99.9165192032367
20
1.34392419245796
30
0
41
1
10
99.9604559160229
20
1.59155741136016
30
0
41
1
10
100.048329341595
20
2.08772407150121
30
0
41
1
10
100.092266054381
20
2.33625281624484
30
0
41
1
10
100.180139479953
20
2.83013509830849
30
0
41
1
10
100.22407619274
20
3.07548209638983
30
0
41
1
10
100.311949618312
20
3.55863994094037
30
0
41
1
10
100.355886331098
20
3.79644287945456
30
0
41
1
10
100.44375975667
20
4.26008503423876
30
0
41
1
10
100.487696469456
20
4.48591575212012
30
0
41
1
10
100.575569895028
20
4.92136866274194
30
0
41
1
10
100.619506607815
20
5.1309827391832
30
0
41
1
10
100.707380033387
20
5.53019346091853
30
0
41
1
10
100.751316746173
20
5.71978336131963
30
0
41
1
10
100.839190171745
20
6.07579941981888
30
0
41
1
10
100.883126884531
20
6.24222101127413
30
0
41
1
10
100.971000310104
20
6.54958929168399
30
0
41
1
10
101.01493702289
20
6.69053405444637
30
0
41
1
10
101.102810448462
20
6.94557147923493
30
0
41
1
10
101.146747161248
20
7.05966489656484
30
0
41
1
10
101.23462058682
20
7.26057371116622
30
0
41
1
10
101.278557299606
20
7.34739219246438
30
0
41
1
10
101.366430725179
20
7.49421719602691
30
0
41
1
10
101.410367437965
20
7.55422849781465
30
0
41
1
10
101.542177576323
20
7.69590059782544
30
0
41
1
10
101.630051001895
20
7.739
30
0
41
1
10
101.717924427468
20
7.739
30
0
0
SPLINE
5
D9
100
AcDbEntity
8
1
62
256
6
ByLayer
370
13
48
1
60
0
100
AcDbSpline
70
4
71
3
72
22
73
18
40
0
40
0
40
0
40
0
40
0.125
40
0.125
40
0.25
40
0.25
40
0.375
40
0.375
40
0.5
40
0.5
40
0.625
40
0.625
40
0.75
40
0.75
40
0.875
40
0.875
40
1
40
1
40
1
40
1
41
1
10
103.943629709562
20
7.739
30
0
41
1
10
104.016113236539
20
7.739
30
0
41
1
10
104.088596763517
20
7.70974053811034
30
0
41
1
10
104.233563817471
20
7.58308930226917
30
0
41
1
10
104.306047344448
20
7.48562651655701
30
0
41
1
10
104.451014398402
20
7.21686597623696
30
0
41
1
10
104.523497925379
20
7.04551582858568
30
0
41
1
10
104.668464979334
20
6.62926721366983
30
0
41
1
10
104.740948506311
20
6.38435830815143
30
0
41
1
10
104.885915560265
20
5.82829558843926
30
0
41
1
10
104.958399087242
20
5.51718473339619
30
0
41
1
10
105.103366141197
20
4.84257662690771
30
0
41
1
10
105.175849668174
20
4.47916612840632
30
0
41
1
10
105.320816722128
20
3.71836792200512
30
0
41
1
10
105.393300249105
20
3.32108315717301
30
0
41
1
10
105.53826730306
20
2.5125325763695
30
0
41
1
10
105.610750830037
20
2.10135456101767
30
0
41
1
10
105.683234357014
20
1.69248877608985
30
0
0
SPLINE
5
DA
100
AcDbEntity
8
1
62
256
6
ByLayer
370
13
48
1
60
0
100
AcDbSpline
70
4
71
3
72
44
73
40
40
0
40
0
40
0
40
0
40
0.0625000000000048
40
0.0625000000000048
40
0.12500000000001
40
0.12500000000001
40
0.187500000000014
40
0.187500000000014
40
0.250000000000019
40
0.250000000000019
40
0.312500000000024
40
0.312500000000024
40
0.375000000000029
40
0.375000000000029
40
0.437500000000034
40
0.437500000000034
40
0.445312500000034
40
0.445312500000034
40
0.453125000000034
40
0.453125000000034
40
0.468750000000033
40
0.468750000000033
40
0.500000000000032
40
0.500000000000032
40
0.562500000000028
40
0.562500000000028
40
0.625000000000024
40
0.625000000000024
40
0.68750000000002
40
0.68750000000002
40
0.750000000000016
40
0.750000000000016
40
0.812500000000012
40
0.812500000000012
40
0.875000000000008
40
0.875000000000008
40
0.937500000000004
40
0.937500000000004
40
1
40
1
40
1
40
1
41
1
10
97.5
20
-7.46280450968308
30
0
41
1
10
97.5775470965652
20
-7.34253887628023
30
0
41
1
10
97.6550941931304
20
-7.18057099183403
30
0
41
1
10
97.8101883862608
20
-6.77159450770293
30
0
41
1
10
97.8877354828259
20
-6.52455548725493
30
0
41
1
10
98.0428296759563
20
-5.9526596609351
30
0
41
1
10
98.1203767725215
20
-5.62785099031484
30
0
41
1
10
98.2754709656518
20
-4.91646853738396
30
0
41
1
10
98.3530180622171
20
-4.53001178852458
30
0
41
1
10
98.5081122553474
20
-3.71766343280109
30
0
41
1
10
98.5856593519126
20
-3.29191579396948
30
0
41
1
10
98.7407535450429
20
-2.42549470331863
30
0
41
1
10
98.8183006416083
20
-1.98494221597173
30
0
41
1
10
98.9733948347386
20
-1.11143995860357
30
0
41
1
10
99.0509419313038
20
-0.67855724618704
30
0
41
1
10
99.1381824149396
20
-0.205760099320798
30
0
41
1
10
99.1478758020102
20
-0.153420563046723
30
0
41
1
10
99.1672625761515
20
-0.0491561913194971
30
0
41
1
10
99.1769559632223
20
0.0026251157162847
30
0
41
1
10
99.2060361244342
20
0.158646606407672
30
0
41
1
10
99.2254228985755
20
0.263507070840973
30
0
41
1
10
99.2835832209994
20
0.580290427452127
30
0
41
1
10
99.322356769282
20
0.794426655475633
30
0
41
1
10
99.4386774141298
20
1.44256734886142
30
0
41
1
10
99.5162245106949
20
1.88244743725494
30
0
41
1
10
99.6713187038253
20
2.75721705028957
30
0
41
1
10
99.7488658003905
20
3.19200575416349
30
0
41
1
10
99.9039599935209
20
4.03252309077115
30
0
41
1
10
99.9815070900861
20
4.43811179625237
30
0
41
1
10
100.136601283217
20
5.19645347886336
30
0
41
1
10
100.214148379782
20
5.54907207222391
30
0
41
1
10
100.369242572912
20
6.1822966740302
30
0
41
1
10
100.446789669477
20
6.46282278731655
30
0
41
1
10
100.601883862607
20
6.94067639909662
30
0
41
1
10
100.679430959173
20
7.13800321077926
30
0
41
1
10
100.834525152303
20
7.44753328035563
30
0
41
1
10
100.912072248868
20
7.55980331456121
30
0
41
1
10
101.067166441999
20
7.70548737326743
30
0
41
1
10
101.144713538564
20
7.739
30
0
41
1
10
101.222260635129
20
7.739
30
0
0
SPLINE
5
DB
100
AcDbEntity
8
1
62
256
6
ByLayer
370
13
48
1
60
0
100
AcDbSpline
70
4
71
3
72
42
73
38
40
0
40
0
40
0
40
0
40
0.0624999999999996
40
0.0624999999999996
40
0.124999999999999
40
0.124999999999999
40
0.187499999999999
40
0.187499999999999
40
0.249999999999998
40
0.249999999999998
40
0.312499999999998
40
0.312499999999998
40
0.374999999999998
40
0.374999999999998
40
0.437499999999997
40
0.437499999999997
40
0.499999999999997
40
0.499999999999997
40
0.562499999999996
40
0.562499999999996
40
0.624999999999996
40
0.624999999999996
40
0.687499999999995
40
0.687499999999995
40
0.749999999999995
40
0.749999999999995
40
0.812499999999994
40
0.812499999999994
40
0.874999999999994
40
0.874999999999994
40
0.906249999999994
40
0.906249999999994
40
0.921874999999995
40
0.921874999999995
40
0.937499999999996
40
0.937499999999996
40
1
40
1
40
1
40
1
41
1
10
103.447965917224
20
7.739
30
0
41
1
10
103.494534009719
20
7.739
30
0
41
1
10
103.541102102215
20
7.72695292419081
30
0
41
1
10
103.634238287206
20
7.67607492111978
30
0
41
1
10
103.680806379702
20
7.63723606491473
30
0
41
1
10
103.773942564693
20
7.53062890182852
30
0
41
1
10
103.820510657189
20
7.46285304967481
30
0
41
1
10
103.91364684218
20
7.29702113104133
30
0
41
1
10
103.960214934676
20
7.19895901252099
30
0
41
1
10
104.053351119667
20
6.9722070462993
30
0
41
1
10
104.099919212163
20
6.84351375814609
30
0
41
1
10
104.193055397154
20
6.55630182392332
30
0
41
1
10
104.239623489649
20
6.39778321594315
30
0
41
1
10
104.332759674641
20
6.0529269348502
30
0
41
1
10
104.379327767136
20
5.86659314194128
30
0
41
1
10
104.472463952127
20
5.46925875471371
30
0
41
1
10
104.519032044623
20
5.25826559051248
30
0
41
1
10
104.612168229614
20
4.81573923613755
30
0
41
1
10
104.65873632211
20
4.58421609469798
30
0
41
1
10
104.751872507101
20
4.10546470534098
30
0
41
1
10
104.798440599597
20
3.85824774986719
30
0
41
1
10
104.891576784588
20
3.35332602778004
30
0
41
1
10
104.938144877084
20
3.09563229218645
30
0
41
1
10
105.031281062075
20
2.57501599710656
30
0
41
1
10
105.077849154571
20
2.31210289760597
30
0
41
1
10
105.170985339562
20
1.78603639958502
30
0
41
1
10
105.217553432058
20
1.52289001240865
30
0
41
1
10
105.310689617049
20
1.00082498352606
30
0
41
1
10
105.357257709544
20
0.741910550617717
30
0
41
1
10
105.427109848288
20
0.359543486685453
30
0
41
1
10
105.450393894536
20
0.233082799927985
30
0
41
1
10
105.485319963907
20
0.0451839949392365
30
0
41
1
10
105.496961987031
20
-0.0169586166346107
30
0
41
1
10
105.520246033279
20
-0.142043546310617
30
0
41
1
10
105.531888056403
20
-0.204887850633696
30
0
41
1
10
105.590098172023
20
-0.520498670610579
30
0
41
1
10
105.636666264518
20
-0.777463008905329
30
0
41
1
10
105.683234357014
20
-1.03712612628163
30
0
0
SPLINE
5
DC
100
AcDbEntity
8
1
62
256
6
ByLayer
370
13
48
1
60
0
100
AcDbSpline
70
4
71
3
72
42
73
38
40
0
40
0
40
0
40
0
40
0.0624999999999989
40
0.0624999999999989
40
0.124999999999998
40
0.124999999999998
40
0.187499999999997
40
0.187499999999997
40
0.249999999999995
40
0.249999999999995
40
0.312499999999994
40
0.312499999999994
40
0.343749999999994
40
0.343749999999994
40
0.359374999999994
40
0.359374999999994
40
0.374999999999995
40
0.374999999999995
40
0.437499999999995
40
0.437499999999995
40
0.499999999999996
40
0.499999999999996
40
0.562499999999996
40
0.562499999999996
40
0.624999999999997
40
0.624999999999997
40
0.687499999999997
40
0.687499999999997
40
0.749999999999998
40
0.749999999999998
40
0.812499999999998
40
0.812499999999998
40
0.874999999999999
40
0.874999999999999
40
0.937499999999999
40
0.937499999999999
40
1
40
1
40
1
40
1
41
1
10
97.5
20
-6.12462194078483
30
0
41
1
10
97.5672207675582
20
-5.86811908525419
30
0
41
1
10
97.6344415351163
20
-5.58309143643578
30
0
41
1
10
97.7688830702326
20
-4.9667105924608
30
0
41
1
10
97.8361038377907
20
-4.63541486960787
30
0
41
1
10
97.9705453729069
20
-3.94082310313408
30
0
41
1
10
98.0377661404651
20
-3.57759754838736
30
0
41
1
10
98.1722076755814
20
-2.83502753591028
30
0
41
1
10
98.2394284431396
20
-2.45574758597081
30
0
41
1
10
98.3738699782558
20
-1.69640899826246
30
0
41
1
10
98.4410907458139
20
-1.31639476367863
30
0
41
1
10
98.5419218971512
20
-0.755628023510127
30
0
41
1
10
98.5755322809302
20
-0.570226746861152
30
0
41
1
10
98.6259478565988
20
-0.29541236446164
30
0
41
1
10
98.6427530484884
20
-0.2043538822588
30
0
41
1
10
98.6763634322674
20
-0.0234775312418378
30
0
41
1
10
98.6931686241569
20
0.0661430035576132
30
0
41
1
10
98.7771945836046
20
0.51930300426946
30
0
41
1
10
98.8444153511628
20
0.891705518394872
30
0
41
1
10
98.978856886279
20
1.64540597456448
30
0
41
1
10
99.0460776538372
20
2.02667734715018
30
0
41
1
10
99.1805191889534
20
2.78426978207199
30
0
41
1
10
99.2477399565116
20
3.16053968384992
30
0
41
1
10
99.3821814916279
20
3.89246667710552
30
0
41
1
10
99.449402259186
20
4.24805573342965
30
0
41
1
10
99.5838437943022
20
4.92296936978499
30
0
41
1
10
99.6510645618604
20
5.24222525175622
30
0
41
1
10
99.7855060969766
20
5.83095193876798
30
0
41
1
10
99.8527268645347
20
6.10037233495561
30
0
41
1
10
99.9871683996511
20
6.57989706823543
30
0
41
1
10
100.054389167209
20
6.7899825674269
30
0
41
1
10
100.188830702326
20
7.14637705669179
30
0
41
1
10
100.256051469884
20
7.29270063936241
30
0
41
1
10
100.390493005
20
7.52224047093515
30
0
41
1
10
100.457713772558
20
7.60549569956024
30
0
41
1
10
100.592155307674
20
7.71385091780164
30
0
41
1
10
100.659376075232
20
7.739
30
0
41
1
10
100.726596842791
20
7.739
30
0
0
SPLINE
5
DD
100
AcDbEntity
8
1
62
256
6
ByLayer
370
13
48
1
60
0
100
AcDbSpline
70
4
71
3
72
40
73
36
40
0
40
0
40
0
40
0
40
0.0624999999999998
40
0.0624999999999998
40
0.125
40
0.125
40
0.187499999999999
40
0.187499999999999
40
0.249999999999999
40
0.249999999999999
40
0.312499999999999
40
0.312499999999999
40
0.374999999999999
40
0.374999999999999
40
0.437499999999999
40
0.437499999999999
40
0.499999999999998
40
0.499999999999998
40
0.562499999999998
40
0.562499999999998
40
0.624999999999998
40
0.624999999999998
40
0.687499999999997
40
0.687499999999997
40
0.718749999999997
40
0.718749999999997
40
0.749999999999997
40
0.749999999999997
40
0.812499999999998
40
0.812499999999998
40
0.874999999999999
40
0.874999999999999
40
0.937499999999999
40
0.937499999999999
40
1
40
1
40
1
40
1
41
1
10
102.952302124885
20
7.739
30
0
41
1
10
103.009196546388
20
7.739
30
0
41
1
10
103.066090967891
20
7.72100300232026
30
0
41
1
10
103.179879810896
20
7.64420710358868
30
0
41
1
10
103.236774232399
20
7.58538667445657
30
0
41
1
10
103.350563075404
20
7.42345767666197
30
0
41
1
10
103.407457496907
20
7.32033005663538
30
0
41
1
10
103.521246339912
20
7.06828736732424
30
0
41
1
10
103.578140761415
20
6.91936030490768
30
0
41
1
10
103.69192960442
20
6.57668994727283
30
0
41
1
10
103.748824025923
20
6.38294563387385
30
0
41
1
10
103.862612868928
20
5.95429145393456
30
0
41
1
10
103.919507290431
20
5.71939324885426
30
0
41
1
10
104.033296133436
20
5.21460557116848
30
0
41
1
10
104.090190554939
20
4.94473896264336
30
0
41
1
10
104.203979397944
20
4.37818550738462
30
0
41
1
10
104.260873819447
20
4.08152829422858
30
0
41
1
10
104.374662662452
20
3.47075437028022
30
0
41
1
10
104.431557083955
20
3.15666810207978
30
0
41
1
10
104.54534592696
20
2.52066167730922
30
0
41
1
10
104.602240348463
20
2.19876723961846
30
0
41
1
10
104.716029191468
20
1.55617230472967
30
0
41
1
10
104.772923612971
20
1.23548925214226
30
0
41
1
10
104.858265245225
20
0.761188452087595
30
0
41
1
10
104.886712455976
20
0.604197399155169
30
0
41
1
10
104.943606877479
20
0.293251526462427
30
0
41
1
10
104.97205408823
20
0.139496414780439
30
0
41
1
10
105.057395720484
20
-0.31737315305557
30
0
41
1
10
105.114290141987
20
-0.629425834650675
30
0
41
1
10
105.228078984992
20
-1.26231660161707
30
0
41
1
10
105.284973406495
20
-1.58314626904425
30
0
41
1
10
105.398762249501
20
-2.22579669576132
30
0
41
1
10
105.455656671003
20
-2.54759975329898
30
0
41
1
10
105.569445514009
20
-3.18315865017766
30
0
41
1
10
105.626339935511
20
-3.49688857840297
30
0
41
1
10
105.683234357014
20
-3.80178418457084
30
0
0
SPLINE
5
DE
100
AcDbEntity
8
1
62
256
6
ByLayer
370
13
48
1
60
0
100
AcDbSpline
70
4
71
3
72
40
73
36
40
0
40
0
40
0
40
0
40
0.0625000000000001
40
0.0625000000000001
40
0.125
40
0.125
40
0.1875
40
0.1875
40
0.250000000000001
40
0.250000000000001
40
0.28125
40
0.28125
40
0.3125
40
0.3125
40
0.375
40
0.375
40
0.4375
40
0.4375
40
0.5
40
0.5
40
0.5625
40
0.5625
40
0.625
40
0.625
40
0.6875
40
0.6875
40
0.75
40
0.75
40
0.8125
40
0.8125
40
0.875
40
0.875
40
0.9375
40
0.9375
40
1
40
1
40
1
40
1
41
1
10
97.5
20
-3.80178856994246
30
0
41
1
10
97.5568944385511
20
-3.49689295715339
30
0
41
1
10
97.6137888771022
20
-3.18316299391884
30
0
41
1
10
97.7275777542043
20
-2.54760397958799
30
0
41
1
10
97.7844721927554
20
-2.22580083967674
30
0
41
1
10
97.8982610698576
20
-1.58315021307314
30
0
41
1
10
97.9551555084087
20
-1.26232042819799
30
0
41
1
10
98.0689443855109
20
-0.629429404249379
30
0
41
1
10
98.1258388240619
20
-0.317376583167885
30
0
41
1
10
98.2111804818886
20
0.139493201403894
30
0
41
1
10
98.2396277011642
20
0.29324828620625
30
0
41
1
10
98.2965221397152
20
0.604194210344872
30
0
41
1
10
98.3249693589908
20
0.761185292548191
30
0
41
1
10
98.4103110168174
20
1.23548619102681
30
0
41
1
10
98.4672054553685
20
1.55616932347343
30
0
41
1
10
98.5809943324706
20
2.19876444427055
30
0
41
1
10
98.6378887710217
20
2.52065898801186
30
0
41
1
10
98.751677648124
20
3.1566656457378
30
0
41
1
10
98.808572086675
20
3.4707520408233
30
0
41
1
10
98.9223609637771
20
4.0815262312457
30
0
41
1
10
98.9792554023282
20
4.37818358395054
30
0
41
1
10
99.0930442794304
20
4.94473732095634
30
0
41
1
10
99.1499387179815
20
5.21460407162729
30
0
41
1
10
99.2637275950837
20
5.71939202572318
30
0
41
1
10
99.3206220336347
20
5.9542903650167
30
0
41
1
10
99.4344109107368
20
6.38294479609905
30
0
41
1
10
99.491305349288
20
6.57668922639172
30
0
41
1
10
99.6050942263902
20
6.91935979361514
30
0
41
1
10
99.6619886649413
20
7.06828694871334
30
0
41
1
10
99.7757775420434
20
7.3203297955252
30
0
41
1
10
99.8326719805946
20
7.42345748038039
30
0
41
1
10
99.9464608576968
20
7.58538657960611
30
0
41
1
10
100.003355296248
20
7.64420704536627
30
0
41
1
10
100.11714417335
20
7.72100299150705
30
0
41
1
10
100.174038611901
20
7.739
30
0
41
1
10
100.230933050452
20
7.739
30
0
0
SPLINE
5
DF
100
AcDbEntity
8
1
62
256
6
ByLayer
370
13
48
1
60
0
100
AcDbSpline
70
4
71
3
72
42
73
38
40
0
40
0
40
0
40
0
40
0.0625000000000014
40
0.0625000000000014
40
0.125000000000003
40
0.125000000000003
40
0.187500000000004
40
0.187500000000004
40
0.250000000000006
40
0.250000000000006
40
0.312500000000007
40
0.312500000000007
40
0.375000000000009
40
0.375000000000009
40
0.43750000000001
40
0.43750000000001
40
0.500000000000012
40
0.500000000000012
40
0.562500000000013
40
0.562500000000013
40
0.625000000000015
40
0.625000000000015
40
0.640625000000015
40
0.640625000000015
40
0.656250000000014
40
0.656250000000014
40
0.687500000000013
40
0.687500000000013
40
0.750000000000011
40
0.750000000000011
40
0.812500000000008
40
0.812500000000008
40
0.875000000000005
40
0.875000000000005
40
0.937500000000003
40
0.937500000000003
40
1
40
1
40
1
40
1
41
1
10
102.456638332547
20
7.739
30
0
41
1
10
102.523859083056
20
7.739
30
0
41
1
10
102.591079833566
20
7.71385093060661
30
0
41
1
10
102.725521334586
20
7.60549576919777
30
0
41
1
10
102.792742085095
20
7.52224058466146
30
0
41
1
10
102.927183586115
20
7.29270087492878
30
0
41
1
10
102.994404336625
20
7.14637737004966
30
0
41
1
10
103.128845837644
20
6.78998306756179
30
0
41
1
10
103.196066588154
20
6.579897677351
30
0
41
1
10
103.330508089173
20
6.10037318523379
30
0
41
1
10
103.397728839683
20
5.83095292116917
30
0
41
1
10
103.532170340703
20
5.24222650903116
30
0
41
1
10
103.599391091212
20
4.9229707697134
30
0
41
1
10
103.733832592232
20
4.24805741456692
30
0
41
1
10
103.801053342741
20
3.89246849669769
30
0
41
1
10
103.935494843761
20
3.16054176248647
30
0
41
1
10
104.002715594271
20
2.78427198122958
30
0
41
1
10
104.13715709529
20
2.02667975933258
30
0
41
1
10
104.2043778458
20
1.64540847923124
30
0
41
1
10
104.338819346819
20
0.891708174834747
30
0
41
1
10
104.406040097329
20
0.519305720022032
30
0
41
1
10
104.490066035466
20
0.0661457725073262
30
0
41
1
10
104.506871223093
20
-0.0234747458461015
30
0
41
1
10
104.540481598348
20
-0.204351025211963
30
0
41
1
10
104.557286785976
20
-0.29540947200914
30
0
41
1
10
104.607702348858
20
-0.570223749830376
30
0
41
1
10
104.641312724113
20
-0.755624958941183
30
0
41
1
10
104.742143849878
20
-1.31639150625696
30
0
41
1
10
104.809364600387
20
-1.69640562529517
30
0
41
1
10
104.943806101407
20
-2.45574402598518
30
0
41
1
10
105.011026851916
20
-2.83502390458179
30
0
41
1
10
105.145468352936
20
-3.57759383487613
30
0
41
1
10
105.212689103446
20
-3.94081937891192
30
0
41
1
10
105.347130604465
20
-4.63541119506439
30
0
41
1
10
105.414351354975
20
-4.96670697838405
30
0
41
1
10
105.548792855994
20
-5.58308801586975
30
0
41
1
10
105.616013606504
20
-5.86811579772035
30
0
41
1
10
105.683234357014
20
-6.12461881820238
30
0
0
SPLINE
5
E0
100
AcDbEntity
8
1
62
256
6
ByLayer
370
13
48
1
60
0
100
AcDbSpline
70
4
71
3
72
42
73
38
40
0
40
0
40
0
40
0
40
0.0624999999999966
40
0.0624999999999966
40
0.0781249999999961
40
0.0781249999999961
40
0.0937499999999955
40
0.0937499999999955
40
0.124999999999996
40
0.124999999999996
40
0.187499999999996
40
0.187499999999996
40
0.249999999999996
40
0.249999999999996
40
0.312499999999997
40
0.312499999999997
40
0.374999999999997
40
0.374999999999997
40
0.437499999999997
40
0.437499999999997
40
0.499999999999998
40
0.499999999999998
40
0.562499999999998
40
0.562499999999998
40
0.624999999999998
40
0.624999999999998
40
0.687499999999998
40
0.687499999999998
40
0.749999999999999
40
0.749999999999999
40
0.812499999999999
40
0.812499999999999
40
0.874999999999999
40
0.874999999999999
40
0.9375
40
0.9375
40
1
40
1
40
1
40
1
41
1
10
97.5
20
-1.03713068924335
30
0
41
1
10
97.5465681095441
20
-0.777467445557591
30
0
41
1
10
97.593136219088
20
-0.520502971432762
30
0
41
1
10
97.6513463560182
20
-0.204891974906047
30
0
41
1
10
97.6629883834041
20
-0.142047634932936
30
0
41
1
10
97.6862724381762
20
-0.0169626333963322
30
0
41
1
10
97.6979144655622
20
0.0451799949084659
30
0
41
1
10
97.7328405477202
20
0.233078830695916
30
0
41
1
10
97.7561246024923
20
0.359539540853604
30
0
41
1
10
97.8259767668083
20
0.741906683697437
30
0
41
1
10
97.8725448763523
20
1.00082118087587
30
0
41
1
10
97.9656810954403
20
1.52288636114292
30
0
41
1
10
98.0122492049844
20
1.78603283543933
30
0
41
1
10
98.1053854240724
20
2.31209952847641
30
0
41
1
10
98.1519535336165
20
2.57501273587218
30
0
41
1
10
98.2450897527045
20
3.0956292637631
30
0
41
1
10
98.2916578622486
20
3.35332312426363
30
0
41
1
10
98.3847940813366
20
3.85824510788453
30
0
41
1
10
98.4313621908807
20
4.10546219996854
30
0
41
1
10
98.5244984099687
20
4.58421386780432
30
0
41
1
10
98.5710665195127
20
4.81573715109019
30
0
41
1
10
98.6642027386008
20
5.2582637873854
30
0
41
1
10
98.7107708481448
20
5.46925709163645
30
0
41
1
10
98.8039070672329
20
5.86659175030272
30
0
41
1
10
98.850475176777
20
6.0529256745788
30
0
41
1
10
98.9436113958651
20
6.39778220370346
30
0
41
1
10
98.9901795054091
20
6.55630092833275
30
0
41
1
10
99.0833157244972
20
6.84351307652813
30
0
41
1
10
99.1298838340412
20
6.97220646199784
30
0
41
1
10
99.2230200531292
20
7.19895860066566
30
0
41
1
10
99.2695881626732
20
7.29702079431732
30
0
41
1
10
99.3627243817613
20
7.4628528400047
30
0
41
1
10
99.4092924913053
20
7.53062874408974
30
0
41
1
10
99.5024287103934
20
7.63723598848256
30
0
41
1
10
99.5489968199374
20
7.67607487407599
30
0
41
1
10
99.6421330390256
20
7.72695291535584
30
0
41
1
10
99.6887011485696
20
7.739
30
0
41
1
10
99.7352692581136
20
7.739
30
0
0
SPLINE
5
E1
100
AcDbEntity
8
1
62
256
6
ByLayer
370
13
48
1
60
0
100
AcDbSpline
70
4
71
3
72
44
73
40
40
0
40
0
40
0
40
0
40
0.0624999999999973
40
0.0624999999999973
40
0.124999999999995
40
0.124999999999995
40
0.187499999999992
40
0.187499999999992
40
0.249999999999989
40
0.249999999999989
40
0.312499999999987
40
0.312499999999987
40
0.374999999999984
40
0.374999999999984
40
0.437499999999982
40
0.437499999999982
40
0.499999999999979
40
0.499999999999979
40
0.531249999999977
40
0.531249999999977
40
0.546874999999977
40
0.546874999999977
40
0.554687499999977
40
0.554687499999977
40
0.562499999999977
40
0.562499999999977
40
0.62499999999998
40
0.62499999999998
40
0.687499999999983
40
0.687499999999983
40
0.749999999999987
40
0.749999999999987
40
0.81249999999999
40
0.81249999999999
40
0.874999999999994
40
0.874999999999994
40
0.937499999999997
40
0.937499999999997
40
1
40
1
40
1
40
1
41
1
10
101.960974540208
20
7.739
30
0
41
1
10
102.038521619725
20
7.739
30
0
41
1
10
102.116068699242
20
7.70548738808151
30
0
41
1
10
102.271162858275
20
7.55980339583121
30
0
41
1
10
102.348709937792
20
7.44753341337241
30
0
41
1
10
102.503804096826
20
7.13800348605577
30
0
41
1
10
102.581351176342
20
6.94067676493592
30
0
41
1
10
102.736445335376
20
6.46282336696422
30
0
41
1
10
102.813992414893
20
6.18229737687022
30
0
41
1
10
102.969086573926
20
5.54907303992505
30
0
41
1
10
103.046633653443
20
5.19645458808202
30
0
41
1
10
103.201727812477
20
4.4381131878072
30
0
41
1
10
103.279274891994
20
4.03252462296305
30
0
41
1
10
103.434369051027
20
3.19200754808739
30
0
41
1
10
103.511916130544
20
2.75721896518181
30
0
41
1
10
103.667010289577
20
1.88244956096591
30
0
41
1
10
103.744557369094
20
1.4425695603949
30
0
41
1
10
103.860877988369
20
0.794428969493481
30
0
41
1
10
103.899651528128
20
0.580292770818232
30
0
41
1
10
103.957811837765
20
0.263509450976358
30
0
41
1
10
103.977198607645
20
0.158648997593957
30
0
41
1
10
104.006278762463
20
0.0026275216938814
30
0
41
1
10
104.015972147403
20
-0.0491537680497345
30
0
41
1
10
104.035358917282
20
-0.153418103912514
30
0
41
1
10
104.045052302222
20
-0.205757622373937
30
0
41
1
10
104.132292766678
20
-0.678554610188826
30
0
41
1
10
104.209839846195
20
-1.11143719008012
30
0
41
1
10
104.364934005229
20
-1.98493922342078
30
0
41
1
10
104.442481084745
20
-2.42549161947008
30
0
41
1
10
104.597575243779
20
-3.29191259200911
30
0
41
1
10
104.675122323296
20
-3.7176602042633
30
0
41
1
10
104.830216482329
20
-4.53000858777162
30
0
41
1
10
104.907763561846
20
-4.91646539114862
30
0
41
1
10
105.06285772088
20
-5.62784803716491
30
0
41
1
10
105.140404800396
20
-5.95265684633267
30
0
41
1
10
105.29549895943
20
-6.52455302124122
30
0
41
1
10
105.373046038947
20
-6.77159225153642
30
0
41
1
10
105.52814019798
20
-7.18056920196821
30
0
41
1
10
105.605687277497
20
-7.34253734260116
30
0
41
1
10
105.683234357014
20
-7.46280324056653
30
0
0
SPLINE
5
E2
100
AcDbEntity
8
1
62
256
6
ByLayer
370
13
48
1
60
0
100
AcDbSpline
70
4
71
3
72
22
73
18
40
0
40
0
40
0
40
0
40
0.125
40
0.125
40
0.25
40
0.25
40
0.375
40
0.375
40
0.5
40
0.5
40
0.625
40
0.625
40
0.75
40
0.75
40
0.875
40
0.875
40
1
40
1
40
1
40
1
41
1
10
97.5
20
1.69248416008318
30
0
41
1
10
97.5724835610739
20
2.10135012082506
30
0
41
1
10
97.6449671221479
20
2.5125283464227
30
0
41
1
10
97.7899342442959
20
3.3210793998025
30
0
41
1
10
97.8624178053698
20
3.71836442685148
30
0
41
1
10
98.0073849275177
20
4.47916318162308
30
0
41
1
10
98.0798684885917
20
4.84257396603817
30
0
41
1
10
98.2248356107396
20
5.51718263415214
30
0
41
1
10
98.2973191718136
20
5.82829376462888
30
0
41
1
10
98.4422862939615
20
6.38435699304688
30
0
41
1
10
98.5147698550355
20
6.6292661316383
30
0
41
1
10
98.6597369771835
20
7.04551514835777
30
0
41
1
10
98.7322205382574
20
7.21686546469206
30
0
41
1
10
98.8771876604053
20
7.48562626953955
30
0
41
1
10
98.9496712214792
20
7.58308915118894
30
0
41
1
10
99.0946383436272
20
7.70974051045735
30
0
41
1
10
99.1671219047012
20
7.739
30
0
41
1
10
99.2396054657751
20
7.739
30
0
0
SPLINE
5
E3
100
AcDbEntity
8
1
62
256
6
ByLayer
370
13
48
1
60
0
100
AcDbSpline
70
4
71
3
72
71
73
67
40
0
40
0
40
0
40
0
40
0.0624999999999994
40
0.0624999999999994
40
0.0937499999999991
40
0.0937499999999991
40
0.124999999999999
40
0.124999999999999
40
0.156249999999999
40
0.156249999999999
40
0.187499999999998
40
0.187499999999998
40
0.218749999999998
40
0.218749999999998
40
0.249999999999998
40
0.249999999999998
40
0.281249999999997
40
0.281249999999997
40
0.312499999999997
40
0.312499999999997
40
0.343749999999996
40
0.343749999999996
40
0.374999999999996
40
0.374999999999996
40
0.406249999999995
40
0.406249999999995
40
0.437499999999995
40
0.437499999999995
40
0.468749999999994
40
0.468749999999994
40
0.484374999999995
40
0.484374999999995
40
0.499999999999995
40
0.499999999999995
40
0.562499999999996
40
0.562499999999996
40
0.593749999999996
40
0.593749999999996
40
0.624999999999997
40
0.624999999999997
40
0.656249999999997
40
0.656249999999997
40
0.687499999999998
40
0.687499999999998
40
0.718749999999998
40
0.718749999999998
40
0.749999999999999
40
0.749999999999999
40
0.781249999999999
40
0.781249999999999
40
0.8125
40
0.8125
40
0.84375
40
0.84375
40
0.875000000000001
40
0.875000000000001
40
0.906250000000001
40
0.906250000000001
40
0.937500000000002
40
0.937500000000002
40
0.968750000000002
40
0.968750000000002
40
0.976562500000002
40
0.976562500000002
40
0.984375000000001
40
1
40
1
40
1
40
1
41
1
10
101.46531074787
20
7.739
30
0
41
1
10
101.553184156393
20
7.739
30
0
41
1
10
101.641057564917
20
7.69590061467017
30
0
41
1
10
101.772867677703
20
7.55422857185008
30
0
41
1
10
101.816804381965
20
7.49421729440402
30
0
41
1
10
101.904677790489
20
7.34739235045811
30
0
41
1
10
101.948614494751
20
7.26057390443867
30
0
41
1
10
102.036487903275
20
7.0596651710344
30
0
41
1
10
102.080424607537
20
6.94557179962419
30
0
41
1
10
102.168298016061
20
6.69053447625771
30
0
41
1
10
102.212234720322
20
6.5495897689959
30
0
41
1
10
102.300108128846
20
6.2422216073526
30
0
41
1
10
102.344044833108
20
6.07580007915828
30
0
41
1
10
102.431918241632
20
5.71978415247122
30
0
41
1
10
102.475854945894
20
5.53019432061356
30
0
41
1
10
102.563728354418
20
5.13098373831781
30
0
41
1
10
102.60766505868
20
4.92136973276331
30
0
41
1
10
102.695538467203
20
4.48591696312943
30
0
41
1
10
102.739475171465
20
4.26008631533989
30
0
41
1
10
102.827348579989
20
3.79644429690265
30
0
41
1
10
102.871285284251
20
3.5586414246356
30
0
41
1
10
102.959158692775
20
3.07548370604522
30
0
41
1
10
103.003095397037
20
2.83013676767138
30
0
41
1
10
103.090968805561
20
2.33625459635005
30
0
41
1
10
103.134905509823
20
2.0877259026388
30
0
41
1
10
103.222778918346
20
1.59155933443097
30
0
41
1
10
103.266715622608
20
1.34392615643006
30
0
41
1
10
103.354589031132
20
0.853175093135519
30
0
41
1
10
103.398525735394
20
0.610059917193212
30
0
41
1
10
103.464430791787
20
0.251067481057788
30
0
41
1
10
103.486399143918
20
0.132345395825183
30
0
41
1
10
103.53033584818
20
-0.102890402240035
30
0
41
1
10
103.552304200311
20
-0.221266330781333
30
0
41
1
10
103.662145960966
20
-0.818795730603
30
0
41
1
10
103.750019369489
20
-1.31248094043758
30
0
41
1
10
103.881829482275
20
-2.0566132213587
30
0
41
1
10
103.925766186537
20
-2.30518343110066
30
0
41
1
10
104.013639595061
20
-2.79932587915664
30
0
41
1
10
104.057576299323
20
-3.04489164801456
30
0
41
1
10
104.145449707847
20
-3.52867210700083
30
0
41
1
10
104.189386412109
20
-3.76687893261459
30
0
41
1
10
104.277259820632
20
-4.2315118591678
30
0
41
1
10
104.321196524895
20
-4.45792946773935
30
0
41
1
10
104.409069933418
20
-4.89472638923127
30
0
41
1
10
104.45300663768
20
-5.10509754954552
30
0
41
1
10
104.540880046204
20
-5.50596965024769
30
0
41
1
10
104.584816750466
20
-5.69646377043745
30
0
41
1
10
104.67269015899
20
-6.05440390679775
30
0
41
1
10
104.716626863252
20
-6.22184525333776
30
0
41
1
10
104.804500271775
20
-6.5313312799025
30
0
41
1
10
104.848436976037
20
-6.67337391969309
30
0
41
1
10
104.936310384561
20
-6.9306454263415
30
0
41
1
10
104.980247088823
20
-7.04587494115239
30
0
41
1
10
105.068120497347
20
-7.2490552534239
30
0
41
1
10
105.112057201609
20
-7.33700904890154
30
0
41
1
10
105.199930610133
20
-7.4860687944248
30
0
41
1
10
105.243867314395
20
-7.54717946803495
30
0
41
1
10
105.331740722918
20
-7.64376119599879
30
0
41
1
10
105.37567742718
20
-7.67923794413775
30
0
41
1
10
105.463550835704
20
-7.72637814501746
30
0
41
1
10
105.507487539966
20
-7.73804752777889
30
0
41
1
10
105.562408420293
20
-7.73916799599755
30
0
41
1
10
105.573392596359
20
-7.73872399475022
30
0
41
1
10
105.59536094849
20
-7.73646789780221
30
0
41
1
10
105.628313476687
20
-7.73102933333627
30
0
41
1
10
105.661266004883
20
-7.71926108625394
30
0
41
1
10
105.683234357014
20
-7.70846495471514
30
0
0
SPLINE
5
E4
100
AcDbEntity
8
1
62
256
6
ByLayer
370
13
48
1
60
0
100
AcDbSpline
70
4
71
3
72
22
73
18
40
0
40
0
40
0
40
0
40
0.125
40
0.125
40
0.25
40
0.25
40
0.375
40
0.375
40
0.5
40
0.5
40
0.625
40
0.625
40
0.75
40
0.75
40
0.875
40
0.875
40
1
40
1
40
1
40
1
41
1
10
97.5
20
4.41348632948214
30
0
41
1
10
97.5518309030598
20
4.67821718704974
30
0
41
1
10
97.6036618061198
20
4.93291184671568
30
0
41
1
10
97.7073236122395
20
5.41571301159794
30
0
41
1
10
97.7591545152993
20
5.64380313731397
30
0
41
1
10
97.862816321419
20
6.06801806285048
30
0
41
1
10
97.9146472244789
20
6.26413201296674
30
0
41
1
10
98.0183090305986
20
6.62061262418024
30
0
41
1
10
98.0701399336584
20
6.78097551925595
30
0
41
1
10
98.1738017397781
20
7.06399114488471
30
0
41
1
10
98.225632642838
20
7.18664719335158
30
0
41
1
10
98.3292944489578
20
7.39411056810502
30
0
41
1
10
98.3811253520176
20
7.47892690042639
30
0
41
1
10
98.4847871581373
20
7.61220520632219
30
0
41
1
10
98.5366180611971
20
7.66067964147919
30
0
41
1
10
98.6402798673168
20
7.72407026993673
30
0
41
1
10
98.6921107703768
20
7.739
30
0
41
1
10
98.7439416734367
20
7.739
30
0
0
SPLINE
5
E5
100
AcDbEntity
8
1
62
256
6
ByLayer
370
13
48
1
60
0
100
AcDbSpline
70
4
71
3
72
78
73
74
40
0
40
0
40
0
40
0
40
0.0312500000000001
40
0.0312500000000001
40
0.0625000000000002
40
0.0625000000000002
40
0.0937500000000003
40
0.0937500000000003
40
0.125
40
0.125
40
0.156250000000001
40
0.156250000000001
40
0.187500000000001
40
0.187500000000001
40
0.218750000000001
40
0.218750000000001
40
0.250000000000001
40
0.250000000000001
40
0.281250000000001
40
0.281250000000001
40
0.312500000000001
40
0.312500000000001
40
0.343750000000001
40
0.343750000000001
40
0.375000000000001
40
0.375000000000001
40
0.406250000000001
40
0.406250000000001
40
0.421875000000001
40
0.421875000000001
40
0.429687500000001
40
0.429687500000001
40
0.437500000000001
40
0.437500000000001
40
0.468750000000001
40
0.468750000000001
40
0.500000000000001
40
0.500000000000001
40
0.531250000000001
40
0.531250000000001
40
0.562500000000001
40
0.562500000000001
40
0.593750000000001
40
0.593750000000001
40
0.625000000000001
40
0.625000000000001
40
0.65625
40
0.65625
40
0.6875
40
0.6875
40
0.71875
40
0.71875
40
0.75
40
0.75
40
0.78125
40
0.78125
40
0.8125
40
0.8125
40
0.84375
40
0.84375
40
0.859375
40
0.859375
40
0.8671875
40
0.8671875
40
0.875
40
0.875
40
0.90625
40
0.90625
40
0.9375
40
0.9375
40
0.96875
40
0.96875
40
1
40
1
40
1
40
1
41
1
10
100.969646955531
20
7.739
30
0
41
1
10
101.018746824297
20
7.739
30
0
41
1
10
101.067846693062
20
7.72560495883238
30
0
41
1
10
101.166046430593
20
7.66888705389749
30
0
41
1
10
101.215146299358
20
7.62555385844899
30
0
41
1
10
101.313346036889
20
7.50650923833095
30
0
41
1
10
101.362445905655
20
7.43078812846306
30
0
41
1
10
101.460645643186
20
7.24552975226413
30
0
41
1
10
101.509745511951
20
7.1359850675108
30
0
41
1
10
101.607945249482
20
6.88291711960801
30
0
41
1
10
101.657045118247
20
6.73939028663503
30
0
41
1
10
101.755244855778
20
6.41964187521467
30
0
41
1
10
101.804344724544
20
6.24342169569596
30
0
41
1
10
101.902544462075
20
5.86105294285235
30
0
41
1
10
101.95164433084
20
5.65491101601671
30
0
41
1
10
102.049844068371
20
5.21682708386743
30
0
41
1
10
102.098943937136
20
4.98489623303928
30
0
41
1
10
102.197143674667
20
4.50045384816505
30
0
41
1
10
102.246243543433
20
4.24795634293093
30
0
41
1
10
102.344443280964
20
3.7283062992328
30
0
41
1
10
102.393543149729
20
3.46116853681374
30
0
41
1
10
102.49174288726
20
2.91842929681278
30
0
41
1
10
102.540842756025
20
2.64284125332648
30
0
41
1
10
102.639042493556
20
2.08922742751946
30
0
41
1
10
102.688142362322
20
1.81121215401484
30
0
41
1
10
102.786342099853
20
1.25823982899814
30
0
41
1
10
102.835441968618
20
0.983289541554825
30
0
41
1
10
102.909091771766
20
0.576686088524042
30
0
41
1
10
102.933641706149
20
0.44211513877886
30
0
41
1
10
102.970466607723
20
0.242079243430567
30
0
41
1
10
102.982741574914
20
0.175703567549505
30
0
41
1
10
103.007291509297
20
0.0436150186146449
30
0
41
1
10
103.019566476488
20
-0.0218930085340503
30
0
41
1
10
103.080941312445
20
-0.351748139421971
30
0
41
1
10
103.130041181211
20
-0.621020392057886
30
0
41
1
10
103.228240918742
20
-1.16636617241915
30
0
41
1
10
103.277340787507
20
-1.44243591495839
30
0
41
1
10
103.375540525038
20
-1.99648716067574
30
0
41
1
10
103.424640393803
20
-2.27446103715849
30
0
41
1
10
103.522840131334
20
-2.82668731211595
30
0
41
1
10
103.5719400001
20
-3.10092845135509
30
0
41
1
10
103.670139737631
20
-3.63959713800173
30
0
41
1
10
103.719239606396
20
-3.90401079216915
30
0
41
1
10
103.817439343927
20
-4.41685549978089
30
0
41
1
10
103.866539212693
20
-4.66527175301857
30
0
41
1
10
103.964738950223
20
-5.14031349762058
30
0
41
1
10
104.013838818989
20
-5.36692542504181
30
0
41
1
10
104.11203855652
20
-5.79334520579792
30
0
41
1
10
104.161138425285
20
-5.99314279314322
30
0
41
1
10
104.259338162816
20
-6.36208056919955
30
0
41
1
10
104.308438031581
20
-6.53121525112454
30
0
41
1
10
104.406637769112
20
-6.83637537415666
30
0
41
1
10
104.455737637878
20
-6.97240058022155
30
0
41
1
10
104.553937375409
20
-7.2103785274864
30
0
41
1
10
104.603037244174
20
-7.3123358147021
30
0
41
1
10
104.701236981705
20
-7.48263585778818
30
0
41
1
10
104.75033685047
20
-7.55098668090139
30
0
41
1
10
104.848536588001
20
-7.6557582276846
30
0
41
1
10
104.897636456767
20
-7.69218891441949
30
0
41
1
10
104.971286259915
20
-7.72486287065877
30
0
41
1
10
104.995836194298
20
-7.73209862344757
30
0
41
1
10
105.032661095872
20
-7.73776216523714
30
0
41
1
10
105.044936063063
20
-7.73878527941042
30
0
41
1
10
105.069485997446
20
-7.739153898182
30
0
41
1
10
105.081760964637
20
-7.73850401479106
30
0
41
1
10
105.143135800594
20
-7.73096194938668
30
0
41
1
10
105.192235669359
20
-7.71115922137415
30
0
41
1
10
105.29043540689
20
-7.64100862091564
30
0
41
1
10
105.339535275656
20
-7.59065043152774
30
0
41
1
10
105.437735013187
20
-7.45713804971237
30
0
41
1
10
105.486834881952
20
-7.37397453147838
30
0
41
1
10
105.585034619483
20
-7.17367708073758
30
0
41
1
10
105.634134488249
20
-7.05653645866283
30
0
41
1
10
105.683234357014
20
-6.92248500769853
30
0
0
SPLINE
5
E6
100
AcDbEntity
8
1
62
256
6
ByLayer
370
13
48
1
60
0
100
AcDbSpline
70
4
71
3
72
14
73
10
40
0
40
0
40
0
40
0
40
0.25
40
0.25
40
0.5
40
0.5
40
0.75
40
0.75
40
1
40
1
40
1
40
1
41
1
10
97.5
20
6.54084774695394
30
0
41
1
10
97.5623564900915
20
6.74718649759493
30
0
41
1
10
97.6247129801831
20
6.92723297708923
30
0
41
1
10
97.7494259603661
20
7.23226238657173
30
0
41
1
10
97.8117824504575
20
7.35725975477905
30
0
41
1
10
97.9364954306405
20
7.55341056199663
30
0
41
1
10
97.998851920732
20
7.62459248001358
30
0
41
1
10
98.1235649009151
20
7.71737024670441
30
0
41
1
10
98.1859213910066
20
7.739
30
0
41
1
10
98.2482778810981
20
7.739
30
0
0
SPLINE
5
E7
100
AcDbEntity
8
1
62
256
6
ByLayer
370
13
48
1
60
0
100
AcDbSpline
70
4
71
3
72
77
73
73
40
0
40
0
40
0
40
0
40
0.0312499999999993
40
0.0312499999999993
40
0.0624999999999985
40
0.0624999999999985
40
0.0937499999999978
40
0.0937499999999978
40
0.124999999999997
40
0.124999999999997
40
0.156249999999996
40
0.156249999999996
40
0.187499999999996
40
0.187499999999996
40
0.218749999999995
40
0.218749999999995
40
0.249999999999994
40
0.249999999999994
40
0.281249999999994
40
0.281249999999994
40
0.312499999999993
40
0.312499999999993
40
0.343749999999992
40
0.343749999999992
40
0.374999999999991
40
0.374999999999991
40
0.390624999999991
40
0.390624999999991
40
0.398437499999991
40
0.398437499999991
40
0.406249999999991
40
0.406249999999991
40
0.437499999999992
40
0.437499999999992
40
0.468749999999992
40
0.468749999999992
40
0.499999999999992
40
0.499999999999992
40
0.531249999999993
40
0.531249999999993
40
0.562499999999993
40
0.562499999999993
40
0.593749999999993
40
0.593749999999993
40
0.624999999999994
40
0.624999999999994
40
0.656249999999994
40
0.656249999999994
40
0.687499999999994
40
0.687499999999994
40
0.718749999999995
40
0.718749999999995
40
0.749999999999995
40
0.749999999999995
40
0.781249999999996
40
0.781249999999996
40
0.789062499999996
40
0.789062499999996
40
0.796874999999997
40
0.812499999999997
40
0.812499999999997
40
0.843749999999998
40
0.843749999999998
40
0.874999999999998
40
0.874999999999998
40
0.906249999999999
40
0.906249999999999
40
0.937499999999999
40
0.937499999999999
40
0.96875
40
0.96875
40
1
40
1
40
1
40
1
41
1
10
100.473983163193
20
7.739
30
0
41
1
10
100.528246196462
20
7.739
30
0
41
1
10
100.582509229731
20
7.72263299839432
30
0
41
1
10
100.691035296268
20
7.65297179758699
30
0
41
1
10
100.745298329538
20
7.59966058691586
30
0
41
1
10
100.853824396075
20
7.45298836978691
30
0
41
1
10
100.908087429345
20
7.35961198186828
30
0
41
1
10
101.016613495882
20
7.13128665642788
30
0
41
1
10
101.070876529151
20
6.99632725693021
30
0
41
1
10
101.179402595689
20
6.68531362599626
30
0
41
1
10
101.233665628958
20
6.50925681262342
30
0
41
1
10
101.342191695496
20
6.11873287837298
30
0
41
1
10
101.396454728765
20
5.90427265591609
30
0
41
1
10
101.504980795303
20
5.44177290738602
30
0
41
1
10
101.559243828572
20
5.19374924977748
30
0
41
1
10
101.66776989511
20
4.67075438557882
30
0
41
1
10
101.722032928379
20
4.39580534246235
30
0
41
1
10
101.830558994917
20
3.82680946424395
30
0
41
1
10
101.884822028186
20
3.53278699782084
30
0
41
1
10
101.993348094724
20
2.9339973380514
30
0
41
1
10
102.047611127993
20
2.62925245856172
30
0
41
1
10
102.156137194531
20
2.01715799429272
30
0
41
1
10
102.2104002278
20
1.70982542416527
30
0
41
1
10
102.318926294338
20
1.09988138604118
30
0
41
1
10
102.373189327607
20
0.797280066627707
30
0
41
1
10
102.45458387751
20
0.351493700044188
30
0
41
1
10
102.481715394145
20
0.204240362450577
30
0
41
1
10
102.522412669096
20
-0.0141550805631709
30
0
41
1
10
102.535978427414
20
-0.0866599569116033
30
0
41
1
10
102.563109944048
20
-0.233004888025391
30
0
41
1
10
102.576675702365
20
-0.306573592157463
30
0
41
1
10
102.644504493951
20
-0.67620241930581
30
0
41
1
10
102.69876752722
20
-0.977672581427782
30
0
41
1
10
102.807293593759
20
-1.58625053420226
30
0
41
1
10
102.861556627027
20
-1.89334912384618
30
0
41
1
10
102.970082693566
20
-2.50601755046458
30
0
41
1
10
103.024345726834
20
-2.81157124447847
30
0
41
1
10
103.132871793372
20
-3.41309922203143
30
0
41
1
10
103.187134826641
20
-3.70905174857484
30
0
41
1
10
103.295660893179
20
-4.28301790722901
30
0
41
1
10
103.349923926448
20
-4.56100721080756
30
0
41
1
10
103.458449992986
20
-5.09108327869333
30
0
41
1
10
103.512713026255
20
-5.34314732751076
30
0
41
1
10
103.621239092793
20
-5.81452766029815
30
0
41
1
10
103.675502126062
20
-6.03382703165968
30
0
41
1
10
103.7840281926
20
-6.43456128461617
30
0
41
1
10
103.838291225869
20
-6.61598798114551
30
0
41
1
10
103.946817292407
20
-6.93797475685776
30
0
41
1
10
104.001080325676
20
-7.07853619521228
30
0
41
1
10
104.109606392214
20
-7.31800830203426
30
0
41
1
10
104.163869425483
20
-7.41692852561633
30
0
41
1
10
104.272395492021
20
-7.57438123700982
30
0
41
1
10
104.32665852529
20
-7.63292863934726
30
0
41
1
10
104.435184591828
20
-7.712566913263
30
0
41
1
10
104.489447625097
20
-7.73367475575762
30
0
41
1
10
104.557276416683
20
-7.73921690069474
30
0
41
1
10
104.570842175
20
-7.73929355203072
30
0
41
1
10
104.597973691634
20
-7.73739129970656
30
0
41
1
10
104.638670966586
20
-7.73142683051989
30
0
41
1
10
104.679368241538
20
-7.7158127446902
30
0
41
1
10
104.760762791441
20
-7.67094884340887
30
0
41
1
10
104.81502582471
20
-7.62281663763318
30
0
41
1
10
104.923551891248
20
-7.4868396104246
30
0
41
1
10
104.977814924517
20
-7.39897900140727
30
0
41
1
10
105.086340991055
20
-7.18178080723578
30
0
41
1
10
105.140604024324
20
-7.05243190839619
30
0
41
1
10
105.249130090862
20
-6.75244865322594
30
0
41
1
10
105.303393124131
20
-6.58181052233164
30
0
41
1
10
105.411919190669
20
-6.20163375271875
30
0
41
1
10
105.466182223938
20
-5.99210071665436
30
0
41
1
10
105.574708290476
20
-5.53869054971557
30
0
41
1
10
105.628971323745
20
-5.29482819361746
30
0
41
1
10
105.683234357014
20
-5.03700338536839
30
0
0
SPLINE
5
E8
100
AcDbEntity
8
1
62
256
6
ByLayer
370
13
48
1
60
0
100
AcDbSpline
70
4
71
3
72
8
73
4
40
0
40
0
40
0
40
0
40
1
40
1
40
1
40
1
41
1
10
97.5
20
7.61301577325375
30
0
41
1
10
97.5842046962532
20
7.69944752037941
30
0
41
1
10
97.6684093925064
20
7.739
30
0
41
1
10
97.7526140887596
20
7.739
30
0
0
SPLINE
5
E9
100
AcDbEntity
8
1
62
256
6
ByLayer
370
13
48
1
60
0
100
AcDbSpline
70
4
71
3
72
78
73
74
40
0
40
0
40
0
40
0
40
0.0312499999999995
40
0.0312499999999995
40
0.0624999999999989
40
0.0624999999999989
40
0.0937499999999984
40
0.0937499999999984
40
0.124999999999998
40
0.124999999999998
40
0.156249999999997
40
0.156249999999997
40
0.187499999999997
40
0.187499999999997
40
0.218749999999996
40
0.218749999999996
40
0.249999999999996
40
0.249999999999996
40
0.281249999999995
40
0.281249999999995
40
0.312499999999995
40
0.312499999999995
40
0.343749999999994
40
0.343749999999994
40
0.351562499999994
40
0.351562499999994
40
0.359374999999994
40
0.359374999999994
40
0.374999999999994
40
0.374999999999994
40
0.406249999999993
40
0.406249999999993
40
0.437499999999993
40
0.437499999999993
40
0.468749999999992
40
0.468749999999992
40
0.499999999999991
40
0.499999999999991
40
0.531249999999991
40
0.531249999999991
40
0.56249999999999
40
0.56249999999999
40
0.59374999999999
40
0.59374999999999
40
0.624999999999989
40
0.624999999999989
40
0.656249999999989
40
0.656249999999989
40
0.687499999999988
40
0.687499999999988
40
0.703124999999988
40
0.703124999999988
40
0.710937499999988
40
0.710937499999988
40
0.718749999999988
40
0.718749999999988
40
0.749999999999989
40
0.749999999999989
40
0.781249999999991
40
0.781249999999991
40
0.812499999999992
40
0.812499999999992
40
0.843749999999993
40
0.843749999999993
40
0.874999999999995
40
0.874999999999995
40
0.906249999999996
40
0.906249999999996
40
0.937499999999997
40
0.937499999999997
40
0.968749999999999
40
0.968749999999999
40
1
40
1
40
1
40
1
41
1
10
99.9783193708542
20
7.739
30
0
41
1
10
100.037745568627
20
7.739
30
0
41
1
10
100.097171766399
20
7.71936103749601
30
0
41
1
10
100.216024161944
20
7.63535470693407
30
0
41
1
10
100.275450359717
20
7.57096062006735
30
0
41
1
10
100.394302755262
20
7.39359843079677
30
0
41
1
10
100.453728953034
20
7.28060721756182
30
0
41
1
10
100.572581348579
20
7.00462984476584
30
0
41
1
10
100.632007546352
20
6.84163037739816
30
0
41
1
10
100.750859941897
20
6.46721056755561
30
0
41
1
10
100.810286139669
20
6.25579172177231
30
0
41
1
10
100.929138535214
20
5.78929645121045
30
0
41
1
10
100.988564732987
20
5.53423791517289
30
0
41
1
10
101.107417128532
20
4.98812693716746
30
0
41
1
10
101.166843326304
20
4.69710579815126
30
0
41
1
10
101.285695721849
20
4.08887978386193
30
0
41
1
10
101.345121919622
20
3.77171284660503
30
0
41
1
10
101.463974315167
20
3.12208426820538
30
0
41
1
10
101.523400512939
20
2.78965904665486
30
0
41
1
10
101.642252908484
20
2.12033487333861
30
0
41
1
10
101.701679106257
20
1.78346411531115
30
0
41
1
10
101.820531501802
20
1.1150090132667
30
0
41
1
10
101.879957699574
20
0.783441197418426
30
0
41
1
10
101.95424044679
20
0.377297019975401
30
0
41
1
10
101.969096996233
20
0.296479177995281
30
0
41
1
10
101.998810095119
20
0.135770646519404
30
0
41
1
10
102.013666644562
20
0.0560504150734005
30
0
41
1
10
102.058236292892
20
-0.182685511311149
30
0
41
1
10
102.087949391778
20
-0.343858248871754
30
0
41
1
10
102.177088688437
20
-0.832190381155129
30
0
41
1
10
102.236514886209
20
-1.16422346284469
30
0
41
1
10
102.355367281754
20
-1.83316574044912
30
0
41
1
10
102.414793479526
20
-2.17005780815038
30
0
41
1
10
102.533645875071
20
-2.83890987712928
30
0
41
1
10
102.593072072844
20
-3.17084116817531
30
0
41
1
10
102.711924468389
20
-3.81893794942567
30
0
41
1
10
102.771350666162
20
-4.13506676631661
30
0
41
1
10
102.890203061707
20
-4.74069778362377
30
0
41
1
10
102.949629259479
20
-5.0301621814412
30
0
41
1
10
103.068481655024
20
-5.57272266274279
30
0
41
1
10
103.127907852796
20
-5.82578796921098
30
0
41
1
10
103.246760248342
20
-6.287988010916
30
0
41
1
10
103.306186446114
20
-6.49710563362817
30
0
41
1
10
103.425038841659
20
-6.86676877837144
30
0
41
1
10
103.484465039431
20
-7.02731360621462
30
0
41
1
10
103.603317434977
20
-7.29838375522516
30
0
41
1
10
103.662743632749
20
-7.40892300414347
30
0
41
1
10
103.781596028294
20
-7.58151923244475
30
0
41
1
10
103.841022226066
20
-7.64359964569815
30
0
41
1
10
103.930161522725
20
-7.70331316268329
30
0
41
1
10
103.959874621612
20
-7.71766622441575
30
0
41
1
10
104.004444269941
20
-7.73135588455622
30
0
41
1
10
104.019300819384
20
-7.73461316059968
30
0
41
1
10
104.04901391827
20
-7.73860451277056
30
0
41
1
10
104.063870467713
20
-7.73934154167867
30
0
41
1
10
104.138153214929
20
-7.73691762617827
30
0
41
1
10
104.197579412702
20
-7.71519051487155
30
0
41
1
10
104.316431808246
20
-7.62677282062134
30
0
41
1
10
104.375858006019
20
-7.56005555855151
30
0
41
1
10
104.494710401564
20
-7.37791434033576
30
0
41
1
10
104.554136599337
20
-7.26246761190015
30
0
41
1
10
104.672988994882
20
-6.98158327302204
30
0
41
1
10
104.732415192654
20
-6.81613298736258
30
0
41
1
10
104.851267588199
20
-6.43697200984121
30
0
41
1
10
104.910693785971
20
-6.22326362129354
30
0
41
1
10
105.029546181516
20
-5.7525036318246
30
0
41
1
10
105.088972379289
20
-5.49547068845922
30
0
41
1
10
105.207824774834
20
-4.94585214267315
30
0
41
1
10
105.267250972606
20
-4.65329835212867
30
0
41
1
10
105.386103368151
20
-4.04252815910354
30
0
41
1
10
105.445529565924
20
-3.72434980962137
30
0
41
1
10
105.564381961469
20
-3.07324265148472
30
0
41
1
10
105.623808159241
20
-2.74034999200873
30
0
41
1
10
105.683234357014
20
-2.40547702311602
30
0
0
SPLINE
5
EA
100
AcDbEntity
8
1
62
256
6
ByLayer
370
13
48
1
60
0
100
AcDbSpline
70
4
71
3
72
85
73
81
40
0
40
0
40
0
40
0
40
0.031250000000002
40
0.031250000000002
40
0.062500000000004
40
0.062500000000004
40
0.093750000000006
40
0.093750000000006
40
0.125000000000008
40
0.125000000000008
40
0.15625000000001
40
0.15625000000001
40
0.187500000000012
40
0.187500000000012
40
0.218750000000014
40
0.218750000000014
40
0.250000000000016
40
0.250000000000016
40
0.281250000000018
40
0.281250000000018
40
0.31250000000002
40
0.31250000000002
40
0.328125000000021
40
0.328125000000021
40
0.332031250000021
40
0.332031250000021
40
0.335937500000021
40
0.343750000000021
40
0.343750000000021
40
0.37500000000002
40
0.37500000000002
40
0.406250000000019
40
0.406250000000019
40
0.437500000000018
40
0.437500000000018
40
0.468750000000017
40
0.468750000000017
40
0.500000000000015
40
0.500000000000015
40
0.531250000000014
40
0.531250000000014
40
0.562500000000013
40
0.562500000000013
40
0.593750000000012
40
0.593750000000012
40
0.625000000000011
40
0.625000000000011
40
0.65625000000001
40
0.65625000000001
40
0.66406250000001
40
0.66406250000001
40
0.67187500000001
40
0.67187500000001
40
0.687500000000009
40
0.687500000000009
40
0.718750000000008
40
0.718750000000008
40
0.750000000000007
40
0.750000000000007
40
0.781250000000006
40
0.781250000000006
40
0.812500000000005
40
0.812500000000005
40
0.843750000000004
40
0.843750000000004
40
0.875000000000002
40
0.875000000000002
40
0.906250000000001
40
0.906250000000001
40
0.9375
40
0.9375
40
0.968749999999999
40
0.968749999999999
40
0.984374999999999
40
0.984374999999999
40
0.988281249999999
40
0.988281249999999
40
0.992187499999999
40
0.992187499999999
40
1
40
1
40
1
40
1
41
1
10
99.4826555785157
20
7.739
30
0
41
1
10
99.5472449407918
20
7.739
30
0
41
1
10
99.6118343030678
20
7.71578805603571
30
0
41
1
10
99.7410130276198
20
7.61601786465576
30
0
41
1
10
99.8056023898959
20
7.53941928386979
30
0
41
1
10
99.9347811144479
20
7.32828300414926
30
0
41
1
10
99.9993704767239
20
7.19371224901585
30
0
41
1
10
100.128549201276
20
6.86558576474968
30
0
41
1
10
100.193138563552
20
6.67201518807749
30
0
41
1
10
100.322317288104
20
6.22915027527444
30
0
41
1
10
100.38690665038
20
5.97986691997443
30
0
41
1
10
100.516085374932
20
5.43322652891592
30
0
41
1
10
100.580674737208
20
5.13590635420138
30
0
41
1
10
100.70985346176
20
4.50450507796268
30
0
41
1
10
100.774442824036
20
4.17047811489633
30
0
41
1
10
100.903621548588
20
3.47923284687812
30
0
41
1
10
100.968210910864
20
3.12207200073942
30
0
41
1
10
101.097389635416
20
2.39865487578751
30
0
41
1
10
101.161978997692
20
2.03244591419937
30
0
41
1
10
101.291157722244
20
1.30393421001344
30
0
41
1
10
101.35574708452
20
0.941660549527029
30
0
41
1
10
101.452631127934
20
0.409232002932413
30
0
41
1
10
101.484925809072
20
0.233565823832606
30
0
41
1
10
101.525294160495
20
0.0169174471226938
30
0
41
1
10
101.533367830779
20
-0.0262029584928882
30
0
41
1
10
101.549515171349
20
-0.112904101229816
30
0
41
1
10
101.573736182202
20
-0.243392809962614
30
0
41
1
10
101.597957193055
20
-0.37512270938825
30
0
41
1
10
101.6786938959
20
-0.816643811040734
30
0
41
1
10
101.743283258177
20
-1.17771541767445
30
0
41
1
10
101.872461982729
20
-1.90519704408936
30
0
41
1
10
101.937051345005
20
-2.27158030027849
30
0
41
1
10
102.066230069557
20
-2.99693467839515
30
0
41
1
10
102.130819431833
20
-3.35586031634205
30
0
41
1
10
102.259998156385
20
-4.05227643489405
30
0
41
1
10
102.324587518661
20
-4.38971001222836
30
0
41
1
10
102.453766243213
20
-5.02941760615965
30
0
41
1
10
102.518355605489
20
-5.33163633704115
30
0
41
1
10
102.647534330041
20
-5.88922577682729
30
0
41
1
10
102.712123692317
20
-6.14455703102604
30
0
41
1
10
102.841302416869
20
-6.60019336812579
30
0
41
1
10
102.905891779145
20
-6.80048429715029
30
0
41
1
10
103.035070503697
20
-7.14220591284035
30
0
41
1
10
103.099659865973
20
-7.28364872716156
30
0
41
1
10
103.228838590525
20
-7.50820973690682
30
0
41
1
10
103.293427952801
20
-7.59135941788404
30
0
41
1
10
103.422606677353
20
-7.70355255263141
30
0
41
1
10
103.487196039629
20
-7.73263604981494
30
0
41
1
10
103.567932742474
20
-7.7394146929224
30
0
41
1
10
103.584080083043
20
-7.73931221641382
30
0
41
1
10
103.616374764181
20
-7.73617812805756
30
0
41
1
10
103.63252210475
20
-7.73313258332976
30
0
41
1
10
103.680964126457
20
-7.71938818187007
30
0
41
1
10
103.713258807595
20
-7.70407760341138
30
0
41
1
10
103.810142851009
20
-7.63844801824601
30
0
41
1
10
103.874732213285
20
-7.56833746247321
30
0
41
1
10
104.003910937837
20
-7.37054795900673
30
0
41
1
10
104.068500300113
20
-7.24283453705078
30
0
41
1
10
104.197679024665
20
-6.92833251792587
30
0
41
1
10
104.262268386941
20
-6.74152646116724
30
0
41
1
10
104.391447111493
20
-6.31158135411931
30
0
41
1
10
104.456036473769
20
-6.06845011373824
30
0
41
1
10
104.585215198322
20
-5.53301732243187
30
0
41
1
10
104.649804560598
20
-5.24074991905951
30
0
41
1
10
104.778983285149
20
-4.61799415839792
30
0
41
1
10
104.843572647426
20
-4.28755859725368
30
0
41
1
10
104.972751371978
20
-3.60186070604618
30
0
41
1
10
105.037340734254
20
-3.24665620324242
30
0
41
1
10
105.166519458806
20
-2.52554416698183
30
0
41
1
10
105.231108821082
20
-2.15968567338092
30
0
41
1
10
105.360287545634
20
-1.43046504367246
30
0
41
1
10
105.42487690791
20
-1.06713429392659
30
0
41
1
10
105.521760951324
20
-0.532290772333141
30
0
41
1
10
105.554055632462
20
-0.355681976644632
30
0
41
1
10
105.594423983884
20
-0.137709435975808
30
0
41
1
10
105.602497654169
20
-0.0942539110604343
30
0
41
1
10
105.618644994738
20
-0.0076365099909879
30
0
41
1
10
105.626718665022
20
0.0354930274181982
30
0
41
1
10
105.650939675876
20
0.165607192476955
30
0
41
1
10
105.667087016445
20
0.252931006945573
30
0
41
1
10
105.683234357014
20
0.340771097844055
30
0
0
SPLINE
5
EB
100
AcDbEntity
8
1
62
256
6
ByLayer
370
13
48
1
60
0
100
AcDbSpline
70
4
71
3
72
84
73
80
40
0
40
0
40
0
40
0
40
0.0312500000000012
40
0.0312500000000012
40
0.0625000000000024
40
0.0625000000000024
40
0.0937500000000036
40
0.0937500000000036
40
0.125000000000005
40
0.125000000000005
40
0.156250000000006
40
0.156250000000006
40
0.187500000000007
40
0.187500000000007
40
0.218750000000008
40
0.218750000000008
40
0.250000000000009
40
0.250000000000009
40
0.281250000000011
40
0.281250000000011
40
0.296875000000011
40
0.296875000000011
40
0.304687500000012
40
0.304687500000012
40
0.312500000000012
40
0.312500000000012
40
0.343750000000013
40
0.343750000000013
40
0.375000000000014
40
0.375000000000014
40
0.406250000000015
40
0.406250000000015
40
0.437500000000017
40
0.437500000000017
40
0.468750000000018
40
0.468750000000018
40
0.500000000000019
40
0.500000000000019
40
0.53125000000002
40
0.53125000000002
40
0.562500000000021
40
0.562500000000021
40
0.593750000000022
40
0.593750000000022
40
0.609375000000023
40
0.609375000000023
40
0.613281250000023
40
0.613281250000023
40
0.617187500000023
40
0.625000000000022
40
0.625000000000022
40
0.65625000000002
40
0.65625000000002
40
0.687500000000019
40
0.687500000000019
40
0.718750000000017
40
0.718750000000017
40
0.750000000000015
40
0.750000000000015
40
0.781250000000013
40
0.781250000000013
40
0.812500000000011
40
0.812500000000011
40
0.84375000000001
40
0.84375000000001
40
0.875000000000008
40
0.875000000000008
40
0.906250000000006
40
0.906250000000006
40
0.914062500000006
40
0.914062500000006
40
0.917968750000005
40
0.917968750000005
40
0.921875000000005
40
0.937500000000004
40
0.937500000000004
40
0.968750000000002
40
0.968750000000002
40
1
40
1
40
1
40
1
41
1
10
98.9869917861772
20
7.739
30
0
41
1
10
99.0567443129568
20
7.739
30
0
41
1
10
99.1264968397363
20
7.71191289323855
30
0
41
1
10
99.2660018932953
20
7.59494406154943
30
0
41
1
10
99.335754420075
20
7.50500348099956
30
0
41
1
10
99.475259473634
20
7.25699738839461
30
0
41
1
10
99.5450120004136
20
7.09888668586041
30
0
41
1
10
99.6845170539727
20
6.7142426546944
30
0
41
1
10
99.7542695807522
20
6.48769600617655
30
0
41
1
10
99.8937746343114
20
5.97186007586268
30
0
41
1
10
99.9635271610908
20
5.68259967572789
30
0
41
1
10
100.10303221465
20
5.05278800619033
30
0
41
1
10
100.17278474143
20
4.71230301617709
30
0
41
1
10
100.312289794989
20
3.9958034402429
30
0
41
1
10
100.382042321768
20
3.61987326695109
30
0
41
1
10
100.521547375327
20
2.85020859832312
30
0
41
1
10
100.591299902107
20
2.45655208522243
30
0
41
1
10
100.730804955666
20
1.66859385838521
30
0
41
1
10
100.800557482445
20
1.27434519765015
30
0
41
1
10
100.905186272615
20
0.693412633445917
30
0
41
1
10
100.940062536005
20
0.501483353380678
30
0
41
1
10
100.992376931089
20
0.21726539832602
30
0
41
1
10
101.009815062784
20
0.1231368605157
30
0
41
1
10
101.044691326174
20
-0.0637376572580877
30
0
41
1
10
101.062129457869
20
-0.157336710631171
30
0
41
1
10
101.149320116343
20
-0.629720532923869
30
0
41
1
10
101.219072643123
20
-1.01783151834201
30
0
41
1
10
101.358577696682
20
-1.80195061363779
30
0
41
1
10
101.428330223461
20
-2.19792295254015
30
0
41
1
10
101.56783527702
20
-2.98190189440868
30
0
41
1
10
101.6375878038
20
-3.36984274883687
30
0
41
1
10
101.777092857359
20
-4.12008865281612
30
0
41
1
10
101.846845384139
20
-4.48230996919878
30
0
41
1
10
101.986350437698
20
-5.16394103520889
30
0
41
1
10
102.056102964477
20
-5.48327147771798
30
0
41
1
10
102.195608018036
20
-6.06497849110096
30
0
41
1
10
102.265360544816
20
-6.32730384674798
30
0
41
1
10
102.404865598375
20
-6.78593648893141
30
0
41
1
10
102.474618125155
20
-6.98223416122545
30
0
41
1
10
102.614123178714
20
-7.30577588335265
30
0
41
1
10
102.683875705493
20
-7.43304946880943
30
0
41
1
10
102.823380759052
20
-7.62121281976559
30
0
41
1
10
102.893133285832
20
-7.68215624645384
30
0
41
1
10
102.997762076001
20
-7.72907941972443
30
0
41
1
10
103.032638339391
20
-7.73733396175115
30
0
41
1
10
103.076233668628
20
-7.73913111622036
30
0
41
1
10
103.084952734476
20
-7.73906748286356
30
0
41
1
10
103.102390866171
20
-7.73808983916592
30
0
41
1
10
103.128548063713
20
-7.73534205048679
30
0
41
1
10
103.154705261255
20
-7.72866613863849
30
0
41
1
10
103.24189591973
20
-7.69732901932758
30
0
41
1
10
103.311648446509
20
-7.64306527747269
30
0
41
1
10
103.451153500068
20
-7.46883391475018
30
0
41
1
10
103.520906026848
20
-7.34881119140107
30
0
41
1
10
103.660411080407
20
-7.03980713885298
30
0
41
1
10
103.730163607187
20
-6.85079285938031
30
0
41
1
10
103.869668660746
20
-6.40612388499281
30
0
41
1
10
103.939421187525
20
-6.15047425897609
30
0
41
1
10
104.078926241084
20
-5.58089782836004
30
0
41
1
10
104.148678767864
20
-5.26701820554899
30
0
41
1
10
104.288183821423
20
-4.59460690780648
30
0
41
1
10
104.357936348203
20
-4.23615259290963
30
0
41
1
10
104.497441401762
20
-3.4915497705172
30
0
41
1
10
104.567193928541
20
-3.10548570756168
30
0
41
1
10
104.7066989821
20
-2.32343182199622
30
0
41
1
10
104.77645150888
20
-1.92751044885551
30
0
41
1
10
104.915956562439
20
-1.14194383818708
30
0
41
1
10
104.985709089218
20
-0.752337729677066
30
0
41
1
10
105.072899747693
20
-0.27736630810287
30
0
41
1
10
105.090337879388
20
-0.182964739923221
30
0
41
1
10
105.11649507693
20
-0.0423746677529664
30
0
41
1
10
105.125214142777
20
0.0042046276795986
30
0
41
1
10
105.142652274472
20
0.0977462249297218
30
0
41
1
10
105.18624760371
20
0.332454032082694
30
0
41
1
10
105.229842932947
20
0.571209810408902
30
0
41
1
10
105.334471723116
20
1.14986680632322
30
0
41
1
10
105.404224249896
20
1.54326680873001
30
0
41
1
10
105.543729303455
20
2.33121651469773
30
0
41
1
10
105.613481830234
20
2.7257164010235
30
0
41
1
10
105.683234357014
20
3.11233409932362
30
0
0
SPLINE
5
EC
100
AcDbEntity
8
1
62
256
6
ByLayer
370
13
48
1
60
0
100
AcDbSpline
70
4
71
3
72
85
73
81
40
0
40
0
40
0
40
0
40
0.0312500000000001
40
0.0312500000000001
40
0.0625000000000002
40
0.0625000000000002
40
0.0937500000000003
40
0.0937500000000003
40
0.125
40
0.125
40
0.156250000000001
40
0.156250000000001
40
0.187500000000001
40
0.187500000000001
40
0.218750000000001
40
0.218750000000001
40
0.250000000000001
40
0.250000000000001
40
0.281250000000001
40
0.281250000000001
40
0.289062500000001
40
0.289062500000001
40
0.296875000000001
40
0.296875000000001
40
0.312500000000001
40
0.312500000000001
40
0.343750000000001
40
0.343750000000001
40
0.375000000000001
40
0.375000000000001
40
0.406250000000001
40
0.406250000000001
40
0.437500000000001
40
0.437500000000001
40
0.468750000000001
40
0.468750000000001
40
0.500000000000001
40
0.500000000000001
40
0.531250000000002
40
0.531250000000002
40
0.562500000000002
40
0.562500000000002
40
0.566406250000002
40
0.566406250000002
40
0.570312500000002
40
0.570312500000002
40
0.578125000000002
40
0.578125000000002
40
0.593750000000002
40
0.593750000000002
40
0.625000000000002
40
0.625000000000002
40
0.656250000000002
40
0.656250000000002
40
0.687500000000002
40
0.687500000000002
40
0.718750000000002
40
0.718750000000002
40
0.750000000000003
40
0.750000000000003
40
0.781250000000003
40
0.781250000000003
40
0.812500000000003
40
0.812500000000003
40
0.843750000000003
40
0.843750000000003
40
0.851562500000003
40
0.851562500000003
40
0.855468750000003
40
0.855468750000003
40
0.859375000000003
40
0.875000000000003
40
0.875000000000003
40
0.906250000000002
40
0.906250000000002
40
0.937500000000001
40
0.937500000000001
40
0.968750000000001
40
0.968750000000001
40
1
40
1
40
1
40
1
41
1
10
98.4913279938388
20
7.739
30
0
41
1
10
98.5662436851218
20
7.739
30
0
41
1
10
98.6411593764049
20
7.70773423978534
30
0
41
1
10
98.7909907589711
20
7.57211682837095
30
0
41
1
10
98.8659064502542
20
7.4676817811976
30
0
41
1
10
99.0157378328203
20
7.17970915681906
30
0
41
1
10
99.0906535241033
20
6.99611240870902
30
0
41
1
10
99.2404849066694
20
6.55075201858261
30
0
41
1
10
99.3154005979525
20
6.28898219776317
30
0
41
1
10
99.4652319805186
20
5.69624684653789
30
0
41
1
10
99.5401476718018
20
5.36534010125706
30
0
41
1
10
99.6899790543679
20
4.65057008720831
30
0
41
1
10
99.764894745651
20
4.2668148667484
30
0
41
1
10
99.9147261282171
20
3.4672647388017
30
0
41
1
10
99.9896418195003
20
3.05159028271746
30
0
41
1
10
100.139473202066
20
2.21021477754138
30
0
41
1
10
100.214388893349
20
1.7846088503143
30
0
41
1
10
100.364220275916
20
0.943110190397817
30
0
41
1
10
100.439135967199
20
0.527266820628824
30
0
41
1
10
100.532780581302
20
0.0230589702469217
30
0
41
1
10
100.551509504123
20
-0.0767951216485869
30
0
41
1
10
100.588967349765
20
-0.279018606267755
30
0
41
1
10
100.607696272586
20
-0.380880067224837
30
0
41
1
10
100.663883041048
20
-0.688398255734285
30
0
41
1
10
100.701340886689
20
-0.895998558860555
30
0
41
1
10
100.813714423614
20
-1.52368006627842
30
0
41
1
10
100.888630114897
20
-1.9487633505594
30
0
41
1
10
101.038461497463
20
-2.79341110569882
30
0
41
1
10
101.113377188746
20
-3.2128889338851
30
0
41
1
10
101.263208571313
20
-4.02459479375787
30
0
41
1
10
101.338124262596
20
-4.41670487072292
30
0
41
1
10
101.487955645162
20
-5.15222209787046
30
0
41
1
10
101.562871336445
20
-5.49551527566859
30
0
41
1
10
101.712702719011
20
-6.11585235302078
30
0
41
1
10
101.787618410294
20
-6.39282515066827
30
0
41
1
10
101.93744979286
20
-6.86980053914846
30
0
41
1
10
102.012365484143
20
-7.06979609904107
30
0
41
1
10
102.162196866709
20
-7.39015017004428
30
0
41
1
10
102.237112557992
20
-7.5105590218551
30
0
41
1
10
102.386943940559
20
-7.67642602775555
30
0
41
1
10
102.461859631842
20
-7.72196515500747
30
0
41
1
10
102.546139784535
20
-7.73663701501064
30
0
41
1
10
102.555504245946
20
-7.73776183690347
30
0
41
1
10
102.574233168766
20
-7.73902352862186
30
0
41
1
10
102.583597630177
20
-7.73916232146888
30
0
41
1
10
102.611691014408
20
-7.73811716228991
30
0
41
1
10
102.630419937229
20
-7.73545748637525
30
0
41
1
10
102.686606705691
20
-7.72131761149024
30
0
41
1
10
102.724064551333
20
-7.70366938566372
30
0
41
1
10
102.836438088257
20
-7.62410105310843
30
0
41
1
10
102.91135377954
20
-7.53537887815404
30
0
41
1
10
103.061185162106
20
-7.27956328002136
30
0
41
1
10
103.136100853389
20
-7.11240313438117
30
0
41
1
10
103.285932235955
20
-6.69907901555356
30
0
41
1
10
103.360847927238
20
-6.45289620183476
30
0
41
1
10
103.510679309805
20
-5.88884390103823
30
0
41
1
10
103.585595001088
20
-5.57102019597983
30
0
41
1
10
103.735426383654
20
-4.8785915352253
30
0
41
1
10
103.810342074937
20
-4.50408707127815
30
0
41
1
10
103.960173457503
20
-3.71852988063921
30
0
41
1
10
104.035089148786
20
-3.30759844234396
30
0
41
1
10
104.184920531352
20
-2.47127436584367
30
0
41
1
10
104.259836222635
20
-2.04598445381924
30
0
41
1
10
104.409667605202
20
-1.20137816359235
30
0
41
1
10
104.484583296485
20
-0.78212110172646
30
0
41
1
10
104.578227910589
20
-0.271955424495132
30
0
41
1
10
104.596956833409
20
-0.17060554712063
30
0
41
1
10
104.62505021764
20
-0.0197578091069488
30
0
41
1
10
104.634414679051
20
0.0302435488068227
30
0
41
1
10
104.653143601872
20
0.130863205078839
30
0
41
1
10
104.699965908924
20
0.38338507781026
30
0
41
1
10
104.746788215975
20
0.640495231315526
30
0
41
1
10
104.8591617529
20
1.26368284110106
30
0
41
1
10
104.934077444183
20
1.68743926371425
30
0
41
1
10
105.083908826749
20
2.5336249149523
30
0
41
1
10
105.158824518032
20
2.95597664985812
30
0
41
1
10
105.308655900598
20
3.77798922505383
30
0
41
1
10
105.383571591882
20
4.17753615481499
30
0
41
1
10
105.533402974448
20
4.93213194920446
30
0
41
1
10
105.608318665731
20
5.28706263909004
30
0
41
1
10
105.683234357014
20
5.61043017387755
30
0
0
SPLINE
5
ED
100
AcDbEntity
8
1
62
256
6
ByLayer
370
13
48
1
60
0
100
AcDbSpline
70
4
71
3
72
84
73
80
40
0
40
0
40
0
40
0
40
0.0312499999999982
40
0.0312499999999982
40
0.0624999999999965
40
0.0624999999999965
40
0.0937499999999947
40
0.0937499999999947
40
0.124999999999993
40
0.124999999999993
40
0.156249999999991
40
0.156249999999991
40
0.18749999999999
40
0.18749999999999
40
0.218749999999988
40
0.218749999999988
40
0.249999999999986
40
0.249999999999986
40
0.265624999999985
40
0.265624999999985
40
0.273437499999985
40
0.273437499999985
40
0.281249999999984
40
0.281249999999984
40
0.312499999999984
40
0.312499999999984
40
0.343749999999983
40
0.343749999999983
40
0.374999999999982
40
0.374999999999982
40
0.406249999999982
40
0.406249999999982
40
0.437499999999981
40
0.437499999999981
40
0.46874999999998
40
0.46874999999998
40
0.499999999999979
40
0.499999999999979
40
0.531249999999979
40
0.531249999999979
40
0.535156249999979
40
0.535156249999979
40
0.539062499999979
40
0.546874999999979
40
0.546874999999979
40
0.562499999999979
40
0.562499999999979
40
0.59374999999998
40
0.59374999999998
40
0.624999999999981
40
0.624999999999981
40
0.656249999999981
40
0.656249999999981
40
0.687499999999982
40
0.687499999999982
40
0.718749999999983
40
0.718749999999983
40
0.749999999999983
40
0.749999999999983
40
0.781249999999984
40
0.781249999999984
40
0.796874999999984
40
0.796874999999984
40
0.800781249999985
40
0.800781249999985
40
0.804687499999985
40
0.812499999999985
40
0.812499999999985
40
0.843749999999988
40
0.843749999999988
40
0.87499999999999
40
0.87499999999999
40
0.906249999999993
40
0.906249999999993
40
0.937499999999995
40
0.937499999999995
40
0.968749999999998
40
0.968749999999998
40
1
40
1
40
1
40
1
41
1
10
97.9956642015002
20
7.739
30
0
41
1
10
98.0757430572869
20
7.739
30
0
41
1
10
98.1558219130734
20
7.7032506300616
30
0
41
1
10
98.3159796246466
20
7.54752046750991
30
0
41
1
10
98.3960584804332
20
7.42742451740284
30
0
41
1
10
98.5562161920064
20
7.0963986718414
30
0
41
1
10
98.6362950477929
20
6.88539455801674
30
0
41
1
10
98.7964527593663
20
6.37532939310032
30
0
41
1
10
98.8765316151528
20
6.07627834540227
30
0
41
1
10
99.036689326726
20
5.40338759130708
30
0
41
1
10
99.1167681825126
20
5.02965247383986
30
0
41
1
10
99.2769258940858
20
4.22942895612837
30
0
41
1
10
99.3570047498725
20
3.80310344698467
30
0
41
1
10
99.5171624614457
20
2.92430847923362
30
0
41
1
10
99.5972413172322
20
2.47199757912514
30
0
41
1
10
99.7573990288054
20
1.56734545684259
30
0
41
1
10
99.837477884592
20
1.11510767273006
30
0
41
1
10
99.9575961682719
20
0.452867746019223
30
0
41
1
10
99.9976355961653
20
0.234761793967493
30
0
41
1
10
100.057694738005
20
-0.0868886214337579
30
0
41
1
10
100.077714451952
20
-0.194590919638557
30
0
41
1
10
100.117753879845
20
-0.412034537290452
30
0
41
1
10
100.137773593792
20
-0.521565009023078
30
0
41
1
10
100.237872163525
20
-1.0725909828738
30
0
41
1
10
100.317951019312
20
-1.52444462466718
30
0
41
1
10
100.478108730885
20
-2.4290914224716
30
0
41
1
10
100.558187586671
20
-2.88178333594914
30
0
41
1
10
100.718345298245
20
-3.76219710119494
30
0
41
1
10
100.798424154031
20
-4.18976151470389
30
0
41
1
10
100.958581865604
20
-4.99326235481638
30
0
41
1
10
101.038660721391
20
-5.36903503127451
30
0
41
1
10
101.198818432964
20
-6.04658548952756
30
0
41
1
10
101.278897288751
20
-6.34825605712646
30
0
41
1
10
101.439055000324
20
-6.86382664213369
30
0
41
1
10
101.519133856111
20
-7.07771358107084
30
0
41
1
10
101.679291567684
20
-7.41444120524153
30
0
41
1
10
101.759370423471
20
-7.53735401270677
30
0
41
1
10
101.919528135044
20
-7.69839429732713
30
0
41
1
10
101.99960699083
20
-7.73663639782788
30
0
41
1
10
102.08969570359
20
-7.73917517787214
30
0
41
1
10
102.099705560564
20
-7.73890185034511
30
0
41
1
10
102.11972527451
20
-7.73722502061824
30
0
41
1
10
102.14975484543
20
-7.73301064424223
30
0
41
1
10
102.17978441635
20
-7.72357235673016
30
0
41
1
10
102.23984355819
20
-7.69741414802968
30
0
41
1
10
102.279882986083
20
-7.6702556284057
30
0
41
1
10
102.400001269763
20
-7.55742549556183
30
0
41
1
10
102.48008012555
20
-7.44013957412599
30
0
41
1
10
102.640237837123
20
-7.11481139100923
30
0
41
1
10
102.72031669291
20
-6.90669286098841
30
0
41
1
10
102.880474404483
20
-6.40214937294419
30
0
41
1
10
102.960553260269
20
-6.10573135499115
30
0
41
1
10
103.120710971843
20
-5.43753630964844
30
0
41
1
10
103.200789827629
20
-5.0658612077452
30
0
41
1
10
103.360947539202
20
-4.26896457371862
30
0
41
1
10
103.441026394989
20
-3.84390500741159
30
0
41
1
10
103.601184106562
20
-2.96678232733723
30
0
41
1
10
103.681262962349
20
-2.51487883943093
30
0
41
1
10
103.841420673922
20
-1.61026941522076
30
0
41
1
10
103.921499529709
20
-1.15766909760865
30
0
41
1
10
104.041617813388
20
-0.494447700046237
30
0
41
1
10
104.081657241282
20
-0.27594220454921
30
0
41
1
10
104.131706526149
20
-0.0073271133112485
30
0
41
1
10
104.141716383122
20
0.0461316859957606
30
0
41
1
10
104.161736097068
20
0.153792820707821
30
0
41
1
10
104.191765667988
20
0.315947819127644
30
0
41
1
10
104.221795238908
20
0.479958088067548
30
0
41
1
10
104.321893808642
20
1.03012095437
30
0
41
1
10
104.401972664428
20
1.48156904150917
30
0
41
1
10
104.562130376001
20
2.38616278766707
30
0
41
1
10
104.642209231788
20
2.83920941333409
30
0
41
1
10
104.802366943361
20
3.72118852594824
30
0
41
1
10
104.882445799148
20
4.14996474676531
30
0
41
1
10
105.042603510721
20
4.95669306765021
30
0
41
1
10
105.122682366508
20
5.33448062497888
30
0
41
1
10
105.282840078081
20
6.01665423311852
30
0
41
1
10
105.362918933867
20
6.32093048405753
30
0
41
1
10
105.523076645441
20
6.84198956779417
30
0
41
1
10
105.603155501227
20
7.0587562368087
30
0
41
1
10
105.683234357014
20
7.2299726971288
30
0
0
SPLINE
5
EE
100
AcDbEntity
8
1
62
256
6
ByLayer
370
13
48
1
60
0
100
AcDbSpline
70
4
71
3
72
102
73
98
40
0
40
0
40
0
40
0
40
0.0312499999999997
40
0.0312499999999997
40
0.0624999999999995
40
0.0624999999999995
40
0.0781249999999992
40
0.0781249999999992
40
0.093749999999999
40
0.093749999999999
40
0.109374999999999
40
0.109374999999999
40
0.124999999999998
40
0.124999999999998
40
0.140624999999998
40
0.140624999999998
40
0.156249999999998
40
0.156249999999998
40
0.171874999999998
40
0.171874999999998
40
0.187499999999997
40
0.187499999999997
40
0.218749999999997
40
0.218749999999997
40
0.249999999999997
40
0.249999999999997
40
0.281249999999997
40
0.281249999999997
40
0.312499999999996
40
0.312499999999996
40
0.328124999999996
40
0.328124999999996
40
0.343749999999996
40
0.343749999999996
40
0.359374999999996
40
0.359374999999996
40
0.374999999999996
40
0.374999999999996
40
0.390624999999996
40
0.390624999999996
40
0.406249999999996
40
0.406249999999996
40
0.421874999999996
40
0.421874999999996
40
0.437499999999996
40
0.437499999999996
40
0.468749999999996
40
0.468749999999996
40
0.499999999999996
40
0.499999999999996
40
0.531249999999996
40
0.531249999999996
40
0.562499999999996
40
0.562499999999996
40
0.578124999999996
40
0.578124999999996
40
0.593749999999996
40
0.593749999999996
40
0.609374999999996
40
0.609374999999996
40
0.624999999999997
40
0.624999999999997
40
0.640624999999997
40
0.640624999999997
40
0.656249999999997
40
0.656249999999997
40
0.671874999999997
40
0.671874999999997
40
0.687499999999997
40
0.687499999999997
40
0.718749999999997
40
0.718749999999997
40
0.749999999999998
40
0.749999999999998
40
0.781249999999998
40
0.781249999999998
40
0.812499999999999
40
0.812499999999999
40
0.828124999999999
40
0.828124999999999
40
0.843749999999999
40
0.843749999999999
40
0.859374999999999
40
0.859374999999999
40
0.874999999999999
40
0.874999999999999
40
0.890624999999999
40
0.890624999999999
40
0.906249999999999
40
0.906249999999999
40
0.921874999999999
40
0.921874999999999
40
0.937499999999999
40
0.937499999999999
40
0.96875
40
0.96875
40
1
40
1
40
1
40
1
41
1
10
97.5000004091617
20
7.739
30
0
41
1
10
97.5852424294519
20
7.739
30
0
41
1
10
97.670484449742
20
7.69846043455453
30
0
41
1
10
97.8409684903222
20
7.52114008439526
30
0
41
1
10
97.9262105106124
20
7.38420388803047
30
0
41
1
10
98.0540735410475
20
7.10134563372546
30
0
41
1
10
98.0966945511926
20
6.99423233163876
30
0
41
1
10
98.1819365714828
20
6.75462770577565
30
0
41
1
10
98.2245575816278
20
6.62213540616526
30
0
41
1
10
98.3097996019178
20
6.33288137680566
30
0
41
1
10
98.3524206120629
20
6.17612087965202
30
0
41
1
10
98.4376626323531
20
5.84027411027051
30
0
41
1
10
98.4802836424982
20
5.66119130737044
30
0
41
1
10
98.5655256627883
20
5.28340790517504
30
0
41
1
10
98.6081466729333
20
5.08471270700977
30
0
41
1
10
98.6933886932235
20
4.67104225185264
30
0
41
1
10
98.7360097033685
20
4.45607373157836
30
0
41
1
10
98.8212517236586
20
4.01363949496826
30
0
41
1
10
98.8638727338037
20
3.78618107429458
30
0
41
1
10
98.9491147540938
20
3.32278140163572
30
0
41
1
10
98.9917357642389
20
3.08684719615908
30
0
41
1
10
99.1195987946741
20
2.37236176565361
30
0
41
1
10
99.2048408149643
20
1.88732099123101
30
0
41
1
10
99.3753248555445
20
0.929104140131869
30
0
41
1
10
99.4605668758346
20
0.456025486085565
30
0
41
1
10
99.631050916415
20
-0.456024391625704
30
0
41
1
10
99.7162929367051
20
-0.929102999364972
30
0
41
1
10
99.8867769772852
20
-1.88731983227746
30
0
41
1
10
99.9720189975753
20
-2.37236060819086
30
0
41
1
10
100.099882028011
20
-3.0868460601254
30
0
41
1
10
100.142503038156
20
-3.32278027591713
30
0
41
1
10
100.227745058446
20
-3.78617997569466
30
0
41
1
10
100.270366068591
20
-4.01363841317288
30
0
41
1
10
100.355608088881
20
-4.45607268968925
30
0
41
1
10
100.398229099026
20
-4.67104123306504
30
0
41
1
10
100.483471119316
20
-5.08471174017905
30
0
41
1
10
100.526092129461
20
-5.28340696719818
30
0
41
1
10
100.611334149751
20
-5.6611904319868
30
0
41
1
10
100.653955159896
20
-5.84027326862352
30
0
41
1
10
100.739197180186
20
-6.17612010923435
30
0
41
1
10
100.781818190332
20
-6.33288064387722
30
0
41
1
10
100.867060210622
20
-6.62213475067415
30
0
41
1
10
100.909681220767
20
-6.75462709022898
30
0
41
1
10
100.994923241057
20
-6.99423179708299
30
0
41
1
10
101.037544251202
20
-7.10134514021286
30
0
41
1
10
101.165407281637
20
-7.38420351733578
30
0
41
1
10
101.250649301927
20
-7.52113979505438
30
0
41
1
10
101.421133342508
20
-7.69846029832638
30
0
41
1
10
101.506375362798
20
-7.73899993550825
30
0
41
1
10
101.676859403378
20
-7.73900006449159
30
0
41
1
10
101.762101423668
20
-7.69846057078254
30
0
41
1
10
101.932585464248
20
-7.52114037373593
30
0
41
1
10
102.017827484538
20
-7.38420425872496
30
0
41
1
10
102.145690514974
20
-7.10134612723789
30
0
41
1
10
102.188311525119
20
-6.9942328661943
30
0
41
1
10
102.273553545409
20
-6.75462832132212
30
0
41
1
10
102.316174555554
20
-6.62213606165619
30
0
41
1
10
102.401416575844
20
-6.33288210973393
30
0
41
1
10
102.444037585989
20
-6.17612165006955
30
0
41
1
10
102.529279606279
20
-5.84027495191737
30
0
41
1
10
102.571900616424
20
-5.66119218275395
30
0
41
1
10
102.657142636714
20
-5.28340884315173
30
0
41
1
10
102.699763646859
20
-5.08471367384035
30
0
41
1
10
102.78500566715
20
-4.67104327064015
30
0
41
1
10
102.827626677295
20
-4.45607477346735
30
0
41
1
10
102.912868697585
20
-4.01364057676355
30
0
41
1
10
102.95548970773
20
-3.78618217289443
30
0
41
1
10
103.04073172802
20
-3.32278252735426
30
0
41
1
10
103.083352738165
20
-3.08684833219274
30
0
41
1
10
103.2112157686
20
-2.37236292311638
30
0
41
1
10
103.29645778889
20
-1.88732215018453
30
0
41
1
10
103.466941829471
20
-0.929105280898824
30
0
41
1
10
103.552183849761
20
-0.456026607258792
30
0
41
1
10
103.722667890341
20
0.456023323879123
30
0
41
1
10
103.807909910631
20
0.929101858598074
30
0
41
1
10
103.978393951211
20
1.88731867332393
30
0
41
1
10
104.063635971501
20
2.37235945072808
30
0
41
1
10
104.191499001937
20
3.08684492409165
30
0
41
1
10
104.234120012082
20
3.32277915019847
30
0
41
1
10
104.319362032372
20
3.78617887709464
30
0
41
1
10
104.361983042517
20
4.01363733137742
30
0
41
1
10
104.447225062807
20
4.45607164780006
30
0
41
1
10
104.489846072952
20
4.6710402142773
30
0
41
1
10
104.575088093242
20
5.08471077334821
30
0
41
1
10
104.617709103387
20
5.28340602922117
30
0
41
1
10
104.702951123677
20
5.66118955660298
30
0
41
1
10
104.745572133823
20
5.84027242697636
30
0
41
1
10
104.830814154113
20
6.17611933881648
30
0
41
1
10
104.873435164258
20
6.33287991094861
30
0
41
1
10
104.958677184548
20
6.62213409518284
30
0
41
1
10
105.001298194693
20
6.75462647468211
30
0
41
1
10
105.086540214983
20
6.99423126252705
30
0
41
1
10
105.129161225128
20
7.10134464670003
30
0
41
1
10
105.257024255563
20
7.38420314664089
30
0
41
1
10
105.342266275853
20
7.52113950571331
30
0
41
1
10
105.512750316434
20
7.69846016209806
30
0
41
1
10
105.597992336724
20
7.73899987101635
30
0
41
1
10
105.683234357014
20
7.73899999999969
30
0
0
SPLINE
5
EF
100
AcDbEntity
8
1
62
256
6
ByLayer
370
13
48
1
60
0
100
AcDbSpline
70
4
71
3
72
84
73
80
40
0
40
0
40
0
40
0
40
0.0312499999999979
40
0.0312499999999979
40
0.0624999999999958
40
0.0624999999999958
40
0.0937499999999937
40
0.0937499999999937
40
0.124999999999992
40
0.124999999999992
40
0.15624999999999
40
0.15624999999999
40
0.187499999999987
40
0.187499999999987
40
0.195312499999987
40
0.199218749999987
40
0.199218749999987
40
0.203124999999987
40
0.203124999999987
40
0.218749999999988
40
0.218749999999988
40
0.249999999999988
40
0.249999999999988
40
0.281249999999989
40
0.281249999999989
40
0.31249999999999
40
0.31249999999999
40
0.343749999999991
40
0.343749999999991
40
0.374999999999991
40
0.374999999999991
40
0.406249999999992
40
0.406249999999992
40
0.437499999999993
40
0.437499999999993
40
0.453124999999993
40
0.453124999999993
40
0.460937499999993
40
0.464843749999993
40
0.464843749999993
40
0.468749999999993
40
0.468749999999993
40
0.499999999999993
40
0.499999999999993
40
0.531249999999993
40
0.531249999999993
40
0.562499999999993
40
0.562499999999993
40
0.593749999999993
40
0.593749999999993
40
0.624999999999993
40
0.624999999999993
40
0.656249999999993
40
0.656249999999993
40
0.687499999999993
40
0.687499999999993
40
0.718749999999993
40
0.718749999999993
40
0.726562499999993
40
0.726562499999993
40
0.734374999999993
40
0.734374999999993
40
0.749999999999994
40
0.749999999999994
40
0.781249999999994
40
0.781249999999994
40
0.812499999999995
40
0.812499999999995
40
0.843749999999996
40
0.843749999999996
40
0.874999999999997
40
0.874999999999997
40
0.906249999999998
40
0.906249999999998
40
0.937499999999998
40
0.937499999999998
40
0.968749999999999
40
0.968749999999999
40
1
40
1
40
1
40
1
41
1
10
97.5
20
7.2299744467831
30
0
41
1
10
97.5800788643107
20
7.05875827565845
30
0
41
1
10
97.6601577286216
20
6.84199188870474
30
0
41
1
10
97.8203154572432
20
6.32093332143481
30
0
41
1
10
97.900394321554
20
6.01665730458794
30
0
41
1
10
98.0605520501756
20
5.3344840889244
30
0
41
1
10
98.1406309144863
20
4.95669668977857
30
0
41
1
10
98.300788643108
20
4.14996859569931
30
0
41
1
10
98.3808675074189
20
3.72119244351782
30
0
41
1
10
98.5410252360405
20
2.83921338206719
30
0
41
1
10
98.6211041003513
20
2.38616673912369
30
0
41
1
10
98.7812618289728
20
1.48157288969139
30
0
41
1
10
98.8613406932836
20
1.03012471680827
30
0
41
1
10
98.9614392736722
20
0.47996171541277
30
0
41
1
10
98.9914688477887
20
0.315951403859941
30
0
41
1
10
99.0214984219052
20
0.153796360123749
30
0
41
1
10
99.0415181379828
20
0.0461351946464106
30
0
41
1
10
99.0515279960217
20
-0.0073236175167324
30
0
41
1
10
99.101577286216
20
-0.275938688547996
30
0
41
1
10
99.1416167183714
20
-0.494444173748292
30
0
41
1
10
99.2617350148377
20
-1.15766556045588
30
0
41
1
10
99.3418138791484
20
-1.6102658978088
30
0
41
1
10
99.50197160777
20
-2.51487542371046
30
0
41
1
10
99.5820504720809
20
-2.96677899368697
30
0
41
1
10
99.7422082007025
20
-3.84390189869643
30
0
41
1
10
99.8222870650133
20
-4.26896160786453
30
0
41
1
10
99.9824447936348
20
-5.06585857496776
30
0
41
1
10
100.062523657946
20
-5.43753386693001
30
0
41
1
10
100.222681386567
20
-6.10572931665948
30
0
41
1
10
100.302760250878
20
-6.40214754869675
30
0
41
1
10
100.4629179795
20
-6.90669146278793
30
0
41
1
10
100.542996843811
20
-7.11481020456185
30
0
41
1
10
100.703154572432
20
-7.44013878663912
30
0
41
1
10
100.783233436743
20
-7.5574248951929
30
0
41
1
10
100.903351733209
20
-7.67025528002262
30
0
41
1
10
100.943391165365
20
-7.69741387893566
30
0
41
1
10
101.003450313598
20
-7.72357219890631
30
0
41
1
10
101.033479887714
20
-7.73301054014436
30
0
41
1
10
101.063509461831
20
-7.73722496732722
30
0
41
1
10
101.083529177909
20
-7.73890183027416
30
0
41
1
10
101.093539035947
20
-7.73917517395535
30
0
41
1
10
101.183627758297
20
-7.73663653941978
30
0
41
1
10
101.263706622608
20
-7.6983945740221
30
0
41
1
10
101.423864351229
20
-7.53735455884399
30
0
41
1
10
101.50394321554
20
-7.41444188562733
30
0
41
1
10
101.664100944162
20
-7.07771451365755
30
0
41
1
10
101.744179808472
20
-6.86382769252776
30
0
41
1
10
101.904337537094
20
-6.34825731174448
30
0
41
1
10
101.984416401405
20
-6.04658683042402
30
0
41
1
10
102.144574130026
20
-5.36903650319891
30
0
41
1
10
102.224652994337
20
-4.99326387143296
30
0
41
1
10
102.384810722959
20
-4.18976307719367
30
0
41
1
10
102.46488958727
20
-3.76219866491891
30
0
41
1
10
102.625047315891
20
-2.88178486491694
30
0
41
1
10
102.705126180202
20
-2.42909291557479
30
0
41
1
10
102.865283908824
20
-1.52444602048854
30
0
41
1
10
102.945362773135
20
-1.07259231740585
30
0
41
1
10
103.045461353523
20
-0.521566259085773
30
0
41
1
10
103.065481069601
20
-0.412035770064534
30
0
41
1
10
103.105520501756
20
-0.194592117231537
30
0
41
1
10
103.125540217834
20
-0.0868897903565937
30
0
41
1
10
103.185599366067
20
0.234760639443834
30
0
41
1
10
103.225638798222
20
0.452866603554355
30
0
41
1
10
103.345757094689
20
1.11510657395485
30
0
41
1
10
103.425835959
20
1.56734439734441
30
0
41
1
10
103.585993687621
20
2.47199661636424
30
0
41
1
10
103.666072551932
20
2.92430757392967
30
0
41
1
10
103.826230280553
20
3.80310266846746
30
0
41
1
10
103.906309144864
20
4.22942824687917
30
0
41
1
10
104.066466873486
20
5.02965190536088
30
0
41
1
10
104.146545737797
20
5.40338709422923
30
0
41
1
10
104.306703466418
20
6.0762779829488
30
0
41
1
10
104.386782330729
20
6.37532909377916
30
0
41
1
10
104.546940059351
20
6.88539436868092
30
0
41
1
10
104.627018923661
20
7.0963985293221
30
0
41
1
10
104.787176652283
20
7.42742444850072
30
0
41
1
10
104.867255516594
20
7.54752042543348
30
0
41
1
10
105.027413245215
20
7.7032506224067
30
0
41
1
10
105.107492109526
20
7.739
30
0
41
1
10
105.187570973837
20
7.739
30
0
0
SPLINE
5
F0
100
AcDbEntity
8
1
62
256
6
ByLayer
370
13
48
1
60
0
100
AcDbSpline
70
4
71
3
72
86
73
82
40
0
40
0
40
0
40
0
40
0.0312499999999989
40
0.0312499999999989
40
0.0624999999999978
40
0.0624999999999978
40
0.0937499999999967
40
0.0937499999999967
40
0.124999999999996
40
0.124999999999996
40
0.140624999999995
40
0.140624999999995
40
0.144531249999995
40
0.144531249999995
40
0.148437499999995
40
0.148437499999995
40
0.156249999999995
40
0.156249999999995
40
0.187499999999995
40
0.187499999999995
40
0.218749999999995
40
0.218749999999995
40
0.249999999999996
40
0.249999999999996
40
0.281249999999996
40
0.281249999999996
40
0.312499999999997
40
0.312499999999997
40
0.343749999999997
40
0.343749999999997
40
0.374999999999998
40
0.374999999999998
40
0.406249999999998
40
0.406249999999998
40
0.421874999999998
40
0.421874999999998
40
0.429687499999998
40
0.429687499999998
40
0.433593749999999
40
0.433593749999999
40
0.437499999999999
40
0.437499999999999
40
0.46875
40
0.46875
40
0.500000000000001
40
0.500000000000001
40
0.531250000000001
40
0.531250000000001
40
0.562500000000002
40
0.562500000000002
40
0.593750000000003
40
0.593750000000003
40
0.625000000000004
40
0.625000000000004
40
0.656250000000005
40
0.656250000000005
40
0.687500000000005
40
0.687500000000005
40
0.703125000000006
40
0.703125000000006
40
0.710937500000006
40
0.710937500000006
40
0.718750000000006
40
0.718750000000006
40
0.750000000000005
40
0.750000000000005
40
0.781250000000005
40
0.781250000000005
40
0.812500000000004
40
0.812500000000004
40
0.843750000000003
40
0.843750000000003
40
0.875000000000003
40
0.875000000000003
40
0.906250000000002
40
0.906250000000002
40
0.937500000000001
40
0.937500000000001
40
0.968750000000001
40
0.968750000000001
40
1
40
1
40
1
40
1
41
1
10
97.5
20
5.61043370610332
30
0
41
1
10
97.5749156998073
20
5.28706636278457
30
0
41
1
10
97.6498313996146
20
4.9321358282221
30
0
41
1
10
97.7996627992291
20
4.17754026085765
30
0
41
1
10
97.8745784990363
20
3.77799340280808
30
0
41
1
10
98.0244098986509
20
2.95598088996758
30
0
41
1
10
98.0993255984582
20
2.53362914584909
30
0
41
1
10
98.2491569980727
20
1.68744340938062
30
0
41
1
10
98.32407269788
20
1.2636869109449
30
0
41
1
10
98.436446247591
20
0.640499152728182
30
0
41
1
10
98.4739040974947
20
0.434810974693079
30
0
41
1
10
98.5207264098742
20
0.181372003469988
30
0
41
1
10
98.5300908723501
20
0.130866981492062
30
0
41
1
10
98.5488197973019
20
0.0302472943221233
30
0
41
1
10
98.5581842597778
20
-0.01975407134492
30
0
41
1
10
98.5862776472055
20
-0.17060179735725
30
0
41
1
10
98.6050065721573
20
-0.27195166810418
30
0
41
1
10
98.6986511969164
20
-0.782117319525923
30
0
41
1
10
98.7735668967237
20
-1.20137438439411
30
0
41
1
10
98.9233982963382
20
-2.04598073701249
30
0
41
1
10
98.9983139961455
20
-2.47127070853549
30
0
41
1
10
99.1481453957601
20
-3.30759496263329
30
0
41
1
10
99.2230610955675
20
-3.71852651906764
30
0
41
1
10
99.372892495182
20
-4.50408399721596
30
0
41
1
10
99.4478081949893
20
-4.87858863046449
30
0
41
1
10
99.5976395946038
20
-5.57101766441855
30
0
41
1
10
99.672555294411
20
-5.88884157321209
30
0
41
1
10
99.8223866940255
20
-6.45289429377348
30
0
41
1
10
99.8973023938328
20
-6.69907732333439
30
0
41
1
10
100.047133793447
20
-7.11240186373129
30
0
41
1
10
100.122049493255
20
-7.27956221496592
30
0
41
1
10
100.271880892869
20
-7.53537819674588
30
0
41
1
10
100.346796592677
20
-7.62410054971437
30
0
41
1
10
100.459170142388
20
-7.7036691213049
30
0
41
1
10
100.496627992291
20
-7.72131742220802
30
0
41
1
10
100.552814767147
20
-7.73545740242884
30
0
41
1
10
100.571543692098
20
-7.73811711224579
30
0
41
1
10
100.599637079526
20
-7.73916232044635
30
0
41
1
10
100.609001542002
20
-7.73902354361854
30
0
41
1
10
100.627730466954
20
-7.73776188435471
30
0
41
1
10
100.63709492943
20
-7.7366370787675
30
0
41
1
10
100.721375091713
20
-7.7219653661393
30
0
41
1
10
100.79629079152
20
-7.67642637446775
30
0
41
1
10
100.946122191135
20
-7.51055963766512
30
0
41
1
10
101.021037890942
20
-7.39015091929713
30
0
41
1
10
101.170869290556
20
-7.06979709944252
30
0
41
1
10
101.245784990364
20
-6.86980165714365
30
0
41
1
10
101.395616389978
20
-6.39282647491862
30
0
41
1
10
101.470532089786
20
-6.11585376582525
30
0
41
1
10
101.6203634894
20
-5.49551682740824
30
0
41
1
10
101.695279189207
20
-5.15222369993921
30
0
41
1
10
101.845110588822
20
-4.41670653256568
30
0
41
1
10
101.920026288629
20
-4.02459646507336
30
0
41
1
10
102.069857688244
20
-3.21289058749667
30
0
41
1
10
102.144773388051
20
-2.79341273222224
30
0
41
1
10
102.294604787666
20
-1.94876489557842
30
0
41
1
10
102.369520487473
20
-1.52368155698423
30
0
41
1
10
102.481894037184
20
-0.895999956109932
30
0
41
1
10
102.519351887088
20
-0.688399619839117
30
0
41
1
10
102.575538661943
20
-0.380881379638424
30
0
41
1
10
102.594267586895
20
-0.27901990112116
30
0
41
1
10
102.631725436798
20
-0.0767963808813192
30
0
41
1
10
102.65045436175
20
0.0230577258442395
30
0
41
1
10
102.744098986509
20
0.527265602198241
30
0
41
1
10
102.819014686317
20
0.943109002090893
30
0
41
1
10
102.968846085931
20
1.7846077406445
30
0
41
1
10
103.043761785738
20
2.210213716401
30
0
41
1
10
103.193593185353
20
3.05158933342244
30
0
41
1
10
103.26850888516
20
3.4672638528001
30
0
41
1
10
103.418340284775
20
4.26681411518265
30
0
41
1
10
103.493255984582
20
4.6505694067225
30
0
41
1
10
103.643087384197
20
5.36533956180261
30
0
41
1
10
103.718003084004
20
5.69624637695512
30
0
41
1
10
103.867834483619
20
6.28898185802078
30
0
41
1
10
103.942750183426
20
6.55075173874755
30
0
41
1
10
104.09258158304
20
6.99611223247032
30
0
41
1
10
104.167497282848
20
7.17970902425122
30
0
41
1
10
104.317328682462
20
7.46768171716545
30
0
41
1
10
104.392244382269
20
7.57211678922783
30
0
41
1
10
104.542075781884
20
7.7077342326352
30
0
41
1
10
104.616991481691
20
7.739
30
0
41
1
10
104.691907181499
20
7.739
30
0
0
SPLINE
5
F1
100
AcDbEntity
8
1
62
256
6
ByLayer
370
13
48
1
60
0
100
AcDbSpline
70
4
71
3
72
85
73
81
40
0
40
0
40
0
40
0
40
0.0312499999999998
40
0.0312499999999998
40
0.0624999999999996
40
0.0624999999999996
40
0.0781249999999993
40
0.0781249999999993
40
0.0820312499999992
40
0.0820312499999992
40
0.0859374999999991
40
0.0859374999999991
40
0.093749999999999
40
0.093749999999999
40
0.124999999999999
40
0.124999999999999
40
0.156249999999999
40
0.156249999999999
40
0.187499999999998
40
0.187499999999998
40
0.218749999999998
40
0.218749999999998
40
0.249999999999998
40
0.249999999999998
40
0.281249999999998
40
0.281249999999998
40
0.312499999999997
40
0.312499999999997
40
0.343749999999997
40
0.343749999999997
40
0.374999999999997
40
0.374999999999997
40
0.382812499999997
40
0.386718749999997
40
0.386718749999997
40
0.390624999999998
40
0.390624999999998
40
0.406249999999998
40
0.406249999999998
40
0.437499999999999
40
0.437499999999999
40
0.468749999999999
40
0.468749999999999
40
0.5
40
0.5
40
0.53125
40
0.53125
40
0.562500000000001
40
0.562500000000001
40
0.593750000000001
40
0.593750000000001
40
0.625000000000002
40
0.625000000000002
40
0.656250000000002
40
0.656250000000002
40
0.687500000000003
40
0.687500000000003
40
0.695312500000003
40
0.695312500000003
40
0.703125000000003
40
0.703125000000003
40
0.718750000000003
40
0.718750000000003
40
0.750000000000003
40
0.750000000000003
40
0.781250000000002
40
0.781250000000002
40
0.812500000000002
40
0.812500000000002
40
0.843750000000002
40
0.843750000000002
40
0.875000000000001
40
0.875000000000001
40
0.906250000000001
40
0.906250000000001
40
0.937500000000001
40
0.937500000000001
40
0.96875
40
0.96875
40
1
40
1
40
1
40
1
41
1
10
97.5
20
3.11233863504882
30
0
41
1
10
97.5697525353038
20
2.72572095170065
30
0
41
1
10
97.6395050706076
20
2.33122104376551
30
0
41
1
10
97.779010141215
20
1.54327123486152
30
0
41
1
10
97.8487626765186
20
1.14987115127482
30
0
41
1
10
97.9533914794744
20
0.571214002334386
30
0
41
1
10
97.9882677471263
20
0.380209323474929
30
0
41
1
10
98.0318630816911
20
0.144692324043319
30
0
41
1
10
98.0405821486041
20
0.0977502700397963
30
0
41
1
10
98.05802028243
20
0.0042086416918892
30
0
41
1
10
98.0667393493429
20
-0.042370651312126
30
0
41
1
10
98.0928965500818
20
-0.182960711743533
30
0
41
1
10
98.1103346839078
20
-0.277362273381556
30
0
41
1
10
98.1975253530375
20
-0.752333669068236
30
0
41
1
10
98.2672778883413
20
-1.14193977885179
30
0
41
1
10
98.4067829589487
20
-1.92750644408721
30
0
41
1
10
98.4765354942524
20
-2.32342787060588
30
0
41
1
10
98.61604056486
20
-3.10548191762311
30
0
41
1
10
98.6857931001638
20
-3.49154608869253
30
0
41
1
10
98.8252981707712
20
-4.23614917710785
30
0
41
1
10
98.895050706075
20
-4.59460364987967
30
0
41
1
10
99.0345557766826
20
-5.26701530050431
30
0
41
1
10
99.1043083119863
20
-5.58089511821552
30
0
41
1
10
99.2438133825938
20
-6.15047195749705
30
0
41
1
10
99.3135659178976
20
-6.40612179713688
30
0
41
1
10
99.453070988505
20
-6.85079119767971
30
0
41
1
10
99.5228235238087
20
-7.03980568956158
30
0
41
1
10
99.6623285944162
20
-7.3488101483818
30
0
41
1
10
99.73208112972
20
-7.46883306552959
30
0
41
1
10
99.8715862003276
20
-7.64306478528457
30
0
41
1
10
99.9413387356312
20
-7.69732869037438
30
0
41
1
10
100.028529404761
20
-7.7286659911004
30
0
41
1
10
100.0546866055
20
-7.73534195569826
30
0
41
1
10
100.080843806239
20
-7.73808979457917
30
0
41
1
10
100.098281940065
20
-7.73906747117698
30
0
41
1
10
100.107001006978
20
-7.73913112058887
30
0
41
1
10
100.150596341542
20
-7.73733404705871
30
0
41
1
10
100.185472609194
20
-7.72907957099011
30
0
41
1
10
100.29010141215
20
-7.6821565976324
30
0
41
1
10
100.359853947454
20
-7.62121330700703
30
0
41
1
10
100.499359018061
20
-7.433050223284
30
0
41
1
10
100.569111553365
20
-7.30577676893279
30
0
41
1
10
100.708616623973
20
-6.98223529212606
30
0
41
1
10
100.778369159276
20
-6.7859377339604
30
0
41
1
10
100.917874229884
20
-6.32730529201385
30
0
41
1
10
100.987626765188
20
-6.06498002239709
30
0
41
1
10
101.127131835795
20
-5.48327314539458
30
0
41
1
10
101.196884371099
20
-5.16394275319843
30
0
41
1
10
101.336389441706
20
-4.48231174979423
30
0
41
1
10
101.40614197701
20
-4.12009044572349
30
0
41
1
10
101.545647047618
20
-3.36984453163731
30
0
41
1
10
101.615399582921
20
-2.98190365485377
30
0
41
1
10
101.754904653529
20
-2.19792464115463
30
0
41
1
10
101.824657188833
20
-1.80195225285542
30
0
41
1
10
101.96416225944
20
-1.01783304132763
30
0
41
1
10
102.033914794744
20
-0.629721989138801
30
0
41
1
10
102.121105463873
20
-0.157338078426704
30
0
41
1
10
102.138543597699
20
-0.0637389980728642
30
0
41
1
10
102.173419865351
20
0.123135529371808
30
0
41
1
10
102.190857999177
20
0.21726407255187
30
0
41
1
10
102.243172400655
20
0.501482045339515
30
0
41
1
10
102.278048668307
20
0.693411339396306
30
0
41
1
10
102.382677471263
20
1.27434395209215
30
0
41
1
10
102.452430006566
20
1.66859265393273
30
0
41
1
10
102.591935077174
20
2.45655097863073
30
0
41
1
10
102.661687612477
20
2.85020754848395
30
0
41
1
10
102.801192683085
20
3.61987234157397
30
0
41
1
10
102.870945218389
20
3.99580258254289
30
0
41
1
10
103.010450288996
20
4.71230229778254
30
0
41
1
10
103.0802028243
20
5.05278735936864
30
0
41
1
10
103.219707894908
20
5.68259916804467
30
0
41
1
10
103.289460430211
20
5.97185963568671
30
0
41
1
10
103.428965500819
20
6.48769568989132
30
0
41
1
10
103.498718036123
20
6.71424239475419
30
0
41
1
10
103.63822310673
20
7.09888652274705
30
0
41
1
10
103.707975642034
20
7.2569972657567
30
0
41
1
10
103.847480712641
20
7.50500342178992
30
0
41
1
10
103.917233247945
20
7.59494402531431
30
0
41
1
10
104.056738318553
20
7.71191288659062
30
0
41
1
10
104.126490853856
20
7.739
30
0
41
1
10
104.19624338916
20
7.739
30
0
0
SPLINE
5
F2
100
AcDbEntity
8
1
62
256
6
ByLayer
370
13
48
1
60
0
100
AcDbSpline
70
4
71
3
72
84
73
80
40
0
40
0
40
0
40
0
40
0.0078125
40
0.0078125
40
0.01171875
40
0.01171875
40
0.015625
40
0.03125
40
0.03125
40
0.0625
40
0.0625
40
0.0937499999999999
40
0.0937499999999999
40
0.125
40
0.125
40
0.15625
40
0.15625
40
0.1875
40
0.1875
40
0.21875
40
0.21875
40
0.25
40
0.25
40
0.28125
40
0.28125
40
0.3125
40
0.3125
40
0.328125
40
0.328125
40
0.3359375
40
0.3359375
40
0.34375
40
0.34375
40
0.375
40
0.375
40
0.40625
40
0.40625
40
0.4375
40
0.4375
40
0.46875
40
0.46875
40
0.5
40
0.5
40
0.53125
40
0.53125
40
0.5625
40
0.5625
40
0.59375
40
0.59375
40
0.625
40
0.625
40
0.65625
40
0.65625
40
0.6640625
40
0.66796875
40
0.66796875
40
0.671875
40
0.671875
40
0.6875
40
0.6875
40
0.71875
40
0.71875
40
0.75
40
0.75
40
0.78125
40
0.78125
40
0.8125
40
0.8125
40
0.84375
40
0.84375
40
0.875
40
0.875
40
0.90625
40
0.90625
40
0.9375
40
0.9375
40
0.96875
40
0.96875
40
1
40
1
40
1
40
1
41
1
10
97.5
20
0.340775549450882
30
0
41
1
10
97.5161473427
20
0.252935429532897
30
0
41
1
10
97.5322946854001
20
0.165611585039244
30
0
41
1
10
97.5565156994502
20
0.0354973736163515
30
0
41
1
10
97.5645893708002
20
-0.0076321758775748
30
0
41
1
10
97.5807367135002
20
-0.0942495687725966
30
0
41
1
10
97.6211050702505
20
-0.311525416470346
30
0
41
1
10
97.6614734270006
20
-0.53228639970996
30
0
41
1
10
97.7583574832008
20
-1.0671299101501
30
0
41
1
10
97.8229468540011
20
-1.43046067410592
30
0
41
1
10
97.9521255956015
20
-2.1596813814256
30
0
41
1
10
98.0167149664018
20
-2.52553993848528
30
0
41
1
10
98.1458937080022
20
-3.24665215203561
30
0
41
1
10
98.2104830788026
20
-3.60185676869293
30
0
41
1
10
98.3396618204029
20
-4.28755493300866
30
0
41
1
10
98.4042511912032
20
-4.61799065337831
30
0
41
1
10
98.5334299328038
20
-5.24074676681752
30
0
41
1
10
98.5980193036038
20
-5.53301436366334
30
0
41
1
10
98.7271980452043
20
-6.06844756071939
30
0
41
1
10
98.7917874160045
20
-6.31157901327245
30
0
41
1
10
98.9209661576049
20
-6.74152454635126
30
0
41
1
10
98.9855555284051
20
-6.92833081687368
30
0
41
1
10
99.1147342700056
20
-7.24283324963267
30
0
41
1
10
99.1793236408058
20
-7.37054687140062
30
0
41
1
10
99.3085023824063
20
-7.56833674894764
30
0
41
1
10
99.3730917532065
20
-7.6384474789765
30
0
41
1
10
99.4699758094069
20
-7.70407730138706
30
0
41
1
10
99.502270494807
20
-7.71938795494415
30
0
41
1
10
99.5507125229071
20
-7.73313246279591
30
0
41
1
10
99.5668598656072
20
-7.7361780419474
30
0
41
1
10
99.5991545510074
20
-7.73931219704917
30
0
41
1
10
99.6153018937073
20
-7.73941470550707
30
0
41
1
10
99.6960386072076
20
-7.73263622491615
30
0
41
1
10
99.7606279780078
20
-7.70355286208806
30
0
41
1
10
99.8898067196084
20
-7.59135999682982
30
0
41
1
10
99.9543960904086
20
-7.50821045095176
30
0
41
1
10
100.083574832009
20
-7.28364970239676
30
0
41
1
10
100.148164202809
20
-7.14220701411034
30
0
41
1
10
100.27734294441
20
-6.80048563121571
30
0
41
1
10
100.34193231521
20
-6.60019480888718
30
0
41
1
10
100.47111105681
20
-6.14455865703434
30
0
41
1
10
100.535700427611
20
-5.88922748133459
30
0
41
1
10
100.664879169211
20
-5.33163816475962
30
0
41
1
10
100.729468540011
20
-5.02941947857013
30
0
41
1
10
100.858647281612
20
-4.38971193897038
30
0
41
1
10
100.923236652412
20
-4.05227837129394
30
0
41
1
10
101.052415394012
20
-3.35586224015134
30
0
41
1
10
101.117004764813
20
-2.99693658000365
30
0
41
1
10
101.246183506413
20
-2.27158213209637
30
0
41
1
10
101.310772877213
20
-1.90519882837523
30
0
41
1
10
101.439951618814
20
-1.17771708973518
30
0
41
1
10
101.504540989614
20
-0.816645418457711
30
0
41
1
10
101.585277703114
20
-0.37512423044052
30
0
41
1
10
101.609498717164
20
-0.243394304685779
30
0
41
1
10
101.633719731214
20
-0.112905569127349
30
0
41
1
10
101.649867073914
20
-0.0262044084104787
30
0
41
1
10
101.657940745264
20
0.0169160035978848
30
0
41
1
10
101.698309102015
20
0.233564392687413
30
0
41
1
10
101.730603787415
20
0.409230583676674
30
0
41
1
10
101.827487843615
20
0.941659171992626
30
0
41
1
10
101.892077214415
20
1.30393286843108
30
0
41
1
10
102.021255956016
20
2.03244465985128
30
0
41
1
10
102.085845326816
20
2.39865367272617
30
0
41
1
10
102.215024068416
20
3.1220709124436
30
0
41
1
10
102.279613439217
20
3.47923182204616
30
0
41
1
10
102.408792180817
20
4.17047722395446
30
0
41
1
10
102.473381551617
20
4.50450425741303
30
0
41
1
10
102.602560293218
20
5.13590567482194
30
0
41
1
10
102.667149664018
20
5.43322592027047
30
0
41
1
10
102.796328405618
20
5.97986644647415
30
0
41
1
10
102.860917776419
20
6.22914986614609
30
0
41
1
10
102.990096518019
20
6.67201489583888
30
0
41
1
10
103.054685888819
20
6.86558552500725
30
0
41
1
10
103.18386463042
20
7.19371209901686
30
0
41
1
10
103.24845400122
20
7.32828289139812
30
0
41
1
10
103.37763274282
20
7.53941922943221
30
0
41
1
10
103.442222113621
20
7.61601783130212
30
0
41
1
10
103.571400855221
20
7.71578804988772
30
0
41
1
10
103.635990226021
20
7.739
30
0
41
1
10
103.700579596822
20
7.739
30
0
0
SPLINE
5
F3
100
AcDbEntity
8
1
62
256
6
ByLayer
370
13
48
1
60
0
100
AcDbSpline
70
4
71
3
72
78
73
74
40
0
40
0
40
0
40
0
40
0.031249999999998
40
0.031249999999998
40
0.062499999999996
40
0.062499999999996
40
0.0937499999999941
40
0.0937499999999941
40
0.124999999999992
40
0.124999999999992
40
0.15624999999999
40
0.15624999999999
40
0.187499999999988
40
0.187499999999988
40
0.218749999999986
40
0.218749999999986
40
0.249999999999984
40
0.249999999999984
40
0.281249999999982
40
0.281249999999982
40
0.289062499999982
40
0.289062499999982
40
0.296874999999982
40
0.296874999999982
40
0.312499999999981
40
0.312499999999981
40
0.343749999999981
40
0.343749999999981
40
0.374999999999981
40
0.374999999999981
40
0.406249999999981
40
0.406249999999981
40
0.437499999999981
40
0.437499999999981
40
0.468749999999981
40
0.468749999999981
40
0.499999999999981
40
0.499999999999981
40
0.531249999999981
40
0.531249999999981
40
0.562499999999981
40
0.562499999999981
40
0.593749999999981
40
0.593749999999981
40
0.62499999999998
40
0.62499999999998
40
0.64062499999998
40
0.64062499999998
40
0.64843749999998
40
0.64843749999998
40
0.65624999999998
40
0.65624999999998
40
0.687499999999982
40
0.687499999999982
40
0.718749999999984
40
0.718749999999984
40
0.749999999999986
40
0.749999999999986
40
0.781249999999987
40
0.781249999999987
40
0.812499999999989
40
0.812499999999989
40
0.843749999999991
40
0.843749999999991
40
0.874999999999993
40
0.874999999999993
40
0.906249999999995
40
0.906249999999995
40
0.937499999999996
40
0.937499999999996
40
0.968749999999998
40
0.968749999999998
40
1
40
1
40
1
40
1
41
1
10
97.5
20
-2.40547241177603
30
0
41
1
10
97.5594262062967
20
-2.74034544716733
30
0
41
1
10
97.6188524125934
20
-3.0732381964005
30
0
41
1
10
97.7377048251868
20
-3.72434557887669
30
0
41
1
10
97.7971310314834
20
-4.04252406294057
30
0
41
1
10
97.9159834440769
20
-4.65329456339094
30
0
41
1
10
97.9754096503736
20
-4.94584852674268
30
0
41
1
10
98.094262062967
20
-5.49546744545682
30
0
41
1
10
98.1536882692636
20
-5.75250058887804
30
0
41
1
10
98.2725406818571
20
-6.22326099199751
30
0
41
1
10
98.3319668881538
20
-6.43696959406415
30
0
41
1
10
98.4508193007472
20
-6.81613099774648
30
0
41
1
10
98.5102455070438
20
-6.98158149598271
30
0
41
1
10
98.6290979196372
20
-7.26246624627348
30
0
41
1
10
98.6885241259339
20
-7.3779131735057
30
0
41
1
10
98.8073765385274
20
-7.56005476587956
30
0
41
1
10
98.866802744824
20
-7.62677220330195
30
0
41
1
10
98.9856551574175
20
-7.71519021902807
30
0
41
1
10
99.0450813637142
20
-7.73691747647391
30
0
41
1
10
99.119364121585
20
-7.73934155511327
30
0
41
1
10
99.1342206731592
20
-7.73860455827491
30
0
41
1
10
99.1639337763075
20
-7.73461327139384
30
0
41
1
10
99.1787903278818
20
-7.73135602822634
30
0
41
1
10
99.2233599826043
20
-7.71766646726442
30
0
41
1
10
99.2530730857527
20
-7.70331347238877
30
0
41
1
10
99.3422123951978
20
-7.64360015692012
30
0
41
1
10
99.4016386014944
20
-7.58151987930981
30
0
41
1
10
99.5204910140877
20
-7.40892391700075
30
0
41
1
10
99.5799172203844
20
-7.29838479839557
30
0
41
1
10
99.6987696329777
20
-7.02731489601081
30
0
41
1
10
99.7581958392745
20
-6.86677018443464
30
0
41
1
10
99.877048251868
20
-6.49710724999778
30
0
41
1
10
99.9364744581646
20
-6.28798972128132
30
0
41
1
10
100.055326870758
20
-5.82578983898097
30
0
41
1
10
100.114753077055
20
-5.5727245978932
30
0
41
1
10
100.233605489648
20
-5.03016421540934
30
0
41
1
10
100.293031695945
20
-4.74069985102483
30
0
41
1
10
100.411884108538
20
-4.13506886881046
30
0
41
1
10
100.471310314835
20
-3.81894005359967
30
0
41
1
10
100.590162727428
20
-3.17084324738949
30
0
41
1
10
100.649588933725
20
-2.83891192974036
30
0
41
1
10
100.768441346318
20
-2.17005978507646
30
0
41
1
10
100.827867552615
20
-1.83316766833468
30
0
41
1
10
100.946719965209
20
-1.16422527717694
30
0
41
1
10
101.006146171505
20
-0.832192131009577
30
0
41
1
10
101.09528548095
20
-0.343859895645721
30
0
41
1
10
101.124998584099
20
-0.182687122660838
30
0
41
1
10
101.169568238821
20
0.0560488578626632
30
0
41
1
10
101.184424790395
20
0.135769084941671
30
0
41
1
10
101.214137893544
20
0.296477627509233
30
0
41
1
10
101.228994445118
20
0.377295475494663
30
0
41
1
10
101.303277202989
20
0.783439685277386
30
0
41
1
10
101.362703409285
20
1.11500753446089
30
0
41
1
10
101.481555821879
20
1.78346271758437
30
0
41
1
10
101.540982028175
20
2.12033352336115
30
0
41
1
10
101.659834440769
20
2.78965780438708
30
0
41
1
10
101.719260647065
20
3.12208308589138
30
0
41
1
10
101.838113059659
20
3.77171179250513
30
0
41
1
10
101.897539265956
20
4.08887879800247
30
0
41
1
10
102.016391678549
20
4.69710495186456
30
0
41
1
10
102.075817884846
20
4.98812616218348
30
0
41
1
10
102.194670297439
20
5.53423728012402
30
0
41
1
10
102.254096503736
20
5.78929588476262
30
0
41
1
10
102.372948916329
20
6.25579128449607
30
0
41
1
10
102.432375122626
20
6.46721019082591
30
0
41
1
10
102.551227535219
20
6.84163010963826
30
0
41
1
10
102.610653741516
20
7.00462962541874
30
0
41
1
10
102.72950615411
20
7.28060708062861
30
0
41
1
10
102.788932360406
20
7.39359832786863
30
0
41
1
10
102.907784773
20
7.57096057034855
30
0
41
1
10
102.967210979296
20
7.63535467643408
30
0
41
1
10
103.08606339189
20
7.71936103184592
30
0
41
1
10
103.145489598186
20
7.739
30
0
41
1
10
103.204915804483
20
7.739
30
0
0
SPLINE
5
F4
100
AcDbEntity
8
1
62
256
6
ByLayer
370
13
48
1
60
0
100
AcDbSpline
70
4
71
3
72
8
73
4
40
0
40
0
40
0
40
0
40
1
40
1
40
1
40
1
41
1
10
105.683234357014
20
-5.6780228691311
30
0
41
1
10
106.622156238009
20
-3.78041122701225
30
0
41
1
10
107.561078119005
20
-1.88772943543731
30
0
41
1
10
108.5
20
-1.99E-13
30
0
0
SPLINE
5
F5
100
AcDbEntity
8
1
62
256
6
ByLayer
370
13
48
1
60
0
100
AcDbSpline
70
4
71
3
72
8
73
4
40
0
40
0
40
0
40
0
40
1
40
1
40
1
40
1
41
1
10
105.683234357014
20
7.72523574337492
30
0
41
1
10
106.622156238009
20
5.15059034392021
30
0
41
1
10
107.561078119005
20
2.57550154667527
30
0
41
1
10
108.5
20
0
30
0
0
SPLINE
5
F6
100
AcDbEntity
8
1
62
256
6
ByLayer
370
13
48
1
60
0
100
AcDbSpline
70
4
71
3
72
8
73
4
40
0
40
0
40
0
40
0
40
1
40
1
40
1
40
1
41
1
10
105.683234357014
20
7.64878172240546
30
0
41
1
10
106.622156238009
20
5.09808153576847
30
0
41
1
10
107.561078119005
20
2.5484775153152
30
0
41
1
10
108.5
20
-9.948E-13
30
0
0
SPLINE
5
F7
100
AcDbEntity
8
1
62
256
6
ByLayer
370
13
48
1
60
0
100
AcDbSpline
70
4
71
3
72
8
73
4
40
0
40
0
40
0
40
0
40
1
40
1
40
1
40
1
41
1
10
105.683234357014
20
2.03345465469101
30
0
41
1
10
106.622156238009
20
1.36264743493757
30
0
41
1
10
107.561078119005
20
0.684826518475916
30
0
41
1
10
108.5
20
-2.84E-14
30
0
0
SPLINE
5
F8
100
AcDbEntity
8
1
62
256
6
ByLayer
370
13
48
1
60
0
100
AcDbSpline
70
4
71
3
72
8
73
4
40
0
40
0
40
0
40
0
40
1
40
1
40
1
40
1
41
1
10
105.683234357014
20
-3.36585797711516
30
0
41
1
10
106.622156238009
20
-2.25044840598716
30
0
41
1
10
107.561078119005
20
-1.1284912874186
30
0
41
1
10
108.5
20
-1.137E-13
30
0
0
SPLINE
5
F9
100
AcDbEntity
8
1
62
256
6
ByLayer
370
13
48
1
60
0
100
AcDbSpline
70
4
71
3
72
8
73
4
40
0
40
0
40
0
40
0
40
1
40
1
40
1
40
1
41
1
10
105.683234357014
20
-7.28937035719994
30
0
41
1
10
106.622156238009
20
-4.86202092954196
30
0
41
1
10
107.561078119005
20
-2.43222116807195
30
0
41
1
10
108.5
20
-2.274E-13
30
0
0
SPLINE
5
FA
100
AcDbEntity
8
1
62
256
6
ByLayer
370
13
48
1
60
0
100
AcDbSpline
70
4
71
3
72
8
73
4
40
0
40
0
40
0
40
0
40
1
40
1
40
1
40
1
41
1
10
105.683234357014
20
-1.06945191299738
30
0
41
1
10
106.622156238009
20
-0.720164543549515
30
0
41
1
10
107.561078119005
20
-0.363679148832858
30
0
41
1
10
108.5
20
-2.84E-14
30
0
0
SPLINE
5
FB
100
AcDbEntity
8
1
62
256
6
ByLayer
370
13
48
1
60
0
100
AcDbSpline
70
4
71
3
72
8
73
4
40
0
40
0
40
0
40
0
40
1
40
1
40
1
40
1
41
1
10
105.683234357014
20
7.37364066705584
30
0
41
1
10
106.622156238009
20
4.91355416921004
30
0
41
1
10
107.561078119005
20
2.45566419916398
30
0
41
1
10
108.5
20
2.274E-13
30
0
0
SPLINE
5
FC
100
AcDbEntity
8
1
62
256
6
ByLayer
370
13
48
1
60
0
100
AcDbSpline
70
4
71
3
72
8
73
4
40
0
40
0
40
0
40
0
40
1
40
1
40
1
40
1
41
1
10
105.683234357014
20
4.61958711341302
30
0
41
1
10
106.622156238009
20
3.07389498728691
30
0
41
1
10
107.561078119005
20
1.53402651509822
30
0
41
1
10
108.5
20
-5.969E-13
30
0
0
SPLINE
5
FD
100
AcDbEntity
8
1
62
256
6
ByLayer
370
13
48
1
60
0
100
AcDbSpline
70
4
71
3
72
8
73
4
40
0
40
0
40
0
40
0
40
1
40
1
40
1
40
1
41
1
10
105.683234357014
20
7.56030944955955
30
0
41
1
10
106.622156238009
20
5.04175874450971
30
0
41
1
10
107.561078119005
20
2.5216455951485
30
0
41
1
10
108.5
20
2.84E-14
30
0
0
SPLINE
5
FE
100
AcDbEntity
8
1
62
256
6
ByLayer
370
13
48
1
60
0
100
AcDbSpline
70
4
71
3
72
8
73
4
40
0
40
0
40
0
40
0
40
1
40
1
40
1
40
1
41
1
10
105.683234357014
20
3.16649694256296
30
0
41
1
10
106.622156238009
20
2.11762820084442
30
0
41
1
10
107.561078119005
20
1.06212502397182
30
0
41
1
10
108.5
20
-2.84E-14
30
0
0
SPLINE
5
FF
100
AcDbEntity
8
1
62
256
6
ByLayer
370
13
48
1
60
0
100
AcDbSpline
70
4
71
3
72
8
73
4
40
0
40
0
40
0
40
0
40
1
40
1
40
1
40
1
41
1
10
105.683234357014
20
-7.43742840245798
30
0
41
1
10
106.622156238009
20
-4.95627692759717
30
0
41
1
10
107.561078119005
20
-2.47712429447202
30
0
41
1
10
108.5
20
-2.558E-13
30
0
0
SPLINE
5
100
100
AcDbEntity
8
1
62
256
6
ByLayer
370
13
48
1
60
0
100
AcDbSpline
70
4
71
3
72
8
73
4
40
0
40
0
40
0
40
0
40
1
40
1
40
1
40
1
41
1
10
105.683234357014
20
-4.79413782673146
30
0
41
1
10
106.622156238009
20
-3.19038772244019
30
0
41
1
10
107.561078119005
20
-1.59233544816055
30
0
41
1
10
108.5
20
-1.421E-13
30
0
0
SPLINE
5
101
100
AcDbEntity
8
1
62
256
6
ByLayer
370
13
48
1
60
0
100
AcDbSpline
70
4
71
3
72
8
73
4
40
0
40
0
40
0
40
0
40
1
40
1
40
1
40
1
41
1
10
105.683234357014
20
-6.79824200474064
30
0
41
1
10
106.622156238009
20
-4.53563357404312
30
0
41
1
10
107.561078119004
20
-2.26954391147774
30
0
41
1
10
108.5
20
-7.674E-13
30
0
0
SPLINE
5
102
100
AcDbEntity
8
1
62
256
6
ByLayer
370
13
48
1
60
0
100
AcDbSpline
70
4
71
3
72
8
73
4
40
0
40
0
40
0
40
0
40
1
40
1
40
1
40
1
41
1
10
105.683234357014
20
6.29942205439195
30
0
41
1
10
106.622156238009
20
4.19539379187961
30
0
41
1
10
107.561078119004
20
2.09557811589022
30
0
41
1
10
108.499999999999
20
1.2221E-12
30
0
0
SPLINE
5
103
100
AcDbEntity
8
1
62
256
6
ByLayer
370
13
48
1
60
0
100
AcDbSpline
70
4
71
3
72
8
73
4
40
0
40
0
40
0
40
0
40
1
40
1
40
1
40
1
41
1
10
105.683234357014
20
-2.24479539271462
30
0
41
1
10
106.622156238009
20
-1.50348418213662
30
0
41
1
10
107.561078119005
20
-0.755216073607272
30
0
41
1
10
108.5
20
-8.53E-14
30
0
0
SPLINE
5
104
100
AcDbEntity
8
1
62
256
6
ByLayer
370
13
48
1
60
0
100
AcDbSpline
70
4
71
3
72
8
73
4
40
0
40
0
40
0
40
0
40
1
40
1
40
1
40
1
41
1
10
105.683234357014
20
6.69042304032266
30
0
41
1
10
106.622156238009
20
4.46393422306789
30
0
41
1
10
107.561078119005
20
2.23378435764584
30
0
41
1
10
108.5
20
-5.68E-14
30
0
0
SPLINE
5
105
100
AcDbEntity
8
1
62
256
6
ByLayer
370
13
48
1
60
0
100
AcDbSpline
70
4
71
3
72
8
73
4
40
0
40
0
40
0
40
0
40
1
40
1
40
1
40
1
41
1
10
105.683234357014
20
0.13175174423273
30
0
41
1
10
106.622156238009
20
0.0805692327919871
30
0
41
1
10
107.561078119005
20
0.0366518200984274
30
0
41
1
10
108.5
20
0
30
0
0
SPLINE
5
106
100
AcDbEntity
8
1
62
256
6
ByLayer
370
13
48
1
60
0
100
AcDbSpline
70
4
71
3
72
8
73
4
40
0
40
0
40
0
40
0
40
1
40
1
40
1
40
1
41
1
10
105.683234357014
20
5.52631993708909
30
0
41
1
10
106.622156238009
20
3.67912645656668
30
0
41
1
10
107.561078119005
20
1.8370125098094
30
0
41
1
10
108.5
20
1.705E-13
30
0
0
SPLINE
5
107
100
AcDbEntity
8
1
62
256
6
ByLayer
370
13
48
1
60
0
100
AcDbSpline
70
4
71
3
72
8
73
4
40
0
40
0
40
0
40
0
40
1
40
1
40
1
40
1
41
1
10
105.683234357014
20
5.1773300953798
30
0
41
1
10
106.622156238009
20
3.45695422820779
30
0
41
1
10
107.561078119005
20
1.73117067630884
30
0
41
1
10
108.5
20
5.68E-14
30
0
0
SPLINE
5
108
100
AcDbEntity
8
1
62
256
6
ByLayer
370
13
48
1
60
0
100
AcDbSpline
70
4
71
3
72
8
73
4
40
0
40
0
40
0
40
0
40
1
40
1
40
1
40
1
41
1
10
105.683234357014
20
-1.5458502593319
30
0
41
1
10
106.622156238009
20
-1.02344695908693
30
0
41
1
10
107.561078119005
20
-0.508161504553243
30
0
41
1
10
108.5
20
-5.68E-14
30
0
0
SPLINE
5
109
100
AcDbEntity
8
1
62
256
6
ByLayer
370
13
48
1
60
0
100
AcDbSpline
70
4
71
3
72
8
73
4
40
0
40
0
40
0
40
0
40
1
40
1
40
1
40
1
41
1
10
105.683234357014
20
7.21256900389531
30
0
41
1
10
106.622156238009
20
4.81101350454603
30
0
41
1
10
107.561078119005
20
2.40681429548073
30
0
41
1
10
108.5
20
2.84E-14
30
0
0
SPLINE
5
10A
100
AcDbEntity
8
1
62
256
6
ByLayer
370
13
48
1
60
0
100
AcDbSpline
70
4
71
3
72
8
73
4
40
0
40
0
40
0
40
0
40
1
40
1
40
1
40
1
41
1
10
105.683234357014
20
-7.67917109146467
30
0
41
1
10
106.622156238009
20
-5.11854561258366
30
0
41
1
10
107.561078119005
20
-2.55881176198827
30
0
41
1
10
108.5
20
-2.558E-13
30
0
0
SPLINE
5
10B
100
AcDbEntity
8
1
62
256
6
ByLayer
370
13
48
1
60
0
100
AcDbSpline
70
4
71
3
72
8
73
4
40
0
40
0
40
0
40
0
40
1
40
1
40
1
40
1
41
1
10
105.683234357014
20
4.22297087609053
30
0
41
1
10
106.622156238009
20
2.82140307285874
30
0
41
1
10
107.561078119005
20
1.41374052181968
30
0
41
1
10
108.5
20
5.68E-14
30
0
0
SPLINE
5
10C
100
AcDbEntity
8
1
62
256
6
ByLayer
370
13
48
1
60
0
100
AcDbSpline
70
4
71
3
72
8
73
4
40
0
40
0
40
0
40
0
40
1
40
1
40
1
40
1
41
1
10
105.683234357014
20
-5.33867585613757
30
0
41
1
10
106.622156238009
20
-3.56437776972197
30
0
41
1
10
107.561078119004
20
-1.78481208439885
30
0
41
1
10
108.5
20
-5.969E-13
30
0
0
SPLINE
5
10D
100
AcDbEntity
8
1
62
256
6
ByLayer
370
13
48
1
60
0
100
AcDbSpline
70
4
71
3
72
8
73
4
40
0
40
0
40
0
40
0
40
1
40
1
40
1
40
1
41
1
10
105.683234357014
20
-7.0158429207186
30
0
41
1
10
106.622156238009
20
-4.67416161875323
30
0
41
1
10
107.561078119005
20
-2.33553803842872
30
0
41
1
10
108.5
20
-2.274E-13
30
0
0
SPLINE
5
10E
100
AcDbEntity
8
1
62
256
6
ByLayer
370
13
48
1
60
0
100
AcDbSpline
70
4
71
3
72
8
73
4
40
0
40
0
40
0
40
0
40
1
40
1
40
1
40
1
41
1
10
105.683234357014
20
2.49563247989718
30
0
41
1
10
106.622156238009
20
1.65687685096066
30
0
41
1
10
107.561078119005
20
0.824996066631002
30
0
41
1
10
108.5
20
8.53E-14
30
0
0
SPLINE
5
10F
100
AcDbEntity
8
1
62
256
6
ByLayer
370
13
48
1
60
0
100
AcDbSpline
70
4
71
3
72
8
73
4
40
0
40
0
40
0
40
0
40
1
40
1
40
1
40
1
41
1
10
105.683234357014
20
-6.14272688287039
30
0
41
1
10
106.622156238009
20
-4.09957107753721
30
0
41
1
10
107.561078119004
20
-2.05198732116952
30
0
41
1
10
108.5
20
-7.105E-13
30
0
0
SPLINE
5
110
100
AcDbEntity
8
1
62
256
6
ByLayer
370
13
48
1
60
0
100
AcDbSpline
70
4
71
3
72
8
73
4
40
0
40
0
40
0
40
0
40
1
40
1
40
1
40
1
41
1
10
105.683234357014
20
-2.70276602494218
30
0
41
1
10
106.622156238009
20
-1.79503523527487
30
0
41
1
10
107.561078119005
20
-0.894109661933243
30
0
41
1
10
108.5
20
2.84E-14
30
0
0
SPLINE
5
111
100
AcDbEntity
8
1
62
256
6
ByLayer
370
13
48
1
60
0
100
AcDbSpline
70
4
71
3
72
8
73
4
40
0
40
0
40
0
40
0
40
1
40
1
40
1
40
1
41
1
10
105.683234357014
20
-6.42460891048796
30
0
41
1
10
106.622156238009
20
-4.27902145323671
30
0
41
1
10
107.561078119005
20
-2.13747665944837
30
0
41
1
10
108.5
20
-1.99E-13
30
0
0
SPLINE
5
112
100
AcDbEntity
8
1
62
256
6
ByLayer
370
13
48
1
60
0
100
AcDbSpline
70
4
71
3
72
8
73
4
40
0
40
0
40
0
40
0
40
1
40
1
40
1
40
1
41
1
10
105.683234357014
20
-7.604236075404
30
0
41
1
10
106.622156238009
20
-5.07084084439109
30
0
41
1
10
107.561078119005
20
-2.53608542859584
30
0
41
1
10
108.5
20
-2.558E-13
30
0
0
SPLINE
5
113
100
AcDbEntity
8
1
62
256
6
ByLayer
370
13
48
1
60
0
100
AcDbSpline
70
4
71
3
72
8
73
4
40
0
40
0
40
0
40
0
40
1
40
1
40
1
40
1
41
1
10
105.683234357014
20
6.00649745360261
30
0
41
1
10
106.622156238009
20
4.00891354655244
30
0
41
1
10
107.561078119005
20
2.00673977987051
30
0
41
1
10
108.5
20
-5.68E-14
30
0
0
SPLINE
5
114
100
AcDbEntity
8
1
62
256
6
ByLayer
370
13
48
1
60
0
100
AcDbSpline
70
4
71
3
72
8
73
4
40
0
40
0
40
0
40
0
40
1
40
1
40
1
40
1
41
1
10
105.683234357014
20
-7.73522546184432
30
0
41
1
10
106.622156238009
20
-5.15704389093438
30
0
41
1
10
107.561078119005
20
-2.57862517459577
30
0
41
1
10
108.5
20
-2.558E-13
30
0
0
SPLINE
5
115
100
AcDbEntity
8
1
62
256
6
ByLayer
370
13
48
1
60
0
100
AcDbSpline
70
4
71
3
72
8
73
4
40
0
40
0
40
0
40
0
40
1
40
1
40
1
40
1
41
1
10
105.683234357014
20
-4.40553150258424
30
0
41
1
10
106.622156238009
20
-2.9429950402714
30
0
41
1
10
107.561078119005
20
-1.47447870580905
30
0
41
1
10
108.5
20
-1.421E-13
30
0
0
SPLINE
5
116
100
AcDbEntity
8
1
62
256
6
ByLayer
370
13
48
1
60
0
100
AcDbSpline
70
4
71
3
72
8
73
4
40
0
40
0
40
0
40
0
40
1
40
1
40
1
40
1
41
1
10
105.683234357014
20
-3.79432680980813
30
0
41
1
10
106.622156238009
20
-2.52321816591905
30
0
41
1
10
107.561078119005
20
-1.25843755355612
30
0
41
1
10
108.5
20
-1.137E-13
30
0
0
SPLINE
5
117
100
AcDbEntity
8
1
62
256
6
ByLayer
370
13
48
1
60
0
100
AcDbSpline
70
4
71
3
72
8
73
4
40
0
40
0
40
0
40
0
40
1
40
1
40
1
40
1
41
1
10
105.683234357014
20
1.32976954200336
30
0
41
1
10
106.622156238009
20
0.879354782535614
30
0
41
1
10
107.561078119005
20
0.436096519565496
30
0
41
1
10
108.5
20
5.68E-14
30
0
0
SPLINE
5
118
100
AcDbEntity
8
1
62
256
6
ByLayer
370
13
48
1
60
0
100
AcDbSpline
70
4
71
3
72
8
73
4
40
0
40
0
40
0
40
0
40
1
40
1
40
1
40
1
41
1
10
105.683234357014
20
6.92019925593638
30
0
41
1
10
106.622156238009
20
4.61021324825853
30
0
41
1
10
107.561078119005
20
2.30347101624898
30
0
41
1
10
108.5
20
-8.811E-13
30
0
0
SPLINE
5
119
100
AcDbEntity
8
1
62
256
6
ByLayer
370
13
48
1
60
0
100
AcDbSpline
70
4
71
3
72
8
73
4
40
0
40
0
40
0
40
0
40
1
40
1
40
1
40
1
41
1
10
105.683234357014
20
3.60114908697176
30
0
41
1
10
106.622156238009
20
2.39433435083231
30
0
41
1
10
107.561078119005
20
1.19394656832924
30
0
41
1
10
108.5
20
1.137E-13
30
0
0
SPLINE
5
11A
100
AcDbEntity
8
1
62
256
6
ByLayer
370
13
48
1
60
0
100
AcDbSpline
70
4
71
3
72
8
73
4
40
0
40
0
40
0
40
0
40
1
40
1
40
1
40
1
41
1
10
105.683234357014
20
0.851241854619701
30
0
41
1
10
106.622156238009
20
0.57471679617845
30
0
41
1
10
107.561078119005
20
0.29096837610615
30
0
41
1
10
108.5
20
2.84E-14
30
0
0
SPLINE
5
11B
100
AcDbEntity
8
1
62
256
6
ByLayer
370
13
48
1
60
0
100
AcDbSpline
70
4
71
3
72
8
73
4
40
0
40
0
40
0
40
0
40
1
40
1
40
1
40
1
41
1
10
105.683234357014
20
-0.351554634348048
30
0
41
1
10
106.622156238009
20
-0.22711094088703
30
0
41
1
10
107.561078119005
20
-0.10992560748781
30
0
41
1
10
108.5
20
0
30
0
0
LINE
5
7D
100
AcDbEntity
8
80
62
256
6
ByLayer
370
18
48
1
60
0
100
AcDbLine
10
0
20
0
30
0
11
-5
21
0
31
0
39
0
210
0
220
0
230
1
0
LINE
5
7E
100
AcDbEntity
8
4
62
256
6
ByLayer
370
18
48
0.05
60
0
100
AcDbLine
10
-5
20
0
30
0
11
113.5
21
0
31
0
39
0
210
0
220
0
230
1
0
LINE
5
80
100
AcDbEntity
8
81
62
256
6
ByLayer
370
18
48
1
60
0
100
AcDbLine
10
108.5
20
0
30
0
11
113.5
21
0
31
0
39
0
210
0
220
0
230
1
0
LINE
5
81
100
AcDbEntity
8
SK4
62
256
6
ByLayer
370
18
48
0.05
60
0
100
AcDbLine
10
-53
20
0
30
0
11
113.5
21
0
31
0
39
0
210
0
220
0
230
1
0
LINE
5
83
100
AcDbEntity
8
1
62
256
6
ByLayer
370
18
48
1
60
0
100
AcDbLine
10
34.04323
20
-7.2
30
0
11
68.713504
21
-7.2
31
0
39
0
210
0
220
0
230
1
0
LINE
5
84
100
AcDbEntity
8
1
62
256
6
ByLayer
370
18
48
1
60
0
100
AcDbLine
10
68.713504
20
7.2
30
0
11
34.04323
21
7.2
31
0
39
0
210
0
220
0
230
1
0
LINE
5
85
100
AcDbEntity
8
1
62
256
6
ByLayer
370
18
48
1
60
0
100
AcDbLine
10
108.5
20
0
30
0
11
105.683234
21
7.739
31
0
39
0
210
0
220
0
230
1
0
LINE
5
86
100
AcDbEntity
8
1
62
256
6
ByLayer
370
18
48
1
60
0
100
AcDbLine
10
105.683234
20
-7.739
30
0
11
108.5
21
0
31
0
39
0
210
0
220
0
230
1
0
LINE
5
87
100
AcDbEntity
8
1
62
256
6
ByLayer
370
18
48
1
60
0
100
AcDbLine
10
5.196632
20
8.316783
30
0
11
0
21
9.525
31
0
39
0
210
0
220
0
230
1
0
LINE
5
88
100
AcDbEntity
8
1
62
256
6
ByLayer
370
18
48
1
60
0
100
AcDbLine
10
0
20
-9.525
30
0
11
5.196632
21
-8.316783
31
0
39
0
210
0
220
0
230
1
0
LINE
5
89
100
AcDbEntity
8
1
62
256
6
ByLayer
370
18
48
1
60
0
100
AcDbLine
10
108.5
20
0
30
0
11
105.683234
21
7.739
31
0
39
0
210
0
220
0
230
1
0
LINE
5
8A
100
AcDbEntity
8
1
62
256
6
ByLayer
370
18
48
1
60
0
100
AcDbLine
10
105.683234
20
-7.739
30
0
11
108.5
21
0
31
0
39
0
210
0
220
0
230
1
0
LINE
5
8B
100
AcDbEntity
8
1
62
256
6
ByLayer
370
18
48
1
60
0
100
AcDbLine
10
97.5
20
-7.739
30
0
11
105.683234
21
-7.739
31
0
39
0
210
0
220
0
230
1
0
LINE
5
8C
100
AcDbEntity
8
SK1
62
256
6
ByLayer
370
18
48
1
60
0
100
AcDbLine
10
-48
20
-8.525
30
0
11
-47
21
-9.525
31
0
39
0
210
0
220
0
230
1
0
LINE
5
8E
100
AcDbEntity
8
SK1
62
256
6
ByLayer
370
18
48
1
60
0
100
AcDbLine
10
-47
20
9.525
30
0
11
-48
21
8.525
31
0
39
0
210
0
220
0
230
1
0
LINE
5
8F
100
AcDbEntity
8
SK1
62
256
6
ByLayer
370
18
48
1
60
0
100
AcDbLine
10
-47
20
-9.525
30
0
11
0
21
-9.525
31
0
39
0
210
0
220
0
230
1
0
LINE
5
90
100
AcDbEntity
8
SK1
62
256
6
ByLayer
370
18
48
1
60
0
100
AcDbLine
10
0
20
9.525
30
0
11
-47
21
9.525
31
0
39
0
210
0
220
0
230
1
0
LINE
5
91
100
AcDbEntity
8
1
62
256
6
ByLayer
370
18
48
1
60
0
100
AcDbLine
10
0
20
9.525
30
0
11
0
21
-9.525
31
0
39
0
210
0
220
0
230
1
0
LINE
5
92
100
AcDbEntity
8
1
62
256
6
ByLayer
370
18
48
1
60
0
100
AcDbLine
10
105.683234
20
7.739
30
0
11
105.683234
21
7.493262
31
0
39
0
210
0
220
0
230
1
0
LINE
5
93
100
AcDbEntity
8
1
62
256
6
ByLayer
370
18
48
1
60
0
100
AcDbLine
10
105.683234
20
-7.739
30
0
11
105.683234
21
-1.102683
31
0
39
0
210
0
220
0
230
1
0
LINE
5
94
100
AcDbEntity
8
1
62
256
6
ByLayer
370
18
48
1
60
0
100
AcDbLine
10
10
20
-4.098935
30
0
11
10
21
6.756464
31
0
39
0
210
0
220
0
230
1
0
LINE
5
95
100
AcDbEntity
8
SK1
62
256
6
ByLayer
370
18
48
1
60
0
100
AcDbLine
10
-48
20
-8.525
30
0
11
-48
21
8.525
31
0
39
0
210
0
220
0
230
1
0
LINE
5
96
100
AcDbEntity
8
SK1
62
256
6
ByLayer
370
18
48
1
60
0
100
AcDbLine
10
-40.207362
20
-3.933192
30
0
11
-40.207362
21
3.933192
31
0
39
0
210
0
220
0
230
1
0
LINE
5
97
100
AcDbEntity
8
SK1
62
256
6
ByLayer
370
18
48
1
60
0
100
AcDbLine
10
0
20
9.525
30
0
11
0
21
-9.525
31
0
39
0
210
0
220
0
230
1
0
LINE
5
98
100
AcDbEntity
8
SK1
62
256
6
ByLayer
370
18
48
1
60
0
100
AcDbLine
10
-47
20
-9.525
30
0
11
-47
21
9.525
31
0
39
0
210
0
220
0
230
1
0
LINE
5
99
100
AcDbEntity
8
SK1
62
256
6
ByLayer
370
18
48
1
60
0
100
AcDbLine
10
-5.911513
20
-3.933192
30
0
11
-40.207362
21
-3.933192
31
0
39
0
210
0
220
0
230
1
0
LINE
5
9A
100
AcDbEntity
8
SK1
62
256
6
ByLayer
370
18
48
1
60
0
100
AcDbLine
10
-40.207362
20
3.933192
30
0
11
-5.911513
21
3.933192
31
0
39
0
210
0
220
0
230
1
0
LINE
5
9B
100
AcDbEntity
8
SK1
62
256
6
ByLayer
370
18
48
1
60
0
100
AcDbLine
10
-5.911513
20
-3.933192
30
0
11
-5.911513
21
3.933192
31
0
39
0
210
0
220
0
230
1
0
LINE
5
9C
100
AcDbEntity
8
1
62
256
6
ByLayer
370
18
48
1
60
0
100
AcDbLine
10
105.683234
20
7.739
30
0
11
105.683234
21
-7.739
31
0
39
0
210
0
220
0
230
1
0
LINE
5
9D
100
AcDbEntity
8
1
62
256
6
ByLayer
370
18
48
1
60
0
100
AcDbLine
10
105.683234
20
7.739
30
0
11
105.683234
21
-7.739
31
0
39
0
210
0
220
0
230
1
0
LINE
5
9E
100
AcDbEntity
8
1
62
256
6
ByLayer
370
18
48
1
60
0
100
AcDbLine
10
105.683234
20
7.739
30
0
11
105.683234
21
-7.739
31
0
39
0
210
0
220
0
230
1
0
LINE
5
9F
100
AcDbEntity
8
1
62
256
6
ByLayer
370
18
48
1
60
0
100
AcDbLine
10
97.5
20
7.739
30
0
11
97.5
21
-7.739
31
0
39
0
210
0
220
0
230
1
0
LINE
5
A0
100
AcDbEntity
8
1
62
256
6
ByLayer
370
18
48
1
60
0
100
AcDbLine
10
97.5
20
7.739
30
0
11
97.5
21
-7.739
31
0
39
0
210
0
220
0
230
1
0
LINE
5
A1
100
AcDbEntity
8
1
62
256
6
ByLayer
370
18
48
1
60
0
100
AcDbLine
10
105.683234
20
7.739
30
0
11
105.683234
21
-7.739
31
0
39
0
210
0
220
0
230
1
0
LINE
5
A2
100
AcDbEntity
8
1
62
256
6
ByLayer
370
18
48
1
60
0
100
AcDbLine
10
97.5
20
7.739
30
0
11
97.5
21
-7.739
31
0
39
0
210
0
220
0
230
1
0
LINE
5
A3
100
AcDbEntity
8
1
62
256
6
ByLayer
370
18
48
1
60
0
100
AcDbLine
10
105.683234
20
7.739
30
0
11
105.683234
21
-7.739
31
0
39
0
210
0
220
0
230
1
0
LINE
5
A4
100
AcDbEntity
8
SK2
62
256
6
ByLayer
370
13
48
1
60
0
100
AcDbLine
10
-54.5
20
-9.525
30
0
11
-54.5
21
37.799683
31
0
39
0
210
0
220
0
230
1
0
LINE
5
A6
100
AcDbEntity
8
SK2
62
256
6
ByLayer
370
13
48
1
60
0
100
AcDbLine
10
-49.5875
20
9.525
30
0
11
-56.5
21
9.525
31
0
39
0
210
0
220
0
230
1
0
LINE
5
A7
100
AcDbEntity
8
SK2
62
256
6
ByLayer
370
13
48
1
60
0
100
AcDbLine
10
-49.5875
20
-9.525
30
0
11
-56.5
21
-9.525
31
0
39
0
210
0
220
0
230
1
0
LINE
5
A8
100
AcDbEntity
8
1
62
256
6
ByLayer
370
18
48
1
60
1
100
AcDbLine
10
-54.5
20
9.525
30
0
11
-54.039216
21
6.025002
31
0
39
0
210
0
220
0
230
1
0
LINE
5
A9
100
AcDbEntity
8
1
62
256
6
ByLayer
370
18
48
1
60
1
100
AcDbLine
10
-54.039216
20
6.025002
30
0
11
-54.960784
21
6.024998
31
0
39
0
210
0
220
0
230
1
0
LINE
5
AA
100
AcDbEntity
8
1
62
256
6
ByLayer
370
18
48
1
60
1
100
AcDbLine
10
-54.960784
20
6.024998
30
0
11
-54.5
21
9.525
31
0
39
0
210
0
220
0
230
1
0
LINE
5
AB
100
AcDbEntity
8
1
62
256
6
ByLayer
370
18
48
1
60
1
100
AcDbLine
10
-54.5
20
-9.525
30
0
11
-54.960784
21
-6.025002
31
0
39
0
210
0
220
0
230
1
0
LINE
5
AC
100
AcDbEntity
8
1
62
256
6
ByLayer
370
18
48
1
60
1
100
AcDbLine
10
-54.960784
20
-6.025002
30
0
11
-54.039216
21
-6.024998
31
0
39
0
210
0
220
0
230
1
0
LINE
5
AD
100
AcDbEntity
8
1
62
256
6
ByLayer
370
18
48
1
60
1
100
AcDbLine
10
-54.039216
20
-6.024998
30
0
11
-54.5
21
-9.525
31
0
39
0
210
0
220
0
230
1
0
LINE
5
AE
100
AcDbEntity
8
2
62
256
6
ByLayer
370
13
48
1
60
0
100
AcDbLine
10
116
20
-7.739
30
0
11
116
21
36.329569
31
0
39
0
210
0
220
0
230
1
0
LINE
5
B0
100
AcDbEntity
8
2
62
256
6
ByLayer
370
13
48
1
60
0
100
AcDbLine
10
107.270734
20
7.739
30
0
11
118
21
7.739
31
0
39
0
210
0
220
0
230
1
0
LINE
5
B1
100
AcDbEntity
8
2
62
256
6
ByLayer
370
13
48
1
60
0
100
AcDbLine
10
107.270734
20
-7.739
30
0
11
118
21
-7.739
31
0
39
0
210
0
220
0
230
1
0
LINE
5
B2
100
AcDbEntity
8
1
62
256
6
ByLayer
370
18
48
1
60
1
100
AcDbLine
10
116
20
7.739
30
0
11
116.460784
21
4.239002
31
0
39
0
210
0
220
0
230
1
0
LINE
5
B3
100
AcDbEntity
8
1
62
256
6
ByLayer
370
18
48
1
60
1
100
AcDbLine
10
116.460784
20
4.239002
30
0
11
115.539216
21
4.238998
31
0
39
0
210
0
220
0
230
1
0
LINE
5
B4
100
AcDbEntity
8
1
62
256
6
ByLayer
370
18
48
1
60
1
100
AcDbLine
10
115.539216
20
4.238998
30
0
11
116
21
7.739
31
0
39
0
210
0
220
0
230
1
0
LINE
5
B5
100
AcDbEntity
8
1
62
256
6
ByLayer
370
18
48
1
60
1
100
AcDbLine
10
116
20
-7.739
30
0
11
115.539216
21
-4.239002
31
0
39
0
210
0
220
0
230
1
0
LINE
5
B6
100
AcDbEntity
8
1
62
256
6
ByLayer
370
18
48
1
60
1
100
AcDbLine
10
115.539216
20
-4.239002
30
0
11
116.460784
21
-4.238998
31
0
39
0
210
0
220
0
230
1
0
LINE
5
B7
100
AcDbEntity
8
1
62
256
6
ByLayer
370
18
48
1
60
1
100
AcDbLine
10
116.460784
20
-4.238998
30
0
11
116
21
-7.739
31
0
39
0
210
0
220
0
230
1
0
LINE
5
B8
100
AcDbEntity
8
SK2
62
256
6
ByLayer
370
13
48
1
60
0
100
AcDbLine
10
109.042957
20
-1.491762
30
0
11
115.682423
21
-19.733545
31
0
39
0
210
0
220
0
230
1
0
LINE
5
B9
100
AcDbEntity
8
SK2
62
256
6
ByLayer
370
13
48
1
60
0
100
AcDbLine
10
109.042957
20
1.491762
30
0
11
115.682423
21
19.733545
31
0
39
0
210
0
220
0
230
1
0
LINE
5
BA
100
AcDbEntity
8
1
62
256
6
ByLayer
370
18
48
1
60
1
100
AcDbLine
10
114.998383
20
-17.85416
30
0
11
118.051575
21
-16.082064
31
0
39
0
210
0
220
0
230
1
0
LINE
5
BB
100
AcDbEntity
8
1
62
256
6
ByLayer
370
18
48
1
60
1
100
AcDbLine
10
118.051575
20
-16.082064
30
0
11
118.406196
21
-16.93267
31
0
39
0
210
0
220
0
230
1
0
LINE
5
BC
100
AcDbEntity
8
1
62
256
6
ByLayer
370
18
48
1
60
1
100
AcDbLine
10
118.406196
20
-16.93267
30
0
11
114.998383
21
-17.85416
31
0
39
0
210
0
220
0
230
1
0
LINE
5
BD
100
AcDbEntity
8
1
62
256
6
ByLayer
370
18
48
1
60
1
100
AcDbLine
10
114.998383
20
17.85416
30
0
11
118.406193
21
16.932671
31
0
39
0
210
0
220
0
230
1
0
LINE
5
BE
100
AcDbEntity
8
1
62
256
6
ByLayer
370
18
48
1
60
1
100
AcDbLine
10
118.406193
20
16.932671
30
0
11
118.051579
21
16.082063
31
0
39
0
210
0
220
0
230
1
0
LINE
5
BF
100
AcDbEntity
8
1
62
256
6
ByLayer
370
18
48
1
60
1
100
AcDbLine
10
118.051579
20
16.082063
30
0
11
114.998383
21
17.85416
31
0
39
0
210
0
220
0
230
1
0
LINE
5
120
100
AcDbEntity
8
1
62
256
6
ByLayer
370
18
48
1
60
1
100
AcDbLine
10
-54.5
20
9.525
30
0
11
-54.039216
21
6.025002
31
0
39
0
210
0
220
0
230
1
0
LINE
5
121
100
AcDbEntity
8
1
62
256
6
ByLayer
370
18
48
1
60
1
100
AcDbLine
10
-54.039216
20
6.025002
30
0
11
-54.960784
21
6.024998
31
0
39
0
210
0
220
0
230
1
0
LINE
5
122
100
AcDbEntity
8
1
62
256
6
ByLayer
370
18
48
1
60
1
100
AcDbLine
10
-54.960784
20
6.024998
30
0
11
-54.5
21
9.525
31
0
39
0
210
0
220
0
230
1
0
LINE
5
124
100
AcDbEntity
8
1
62
256
6
ByLayer
370
18
48
1
60
1
100
AcDbLine
10
-54.5
20
-9.525
30
0
11
-54.960784
21
-6.025002
31
0
39
0
210
0
220
0
230
1
0
LINE
5
125
100
AcDbEntity
8
1
62
256
6
ByLayer
370
18
48
1
60
1
100
AcDbLine
10
-54.960784
20
-6.025002
30
0
11
-54.039216
21
-6.024998
31
0
39
0
210
0
220
0
230
1
0
LINE
5
126
100
AcDbEntity
8
1
62
256
6
ByLayer
370
18
48
1
60
1
100
AcDbLine
10
-54.039216
20
-6.024998
30
0
11
-54.5
21
-9.525
31
0
39
0
210
0
220
0
230
1
0
LINE
5
12A
100
AcDbEntity
8
1
62
256
6
ByLayer
370
18
48
1
60
1
100
AcDbLine
10
116
20
7.739
30
0
11
116.460784
21
4.239002
31
0
39
0
210
0
220
0
230
1
0
LINE
5
12B
100
AcDbEntity
8
1
62
256
6
ByLayer
370
18
48
1
60
1
100
AcDbLine
10
116.460784
20
4.239002
30
0
11
115.539216
21
4.238998
31
0
39
0
210
0
220
0
230
1
0
LINE
5
12C
100
AcDbEntity
8
1
62
256
6
ByLayer
370
18
48
1
60
1
100
AcDbLine
10
115.539216
20
4.238998
30
0
11
116
21
7.739
31
0
39
0
210
0
220
0
230
1
0
LINE
5
12E
100
AcDbEntity
8
1
62
256
6
ByLayer
370
18
48
1
60
1
100
AcDbLine
10
116
20
-7.739
30
0
11
115.539216
21
-4.239002
31
0
39
0
210
0
220
0
230
1
0
LINE
5
12F
100
AcDbEntity
8
1
62
256
6
ByLayer
370
18
48
1
60
1
100
AcDbLine
10
115.539216
20
-4.239002
30
0
11
116.460784
21
-4.238998
31
0
39
0
210
0
220
0
230
1
0
LINE
5
130
100
AcDbEntity
8
1
62
256
6
ByLayer
370
18
48
1
60
1
100
AcDbLine
10
116.460784
20
-4.238998
30
0
11
116
21
-7.739
31
0
39
0
210
0
220
0
230
1
0
LINE
5
133
100
AcDbEntity
8
1
62
256
6
ByLayer
370
18
48
1
60
1
100
AcDbLine
10
114.998383
20
-17.85416
30
0
11
118.051575
21
-16.082064
31
0
39
0
210
0
220
0
230
1
0
LINE
5
134
100
AcDbEntity
8
1
62
256
6
ByLayer
370
18
48
1
60
1
100
AcDbLine
10
118.051575
20
-16.082064
30
0
11
118.406196
21
-16.93267
31
0
39
0
210
0
220
0
230
1
0
LINE
5
135
100
AcDbEntity
8
1
62
256
6
ByLayer
370
18
48
1
60
1
100
AcDbLine
10
118.406196
20
-16.93267
30
0
11
114.998383
21
-17.85416
31
0
39
0
210
0
220
0
230
1
0
LINE
5
137
100
AcDbEntity
8
1
62
256
6
ByLayer
370
18
48
1
60
1
100
AcDbLine
10
114.998383
20
17.85416
30
0
11
118.406193
21
16.932671
31
0
39
0
210
0
220
0
230
1
0
LINE
5
138
100
AcDbEntity
8
1
62
256
6
ByLayer
370
18
48
1
60
1
100
AcDbLine
10
118.406193
20
16.932671
30
0
11
118.051579
21
16.082063
31
0
39
0
210
0
220
0
230
1
0
LINE
5
139
100
AcDbEntity
8
1
62
256
6
ByLayer
370
18
48
1
60
1
100
AcDbLine
10
118.051579
20
16.082063
30
0
11
114.998383
21
17.85416
31
0
39
0
210
0
220
0
230
1
0
MTEXT
5
11C
100
AcDbEntity
8
SK2
62
256
6
ByLayer
370
18
48
1
60
0
100
AcDbMText
10
-55.841114
20
21.183438
30
0
210
0
220
0
230
1
1
%%c
40
3
41
0
44
1.084337
50
90
71
7
72
5
7
iso_b_vert
0
MTEXT
5
11F
100
AcDbEntity
8
SK2
62
256
6
ByLayer
370
18
48
1
60
0
100
AcDbMText
10
-55.841114
20
27.16
30
0
210
0
220
0
230
1
1
\W0.7022;19.050
40
3
41
0
44
1.084337
50
90
71
7
72
5
7
iso_b_vert
0
MTEXT
5
128
100
AcDbEntity
8
2
62
256
6
ByLayer
370
18
48
1
60
0
100
AcDbMText
10
114.658886
20
19.397438
30
0
210
0
220
0
230
1
1
%%c
40
3
41
0
44
1.084337
50
90
71
7
72
5
7
iso_b_vert
0
MTEXT
5
129
100
AcDbEntity
8
2
62
256
6
ByLayer
370
18
48
1
60
0
100
AcDbMText
10
114.658886
20
25.374
30
0
210
0
220
0
230
1
1
\W0.7237;15.478
40
3
41
0
44
1.084337
50
90
71
7
72
5
7
iso_b_vert
0
MTEXT
5
132
100
AcDbEntity
8
SK2
62
256
6
ByLayer
370
18
48
1
60
0
100
AcDbMText
10
128.409114
20
3.734657
30
0
210
0
220
0
230
1
1
\W0.7071;140%%d
40
3
41
0
44
1.084337
50
270
71
7
72
5
7
iso_b_vert
0
MTEXT
5
13B
100
AcDbEntity
8
SK6
62
256
6
ByLayer
370
18
48
1
60
0
100
AcDbMText
10
1.707603
20
-67.114886
30
0
210
0
220
0
230
1
1
\W0.7930;H85539/64
40
3
41
0
44
1.084337
50
0
71
7
72
5
7
iso_b_vert
0
HATCH
5
123
100
AcDbEntity
8
SK2
62
256
6
ByLayer
370
13
48
1
60
0
100
AcDbHatch
10
0
20
0
30
0
210
0
220
0
230
1
2
ANSI31
70
0
71
0
91
1
92
5
93
3
72
1
10
-54.5
20
9.52500000000001
11
-54.0392162584472
21
6.02500169255319
72
1
10
-54.0392162584472
20
6.02500169255319
11
-54.9607837415528
21
6.02499830744682
72
1
10
-54.9607837415528
20
6.02499830744682
11
-54.5
21
9.52500000000001
97
0
75
0
76
1
52
0
41
0.0062
77
0
78
1
53
45
43
0
44
0
45
-0.0139193969876572
46
0.0139193969876572
79
0
47
0
98
1
10
0
20
0
0
HATCH
5
127
100
AcDbEntity
8
SK2
62
256
6
ByLayer
370
13
48
1
60
0
100
AcDbHatch
10
0
20
0
30
0
210
0
220
0
230
1
2
ANSI31
70
0
71
0
91
1
92
5
93
3
72
1
10
-54.5
20
-9.52500000000001
11
-54.9607837415528
21
-6.02500169255319
72
1
10
-54.9607837415528
20
-6.02500169255319
11
-54.0392162584472
21
-6.02499830744682
72
1
10
-54.0392162584472
20
-6.02499830744682
11
-54.5
21
-9.52500000000001
97
0
75
0
76
1
52
0
41
0.0062
77
0
78
1
53
45
43
0
44
0
45
-0.0139193969876572
46
0.0139193969876572
79
0
47
0
98
1
10
0
20
0
0
HATCH
5
12D
100
AcDbEntity
8
2
62
256
6
ByLayer
370
13
48
1
60
0
100
AcDbHatch
10
0
20
0
30
0
210
0
220
0
230
1
2
ANSI31
70
0
71
0
91
1
92
5
93
3
72
1
10
116
20
7.739
11
116.460783741553
21
4.23900169255319
72
1
10
116.460783741553
20
4.23900169255319
11
115.539216258447
21
4.23899830744682
72
1
10
115.539216258447
20
4.23899830744682
11
116
21
7.739
97
0
75
0
76
1
52
0
41
0.0062
77
0
78
1
53
45
43
0
44
0
45
-0.0139193969876572
46
0.0139193969876572
79
0
47
0
98
1
10
0
20
0
0
HATCH
5
131
100
AcDbEntity
8
2
62
256
6
ByLayer
370
13
48
1
60
0
100
AcDbHatch
10
0
20
0
30
0
210
0
220
0
230
1
2
ANSI31
70
0
71
0
91
1
92
5
93
3
72
1
10
116
20
-7.739
11
115.539216258447
21
-4.23900169255319
72
1
10
115.539216258447
20
-4.23900169255319
11
116.460783741553
21
-4.23899830744682
72
1
10
116.460783741553
20
-4.23899830744682
11
116
21
-7.739
97
0
75
0
76
1
52
0
41
0.0062
77
0
78
1
53
45
43
0
44
0
45
-0.0139193969876572
46
0.0139193969876572
79
0
47
0
98
1
10
0
20
0
0
HATCH
5
136
100
AcDbEntity
8
SK2
62
256
6
ByLayer
370
13
48
1
60
0
100
AcDbHatch
10
0
20
0
30
0
210
0
220
0
230
1
2
ANSI31
70
0
71
0
91
1
92
5
93
3
72
1
10
114.998382723188
20
-17.8541597949322
11
118.051575425693
21
-16.0820638240607
72
1
10
118.051575425693
20
-16.0820638240607
11
118.406195833975
21
-16.9326700737196
72
1
10
118.406195833975
20
-16.9326700737196
11
114.998382723188
21
-17.8541597949322
97
0
75
0
76
1
52
0
41
0.0062
77
0
78
1
53
45
43
0
44
0
45
-0.0139193969876572
46
0.0139193969876572
79
0
47
0
98
1
10
0
20
0
0
HATCH
5
13A
100
AcDbEntity
8
SK2
62
256
6
ByLayer
370
13
48
1
60
0
100
AcDbHatch
10
0
20
0
30
0
210
0
220
0
230
1
2
ANSI31
70
0
71
0
91
1
92
5
93
3
72
1
10
114.998382723188
20
17.8541597949322
11
118.406192709519
21
16.9326713763016
72
1
10
118.406192709519
20
16.9326713763016
11
118.051578550149
21
16.0820625214788
72
1
10
118.051578550149
20
16.0820625214788
11
114.998382723188
21
17.8541597949322
97
0
75
0
76
1
52
0
41
0.0062
77
0
78
1
53
45
43
0
44
0
45
-0.0139193969876572
46
0.0139193969876572
79
0
47
0
98
1
10
0
20
0
0
DIMENSION
5
13E
100
AcDbEntity
8
SK2
62
256
6
ByLayer
370
18
48
1
60
0
100
AcDbDimension
2
_U0
10
108.5
20
-45.952229
30
0
11
30.25
21
-45.952229
31
0
70
32
71
1
72
1
41
1
210
0
220
0
230
1
3
Standard
100
AcDbAlignedDimension
13
-48
23
-9.525
33
0
14
108.5
24
0
34
0
50
0
100
AcDbRotatedDimension
1001
ACAD
1000
DSTYLE
1002
{
1070
   371
1070
    13
1070
   372
1070
    13
1070
     3
1000

1070
   170
1070
     0
1070
   144
1040
1.0
1070
   277
1070
     2
1070
   284
1070
     8
1070
   278
1070
    46
1070
   146
1040
1.166667
1070
   345
1005
16
1070
   347
1005
16
1070
   346
1005
16
1070
   344
1005
0
1070
   343
1005
0
1070
   172
1070
     1
1070
    76
1070
     0
1070
    75
1070
     0
1070
   282
1070
     0
1070
   281
1070
     0
1070
    71
1070
     0
1070
    74
1070
     0
1070
   279
1070
     0
1070
   173
1070
     1
1070
   340
1005
11D
1070
   271
1070
     2
1070
   272
1070
     3
1070
    77
1070
     1
1070
    73
1070
     1
1070
   171
1070
     3
1070
   274
1070
     4
1070
   177
1070
     2
1070
   176
1070
     2
1070
   178
1070
     2
1070
    78
1070
     8
1070
    48
1040
-0.1
1070
    41
1040
3.5
1070
   147
1040
1.5
1070
    42
1040
1.5875
1070
    44
1040
2.0
1070
   140
1040
3.0
1002
}
1001
ACAD_DSTYLE_DIM_LINETYPE
1070
   380
1005
16
1001
ACAD_DSTYLE_DIM_EXT1_LINETYPE
1070
   381
1005
16
1001
ACAD_DSTYLE_DIM_EXT2_LINETYPE
1070
   382
1005
16
0
DIMENSION
5
157
100
AcDbEntity
8
SK2
62
256
6
ByLayer
370
18
48
1
60
0
100
AcDbDimension
2
_U1
10
3
20
-35.952229
30
0
11
55.75
21
-35.952229
31
0
70
32
71
1
72
1
41
1
210
0
220
0
230
1
3
Standard
100
AcDbAlignedDimension
13
108.5
23
0
33
0
14
3
24
-7.739
34
0
50
0
100
AcDbRotatedDimension
1001
ACAD
1000
DSTYLE
1002
{
1070
   371
1070
    13
1070
   372
1070
    13
1070
     3
1000

1070
   170
1070
     0
1070
   144
1040
1.0
1070
   277
1070
     2
1070
   284
1070
     8
1070
   278
1070
    46
1070
   146
1040
1.166667
1070
   345
1005
16
1070
   347
1005
16
1070
   346
1005
16
1070
   344
1005
0
1070
   343
1005
0
1070
   172
1070
     1
1070
    76
1070
     0
1070
    75
1070
     0
1070
   282
1070
     0
1070
   281
1070
     0
1070
    71
1070
     0
1070
    74
1070
     0
1070
   279
1070
     0
1070
   173
1070
     1
1070
   340
1005
11D
1070
   271
1070
     2
1070
   272
1070
     3
1070
    77
1070
     1
1070
    73
1070
     1
1070
   171
1070
     3
1070
   274
1070
     4
1070
   177
1070
     2
1070
   176
1070
     2
1070
   178
1070
     2
1070
    78
1070
     8
1070
    48
1040
-0.1
1070
    41
1040
3.5
1070
   147
1040
1.5
1070
    42
1040
1.5875
1070
    44
1040
2.0
1070
   140
1040
3.0
1002
}
1001
ACAD_DSTYLE_DIM_LINETYPE
1070
   380
1005
16
1001
ACAD_DSTYLE_DIM_EXT1_LINETYPE
1070
   381
1005
16
1001
ACAD_DSTYLE_DIM_EXT2_LINETYPE
1070
   382
1005
16
0
DIMENSION
5
16F
100
AcDbEntity
8
SK2
62
256
6
ByLayer
370
18
48
1
60
0
100
AcDbDimension
2
_U2
10
0
20
-35.952229
30
0
11
-24
21
-35.952229
31
0
70
32
71
1
72
1
41
1
210
0
220
0
230
1
3
Standard
100
AcDbAlignedDimension
13
-48
23
-9.525
33
0
14
0
24
-9.525
34
0
50
0
100
AcDbRotatedDimension
1001
ACAD
1000
DSTYLE
1002
{
1070
   371
1070
    13
1070
   372
1070
    13
1070
     3
1000

1070
   170
1070
     0
1070
   144
1040
1.0
1070
   277
1070
     2
1070
   284
1070
     8
1070
   278
1070
    46
1070
   146
1040
1.166667
1070
   345
1005
16
1070
   347
1005
16
1070
   346
1005
16
1070
   344
1005
0
1070
   343
1005
0
1070
   172
1070
     1
1070
    76
1070
     0
1070
    75
1070
     0
1070
   282
1070
     0
1070
   281
1070
     0
1070
    71
1070
     0
1070
    74
1070
     0
1070
   279
1070
     0
1070
   173
1070
     1
1070
   340
1005
11D
1070
   271
1070
     2
1070
   272
1070
     3
1070
    77
1070
     1
1070
    73
1070
     1
1070
   171
1070
     3
1070
   274
1070
     4
1070
   177
1070
     2
1070
   176
1070
     2
1070
   178
1070
     2
1070
    78
1070
     8
1070
    48
1040
-0.1
1070
    41
1040
3.5
1070
   147
1040
1.5
1070
    42
1040
1.5875
1070
    44
1040
2.0
1070
   140
1040
3.0
1002
}
1001
ACAD_DSTYLE_DIM_LINETYPE
1070
   380
1005
16
1001
ACAD_DSTYLE_DIM_EXT1_LINETYPE
1070
   381
1005
16
1001
ACAD_DSTYLE_DIM_EXT2_LINETYPE
1070
   382
1005
16
0
DIMENSION
5
187
100
AcDbEntity
8
SK2
62
256
6
ByLayer
370
18
48
1
60
0
100
AcDbDimension
2
_U3
10
22
20
32.952229
30
0
11
65.25
21
32.952229
31
0
70
32
71
1
72
1
41
1
210
0
220
0
230
1
3
Standard
100
AcDbAlignedDimension
13
108.5
23
0
33
0
14
22
24
7.739
34
0
50
0
100
AcDbRotatedDimension
1001
ACAD
1000
DSTYLE
1002
{
1070
   371
1070
    13
1070
   372
1070
    13
1070
     3
1000

1070
   170
1070
     0
1070
   144
1040
1.0
1070
   277
1070
     2
1070
   284
1070
     8
1070
   278
1070
    46
1070
   146
1040
1.166667
1070
   345
1005
16
1070
   347
1005
16
1070
   346
1005
16
1070
   344
1005
0
1070
   343
1005
0
1070
   172
1070
     1
1070
    76
1070
     0
1070
    75
1070
     0
1070
   282
1070
     0
1070
   281
1070
     0
1070
    71
1070
     0
1070
    74
1070
     0
1070
   279
1070
     0
1070
   173
1070
     1
1070
   340
1005
11D
1070
   271
1070
     2
1070
   272
1070
     3
1070
    77
1070
     1
1070
    73
1070
     1
1070
   171
1070
     3
1070
   274
1070
     4
1070
   177
1070
     2
1070
   176
1070
     2
1070
   178
1070
     2
1070
    78
1070
     8
1070
    48
1040
-0.1
1070
    41
1040
3.5
1070
   147
1040
1.5
1070
    42
1040
1.5875
1070
    44
1040
2.0
1070
   140
1040
3.0
1002
}
1001
ACAD_DSTYLE_DIM_LINETYPE
1070
   380
1005
16
1001
ACAD_DSTYLE_DIM_EXT1_LINETYPE
1070
   381
1005
16
1001
ACAD_DSTYLE_DIM_EXT2_LINETYPE
1070
   382
1005
16
0
ENDSEC
0
SECTION
2
OBJECTS
0
DICTIONARY
5
20f
330
0
100
AcDbDictionary
280
0
281
1
3
ACAD_GROUP
350
210
3
ACAD_MLINESTYLE
350
211
0
DICTIONARY
5
210
330
0
100
AcDbDictionary
280
0
281
1
0
DICTIONARY
5
211
330
0
100
AcDbDictionary
280
0
281
1
3
Standard
350
18
0
MLINESTYLE
5
18
330
211
100
AcDbMlineStyle
2
Standard
70
0
3

62
256
51
90
52
90
71
2
49
-0.5
62
256
6
ByLayer
49
0.5
62
256
6
ByLayer
0
RASTERVARIABLES
5
1fd
330

100
AcDbRasterVariables
90
0
70
1
71
1
72
1
0
ENDSEC
0
EOF
