0
SECTION
2
HEADER
9
$ACADVER
1
AC1015
9
$DWGCODEPAGE
3
ANSI_1252
9
$HANDSEED
5
238
9
$ANGBASE
50
0
9
$ANGDIR
70
0
9
$ATTMODE
70
1
9
$AUNITS
70
0
9
$AUPREC
70
0
9
$CECOLOR
62
256
9
$CELTSCALE
40
1
9
$CELTYPE
6
ByLayer
9
$CELWEIGHT
370
18
9
$CLAYER
8
0
9
$CMLJUST
70
0
9
$CMLSCALE
40
1
9
$CMLSTYLE
2
Standard
9
$DIMSTYLE
2
Standard
9
$TEXTSIZE
40
0.2
9
$TEXTSTYLE
7
Standard
9
$LUNITS
70
2
9
$LUPREC
70
4
9
$EXTNAMES
290
1
9
$INSUNITS
70
4
9
$LTSCALE
40
1
9
$LWDISPLAY
290
1
9
$PDMODE
70
0
9
$PDSIZE
40
0
9
$PLINEGEN
70
0
0
ENDSEC
0
SECTION
2
CLASSES
0
CLASS
1
RASTERVARIABLES
2
AcDbRasterVariables
3
ISM
90
0
280
0
281
0
0
ENDSEC
0
SECTION
2
TABLES
0
TABLE
2
VPORT
5
22e
100
AcDbSymbolTable
0
VPORT
5
1
100
AcDbSymbolTableRecord
100
AcDbViewportTableRecord
2
*Active
70
0
10
0
20
0
11
1
21
1
12
-1
22
1
13
0
23
0
14
0.5
24
0.5
15
10
25
10
16
0
26
0
36
1
17
0
27
0
37
0
0
ENDTAB
0
TABLE
2
LTYPE
5
22f
100
AcDbSymbolTable
0
LTYPE
5
14
100
AcDbSymbolTableRecord
100
AcDbLinetypeTableRecord
70
0
2
ByBlock
3

72
65
73
0
40
0
0
LTYPE
5
15
100
AcDbSymbolTableRecord
100
AcDbLinetypeTableRecord
70
0
2
ByLayer
3

72
65
73
0
40
0
0
LTYPE
5
16
100
AcDbSymbolTableRecord
100
AcDbLinetypeTableRecord
70
0
2
Continuous
3
Solid line
72
65
73
0
40
0
0
LTYPE
5
6E
100
AcDbSymbolTableRecord
100
AcDbLinetypeTableRecord
70
0
2
CENTER
3
____ _ ____ _ ____ _ ____
72
65
73
4
40
47.5
49
22
74
0
49
-8.5
74
0
49
8.5
74
0
49
-8.5
74
0
0
LTYPE
5
6F
100
AcDbSymbolTableRecord
100
AcDbLinetypeTableRecord
70
0
2
DASHED
3
__ __ __ __ __ __ __ __ __
72
65
73
2
40
25.72
49
12.86
74
0
49
-12.86
74
0
0
ENDTAB
0
TABLE
2
LAYER
5
230
100
AcDbSymbolTable
0
LAYER
5
10
100
AcDbSymbolTableRecord
100
AcDbLayerTableRecord
2
0
70
0
62
7
6
Continuous
290
1
370
-3
390
0
0
LAYER
5
71
100
AcDbSymbolTableRecord
100
AcDbLayerTableRecord
2
81
70
0
62
-3
6
Continuous
290
1
370
-3
390
0
0
LAYER
5
73
100
AcDbSymbolTableRecord
100
AcDbLayerTableRecord
2
80
70
0
62
-6
6
Continuous
290
1
370
-3
390
0
0
LAYER
5
75
100
AcDbSymbolTableRecord
100
AcDbLayerTableRecord
2
1
70
0
62
4
6
Continuous
290
1
370
-3
390
0
0
LAYER
5
7E
100
AcDbSymbolTableRecord
100
AcDbLayerTableRecord
2
4
70
0
62
-2
6
CENTER
290
1
370
-3
390
0
0
LAYER
5
AF
100
AcDbSymbolTableRecord
100
AcDbLayerTableRecord
2
2
70
0
62
7
6
Continuous
290
1
370
-3
390
0
0
LAYER
5
15D
100
AcDbSymbolTableRecord
100
AcDbLayerTableRecord
2
Defpoints
70
0
62
7
6
Continuous
290
0
370
-3
390
0
0
LAYER
5
21a
100
AcDbSymbolTableRecord
100
AcDbLayerTableRecord
2
SK4
70
0
62
2
6
CENTER
290
1
370
-3
390
0
0
LAYER
5
21b
100
AcDbSymbolTableRecord
100
AcDbLayerTableRecord
2
SK1
70
0
62
4
6
Continuous
290
1
370
-3
390
0
0
LAYER
5
21c
100
AcDbSymbolTableRecord
100
AcDbLayerTableRecord
2
SK2
70
0
62
7
6
Continuous
290
1
370
-3
390
0
0
LAYER
5
21d
100
AcDbSymbolTableRecord
100
AcDbLayerTableRecord
2
SK6
70
0
62
5
6
Continuous
290
1
370
-3
390
0
0
ENDTAB
0
TABLE
2
STYLE
5
231
100
AcDbSymbolTable
0
STYLE
5
11
100
AcDbSymbolTableRecord
100
AcDbTextStyleTableRecord
2
Standard
3
txt
70
0
71
0
40
0
41
1
42
0
50
0
0
STYLE
5
139
100
AcDbSymbolTableRecord
100
AcDbTextStyleTableRecord
2
iso_b_vert
3
simplex.shx
70
0
71
0
40
0
41
1
42
0
50
0
0
STYLE
5
13A
100
AcDbSymbolTableRecord
100
AcDbTextStyleTableRecord
2
DWGDirectTextStyle
3
simplex
70
0
71
0
40
0
41
1
42
0
50
0
0
ENDTAB
0
TABLE
2
DIMSTYLE
5
232
100
AcDbSymbolTable
100
AcDbDimStyleTable
0
DIMSTYLE
105
27
100
AcDbSymbolTableRecord
100
AcDbDimStyleTableRecord
2
Standard
70
0
3
<>
41
0.18
42
0.0625
44
0.18
140
0.18
147
0.09
73
0
74
0
77
1
271
2
275
0
278
52
280
0
340
11
0
ENDTAB
0
TABLE
2
VIEW
5
233
100
AcDbSymbolTable
0
ENDTAB
0
TABLE
2
UCS
5
234
100
AcDbSymbolTable
0
ENDTAB
0
TABLE
2
APPID
5
235
100
AcDbSymbolTable
0
APPID
5
12
100
AcDbSymbolTableRecord
100
AcDbRegAppTableRecord
2
ACAD
70
0
0
APPID
5
159
100
AcDbSymbolTableRecord
100
AcDbRegAppTableRecord
2
ACAD_DSTYLE_DIMBREAK
70
0
0
APPID
5
1D9
100
AcDbSymbolTableRecord
100
AcDbRegAppTableRecord
2
ACAD_DSTYLE_DIM_LINETYPE
70
0
0
APPID
5
1DA
100
AcDbSymbolTableRecord
100
AcDbRegAppTableRecord
2
ACAD_DSTYLE_DIM_EXT1_LINETYPE
70
0
0
APPID
5
1DB
100
AcDbSymbolTableRecord
100
AcDbRegAppTableRecord
2
ACAD_DSTYLE_DIM_EXT2_LINETYPE
70
0
0
APPID
5
216
100
AcDbSymbolTableRecord
100
AcDbRegAppTableRecord
2
ACAD_MLEADERVER
70
0
0
ENDTAB
0
TABLE
2
BLOCK_RECORD
5
236
100
AcDbSymbolTable
0
BLOCK_RECORD
5
1F
100
AcDbSymbolTableRecord
100
AcDbBlockTableRecord
2
*Model_Space
340
0
70
0
0
BLOCK_RECORD
5
1B
100
AcDbSymbolTableRecord
100
AcDbBlockTableRecord
2
*Paper_Space
340
0
70
0
0
BLOCK_RECORD
5
23
100
AcDbSymbolTableRecord
100
AcDbBlockTableRecord
2
*Paper_Space0
340
0
70
0
0
BLOCK_RECORD
5
15E
100
AcDbSymbolTableRecord
100
AcDbBlockTableRecord
2
*D1
340
0
70
0
0
BLOCK_RECORD
5
16A
100
AcDbSymbolTableRecord
100
AcDbBlockTableRecord
2
_U0
340
0
70
0
0
BLOCK_RECORD
5
176
100
AcDbSymbolTableRecord
100
AcDbBlockTableRecord
2
*D3
340
0
70
0
0
BLOCK_RECORD
5
182
100
AcDbSymbolTableRecord
100
AcDbBlockTableRecord
2
_U1
340
0
70
0
0
BLOCK_RECORD
5
18E
100
AcDbSymbolTableRecord
100
AcDbBlockTableRecord
2
*D5
340
0
70
0
0
BLOCK_RECORD
5
19A
100
AcDbSymbolTableRecord
100
AcDbBlockTableRecord
2
_U2
340
0
70
0
0
BLOCK_RECORD
5
1A6
100
AcDbSymbolTableRecord
100
AcDbBlockTableRecord
2
*D7
340
0
70
0
0
BLOCK_RECORD
5
1B2
100
AcDbSymbolTableRecord
100
AcDbBlockTableRecord
2
_U3
340
0
70
0
0
ENDTAB
0
ENDSEC
0
SECTION
2
BLOCKS
0
BLOCK
5
20
100
AcDbEntity
8
0
100
AcDbBlockBegin
2
*Model_Space
70
0
10
0
20
0
30
0
3
*Model_Space
0
ENDBLK
5
21
100
AcDbEntity
8
0
100
AcDbBlockEnd
0
BLOCK
5
1C
100
AcDbEntity
8
0
100
AcDbBlockBegin
2
*Paper_Space
70
0
10
0
20
0
30
0
3
*Paper_Space
0
ENDBLK
5
1D
100
AcDbEntity
8
0
100
AcDbBlockEnd
0
BLOCK
5
24
100
AcDbEntity
8
0
100
AcDbBlockBegin
2
*Paper_Space0
70
0
10
0
20
0
30
0
3
*Paper_Space0
0
ENDBLK
5
25
100
AcDbEntity
8
0
100
AcDbBlockEnd
0
BLOCK
5
15F
100
AcDbEntity
8
0
100
AcDbBlockBegin
2
*D1
70
1
10
0
20
0
30
0
3
*D1
0
LINE
5
161
100
AcDbEntity
8
0
62
256
6
ByLayer
370
-2
48
1
60
0
100
AcDbLine
10
-56
20
-14.2875
30
0
11
-56
21
-47.952229
31
0
39
0
210
0
220
0
230
1
0
LINE
5
162
100
AcDbEntity
8
0
62
256
6
ByLayer
370
-2
48
1
60
0
100
AcDbLine
10
140.5
20
-1.5875
30
0
11
140.5
21
-47.952229
31
0
39
0
210
0
220
0
230
1
0
LINE
5
163
100
AcDbEntity
8
0
62
256
6
ByLayer
370
-2
48
1
60
0
100
AcDbLine
10
-52.5
20
-45.952229
30
0
11
137
21
-45.952229
31
0
39
0
210
0
220
0
230
1
0
SOLID
5
164
100
AcDbEntity
8
0
62
256
6
ByLayer
370
-1
48
1
60
0
100
AcDbTrace
10
-52.5
20
-45.368896
30
0
11
-52.5
21
-46.535563
31
0
12
-56
22
-45.952229
32
0
13
-56
23
-45.952229
33
0
39
0
210
0
220
0
230
1
0
SOLID
5
165
100
AcDbEntity
8
0
62
256
6
ByLayer
370
-1
48
1
60
0
100
AcDbTrace
10
137
20
-46.535563
30
0
11
137
21
-45.368896
31
0
12
140.5
22
-45.952229
32
0
13
140.5
23
-45.952229
33
0
39
0
210
0
220
0
230
1
0
MTEXT
5
166
100
AcDbEntity
8
0
62
256
6
ByLayer
370
18
48
1
60
0
100
AcDbMText
10
42.25
20
-39.952229
30
0
210
0
220
0
230
1
1
\A1;196.5
40
3
41
0
44
1
50
0
71
5
72
5
7
iso_b_vert
0
POINT
5
167
100
AcDbEntity
8
Defpoints
62
0
6
ByLayer
370
-1
48
1
60
0
100
AcDbPoint
10
-56
20
-12.7
30
0
39
0
210
0
220
0
230
1
50
360
0
POINT
5
168
100
AcDbEntity
8
Defpoints
62
0
6
ByLayer
370
-1
48
1
60
0
100
AcDbPoint
10
140.5
20
0
30
0
39
0
210
0
220
0
230
1
50
360
0
POINT
5
169
100
AcDbEntity
8
Defpoints
62
0
6
ByLayer
370
-1
48
1
60
0
100
AcDbPoint
10
140.5
20
-45.952229
30
0
39
0
210
0
220
0
230
1
50
360
0
ENDBLK
5
160
100
AcDbEntity
8
0
100
AcDbBlockEnd
0
BLOCK
5
171
100
AcDbEntity
8
0
100
AcDbBlockBegin
2
_U0
70
0
10
0
20
0
30
0
3
_U0
0
MTEXT
5
16B
100
AcDbEntity
8
SK2
62
256
6
ByLayer
370
18
48
1
60
0
100
AcDbMText
10
37.021658
20
-45.067115
30
0
210
0
220
0
230
1
1
\W0.7022;196.50
40
3
41
0
44
1.084337
50
0
71
7
72
5
7
iso_b_vert
0
LINE
5
16C
100
AcDbEntity
8
SK2
62
256
6
ByLayer
370
13
48
1
60
0
100
AcDbLine
10
-56
20
-14.2875
30
0
11
-56
21
-47.952229
31
0
39
0
210
0
220
0
230
1
0
LINE
5
16D
100
AcDbEntity
8
SK2
62
256
6
ByLayer
370
13
48
1
60
0
100
AcDbLine
10
140.5
20
-1.5875
30
0
11
140.5
21
-47.952229
31
0
39
0
210
0
220
0
230
1
0
LINE
5
16E
100
AcDbEntity
8
SK2
62
256
6
ByLayer
370
13
48
1
60
0
100
AcDbLine
10
-56
20
-45.952229
30
0
11
140.5
21
-45.952229
31
0
39
0
210
0
220
0
230
1
0
SOLID
5
16F
100
AcDbEntity
8
SK2
62
256
6
ByLayer
370
18
48
1
60
0
100
AcDbTrace
10
-56
20
-45.952229
30
0
11
-52.500002
21
-45.491446
31
0
12
-52.499998
22
-46.413013
32
0
13
-52.499998
23
-46.413013
33
0
39
0
210
0
220
0
230
1
0
SOLID
5
170
100
AcDbEntity
8
SK2
62
256
6
ByLayer
370
18
48
1
60
0
100
AcDbTrace
10
140.5
20
-45.952229
30
0
11
137.000002
21
-46.413013
31
0
12
136.999998
22
-45.491446
32
0
13
136.999998
23
-45.491446
33
0
39
0
210
0
220
0
230
1
0
ENDBLK
5
172
100
AcDbEntity
8
0
100
AcDbBlockEnd
0
BLOCK
5
177
100
AcDbEntity
8
0
100
AcDbBlockBegin
2
*D3
70
1
10
0
20
0
30
0
3
*D3
0
LINE
5
179
100
AcDbEntity
8
0
62
256
6
ByLayer
370
-2
48
1
60
0
100
AcDbLine
10
140.5
20
-1.5875
30
0
11
140.5
21
-37.952229
31
0
39
0
210
0
220
0
230
1
0
LINE
5
17A
100
AcDbEntity
8
0
62
256
6
ByLayer
370
-2
48
1
60
0
100
AcDbLine
10
3
20
-12.303
30
0
11
3
21
-37.952229
31
0
39
0
210
0
220
0
230
1
0
LINE
5
17B
100
AcDbEntity
8
0
62
256
6
ByLayer
370
-2
48
1
60
0
100
AcDbLine
10
137
20
-35.952229
30
0
11
6.5
21
-35.952229
31
0
39
0
210
0
220
0
230
1
0
SOLID
5
17C
100
AcDbEntity
8
0
62
256
6
ByLayer
370
-1
48
1
60
0
100
AcDbTrace
10
137
20
-36.535563
30
0
11
137
21
-35.368896
31
0
12
140.5
22
-35.952229
32
0
13
140.5
23
-35.952229
33
0
39
0
210
0
220
0
230
1
0
SOLID
5
17D
100
AcDbEntity
8
0
62
256
6
ByLayer
370
-1
48
1
60
0
100
AcDbTrace
10
6.5
20
-35.368896
30
0
11
6.5
21
-36.535563
31
0
12
3
22
-35.952229
32
0
13
3
23
-35.952229
33
0
39
0
210
0
220
0
230
1
0
MTEXT
5
17E
100
AcDbEntity
8
0
62
256
6
ByLayer
370
18
48
1
60
0
100
AcDbMText
10
71.75
20
-29.952229
30
0
210
0
220
0
230
1
1
\A1;137.5
40
3
41
0
44
1
50
0
71
5
72
5
7
iso_b_vert
0
POINT
5
17F
100
AcDbEntity
8
Defpoints
62
0
6
ByLayer
370
-1
48
1
60
0
100
AcDbPoint
10
140.5
20
0
30
0
39
0
210
0
220
0
230
1
50
360
0
POINT
5
180
100
AcDbEntity
8
Defpoints
62
0
6
ByLayer
370
-1
48
1
60
0
100
AcDbPoint
10
3
20
-10.7155
30
0
39
0
210
0
220
0
230
1
50
360
0
POINT
5
181
100
AcDbEntity
8
Defpoints
62
0
6
ByLayer
370
-1
48
1
60
0
100
AcDbPoint
10
3
20
-35.952229
30
0
39
0
210
0
220
0
230
1
50
360
0
ENDBLK
5
178
100
AcDbEntity
8
0
100
AcDbBlockEnd
0
BLOCK
5
189
100
AcDbEntity
8
0
100
AcDbBlockBegin
2
_U1
70
0
10
0
20
0
30
0
3
_U1
0
MTEXT
5
183
100
AcDbEntity
8
SK2
62
256
6
ByLayer
370
18
48
1
60
0
100
AcDbMText
10
66.521658
20
-35.067115
30
0
210
0
220
0
230
1
1
\W0.7022;137.50
40
3
41
0
44
1.084337
50
0
71
7
72
5
7
iso_b_vert
0
LINE
5
184
100
AcDbEntity
8
SK2
62
256
6
ByLayer
370
13
48
1
60
0
100
AcDbLine
10
140.5
20
-1.5875
30
0
11
140.5
21
-37.952229
31
0
39
0
210
0
220
0
230
1
0
LINE
5
185
100
AcDbEntity
8
SK2
62
256
6
ByLayer
370
13
48
1
60
0
100
AcDbLine
10
3
20
-12.303
30
0
11
3
21
-37.952229
31
0
39
0
210
0
220
0
230
1
0
LINE
5
186
100
AcDbEntity
8
SK2
62
256
6
ByLayer
370
13
48
1
60
0
100
AcDbLine
10
140.5
20
-35.952229
30
0
11
3
21
-35.952229
31
0
39
0
210
0
220
0
230
1
0
SOLID
5
187
100
AcDbEntity
8
SK2
62
256
6
ByLayer
370
18
48
1
60
0
100
AcDbTrace
10
140.5
20
-35.952229
30
0
11
137.000002
21
-36.413013
31
0
12
136.999998
22
-35.491446
32
0
13
136.999998
23
-35.491446
33
0
39
0
210
0
220
0
230
1
0
SOLID
5
188
100
AcDbEntity
8
SK2
62
256
6
ByLayer
370
18
48
1
60
0
100
AcDbTrace
10
3
20
-35.952229
30
0
11
6.499998
21
-35.491446
31
0
12
6.500002
22
-36.413013
32
0
13
6.500002
23
-36.413013
33
0
39
0
210
0
220
0
230
1
0
ENDBLK
5
18A
100
AcDbEntity
8
0
100
AcDbBlockEnd
0
BLOCK
5
18F
100
AcDbEntity
8
0
100
AcDbBlockBegin
2
*D5
70
1
10
0
20
0
30
0
3
*D5
0
LINE
5
191
100
AcDbEntity
8
0
62
256
6
ByLayer
370
-2
48
1
60
0
100
AcDbLine
10
-56
20
-14.2875
30
0
11
-56
21
-37.952229
31
0
39
0
210
0
220
0
230
1
0
LINE
5
192
100
AcDbEntity
8
0
62
256
6
ByLayer
370
-2
48
1
60
0
100
AcDbLine
10
0
20
-14.2875
30
0
11
0
21
-37.952229
31
0
39
0
210
0
220
0
230
1
0
LINE
5
193
100
AcDbEntity
8
0
62
256
6
ByLayer
370
-2
48
1
60
0
100
AcDbLine
10
-52.5
20
-35.952229
30
0
11
-3.5
21
-35.952229
31
0
39
0
210
0
220
0
230
1
0
SOLID
5
194
100
AcDbEntity
8
0
62
256
6
ByLayer
370
-1
48
1
60
0
100
AcDbTrace
10
-52.5
20
-35.368896
30
0
11
-52.5
21
-36.535563
31
0
12
-56
22
-35.952229
32
0
13
-56
23
-35.952229
33
0
39
0
210
0
220
0
230
1
0
SOLID
5
195
100
AcDbEntity
8
0
62
256
6
ByLayer
370
-1
48
1
60
0
100
AcDbTrace
10
-3.5
20
-36.535563
30
0
11
-3.5
21
-35.368896
31
0
12
0
22
-35.952229
32
0
13
0
23
-35.952229
33
0
39
0
210
0
220
0
230
1
0
MTEXT
5
196
100
AcDbEntity
8
0
62
256
6
ByLayer
370
18
48
1
60
0
100
AcDbMText
10
-28
20
-29.952229
30
0
210
0
220
0
230
1
1
\A1;56
40
3
41
0
44
1
50
0
71
5
72
5
7
iso_b_vert
0
POINT
5
197
100
AcDbEntity
8
Defpoints
62
0
6
ByLayer
370
-1
48
1
60
0
100
AcDbPoint
10
-56
20
-12.7
30
0
39
0
210
0
220
0
230
1
50
360
0
POINT
5
198
100
AcDbEntity
8
Defpoints
62
0
6
ByLayer
370
-1
48
1
60
0
100
AcDbPoint
10
0
20
-12.7
30
0
39
0
210
0
220
0
230
1
50
360
0
POINT
5
199
100
AcDbEntity
8
Defpoints
62
0
6
ByLayer
370
-1
48
1
60
0
100
AcDbPoint
10
0
20
-35.952229
30
0
39
0
210
0
220
0
230
1
50
360
0
ENDBLK
5
190
100
AcDbEntity
8
0
100
AcDbBlockEnd
0
BLOCK
5
1A1
100
AcDbEntity
8
0
100
AcDbBlockBegin
2
_U2
70
0
10
0
20
0
30
0
3
_U2
0
MTEXT
5
19B
100
AcDbEntity
8
SK2
62
256
6
ByLayer
370
18
48
1
60
0
100
AcDbMText
10
-32.48237
20
-35.067115
30
0
210
0
220
0
230
1
1
\W0.7468;56.00
40
3
41
0
44
1.084337
50
0
71
7
72
5
7
iso_b_vert
0
LINE
5
19C
100
AcDbEntity
8
SK2
62
256
6
ByLayer
370
13
48
1
60
0
100
AcDbLine
10
-56
20
-14.2875
30
0
11
-56
21
-37.952229
31
0
39
0
210
0
220
0
230
1
0
LINE
5
19D
100
AcDbEntity
8
SK2
62
256
6
ByLayer
370
13
48
1
60
0
100
AcDbLine
10
0
20
-14.2875
30
0
11
0
21
-37.952229
31
0
39
0
210
0
220
0
230
1
0
LINE
5
19E
100
AcDbEntity
8
SK2
62
256
6
ByLayer
370
13
48
1
60
0
100
AcDbLine
10
-56
20
-35.952229
30
0
11
0
21
-35.952229
31
0
39
0
210
0
220
0
230
1
0
SOLID
5
19F
100
AcDbEntity
8
SK2
62
256
6
ByLayer
370
18
48
1
60
0
100
AcDbTrace
10
-56
20
-35.952229
30
0
11
-52.500002
21
-35.491446
31
0
12
-52.499998
22
-36.413013
32
0
13
-52.499998
23
-36.413013
33
0
39
0
210
0
220
0
230
1
0
SOLID
5
1A0
100
AcDbEntity
8
SK2
62
256
6
ByLayer
370
18
48
1
60
0
100
AcDbTrace
10
0
20
-35.952229
30
0
11
-3.499998
21
-36.413013
31
0
12
-3.500002
22
-35.491446
32
0
13
-3.500002
23
-35.491446
33
0
39
0
210
0
220
0
230
1
0
ENDBLK
5
1A2
100
AcDbEntity
8
0
100
AcDbBlockEnd
0
BLOCK
5
1A7
100
AcDbEntity
8
0
100
AcDbBlockBegin
2
*D7
70
1
10
0
20
0
30
0
3
*D7
0
LINE
5
1A9
100
AcDbEntity
8
0
62
256
6
ByLayer
370
-2
48
1
60
0
100
AcDbLine
10
140.5
20
1.5875
30
0
11
140.5
21
34.952229
31
0
39
0
210
0
220
0
230
1
0
LINE
5
1AA
100
AcDbEntity
8
0
62
256
6
ByLayer
370
-2
48
1
60
0
100
AcDbLine
10
21
20
12.303
30
0
11
21
21
34.952229
31
0
39
0
210
0
220
0
230
1
0
LINE
5
1AB
100
AcDbEntity
8
0
62
256
6
ByLayer
370
-2
48
1
60
0
100
AcDbLine
10
137
20
32.952229
30
0
11
24.5
21
32.952229
31
0
39
0
210
0
220
0
230
1
0
SOLID
5
1AC
100
AcDbEntity
8
0
62
256
6
ByLayer
370
-1
48
1
60
0
100
AcDbTrace
10
137
20
32.368896
30
0
11
137
21
33.535563
31
0
12
140.5
22
32.952229
32
0
13
140.5
23
32.952229
33
0
39
0
210
0
220
0
230
1
0
SOLID
5
1AD
100
AcDbEntity
8
0
62
256
6
ByLayer
370
-1
48
1
60
0
100
AcDbTrace
10
24.5
20
33.535563
30
0
11
24.5
21
32.368896
31
0
12
21
22
32.952229
32
0
13
21
23
32.952229
33
0
39
0
210
0
220
0
230
1
0
MTEXT
5
1AE
100
AcDbEntity
8
0
62
256
6
ByLayer
370
18
48
1
60
0
100
AcDbMText
10
80.75
20
38.952229
30
0
210
0
220
0
230
1
1
\A1;119.5
40
3
41
0
44
1
50
0
71
5
72
5
7
iso_b_vert
0
POINT
5
1AF
100
AcDbEntity
8
Defpoints
62
0
6
ByLayer
370
-1
48
1
60
0
100
AcDbPoint
10
140.5
20
0
30
0
39
0
210
0
220
0
230
1
50
360
0
POINT
5
1B0
100
AcDbEntity
8
Defpoints
62
0
6
ByLayer
370
-1
48
1
60
0
100
AcDbPoint
10
21
20
10.7155
30
0
39
0
210
0
220
0
230
1
50
360
0
POINT
5
1B1
100
AcDbEntity
8
Defpoints
62
0
6
ByLayer
370
-1
48
1
60
0
100
AcDbPoint
10
21
20
32.952229
30
0
39
0
210
0
220
0
230
1
50
360
0
ENDBLK
5
1A8
100
AcDbEntity
8
0
100
AcDbBlockEnd
0
BLOCK
5
1B9
100
AcDbEntity
8
0
100
AcDbBlockBegin
2
_U3
70
0
10
0
20
0
30
0
3
_U3
0
MTEXT
5
1B3
100
AcDbEntity
8
SK2
62
256
6
ByLayer
370
18
48
1
60
0
100
AcDbMText
10
75.896601
20
33.837344
30
0
210
0
220
0
230
1
1
\W0.6532;119.50
40
3
41
0
44
1.084337
50
0
71
7
72
5
7
iso_b_vert
0
LINE
5
1B4
100
AcDbEntity
8
SK2
62
256
6
ByLayer
370
13
48
1
60
0
100
AcDbLine
10
140.5
20
1.5875
30
0
11
140.5
21
34.952229
31
0
39
0
210
0
220
0
230
1
0
LINE
5
1B5
100
AcDbEntity
8
SK2
62
256
6
ByLayer
370
13
48
1
60
0
100
AcDbLine
10
21
20
12.303
30
0
11
21
21
34.952229
31
0
39
0
210
0
220
0
230
1
0
LINE
5
1B6
100
AcDbEntity
8
SK2
62
256
6
ByLayer
370
13
48
1
60
0
100
AcDbLine
10
140.5
20
32.952229
30
0
11
21
21
32.952229
31
0
39
0
210
0
220
0
230
1
0
SOLID
5
1B7
100
AcDbEntity
8
SK2
62
256
6
ByLayer
370
18
48
1
60
0
100
AcDbTrace
10
140.5
20
32.952229
30
0
11
137.000002
21
32.491446
31
0
12
136.999998
22
33.413013
32
0
13
136.999998
23
33.413013
33
0
39
0
210
0
220
0
230
1
0
SOLID
5
1B8
100
AcDbEntity
8
SK2
62
256
6
ByLayer
370
18
48
1
60
0
100
AcDbTrace
10
21
20
32.952229
30
0
11
24.499998
21
33.413013
31
0
12
24.500002
22
32.491446
32
0
13
24.500002
23
32.491446
33
0
39
0
210
0
220
0
230
1
0
ENDBLK
5
1BA
100
AcDbEntity
8
0
100
AcDbBlockEnd
0
ENDSEC
0
SECTION
2
ENTITIES
0
ARC
5
C0
100
AcDbEntity
8
SK2
62
256
6
ByLayer
370
13
48
1
60
0
100
AcDbCircle
39
0
10
140.5
20
0
30
0
40
19
210
0
220
0
230
1
100
AcDbArc
50
290
51
70
0
ELLIPSE
5
C1
100
AcDbEntity
8
SK1
62
256
6
ByLayer
370
18
48
1
60
0
100
AcDbEllipse
10
-20.619083
20
0
30
0
11
13.6190826173124
21
-1.54317782980885E-14
31
0
210
0
220
0
230
1
40
0.932515
41
-0.624896586633934
42
0.624896586633934
0
ELLIPSE
5
C2
100
AcDbEntity
8
SK1
62
256
6
ByLayer
370
18
48
1
60
0
100
AcDbEllipse
10
-37.157058
20
0
30
0
11
-2.33287510403163E-15
21
-12.7
31
0
210
0
220
0
230
1
40
0.932515
41
-2.1956929134288
42
-0.945899740160989
0
POINT
5
70
100
AcDbEntity
8
81
62
256
6
ByLayer
370
18
48
1
60
0
100
AcDbPoint
10
140.5
20
0
30
0
39
0
210
0
220
0
230
1
50
360
0
POINT
5
72
100
AcDbEntity
8
80
62
256
6
ByLayer
370
18
48
1
60
0
100
AcDbPoint
10
0
20
0
30
0
39
0
210
0
220
0
230
1
50
360
0
POINT
5
74
100
AcDbEntity
8
1
62
256
6
ByLayer
370
18
48
1
60
1
100
AcDbPoint
10
-56
20
-12.7
30
0
39
0
210
0
220
0
230
1
50
360
0
POINT
5
76
100
AcDbEntity
8
1
62
256
6
ByLayer
370
18
48
1
60
1
100
AcDbPoint
10
140.5
20
0
30
0
39
0
210
0
220
0
230
1
50
360
0
POINT
5
77
100
AcDbEntity
8
1
62
256
6
ByLayer
370
18
48
1
60
1
100
AcDbPoint
10
140.5
20
0
30
0
39
0
210
0
220
0
230
1
50
360
0
POINT
5
78
100
AcDbEntity
8
1
62
256
6
ByLayer
370
18
48
1
60
1
100
AcDbPoint
10
3
20
-10.7155
30
0
39
0
210
0
220
0
230
1
50
360
0
POINT
5
79
100
AcDbEntity
8
1
62
256
6
ByLayer
370
18
48
1
60
1
100
AcDbPoint
10
-56
20
-12.7
30
0
39
0
210
0
220
0
230
1
50
360
0
POINT
5
7A
100
AcDbEntity
8
1
62
256
6
ByLayer
370
18
48
1
60
1
100
AcDbPoint
10
0
20
-12.7
30
0
39
0
210
0
220
0
230
1
50
360
0
POINT
5
7B
100
AcDbEntity
8
1
62
256
6
ByLayer
370
18
48
1
60
1
100
AcDbPoint
10
140.5
20
0
30
0
39
0
210
0
220
0
230
1
50
360
0
POINT
5
7C
100
AcDbEntity
8
1
62
256
6
ByLayer
370
18
48
1
60
1
100
AcDbPoint
10
21
20
10.7155
30
0
39
0
210
0
220
0
230
1
50
360
0
SPLINE
5
C3
100
AcDbEntity
8
1
62
256
6
ByLayer
370
18
48
1
60
0
100
AcDbSpline
70
4
71
3
72
26
73
22
40
0
40
0
40
0
40
0
40
0.125000000000009
40
0.125000000000009
40
0.250000000000018
40
0.250000000000018
40
0.375000000000027
40
0.375000000000027
40
0.406250000000026
40
0.406250000000026
40
0.437500000000024
40
0.437500000000024
40
0.500000000000022
40
0.500000000000022
40
0.625000000000016
40
0.625000000000016
40
0.750000000000011
40
0.750000000000011
40
0.875000000000005
40
0.875000000000005
40
1
40
1
40
1
40
1
41
1
10
10
20
-7.69532360498391
30
0
41
1
10
10.3509315189147
20
-7.64023100846157
30
0
41
1
10
10.7032792717005
20
-7.59605024325793
30
0
41
1
10
11.4105933738942
20
-7.5292302868254
30
0
41
1
10
11.7655612597565
20
-7.50659699346411
30
0
41
1
10
12.4779769583031
20
-7.48239308606261
30
0
41
1
10
12.8354259601453
20
-7.48082879687823
30
0
41
1
10
13.2837201131769
20
-7.4914943736575
30
0
41
1
10
13.3734531188143
20
-7.49425731421636
30
0
41
1
10
13.5530658178825
20
-7.50102377576411
30
0
41
1
10
13.6430187071548
20
-7.50503189786127
30
0
41
1
10
13.9120925500887
20
-7.51882837716803
30
0
41
1
10
14.0906816480487
20
-7.53039472717208
30
0
41
1
10
14.6242073494398
20
-7.57166400053848
30
0
41
1
10
14.976902075738
20
-7.60794568418552
30
0
41
1
10
15.6770354313872
20
-7.69499515033971
30
0
41
1
10
16.0244729730376
20
-7.74576022517778
30
0
41
1
10
16.7148322542721
20
-7.85848341297617
30
0
41
1
10
17.0577549345283
20
-7.92043365367581
30
0
41
1
10
17.7398523209673
20
-8.0521461492072
30
0
41
1
10
18.0790301820587
20
-8.12189654966784
30
0
41
1
10
18.4167010222641
20
-8.19397022512612
30
0
0
SPLINE
5
C4
100
AcDbEntity
8
1
62
256
6
ByLayer
370
18
48
1
60
0
100
AcDbSpline
70
4
71
3
72
14
73
10
40
0
40
0
40
0
40
0
40
0.25
40
0.25
40
0.5
40
0.5
40
0.75
40
0.75
40
1
40
1
40
1
40
1
41
1
10
13.8054245974868
20
7.78672826993343
30
0
41
1
10
13.4797374544104
20
7.86212569225842
30
0
41
1
10
13.156644097478
20
7.9397932803906
30
0
41
1
10
12.5146989582587
20
8.09733315621634
30
0
41
1
10
12.1958426047785
20
8.17720340508606
30
0
41
1
10
11.5618772929766
20
8.33759608456518
30
0
41
1
10
11.2467666722879
20
8.41812341846105
30
0
41
1
10
10.6203613822555
20
8.57903662577888
30
0
41
1
10
10.3090679732301
20
8.65943300802576
30
0
41
1
10
10
20
8.73962160533958
30
0
0
SPLINE
5
C5
100
AcDbEntity
8
1
62
256
6
ByLayer
370
18
48
1
60
0
100
AcDbSpline
70
4
71
3
72
14
73
10
40
0
40
0
40
0
40
0
40
0.25
40
0.25
40
0.5
40
0.5
40
0.75
40
0.75
40
1
40
1
40
1
40
1
41
1
10
13.8054245974869
20
-7.78672826993346
30
0
41
1
10
13.4797374544104
20
-7.86212569225842
30
0
41
1
10
13.156644097478
20
-7.9397932803906
30
0
41
1
10
12.5146989582588
20
-8.09733315621634
30
0
41
1
10
12.1958426047785
20
-8.17720340508606
30
0
41
1
10
11.5618772929766
20
-8.33759608456518
30
0
41
1
10
11.2467666722879
20
-8.41812341846099
30
0
41
1
10
10.6203613822554
20
-8.57903662577885
30
0
41
1
10
10.3090679732301
20
-8.65943300802579
30
0
41
1
10
10
20
-8.73962160533961
30
0
0
SPLINE
5
C6
100
AcDbEntity
8
1
62
256
6
ByLayer
370
18
48
1
60
0
100
AcDbSpline
70
4
71
3
72
14
73
10
40
0
40
0
40
0
40
0
40
0.175824208325943
40
0.175824208325943
40
0.450549472217295
40
0.450549472217295
40
0.725274736108648
40
0.725274736108648
40
1
40
1
40
1
40
1
41
1
10
14.651516593071
20
7.57720314987583
30
0
41
1
10
14.8778068563087
20
7.59872550080578
30
0
41
1
10
15.1029260295045
20
7.62361458184554
30
0
41
1
10
15.6770354313872
20
7.69499515033974
30
0
41
1
10
16.0244729730376
20
7.7457602251778
30
0
41
1
10
16.7148322542722
20
7.8584834129762
30
0
41
1
10
17.0577549345283
20
7.92043365367587
30
0
41
1
10
17.7398523209673
20
8.05214614920723
30
0
41
1
10
18.0790301820587
20
8.12189654966784
30
0
41
1
10
18.4167010222641
20
8.19397022512615
30
0
0
SPLINE
5
C7
100
AcDbEntity
8
1
62
256
6
ByLayer
370
18
48
1
60
0
100
AcDbSpline
70
4
71
3
72
12
73
8
40
0
40
0
40
0
40
0
40
0.7860475812989
40
0.7860475812989
40
0.98255947662363
40
0.98255947662363
40
1
40
1
40
1
40
1
41
1
10
125.7
20
-10.6392514103372
30
0
41
1
10
126.610004067332
20
-10.6781995513145
30
0
41
1
10
127.519020140351
20
-10.7020692716744
30
0
41
1
10
128.653580076704
20
-10.712753319172
30
0
41
1
10
128.880380148163
20
-10.713926721023
30
0
41
1
10
129.127372926027
20
-10.7141487593383
30
0
41
1
10
129.147507112027
20
-10.7141592543803
30
0
41
1
10
129.167641638131
20
-10.7141621524783
30
0
0
SPLINE
5
C8
100
AcDbEntity
8
1
62
256
6
ByLayer
370
18
48
1
60
0
100
AcDbSpline
70
4
71
3
72
194
73
190
40
0
40
0
40
0
40
0
40
0.0156249999999984
40
0.0156249999999984
40
0.0312499999999968
40
0.0312499999999968
40
0.0468749999999951
40
0.0468749999999951
40
0.0546874999999943
40
0.0585937499999941
40
0.0585937499999941
40
0.0624999999999939
40
0.0624999999999939
40
0.0781249999999926
40
0.0781249999999926
40
0.0937499999999913
40
0.0937499999999913
40
0.10937499999999
40
0.10937499999999
40
0.117187499999989
40
0.117187499999989
40
0.124999999999989
40
0.124999999999989
40
0.132812499999988
40
0.132812499999988
40
0.140624999999988
40
0.140624999999988
40
0.156249999999986
40
0.156249999999986
40
0.171874999999984
40
0.171874999999984
40
0.179687499999984
40
0.179687499999984
40
0.183593749999983
40
0.183593749999983
40
0.187499999999983
40
0.187499999999983
40
0.20312499999998
40
0.20312499999998
40
0.218749999999977
40
0.218749999999977
40
0.234374999999974
40
0.234374999999974
40
0.242187499999972
40
0.242187499999972
40
0.249999999999971
40
0.249999999999971
40
0.257812499999969
40
0.257812499999969
40
0.265624999999968
40
0.265624999999968
40
0.281249999999965
40
0.281249999999965
40
0.296874999999962
40
0.296874999999962
40
0.300781249999961
40
0.300781249999961
40
0.30468749999996
40
0.30468749999996
40
0.312499999999959
40
0.312499999999959
40
0.328124999999958
40
0.328124999999958
40
0.343749999999956
40
0.343749999999956
40
0.359374999999954
40
0.359374999999954
40
0.367187499999954
40
0.367187499999954
40
0.374999999999953
40
0.374999999999953
40
0.382812499999952
40
0.382812499999952
40
0.390624999999952
40
0.390624999999952
40
0.406249999999951
40
0.406249999999951
40
0.421874999999949
40
0.421874999999949
40
0.425781249999949
40
0.425781249999949
40
0.429687499999949
40
0.437499999999948
40
0.437499999999948
40
0.453124999999946
40
0.453124999999946
40
0.468749999999945
40
0.468749999999945
40
0.476562499999944
40
0.476562499999944
40
0.484374999999943
40
0.484374999999943
40
0.492187499999942
40
0.492187499999942
40
0.499999999999941
40
0.499999999999941
40
0.50781249999994
40
0.50781249999994
40
0.515624999999939
40
0.515624999999939
40
0.531249999999938
40
0.531249999999938
40
0.539062499999937
40
0.539062499999937
40
0.542968749999937
40
0.542968749999937
40
0.546874999999937
40
0.546874999999937
40
0.562499999999936
40
0.562499999999936
40
0.578124999999936
40
0.578124999999936
40
0.593749999999935
40
0.593749999999935
40
0.601562499999935
40
0.601562499999935
40
0.609374999999935
40
0.609374999999935
40
0.624999999999935
40
0.624999999999935
40
0.632812499999936
40
0.632812499999936
40
0.640624999999936
40
0.640624999999936
40
0.656249999999936
40
0.656249999999936
40
0.664062499999937
40
0.664062499999937
40
0.667968749999937
40
0.667968749999937
40
0.671874999999937
40
0.671874999999937
40
0.687499999999938
40
0.687499999999938
40
0.703124999999939
40
0.703124999999939
40
0.71874999999994
40
0.71874999999994
40
0.72656249999994
40
0.72656249999994
40
0.73437499999994
40
0.73437499999994
40
0.749999999999941
40
0.749999999999941
40
0.765624999999942
40
0.765624999999942
40
0.781249999999943
40
0.781249999999943
40
0.785156249999943
40
0.785156249999943
40
0.789062499999944
40
0.789062499999944
40
0.796874999999945
40
0.796874999999945
40
0.812499999999948
40
0.812499999999948
40
0.828124999999951
40
0.828124999999951
40
0.843749999999954
40
0.843749999999954
40
0.851562499999955
40
0.851562499999955
40
0.859374999999956
40
0.859374999999956
40
0.874999999999959
40
0.874999999999959
40
0.88281249999996
40
0.88281249999996
40
0.890624999999961
40
0.890624999999961
40
0.906249999999964
40
0.906249999999964
40
0.910156249999965
40
0.910156249999965
40
0.914062499999966
40
0.921874999999969
40
0.921874999999969
40
0.937499999999975
40
0.937499999999975
40
0.953124999999982
40
0.953124999999982
40
0.960937499999985
40
0.964843749999987
40
0.964843749999987
40
0.968749999999989
40
0.968749999999989
40
0.984374999999994
40
0.984374999999994
40
1
40
1
40
1
40
1
41
1
10
18.4167010222642
20
8.19397022512618
30
0
41
1
10
18.9758234853161
20
8.31028882225414
30
0
41
1
10
19.5349371593424
20
8.42134393924619
30
0
41
1
10
20.6529346530357
20
8.63359380034868
30
0
41
1
10
21.2118176970043
20
8.73478865907489
30
0
41
1
10
22.3291575727472
20
8.9277184630192
30
0
41
1
10
22.887613786567
20
9.01945407556514
30
0
41
1
10
23.7248311437156
20
9.15010009489865
30
0
41
1
10
24.1433239291208
20
9.21367999279306
30
0
41
1
10
24.5616231464785
20
9.27463930502404
30
0
41
1
10
24.8404443116228
20
9.31469421658892
30
0
41
1
10
24.9798302300039
20
9.33443139631453
30
0
41
1
10
25.6768782895514
20
9.43138096815647
30
0
41
1
10
26.2349012160144
20
9.50339975550648
30
0
41
1
10
27.3514064958302
20
9.63692705465215
30
0
41
1
10
27.9098954082415
20
9.69842574949999
30
0
41
1
10
29.0271596744591
20
9.81109825300834
30
0
41
1
10
29.585931232299
20
9.86227548426683
30
0
41
1
10
30.4241622653688
20
9.93129113677838
30
0
41
1
10
30.7035858540848
20
9.95300220683595
30
0
41
1
10
31.2624446980246
20
9.99380949183595
30
0
41
1
10
31.541842646661
20
10.012921979512
30
0
41
1
10
32.1010796752796
20
10.0482683608302
30
0
41
1
10
32.3808049330339
20
10.0645239925063
30
0
41
1
10
32.9400937438164
20
10.0942404073889
30
0
41
1
10
33.219706850678
20
10.1077046740564
30
0
41
1
10
34.0584102613717
20
10.1439732447383
30
0
41
1
10
34.6173680429298
20
10.1626590051612
30
0
41
1
10
35.734743634093
20
10.189153987873
30
0
41
1
10
36.2931564031031
20
10.1969639314136
30
0
41
1
10
37.1302271124922
20
10.2004296055112
30
0
41
1
10
37.4091601207951
20
10.2002080939846
30
0
41
1
10
37.8274111931738
20
10.197784111493
30
0
41
1
10
37.9668022141931
20
10.196626649421
30
0
41
1
10
38.2456297718576
20
10.1936199977777
30
0
41
1
10
38.3850656122693
20
10.1917714583413
30
0
41
1
10
39.0823422883613
20
10.1808152976158
30
0
41
1
10
39.6404689849743
20
10.1665774309115
30
0
41
1
10
40.7570649135883
20
10.1272955877571
30
0
41
1
10
41.315543558291
20
10.1022522683919
30
0
41
1
10
42.4326710641098
20
10.0412754380653
30
0
41
1
10
42.9913145328862
20
10.0053389221804
30
0
41
1
10
43.8292802577776
20
9.94303506750566
30
0
41
1
10
44.1085866332359
20
9.92085401538964
30
0
41
1
10
44.6672651718568
20
9.87369202494082
30
0
41
1
10
44.9467494362088
20
9.84879170688183
30
0
41
1
10
45.5060843783527
20
9.79644510451107
30
0
41
1
10
45.7859224091382
20
9.76898452800916
30
0
41
1
10
46.345373269098
20
9.71153782952686
30
0
41
1
10
46.6250513725466
20
9.6815460898751
30
0
41
1
10
47.4639097448789
20
9.58776105874622
30
0
41
1
10
48.0229163772701
20
9.52016669877457
30
0
41
1
10
49.1402707935567
20
9.37464324727176
30
0
41
1
10
49.6986135538961
20
9.29670766409089
30
0
41
1
10
50.3960230458334
20
9.1925980080922
30
0
41
1
10
50.5354790965038
20
9.17144123660191
30
0
41
1
10
50.8143377988004
20
9.12845173296517
30
0
41
1
10
50.9537400221675
20
9.1066178462969
30
0
41
1
10
51.3720118111414
20
9.04029126109936
30
0
41
1
10
51.6509392734322
20
8.99496711800799
30
0
41
1
10
52.4879000024752
20
8.85564668077802
30
0
41
1
10
53.0461032264293
20
8.75829688983771
30
0
41
1
10
54.162746760493
20
8.55445683268385
30
0
41
1
10
54.7211935785352
20
8.44797607166717
30
0
41
1
10
55.838139134117
20
8.2255203592191
30
0
41
1
10
56.3966339873287
20
8.10953777138781
30
0
41
1
10
57.2343061484397
20
7.92807990002427
30
0
41
1
10
57.5134852466752
20
7.86627764053119
30
0
41
1
10
58.0722589484114
20
7.74098577207363
30
0
41
1
10
58.3518131088939
20
7.67742579713831
30
0
41
1
10
58.9112148453154
20
7.54842564526803
30
0
41
1
10
59.1911138610579
20
7.48297091140597
30
0
41
1
10
59.750700133988
20
7.35024478436355
30
0
41
1
10
60.0304318956876
20
7.28296476011172
30
0
41
1
10
60.8694099820561
20
7.07831741158549
30
0
41
1
10
61.4284409224641
20
6.93815095306235
30
0
41
1
10
62.5457256192433
20
6.64989383826605
30
0
41
1
10
63.1039765517854
20
6.50179600255706
30
0
41
1
10
63.801212145867
20
6.31143114567871
30
0
41
1
10
63.9406310702784
20
6.27309700077319
30
0
41
1
10
64.2195100262491
20
6.19613093531962
30
0
41
1
10
64.6378818103825
20
6.08021702105063
30
0
41
1
10
65.0563905900872
20
5.96287080422627
30
0
41
1
10
65.893532305115
20
5.72615866789738
30
0
41
1
10
66.4517884606085
20
5.56565202048327
30
0
41
1
10
67.5684340769188
20
5.23883270142818
30
0
41
1
10
68.126824298743
20
5.07252209151363
30
0
41
1
10
68.9643621590505
20
4.81828450406573
30
0
41
1
10
69.2435338310818
20
4.73274301648178
30
0
41
1
10
69.8018453116098
20
4.56000760671742
30
0
41
1
10
70.0809663061101
20
4.4727635041877
30
0
41
1
10
70.6392518976259
20
4.29679988253361
30
0
41
1
10
70.9185295384317
20
4.20838153293209
30
0
41
1
10
71.477413032846
20
4.03084907787809
30
0
41
1
10
71.7570032588419
20
3.94169342590797
30
0
41
1
10
72.3164416795364
20
3.76251022481645
30
0
41
1
10
72.5963542106182
20
3.672463466457
30
0
41
1
10
73.156052441625
20
3.49155634575459
30
0
41
1
10
73.4358263894816
20
3.40070013756343
30
0
41
1
10
74.2748900733518
20
3.12683382437089
30
0
41
1
10
74.8339193344192
20
2.94252056854384
30
0
41
1
10
75.6717956925114
20
2.66302158089036
30
0
41
1
10
75.9509771918991
20
2.56935193229901
30
0
41
1
10
76.3695699121825
20
2.42805093150253
30
0
41
1
10
76.5090706508591
20
2.38081712727779
30
0
41
1
10
76.7880112660667
20
2.28608044838134
30
0
41
1
10
76.9274523598336
20
2.23858094649745
30
0
41
1
10
77.6247543284377
20
2.00111952391202
30
0
41
1
10
78.1828432665582
20
1.8110938079364
30
0
41
1
10
79.2992147522546
20
1.43010321010914
30
0
41
1
10
79.8575043649699
20
1.23915817444546
30
0
41
1
10
80.9741055211863
20
0.855838348233164
30
0
41
1
10
81.5324129954279
20
0.663451774397913
30
0
41
1
10
82.3697468934101
20
0.373365240280208
30
0
41
1
10
82.6488379155505
20
0.276421108685668
30
0
41
1
10
83.2069636876183
20
0.08198446967981
30
0
41
1
10
83.4859688542972
20
-0.0155958143722614
30
0
41
1
10
84.3235684875545
20
-0.307196567643217
30
0
41
1
10
84.8825663772288
20
-0.500603570346954
30
0
41
1
10
85.721740990989
20
-0.78985229980168
30
0
41
1
10
86.0016113286458
20
-0.886129055787393
30
0
41
1
10
86.5614236718808
20
-1.07840389285275
30
0
41
1
10
86.8412893162196
20
-1.17437450662877
30
0
41
1
10
87.6807263904987
20
-1.46189635246077
30
0
41
1
10
88.2401344661846
20
-1.65306907219238
30
0
41
1
10
89.0787861919157
20
-1.93942887279667
30
0
41
1
10
89.3582599832325
20
-2.03481534874157
30
0
41
1
10
89.7773472948454
20
-2.17781246477694
30
0
41
1
10
89.9170252541017
20
-2.22545646157224
30
0
41
1
10
90.1964429578585
20
-2.32042612219121
30
0
41
1
10
90.3361778952927
20
-2.36776549223006
30
0
41
1
10
91.0349699118726
20
-2.60377472920814
30
0
41
1
10
91.5943718458628
20
-2.79040407848157
30
0
41
1
10
92.7136440141866
20
-3.1600949918905
30
0
41
1
10
93.2736043217717
20
-3.34315535259316
30
0
41
1
10
94.3928205501412
20
-3.70586245195986
30
0
41
1
10
94.9521814584355
20
-3.88556084713196
30
0
41
1
10
95.7907247759712
20
-4.15291011812147
30
0
41
1
10
96.0701328203425
20
-4.24172051261684
30
0
41
1
10
96.6288870121978
20
-4.41831818955072
30
0
41
1
10
96.9083462718558
20
-4.5058099052913
30
0
41
1
10
97.7470102561674
20
-4.76578595649025
30
0
41
1
10
98.3064501232568
20
-4.93590800269456
30
0
41
1
10
99.4257478474905
20
-5.27044768070996
30
0
41
1
10
99.9857462550629
20
-5.43488101825963
30
0
41
1
10
101.104575384975
20
-5.75806800781689
30
0
41
1
10
101.663547405116
20
-5.91687782250312
30
0
41
1
10
102.361608410716
20
-6.11207320635899
30
0
41
1
10
102.501187064071
20
-6.15094804108156
30
0
41
1
10
102.780281472244
20
-6.22835626119092
30
0
41
1
10
102.919801563123
20
-6.26687912176936
30
0
41
1
10
103.338419761603
20
-6.38158423797873
30
0
41
1
10
103.61754990137
20
-6.45696489938121
30
0
41
1
10
104.455035161319
20
-6.68001638548125
30
0
41
1
10
105.013476975105
20
-6.82461985989679
30
0
41
1
10
106.130382922892
20
-7.10620247949032
30
0
41
1
10
106.688852928466
20
-7.24316881409558
30
0
41
1
10
107.805626378479
20
-7.5098282228146
30
0
41
1
10
108.363926300261
20
-7.63952743681128
30
0
41
1
10
109.201140485708
20
-7.82870515236553
30
0
41
1
10
109.480155082205
20
-7.89089626650409
30
0
41
1
10
110.038564703573
20
-8.01262530820438
30
0
41
1
10
110.317909599594
20
-8.07226050540223
30
0
41
1
10
111.156303247775
20
-8.24762246163115
30
0
41
1
10
111.71570406562
20
-8.35982249086945
30
0
41
1
10
112.555362346928
20
-8.52136102109262
30
0
41
1
10
112.835291772165
20
-8.5740673019865
30
0
41
1
10
113.394962452973
20
-8.67719196933555
30
0
41
1
10
113.674740368265
20
-8.72761773826852
30
0
41
1
10
114.51386436315
20
-8.87552346006044
30
0
41
1
10
115.072992010435
20
-8.96964896501132
30
0
41
1
10
115.771476943126
20
-9.08165873431432
30
0
41
1
10
115.911160496015
20
-9.10376700971503
30
0
41
1
10
116.19059214701
20
-9.14727836849136
30
0
41
1
10
116.609814682405
20
-9.21151725071735
30
0
41
1
10
117.029238593169
20
-9.27272532703131
30
0
41
1
10
117.86829509307
20
-9.3912137069612
30
0
41
1
10
118.427941775413
20
-9.46497760907457
30
0
41
1
10
119.547595470358
20
-9.60232450748492
30
0
41
1
10
120.107273998281
20
-9.66586738247088
30
0
41
1
10
120.946299837553
20
-9.75355378213388
30
0
41
1
10
121.365699960299
20
-9.79548777723727
30
0
41
1
10
121.784910561159
20
-9.8345430483096
30
0
41
1
10
122.06434012872
20
-9.85993691989066
30
0
41
1
10
122.204026055397
20
-9.87231704454658
30
0
41
1
10
122.902491907595
20
-9.93249516667157
30
0
41
1
10
123.461649469353
20
-9.97495203644311
30
0
41
1
10
124.580489595188
20
-10.0489100886009
30
0
41
1
10
125.140164441278
20
-10.0804139453046
30
0
41
1
10
125.7
20
-10.1065100121548
30
0
0
SPLINE
5
C9
100
AcDbEntity
8
1
62
256
6
ByLayer
370
18
48
1
60
0
100
AcDbSpline
70
4
71
4
72
10
73
5
40
0
40
0
40
0
40
0
40
0
40
1
40
1
40
1
40
1
40
1
41
0.996537753475019
10
18.4167010222642
20
8.19397022512616
30
0
41
0.995953709623447
10
18.3710493257791
20
7.80948392702863
30
0
41
0.995541188901604
10
18.3153099578254
20
7.43175252346849
30
0
41
0.995420232832679
10
18.2497744522568
20
7.06584438136144
30
0
41
0.995564621423931
10
18.1753950843371
20
6.71595941135296
30
0
0
SPLINE
5
CA
100
AcDbEntity
8
1
62
256
6
ByLayer
370
18
48
1
60
0
100
AcDbSpline
70
4
71
3
72
142
73
138
40
0
40
0
40
0
40
0
40
0.0125940865749825
40
0.0125940865749825
40
0.0312243868282875
40
0.0312243868282875
40
0.0405395369549396
40
0.0405395369549396
40
0.0498546870815917
40
0.0498546870815917
40
0.0684849873348966
40
0.0684849873348966
40
0.0871152875882016
40
0.0871152875882016
40
0.0964304377148541
40
0.0964304377148541
40
0.105745587841507
40
0.105745587841507
40
0.143006188348114
40
0.143006188348114
40
0.161636488601417
40
0.161636488601417
40
0.170951638728069
40
0.170951638728069
40
0.180266788854721
40
0.180266788854721
40
0.217527389361325
40
0.217527389361325
40
0.236157689614628
40
0.236157689614628
40
0.245472839741279
40
0.245472839741279
40
0.254787989867931
40
0.254787989867931
40
0.292048590374534
40
0.292048590374534
40
0.301363740501185
40
0.30602131556451
40
0.30602131556451
40
0.310678890627836
40
0.310678890627836
40
0.329309190881139
40
0.329309190881139
40
0.347939491134442
40
0.347939491134442
40
0.366569791387745
40
0.366569791387745
40
0.375884941514396
40
0.375884941514396
40
0.380542516577722
40
0.380542516577722
40
0.385200091641047
40
0.385200091641047
40
0.403830391894348
40
0.42246069214765
40
0.42246069214765
40
0.441090992400951
40
0.441090992400951
40
0.450406142527602
40
0.450406142527602
40
0.459721292654253
40
0.459721292654253
40
0.478351592907554
40
0.478351592907554
40
0.496981893160856
40
0.496981893160856
40
0.515612193414157
40
0.515612193414157
40
0.524927343540808
40
0.524927343540808
40
0.534242493667459
40
0.534242493667459
40
0.55287279392076
40
0.55287279392076
40
0.571503094174062
40
0.571503094174062
40
0.580818244300713
40
0.580818244300713
40
0.590133394427364
40
0.590133394427364
40
0.627393994933968
40
0.627393994933968
40
0.64602429518727
40
0.64602429518727
40
0.655339445313921
40
0.655339445313921
40
0.664654595440572
40
0.664654595440572
40
0.673969745567224
40
0.673969745567224
40
0.683284895693875
40
0.683284895693875
40
0.701915195947177
40
0.701915195947177
40
0.720545496200478
40
0.720545496200478
40
0.72986064632713
40
0.72986064632713
40
0.739175796453781
40
0.739175796453781
40
0.776436396960385
40
0.776436396960385
40
0.785751547087036
40
0.790409122150361
40
0.790409122150361
40
0.795066697213687
40
0.795066697213687
40
0.804381847340337
40
0.804381847340337
40
0.813696997466988
40
0.813696997466988
40
0.832327297720289
40
0.832327297720289
40
0.85095759797359
40
0.85095759797359
40
0.860272748100241
40
0.860272748100241
40
0.864930323163566
40
0.864930323163566
40
0.869587898226891
40
0.888218198480193
40
0.888218198480193
40
0.897533348606843
40
0.897533348606843
40
0.906848498733493
40
0.906848498733493
40
0.925478798986795
40
0.925478798986795
40
0.934793949113445
40
0.934793949113445
40
0.944109099240096
40
0.944109099240096
40
0.962739399493397
40
0.962739399493397
40
0.981369699746699
40
0.981369699746699
40
1
40
1
40
1
40
1
41
1
10
107.65485081269
20
-7.47429751774285
30
0
41
1
10
107.261153483825
20
-7.566850522018
30
0
41
1
10
106.867527435545
20
-7.65740718020407
30
0
41
1
10
105.891827934433
20
-7.87703735916327
30
0
41
1
10
105.309868710768
20
-8.00379092428787
30
0
41
1
10
104.437274422747
20
-8.18744440950661
30
0
41
1
10
104.146391346413
20
-8.24744638069643
30
0
41
1
10
103.56441704876
20
-8.36473970803124
30
0
41
1
10
103.273351484395
20
-8.42207654401457
30
0
41
1
10
102.399935810659
20
-8.59020992342184
30
0
41
1
10
101.81736657107
20
-8.69713361922817
30
0
41
1
10
100.651729758374
20
-8.9008200131031
30
0
41
1
10
100.068660060012
20
-8.99758018723975
30
0
41
1
10
99.1937555080575
20
-9.13512827617186
30
0
41
1
10
98.9020706827979
20
-9.17971105514818
30
0
41
1
10
98.3186133271263
20
-9.26633246119829
30
0
41
1
10
98.0270273107434
20
-9.308385817774
30
0
41
1
10
96.5688976835007
20
-9.51117475088034
30
0
41
1
10
95.4020220875401
20
-9.65008019740489
30
0
41
1
10
93.6516505135028
20
-9.82456548221256
30
0
41
1
10
93.0681846156122
20
-9.87706164674827
30
0
41
1
10
92.1930578271335
20
-9.94726085063525
30
0
41
1
10
91.9013428917816
20
-9.96924657641887
30
0
41
1
10
91.31805379169
20
-10.0102813379869
30
0
41
1
10
91.0264076321018
20
-10.0292784754078
30
0
41
1
10
89.5680539763004
20
-10.1166798282352
30
0
41
1
10
88.4011073218651
20
-10.1625252636287
30
0
41
1
10
86.6508109661668
20
-10.1957164889282
30
0
41
1
10
86.0674033906311
20
-10.2008291446287
30
0
41
1
10
85.1924127527016
20
-10.1994219224623
30
0
41
1
10
84.9007399029008
20
-10.1974320567661
30
0
41
1
10
84.3174887049842
20
-10.1904445296717
30
0
41
1
10
84.0259036447002
20
-10.1854485830305
30
0
41
1
10
82.5682006162465
20
-10.1530333899273
30
0
41
1
10
81.4027386693895
20
-10.1034265592984
30
0
41
1
10
79.947230983445
20
-10.0118488593594
30
0
41
1
10
79.5106797811906
20
-9.9821460606768
30
0
41
1
10
79.0742963478729
20
-9.9490642957966
30
0
41
1
10
78.78341331563
20
-9.92625346007935
30
0
41
1
10
78.6379953434646
20
-9.91446684373807
30
0
41
1
10
77.9108390782538
20
-9.85375034836926
30
0
41
1
10
77.3288578439816
20
-9.79951603673817
30
0
41
1
10
76.1644612123347
20
-9.67985352908693
30
0
41
1
10
75.5820464976512
20
-9.61442490679997
30
0
41
1
10
74.4168701431314
20
-9.47231736289518
30
0
41
1
10
73.8341071791089
20
-9.3956407008323
30
0
41
1
10
72.9597809367613
20
-9.27199173965786
30
0
41
1
10
72.6683086883491
20
-9.22933466937994
30
0
41
1
10
72.2310633864786
20
-9.16315065752713
30
0
41
1
10
72.0853084420149
20
-9.14072271209301
30
0
41
1
10
71.7937098545422
20
-9.09523264535144
30
0
41
1
10
71.6478627029252
20
-9.0721655183915
30
0
41
1
10
70.9184974418407
20
-8.95524066488605
30
0
41
1
10
69.7519130109139
20
-8.75820271877862
30
0
41
1
10
68.5862697635923
20
-8.54135678271157
30
0
41
1
10
67.4211829336228
20
-8.31449433751209
30
0
41
1
10
66.8389193762771
20
-8.19605274347921
30
0
41
1
10
65.9660322322309
20
-8.01063779521607
30
0
41
1
10
65.6751955102362
20
-7.94746243278445
30
0
41
1
10
65.0934181491587
20
-7.81900860668534
30
0
41
1
10
64.8024753094205
20
-7.75373820947081
30
0
41
1
10
63.9294973529078
20
-7.55480474737277
30
0
41
1
10
63.3473136104423
20
-7.41802227106862
30
0
41
1
10
62.1826336188257
20
-7.13604826659216
30
0
41
1
10
61.6001365056273
20
-6.9908587992856
30
0
41
1
10
60.4349223095933
20
-6.69182423766591
30
0
41
1
10
59.852222671955
20
-6.53793966881091
30
0
41
1
10
58.9780432632135
20
-6.30040100612752
30
0
41
1
10
58.6865434128957
20
-6.22029700378747
30
0
41
1
10
58.1031974301222
20
-6.05856671015974
30
0
41
1
10
57.8113261427992
20
-5.97687906360892
30
0
41
1
10
56.9360800751827
20
-5.72959674669687
30
0
41
1
10
56.3528379801917
20
-5.56172287599799
30
0
41
1
10
55.1869430838317
20
-5.219785791139
30
0
41
1
10
54.6042881347856
20
-5.04572820719355
30
0
41
1
10
53.7308285250553
20
-4.77977533826365
30
0
41
1
10
53.4397625713348
20
-4.69031239164016
30
0
41
1
10
52.8578201928558
20
-4.50971354948732
30
0
41
1
10
52.5669724107796
20
-4.41850073485847
30
0
41
1
10
51.1123672171098
20
-3.96044846041437
30
0
41
1
10
49.9479628680024
20
-3.58653350442111
30
0
41
1
10
48.2007781517282
20
-3.01331453998074
30
0
41
1
10
47.6182877095569
20
-2.82017292923606
30
0
41
1
10
46.7444907947265
20
-2.52707761998624
30
0
41
1
10
46.453233831946
20
-2.42876029334903
30
0
41
1
10
45.8706184292664
20
-2.23121522604427
30
0
41
1
10
45.5791756745979
20
-2.13223058321267
30
0
41
1
10
44.9959934491259
20
-1.9339237504015
30
0
41
1
10
44.7042511439641
20
-1.83458219627701
30
0
41
1
10
44.1205275099471
20
-1.63551323223865
30
0
41
1
10
43.828733077487
20
-1.53584986626419
30
0
41
1
10
42.953565942498
20
-1.23643083602278
30
0
41
1
10
42.370408714236
20
-1.03624798486675
30
0
41
1
10
41.204759306292
20
-0.634478108116639
30
0
41
1
10
40.6222697930926
20
-0.432883257830383
30
0
41
1
10
39.7491275323552
20
-0.129171501619595
30
0
41
1
10
39.4581754866809
20
-0.0277242485389593
30
0
41
1
10
38.876107919686
20
0.174558919495411
30
0
41
1
10
38.5850326979677
20
0.275512380275302
30
0
41
1
10
37.1294734037699
20
0.77941185456271
30
0
41
1
10
35.9644345048882
20
1.17974435501605
30
0
41
1
10
34.5078506117878
20
1.67799196916101
30
0
41
1
10
34.0708555978825
20
1.82730763719408
30
0
41
1
10
33.6338454788666
20
1.97642629950141
30
0
41
1
10
33.3425037776774
20
2.07579974320836
30
0
41
1
10
33.1968350844985
20
2.12547550888399
30
0
41
1
10
32.7597220600211
20
2.27414269368288
30
0
41
1
10
32.4681691612878
20
2.37276943955951
30
0
41
1
10
31.8847843721235
20
2.56908183367492
30
0
41
1
10
31.5929023862736
20
2.66678452378565
30
0
41
1
10
30.7174516914837
20
2.95833407469098
30
0
41
1
10
30.1339551893771
20
3.15066453122236
30
0
41
1
10
28.9673208142546
20
3.53151450284344
30
0
41
1
10
28.3841816903927
20
3.72003090398977
30
0
41
1
10
27.5098273042466
20
4.00014621530357
30
0
41
1
10
27.2184358353318
20
4.09307662171
30
0
41
1
10
26.7814451953145
20
4.2318183520099
30
0
41
1
10
26.6357951589763
20
4.27794952883477
30
0
41
1
10
26.3444467078767
20
4.36978136650384
30
0
41
1
10
25.6159793696135
20
4.5983500137967
30
0
41
1
10
24.8870425028151
20
4.82192126302726
30
0
41
1
10
24.0119319319291
20
5.0856171823778
30
0
41
1
10
23.720163999051
20
5.17275026352581
30
0
41
1
10
23.1365103988013
20
5.34551383401518
30
0
41
1
10
22.8445795670977
20
5.43115674076844
30
0
41
1
10
21.9689882049188
20
5.68576183753981
30
0
41
1
10
21.3856070430772
20
5.85238567188225
30
0
41
1
10
20.5111450017768
20
6.0977972154086
30
0
41
1
10
20.2197991278419
20
6.17893585886992
30
0
41
1
10
19.6370175155905
20
6.33901403711326
30
0
41
1
10
19.3455891836921
20
6.41797417024108
30
0
41
1
10
18.4712052294545
20
6.65167722512962
30
0
41
1
10
17.8881521741002
20
6.80324987780207
30
0
41
1
10
16.7218614482311
20
7.09817207057142
30
0
41
1
10
16.1386224703137
20
7.24151926475187
30
0
41
1
10
14.9720550713954
20
7.52014593684885
30
0
41
1
10
14.3887272428615
20
7.65542765466918
30
0
41
1
10
13.8054245974869
20
7.78672826993335
30
0
0
SPLINE
5
CB
100
AcDbEntity
8
1
62
256
6
ByLayer
370
18
48
1
60
0
100
AcDbSpline
70
4
71
3
72
18
73
14
40
0
40
0
40
0
40
0
40
0.249999999999995
40
0.249999999999995
40
0.49999999999999
40
0.49999999999999
40
0.562499999999992
40
0.562499999999992
40
0.624999999999994
40
0.624999999999994
40
0.749999999999998
40
0.749999999999998
40
1
40
1
40
1
40
1
41
1
10
136.599876954716
20
-1.52670979746603
30
0
41
1
10
135.690822258416
20
-1.19797243264881
30
0
41
1
10
134.781989670063
20
-0.869281932255774
30
0
41
1
10
132.965132031098
20
-0.210954747281818
30
0
41
1
10
132.057100434823
20
0.118664003546542
30
0
41
1
10
130.92289359599
20
0.532175631960769
30
0
41
1
10
130.696108718952
20
0.614993231876895
30
0
41
1
10
130.242551624066
20
0.780581348946527
30
0
41
1
10
130.015729456527
20
0.863214024838555
30
0
41
1
10
129.335088546795
20
1.11050871733525
30
0
41
1
10
128.881116879247
20
1.27462679975045
30
0
41
1
10
127.518647412377
20
1.76496777914514
30
0
41
1
10
126.609586059814
20
2.08915408626973
30
0
41
1
10
125.7
20
2.41124282890954
30
0
0
SPLINE
5
CC
100
AcDbEntity
8
1
62
256
6
ByLayer
370
18
48
1
60
0
100
AcDbSpline
70
4
71
3
72
90
73
86
40
0
40
0
40
0
40
0
40
0.0312499999999997
40
0.0312499999999997
40
0.0624999999999993
40
0.0624999999999993
40
0.125
40
0.125
40
0.140625
40
0.140625
40
0.1484375
40
0.1484375
40
0.156249999999999
40
0.187499999999998
40
0.187499999999998
40
0.218749999999996
40
0.218749999999996
40
0.249999999999994
40
0.249999999999994
40
0.281249999999992
40
0.281249999999992
40
0.296874999999991
40
0.296874999999991
40
0.31249999999999
40
0.31249999999999
40
0.343749999999989
40
0.343749999999989
40
0.374999999999987
40
0.374999999999987
40
0.406249999999985
40
0.406249999999985
40
0.437499999999983
40
0.437499999999983
40
0.445312499999983
40
0.445312499999983
40
0.453124999999982
40
0.468749999999982
40
0.468749999999982
40
0.49999999999998
40
0.49999999999998
40
0.531249999999979
40
0.531249999999979
40
0.539062499999978
40
0.539062499999978
40
0.546874999999978
40
0.562499999999977
40
0.562499999999977
40
0.593749999999975
40
0.593749999999975
40
0.624999999999973
40
0.624999999999973
40
0.632812499999974
40
0.632812499999974
40
0.640624999999974
40
0.656249999999973
40
0.656249999999973
40
0.687499999999973
40
0.687499999999973
40
0.718749999999972
40
0.718749999999972
40
0.726562499999971
40
0.726562499999971
40
0.734374999999971
40
0.734374999999971
40
0.749999999999971
40
0.749999999999971
40
0.781249999999972
40
0.781249999999972
40
0.812499999999973
40
0.812499999999973
40
0.843749999999973
40
0.843749999999973
40
0.851562499999974
40
0.851562499999974
40
0.859374999999975
40
0.874999999999979
40
0.874999999999979
40
0.906249999999984
40
0.937499999999989
40
0.937499999999989
40
0.968749999999994
40
0.968749999999994
40
0.984374999999997
40
0.984374999999997
40
1
40
1
40
1
40
1
41
1
10
136.59987695472
20
10.3752567178109
30
0
41
1
10
136.666809801947
20
10.209279315856
30
0
41
1
10
136.733847701747
20
10.0408143533622
30
0
41
1
10
136.868246997626
20
9.69930252359893
30
0
41
1
10
136.935608277853
20
9.52625475783702
30
0
41
1
10
137.138296527951
20
9.00066470751119
30
0
41
1
10
137.274246240846
20
8.64171248937541
30
0
41
1
10
137.445358700045
20
8.18312123791384
30
0
41
1
10
137.479638489226
20
8.09090495944287
30
0
41
1
10
137.531141923125
20
7.95183961905397
30
0
41
1
10
137.548335571052
20
7.90532870183327
30
0
41
1
10
137.582688930806
20
7.81222613788418
30
0
41
1
10
137.668446422851
20
7.5793772954016
30
0
41
1
10
137.753582869052
20
7.34607362639653
30
0
41
1
10
137.888950675273
20
6.97220168561566
30
0
41
1
10
137.956210152327
20
6.78497294661025
30
0
41
1
10
138.089725911186
20
6.4098861992627
30
0
41
1
10
138.155983723744
20
6.22202872730807
30
0
41
1
10
138.287211545836
20
5.84559026861857
30
0
41
1
10
138.352184194742
20
5.65701022848117
30
0
41
1
10
138.448319434181
20
5.37347239353304
30
0
41
1
10
138.48014214752
20
5.27884783293118
30
0
41
1
10
138.543256417037
20
5.08934400339362
30
0
41
1
10
138.574563422692
20
4.99441508227676
30
0
41
1
10
138.667077647324
20
4.71057286190836
30
0
41
1
10
138.727041952119
20
4.52216668666878
30
0
41
1
10
138.842450893949
20
4.14668643136301
30
0
41
1
10
138.897903102205
20
3.95961356665376
30
0
41
1
10
139.002602844445
20
3.58640874997747
30
0
41
1
10
139.051859183267
20
3.4002775846869
30
0
41
1
10
139.141629961673
20
3.02845009250706
30
0
41
1
10
139.182148348473
20
2.84275222490262
30
0
41
1
10
139.225074673987
20
2.61051476709832
30
0
41
1
10
139.233277502083
20
2.56402323040643
30
0
41
1
10
139.248810296355
20
2.47119094827193
30
0
41
1
10
139.27075897365
20
2.33243050835401
30
0
41
1
10
139.288420317759
20
2.19515203737703
30
0
41
1
10
139.317452464329
20
1.922645473502
30
0
41
1
10
139.328357702904
20
1.74369913089689
30
0
41
1
10
139.331234389995
20
1.39188143030236
30
0
41
1
10
139.323189092149
20
1.21901265322262
30
0
41
1
10
139.301373909034
20
1.00728622395135
30
0
41
1
10
139.29642195439
20
0.965110122203811
30
0
41
1
10
139.285406998788
20
0.881435215753925
30
0
41
1
10
139.267264651624
20
0.757254833666053
30
0
41
1
10
139.244542824311
20
0.637022045530017
30
0
41
1
10
139.193754003905
20
0.401694792009152
30
0
41
1
10
139.152797043482
20
0.251651748823235
30
0
41
1
10
139.060374211776
20
-0.0352764194484223
30
0
41
1
10
139.00891619985
20
-0.17216552516814
30
0
41
1
10
138.939733038883
20
-0.335175245281988
30
0
41
1
10
138.925638267307
20
-0.367398890224194
30
0
41
1
10
138.897048555806
20
-0.430903922387756
30
0
41
1
10
138.85362859298
20
-0.524607005788624
30
0
41
1
10
138.808768617199
20
-0.613737939543455
30
0
41
1
10
138.717476931499
20
-0.786086040507115
30
0
41
1
10
138.654540936465
20
-0.89311616974905
30
0
41
1
10
138.525739945135
20
-1.09196236358977
30
0
41
1
10
138.45986625584
20
-1.18377560732256
30
0
41
1
10
138.376089710223
20
-1.28904683971388
30
0
41
1
10
138.359261613966
20
-1.30962520574508
30
0
41
1
10
138.325466102404
20
-1.34982620136236
30
0
41
1
10
138.308487150719
20
-1.36946070179371
30
0
41
1
10
138.257568232405
20
-1.42668191858823
30
0
41
1
10
138.223581927382
20
-1.46266753567232
30
0
41
1
10
138.121555112807
20
-1.56428416883622
30
0
41
1
10
138.053451771033
20
-1.62358805962418
30
0
41
1
10
137.917197840063
20
-1.72573956063775
30
0
41
1
10
137.849045127477
20
-1.76858548523637
30
0
41
1
10
137.712671276317
20
-1.83783979318849
30
0
41
1
10
137.644449167923
20
-1.86424817984289
30
0
41
1
10
137.559057290907
20
-1.88676290034977
30
0
41
1
10
137.541962602848
20
-1.89074104993759
30
0
41
1
10
137.507913427697
20
-1.89761003777164
30
0
41
1
10
137.456995983592
20
-1.90629852289859
30
0
41
1
10
137.40653078384
20
-1.91019583014324
30
0
41
1
10
137.306159057232
20
-1.9117106312045
30
0
41
1
10
137.173819603679
20
-1.89700516111142
30
0
41
1
10
137.043992721116
20
-1.8494589507269
30
0
41
1
10
136.915192353895
20
-1.78546450849947
30
0
41
1
10
136.85130555241
20
-1.74524438656283
30
0
41
1
10
136.756072351481
20
-1.67231058483884
30
0
41
1
10
136.724518828582
20
-1.6459631914326
30
0
41
1
10
136.661882840526
20
-1.58931907536754
30
0
41
1
10
136.630780507468
20
-1.55900724162896
30
0
41
1
10
136.599876954721
20
-1.52670979746736
30
0
0
SPLINE
5
CD
100
AcDbEntity
8
1
62
256
6
ByLayer
370
18
48
1
60
0
100
AcDbSpline
70
4
71
3
72
18
73
14
40
0
40
0
40
0
40
0
40
0.0835147710974297
40
0.0835147710974297
40
0.266811816877942
40
0.266811816877942
40
0.633405908438976
40
0.633405908438976
40
0.816702954219493
40
0.816702954219493
40
0.908351477109746
40
0.908351477109746
40
1
40
1
40
1
40
1
41
1
10
129.167640911618
20
10.7141621523738
30
0
41
1
10
129.374373321952
20
10.7141919106397
30
0
41
1
10
129.581141586949
20
10.7134207782381
30
0
41
1
10
130.241808822621
20
10.7084250137485
30
0
41
1
10
130.695807003972
20
10.7011781276442
30
0
41
1
10
132.057979143864
20
10.6681111755379
30
0
41
1
10
132.966351795721
20
10.6310179023287
30
0
41
1
10
134.328656503727
20
10.5523626437713
30
0
41
1
10
134.782698486988
20
10.522284432645
30
0
41
1
10
135.463714589284
20
10.4712785332378
30
0
41
1
10
135.69078329254
20
10.4533342130202
30
0
41
1
10
136.145176588331
20
10.4156558809361
30
0
41
1
10
136.372479448578
20
10.395909698585
30
0
41
1
10
136.599876954716
20
10.3752567178112
30
0
0
SPLINE
5
CE
100
AcDbEntity
8
1
62
256
6
ByLayer
370
18
48
1
60
0
100
AcDbSpline
70
4
71
3
72
37
73
33
40
0
40
0
40
0
40
0
40
0.0892299462065018
40
0.0892299462065018
40
0.178459892413004
40
0.178459892413004
40
0.267689838619506
40
0.267689838619506
40
0.312304811722756
40
0.334612298274381
40
0.334612298274381
40
0.356919784826005
40
0.356919784826005
40
0.446149731032501
40
0.446149731032501
40
0.535379677238997
40
0.535379677238997
40
0.624609623445493
40
0.624609623445493
40
0.669224596548741
40
0.669224596548741
40
0.713839569651988
40
0.713839569651988
40
0.758454542755236
40
0.758454542755236
40
0.803069515858484
40
0.803069515858484
40
0.892299462064982
40
0.892299462064982
40
0.981529408271479
40
0.981529408271479
40
1
40
1
40
1
40
1
41
1
10
18.4167010222642
20
-8.19397022512618
30
0
41
1
10
18.9758234853161
20
-8.31028882225414
30
0
41
1
10
19.5349371593424
20
-8.42134393924616
30
0
41
1
10
20.6529346530357
20
-8.63359380034865
30
0
41
1
10
21.2118176970043
20
-8.73478865907489
30
0
41
1
10
22.3291575727472
20
-8.9277184630192
30
0
41
1
10
22.887613786567
20
-9.01945407556514
30
0
41
1
10
23.7248311437156
20
-9.15010009489865
30
0
41
1
10
24.1433239291208
20
-9.21367999279303
30
0
41
1
10
24.5616231464785
20
-9.27463930502404
30
0
41
1
10
24.8404443116228
20
-9.31469421658889
30
0
41
1
10
24.9798302300039
20
-9.3344313963145
30
0
41
1
10
25.6768782895514
20
-9.43138096815647
30
0
41
1
10
26.2349012160144
20
-9.50339975550648
30
0
41
1
10
27.3514064958302
20
-9.63692705465215
30
0
41
1
10
27.9098954082415
20
-9.69842574949996
30
0
41
1
10
29.0271596744591
20
-9.81109825300834
30
0
41
1
10
29.585931232299
20
-9.86227548426683
30
0
41
1
10
30.4241622653688
20
-9.93129113677838
30
0
41
1
10
30.7035858540848
20
-9.95300220683595
30
0
41
1
10
31.2624446980247
20
-9.99380949183595
30
0
41
1
10
31.541842646661
20
-10.012921979512
30
0
41
1
10
32.1010796752797
20
-10.0482683608302
30
0
41
1
10
32.3808049330339
20
-10.0645239925063
30
0
41
1
10
32.9400937438164
20
-10.0942404073889
30
0
41
1
10
33.2197068506781
20
-10.1077046740564
30
0
41
1
10
34.0584102613717
20
-10.1439732447383
30
0
41
1
10
34.6173680429298
20
-10.1626590051612
30
0
41
1
10
35.734743634093
20
-10.189153987873
30
0
41
1
10
36.2931564031031
20
-10.1969639314136
30
0
41
1
10
36.9667192559614
20
-10.1997526436527
30
0
41
1
10
37.0822194473612
20
-10.1999949395935
30
0
41
1
10
37.1977035209515
20
-10.2000000098013
30
0
0
SPLINE
5
CF
100
AcDbEntity
8
1
62
256
6
ByLayer
370
18
48
1
60
0
100
AcDbSpline
70
4
71
3
72
38
73
34
40
0
40
0
40
0
40
0
40
0.0703727679049148
40
0.0703727679049148
40
0.116854129509667
40
0.116854129509667
40
0.16333549111442
40
0.16333549111442
40
0.25629821432393
40
0.25629821432393
40
0.302779575928685
40
0.302779575928685
40
0.34926093753344
40
0.34926093753344
40
0.442223660742946
40
0.442223660742946
40
0.465464341545321
40
0.465464341545321
40
0.488705022347695
40
0.535186383952449
40
0.535186383952449
40
0.628149107161955
40
0.628149107161955
40
0.721111830371461
40
0.721111830371461
40
0.767593191976214
40
0.790833872778592
40
0.790833872778592
40
0.814074553580971
40
0.814074553580971
40
0.907037276790486
40
0.907037276790486
40
1
40
1
40
1
40
1
41
1
10
107.654287434349
20
7.47305351395724
30
0
41
1
10
108.076951024926
20
7.57265063947648
30
0
41
1
10
108.499555079745
20
7.67017424513369
30
0
41
1
10
109.201140485708
20
7.82870515236553
30
0
41
1
10
109.480155082205
20
7.89089626650406
30
0
41
1
10
110.038564703573
20
8.01262530820435
30
0
41
1
10
110.317909599594
20
8.07226050540223
30
0
41
1
10
111.156303247775
20
8.24762246163115
30
0
41
1
10
111.71570406562
20
8.35982249086942
30
0
41
1
10
112.555362346928
20
8.52136102109259
30
0
41
1
10
112.835291772165
20
8.57406730198647
30
0
41
1
10
113.394962452973
20
8.67719196933555
30
0
41
1
10
113.674740368265
20
8.72761773826852
30
0
41
1
10
114.51386436315
20
8.87552346006044
30
0
41
1
10
115.072992010435
20
8.96964896501134
30
0
41
1
10
115.771476943126
20
9.08165873431432
30
0
41
1
10
115.911160496015
20
9.10376700971503
30
0
41
1
10
116.19059214701
20
9.14727836849136
30
0
41
1
10
116.609814682405
20
9.21151725071735
30
0
41
1
10
117.029238593169
20
9.27272532703131
30
0
41
1
10
117.86829509307
20
9.3912137069612
30
0
41
1
10
118.427941775413
20
9.46497760907457
30
0
41
1
10
119.547595470358
20
9.60232450748492
30
0
41
1
10
120.107273998281
20
9.66586738247088
30
0
41
1
10
120.946299837553
20
9.75355378213388
30
0
41
1
10
121.365699960299
20
9.79548777723724
30
0
41
1
10
121.784910561159
20
9.8345430483096
30
0
41
1
10
122.06434012872
20
9.85993691989066
30
0
41
1
10
122.204026055397
20
9.87231704454655
30
0
41
1
10
122.902491907595
20
9.9324951666716
30
0
41
1
10
123.461649469353
20
9.97495203644311
30
0
41
1
10
124.580489595189
20
10.0489100886009
30
0
41
1
10
125.140164441278
20
10.0804139453047
30
0
41
1
10
125.7
20
10.1065100121548
30
0
0
SPLINE
5
D0
100
AcDbEntity
8
1
62
256
6
ByLayer
370
18
48
1
60
0
100
AcDbSpline
70
4
71
4
72
10
73
5
40
0
40
0
40
0
40
0
40
0
40
1
40
1
40
1
40
1
40
1
41
0.99614959143645
10
13.8406206102079
20
-7.51476926480162
30
0
41
0.996236794533569
10
13.8313244771135
20
-7.58228246505659
30
0
41
0.996330957478773
10
13.8223583258362
20
-7.65013263975271
30
0
41
0.996431517940789
10
13.813724499562
20
-7.71829109403776
30
0
41
0.996537753475019
10
13.8054245974869
20
-7.78672826993345
30
0
0
SPLINE
5
D1
100
AcDbEntity
8
1
62
256
6
ByLayer
370
18
48
1
60
0
100
AcDbSpline
70
4
71
3
72
65
73
61
40
0
40
0
40
0
40
0
40
0.0218131055279098
40
0.0327196582918637
40
0.0327196582918637
40
0.0436262110558177
40
0.0436262110558177
40
0.0872524221116372
40
0.0872524221116372
40
0.130878633167457
40
0.130878633167457
40
0.174504844223276
40
0.174504844223276
40
0.196317949751186
40
0.196317949751186
40
0.20722450251514
40
0.20722450251514
40
0.218131055279094
40
0.261757266334904
40
0.305383477390714
40
0.305383477390714
40
0.327196582918619
40
0.327196582918619
40
0.349009688446525
40
0.349009688446525
40
0.359916241210478
40
0.359916241210478
40
0.370822793974432
40
0.370822793974432
40
0.392635899502339
40
0.392635899502339
40
0.436262110558151
40
0.436262110558151
40
0.479888321613963
40
0.479888321613963
40
0.523514532669775
40
0.523514532669775
40
0.545327638197681
40
0.545327638197681
40
0.567140743725586
40
0.567140743725586
40
0.610766954781396
40
0.610766954781396
40
0.654393165837207
40
0.654393165837207
40
0.676206271365112
40
0.676206271365112
40
0.698019376893017
40
0.698019376893017
40
0.785271799004632
40
0.785271799004632
40
0.82889801006044
40
0.82889801006044
40
0.850711115588343
40
0.850711115588343
40
0.872524221116246
40
0.872524221116246
40
0.959776643227852
40
0.959776643227852
40
1
40
1
40
1
40
1
41
1
10
125.7
20
2.11986578734198
30
0
41
1
10
125.408141917201
20
2.21869600987009
30
0
41
1
10
124.970566270968
20
2.36657629870592
30
0
41
1
10
124.533324470215
20
2.51394834967823
30
0
41
1
10
124.241906227557
20
2.61208789229301
30
0
41
1
10
124.096240157178
20
2.66111729869615
30
0
41
1
10
123.367961139135
20
2.90559294473419
30
0
41
1
10
122.785388529817
20
3.09870765261749
30
0
41
1
10
121.620403573402
20
3.48027263465113
30
0
41
1
10
121.03799327716
20
3.66872873445237
30
0
41
1
10
119.873420952959
20
4.04124590378666
30
0
41
1
10
119.291257388404
20
4.22530316406849
30
0
41
1
10
118.418281441068
20
4.49827991939262
30
0
41
1
10
118.127334276421
20
4.58875309392135
30
0
41
1
10
117.690991764614
20
4.7237030111985
30
0
41
1
10
117.54555983741
20
4.76856596043325
30
0
41
1
10
117.254650412867
20
4.8578529539443
30
0
41
1
10
116.527264591025
20
5.07997788078444
30
0
41
1
10
115.216979427682
20
5.47007167011131
30
0
41
1
10
114.051044077201
20
5.80353247384139
30
0
41
1
10
113.176192353883
20
6.0487902946696
30
0
41
1
10
112.884508517433
20
6.12973625901367
30
0
41
1
10
112.301021373438
20
6.29003862160937
30
0
41
1
10
112.009163357363
20
6.36940907576221
30
0
41
1
10
111.571690628049
20
6.4871767764277
30
0
41
1
10
111.425906509898
20
6.52622272824271
30
0
41
1
10
111.134417373868
20
6.60388932463707
30
0
41
1
10
110.988710152185
20
6.64250453294105
30
0
41
1
10
110.5515902706
20
6.75744901613186
30
0
41
1
10
110.260198961789
20
6.83292298931121
30
0
41
1
10
109.386101289152
20
7.0559412364787
30
0
41
1
10
108.80347169153
20
7.20008760323225
30
0
41
1
10
107.638494937099
20
7.47959209643483
30
0
41
1
10
107.056147013791
20
7.6149488703677
30
0
41
1
10
105.891827934433
20
7.87703735916332
30
0
41
1
10
105.309868710768
20
8.0037909242879
30
0
41
1
10
104.437274422747
20
8.18744440950667
30
0
41
1
10
104.146391346412
20
8.24744638069646
30
0
41
1
10
103.56441704876
20
8.36473970803127
30
0
41
1
10
103.273351484395
20
8.42207654401457
30
0
41
1
10
102.399935810659
20
8.5902099234219
30
0
41
1
10
101.81736657107
20
8.6971336192282
30
0
41
1
10
100.651729758374
20
8.9008200131031
30
0
41
1
10
100.068660060012
20
8.99758018723975
30
0
41
1
10
99.1937555080576
20
9.13512827617186
30
0
41
1
10
98.9020706827979
20
9.1797110551482
30
0
41
1
10
98.3186133271263
20
9.26633246119832
30
0
41
1
10
98.0270273107434
20
9.30838581777402
30
0
41
1
10
96.5688976835007
20
9.51117475088031
30
0
41
1
10
95.4020220875402
20
9.65008019740492
30
0
41
1
10
93.6516505135027
20
9.82456548221256
30
0
41
1
10
93.068184615612
20
9.8770616467483
30
0
41
1
10
92.1930578271333
20
9.94726085063527
30
0
41
1
10
91.9013428917817
20
9.96924657641887
30
0
41
1
10
91.3180537916899
20
10.0102813379869
30
0
41
1
10
91.0264076321017
20
10.0292784754078
30
0
41
1
10
89.5680539763004
20
10.1166798282353
30
0
41
1
10
88.4011073218651
20
10.1625252636287
30
0
41
1
10
86.6963188027594
20
10.1948535145797
30
0
41
1
10
86.1584153844132
20
10.1999953614208
30
0
41
1
10
85.6205766746055
20
10.2000001312223
30
0
0
SPLINE
5
D2
100
AcDbEntity
8
1
62
256
6
ByLayer
370
18
48
1
60
0
100
AcDbSpline
70
4
71
3
72
8
73
4
40
0
40
0
40
0
40
0
40
1
40
1
40
1
40
1
41
1
10
14.6506395988267
20
-7.59368182440377
30
0
41
1
10
14.3689005967609
20
-7.65896318093772
30
0
41
1
10
14.0871596596493
20
-7.72331009877169
30
0
41
1
10
13.805424597487
20
-7.78672826993335
30
0
0
SPLINE
5
D3
100
AcDbEntity
8
1
62
256
6
ByLayer
370
18
48
1
60
0
100
AcDbSpline
70
4
71
3
72
101
73
97
40
0
40
0
40
0
40
0
40
0.0624999999999982
40
0.0624999999999982
40
0.0937499999999965
40
0.0937499999999965
40
0.124999999999995
40
0.124999999999995
40
0.156249999999993
40
0.156249999999993
40
0.164062499999993
40
0.164062499999993
40
0.171874999999994
40
0.171874999999994
40
0.187499999999995
40
0.187499999999995
40
0.218749999999995
40
0.218749999999995
40
0.249999999999995
40
0.249999999999995
40
0.281249999999996
40
0.281249999999996
40
0.289062499999996
40
0.289062499999996
40
0.296874999999996
40
0.312499999999996
40
0.312499999999996
40
0.343749999999995
40
0.343749999999995
40
0.359374999999995
40
0.359374999999995
40
0.367187499999995
40
0.367187499999995
40
0.371093749999995
40
0.371093749999995
40
0.374999999999995
40
0.406249999999998
40
0.406249999999998
40
0.4375
40
0.4375
40
0.44140625
40
0.44140625
40
0.4453125
40
0.453125000000001
40
0.468750000000002
40
0.468750000000002
40
0.500000000000005
40
0.500000000000005
40
0.507812500000006
40
0.507812500000006
40
0.515625000000007
40
0.515625000000007
40
0.531250000000008
40
0.531250000000008
40
0.562500000000011
40
0.562500000000011
40
0.566406250000011
40
0.566406250000011
40
0.570312500000011
40
0.570312500000011
40
0.578125000000012
40
0.593750000000012
40
0.593750000000012
40
0.625000000000013
40
0.625000000000013
40
0.640625000000014
40
0.640625000000014
40
0.648437500000014
40
0.648437500000014
40
0.656250000000014
40
0.656250000000014
40
0.687500000000014
40
0.687500000000014
40
0.718750000000013
40
0.718750000000013
40
0.750000000000013
40
0.750000000000013
40
0.757812500000013
40
0.757812500000013
40
0.765625000000013
40
0.765625000000013
40
0.781250000000012
40
0.781250000000012
40
0.81250000000001
40
0.81250000000001
40
0.843750000000008
40
0.843750000000008
40
0.875000000000007
40
0.875000000000007
40
0.906250000000005
40
0.906250000000005
40
0.937500000000003
40
0.937500000000003
40
0.968750000000002
40
0.968750000000002
40
1
40
1
40
1
40
1
41
1
10
10
20
-7.69532360498391
30
0
41
1
10
9.57438593945471
20
-7.84585066503479
30
0
41
1
10
9.15661402953336
20
-8.00739989399659
30
0
41
1
10
8.54176218560252
20
-8.26501314778596
30
0
41
1
10
8.33878198459144
20
-8.35343200820904
30
0
41
1
10
7.93681399015964
20
-8.53515632611661
30
0
41
1
10
7.7378257341243
20
-8.62846170933804
30
0
41
1
10
7.3439358964053
20
-8.81975217142389
30
0
41
1
10
7.14903359203242
20
-8.91773717843233
30
0
41
1
10
6.90805666138644
20
-9.04301666514414
30
0
41
1
10
6.85999400471377
20
-9.06821248757819
30
0
41
1
10
6.76413738387169
20
-9.11888088007336
30
0
41
1
10
6.71630719864601
20
-9.1443731363205
30
0
41
1
10
6.57367074998086
20
-9.22101960244703
30
0
41
1
10
6.47962110470627
20
-9.27239362633173
30
0
41
1
10
6.2006368450231
20
-9.42723441755447
30
0
41
1
10
6.01886057794445
20
-9.53142151953074
30
0
41
1
10
5.66408481620601
20
-9.74109650727019
30
0
41
1
10
5.49108235497178
20
-9.84658566451012
30
0
41
1
10
5.15443740154342
20
-10.0581810591901
30
0
41
1
10
4.99078945383511
20
-10.1642894923065
30
0
41
1
10
4.79266697478579
20
-10.2968108180285
30
0
41
1
10
4.75344491730115
20
-10.3232562196171
30
0
41
1
10
4.6760197555538
20
-10.3758757178987
30
0
41
1
10
4.56131664940187
20
-10.4544608378435
30
0
41
1
10
4.45096708794944
20
-10.5319346591184
30
0
41
1
10
4.23625590867368
20
-10.6851715535214
30
0
41
1
10
4.10107198694593
20
-10.7850599355786
30
0
41
1
10
3.91137276746053
20
-10.9304082486422
30
0
41
1
10
3.85032522330462
20
-10.9781077982388
30
0
41
1
10
3.76224573050729
20
-11.0483665034602
30
0
41
1
10
3.73346844992315
20
-11.0715707102095
30
0
41
1
10
3.69120904018257
20
-11.1060305440462
30
0
41
1
10
3.677261018389
20
-11.1174698951733
30
0
41
1
10
3.64975097299663
20
-11.1401646140732
30
0
41
1
10
3.52768991636287
20
-11.241466485099
30
0
41
1
10
3.42118295656323
20
-11.3352883092921
30
0
41
1
10
3.2579457982205
20
-11.4886231186854
30
0
41
1
10
3.18935928369564
20
-11.5585731729835
30
0
41
1
10
3.12861063075491
20
-11.6283997758065
30
0
41
1
10
3.12209949504552
20
-11.6360239690366
30
0
41
1
10
3.10959955487385
20
-11.6509500779538
30
0
41
1
10
3.0916124522264
20
-11.6728795696808
30
0
41
1
10
3.05496433780351
20
-11.7208307817297
30
0
41
1
10
3.03262638185367
20
-11.7564115558778
30
0
41
1
10
3.00005695859366
20
-11.8201476958132
30
0
41
1
10
2.99443272331192
20
-11.85276031235
30
0
41
1
10
3.00831126770726
20
-11.8806447657911
30
0
41
1
10
3.01214127796274
20
-11.8855797984492
30
0
41
1
10
3.02191829321805
20
-11.894120723504
30
0
41
1
10
3.02783454217979
20
-11.8977029304004
30
0
41
1
10
3.04858732930757
20
-11.9064431425504
30
0
41
1
10
3.06642449601378
20
-11.909596562887
30
0
41
1
10
3.13144575809557
20
-11.9114297883832
30
0
41
1
10
3.19010045463119
20
-11.9025029641198
30
0
41
1
10
3.27246438673112
20
-11.881880277664
30
0
41
1
10
3.28184422174428
20
-11.8794414940325
30
0
41
1
10
3.30105888080902
20
-11.8742713902629
30
0
41
1
10
3.31090324661096
20
-11.8715372392124
30
0
41
1
10
3.3410015253919
20
-11.8629326834609
30
0
41
1
10
3.40352602294956
20
-11.8440986902209
30
0
41
1
10
3.47274412414805
20
-11.8206381692363
30
0
41
1
10
3.61947889649886
20
-11.7681017977495
30
0
41
1
10
3.72833875690125
20
-11.7256120896362
30
0
41
1
10
3.90637199555738
20
-11.6523737148846
30
0
41
1
10
3.96818165645675
20
-11.6263708705432
30
0
41
1
10
4.06442465589242
20
-11.5851486231138
30
0
41
1
10
4.09712818542818
20
-11.5710230801265
30
0
41
1
10
4.16353140743672
20
-11.5421250715782
30
0
41
1
10
4.19715951875361
20
-11.5273840392833
30
0
41
1
10
4.36733857587905
20
-11.4523058815691
30
0
41
1
10
4.50997914746816
20
-11.3878753640875
30
0
41
1
10
4.80632243168776
20
-11.2520497010838
30
0
41
1
10
4.96003442170115
20
-11.1806468634101
30
0
41
1
10
5.2770908098538
20
-11.0321252279581
30
0
41
1
10
5.44044014767911
20
-10.9550023140807
30
0
41
1
10
5.64992106387942
20
-10.8556015152513
30
0
41
1
10
5.69208245231445
20
-10.8355708323009
30
0
41
1
10
5.77691911973704
20
-10.7952204338729
30
0
41
1
10
5.81961647026878
20
-10.7748901957331
30
0
41
1
10
5.94830535529826
20
-10.7135541908053
30
0
41
1
10
6.03469538668739
20
-10.6722980873105
30
0
41
1
10
6.29550726445487
20
-10.5475431378003
30
0
41
1
10
6.47156701891336
20
-10.4630630836514
30
0
41
1
10
6.82736535407901
20
-10.2919104574924
30
0
41
1
10
7.00710480912852
20
-10.2052359598236
30
0
41
1
10
7.36968836741528
20
-10.0299657089305
30
0
41
1
10
7.55253261484501
20
-9.94136844262414
30
0
41
1
10
7.92085108101418
20
-9.76242305177152
30
0
41
1
10
8.10632499193406
20
-9.67207355609312
30
0
41
1
10
8.47953106964104
20
-9.48973561737685
30
0
41
1
10
8.66726269442887
20
-9.39774583330819
30
0
41
1
10
9.04472902989392
20
-9.21222110200924
30
0
41
1
10
9.23446316839124
20
-9.11868483973956
30
0
41
1
10
9.61581341139993
20
-8.93018271768821
30
0
41
1
10
9.80742909883827
20
-8.83521563791658
30
0
41
1
10
10
20
-8.73962160533958
30
0
0
SPLINE
5
D4
100
AcDbEntity
8
1
62
256
6
ByLayer
370
18
48
1
60
0
100
AcDbSpline
70
4
71
3
72
47
73
43
40
0
40
0
40
0
40
0
40
0.0088223369051881
40
0.0088223369051881
40
0.0177518654015378
40
0.0177518654015378
40
0.0356109223942382
40
0.0713290363796385
40
0.0713290363796385
40
0.14276526435044
40
0.14276526435044
40
0.178483378335841
40
0.178483378335841
40
0.196342435328542
40
0.196342435328542
40
0.214201492321242
40
0.214201492321242
40
0.285637720292045
40
0.285637720292045
40
0.357073948262848
40
0.357073948262848
40
0.42851017623365
40
0.42851017623365
40
0.44636923322635
40
0.44636923322635
40
0.46422829021905
40
0.46422829021905
40
0.499946404204449
40
0.499946404204449
40
0.571382632175245
40
0.571382632175245
40
0.642818860146037
40
0.642818860146037
40
0.71425508811683
40
0.71425508811683
40
0.785691316087623
40
0.785691316087623
40
0.857127544058415
40
0.857127544058415
40
0.928563772029208
40
0.928563772029208
40
1
40
1
40
1
40
1
41
1
10
3.26364250766173
20
11.8840891041409
30
0
41
1
10
3.27268961380878
20
11.881821705433
30
0
41
1
10
3.28195954977536
20
11.8794104626265
30
0
41
1
10
3.30105888080902
20
11.8742713902629
30
0
41
1
10
3.31090324661096
20
11.8715372392124
30
0
41
1
10
3.34100152539193
20
11.8629326834608
30
0
41
1
10
3.40352602294959
20
11.8440986902209
30
0
41
1
10
3.47274412414808
20
11.8206381692363
30
0
41
1
10
3.61947889649886
20
11.7681017977495
30
0
41
1
10
3.72833875690122
20
11.7256120896362
30
0
41
1
10
3.90637199555744
20
11.6523737148846
30
0
41
1
10
3.96818165645681
20
11.6263708705432
30
0
41
1
10
4.06442465589245
20
11.5851486231138
30
0
41
1
10
4.09712818542823
20
11.5710230801265
30
0
41
1
10
4.16353140743675
20
11.5421250715782
30
0
41
1
10
4.19715951875367
20
11.5273840392833
30
0
41
1
10
4.3673385758791
20
11.4523058815691
30
0
41
1
10
4.50997914746821
20
11.3878753640875
30
0
41
1
10
4.80632243168779
20
11.2520497010838
30
0
41
1
10
4.96003442170115
20
11.1806468634101
30
0
41
1
10
5.27709080985386
20
11.0321252279581
30
0
41
1
10
5.44044014767914
20
10.9550023140807
30
0
41
1
10
5.64992106387945
20
10.8556015152513
30
0
41
1
10
5.69208245231454
20
10.8355708323009
30
0
41
1
10
5.7769191197371
20
10.7952204338729
30
0
41
1
10
5.81961647026884
20
10.7748901957331
30
0
41
1
10
5.94830535529832
20
10.7135541908053
30
0
41
1
10
6.03469538668747
20
10.6722980873105
30
0
41
1
10
6.2955072644549
20
10.5475431378003
30
0
41
1
10
6.47156701891342
20
10.4630630836514
30
0
41
1
10
6.82736535407901
20
10.2919104574924
30
0
41
1
10
7.00710480912858
20
10.2052359598236
30
0
41
1
10
7.36968836741531
20
10.0299657089305
30
0
41
1
10
7.55253261484503
20
9.94136844262414
30
0
41
1
10
7.92085108101421
20
9.76242305177152
30
0
41
1
10
8.10632499193406
20
9.67207355609312
30
0
41
1
10
8.4795310696411
20
9.48973561737685
30
0
41
1
10
8.6672626944289
20
9.39774583330819
30
0
41
1
10
9.04472902989392
20
9.21222110200924
30
0
41
1
10
9.23446316839127
20
9.11868483973956
30
0
41
1
10
9.61581341139993
20
8.93018271768824
30
0
41
1
10
9.8074290988383
20
8.83521563791658
30
0
41
1
10
10
20
8.73962160533958
30
0
0
SPLINE
5
D5
100
AcDbEntity
8
1
62
256
6
ByLayer
370
13
48
1
60
0
100
AcDbSpline
70
4
71
3
72
81
73
77
40
0
40
0
40
0
40
0
40
0.0312500000000001
40
0.0312500000000001
40
0.0625000000000003
40
0.0625000000000003
40
0.0937500000000004
40
0.0937500000000004
40
0.125000000000001
40
0.125000000000001
40
0.156250000000001
40
0.156250000000001
40
0.187500000000001
40
0.187500000000001
40
0.218750000000001
40
0.218750000000001
40
0.250000000000001
40
0.250000000000001
40
0.281250000000001
40
0.281250000000001
40
0.312500000000001
40
0.312500000000001
40
0.343750000000002
40
0.343750000000002
40
0.359375000000002
40
0.359375000000002
40
0.363281250000002
40
0.363281250000002
40
0.367187500000002
40
0.367187500000002
40
0.375000000000002
40
0.375000000000002
40
0.406250000000002
40
0.406250000000002
40
0.437500000000002
40
0.437500000000002
40
0.468750000000002
40
0.468750000000002
40
0.500000000000003
40
0.500000000000003
40
0.531250000000003
40
0.531250000000003
40
0.562500000000003
40
0.562500000000003
40
0.593750000000003
40
0.593750000000003
40
0.625000000000003
40
0.625000000000003
40
0.656250000000004
40
0.656250000000004
40
0.687500000000004
40
0.687500000000004
40
0.718750000000004
40
0.718750000000004
40
0.726562500000004
40
0.730468750000004
40
0.730468750000004
40
0.734375000000004
40
0.734375000000004
40
0.750000000000003
40
0.750000000000003
40
0.781250000000003
40
0.781250000000003
40
0.812500000000003
40
0.812500000000003
40
0.843750000000002
40
0.843750000000002
40
0.875000000000002
40
0.875000000000002
40
0.906250000000001
40
0.906250000000001
40
0.937500000000001
40
0.937500000000001
40
0.968750000000001
40
0.968750000000001
40
1
40
1
40
1
40
1
41
1
10
129.150648056336
20
10.7155
30
0
41
1
10
129.228244190694
20
10.7155
30
0
41
1
10
129.305840325052
20
10.6893706053239
30
0
41
1
10
129.461032593768
20
10.57772609488
30
0
41
1
10
129.538628728126
20
10.4921774569249
30
0
41
1
10
129.693820996843
20
10.2566010179385
30
0
41
1
10
129.771417131201
20
10.1065439056389
30
0
41
1
10
129.926609399917
20
9.73992258297383
30
0
41
1
10
130.004205534276
20
9.52334074872448
30
0
41
1
10
130.159397802992
20
9.02544071543099
30
0
41
1
10
130.23699393735
20
8.74412278405543
30
0
41
1
10
130.392186206066
20
8.12260177377539
30
0
41
1
10
130.469782340425
20
7.7824191751036
30
0
41
1
10
130.624974609141
20
7.05279344322509
30
0
41
1
10
130.702570743499
20
6.66338795244377
30
0
41
1
10
130.857763012215
20
5.84782541554597
30
0
41
1
10
130.935359146574
20
5.42171540903954
30
0
41
1
10
131.09055141529
20
4.54683325931728
30
0
41
1
10
131.168147549648
20
4.09810772884856
30
0
41
1
10
131.323339818365
20
3.19222109774827
30
0
41
1
10
131.400935952723
20
2.73509762344904
30
0
41
1
10
131.556128221439
20
1.82548456607418
30
0
41
1
10
131.633724355797
20
1.37301870446819
30
0
41
1
10
131.750118557334
20
0.706028087278895
30
0
41
1
10
131.788916624513
20
0.485630752651332
30
0
41
1
10
131.837414208487
20
0.213256348042847
30
0
41
1
10
131.847113725282
20
0.158937177289829
30
0
41
1
10
131.866512758872
20
0.0506262907791211
30
0
41
1
10
131.876212275666
20
-0.0032533834086905
30
0
41
1
10
131.905310826051
20
-0.165430471931245
30
0
41
1
10
131.92470985964
20
-0.274212898608482
30
0
41
1
10
132.021705027588
20
-0.821123473815845
30
0
41
1
10
132.099301161946
20
-1.26834738516843
30
0
41
1
10
132.254493430663
20
-2.17227343588982
30
0
41
1
10
132.332089565021
20
-2.6289579993356
30
0
41
1
10
132.487281833737
20
-3.53953793115642
30
0
41
1
10
132.564877968095
20
-3.99340104777733
30
0
41
1
10
132.720070236812
20
-4.88447104540111
30
0
41
1
10
132.79766637117
20
-5.32163414757957
30
0
41
1
10
132.952858639886
20
-6.16499450289808
30
0
41
1
10
133.030454774244
20
-6.5711437029907
30
0
41
1
10
133.185647042961
20
-7.33913331736682
30
0
41
1
10
133.263243177319
20
-7.70093108866413
30
0
41
1
10
133.418435446035
20
-8.36924067515585
30
0
41
1
10
133.496031580393
20
-8.67572426833232
30
0
41
1
10
133.65122384911
20
-9.22588974550519
30
0
41
1
10
133.728819983468
20
-9.46956303125688
30
0
41
1
10
133.884012252184
20
-9.89062127221143
30
0
41
1
10
133.961608386543
20
-10.0680170714826
30
0
41
1
10
134.116800655259
20
-10.35702328185
30
0
41
1
10
134.194396789617
20
-10.4686590891201
30
0
41
1
10
134.349589058333
20
-10.6300717064229
30
0
41
1
10
134.427185192691
20
-10.6798811833899
30
0
41
1
10
134.524180360639
20
-10.7075121898766
30
0
41
1
10
134.553278911024
20
-10.7132112986751
30
0
41
1
10
134.582377461408
20
-10.715156440878
30
0
41
1
10
134.601776494997
20
-10.7156341837123
30
0
41
1
10
134.611476011792
20
-10.7154657558489
30
0
41
1
10
134.659973595766
20
-10.7125648337888
30
0
41
1
10
134.698771662945
20
-10.7036377664948
30
0
41
1
10
134.815165864483
20
-10.6556518399485
30
0
41
1
10
134.892761998841
20
-10.5953166573704
30
0
41
1
10
135.047954267557
20
-10.4119445499367
30
0
41
1
10
135.125550401915
20
-10.2888756941939
30
0
41
1
10
135.280742670632
20
-9.9766392480015
30
0
41
1
10
135.35833880499
20
-9.78744833757821
30
0
41
1
10
135.513531073706
20
-9.34311096860728
30
0
41
1
10
135.591127208064
20
-9.08795685949508
30
0
41
1
10
135.746319476781
20
-8.51586695453759
30
0
41
1
10
135.823915611139
20
-8.19894337256781
30
0
41
1
10
135.979107879855
20
-7.51146279618521
30
0
41
1
10
136.056704014213
20
-7.14093709503953
30
0
41
1
10
136.21189628293
20
-6.3577138797647
30
0
41
1
10
136.289492417288
20
-5.94506068616431
30
0
41
1
10
136.444684686004
20
-5.09119517153135
30
0
41
1
10
136.522280820362
20
-4.65003081814419
30
0
41
1
10
136.59987695472
20
-4.20175754550846
30
0
0
SPLINE
5
D6
100
AcDbEntity
8
1
62
256
6
ByLayer
370
13
48
1
60
0
100
AcDbSpline
70
4
71
3
72
43
73
39
40
0
40
0
40
0
40
0
40
0.0624999999999961
40
0.0624999999999961
40
0.124999999999992
40
0.124999999999992
40
0.187499999999988
40
0.187499999999988
40
0.218749999999986
40
0.218749999999986
40
0.226562499999986
40
0.226562499999986
40
0.234374999999986
40
0.249999999999986
40
0.249999999999986
40
0.312499999999987
40
0.312499999999987
40
0.374999999999988
40
0.374999999999988
40
0.437499999999989
40
0.437499999999989
40
0.499999999999991
40
0.499999999999991
40
0.562499999999992
40
0.562499999999992
40
0.624999999999993
40
0.624999999999993
40
0.687499999999994
40
0.687499999999994
40
0.749999999999995
40
0.749999999999995
40
0.812499999999996
40
0.812499999999996
40
0.874999999999998
40
0.874999999999998
40
0.937499999999999
40
0.937499999999999
40
1
40
1
40
1
40
1
41
1
10
125.7
20
-4.51812091607371
30
0
41
1
10
125.773034017345
20
-4.09973799995237
30
0
41
1
10
125.84606803469
20
-3.67359662943861
30
0
41
1
10
125.992136069379
20
-2.8173822245264
30
0
41
1
10
126.065170086724
20
-2.38733421617815
30
0
41
1
10
126.211238121414
20
-1.53379888398473
30
0
41
1
10
126.284272138759
20
-1.11032648869661
30
0
41
1
10
126.393823164776
20
-0.486584309547652
30
0
41
1
10
126.430340173449
20
-0.28056620175667
30
0
41
1
10
126.475986434289
20
-0.0259745276570413
30
0
41
1
10
126.485115686457
20
0.0247216512463524
30
0
41
1
10
126.503374190794
20
0.126553513977484
30
0
41
1
10
126.530761947298
20
0.279740029088742
30
0
41
1
10
126.558149703802
20
0.434183946750437
30
0
41
1
10
126.649442225483
20
0.951510933924482
30
0
41
1
10
126.722476242828
20
1.37349509448058
30
0
41
1
10
126.868544277518
20
2.22525755161277
30
0
41
1
10
126.941578294863
20
2.65502222907523
30
0
41
1
10
127.087646329552
20
3.5120692000375
30
0
41
1
10
127.160680346897
20
3.93932766421622
30
0
41
1
10
127.306748381587
20
4.77983011157062
30
0
41
1
10
127.379782398932
20
5.19304211187546
30
0
41
1
10
127.525850433622
20
5.99351182892445
30
0
41
1
10
127.598884450966
20
6.38073402978995
30
0
41
1
10
127.744952485656
20
7.11790938121797
30
0
41
1
10
127.817986503001
20
7.46782975644939
30
0
41
1
10
127.964054537691
20
8.12076136749707
30
0
41
1
10
128.037088555036
20
8.42374873989849
30
0
41
1
10
128.183156589726
20
8.97572143780789
30
0
41
1
10
128.25619060707
20
9.22469596900169
30
0
41
1
10
128.40225864176
20
9.66463058140556
30
0
41
1
10
128.475292659105
20
9.85559387518433
30
0
41
1
10
128.621360693795
20
10.1786881993521
30
0
41
1
10
128.694394711139
20
10.3108341836622
30
0
41
1
10
128.840462745829
20
10.5183867066667
30
0
41
1
10
128.913496763174
20
10.5938155763072
30
0
41
1
10
129.059564797864
20
10.6923598191209
30
0
41
1
10
129.132598815209
20
10.7155
30
0
41
1
10
129.205632832554
20
10.7155
30
0
0
SPLINE
5
D7
100
AcDbEntity
8
1
62
256
6
ByLayer
370
13
48
1
60
0
100
AcDbSpline
70
4
71
3
72
79
73
75
40
0
40
0
40
0
40
0
40
0.03125
40
0.03125
40
0.0625000000000001
40
0.0625000000000001
40
0.0937500000000001
40
0.0937500000000001
40
0.125
40
0.125
40
0.15625
40
0.15625
40
0.1875
40
0.1875
40
0.21875
40
0.21875
40
0.25
40
0.25
40
0.28125
40
0.28125
40
0.312500000000001
40
0.312500000000001
40
0.328125000000001
40
0.328125000000001
40
0.335937500000001
40
0.335937500000001
40
0.343750000000001
40
0.343750000000001
40
0.375000000000001
40
0.375000000000001
40
0.406250000000001
40
0.406250000000001
40
0.437500000000001
40
0.437500000000001
40
0.468750000000001
40
0.468750000000001
40
0.500000000000001
40
0.500000000000001
40
0.531250000000001
40
0.531250000000001
40
0.562500000000001
40
0.562500000000001
40
0.593750000000001
40
0.593750000000001
40
0.625000000000001
40
0.625000000000001
40
0.656250000000001
40
0.656250000000001
40
0.671875000000001
40
0.671875000000001
40
0.679687500000001
40
0.683593750000001
40
0.683593750000001
40
0.687500000000001
40
0.687500000000001
40
0.718750000000001
40
0.718750000000001
40
0.75
40
0.75
40
0.78125
40
0.78125
40
0.8125
40
0.8125
40
0.84375
40
0.84375
40
0.875
40
0.875
40
0.90625
40
0.90625
40
0.9375
40
0.9375
40
0.96875
40
0.96875
40
1
40
1
40
1
40
1
41
1
10
128.657698411858
20
10.7155
30
0
41
1
10
128.740429438346
20
10.7155
30
0
41
1
10
128.823160464835
20
10.6857868543358
30
0
41
1
10
128.988622517811
20
10.5583656579981
30
0
41
1
10
129.071353544299
20
10.4606115671531
30
0
41
1
10
129.236815597275
20
10.1912471911126
30
0
41
1
10
129.319546623763
20
10.0195981336071
30
0
41
1
10
129.48500867674
20
9.60069094216033
30
0
41
1
10
129.567739703228
20
9.3534129168805
30
0
41
1
10
129.733201756204
20
8.78652788517667
30
0
41
1
10
129.815932782692
20
8.46692860450702
30
0
41
1
10
129.981394835669
20
7.7639252339099
30
0
41
1
10
130.064125862157
20
7.38055797143087
30
0
41
1
10
130.229587915133
20
6.56311566826289
30
0
41
1
10
130.312318941621
20
6.12909908438283
30
0
41
1
10
130.477780994598
20
5.22656152949273
30
0
41
1
10
130.560512021086
20
4.75810667989501
30
0
41
1
10
130.725974074062
20
3.80407561547702
30
0
41
1
10
130.80870510055
20
3.31855820002656
30
0
41
1
10
130.974167153526
20
2.34703459826852
30
0
41
1
10
131.056898180014
20
1.86106925070803
30
0
41
1
10
131.180994719747
20
1.14251880293614
30
0
41
1
10
131.222360232991
20
0.904713331129926
30
0
41
1
10
131.284408502857
20
0.551694185648358
30
0
41
1
10
131.305091259479
20
0.43463437081266
30
0
41
1
10
131.346456772723
20
0.201908484130541
30
0
41
1
10
131.367139529345
20
0.0864655554019294
30
0
41
1
10
131.470553312455
20
-0.489270327920423
30
0
41
1
10
131.553284338944
20
-0.962175309439857
30
0
41
1
10
131.71874639192
20
-1.92135210664802
30
0
41
1
10
131.801477418408
20
-2.40760387085834
30
0
41
1
10
131.966939471384
20
-3.37904793916874
30
0
41
1
10
132.049670497872
20
-3.86419853522193
30
0
41
1
10
132.215132550849
20
-4.81677753155594
30
0
41
1
10
132.297863577337
20
-5.28414657282539
30
0
41
1
10
132.463325630313
20
-6.18380199888642
30
0
41
1
10
132.546056656801
20
-6.61602226873273
30
0
41
1
10
132.711518709778
20
-7.42925250591455
30
0
41
1
10
132.794249736266
20
-7.81020466555063
30
0
41
1
10
132.959711789242
20
-8.5079228523839
30
0
41
1
10
133.04244281573
20
-8.82465317157497
30
0
41
1
10
133.207904868706
20
-9.3855557194083
30
0
41
1
10
133.290635895195
20
-9.62972146026436
30
0
41
1
10
133.456097948171
20
-10.0423790755737
30
0
41
1
10
133.538828974659
20
-10.2108918360267
30
0
41
1
10
133.704291027635
20
-10.4741524894653
30
0
41
1
10
133.787022054123
20
-10.5689396905415
30
0
41
1
10
133.911118593856
20
-10.6602903535595
30
0
41
1
10
133.9524841071
20
-10.6822967807084
30
0
41
1
10
134.014532376966
20
-10.7034024849889
30
0
41
1
10
134.045556511899
20
-10.7109811574352
30
0
41
1
10
134.076580646832
20
-10.7142556349249
30
0
41
1
10
134.097263403454
20
-10.7155004036855
30
0
41
1
10
134.107604781765
20
-10.7156550083487
30
0
41
1
10
134.200677186564
20
-10.7128765339565
30
0
41
1
10
134.283408213052
20
-10.680494886779
30
0
41
1
10
134.448870266029
20
-10.5474279248953
30
0
41
1
10
134.531601292517
20
-10.4466966482937
30
0
41
1
10
134.697063345493
20
-10.1712151022563
30
0
41
1
10
134.779794371981
20
-9.99642661698991
30
0
41
1
10
134.945256424958
20
-9.57127237709895
30
0
41
1
10
135.027987451446
20
-9.3208877415567
30
0
41
1
10
135.193449504422
20
-8.74804075406908
30
0
41
1
10
135.27618053091
20
-8.42558736868685
30
0
41
1
10
135.441642583886
20
-7.71733653693587
30
0
41
1
10
135.524373610375
20
-7.33157702418686
30
0
41
1
10
135.689835663351
20
-6.50997378828569
30
0
41
1
10
135.772566689839
20
-6.07418914610426
30
0
41
1
10
135.938028742815
20
-5.16882800840267
30
0
41
1
10
136.020759769304
20
-4.69931761407622
30
0
41
1
10
136.18622182228
20
-3.74389365277324
30
0
41
1
10
136.268952848768
20
-3.25803830679078
30
0
41
1
10
136.434414901744
20
-2.28648892128783
30
0
41
1
10
136.517145928232
20
-1.80083484494895
30
0
41
1
10
136.59987695472
20
-1.32237803687462
30
0
0
SPLINE
5
D8
100
AcDbEntity
8
1
62
256
6
ByLayer
370
13
48
1
60
0
100
AcDbSpline
70
4
71
3
72
42
73
38
40
0
40
0
40
0
40
0
40
0.0625000000000008
40
0.0625000000000008
40
0.0937500000000011
40
0.0937500000000011
40
0.109375000000001
40
0.109375000000001
40
0.125000000000001
40
0.125000000000001
40
0.187500000000001
40
0.187500000000001
40
0.250000000000001
40
0.250000000000001
40
0.312500000000001
40
0.312500000000001
40
0.375000000000001
40
0.375000000000001
40
0.437500000000001
40
0.437500000000001
40
0.500000000000001
40
0.500000000000001
40
0.562500000000001
40
0.562500000000001
40
0.625000000000001
40
0.625000000000001
40
0.687500000000001
40
0.687500000000001
40
0.75
40
0.75
40
0.8125
40
0.8125
40
0.875
40
0.875
40
0.9375
40
0.9375
40
1
40
1
40
1
40
1
41
1
10
125.7
20
-1.64134249852381
30
0
41
1
10
125.762764233085
20
-1.27622086150049
30
0
41
1
10
125.82552846617
20
-0.914387299581819
30
0
41
1
10
125.919674815797
20
-0.380542094635615
30
0
41
1
10
125.95105693234
20
-0.204069414364227
30
0
41
1
10
125.998130107153
20
0.058007934139539
30
0
41
1
10
126.013821165425
20
0.145449830320473
30
0
41
1
10
126.045203281967
20
0.321487048621634
30
0
41
1
10
126.060894340239
20
0.409917738381381
30
0
41
1
10
126.139349631594
20
0.853954310226698
30
0
41
1
10
126.202113864679
20
1.2152525617806
30
0
41
1
10
126.327642330849
20
1.94475073363736
30
0
41
1
10
126.390406563934
20
2.31294510652481
30
0
41
1
10
126.515935030104
20
3.04996846501592
30
0
41
1
10
126.578699263189
20
3.41878772548949
30
0
41
1
10
126.704227729359
20
4.14999496898483
30
0
41
1
10
126.766991962444
20
4.51236947123681
30
0
41
1
10
126.892520428613
20
5.22317298698087
30
0
41
1
10
126.955284661698
20
5.57158598356091
30
0
41
1
10
127.080813127868
20
6.24695195673496
30
0
41
1
10
127.143577360953
20
6.57388828634708
30
0
41
1
10
127.269105827123
20
7.19928401436192
30
0
41
1
10
127.331870060208
20
7.49772838842557
30
0
41
1
10
127.457398526378
20
8.06010488335443
30
0
41
1
10
127.520162759463
20
8.32402570913297
30
0
41
1
10
127.645691225633
20
8.81270398509227
30
0
41
1
10
127.708455458717
20
9.03745533897433
30
0
41
1
10
127.833983924887
20
9.44479353877603
30
0
41
1
10
127.896748157972
20
9.62737999915527
30
0
41
1
10
128.022276624142
20
9.94913550428637
30
0
41
1
10
128.085040857227
20
10.0883093824887
30
0
41
1
10
128.210569323397
20
10.3236655157606
30
0
41
1
10
128.273333556482
20
10.4198565487224
30
0
41
1
10
128.398862022652
20
10.5711417696712
30
0
41
1
10
128.461626255736
20
10.6262470058044
30
0
41
1
10
128.587154721906
20
10.6984202977569
30
0
41
1
10
128.649918954991
20
10.7155
30
0
41
1
10
128.712683188076
20
10.7155
30
0
0
SPLINE
5
D9
100
AcDbEntity
8
1
62
256
6
ByLayer
370
13
48
1
60
0
100
AcDbSpline
70
4
71
3
72
85
73
81
40
0
40
0
40
0
40
0
40
0.0312500000000004
40
0.0312500000000004
40
0.0625000000000009
40
0.0625000000000009
40
0.0937500000000013
40
0.0937500000000013
40
0.125000000000002
40
0.125000000000002
40
0.156250000000002
40
0.156250000000002
40
0.187500000000003
40
0.187500000000003
40
0.218750000000003
40
0.218750000000003
40
0.250000000000003
40
0.250000000000003
40
0.281250000000004
40
0.281250000000004
40
0.312500000000004
40
0.312500000000004
40
0.320312500000004
40
0.320312500000004
40
0.324218750000004
40
0.324218750000004
40
0.328125000000004
40
0.343750000000004
40
0.343750000000004
40
0.375000000000004
40
0.375000000000004
40
0.406250000000004
40
0.406250000000004
40
0.437500000000004
40
0.437500000000004
40
0.468750000000004
40
0.468750000000004
40
0.500000000000004
40
0.500000000000004
40
0.531250000000004
40
0.531250000000004
40
0.562500000000004
40
0.562500000000004
40
0.593750000000003
40
0.593750000000003
40
0.625000000000003
40
0.625000000000003
40
0.640625000000003
40
0.640625000000003
40
0.644531250000003
40
0.644531250000003
40
0.648437500000003
40
0.648437500000003
40
0.656250000000003
40
0.656250000000003
40
0.687500000000003
40
0.687500000000003
40
0.718750000000002
40
0.718750000000002
40
0.750000000000002
40
0.750000000000002
40
0.781250000000002
40
0.781250000000002
40
0.812500000000002
40
0.812500000000002
40
0.843750000000001
40
0.843750000000001
40
0.875000000000001
40
0.875000000000001
40
0.906250000000001
40
0.906250000000001
40
0.937500000000001
40
0.937500000000001
40
0.96875
40
0.96875
40
0.9765625
40
0.9765625
40
0.984375
40
0.984375
40
1
40
1
40
1
40
1
41
1
10
128.164748767381
20
10.7155
30
0
41
1
10
128.252614685999
20
10.7155
30
0
41
1
10
128.340480604617
20
10.6819702954606
30
0
41
1
10
128.516212441853
20
10.537670733283
30
0
41
1
10
128.604078360471
20
10.4268389143699
30
0
41
1
10
128.779810197708
20
10.1212999932163
30
0
41
1
10
128.867676116326
20
9.92654292543031
30
0
41
1
10
129.043407953562
20
9.45192508103926
30
0
41
1
10
129.13127387218
20
9.17204377042302
30
0
41
1
10
129.307005709416
20
8.53247907074703
30
0
41
1
10
129.394871628035
20
8.17281616441875
30
0
41
1
10
129.570603465271
20
7.3855557404101
30
0
41
1
10
129.658469383889
20
6.95801858187167
30
0
41
1
10
129.834201221125
20
6.05221145450565
30
0
41
1
10
129.922067139743
20
5.57402666823231
30
0
41
1
10
130.09779897698
20
4.58720736206385
30
0
41
1
10
130.185664895598
20
4.07866005847188
30
0
41
1
10
130.361396732834
20
3.05180305959186
30
0
41
1
10
130.449262651452
20
2.53356194730282
30
0
41
1
10
130.624994488688
20
1.50599828571239
30
0
41
1
10
130.712860407306
20
0.996714581097649
30
0
41
1
10
130.822692805579
20
0.375078275324967
30
0
41
1
10
130.844659285233
20
0.251489297166472
30
0
41
1
10
130.877609004715
20
0.0673573617689271
30
0
41
1
10
130.888592244543
20
0.0063311954921232
30
0
41
1
10
130.910558724197
20
-0.11608490429191
30
0
41
1
10
130.965474923333
20
-0.423187605951171
30
0
41
1
10
131.02039112247
20
-0.735343551114426
30
0
41
1
10
131.152190000397
20
-1.49175263920728
30
0
41
1
10
131.240055919015
20
-2.00579020040709
30
0
41
1
10
131.415787756251
20
-3.03715396363714
30
0
41
1
10
131.503653674869
20
-3.55443115733013
30
0
41
1
10
131.679385512106
20
-4.5727722853843
30
0
41
1
10
131.767251430724
20
-5.07375981356526
30
0
41
1
10
131.94298326796
20
-6.03870085062005
30
0
41
1
10
132.030849186578
20
-6.50256523716743
30
0
41
1
10
132.206581023814
20
-7.37367085504798
30
0
41
1
10
132.294446942433
20
-7.78083265108811
30
0
41
1
10
132.470178779669
20
-8.52279464199978
30
0
41
1
10
132.558044698287
20
-8.85754639126895
30
0
41
1
10
132.733776535523
20
-9.44479513450096
30
0
41
1
10
132.821642454141
20
-9.6972855540422
30
0
41
1
10
132.997374291377
20
-10.1168179933431
30
0
41
1
10
133.085240209996
20
-10.283891828652
30
0
41
1
10
133.260972047232
20
-10.5356917671338
30
0
41
1
10
133.34883796585
20
-10.6204736934421
30
0
41
1
10
133.480636843777
20
-10.6918991607661
30
0
41
1
10
133.524569803086
20
-10.7064491480202
30
0
41
1
10
133.579486002223
20
-10.7138771769463
30
0
41
1
10
133.59046924205
20
-10.7148251963431
30
0
41
1
10
133.612435721704
20
-10.7156678329104
30
0
41
1
10
133.623418961532
20
-10.7155656430924
30
0
41
1
10
133.656368681014
20
-10.7136789217342
30
0
41
1
10
133.678335160668
20
-10.7103053971406
30
0
41
1
10
133.788167558941
20
-10.6824310389381
30
0
41
1
10
133.876033477559
20
-10.6247842627986
30
0
41
1
10
134.051765314795
20
-10.429602804506
30
0
41
1
10
134.139631233413
20
-10.2920081235241
30
0
41
1
10
134.315363070649
20
-9.93187955925166
30
0
41
1
10
134.403228989267
20
-9.70930347147748
30
0
41
1
10
134.578960826504
20
-9.18002636180506
30
0
41
1
10
134.666826745122
20
-8.87331736953831
30
0
41
1
10
134.842558582358
20
-8.1832661994859
30
0
41
1
10
134.930424500976
20
-7.79995830394247
30
0
41
1
10
135.106156338212
20
-6.97050292702403
30
0
41
1
10
135.19402225683
20
-6.52442607748537
30
0
41
1
10
135.369754094067
20
-5.58791725860232
30
0
41
1
10
135.457620012685
20
-5.09757373023754
30
0
41
1
10
135.633351849921
20
-4.0932398008143
30
0
41
1
10
135.721217768539
20
-3.57933246741891
30
0
41
1
10
135.896949605775
20
-2.54814103247298
30
0
41
1
10
135.984815524394
20
-2.03091650909715
30
0
41
1
10
136.16054736163
20
-1.01072123975453
30
0
41
1
10
136.248413280248
20
-0.50777919985066
30
0
41
1
10
136.358245678521
20
0.103459243851489
30
0
41
1
10
136.380212158175
20
0.226236344068923
30
0
41
1
10
136.424145117484
20
0.473673830847162
30
0
41
1
10
136.446111597139
20
0.598170469253489
30
0
41
1
10
136.512011036102
20
0.973690554907506
30
0
41
1
10
136.555943995411
20
1.22675230446575
30
0
41
1
10
136.59987695472
20
1.48161971472527
30
0
0
SPLINE
5
DA
100
AcDbEntity
8
1
62
256
6
ByLayer
370
13
48
1
60
0
100
AcDbSpline
70
4
71
3
72
32
73
28
40
0
40
0
40
0
40
0
40
0.125000000000001
40
0.125000000000001
40
0.187500000000001
40
0.187500000000001
40
0.25
40
0.25
40
0.3125
40
0.3125
40
0.375
40
0.375
40
0.4375
40
0.4375
40
0.5
40
0.5
40
0.5625
40
0.5625
40
0.625
40
0.625
40
0.6875
40
0.6875
40
0.75
40
0.75
40
0.875
40
0.875
40
1
40
1
40
1
40
1
41
1
10
125.7
20
1.16364451609047
30
0
41
1
10
125.80498889765
20
1.76873803264277
30
0
41
1
10
125.9099777953
20
2.38665431524862
30
0
41
1
10
126.067461141775
20
3.31098647233679
30
0
41
1
10
126.1199555906
20
3.61861267489198
30
0
41
1
10
126.22494448825
20
4.22869881127977
30
0
41
1
10
126.277438937075
20
4.53115305375073
30
0
41
1
10
126.382427834725
20
5.12649552628622
30
0
41
1
10
126.43492228355
20
5.41937721550548
30
0
41
1
10
126.5399111812
20
5.99116640393308
30
0
41
1
10
126.592405630025
20
6.27006705651274
30
0
41
1
10
126.697394527675
20
6.80968063279343
30
0
41
1
10
126.7498889765
20
7.07038704509836
30
0
41
1
10
126.85487787415
20
7.56979616812768
30
0
41
1
10
126.907372322974
20
7.80849334441163
30
0
41
1
10
127.012361220624
20
8.26064873354011
30
0
41
1
10
127.064855669449
20
8.47410292638662
30
0
41
1
10
127.169844567099
20
8.87326306642427
30
0
41
1
10
127.222339015924
20
9.05896685334704
30
0
41
1
10
127.327327913574
20
9.4009367156641
30
0
41
1
10
127.379822362399
20
9.5572025941554
30
0
41
1
10
127.484811260049
20
9.83946251253121
30
0
41
1
10
127.537305708874
20
9.96545818037976
30
0
41
1
10
127.694789055349
20
10.2980359087149
30
0
41
1
10
127.799777952999
20
10.4588932298953
30
0
41
1
10
128.009755748299
20
10.6675514118181
30
0
41
1
10
128.114744645949
20
10.7155
30
0
41
1
10
128.219733543599
20
10.7155
30
0
0
SPLINE
5
DB
100
AcDbEntity
8
1
62
256
6
ByLayer
370
13
48
1
60
0
100
AcDbSpline
70
4
71
3
72
84
73
80
40
0
40
0
40
0
40
0
40
0.0312499999999997
40
0.0312499999999997
40
0.0624999999999993
40
0.0624999999999993
40
0.093749999999999
40
0.093749999999999
40
0.124999999999999
40
0.124999999999999
40
0.156249999999998
40
0.156249999999998
40
0.187499999999998
40
0.187499999999998
40
0.218749999999998
40
0.218749999999998
40
0.249999999999997
40
0.249999999999997
40
0.281249999999997
40
0.281249999999997
40
0.296874999999997
40
0.296874999999997
40
0.304687499999997
40
0.304687499999997
40
0.312499999999997
40
0.312499999999997
40
0.343749999999998
40
0.343749999999998
40
0.374999999999999
40
0.374999999999999
40
0.40625
40
0.40625
40
0.4375
40
0.4375
40
0.468750000000001
40
0.468750000000001
40
0.500000000000002
40
0.500000000000002
40
0.531250000000003
40
0.531250000000003
40
0.562500000000004
40
0.562500000000004
40
0.593750000000005
40
0.593750000000005
40
0.609375000000005
40
0.609375000000005
40
0.613281250000005
40
0.613281250000005
40
0.617187500000005
40
0.625000000000005
40
0.625000000000005
40
0.656250000000005
40
0.656250000000005
40
0.687500000000004
40
0.687500000000004
40
0.718750000000004
40
0.718750000000004
40
0.750000000000004
40
0.750000000000004
40
0.781250000000004
40
0.781250000000004
40
0.812500000000003
40
0.812500000000003
40
0.843750000000003
40
0.843750000000003
40
0.875000000000003
40
0.875000000000003
40
0.906250000000003
40
0.906250000000003
40
0.914062500000003
40
0.914062500000003
40
0.917968750000003
40
0.917968750000003
40
0.921875000000003
40
0.937500000000002
40
0.937500000000002
40
0.968750000000001
40
0.968750000000001
40
1
40
1
40
1
40
1
41
1
10
127.671799122903
20
10.7155
30
0
41
1
10
127.764799933652
20
10.7155
30
0
41
1
10
127.8578007444
20
10.6779202267959
30
0
41
1
10
128.043802365896
20
10.5156315668439
30
0
41
1
10
128.136803176644
20
10.3908407916874
30
0
41
1
10
128.32280479814
20
10.0467363894876
30
0
41
1
10
128.415805608888
20
9.82735994729498
30
0
41
1
10
128.601807230384
20
9.29369008231092
30
0
41
1
10
128.694808041132
20
8.97937828852199
30
0
41
1
10
128.880809662629
20
8.26375490251084
30
0
41
1
10
128.973810473377
20
7.86248373294831
30
0
41
1
10
129.159812094873
20
6.98887740954555
30
0
41
1
10
129.252812905621
20
6.51663468375503
30
0
41
1
10
129.438814527117
20
5.52299798526329
30
0
41
1
10
129.531815337865
20
5.00172151475979
30
0
41
1
10
129.717816959362
20
3.93463912397212
30
0
41
1
10
129.81081777011
20
3.38894154307783
30
0
41
1
10
129.996819391606
20
2.29682892687688
30
0
41
1
10
130.089820202354
20
1.7504873796226
30
0
41
1
10
130.229321418476
20
0.945578918533926
30
0
41
1
10
130.27582182385
20
0.679674984901339
30
0
41
1
10
130.345572431911
20
0.285945417030376
30
0
41
1
10
130.368822634598
20
0.155553999824093
30
0
41
1
10
130.415323039972
20
-0.103302528991975
30
0
41
1
10
130.438573242659
20
-0.233212429768287
30
0
41
1
10
130.554824256094
20
-0.888272239096978
30
0
41
1
10
130.647825066842
20
-1.42640376514262
30
0
41
1
10
130.833826688339
20
-2.51340620038491
30
0
41
1
10
130.926827499087
20
-3.06222685454904
30
0
41
1
10
131.112829120583
20
-4.14853521380604
30
0
41
1
10
131.205829931331
20
-4.68593100104718
30
0
41
1
10
131.391831552827
20
-5.72483781101963
30
0
41
1
10
131.484832363575
20
-6.2262321834755
30
0
41
1
10
131.670833985072
20
-7.16931684266945
30
0
41
1
10
131.763834795819
20
-7.61089711069744
30
0
41
1
10
131.949836417316
20
-8.4147974782195
30
0
41
1
10
132.042837228064
20
-8.7770470884943
30
0
41
1
10
132.22883884956
20
-9.409821335934
30
0
41
1
10
132.321839660308
20
-9.68033354385202
30
0
41
1
10
132.507841281804
20
-10.1255550370527
30
0
41
1
10
132.600842092553
20
-10.3003061904658
30
0
41
1
10
132.786843714049
20
-10.5578375186283
30
0
41
1
10
132.879844524797
20
-10.6406927180657
30
0
41
1
10
133.019345740919
20
-10.7034191882297
30
0
41
1
10
133.065846146293
20
-10.7141083199543
30
0
41
1
10
133.12397165301
20
-10.715688514978
30
0
41
1
10
133.135596754354
20
-10.7154197162384
30
0
41
1
10
133.158846957041
20
-10.7136956519742
30
0
41
1
10
133.193722261072
20
-10.7093258582156
30
0
41
1
10
133.228597565102
20
-10.6994885334919
30
0
41
1
10
133.344848578537
20
-10.6540568638422
30
0
41
1
10
133.437849389285
20
-10.5770859251068
30
0
41
1
10
133.623851010781
20
-10.331827449978
30
0
41
1
10
133.71685182153
20
-10.1634636117257
30
0
41
1
10
133.902853443026
20
-9.73104716699748
30
0
41
1
10
133.995854253774
20
-9.46694966893381
30
0
41
1
10
134.18185587527
20
-8.84647110395832
30
0
41
1
10
134.274856686018
20
-8.49009844544136
30
0
41
1
10
134.460858307514
20
-7.69687332590078
30
0
41
1
10
134.553859118262
20
-7.26008779264458
30
0
41
1
10
134.739860739759
20
-6.32510800879527
30
0
41
1
10
134.832861550507
20
-5.82702206753049
30
0
41
1
10
135.018863172003
20
-4.79306446434418
30
0
41
1
10
135.111863982751
20
-4.25731009612142
30
0
41
1
10
135.297865604247
20
-3.17267355353636
30
0
41
1
10
135.390866414995
20
-2.62388569456911
30
0
41
1
10
135.576868036492
20
-1.53558535535296
30
0
41
1
10
135.66986884724
20
-0.99612609966789
30
0
41
1
10
135.786119860675
20
-0.338775179588254
30
0
41
1
10
135.809370063362
20
-0.208140950725152
30
0
41
1
10
135.844245367392
20
-0.0136127821665468
30
0
41
1
10
135.855870468736
20
0.0509317914479652
30
0
41
1
10
135.879120671423
20
0.180798402030518
30
0
41
1
10
135.93724617814
20
0.506633790634567
30
0
41
1
10
135.995371684858
20
0.838002470984378
30
0
41
1
10
136.13487290098
20
1.64092477260132
30
0
41
1
10
136.227873711728
20
2.1865333898314
30
0
41
1
10
136.413875333224
20
3.27867209178137
30
0
41
1
10
136.506876143972
20
3.82513154415719
30
0
41
1
10
136.59987695472
20
4.36026561714516
30
0
0
SPLINE
5
DC
100
AcDbEntity
8
1
62
256
6
ByLayer
370
13
48
1
60
0
100
AcDbSpline
70
4
71
3
72
22
73
18
40
0
40
0
40
0
40
0
40
0.125
40
0.125
40
0.25
40
0.25
40
0.375
40
0.375
40
0.5
40
0.5
40
0.625
40
0.625
40
0.75
40
0.75
40
0.875
40
0.875
40
1
40
1
40
1
40
1
41
1
10
125.7
20
4.04264147508675
30
0
41
1
10
125.78444932913
20
4.53222769379576
30
0
41
1
10
125.86889865826
20
5.01438566087097
30
0
41
1
10
126.03779731652
20
5.94549448545951
30
0
41
1
10
126.12224664565
20
6.39437230383325
30
0
41
1
10
126.29114530391
20
7.2413770297841
30
0
41
1
10
126.375594633041
20
7.63943719449117
30
0
41
1
10
126.544493291301
20
8.37035993832515
30
0
41
1
10
126.628942620431
20
8.70317868651898
30
0
41
1
10
126.797841278691
20
9.29398826448227
30
0
41
1
10
126.882290607821
20
9.55196777735372
30
0
41
1
10
127.051189266081
20
9.98914006985683
30
0
41
1
10
127.135638595211
20
10.168353188397
30
0
41
1
10
127.304537253471
20
10.4495567474067
30
0
41
1
10
127.388986582601
20
10.5515895140709
30
0
41
1
10
127.557885240861
20
10.6845356602815
30
0
41
1
10
127.642334569991
20
10.7155
30
0
41
1
10
127.726783899121
20
10.7155
30
0
0
SPLINE
5
DD
100
AcDbEntity
8
1
62
256
6
ByLayer
370
13
48
1
60
0
100
AcDbSpline
70
4
71
3
72
84
73
80
40
0
40
0
40
0
40
0
40
0.0312500000000002
40
0.0312500000000002
40
0.0625000000000004
40
0.0625000000000004
40
0.0937500000000006
40
0.0937500000000006
40
0.125000000000001
40
0.125000000000001
40
0.156250000000001
40
0.156250000000001
40
0.187500000000001
40
0.187500000000001
40
0.218750000000001
40
0.218750000000001
40
0.250000000000002
40
0.250000000000002
40
0.281250000000002
40
0.281250000000002
40
0.289062500000002
40
0.289062500000002
40
0.296875000000002
40
0.296875000000002
40
0.312500000000002
40
0.312500000000002
40
0.343750000000003
40
0.343750000000003
40
0.375000000000003
40
0.375000000000003
40
0.406250000000004
40
0.406250000000004
40
0.437500000000005
40
0.437500000000005
40
0.468750000000005
40
0.468750000000005
40
0.500000000000005
40
0.500000000000005
40
0.531250000000006
40
0.531250000000006
40
0.562500000000006
40
0.562500000000006
40
0.578125000000006
40
0.578125000000006
40
0.585937500000006
40
0.585937500000006
40
0.593750000000006
40
0.593750000000006
40
0.625000000000007
40
0.625000000000007
40
0.656250000000007
40
0.656250000000007
40
0.687500000000007
40
0.687500000000007
40
0.718750000000007
40
0.718750000000007
40
0.750000000000007
40
0.750000000000007
40
0.781250000000008
40
0.781250000000008
40
0.812500000000008
40
0.812500000000008
40
0.843750000000008
40
0.843750000000008
40
0.859375000000008
40
0.859375000000008
40
0.867187500000008
40
0.867187500000008
40
0.871093750000008
40
0.871093750000008
40
0.875000000000008
40
0.875000000000008
40
0.906250000000006
40
0.906250000000006
40
0.937500000000004
40
0.937500000000004
40
0.968750000000002
40
0.968750000000002
40
1
40
1
40
1
40
1
41
1
10
127.178849478426
20
10.7155
30
0
41
1
10
127.276985181304
20
10.7155
30
0
41
1
10
127.375120884182
20
10.6736358816169
30
0
41
1
10
127.571392289938
20
10.4922387268694
30
0
41
1
10
127.669527992816
20
10.3525992202043
30
0
41
1
10
127.865799398573
20
9.96753868985559
30
0
41
1
10
127.963935101451
20
9.72204056954303
30
0
41
1
10
128.160206507207
20
9.12607839552393
30
0
41
1
10
128.258342210085
20
8.77560247237668
30
0
41
1
10
128.454613615841
20
7.98089248701757
30
0
41
1
10
128.552749318719
20
7.53672808236036
30
0
41
1
10
128.749020724475
20
6.57540806613488
30
0
41
1
10
128.847156427353
20
6.0583865335405
30
0
41
1
10
129.043427833109
20
4.97852258186703
30
0
41
1
10
129.141563535987
20
4.41583446564948
30
0
41
1
10
129.337834941743
20
3.27369837887702
30
0
41
1
10
129.435970644622
20
2.69437723757275
30
0
41
1
10
129.632242050378
20
1.54553517857087
30
0
41
1
10
129.730377753256
20
0.976085311025031
30
0
41
1
10
129.853047381853
20
0.283526946007157
30
0
41
1
10
129.877581307573
20
0.145962211330726
30
0
41
1
10
129.926649159012
20
-0.127012033811838
30
0
41
1
10
129.951183084731
20
-0.264386111533412
30
0
41
1
10
130.02478486189
20
-0.679657559385561
30
0
41
1
10
130.073852713329
20
-0.960331286685431
30
0
41
1
10
130.221056267646
20
-1.81023465981969
30
0
41
1
10
130.319191970524
20
-2.38751740454001
30
0
41
1
10
130.51546337628
20
-3.53965622455013
30
0
41
1
10
130.613599079158
20
-4.11441219326667
30
0
41
1
10
130.809870484915
20
-5.23332125427712
30
0
41
1
10
130.908006187793
20
-5.77732897033198
30
0
41
1
10
131.104277593549
20
-6.80602348775392
30
0
41
1
10
131.202413296427
20
-7.29055947464798
30
0
41
1
10
131.398684702183
20
-8.17566791141633
30
0
41
1
10
131.496820405061
20
-8.57613348860849
30
0
41
1
10
131.693091810817
20
-9.27658671306151
30
0
41
1
10
131.791227513695
20
-9.57654458063038
30
0
41
1
10
131.987498919451
20
-10.0697468871091
30
0
41
1
10
132.085634622329
20
-10.2630387933892
30
0
41
1
10
132.281906028086
20
-10.5466549162112
30
0
41
1
10
132.380041730964
20
-10.6370754323315
30
0
41
1
10
132.527245285281
20
-10.7040619405782
30
0
41
1
10
132.57631313672
20
-10.7150002221358
30
0
41
1
10
132.649914913878
20
-10.7157247449361
30
0
41
1
10
132.674448839598
20
-10.7133646215361
30
0
41
1
10
132.723516691037
20
-10.7032022255194
30
0
41
1
10
132.748050616756
20
-10.6953993438862
30
0
41
1
10
132.870720245354
20
-10.642206564078
30
0
41
1
10
132.968855948232
20
-10.5540548959092
30
0
41
1
10
133.165127353988
20
-10.2751671560166
30
0
41
1
10
133.263263056866
20
-10.0843341069659
30
0
41
1
10
133.459534462622
20
-9.59603215421541
30
0
41
1
10
133.5576701655
20
-9.29851425390794
30
0
41
1
10
133.753941571256
20
-8.60268076712018
30
0
41
1
10
133.852077274135
20
-8.20439303871692
30
0
41
1
10
134.048348679891
20
-7.32315650192515
30
0
41
1
10
134.146484382769
20
-6.8403130469178
30
0
41
1
10
134.342755788525
20
-5.81437022287611
30
0
41
1
10
134.440891491403
20
-5.27142119701412
30
0
41
1
10
134.637162897159
20
-4.15395253672776
30
0
41
1
10
134.735298600037
20
-3.57957893512312
30
0
41
1
10
134.931570005793
20
-2.42758713555176
30
0
41
1
10
135.029705708671
20
-1.85007036255342
30
0
41
1
10
135.176909262988
20
-0.999450434102641
30
0
41
1
10
135.225977114428
20
-0.718477353290041
30
0
41
1
10
135.299578891586
20
-0.302680528661057
30
0
41
1
10
135.324112817306
20
-0.165022153866971
30
0
41
1
10
135.360913705885
20
0.039857621785103
30
0
41
1
10
135.373180668745
20
0.108154377384892
30
0
41
1
10
135.397714594464
20
0.245497794699617
30
0
41
1
10
135.409981557324
20
0.314425790657992
30
0
41
1
10
135.520384223062
20
0.936934969237484
30
0
41
1
10
135.61851992594
20
1.50588313889048
30
0
41
1
10
135.814791331696
20
2.65427624040592
30
0
41
1
10
135.912927034574
20
3.23365152874149
30
0
41
1
10
136.10919844033
20
4.37655175877697
30
0
41
1
10
136.207334143208
20
4.93995094560495
30
0
41
1
10
136.403605548964
20
6.02190632204471
30
0
41
1
10
136.501741251843
20
6.54030834518667
30
0
41
1
10
136.59987695472
20
7.02263604802718
30
0
0
SPLINE
5
DE
100
AcDbEntity
8
1
62
256
6
ByLayer
370
13
48
1
60
0
100
AcDbSpline
70
4
71
3
72
22
73
18
40
0
40
0
40
0
40
0
40
0.125
40
0.125
40
0.25
40
0.25
40
0.375
40
0.375
40
0.5
40
0.5
40
0.625
40
0.625
40
0.75
40
0.75
40
0.875
40
0.875
40
1
40
1
40
1
40
1
41
1
10
125.7
20
6.74871662659547
30
0
41
1
10
125.76390976061
20
7.07127384719985
30
0
41
1
10
125.82781952122
20
7.37955535492517
30
0
41
1
10
125.955639042441
20
7.9610583891357
30
0
41
1
10
126.019548803051
20
8.23426692423249
30
0
41
1
10
126.147368324271
20
8.74052154926503
30
0
41
1
10
126.211278084881
20
8.9735602960919
30
0
41
1
10
126.339097606102
20
9.39612376888704
30
0
41
1
10
126.403007366712
20
9.58564750826329
30
0
41
1
10
126.530826887932
20
9.91970684996539
30
0
41
1
10
126.594736648542
20
10.064247362758
30
0
41
1
10
126.722556169763
20
10.3086818973933
30
0
41
1
10
126.786465930373
20
10.4085853337565
30
0
41
1
10
126.914285451593
20
10.5656821239941
30
0
41
1
10
126.978195212203
20
10.6228875110959
30
0
41
1
10
127.106014733424
20
10.697790074649
30
0
41
1
10
127.169924494034
20
10.7155
30
0
41
1
10
127.233834254644
20
10.7155
30
0
0
SPLINE
5
DF
100
AcDbEntity
8
1
62
256
6
ByLayer
370
13
48
1
60
0
100
AcDbSpline
70
4
71
3
72
107
73
103
40
0
40
0
40
0
40
0
40
0.0312500000000013
40
0.0312500000000013
40
0.0625000000000027
40
0.0625000000000027
40
0.093750000000004
40
0.093750000000004
40
0.109375000000005
40
0.109375000000005
40
0.125000000000005
40
0.125000000000005
40
0.140625000000006
40
0.140625000000006
40
0.156250000000007
40
0.156250000000007
40
0.171875000000007
40
0.171875000000007
40
0.187500000000008
40
0.187500000000008
40
0.218750000000009
40
0.218750000000009
40
0.250000000000011
40
0.250000000000011
40
0.265625000000011
40
0.265625000000011
40
0.273437500000012
40
0.273437500000012
40
0.277343750000012
40
0.277343750000012
40
0.281250000000012
40
0.281250000000012
40
0.312500000000011
40
0.312500000000011
40
0.343750000000011
40
0.343750000000011
40
0.37500000000001
40
0.37500000000001
40
0.39062500000001
40
0.39062500000001
40
0.406250000000009
40
0.406250000000009
40
0.421875000000009
40
0.421875000000009
40
0.437500000000009
40
0.437500000000009
40
0.453125000000008
40
0.453125000000008
40
0.468750000000008
40
0.468750000000008
40
0.500000000000008
40
0.500000000000008
40
0.531250000000007
40
0.531250000000007
40
0.546875000000007
40
0.546875000000007
40
0.550781250000007
40
0.550781250000007
40
0.554687500000007
40
0.562500000000007
40
0.562500000000007
40
0.593750000000006
40
0.593750000000006
40
0.625000000000006
40
0.625000000000006
40
0.656250000000006
40
0.656250000000006
40
0.671875000000005
40
0.671875000000005
40
0.687500000000005
40
0.687500000000005
40
0.703125000000005
40
0.703125000000005
40
0.718750000000005
40
0.718750000000005
40
0.750000000000004
40
0.750000000000004
40
0.781250000000004
40
0.781250000000004
40
0.812500000000004
40
0.812500000000004
40
0.820312500000004
40
0.820312500000004
40
0.828125000000003
40
0.828125000000003
40
0.843750000000003
40
0.843750000000003
40
0.875000000000002
40
0.875000000000002
40
0.906250000000002
40
0.906250000000002
40
0.921875000000001
40
0.921875000000001
40
0.937500000000001
40
0.937500000000001
40
0.953125000000001
40
0.953125000000001
40
0.96875
40
0.96875
40
0.984375
40
0.984375
40
1
40
1
40
1
40
1
41
1
10
126.685899833949
20
10.7155
30
0
41
1
10
126.789170428957
20
10.7155
30
0
41
1
10
126.892441023965
20
10.669116425891
30
0
41
1
10
127.098982213981
20
10.4674831137965
30
0
41
1
10
127.202252808989
20
10.3120969801542
30
0
41
1
10
127.408793999005
20
9.88369471223632
30
0
41
1
10
127.512064594013
20
9.61058618060608
30
0
41
1
10
127.666970486525
20
9.11455408392982
30
0
41
1
10
127.718605784029
20
8.93491216933765
30
0
41
1
10
127.821876379037
20
8.5485507630811
30
0
41
1
10
127.873511676541
20
8.34183305405287
30
0
41
1
10
127.976782271549
20
7.90361248305734
30
0
41
1
10
128.028417569053
20
7.67211311254377
30
0
41
1
10
128.131688164061
20
7.18731627861109
30
0
41
1
10
128.183323461565
20
6.93402373425303
30
0
41
1
10
128.286594056573
20
6.40919479473277
30
0
41
1
10
128.338229354077
20
6.13766428800994
30
0
41
1
10
128.441499949085
20
5.58031680338789
30
0
41
1
10
128.493135246589
20
5.29450612011158
30
0
41
1
10
128.648041139102
20
4.42190762961448
30
0
41
1
10
128.751311734109
20
3.8200446048107
30
0
41
1
10
128.957852924126
20
2.60908834174433
30
0
41
1
10
129.061123519133
20
2.00013466636392
30
0
41
1
10
129.216029411646
20
1.10283938149584
30
0
41
1
10
129.26766470915
20
0.80638052211944
30
0
41
1
10
129.345117655406
20
0.367804587064626
30
0
41
1
10
129.370935304158
20
0.222627401849678
30
0
41
1
10
129.409661777286
20
0.0066167676689872
30
0
41
1
10
129.422570601662
20
-0.0650590797864652
30
0
41
1
10
129.448388250414
20
-0.209380162286351
30
0
41
1
10
129.46129707479
20
-0.281827951035979
30
0
41
1
10
129.577476494174
20
-0.936270663219915
30
0
41
1
10
129.680747089182
20
-1.53548029808673
30
0
41
1
10
129.887288279198
20
-2.74466287357706
30
0
41
1
10
129.990558874206
20
-3.35454321885985
30
0
41
1
10
130.197100064222
20
-4.55405233160431
30
0
41
1
10
130.30037065923
20
-5.1435139036912
30
0
41
1
10
130.455276551742
20
-5.98712904986547
30
0
41
1
10
130.506911849246
20
-6.26156603322423
30
0
41
1
10
130.610182444254
20
-6.79290462233655
30
0
41
1
10
130.661817741758
20
-7.04980022197017
30
0
41
1
10
130.765088336766
20
-7.54241351713122
30
0
41
1
10
130.81672363427
20
-7.7781260785751
30
0
41
1
10
130.919994229278
20
-8.22526940092354
30
0
41
1
10
130.971629526782
20
-8.43669638329786
30
0
41
1
10
131.07490012179
20
-8.83283873266871
30
0
41
1
10
131.126535419294
20
-9.01755199413017
30
0
41
1
10
131.229806014302
20
-9.35860048221161
30
0
41
1
10
131.281441311807
20
-9.51493538305647
30
0
41
1
10
131.436347204318
20
-9.94007351176026
30
0
41
1
10
131.539617799326
20
-10.164653374406
30
0
41
1
10
131.746158989343
20
-10.4983511740338
30
0
41
1
10
131.849429584351
20
-10.6075862013218
30
0
41
1
10
132.004335476863
20
-10.6940888992672
30
0
41
1
10
132.055970774367
20
-10.7100973798556
30
0
41
1
10
132.120514896247
20
-10.7154041957007
30
0
41
1
10
132.133423720623
20
-10.7157330197179
30
0
41
1
10
132.159241369375
20
-10.7149484155018
30
0
41
1
10
132.197967842503
20
-10.7115928430023
30
0
41
1
10
132.236694315631
20
-10.7015402162349
30
0
41
1
10
132.365782559391
20
-10.6524732209528
30
0
41
1
10
132.469053154399
20
-10.5631608665448
30
0
41
1
10
132.675594344415
20
-10.2709338012245
30
0
41
1
10
132.778864939423
20
-10.0678939869861
30
0
41
1
10
132.985406129439
20
-9.5436852901837
30
0
41
1
10
133.088676724447
20
-9.22245736080262
30
0
41
1
10
133.243582616959
20
-8.65777713646372
30
0
41
1
10
133.295217914463
20
-8.45584511946288
30
0
41
1
10
133.398488509471
20
-8.02672334090886
30
0
41
1
10
133.450123806975
20
-7.79953677428921
30
0
41
1
10
133.553394401983
20
-7.32277456686415
30
0
41
1
10
133.605029699487
20
-7.07320361467734
30
0
41
1
10
133.708300294495
20
-6.55513484615059
30
0
41
1
10
133.759935591999
20
-6.28664278161415
30
0
41
1
10
133.914841484511
20
-5.4586222523975
30
0
41
1
10
134.01811207952
20
-4.8765365080815
30
0
41
1
10
134.224653269536
20
-3.68564892964864
30
0
41
1
10
134.327923864544
20
-3.07702442466078
30
0
41
1
10
134.53446505456
20
-1.86509235945758
30
0
41
1
10
134.637735649568
20
-1.26189232932407
30
0
41
1
10
134.766823893328
20
-0.527348276413392
30
0
41
1
10
134.79264154208
20
-0.381393599171986
30
0
41
1
10
134.844276839584
20
-0.0917149923581349
30
0
41
1
10
134.870094488336
20
0.0513158561889497
30
0
41
1
10
134.947547434592
20
0.485204632821024
30
0
41
1
10
134.999182732096
20
0.778998440275899
30
0
41
1
10
135.154088624608
20
1.66995668931972
30
0
41
1
10
135.257359219616
20
2.27691367290288
30
0
41
1
10
135.463900409632
20
3.48955864216214
30
0
41
1
10
135.56717100464
20
4.09512097483622
30
0
41
1
10
135.722076897152
20
4.97792813247753
30
0
41
1
10
135.773712194656
20
5.2679112327624
30
0
41
1
10
135.876982789664
20
5.83511033296907
30
0
41
1
10
135.928618087168
20
6.1123200360982
30
0
41
1
10
136.031888682176
20
6.64991307668717
30
0
41
1
10
136.08352397968
20
6.910290309625
30
0
41
1
10
136.186794574688
20
7.41049520551854
30
0
41
1
10
136.238429872192
20
7.65031753564116
30
0
41
1
10
136.3417004672
20
8.10619928110427
30
0
41
1
10
136.393335764704
20
8.32225464150511
30
0
41
1
10
136.496606359713
20
8.72804164397621
30
0
41
1
10
136.548241657216
20
8.91777086116633
30
0
41
1
10
136.599876954721
20
9.09343328518432
30
0
0
SPLINE
5
E0
100
AcDbEntity
8
1
62
256
6
ByLayer
370
13
48
1
60
0
100
AcDbSpline
70
4
71
3
72
14
73
10
40
0
40
0
40
0
40
0
40
0.25
40
0.25
40
0.5
40
0.5
40
0.75
40
0.75
40
1
40
1
40
1
40
1
41
1
10
125.7
20
8.9011044884154
30
0
41
1
10
125.786740384181
20
9.21277103586721
30
0
41
1
10
125.873480768361
20
9.48534657045596
30
0
41
1
10
126.046961536722
20
9.94746389953468
30
0
41
1
10
126.133701920903
20
10.1370262809872
30
0
41
1
10
126.307182689264
20
10.4344314592477
30
0
41
1
10
126.393923073444
20
10.5423216216968
30
0
41
1
10
126.567403841806
20
10.6828268168861
30
0
41
1
10
126.654144225986
20
10.7155
30
0
41
1
10
126.740884610167
20
10.7155
30
0
0
SPLINE
5
E1
100
AcDbEntity
8
1
62
256
6
ByLayer
370
13
48
1
60
0
100
AcDbSpline
70
4
71
3
72
134
73
130
40
0
40
0
40
0
40
0
40
0.0312499999999995
40
0.0312499999999995
40
0.0468749999999991
40
0.0468749999999991
40
0.0624999999999987
40
0.0624999999999987
40
0.0781249999999983
40
0.0781249999999983
40
0.093749999999998
40
0.093749999999998
40
0.109374999999998
40
0.109374999999998
40
0.124999999999997
40
0.124999999999997
40
0.140624999999997
40
0.140624999999997
40
0.156249999999997
40
0.156249999999997
40
0.171874999999996
40
0.171874999999996
40
0.187499999999996
40
0.187499999999996
40
0.203124999999995
40
0.203124999999995
40
0.218749999999995
40
0.218749999999995
40
0.249999999999995
40
0.249999999999995
40
0.257812499999994
40
0.257812499999994
40
0.265624999999994
40
0.265624999999994
40
0.281249999999994
40
0.281249999999994
40
0.296874999999993
40
0.296874999999993
40
0.312499999999993
40
0.312499999999993
40
0.328124999999993
40
0.328124999999993
40
0.343749999999992
40
0.343749999999992
40
0.359374999999992
40
0.359374999999992
40
0.374999999999992
40
0.374999999999992
40
0.390624999999991
40
0.390624999999991
40
0.406249999999991
40
0.406249999999991
40
0.42187499999999
40
0.42187499999999
40
0.43749999999999
40
0.43749999999999
40
0.453124999999989
40
0.453124999999989
40
0.468749999999989
40
0.468749999999989
40
0.484374999999988
40
0.484374999999988
40
0.499999999999988
40
0.499999999999988
40
0.515624999999988
40
0.515624999999988
40
0.523437499999987
40
0.523437499999987
40
0.531249999999987
40
0.531249999999987
40
0.562499999999987
40
0.562499999999987
40
0.578124999999988
40
0.578124999999988
40
0.593749999999988
40
0.593749999999988
40
0.609374999999988
40
0.609374999999988
40
0.624999999999988
40
0.624999999999988
40
0.640624999999988
40
0.640624999999988
40
0.656249999999988
40
0.656249999999988
40
0.671874999999989
40
0.671874999999989
40
0.687499999999989
40
0.687499999999989
40
0.703124999999989
40
0.703124999999989
40
0.718749999999989
40
0.718749999999989
40
0.734374999999989
40
0.734374999999989
40
0.749999999999989
40
0.749999999999989
40
0.78124999999999
40
0.78124999999999
40
0.78515624999999
40
0.78515624999999
40
0.78906249999999
40
0.78906249999999
40
0.796874999999991
40
0.796874999999991
40
0.812499999999991
40
0.812499999999991
40
0.828124999999992
40
0.828124999999992
40
0.843749999999993
40
0.843749999999993
40
0.859374999999993
40
0.859374999999993
40
0.874999999999994
40
0.874999999999994
40
0.890624999999995
40
0.890624999999995
40
0.906249999999996
40
0.906249999999996
40
0.921874999999996
40
0.921874999999996
40
0.937499999999997
40
0.937499999999997
40
0.953124999999998
40
0.953124999999998
40
0.968749999999999
40
0.968749999999999
40
0.984374999999999
40
0.984374999999999
40
1
40
1
40
1
40
1
41
1
10
126.192950189471
20
10.7155
30
0
41
1
10
126.301355676609
20
10.7155
30
0
41
1
10
126.409761163747
20
10.6643609558286
30
0
41
1
10
126.572369394454
20
10.4971072167677
30
0
41
1
10
126.626572138023
20
10.426314517042
30
0
41
1
10
126.734977625161
20
10.2531571536886
30
0
41
1
10
126.78918036873
20
10.1507877160729
30
0
41
1
10
126.897585855868
20
9.91372786115721
30
0
41
1
10
126.951788599437
20
9.77903398632054
30
0
41
1
10
127.060194086575
20
9.47745311285399
30
0
41
1
10
127.114396830144
20
9.31056453154343
30
0
41
1
10
127.222802317282
20
8.94567664180224
30
0
41
1
10
127.277005060851
20
8.74767801042495
30
0
41
1
10
127.385410547989
20
8.32262182352363
30
0
41
1
10
127.439613291558
20
8.09556732134809
30
0
41
1
10
127.548018778696
20
7.61536480484449
30
0
41
1
10
127.602221522265
20
7.36222201941848
30
0
41
1
10
127.710627009403
20
6.83359662611181
30
0
41
1
10
127.764829752972
20
6.55812092042802
30
0
41
1
10
127.87323524011
20
5.98918746229663
30
0
41
1
10
127.927437983679
20
5.69573756270987
30
0
41
1
10
128.035843470817
20
5.09559327290097
30
0
41
1
10
128.090046214386
20
4.78890687014035
30
0
41
1
10
128.198451701524
20
4.16716609562579
30
0
41
1
10
128.252654445093
20
3.85211907596204
30
0
41
1
10
128.361059932232
20
3.21843955913386
30
0
41
1
10
128.415262675801
20
2.89981317202773
30
0
41
1
10
128.577870906507
20
1.94528232798115
30
0
41
1
10
128.686276393646
20
1.31102339300293
30
0
41
1
10
128.821783252568
20
0.539513858469263
30
0
41
1
10
128.848884624353
20
0.386255183223852
30
0
41
1
10
128.903087367921
20
0.082198043904981
30
0
41
1
10
128.930188739706
20
-0.067903267495808
30
0
41
1
10
129.01149285506
20
-0.52375611947113
30
0
41
1
10
129.065695598629
20
-0.832620265928853
30
0
41
1
10
129.174101085767
20
-1.45713652237845
30
0
41
1
10
129.228303829336
20
-1.77278675051949
30
0
41
1
10
129.336709316474
20
-2.40713505464632
30
0
41
1
10
129.390912060043
20
-2.72582953246351
30
0
41
1
10
129.499317547181
20
-3.36200497283528
30
0
41
1
10
129.55352029075
20
-3.67948062775059
30
0
41
1
10
129.661925777888
20
-4.30856964171446
30
0
41
1
10
129.716128521457
20
-4.62017622724812
30
0
41
1
10
129.824534008595
20
-5.23267332252018
30
0
41
1
10
129.878736752164
20
-5.53355608437647
30
0
41
1
10
129.987142239302
20
-6.11976672901145
30
0
41
1
10
130.041344982871
20
-6.4050865873493
30
0
41
1
10
130.149750470009
20
-6.95558707453037
30
0
41
1
10
130.203953213578
20
-7.22076021142752
30
0
41
1
10
130.312358700716
20
-7.72687331366134
30
0
41
1
10
130.366561444285
20
-7.96780710787388
30
0
41
1
10
130.474966931423
20
-8.42204592790887
30
0
41
1
10
130.529169674992
20
-8.6353467330384
30
0
41
1
10
130.63757516213
20
-9.03178044668729
30
0
41
1
10
130.691777905699
20
-9.21491144752821
30
0
41
1
10
130.800183392837
20
-9.54941594261425
30
0
41
1
10
130.854386136406
20
-9.70078988699939
30
0
41
1
10
130.962791623544
20
-9.97116190851767
30
0
41
1
10
131.016994367113
20
-10.0901625375604
30
0
41
1
10
131.125399854251
20
-10.2960945272268
30
0
41
1
10
131.17960259782
20
-10.3830300590213
30
0
41
1
10
131.288008084958
20
-10.5259605142894
30
0
41
1
10
131.342210828527
20
-10.5819606260355
30
0
41
1
10
131.450616315665
20
-10.6648281585893
30
0
41
1
10
131.504819059234
20
-10.6917011725649
30
0
41
1
10
131.586123174587
20
-10.711903498283
30
0
41
1
10
131.613224546372
20
-10.7152898967261
30
0
41
1
10
131.667427289941
20
-10.7156911375089
30
0
41
1
10
131.694528661726
20
-10.7127158514476
30
0
41
1
10
131.830035520648
20
-10.6811521023327
30
0
41
1
10
131.938441007786
20
-10.602192443175
30
0
41
1
10
132.101049238493
20
-10.3907145118682
30
0
41
1
10
132.155251982062
20
-10.3047752861404
30
0
41
1
10
132.2636574692
20
-10.1008596858995
30
0
41
1
10
132.317860212769
20
-9.98287909864123
30
0
41
1
10
132.426265699907
20
-9.7145432347387
30
0
41
1
10
132.480468443476
20
-9.56418534685827
30
0
41
1
10
132.588873930614
20
-9.2316788677837
30
0
41
1
10
132.643076674183
20
-9.04952975486248
30
0
41
1
10
132.751482161321
20
-8.65499506977724
30
0
41
1
10
132.80568490489
20
-8.44261132996326
30
0
41
1
10
132.914090392028
20
-7.99011300315678
30
0
41
1
10
132.968293135597
20
-7.75000256787681
30
0
41
1
10
133.076698622735
20
-7.24541762071595
30
0
41
1
10
133.130901366304
20
-6.98094922691988
30
0
41
1
10
133.239306853442
20
-6.43172056866956
30
0
41
1
10
133.293509597011
20
-6.14696776607144
30
0
41
1
10
133.401915084149
20
-5.5617415830005
30
0
41
1
10
133.456117827718
20
-5.26127622278977
30
0
41
1
10
133.564523314856
20
-4.64945991139265
30
0
41
1
10
133.618726058425
20
-4.33811672833721
30
0
41
1
10
133.727131545563
20
-3.70940350264377
30
0
41
1
10
133.781334289132
20
-3.39204027298501
30
0
41
1
10
133.88973977627
20
-2.75594812245456
30
0
41
1
10
133.943942519839
20
-2.43722456046808
30
0
41
1
10
134.106550750546
20
-1.48542428832548
30
0
41
1
10
134.214956237684
20
-0.857029680059838
30
0
41
1
10
134.336912410714
20
-0.172553413641594
30
0
41
1
10
134.350463096607
20
-0.096806316384118
30
0
41
1
10
134.377564468391
20
0.0540330756965943
30
0
41
1
10
134.391115154284
20
0.129552688487166
30
0
41
1
10
134.43176721196
20
0.357362160321117
30
0
41
1
10
134.458868583745
20
0.510476366323104
30
0
41
1
10
134.540172699098
20
0.972985768838612
30
0
41
1
10
134.594375442667
20
1.28556652616913
30
0
41
1
10
134.702780929805
20
1.91577635002059
30
0
41
1
10
134.756983673374
20
2.23340271600509
30
0
41
1
10
134.865389160512
20
2.86969781233842
30
0
41
1
10
134.919591904081
20
3.18836210205276
30
0
41
1
10
135.027997391219
20
3.82226419709619
30
0
41
1
10
135.082200134788
20
4.13749593890546
30
0
41
1
10
135.190605621926
20
4.7597594427499
30
0
41
1
10
135.244808365495
20
5.06678388368638
30
0
41
1
10
135.353213852633
20
5.66775708916515
30
0
41
1
10
135.407416596202
20
5.96169787511494
30
0
41
1
10
135.51582208334
20
6.53175792041694
30
0
41
1
10
135.570024826909
20
6.80786931009754
30
0
41
1
10
135.678430314047
20
7.33789539074346
30
0
41
1
10
135.732633057616
20
7.59180313766609
30
0
41
1
10
135.841038544754
20
8.07364281794415
30
0
41
1
10
135.895241288323
20
8.30156946055965
30
0
41
1
10
136.003646775461
20
8.72845008602295
30
0
41
1
10
136.05784951903
20
8.92740094218743
30
0
41
1
10
136.166255006169
20
9.29424341484167
30
0
41
1
10
136.220457749738
20
9.46213427955482
30
0
41
1
10
136.328863236876
20
9.7657391483967
30
0
41
1
10
136.383065980444
20
9.90145466865519
30
0
41
1
10
136.491471467583
20
10.1405480127074
30
0
41
1
10
136.545674211151
20
10.2439292428406
30
0
41
1
10
136.59987695472
20
10.3315018339608
30
0
0
SPLINE
5
E2
100
AcDbEntity
8
1
62
256
6
ByLayer
370
13
48
1
60
0
100
AcDbSpline
70
4
71
3
72
10
73
6
40
0
40
0
40
0
40
0
40
0.5
40
0.5
40
1
40
1
40
1
40
1
41
1
10
125.7
20
10.2372343830629
30
0
41
1
10
125.791322494282
20
10.4028525560748
30
0
41
1
10
125.882644988563
20
10.5229834332777
30
0
41
1
10
126.065289977126
20
10.6792697073955
30
0
41
1
10
126.156612471408
20
10.7155
30
0
41
1
10
126.247934965689
20
10.7155
30
0
0
SPLINE
5
E3
100
AcDbEntity
8
1
62
256
6
ByLayer
370
13
48
1
60
0
100
AcDbSpline
70
4
71
3
72
134
73
130
40
0
40
0
40
0
40
0
40
0.015625
40
0.015625
40
0.03125
40
0.03125
40
0.0468750000000001
40
0.0468750000000001
40
0.0625000000000001
40
0.0625000000000001
40
0.0781250000000001
40
0.0781250000000001
40
0.0937500000000002
40
0.0937500000000002
40
0.109375
40
0.109375
40
0.125
40
0.125
40
0.140625
40
0.140625
40
0.15625
40
0.15625
40
0.171875
40
0.171875
40
0.1875
40
0.1875
40
0.203125000000001
40
0.203125000000001
40
0.218750000000001
40
0.218750000000001
40
0.234375000000001
40
0.234375000000001
40
0.250000000000001
40
0.250000000000001
40
0.265625000000001
40
0.265625000000001
40
0.281250000000001
40
0.281250000000001
40
0.296875000000001
40
0.296875000000001
40
0.312500000000001
40
0.312500000000001
40
0.328125000000001
40
0.328125000000001
40
0.343750000000001
40
0.343750000000001
40
0.359375000000001
40
0.359375000000001
40
0.375000000000001
40
0.375000000000001
40
0.390625000000001
40
0.390625000000001
40
0.406250000000001
40
0.406250000000001
40
0.421875000000001
40
0.421875000000001
40
0.437500000000001
40
0.437500000000001
40
0.453125000000001
40
0.453125000000001
40
0.468750000000001
40
0.468750000000001
40
0.484375000000001
40
0.484375000000001
40
0.500000000000001
40
0.500000000000001
40
0.515625000000001
40
0.515625000000001
40
0.531250000000001
40
0.531250000000001
40
0.546875000000001
40
0.546875000000001
40
0.562500000000001
40
0.562500000000001
40
0.578125000000001
40
0.578125000000001
40
0.593750000000001
40
0.593750000000001
40
0.609375000000001
40
0.609375000000001
40
0.625000000000001
40
0.625000000000001
40
0.640625000000001
40
0.640625000000001
40
0.656250000000001
40
0.656250000000001
40
0.671875000000001
40
0.671875000000001
40
0.687500000000001
40
0.687500000000001
40
0.703125000000001
40
0.703125000000001
40
0.718750000000001
40
0.718750000000001
40
0.734375000000001
40
0.734375000000001
40
0.750000000000001
40
0.750000000000001
40
0.765625000000001
40
0.765625000000001
40
0.781250000000001
40
0.781250000000001
40
0.796875000000001
40
0.796875000000001
40
0.812500000000001
40
0.812500000000001
40
0.828125000000001
40
0.828125000000001
40
0.843750000000001
40
0.843750000000001
40
0.859375000000001
40
0.859375000000001
40
0.875000000000001
40
0.875000000000001
40
0.890625000000001
40
0.890625000000001
40
0.906250000000001
40
0.906250000000001
40
0.921875
40
0.921875
40
0.9375
40
0.9375
40
0.953125
40
0.953125
40
0.96875
40
0.96875
40
0.984375
40
0.984375
40
1
40
1
40
1
40
1
41
1
10
125.700000544994
20
10.7155
30
0
41
1
10
125.756770734628
20
10.7155
30
0
41
1
10
125.813540924262
20
10.7015309177327
30
0
41
1
10
125.92708130353
20
10.6427787375628
30
0
41
1
10
125.983851493164
20
10.5979885945776
30
0
41
1
10
126.097391872432
20
10.4752287927859
30
0
41
1
10
126.154162062066
20
10.3972522930297
30
0
41
1
10
126.267702441334
20
10.2064888657201
30
0
41
1
10
126.324472630968
20
10.0936961133034
30
0
41
1
10
126.438013010236
20
9.83259712342488
30
0
41
1
10
126.49478319987
20
9.6842869297939
30
0
41
1
10
126.608323579138
20
9.35252786939384
30
0
41
1
10
126.665093768772
20
9.16907765147485
30
0
41
1
10
126.77863414804
20
8.76857350990582
30
0
41
1
10
126.835404337674
20
8.55152129292043
30
0
41
1
10
126.948944716942
20
8.08650435826382
30
0
41
1
10
127.005714906576
20
7.83854444425998
30
0
41
1
10
127.119255285844
20
7.31546161104833
30
0
41
1
10
127.176025475478
20
7.04034617030149
30
0
41
1
10
127.289565854746
20
6.46757374980322
30
0
41
1
10
127.34633604438
20
6.16992609778109
30
0
41
1
10
127.459876423648
20
5.55732704591452
30
0
41
1
10
127.516646613282
20
5.24238574771982
30
0
41
1
10
127.630186992549
20
4.60075773474964
30
0
41
1
10
127.686957182184
20
4.27408077664333
30
0
41
1
10
127.800497561451
20
3.61455813111795
30
0
41
1
10
127.857267751086
20
3.28172089351582
30
0
41
1
10
127.970808130354
20
2.61519610855862
30
0
41
1
10
128.027578319987
20
2.28151504258273
30
0
41
1
10
128.141118699255
20
1.61813652675684
30
0
41
1
10
128.19788888889
20
1.28844328726635
30
0
41
1
10
128.311429268158
20
0.637228636552322
30
0
41
1
10
128.368199457792
20
0.315709197570243
30
0
41
1
10
128.48173983706
20
-0.315707682169716
30
0
41
1
10
128.538510026694
20
-0.637227086617742
30
0
41
1
10
128.652050405961
20
-1.28844171137064
30
0
41
1
10
128.708820595595
20
-1.61813494094375
30
0
41
1
10
128.822360974863
20
-2.28151344417893
30
0
41
1
10
128.879131164497
20
-2.61519450748523
30
0
41
1
10
128.992671543765
20
-3.28171929527022
30
0
41
1
10
129.049441733399
20
-3.61455653837325
30
0
41
1
10
129.162982112667
20
-4.27407920367924
30
0
41
1
10
129.219752302301
20
-4.60075617606796
30
0
41
1
10
129.333292681569
20
-5.24238422658692
30
0
41
1
10
129.390062871203
20
-5.55732554804939
30
0
41
1
10
129.503603250471
20
-6.1699246551706
30
0
41
1
10
129.560373440105
20
-6.46757233917927
30
0
41
1
10
129.673913819373
20
-7.0403448316176
30
0
41
1
10
129.730684009007
20
-7.31546031231582
30
0
41
1
10
129.844224388275
20
-7.83854323219467
30
0
41
1
10
129.900994577909
20
-8.08650319291061
30
0
41
1
10
130.014534957177
20
-8.55152022619208
30
0
41
1
10
130.071305146811
20
-8.76857249508546
30
0
41
1
10
130.184845526079
20
-9.16907674387505
30
0
41
1
10
130.241615715713
20
-9.35252701710152
30
0
41
1
10
130.355156094981
20
-9.68428618964245
30
0
41
1
10
130.411926284615
20
-9.83259644010218
30
0
41
1
10
130.525466663883
20
-10.0936955433507
30
0
41
1
10
130.582236853517
20
-10.206488352305
30
0
41
1
10
130.695777232785
20
-10.3972518907801
30
0
41
1
10
130.752547422419
20
-10.4752284451619
30
0
41
1
10
130.866087801687
20
-10.5979883529543
30
0
41
1
10
130.922857991321
20
-10.6427785473137
30
0
41
1
10
131.036398370589
20
-10.7015308259711
30
0
41
1
10
131.093168560223
20
-10.715499955352
30
0
41
1
10
131.206708939491
20
-10.7155000446478
30
0
41
1
10
131.263479129125
20
-10.701531009494
30
0
41
1
10
131.377019508393
20
-10.6427789278116
30
0
41
1
10
131.433789698027
20
-10.5979888362007
30
0
41
1
10
131.547330077295
20
-10.4752291404097
30
0
41
1
10
131.604100266929
20
-10.3972526952791
30
0
41
1
10
131.717640646197
20
-10.206489379135
30
0
41
1
10
131.774410835831
20
-10.0936966832559
30
0
41
1
10
131.887951215099
20
-9.83259780674734
30
0
41
1
10
131.944721404733
20
-9.68428766994509
30
0
41
1
10
132.058261784001
20
-9.3525287216859
30
0
41
1
10
132.115031973635
20
-9.16907855907439
30
0
41
1
10
132.228572352903
20
-8.76857452472592
30
0
41
1
10
132.285342542537
20
-8.55152235964854
30
0
41
1
10
132.398882921805
20
-8.08650552361681
30
0
41
1
10
132.455653111439
20
-7.83854565632509
30
0
41
1
10
132.569193490707
20
-7.31546290978065
30
0
41
1
10
132.625963680341
20
-7.04034750898518
30
0
41
1
10
132.739504059609
20
-6.46757516042697
30
0
41
1
10
132.796274249243
20
-6.16992754039143
30
0
41
1
10
132.909814628511
20
-5.55732854377953
30
0
41
1
10
132.966584818145
20
-5.24238726885261
30
0
41
1
10
133.080125197413
20
-4.60075929343125
30
0
41
1
10
133.136895387047
20
-4.27408234960737
30
0
41
1
10
133.250435766315
20
-3.61455972386261
30
0
41
1
10
133.307205955949
20
-3.2817224917614
30
0
41
1
10
133.420746335217
20
-2.61519770963204
30
0
41
1
10
133.477516524851
20
-2.28151664098652
30
0
41
1
10
133.591056904119
20
-1.61813811256999
30
0
41
1
10
133.647827093753
20
-1.28844486316211
30
0
41
1
10
133.761367473021
20
-0.637230186486988
30
0
41
1
10
133.818137662655
20
-0.315710731464577
30
0
41
1
10
133.931678041923
20
0.315706185262911
30
0
41
1
10
133.988448231557
20
0.637225536683218
30
0
41
1
10
134.101988610825
20
1.28844013547499
30
0
41
1
10
134.158758800459
20
1.61813335513071
30
0
41
1
10
134.272299179727
20
2.28151184577516
30
0
41
1
10
134.329069369361
20
2.61519290641181
30
0
41
1
10
134.442609748629
20
3.28171769702462
30
0
41
1
10
134.499379938263
20
3.61455494562853
30
0
41
1
10
134.612920317531
20
4.27407763071508
30
0
41
1
10
134.669690507165
20
4.6007546173862
30
0
41
1
10
134.783230886433
20
5.24238270545391
30
0
41
1
10
134.840001076067
20
5.55732405018412
30
0
41
1
10
134.953541455335
20
6.16992321255995
30
0
41
1
10
135.010311644969
20
6.46757092855518
30
0
41
1
10
135.123852024237
20
7.04034349293354
30
0
41
1
10
135.180622213871
20
7.31545901358311
30
0
41
1
10
135.294162593139
20
7.83854202012913
30
0
41
1
10
135.350932782773
20
8.0865020275572
30
0
41
1
10
135.464473162041
20
8.55151915946351
30
0
41
1
10
135.521243351675
20
8.76857148026488
30
0
41
1
10
135.634783730943
20
9.16907583627497
30
0
41
1
10
135.691553920577
20
9.35252616480892
30
0
41
1
10
135.805094299845
20
9.68428544949072
30
0
41
1
10
135.861864489479
20
9.8325957567792
30
0
41
1
10
135.975404868746
20
10.0936949733977
30
0
41
1
10
136.03217505838
20
10.2064878388896
30
0
41
1
10
136.145715437649
20
10.3972514885302
30
0
41
1
10
136.202485627283
20
10.4752280975376
30
0
41
1
10
136.31602600655
20
10.5979881113308
30
0
41
1
10
136.372796196184
20
10.6427783570643
30
0
41
1
10
136.486336575452
20
10.7015307342092
30
0
41
1
10
136.543106765086
20
10.7154999107037
30
0
41
1
10
136.59987695472
20
10.7154999999996
30
0
0
SPLINE
5
E4
100
AcDbEntity
8
1
62
256
6
ByLayer
370
13
48
1
60
0
100
AcDbSpline
70
4
71
3
72
10
73
6
40
0
40
0
40
0
40
0
40
0.5
40
0.5
40
1
40
1
40
1
40
1
41
1
10
136.051943079019
20
10.7155
30
0
41
1
10
136.143265391636
20
10.7155
30
0
41
1
10
136.234587704253
20
10.6792698521126
30
0
41
1
10
136.417232329487
20
10.522984221244
30
0
41
1
10
136.508554642104
20
10.402853843304
30
0
41
1
10
136.59987695472
20
10.237236359811
30
0
0
SPLINE
5
E5
100
AcDbEntity
8
1
62
256
6
ByLayer
370
13
48
1
60
0
100
AcDbSpline
70
4
71
3
72
8
73
4
40
0
40
0
40
0
40
0
40
1
40
1
40
1
40
1
41
1
10
125.7
20
10.711085901922
30
0
41
1
10
125.718328440404
20
10.7140455194873
30
0
41
1
10
125.736656880808
20
10.7155
30
0
41
1
10
125.754985321212
20
10.7155
30
0
0
SPLINE
5
E6
100
AcDbEntity
8
1
62
256
6
ByLayer
370
13
48
1
60
0
100
AcDbSpline
70
4
71
3
72
134
73
130
40
0
40
0
40
0
40
0
40
0.015625
40
0.015625
40
0.0312500000000001
40
0.0312500000000001
40
0.0468750000000001
40
0.0468750000000001
40
0.0625000000000002
40
0.0625000000000002
40
0.0781250000000002
40
0.0781250000000002
40
0.0937500000000002
40
0.0937500000000002
40
0.109375
40
0.109375
40
0.125
40
0.125
40
0.140625
40
0.140625
40
0.15625
40
0.15625
40
0.171875
40
0.171875
40
0.1875
40
0.1875
40
0.203125000000001
40
0.203125000000001
40
0.210937500000001
40
0.210937500000001
40
0.214843750000001
40
0.214843750000001
40
0.218750000000001
40
0.218750000000001
40
0.249999999999999
40
0.249999999999999
40
0.265624999999999
40
0.265624999999999
40
0.281249999999998
40
0.281249999999998
40
0.296874999999998
40
0.296874999999998
40
0.312499999999997
40
0.312499999999997
40
0.328124999999997
40
0.328124999999997
40
0.343749999999996
40
0.343749999999996
40
0.359374999999996
40
0.359374999999996
40
0.374999999999995
40
0.374999999999995
40
0.390624999999995
40
0.390624999999995
40
0.406249999999994
40
0.406249999999994
40
0.421874999999994
40
0.421874999999994
40
0.437499999999993
40
0.437499999999993
40
0.468749999999993
40
0.468749999999993
40
0.476562499999992
40
0.476562499999992
40
0.484374999999992
40
0.484374999999992
40
0.499999999999992
40
0.499999999999992
40
0.515624999999992
40
0.515624999999992
40
0.531249999999992
40
0.531249999999992
40
0.546874999999992
40
0.546874999999992
40
0.562499999999992
40
0.562499999999992
40
0.578124999999993
40
0.578124999999993
40
0.593749999999993
40
0.593749999999993
40
0.609374999999993
40
0.609374999999993
40
0.624999999999993
40
0.624999999999993
40
0.640624999999993
40
0.640624999999993
40
0.656249999999993
40
0.656249999999993
40
0.671874999999993
40
0.671874999999993
40
0.687499999999993
40
0.687499999999993
40
0.703124999999993
40
0.703124999999993
40
0.718749999999993
40
0.718749999999993
40
0.734374999999993
40
0.734374999999993
40
0.742187499999993
40
0.742187499999993
40
0.749999999999993
40
0.749999999999993
40
0.781249999999994
40
0.781249999999994
40
0.796874999999994
40
0.796874999999994
40
0.812499999999995
40
0.812499999999995
40
0.828124999999995
40
0.828124999999995
40
0.843749999999995
40
0.843749999999995
40
0.859374999999996
40
0.859374999999996
40
0.874999999999996
40
0.874999999999996
40
0.890624999999997
40
0.890624999999997
40
0.906249999999997
40
0.906249999999997
40
0.921874999999998
40
0.921874999999998
40
0.937499999999998
40
0.937499999999998
40
0.953124999999999
40
0.953124999999999
40
0.968749999999999
40
0.968749999999999
40
1
40
1
40
1
40
1
41
1
10
125.7
20
10.3315035949958
30
0
41
1
10
125.754202749246
20
10.2439312061865
30
0
41
1
10
125.808405498492
20
10.1405501788084
30
0
41
1
10
125.916810996984
20
9.90145723546138
30
0
41
1
10
125.97101374623
20
9.76574191314032
30
0
41
1
10
126.079419244722
20
9.4621374293443
30
0
41
1
10
126.133621993968
20
9.29424675172501
30
0
41
1
10
126.24202749246
20
8.92740463650577
30
0
41
1
10
126.296230241706
20
8.72845395066761
30
0
41
1
10
126.404635740198
20
8.30157364372752
30
0
41
1
10
126.458838489444
20
8.07364714929591
30
0
41
1
10
126.567243987936
20
7.59180773885026
30
0
41
1
10
126.621446737182
20
7.33790011356686
30
0
41
1
10
126.729852235675
20
6.80787424656998
30
0
41
1
10
126.784054984921
20
6.53176294889479
30
0
41
1
10
126.892460483413
20
5.96170305640149
30
0
41
1
10
126.946663232659
20
5.66776233125591
30
0
41
1
10
127.055068731151
20
5.06678921618285
30
0
41
1
10
127.109271480397
20
4.75976480485377
30
0
41
1
10
127.217676978889
20
4.13750133048705
30
0
41
1
10
127.271879728135
20
3.82226958855767
30
0
41
1
10
127.380285226627
20
3.18836746623177
30
0
41
1
10
127.434487975873
20
2.86970314936662
30
0
41
1
10
127.542893474365
20
2.23340797529025
30
0
41
1
10
127.597096223611
20
1.91578155872543
30
0
41
1
10
127.705501722103
20
1.28557161442072
30
0
41
1
10
127.759704471349
20
0.972990787228099
30
0
41
1
10
127.841008595218
20
0.510481268713761
30
0
41
1
10
127.868109969841
20
0.357367022178465
30
0
41
1
10
127.908762031776
20
0.129557487146229
30
0
41
1
10
127.922312719087
20
0.0540378330406668
30
0
41
1
10
127.94941409371
20
-0.0968015472772663
30
0
41
1
10
127.962964781022
20
-0.172548639163182
30
0
41
1
10
128.084920966825
20
-0.857024861999577
30
0
41
1
10
128.193326465317
20
-1.48541946572308
30
0
41
1
10
128.355934713055
20
-2.43721979419991
30
0
41
1
10
128.410137462301
20
-2.75594338542547
30
0
41
1
10
128.518542960793
20
-3.39203561628042
30
0
41
1
10
128.572745710039
20
-3.70939889702979
30
0
41
1
10
128.681151208531
20
-4.33811224673644
30
0
41
1
10
128.735353957777
20
-4.64945550271696
30
0
41
1
10
128.84375945627
20
-5.2612719807118
30
0
41
1
10
128.897962205516
20
-5.56173743459405
30
0
41
1
10
129.006367704007
20
-6.14696382357809
30
0
41
1
10
129.060570453254
20
-6.43171673841286
30
0
41
1
10
129.168975951746
20
-6.98094563652464
30
0
41
1
10
129.223178700992
20
-7.24541415793726
30
0
41
1
10
129.331584199484
20
-7.74999937173214
30
0
41
1
10
129.38578694873
20
-7.99010994601898
30
0
41
1
10
129.494192447222
20
-8.44260855773553
30
0
41
1
10
129.548395196468
20
-8.6549924434411
30
0
41
1
10
129.65680069496
20
-9.0495274225234
30
0
41
1
10
129.711003444206
20
-9.23167668353909
30
0
41
1
10
129.819408942698
20
-9.56418345650053
30
0
41
1
10
129.873611691944
20
-9.71454149016432
30
0
41
1
10
129.982017190436
20
-9.9828776392867
30
0
41
1
10
130.036219939682
20
-10.1008583659753
30
0
41
1
10
130.144625438174
20
-10.3047742353854
30
0
41
1
10
130.19882818742
20
-10.3907135908492
30
0
41
1
10
130.361436435158
20
-10.6021918930637
30
0
41
1
10
130.46984193365
20
-10.681151774677
30
0
41
1
10
130.605348806765
20
-10.7127157647608
30
0
41
1
10
130.632450181388
20
-10.7156910970523
30
0
41
1
10
130.686652930634
20
-10.7152899456288
30
0
41
1
10
130.713754305258
20
-10.7119035923673
30
0
41
1
10
130.795058429126
20
-10.6917014033481
30
0
41
1
10
130.849261178372
20
-10.6648284820556
30
0
41
1
10
130.957666676865
20
-10.5819611357787
30
0
41
1
10
131.011869426111
20
-10.5259611176229
30
0
41
1
10
131.120274924603
20
-10.3830308479034
30
0
41
1
10
131.174477673849
20
-10.296095408062
30
0
41
1
10
131.282883172341
20
-10.0901635979025
30
0
41
1
10
131.337085921587
20
-9.97116305640719
30
0
41
1
10
131.445491420079
20
-9.70079120276509
30
0
41
1
10
131.499694169325
20
-9.54941733870163
30
0
41
1
10
131.608099667817
20
-9.21491299437272
30
0
41
1
10
131.662302417063
20
-9.03178206396038
30
0
41
1
10
131.770707915555
20
-8.63534847898003
30
0
41
1
10
131.824910664801
20
-8.42204773208471
30
0
41
1
10
131.933316163293
20
-7.96780901458618
30
0
41
1
10
131.987518912539
20
-7.72687526467212
30
0
41
1
10
132.095924411031
20
-7.2207622360643
30
0
41
1
10
132.150127160277
20
-6.95558912849356
30
0
41
1
10
132.258532658769
20
-6.4050886847352
30
0
41
1
10
132.312735408015
20
-6.11976884049517
30
0
41
1
10
132.421140906507
20
-5.53355820934047
30
0
41
1
10
132.475343655753
20
-5.23267544687053
30
0
41
1
10
132.583749154245
20
-4.62017833686062
30
0
41
1
10
132.637951903491
20
-4.30857173720838
30
0
41
1
10
132.746357401983
20
-3.6794826832471
30
0
41
1
10
132.800560151229
20
-3.36200700245931
30
0
41
1
10
132.908965649721
20
-2.7258315006963
30
0
41
1
10
132.963168398967
20
-2.40713698736661
30
0
41
1
10
133.07157389746
20
-1.77278860485527
30
0
41
1
10
133.125776646706
20
-1.45713833384761
30
0
41
1
10
133.234182145198
20
-0.832621986589089
30
0
41
1
10
133.288384894444
20
-0.52375779219318
30
0
41
1
10
133.369689018313
20
-0.0679048661066872
30
0
41
1
10
133.396790392936
20
0.0821964600990839
30
0
41
1
10
133.450993142182
20
0.386253614280179
30
0
41
1
10
133.478094516805
20
0.539512297826462
30
0
41
1
10
133.61360138992
20
1.31102187825581
30
0
41
1
10
133.722006888412
20
1.94528086422753
30
0
41
1
10
133.88461513615
20
2.89981180444093
30
0
41
1
10
133.938817885396
20
3.21843822683624
30
0
41
1
10
134.047223383888
20
3.85211781984788
30
0
41
1
10
134.101426133134
20
4.1671648804047
30
0
41
1
10
134.209831631626
20
4.78890574107353
30
0
41
1
10
134.264034380872
20
5.09559218909269
30
0
41
1
10
134.372439879364
20
5.69573657223174
30
0
41
1
10
134.42664262861
20
5.9891865198862
30
0
41
1
10
134.535048127102
20
6.55812007519117
30
0
41
1
10
134.589250876348
20
6.8335958299761
30
0
41
1
10
134.69765637484
20
7.36222132065851
30
0
41
1
10
134.751859124086
20
7.61536415435421
30
0
41
1
10
134.860264622578
20
8.09556676476188
30
0
41
1
10
134.914467371824
20
8.32262131256743
30
0
41
1
10
135.022872870316
20
8.74767758648204
30
0
41
1
10
135.077075619562
20
8.94567625923929
30
0
41
1
10
135.185481118055
20
9.31056422619724
30
0
41
1
10
135.239683867301
20
9.47745284334272
30
0
41
1
10
135.348089365793
20
9.77903378203277
30
0
41
1
10
135.402292115039
20
9.91372768625774
30
0
41
1
10
135.510697613531
20
10.1507875930258
30
0
41
1
10
135.564900362777
20
10.2531570531068
30
0
41
1
10
135.673305861269
20
10.4263144544003
30
0
41
1
10
135.727508610515
20
10.4971071696033
30
0
41
1
10
135.890116858253
20
10.6643609450518
30
0
41
1
10
135.998522356745
20
10.7155
30
0
41
1
10
136.106927855237
20
10.7155
30
0
0
SPLINE
5
E7
100
AcDbEntity
8
1
62
256
6
ByLayer
370
13
48
1
60
0
100
AcDbSpline
70
4
71
3
72
14
73
10
40
0
40
0
40
0
40
0
40
0.25
40
0.25
40
0.5
40
0.5
40
0.75
40
0.75
40
1
40
1
40
1
40
1
41
1
10
135.558993434541
20
10.7155
30
0
41
1
10
135.64573372789
20
10.7155
30
0
41
1
10
135.732474021238
20
10.6828268855561
30
0
41
1
10
135.905954607934
20
10.5423219944269
30
0
41
1
10
135.992694901283
20
10.4344320676676
30
0
41
1
10
136.166175487979
20
10.1370275411767
30
0
41
1
10
136.252915781327
20
9.94746557601025
30
0
41
1
10
136.426396368024
20
9.48534924923479
30
0
41
1
10
136.513136661372
20
9.21277430066394
30
0
41
1
10
136.59987695472
20
8.90110840484402
30
0
0
SPLINE
5
E8
100
AcDbEntity
8
1
62
256
6
ByLayer
370
13
48
1
60
0
100
AcDbSpline
70
4
71
3
72
108
73
104
40
0
40
0
40
0
40
0
40
0.0156249999999993
40
0.0156249999999993
40
0.0312499999999987
40
0.0312499999999987
40
0.0468749999999981
40
0.0468749999999981
40
0.0624999999999974
40
0.0624999999999974
40
0.0781249999999968
40
0.0781249999999968
40
0.0937499999999962
40
0.0937499999999962
40
0.124999999999995
40
0.124999999999995
40
0.156249999999994
40
0.156249999999994
40
0.171874999999993
40
0.171874999999993
40
0.179687499999993
40
0.179687499999993
40
0.187499999999993
40
0.187499999999993
40
0.218749999999992
40
0.218749999999992
40
0.249999999999991
40
0.249999999999991
40
0.28124999999999
40
0.28124999999999
40
0.29687499999999
40
0.29687499999999
40
0.31249999999999
40
0.31249999999999
40
0.328124999999989
40
0.328124999999989
40
0.343749999999989
40
0.343749999999989
40
0.374999999999989
40
0.374999999999989
40
0.406249999999988
40
0.406249999999988
40
0.437499999999988
40
0.437499999999988
40
0.445312499999988
40
0.445312499999988
40
0.449218749999988
40
0.449218749999988
40
0.453124999999988
40
0.453124999999988
40
0.468749999999988
40
0.468749999999988
40
0.499999999999988
40
0.499999999999988
40
0.531249999999988
40
0.531249999999988
40
0.546874999999988
40
0.546874999999988
40
0.562499999999989
40
0.562499999999989
40
0.578124999999989
40
0.578124999999989
40
0.593749999999989
40
0.593749999999989
40
0.609374999999989
40
0.609374999999989
40
0.62499999999999
40
0.62499999999999
40
0.65624999999999
40
0.65624999999999
40
0.687499999999991
40
0.687499999999991
40
0.718749999999992
40
0.718749999999992
40
0.722656249999992
40
0.722656249999992
40
0.726562499999992
40
0.726562499999992
40
0.734374999999992
40
0.734374999999992
40
0.749999999999992
40
0.749999999999992
40
0.781249999999993
40
0.781249999999993
40
0.812499999999994
40
0.812499999999994
40
0.828124999999994
40
0.828124999999994
40
0.843749999999995
40
0.843749999999995
40
0.859374999999995
40
0.859374999999995
40
0.874999999999996
40
0.874999999999996
40
0.890624999999996
40
0.890624999999996
40
0.906249999999997
40
0.906249999999997
40
0.937499999999998
40
0.937499999999998
40
0.968749999999999
40
0.968749999999999
40
1
40
1
40
1
40
1
41
1
10
125.7
20
9.09343699330216
30
0
41
1
10
125.751635303181
20
8.91777474747184
30
0
41
1
10
125.803270606362
20
8.7280457003929
30
0
41
1
10
125.906541212724
20
8.32225901714313
30
0
41
1
10
125.958176515905
20
8.10620380584174
30
0
41
1
10
126.061447122267
20
7.65032233353836
30
0
41
1
10
126.113082425448
20
7.41050012746814
30
0
41
1
10
126.21635303181
20
6.91029545172069
30
0
41
1
10
126.267988334991
20
6.64991831487251
30
0
41
1
10
126.371258941354
20
6.11232543688635
30
0
41
1
10
126.422894244535
20
5.83511580027056
30
0
41
1
10
126.526164850897
20
5.26791680325806
30
0
41
1
10
126.577800154078
20
4.97793373965814
30
0
41
1
10
126.732706063621
20
4.09512664888359
30
0
41
1
10
126.835976669983
20
3.48956430278892
30
0
41
1
10
127.042517882707
20
2.27691921146649
30
0
41
1
10
127.145788489069
20
1.66996211955046
30
0
41
1
10
127.300694398612
20
0.779003659596725
30
0
41
1
10
127.352329701793
20
0.485209773812102
30
0
41
1
10
127.429782656565
20
0.0513208705828276
30
0
41
1
10
127.455600308155
20
-0.0917099860035364
30
0
41
1
10
127.507235611336
20
-0.381388573224257
30
0
41
1
10
127.533053262927
20
-0.527343242682207
30
0
41
1
10
127.66214152088
20
-1.26188726740861
30
0
41
1
10
127.765412127242
20
-1.86508730967145
30
0
41
1
10
127.971953339966
20
-3.07701948104833
30
0
41
1
10
128.075223946328
20
-3.68564408024506
30
0
41
1
10
128.281765159052
20
-4.8765319304101
30
0
41
1
10
128.385035765414
20
-5.45861785228743
30
0
41
1
10
128.539941674957
20
-6.28663870016103
30
0
41
1
10
128.591576978138
20
-6.55513087951516
30
0
41
1
10
128.6948475845
20
-7.07319989186885
30
0
41
1
10
128.746482887681
20
-7.32277097305789
30
0
41
1
10
128.849753494043
20
-7.79953344899681
30
0
41
1
10
128.901388797225
20
-8.02672015511928
30
0
41
1
10
129.004659403587
20
-8.45584221908274
30
0
41
1
10
129.056294706767
20
-8.65777438198063
30
0
41
1
10
129.211200616311
20
-9.2224550472441
30
0
41
1
10
129.314471222673
20
-9.54368327466202
30
0
41
1
10
129.521012435397
20
-10.067892544473
30
0
41
1
10
129.624283041759
20
-10.2709326335151
30
0
41
1
10
129.830824254483
20
-10.5631602029129
30
0
41
1
10
129.934094860845
20
-10.6524727865818
30
0
41
1
10
130.063183118798
20
-10.7015400335159
30
0
41
1
10
130.089000770388
20
-10.7082418333067
30
0
41
1
10
130.127727247774
20
-10.7138297313623
30
0
41
1
10
130.140636073569
20
-10.7149483746957
30
0
41
1
10
130.16645372516
20
-10.7157330240337
30
0
41
1
10
130.179362550955
20
-10.715404222218
30
0
41
1
10
130.243906679932
20
-10.7100975188348
30
0
41
1
10
130.295541983113
20
-10.6940891300043
30
0
41
1
10
130.450447892656
20
-10.6075867099168
30
0
41
1
10
130.553718499018
20
-10.4983518714299
30
0
41
1
10
130.760259711742
20
-10.164654438045
30
0
41
1
10
130.863530318104
20
-9.94007475269098
30
0
41
1
10
131.018436227647
20
-9.51493686596316
30
0
41
1
10
131.070071530828
20
-9.35860204178348
30
0
41
1
10
131.17334213719
20
-9.01755369674598
30
0
41
1
10
131.224977440371
20
-8.83284050165787
30
0
41
1
10
131.328248046733
20
-8.43669827281784
30
0
41
1
10
131.379883349914
20
-8.22527134459676
30
0
41
1
10
131.483153956276
20
-7.7781281169396
30
0
41
1
10
131.534789259457
20
-7.54241559603128
30
0
41
1
10
131.63805986582
20
-7.04980236756077
30
0
41
1
10
131.689695169001
20
-6.79290679408172
30
0
41
1
10
131.792965775363
20
-6.26156824281199
30
0
41
1
10
131.844601078544
20
-5.98713127114289
30
0
41
1
10
131.999506988087
20
-5.14351613919933
30
0
41
1
10
132.102777594449
20
-4.55405454859635
30
0
41
1
10
132.309318807173
20
-3.35454535389053
30
0
41
1
10
132.412589413535
20
-2.74466494532615
30
0
41
1
10
132.619130626259
20
-1.53548221462836
30
0
41
1
10
132.722401232621
20
-0.93627248797705
30
0
41
1
10
132.838580664779
20
-0.281829665656318
30
0
41
1
10
132.851489490574
20
-0.20938186457235
30
0
41
1
10
132.877307142165
20
-0.0650607572387401
30
0
41
1
10
132.89021596796
20
0.0066151018066876
30
0
41
1
10
132.928942445346
20
0.222625746244489
30
0
41
1
10
132.954760096936
20
0.367802939121305
30
0
41
1
10
133.032213051708
20
0.806378899665134
30
0
41
1
10
133.083848354889
20
1.10283777938133
30
0
41
1
10
133.238754264432
20
2.0001331352625
30
0
41
1
10
133.342024870794
20
2.60908687148086
30
0
41
1
10
133.548566083518
20
3.82004327917551
30
0
41
1
10
133.65183668988
20
4.42190638775025
30
0
41
1
10
133.806742599423
20
5.29450501416972
30
0
41
1
10
133.858377902604
20
5.58031574442512
30
0
41
1
10
133.961648508966
20
6.13766332482132
30
0
41
1
10
134.013283812147
20
6.40919388033558
30
0
41
1
10
134.116554418509
20
6.93402291758784
30
0
41
1
10
134.168189721691
20
7.1873155108824
30
0
41
1
10
134.271460328053
20
7.67211244115171
30
0
41
1
10
134.323095631234
20
7.90361185906147
30
0
41
1
10
134.426366237596
20
8.3418325217296
30
0
41
1
10
134.478001540777
20
8.54855027503095
30
0
41
1
10
134.581272147139
20
8.93491176534289
30
0
41
1
10
134.63290745032
20
9.11455371971505
30
0
41
1
10
134.787813359863
20
9.61058592738721
30
0
41
1
10
134.891083966225
20
9.88369452170164
30
0
41
1
10
135.097625178949
20
10.3120968880859
30
0
41
1
10
135.200895785311
20
10.4674830575449
30
0
41
1
10
135.407436998036
20
10.6691164156372
30
0
41
1
10
135.510707604397
20
10.7155
30
0
41
1
10
135.61397821076
20
10.7155
30
0
0
SPLINE
5
E9
100
AcDbEntity
8
1
62
256
6
ByLayer
370
13
48
1
60
0
100
AcDbSpline
70
4
71
3
72
22
73
18
40
0
40
0
40
0
40
0
40
0.125
40
0.125
40
0.25
40
0.25
40
0.375
40
0.375
40
0.5
40
0.5
40
0.625
40
0.625
40
0.75
40
0.75
40
0.875
40
0.875
40
1
40
1
40
1
40
1
41
1
10
135.066043790064
20
10.7155
30
0
41
1
10
135.129953505258
20
10.7155
30
0
41
1
10
135.193863220452
20
10.6977900998628
30
0
41
1
10
135.32168265084
20
10.622887645566
30
0
41
1
10
135.385592366034
20
10.565682342552
30
0
41
1
10
135.513411796422
20
10.4085857850238
30
0
41
1
10
135.577321511616
20
10.3086824973223
30
0
41
1
10
135.705140942004
20
10.0642483261496
30
0
41
1
10
135.769050657198
20
9.91970802818349
30
0
41
1
10
135.896870087586
20
9.5856491787527
30
0
41
1
10
135.96077980278
20
9.39612571682349
30
0
41
1
10
136.088599233168
20
8.97356285244408
30
0
41
1
10
136.152508948362
20
8.74052443655989
30
0
41
1
10
136.28032837875
20
8.23427051260481
30
0
41
1
10
136.344238093945
20
7.96106234759029
30
0
41
1
10
136.472057524332
20
7.37956007436395
30
0
41
1
10
136.535967239526
20
7.07127895747016
30
0
41
1
10
136.59987695472
20
6.74872212784138
30
0
0
SPLINE
5
EA
100
AcDbEntity
8
1
62
256
6
ByLayer
370
13
48
1
60
0
100
AcDbSpline
70
4
71
3
72
84
73
80
40
0
40
0
40
0
40
0
40
0.0312500000000015
40
0.0312500000000015
40
0.062500000000003
40
0.062500000000003
40
0.0937500000000044
40
0.0937500000000044
40
0.125000000000006
40
0.125000000000006
40
0.128906250000006
40
0.128906250000006
40
0.132812500000006
40
0.132812500000006
40
0.140625000000006
40
0.140625000000006
40
0.156250000000006
40
0.156250000000006
40
0.187500000000005
40
0.187500000000005
40
0.218750000000005
40
0.218750000000005
40
0.250000000000005
40
0.250000000000005
40
0.281250000000005
40
0.281250000000005
40
0.312500000000005
40
0.312500000000005
40
0.343750000000004
40
0.343750000000004
40
0.375000000000004
40
0.375000000000004
40
0.406250000000004
40
0.406250000000004
40
0.414062500000004
40
0.414062500000004
40
0.421875000000004
40
0.421875000000004
40
0.437500000000004
40
0.437500000000004
40
0.468750000000003
40
0.468750000000003
40
0.500000000000003
40
0.500000000000003
40
0.531250000000003
40
0.531250000000003
40
0.562500000000003
40
0.562500000000003
40
0.593750000000002
40
0.593750000000002
40
0.625000000000002
40
0.625000000000002
40
0.656250000000002
40
0.656250000000002
40
0.687500000000002
40
0.687500000000002
40
0.703125000000002
40
0.703125000000002
40
0.710937500000002
40
0.710937500000002
40
0.718750000000002
40
0.718750000000002
40
0.750000000000001
40
0.750000000000001
40
0.781250000000001
40
0.781250000000001
40
0.812500000000001
40
0.812500000000001
40
0.843750000000001
40
0.843750000000001
40
0.875000000000001
40
0.875000000000001
40
0.906250000000001
40
0.906250000000001
40
0.9375
40
0.9375
40
0.96875
40
0.96875
40
1
40
1
40
1
40
1
41
1
10
125.7
20
7.02264140521208
30
0
41
1
10
125.798135714232
20
6.5403139122914
30
0
41
1
10
125.896271428464
20
6.02191204460831
30
0
41
1
10
126.092542856928
20
4.93995686471845
30
0
41
1
10
126.190678571161
20
4.37655771909331
30
0
41
1
10
126.386949999625
20
3.23365746916946
30
0
41
1
10
126.485085713857
20
2.65428211997741
30
0
41
1
10
126.681357142321
20
1.50588881866216
30
0
41
1
10
126.779492856553
20
0.936940510310109
30
0
41
1
10
126.889895535064
20
0.314431147926769
30
0
41
1
10
126.902162499343
20
0.245503131160319
30
0
41
1
10
126.926696427901
20
0.108159671513135
30
0
41
1
10
126.93896339218
20
0.0398628782322419
30
0
41
1
10
126.975764285017
20
-0.165016879870962
30
0
41
1
10
127.000298213575
20
-0.302675244814537
30
0
41
1
10
127.073899999249
20
-0.718472045812916
30
0
41
1
10
127.122967856366
20
-0.999445118777601
30
0
41
1
10
127.270171427714
20
-1.85006505006351
30
0
41
1
10
127.368307141946
20
-2.42758186042505
30
0
41
1
10
127.56457857041
20
-3.57957381422491
30
0
41
1
10
127.662714284642
20
-4.15394753280714
30
0
41
1
10
127.858985713106
20
-5.27141650432387
30
0
41
1
10
127.957121427339
20
-5.81436572443528
30
0
41
1
10
128.153392855803
20
-6.84030899904076
30
0
41
1
10
128.251528570035
20
-7.3231527102179
30
0
41
1
10
128.447799998499
20
-8.20438979540941
30
0
41
1
10
128.545935712731
20
-8.60267781580629
30
0
41
1
10
128.742207141195
20
-9.29851189181906
30
0
41
1
10
128.840342855427
20
-9.59603008913047
30
0
41
1
10
129.036614283892
20
-10.0843326128495
30
0
41
1
10
129.134749998124
20
-10.2751659357332
30
0
41
1
10
129.331021426588
20
-10.5540541801971
30
0
41
1
10
129.42915714082
20
-10.6422060790933
30
0
41
1
10
129.55182678361
20
-10.6953991143386
30
0
41
1
10
129.576360712168
20
-10.7032020454349
30
0
41
1
10
129.625428569284
20
-10.7133645370729
30
0
41
1
10
129.649962497842
20
-10.7157247064486
30
0
41
1
10
129.723564283517
20
-10.7150003177182
30
0
41
1
10
129.772632140632
20
-10.7040621273638
30
0
41
1
10
129.919835711981
20
-10.6370758957757
30
0
41
1
10
130.017971426213
20
-10.5466555682724
30
0
41
1
10
130.214242854677
20
-10.2630398148217
30
0
41
1
10
130.312378568909
20
-10.0697480891823
30
0
41
1
10
130.508649997373
20
-9.57654611754111
30
0
41
1
10
130.606785711605
20
-9.27658840401907
30
0
41
1
10
130.80305714007
20
-8.57613544447543
30
0
41
1
10
130.901192854302
20
-8.17566997801887
30
0
41
1
10
131.097464282766
20
-7.29056170904124
30
0
41
1
10
131.195599996998
20
-6.80602577915809
30
0
41
1
10
131.391871425462
20
-5.77733132059834
30
0
41
1
10
131.490007139694
20
-5.23332360645176
30
0
41
1
10
131.686278568159
20
-4.1144145014641
30
0
41
1
10
131.784414282391
20
-3.5396584869857
30
0
41
1
10
131.980685710855
20
-2.38751954098396
30
0
41
1
10
132.078821425087
20
-1.8102367161643
30
0
41
1
10
132.226024996435
20
-0.960333208459588
30
0
41
1
10
132.275092853551
20
-0.679659433901236
30
0
41
1
10
132.348694639225
20
-0.264387912886008
30
0
41
1
10
132.373228567783
20
-0.127013793209045
30
0
41
1
10
132.422296424899
20
0.145960465082766
30
0
41
1
10
132.446830353457
20
0.28352520711428
30
0
41
1
10
132.569499996247
20
0.976083612864585
30
0
41
1
10
132.667635710479
20
1.54553352581806
30
0
41
1
10
132.863907138944
20
2.69437570029473
30
0
41
1
10
132.962042853176
20
3.2736969116813
30
0
41
1
10
133.15831428164
20
4.4158331578613
30
0
41
1
10
133.256449995872
20
4.97852136336832
30
0
41
1
10
133.452721424336
20
6.05838550316648
30
0
41
1
10
133.550857138568
20
6.57540713451104
30
0
41
1
10
133.747128567033
20
7.53672734565183
30
0
41
1
10
133.845264281265
20
7.98089184637098
30
0
41
1
10
134.041535709729
20
8.77560200967335
30
0
41
1
10
134.139671423961
20
9.12607801462536
30
0
41
1
10
134.335942852425
20
9.72204032988051
30
0
41
1
10
134.434078566657
20
9.96753850960391
30
0
41
1
10
134.630349995122
20
10.3525991331532
30
0
41
1
10
134.728485709354
20
10.4922386736409
30
0
41
1
10
134.924757137818
20
10.673635871884
30
0
41
1
10
135.02289285205
20
10.7155
30
0
41
1
10
135.121028566282
20
10.7155
30
0
0
SPLINE
5
EB
100
AcDbEntity
8
1
62
256
6
ByLayer
370
13
48
1
60
0
100
AcDbSpline
70
4
71
3
72
22
73
18
40
0
40
0
40
0
40
0
40
0.125
40
0.125
40
0.25
40
0.25
40
0.375
40
0.375
40
0.5
40
0.5
40
0.625
40
0.625
40
0.75
40
0.75
40
0.875
40
0.875
40
1
40
1
40
1
40
1
41
1
10
134.573094145587
20
10.7155
30
0
41
1
10
134.657543429301
20
10.7155
30
0
41
1
10
134.741992713015
20
10.6845356936963
30
0
41
1
10
134.910891280442
20
10.551589695148
30
0
41
1
10
134.995340564156
20
10.4495570428666
30
0
41
1
10
135.164239131584
20
10.1683538003105
30
0
41
1
10
135.248688415298
20
9.98914088393772
30
0
41
1
10
135.417586982726
20
9.55196907924113
30
0
41
1
10
135.50203626644
20
9.29398985201794
30
0
41
1
10
135.670934833867
20
8.70318091177256
30
0
41
1
10
135.755384117582
20
8.370362515545
30
0
41
1
10
135.924282685009
20
7.63944051353334
30
0
41
1
10
136.008731968723
20
7.2413807384861
30
0
41
1
10
136.177630536151
20
6.3943767943486
30
0
41
1
10
136.262079819865
20
5.94549936790057
30
0
41
1
10
136.430978387293
20
5.01439129402425
30
0
41
1
10
136.515427671007
20
4.53223368555027
30
0
41
1
10
136.59987695472
20
4.04264779417676
30
0
0
SPLINE
5
EC
100
AcDbEntity
8
1
62
256
6
ByLayer
370
13
48
1
60
0
100
AcDbSpline
70
4
71
3
72
85
73
81
40
0
40
0
40
0
40
0
40
0.0312499999999971
40
0.0312499999999971
40
0.0624999999999942
40
0.0624999999999942
40
0.0781249999999926
40
0.0781249999999926
40
0.0820312499999924
40
0.0820312499999924
40
0.0859374999999922
40
0.0859374999999922
40
0.0937499999999921
40
0.0937499999999921
40
0.124999999999992
40
0.124999999999992
40
0.156249999999991
40
0.156249999999991
40
0.18749999999999
40
0.18749999999999
40
0.21874999999999
40
0.21874999999999
40
0.249999999999989
40
0.249999999999989
40
0.281249999999988
40
0.281249999999988
40
0.312499999999988
40
0.312499999999988
40
0.343749999999987
40
0.343749999999987
40
0.374999999999987
40
0.374999999999987
40
0.382812499999986
40
0.386718749999986
40
0.386718749999986
40
0.390624999999987
40
0.390624999999987
40
0.406249999999987
40
0.406249999999987
40
0.437499999999989
40
0.437499999999989
40
0.46874999999999
40
0.46874999999999
40
0.499999999999991
40
0.499999999999991
40
0.531249999999992
40
0.531249999999992
40
0.562499999999994
40
0.562499999999994
40
0.593749999999995
40
0.593749999999995
40
0.624999999999996
40
0.624999999999996
40
0.656249999999998
40
0.656249999999998
40
0.687499999999999
40
0.687499999999999
40
0.695312499999999
40
0.695312499999999
40
0.703124999999999
40
0.703124999999999
40
0.718749999999999
40
0.718749999999999
40
0.749999999999999
40
0.749999999999999
40
0.781249999999999
40
0.781249999999999
40
0.812499999999999
40
0.812499999999999
40
0.84375
40
0.84375
40
0.875
40
0.875
40
0.90625
40
0.90625
40
0.9375
40
0.9375
40
0.96875
40
0.96875
40
1
40
1
40
1
40
1
41
1
10
125.7
20
4.36027188902054
30
0
41
1
10
125.793000822102
20
3.82513783992715
30
0
41
1
10
125.886001644204
20
3.27867836055384
30
0
41
1
10
126.072003288408
20
2.1865395211355
30
0
41
1
10
126.165004110511
20
1.64093079363914
30
0
41
1
10
126.304505343664
20
0.838008282721972
30
0
41
1
10
126.351005754715
20
0.572913261387157
30
0
41
1
10
126.409131268529
20
0.245971772848236
30
0
41
1
10
126.420756371292
20
0.180804012228748
30
0
41
1
10
126.444006576817
20
0.0509373588940889
30
0
41
1
10
126.45563167958
20
-0.0136072305142818
30
0
41
1
10
126.490506987868
20
-0.208135382203068
30
0
41
1
10
126.513757193394
20
-0.338769601586421
30
0
41
1
10
126.630008221021
20
-0.996120483658359
30
0
41
1
10
126.723009043123
20
-1.53557973920425
30
0
41
1
10
126.909010687328
20
-2.6238801500121
30
0
41
1
10
127.00201150943
20
-3.17266808082849
30
0
41
1
10
127.188013153634
20
-4.25730484295039
30
0
41
1
10
127.281013975736
20
-4.79305935891887
30
0
41
1
10
127.46701561994
20
-5.82701732692925
30
0
41
1
10
127.560016442043
20
-6.32510348522797
30
0
41
1
10
127.746018086247
20
-7.26008375515877
30
0
41
1
10
127.839018908349
20
-7.69686955731578
30
0
41
1
10
128.025020552553
20
-8.49009524145927
30
0
41
1
10
128.118021374655
20
-8.84646819548087
30
0
41
1
10
128.30402301886
20
-9.46694735056565
30
0
41
1
10
128.397023840962
20
-9.73104514306161
30
0
41
1
10
128.583025485166
20
-10.1634621514059
30
0
41
1
10
128.676026307268
20
-10.3318262587506
30
0
41
1
10
128.862027951473
20
-10.5770852299566
30
0
41
1
10
128.955028773575
20
-10.6540563956769
30
0
41
1
10
129.071279801202
20
-10.6994883177398
30
0
41
1
10
129.106155109491
20
-10.7093257158694
30
0
41
1
10
129.141030417779
20
-10.7136955795055
30
0
41
1
10
129.164280623305
20
-10.7154196895682
30
0
41
1
10
129.175905726067
20
-10.7156885106531
30
0
41
1
10
129.234031239881
20
-10.7141084275368
30
0
41
1
10
129.280531650932
20
-10.7034193870364
30
0
41
1
10
129.420032884085
20
-10.6406931934605
30
0
41
1
10
129.513033706188
20
-10.5578381823997
30
0
41
1
10
129.699035350392
20
-10.3003072244965
30
0
41
1
10
129.792036172494
20
-10.1255562528768
30
0
41
1
10
129.978037816698
20
-9.68033510013322
30
0
41
1
10
130.0710386388
20
-9.40982305075892
30
0
41
1
10
130.257040283005
20
-8.77704908178723
30
0
41
1
10
130.350041105107
20
-8.41479959132732
30
0
41
1
10
130.536042749311
20
-7.61089941409008
30
0
41
1
10
130.629043571413
20
-7.16931921647907
30
0
41
1
10
130.815045215617
20
-6.22623464541257
30
0
41
1
10
130.908046037719
20
-5.72484029069253
30
0
41
1
10
131.094047681924
20
-4.68593346795151
30
0
41
1
10
131.187048504026
20
-4.14853765029378
30
0
41
1
10
131.37305014823
20
-3.06222919246608
30
0
41
1
10
131.466050970332
20
-2.51340847025679
30
0
41
1
10
131.652052614537
20
-1.42640587460488
30
0
41
1
10
131.745053436639
20
-0.888274256284632
30
0
41
1
10
131.861304464266
20
-0.233214324668012
30
0
41
1
10
131.884554669792
20
-0.103304384381772
30
0
41
1
10
131.931055080843
20
0.155552157710417
30
0
41
1
10
131.954305286369
20
0.285943582294863
30
0
41
1
10
132.024055902945
20
0.67967317454989
30
0
41
1
10
132.070556313996
20
0.945577127444466
30
0
41
1
10
132.210057547149
20
1.75048565535408
30
0
41
1
10
132.303058369251
20
2.29682725932506
30
0
41
1
10
132.489060013456
20
3.38894001068633
30
0
41
1
10
132.582060835558
20
3.93463767002063
30
0
41
1
10
132.768062479762
20
5.00172023293311
30
0
41
1
10
132.861063301864
20
5.5229967970765
30
0
41
1
10
133.047064946069
20
6.51663368838868
30
0
41
1
10
133.140065768171
20
6.98887651328283
30
0
41
1
10
133.326067412375
20
7.86248302939271
30
0
41
1
10
133.419068234477
20
8.26375429247761
30
0
41
1
10
133.605069878681
20
8.9793778501494
30
0
41
1
10
133.698070700783
20
9.29368972202312
30
0
41
1
10
133.884072344988
20
9.82735972120318
30
0
41
1
10
133.97707316709
20
10.0467362194981
30
0
41
1
10
134.163074811294
20
10.3908407096161
30
0
41
1
10
134.256075633396
20
10.5156315166187
30
0
41
1
10
134.4420772776
20
10.6779202175819
30
0
41
1
10
134.535078099703
20
10.7155
30
0
41
1
10
134.628078921805
20
10.7155
30
0
0
SPLINE
5
ED
100
AcDbEntity
8
1
62
256
6
ByLayer
370
13
48
1
60
0
100
AcDbSpline
70
4
71
3
72
32
73
28
40
0
40
0
40
0
40
0
40
0.124999999999999
40
0.124999999999999
40
0.249999999999999
40
0.249999999999999
40
0.312499999999999
40
0.312499999999999
40
0.374999999999999
40
0.374999999999999
40
0.437499999999999
40
0.437499999999999
40
0.499999999999999
40
0.499999999999999
40
0.562499999999999
40
0.562499999999999
40
0.624999999999999
40
0.624999999999999
40
0.6875
40
0.6875
40
0.75
40
0.75
40
0.8125
40
0.8125
40
0.875000000000001
40
0.875000000000001
40
1
40
1
40
1
40
1
41
1
10
134.080144501109
20
10.7155
30
0
41
1
10
134.185133353343
20
10.7155
30
0
41
1
10
134.290122205577
20
10.6675514535323
30
0
41
1
10
134.500099910045
20
10.4588934589654
30
0
41
1
10
134.605088762278
20
10.2980362837357
30
0
41
1
10
134.762572040629
20
9.96545885606909
30
0
41
1
10
134.815066466746
20
9.83946330190975
30
0
41
1
10
134.92005531898
20
9.55720363627864
30
0
41
1
10
134.972549745097
20
9.40093789684278
30
0
41
1
10
135.07753859733
20
9.05896833489891
30
0
41
1
10
135.130033023447
20
8.87326470928841
30
0
41
1
10
135.235021875681
20
8.47410490956875
30
0
41
1
10
135.287516301798
20
8.2606508957173
30
0
41
1
10
135.392505154032
20
7.80849587648041
30
0
41
1
10
135.444999580149
20
7.56979889107828
30
0
41
1
10
135.549988432382
20
7.07039015508272
30
0
41
1
10
135.6024828585
20
6.8096839389128
30
0
41
1
10
135.707471710733
20
6.27007075318227
30
0
41
1
10
135.75996613685
20
5.99117029500081
30
0
41
1
10
135.864954989084
20
5.41938148681763
30
0
41
1
10
135.917449415201
20
5.12649998342974
30
0
41
1
10
136.022438267435
20
4.53115786781478
30
0
41
1
10
136.074932693551
20
4.22870379642202
30
0
41
1
10
136.179921545785
20
3.61861798229339
30
0
41
1
10
136.232415971902
20
3.31099193091288
30
0
41
1
10
136.389899250253
20
2.38666019171643
30
0
41
1
10
136.494888102487
20
1.76874413949599
30
0
41
1
10
136.59987695472
20
1.16365079813119
30
0
0
SPLINE
5
EE
100
AcDbEntity
8
1
62
256
6
ByLayer
370
13
48
1
60
0
100
AcDbSpline
70
4
71
3
72
85
73
81
40
0
40
0
40
0
40
0
40
0.0156250000000005
40
0.0156250000000005
40
0.0234375000000005
40
0.0234375000000005
40
0.0312500000000006
40
0.0312500000000006
40
0.0625
40
0.0625
40
0.0937499999999994
40
0.0937499999999994
40
0.124999999999999
40
0.124999999999999
40
0.156249999999998
40
0.156249999999998
40
0.187499999999998
40
0.187499999999998
40
0.218749999999997
40
0.218749999999997
40
0.249999999999997
40
0.249999999999997
40
0.281249999999996
40
0.281249999999996
40
0.312499999999995
40
0.312499999999995
40
0.343749999999995
40
0.343749999999995
40
0.351562499999995
40
0.351562499999995
40
0.355468749999995
40
0.355468749999995
40
0.359374999999995
40
0.374999999999995
40
0.374999999999995
40
0.406249999999996
40
0.406249999999996
40
0.437499999999997
40
0.437499999999997
40
0.468749999999998
40
0.468749999999998
40
0.499999999999999
40
0.499999999999999
40
0.53125
40
0.53125
40
0.562500000000001
40
0.562500000000001
40
0.593750000000002
40
0.593750000000002
40
0.625000000000003
40
0.625000000000003
40
0.656250000000004
40
0.656250000000004
40
0.671875000000004
40
0.671875000000004
40
0.675781250000004
40
0.675781250000004
40
0.679687500000004
40
0.679687500000004
40
0.687500000000004
40
0.687500000000004
40
0.718750000000004
40
0.718750000000004
40
0.750000000000003
40
0.750000000000003
40
0.781250000000003
40
0.781250000000003
40
0.812500000000003
40
0.812500000000003
40
0.843750000000002
40
0.843750000000002
40
0.875000000000002
40
0.875000000000002
40
0.906250000000001
40
0.906250000000001
40
0.937500000000001
40
0.937500000000001
40
0.96875
40
0.96875
40
1
40
1
40
1
40
1
41
1
10
125.7
20
1.48162603804963
30
0
41
1
10
125.743932964986
20
1.22675856516889
30
0
41
1
10
125.787865929972
20
0.973696745399906
30
0
41
1
10
125.853765377451
20
0.598176545180877
30
0
41
1
10
125.875731859944
20
0.47367986704495
30
0
41
1
10
125.91966482493
20
0.226242298078859
30
0
41
1
10
125.941631307423
20
0.103465108493651
30
0
41
1
10
126.051463719889
20
-0.507773276277476
30
0
41
1
10
126.139329649861
20
-1.01071529561557
30
0
41
1
10
126.315061509805
20
-2.03091058856535
30
0
41
1
10
126.402927439777
20
-2.54813515621507
30
0
41
1
10
126.578659299721
20
-3.57932675087386
30
0
41
1
10
126.666525229694
20
-4.09323419977892
30
0
41
1
10
126.842257089638
20
-5.09756842974537
30
0
41
1
10
126.93012301961
20
-5.58791214314789
30
0
41
1
10
127.105854879555
20
-6.52442139066531
30
0
41
1
10
127.193720809527
20
-6.97049848372234
30
0
41
1
10
127.369452669471
20
-7.79995438702545
30
0
41
1
10
127.457318599443
20
-8.1832625652934
30
0
41
1
10
127.633050459388
20
-8.87331431609499
30
0
41
1
10
127.72091638936
20
-9.18002360622933
30
0
41
1
10
127.896648249304
20
-9.70930130273942
30
0
41
1
10
127.984514179276
20
-9.93187767936377
30
0
41
1
10
128.160246039221
20
-10.2920067924374
30
0
41
1
10
128.248111969193
20
-10.4296017333179
30
0
41
1
10
128.423843829137
20
-10.6247836693751
30
0
41
1
10
128.511709759109
20
-10.6824306633942
30
0
41
1
10
128.621542171574
20
-10.7103052641042
30
0
41
1
10
128.643508654067
20
-10.7136788357241
30
0
41
1
10
128.676458377807
20
-10.7155656253896
30
0
41
1
10
128.687441619053
20
-10.7156678374542
30
0
41
1
10
128.709408101546
20
-10.7148252456962
30
0
41
1
10
128.764324307779
20
-10.7100868067005
30
0
41
1
10
128.819240514012
20
-10.6918994373877
30
0
41
1
10
128.95103940897
20
-10.6204742477491
30
0
41
1
10
129.038905338942
20
-10.5356925096751
30
0
41
1
10
129.214637198886
20
-10.2838929407525
30
0
41
1
10
129.302503128859
20
-10.1168192866957
30
0
41
1
10
129.478234988803
20
-9.69728718813639
30
0
41
1
10
129.566100918775
20
-9.44479692798888
30
0
41
1
10
129.741832778719
20
-8.8575484678797
30
0
41
1
10
129.829698708692
20
-8.52279684225064
30
0
41
1
10
130.005430568636
20
-7.78083505290184
30
0
41
1
10
130.093296498608
20
-7.37367333473546
30
0
41
1
10
130.269028358552
20
-6.50256782287326
30
0
41
1
10
130.356894288525
20
-6.03870346448005
30
0
41
1
10
130.532626148469
20
-5.07376243667343
30
0
41
1
10
130.620492078441
20
-4.57277488964777
30
0
41
1
10
130.796223938385
20
-3.55443368508006
30
0
41
1
10
130.884089868358
20
-3.03715643380414
30
0
41
1
10
131.059821728302
20
-2.00579252806361
30
0
41
1
10
131.147687658274
20
-1.4917548820159
30
0
41
1
10
131.279486553232
20
-0.735345655236443
30
0
41
1
10
131.323419518218
20
-0.485620850971827
30
0
41
1
10
131.378335724451
20
-0.177507968717066
30
0
41
1
10
131.389318965697
20
-0.116086886187219
30
0
41
1
10
131.41128544819
20
0.0063292385523255
30
0
41
1
10
131.422268689437
20
0.0673554071843796
30
0
41
1
10
131.455218413177
20
0.251487353125498
30
0
41
1
10
131.47718489567
20
0.375076339015209
30
0
41
1
10
131.587017308135
20
0.996712686992169
30
0
41
1
10
131.674883238107
20
1.50599643683921
30
0
41
1
10
131.850615098051
20
2.53356021106674
30
0
41
1
10
131.938481028023
20
3.05180139077203
30
0
41
1
10
132.114212887968
20
4.07865854271941
30
0
41
1
10
132.20207881794
20
4.58720593194533
30
0
41
1
10
132.377810677884
20
5.57402542049712
30
0
41
1
10
132.465676607856
20
6.05221030347226
30
0
41
1
10
132.641408467801
20
6.95801762603304
30
0
41
1
10
132.729274397773
20
7.38555488299889
30
0
41
1
10
132.905006257717
20
8.17281549588242
30
0
41
1
10
132.992872187689
20
8.53247849259711
30
0
41
1
10
133.168604047634
20
9.17204335683792
30
0
41
1
10
133.256469977606
20
9.45192474159711
30
0
41
1
10
133.43220183755
20
9.92654271290115
30
0
41
1
10
133.520067767522
20
10.121299833456
30
0
41
1
10
133.695799627467
20
10.4268388372397
30
0
41
1
10
133.783665557439
20
10.5376706860407
30
0
41
1
10
133.959397417383
20
10.6819702867637
30
0
41
1
10
134.047263347355
20
10.7155
30
0
41
1
10
134.135129277327
20
10.7155
30
0
0
SPLINE
5
EF
100
AcDbEntity
8
1
62
256
6
ByLayer
370
13
48
1
60
0
100
AcDbSpline
70
4
71
3
72
42
73
38
40
0
40
0
40
0
40
0
40
0.0624999999999999
40
0.0624999999999999
40
0.125
40
0.125
40
0.1875
40
0.1875
40
0.25
40
0.25
40
0.3125
40
0.3125
40
0.375
40
0.375
40
0.437499999999999
40
0.437499999999999
40
0.499999999999999
40
0.499999999999999
40
0.5625
40
0.5625
40
0.625
40
0.625
40
0.6875
40
0.6875
40
0.75
40
0.75
40
0.8125
40
0.8125
40
0.875
40
0.875
40
0.890625
40
0.890625
40
0.90625
40
0.90625
40
0.9375
40
0.9375
40
1
40
1
40
1
40
1
41
1
10
133.587194856632
20
10.7155
30
0
41
1
10
133.649959067009
20
10.7155
30
0
41
1
10
133.712723277386
20
10.6984203101361
30
0
41
1
10
133.838251698139
20
10.6262470717619
30
0
41
1
10
133.901015908516
20
10.5711418768488
30
0
41
1
10
134.02654432927
20
10.4198567699544
30
0
41
1
10
134.089308539647
20
10.3236658098459
30
0
41
1
10
134.2148369604
20
10.0883098547691
30
0
41
1
10
134.277601170777
20
9.9491360819209
30
0
41
1
10
134.403129591531
20
9.62738081845276
30
0
41
1
10
134.465893801908
20
9.44479449438427
30
0
41
1
10
134.591422222661
20
9.03745659398783
30
0
41
1
10
134.654186433038
20
8.81270540318937
30
0
41
1
10
134.779714853792
20
8.32402747350051
30
0
41
1
10
134.842479064169
20
8.06010683088559
30
0
41
1
10
134.968007484923
20
7.49773071371362
30
0
41
1
10
135.030771695299
20
7.19928653421127
30
0
41
1
10
135.156300116053
20
6.5738911969278
30
0
41
1
10
135.21906432643
20
6.24695506345071
30
0
41
1
10
135.344592747184
20
5.57158947421789
30
0
41
1
10
135.40735695756
20
5.22317666541241
30
0
41
1
10
135.532885378314
20
4.51237350785831
30
0
41
1
10
135.595649588691
20
4.14999917599894
30
0
41
1
10
135.721178009445
20
3.41879224864209
30
0
41
1
10
135.783942219822
20
3.04997313390308
30
0
41
1
10
135.909470640575
20
2.31295003720987
30
0
41
1
10
135.972234850952
20
1.94475578038595
30
0
41
1
10
136.097763271706
20
1.21525780838721
30
0
41
1
10
136.160527482083
20
0.853959640637186
30
0
41
1
10
136.238982745054
20
0.409923153174674
30
0
41
1
10
136.254673797648
20
0.321492479277936
30
0
41
1
10
136.286055902836
20
0.145455290689654
30
0
41
1
10
136.301746955431
20
0.0580133836860171
30
0
41
1
10
136.348820113213
20
-0.204063814867823
30
0
41
1
10
136.380202218402
20
-0.380536396638348
30
0
41
1
10
136.474348533967
20
-0.914381312527837
30
0
41
1
10
136.537112744344
20
-1.27621469030899
30
0
41
1
10
136.59987695472
20
-1.64133615768213
30
0
0
SPLINE
5
F0
100
AcDbEntity
8
1
62
256
6
ByLayer
370
13
48
1
60
0
100
AcDbSpline
70
4
71
3
72
79
73
75
40
0
40
0
40
0
40
0
40
0.0312499999999985
40
0.0312499999999985
40
0.062499999999997
40
0.062499999999997
40
0.0937499999999955
40
0.0937499999999955
40
0.124999999999994
40
0.124999999999994
40
0.156249999999993
40
0.156249999999993
40
0.187499999999991
40
0.187499999999991
40
0.218749999999989
40
0.218749999999989
40
0.249999999999988
40
0.249999999999988
40
0.281249999999986
40
0.281249999999986
40
0.312499999999985
40
0.312499999999985
40
0.316406249999985
40
0.316406249999985
40
0.320312499999985
40
0.328124999999985
40
0.328124999999985
40
0.343749999999986
40
0.343749999999986
40
0.374999999999986
40
0.374999999999986
40
0.406249999999987
40
0.406249999999987
40
0.437499999999988
40
0.437499999999988
40
0.468749999999988
40
0.468749999999988
40
0.499999999999989
40
0.499999999999989
40
0.53124999999999
40
0.53124999999999
40
0.562499999999991
40
0.562499999999991
40
0.593749999999991
40
0.593749999999991
40
0.624999999999992
40
0.624999999999992
40
0.656249999999993
40
0.656249999999993
40
0.664062499999993
40
0.664062499999993
40
0.671874999999993
40
0.671874999999993
40
0.687499999999993
40
0.687499999999993
40
0.718749999999994
40
0.718749999999994
40
0.749999999999995
40
0.749999999999995
40
0.781249999999995
40
0.781249999999995
40
0.812499999999996
40
0.812499999999996
40
0.843749999999997
40
0.843749999999997
40
0.874999999999997
40
0.874999999999997
40
0.906249999999998
40
0.906249999999998
40
0.937499999999999
40
0.937499999999999
40
0.968749999999999
40
0.968749999999999
40
1
40
1
40
1
40
1
41
1
10
125.7
20
-1.32237173316958
30
0
41
1
10
125.782731037842
20
-1.80082854476248
30
0
41
1
10
125.865462075684
20
-2.28648265455487
30
0
41
1
10
126.030924151369
20
-3.25803217329286
30
0
41
1
10
126.113655189211
20
-3.74388761911942
30
0
41
1
10
126.279117264895
20
-4.69931184668113
30
0
41
1
10
126.361848302737
20
-5.16882240744062
30
0
41
1
10
126.527310378422
20
-6.0741839371307
30
0
41
1
10
126.610041416264
20
-6.5099688048256
30
0
41
1
10
126.775503491948
20
-7.33157253604432
30
0
41
1
10
126.858234529791
20
-7.71733231850052
30
0
41
1
10
127.023696605475
20
-8.4255837138694
30
0
41
1
10
127.106427643317
20
-8.74803739303843
30
0
41
1
10
127.271889719002
20
-9.32088497040061
30
0
41
1
10
127.354620756844
20
-9.57126990191784
30
0
41
1
10
127.520082832528
20
-9.99642471604335
30
0
41
1
10
127.60281387037
20
-10.1712134794981
30
0
41
1
10
127.768275946055
20
-10.4466955489315
30
0
41
1
10
127.851006983897
20
-10.5474270707218
30
0
41
1
10
128.016469059581
20
-10.6804944808613
30
0
41
1
10
128.099200097423
20
-10.7128763311306
30
0
41
1
10
128.192272514996
20
-10.715655008534
30
0
41
1
10
128.202613894726
20
-10.7155004260794
30
0
41
1
10
128.223296654187
20
-10.7142557022165
30
0
41
1
10
128.254320793378
20
-10.7109812923457
30
0
41
1
10
128.285344932568
20
-10.7034026882603
30
0
41
1
10
128.34739321095
20
-10.6822971214743
30
0
41
1
10
128.388758729871
20
-10.660290787024
30
0
41
1
10
128.512855286635
20
-10.5689404032721
30
0
41
1
10
128.595586324477
20
-10.4741533899892
30
0
41
1
10
128.761048400161
20
-10.2108931033008
30
0
41
1
10
128.843779438003
20
-10.0423805217429
30
0
41
1
10
129.009241513688
20
-9.62972324219123
30
0
41
1
10
129.09197255153
20
-9.38555765812154
30
0
41
1
10
129.257434627214
20
-8.82465538969853
30
0
41
1
10
129.340165665056
20
-8.50792519306245
30
0
41
1
10
129.505627740741
20
-7.81020720838194
30
0
41
1
10
129.588358778583
20
-7.42925512830487
30
0
41
1
10
129.753820854267
20
-6.61602500352734
30
0
41
1
10
129.836551892109
20
-6.18380476653081
30
0
41
1
10
130.002013967794
20
-5.28414936128829
30
0
41
1
10
130.084745005636
20
-4.81678030803172
30
0
41
1
10
130.25020708132
20
-3.86420124950305
30
0
41
1
10
130.332938119163
20
-3.37905060330837
30
0
41
1
10
130.498400194847
20
-2.40760640625183
30
0
41
1
10
130.581131232689
20
-1.92135456350263
30
0
41
1
10
130.746593308373
20
-0.962177591546066
30
0
41
1
10
130.829324346216
20
-0.489272513866183
30
0
41
1
10
130.932738143518
20
0.0864634944190925
30
0
41
1
10
130.953420902979
20
0.201906416288551
30
0
41
1
10
130.9947864219
20
0.434632318473291
30
0
41
1
10
131.015469181361
20
0.551692141725624
30
0
41
1
10
131.077517459742
20
0.904711314466454
30
0
41
1
10
131.118882978663
20
1.14251680712957
30
0
41
1
10
131.242979535427
20
1.86106732547268
30
0
41
1
10
131.325710573269
20
2.34703273083451
30
0
41
1
10
131.491172648953
20
3.31855646748906
30
0
41
1
10
131.573903686795
20
3.80407396003261
30
0
41
1
10
131.73936576248
20
4.75810519298108
30
0
41
1
10
131.822096800322
20
5.226560133991
30
0
41
1
10
131.987558876006
20
6.12909787872775
30
0
41
1
10
132.070289913848
20
6.56311456099724
30
0
41
1
10
132.235751989533
20
7.38055705934661
30
0
41
1
10
132.318483027375
20
7.76392441856513
30
0
41
1
10
132.48394510306
20
8.46692797264487
30
0
41
1
10
132.566676140902
20
8.78652734001415
30
0
41
1
10
132.732138216586
20
9.3534125284487
30
0
41
1
10
132.814869254428
20
9.60069062373788
30
0
41
1
10
132.980331330113
20
10.0195979346106
30
0
41
1
10
133.063062367955
20
10.1912470415364
30
0
41
1
10
133.228524443639
20
10.4606114949233
30
0
41
1
10
133.311255481481
20
10.5583656137174
30
0
41
1
10
133.476717557166
20
10.6857868461544
30
0
41
1
10
133.559448595008
20
10.7155
30
0
41
1
10
133.64217963285
20
10.7155
30
0
0
SPLINE
5
F1
100
AcDbEntity
8
1
62
256
6
ByLayer
370
13
48
1
60
0
100
AcDbSpline
70
4
71
3
72
43
73
39
40
0
40
0
40
0
40
0
40
0.0625
40
0.0625
40
0.125
40
0.125
40
0.1875
40
0.1875
40
0.25
40
0.25
40
0.3125
40
0.3125
40
0.375
40
0.375
40
0.4375
40
0.4375
40
0.5
40
0.5
40
0.5625
40
0.5625
40
0.625
40
0.625
40
0.6875
40
0.6875
40
0.75
40
0.75
40
0.765624999999999
40
0.7734375
40
0.7734375
40
0.78125
40
0.78125
40
0.8125
40
0.8125
40
0.875
40
0.875
40
0.9375
40
0.9375
40
1
40
1
40
1
40
1
41
1
10
133.094245212155
20
10.7155
30
0
41
1
10
133.167279206791
20
10.7155
30
0
41
1
10
133.240313201428
20
10.6923598335444
30
0
41
1
10
133.386381190702
20
10.5938156538031
30
0
41
1
10
133.459415185339
20
10.5183868328501
30
0
41
1
10
133.605483174612
20
10.3108344446779
30
0
41
1
10
133.678517169249
20
10.1786885465444
30
0
41
1
10
133.824585158522
20
9.85559443211378
30
0
41
1
10
133.897619153159
20
9.66463126190959
30
0
41
1
10
134.043687142433
20
9.22469692993559
30
0
41
1
10
134.11672113707
20
8.97572255558541
30
0
41
1
10
134.262789126343
20
8.42375019644939
30
0
41
1
10
134.33582312098
20
8.12076300593907
30
0
41
1
10
134.481891110254
20
7.46783177223256
30
0
41
1
10
134.55492510489
20
7.11791159239289
30
0
41
1
10
134.700993094164
20
6.38073663194035
30
0
41
1
10
134.774027088801
20
5.99351462659473
30
0
41
1
10
134.920095078074
20
5.19304528746315
30
0
41
1
10
134.993129072711
20
4.77983346950222
30
0
41
1
10
135.139197061985
20
3.93933136227349
30
0
41
1
10
135.212231056622
20
3.51207305584441
30
0
41
1
10
135.358299045895
20
2.65502636757921
30
0
41
1
10
135.431333040532
20
2.22526181505714
30
0
41
1
10
135.577401029805
20
1.37349957055673
30
0
41
1
10
135.650435024442
20
0.951515497706367
30
0
41
1
10
135.741727517738
20
0.434188596395103
30
0
41
1
10
135.769115265727
20
0.279744702721729
30
0
41
1
10
135.796503013716
20
0.126558208963615
30
0
41
1
10
135.814761512375
20
0.024726359885932
30
0
41
1
10
135.823890761704
20
-0.0259698030514812
30
0
41
1
10
135.869537008353
20
-0.280561352532573
30
0
41
1
10
135.906054005671
20
-0.48657936240258
30
0
41
1
10
136.015604997626
20
-1.11032125591584
30
0
41
1
10
136.088638992263
20
-1.53379347158318
30
0
41
1
10
136.234706981537
20
-2.38732848240255
30
0
41
1
10
136.307740976173
20
-2.81737634906608
30
0
41
1
10
136.453808965447
20
-3.6735905250811
30
0
41
1
10
136.526842960084
20
-4.0997318084649
30
0
41
1
10
136.59987695472
20
-4.51811467196606
30
0
0
SPLINE
5
F2
100
AcDbEntity
8
1
62
256
6
ByLayer
370
13
48
1
60
0
100
AcDbSpline
70
4
71
3
72
80
73
76
40
0
40
0
40
0
40
0
40
0.0312500000000007
40
0.0312500000000007
40
0.0625000000000013
40
0.0625000000000013
40
0.093750000000002
40
0.093750000000002
40
0.125000000000003
40
0.125000000000003
40
0.156250000000003
40
0.156250000000003
40
0.187500000000004
40
0.187500000000004
40
0.218750000000005
40
0.218750000000005
40
0.250000000000006
40
0.250000000000006
40
0.265625000000006
40
0.265625000000006
40
0.269531250000006
40
0.269531250000006
40
0.273437500000006
40
0.281250000000006
40
0.281250000000006
40
0.312500000000006
40
0.312500000000006
40
0.343750000000007
40
0.343750000000007
40
0.375000000000007
40
0.375000000000007
40
0.406250000000007
40
0.406250000000007
40
0.437500000000008
40
0.437500000000008
40
0.468750000000008
40
0.468750000000008
40
0.500000000000008
40
0.500000000000008
40
0.531250000000008
40
0.531250000000008
40
0.562500000000009
40
0.562500000000009
40
0.593750000000009
40
0.593750000000009
40
0.625000000000009
40
0.625000000000009
40
0.632812500000009
40
0.632812500000009
40
0.636718750000009
40
0.636718750000009
40
0.640625000000009
40
0.656250000000009
40
0.656250000000009
40
0.687500000000008
40
0.687500000000008
40
0.718750000000007
40
0.718750000000007
40
0.750000000000006
40
0.750000000000006
40
0.781250000000006
40
0.781250000000006
40
0.812500000000005
40
0.812500000000005
40
0.843750000000004
40
0.843750000000004
40
0.875000000000003
40
0.875000000000003
40
0.906250000000002
40
0.906250000000002
40
0.937500000000002
40
0.937500000000002
40
0.968750000000001
40
0.968750000000001
40
1
40
1
40
1
40
1
41
1
10
125.7
20
-4.20175124864352
30
0
41
1
10
125.777596145712
20
-4.65002465349497
30
0
41
1
10
125.855192291424
20
-5.09118917032131
30
0
41
1
10
126.010384582849
20
-5.94505506799973
30
0
41
1
10
126.087980728561
20
-6.35770848117764
30
0
41
1
10
126.243173019986
20
-7.14093217935817
30
0
41
1
10
126.320769165698
20
-7.51145814376179
30
0
41
1
10
126.475961457122
20
-8.19893927333811
30
0
41
1
10
126.553557602834
20
-8.51586314514941
30
0
41
1
10
126.708749894259
20
-9.08795363728535
30
0
41
1
10
126.786346039971
20
-9.34310804364196
30
0
41
1
10
126.941538331396
20
-9.78744599620978
30
0
41
1
10
127.019134477108
20
-9.97663719291816
30
0
41
1
10
127.174326768532
20
-10.2888741856784
30
0
41
1
10
127.251922914244
20
-10.4119433016738
30
0
41
1
10
127.407115205669
20
-10.5953158932749
30
0
41
1
10
127.484711351381
20
-10.6556512997733
30
0
41
1
10
127.601105569949
20
-10.7036375310395
30
0
41
1
10
127.639903642805
20
-10.7125646947524
30
0
41
1
10
127.688401233875
20
-10.7154657307567
30
0
41
1
10
127.69810075209
20
-10.7156341809435
30
0
41
1
10
127.717499788518
20
-10.7151564828614
30
0
41
1
10
127.74659834316
20
-10.7132114080514
30
0
41
1
10
127.775696897802
20
-10.7075123673747
30
0
41
1
10
127.872692079942
20
-10.6798815892691
30
0
41
1
10
127.950288225654
20
-10.6300722992809
30
0
41
1
10
128.105480517079
20
-10.4686600550647
30
0
41
1
10
128.183076662791
20
-10.3570244338672
30
0
41
1
10
128.338268954215
20
-10.0680185836094
30
0
41
1
10
128.415865099927
20
-9.89062295832264
30
0
41
1
10
128.571057391352
20
-9.46956504175444
30
0
41
1
10
128.648653537064
20
-9.2258919063452
30
0
41
1
10
128.803845828489
20
-8.67572669607242
30
0
41
1
10
128.881441974201
20
-8.36924321940305
30
0
41
1
10
129.036634265625
20
-7.70093382499689
30
0
41
1
10
129.114230411337
20
-7.33913612925164
30
0
41
1
10
129.269422702762
20
-6.57114662217606
30
0
41
1
10
129.347018848474
20
-6.16499745383732
30
0
41
1
10
129.502211139898
20
-5.3216371199529
30
0
41
1
10
129.579807285611
20
-4.88447400748876
30
0
41
1
10
129.734999577035
20
-3.99340395293956
30
0
41
1
10
129.812595722747
20
-3.53954078972947
30
0
41
1
10
129.967788014172
20
-2.62896073676154
30
0
41
1
10
130.045384159884
20
-2.1722760988097
30
0
41
1
10
130.200576451309
20
-1.26834988056268
30
0
41
1
10
130.278172597021
20
-0.821125876231605
30
0
41
1
10
130.375167779161
20
-0.27421517891068
30
0
41
1
10
130.394566815589
20
-0.165432727513746
30
0
41
1
10
130.423665370231
20
-0.003255601563211
30
0
41
1
10
130.433364888445
20
0.0506240764740369
30
0
41
1
10
130.452763924873
20
0.158934969922512
30
0
41
1
10
130.501261515943
20
0.430529229744451
30
0
41
1
10
130.549759107013
20
0.706025920045278
30
0
41
1
10
130.666153325582
20
1.37301659762966
30
0
41
1
10
130.743749471294
20
1.82548250964214
30
0
41
1
10
130.898941762718
20
2.73509568698319
30
0
41
1
10
130.976537908431
20
3.19221923084657
30
0
41
1
10
131.131730199855
20
4.09810601686402
30
0
41
1
10
131.209326345567
20
4.5468316326743
30
0
41
1
10
131.364518636992
20
5.42171396332975
30
0
41
1
10
131.442114782704
20
5.84782406539992
30
0
41
1
10
131.597307074128
20
6.66338679655644
30
0
41
1
10
131.674903219841
20
7.0527923859938
30
0
41
1
10
131.830095511265
20
7.78241831064662
30
0
41
1
10
131.907691656977
20
8.12260100339702
30
0
41
1
10
132.062883948402
20
8.74412219029873
30
0
41
1
10
132.140480094114
20
9.02544020418802
30
0
41
1
10
132.295672385538
20
9.52334038572138
30
0
41
1
10
132.37326853125
20
9.739922285685
30
0
41
1
10
132.528460822675
20
10.1065437201241
30
0
41
1
10
132.606056968387
20
10.2566008784896
30
0
41
1
10
132.761249259812
20
10.4921773895535
30
0
41
1
10
132.838845405524
20
10.5777260535391
30
0
41
1
10
132.994037696948
20
10.6893705976565
30
0
41
1
10
133.07163384266
20
10.7155
30
0
41
1
10
133.149229988373
20
10.7155
30
0
0
SPLINE
5
F3
100
AcDbEntity
8
1
62
256
6
ByLayer
370
13
48
1
60
0
100
AcDbSpline
70
4
71
3
72
43
73
39
40
0
40
0
40
0
40
0
40
0.0624999999999983
40
0.0624999999999983
40
0.124999999999997
40
0.124999999999997
40
0.187499999999995
40
0.187499999999995
40
0.249999999999993
40
0.249999999999993
40
0.312499999999992
40
0.312499999999992
40
0.37499999999999
40
0.37499999999999
40
0.437499999999988
40
0.437499999999988
40
0.499999999999987
40
0.499999999999987
40
0.562499999999985
40
0.562499999999985
40
0.624999999999983
40
0.624999999999983
40
0.656249999999983
40
0.656249999999983
40
0.671874999999983
40
0.679687499999983
40
0.679687499999983
40
0.687499999999982
40
0.687499999999982
40
0.749999999999986
40
0.749999999999986
40
0.812499999999989
40
0.812499999999989
40
0.874999999999993
40
0.874999999999993
40
0.937499999999996
40
0.937499999999996
40
1
40
1
40
1
40
1
41
1
10
132.601295567677
20
10.7155
30
0
41
1
10
132.684599346574
20
10.7155
30
0
41
1
10
132.767903125471
20
10.6853726984441
30
0
41
1
10
132.934510683264
20
10.556123625298
30
0
41
1
10
133.017814462161
20
10.456954216948
30
0
41
1
10
133.184422019954
20
10.1836732610487
30
0
41
1
10
133.267725798851
20
10.009521778221
30
0
41
1
10
133.434333356645
20
9.58456886898205
30
0
41
1
10
133.517637135541
20
9.33374738022658
30
0
41
1
10
133.684244693335
20
8.75893316264978
30
0
41
1
10
133.767548472232
20
8.43494928767987
30
0
41
1
10
133.934156030025
20
7.72267303805649
30
0
41
1
10
134.017459808922
20
7.33441973310286
30
0
41
1
10
134.184067366715
20
6.50712837319802
30
0
41
1
10
134.267371145612
20
6.06815146281315
30
0
41
1
10
134.433978703405
20
5.15605425098974
30
0
41
1
10
134.517282482302
20
4.68300235405789
30
0
41
1
10
134.683890040096
20
3.72050958852685
30
0
41
1
10
134.767193818992
20
3.23112877335962
30
0
41
1
10
134.933801376786
20
2.25286049839551
30
0
41
1
10
135.017105155683
20
1.76401394678541
30
0
41
1
10
135.142060824028
20
1.04195934655618
30
0
41
1
10
135.183712713476
20
0.803120998961816
30
0
41
1
10
135.246190547649
20
0.448756210658644
30
0
41
1
10
135.277429464735
20
0.272544494731505
30
0
41
1
10
135.308668381821
20
0.0979762833361804
30
0
41
1
10
135.329494326545
20
-0.0180180891236148
30
0
41
1
10
135.339907298907
20
-0.0759159159750595
30
0
41
1
10
135.433624050166
20
-0.599734331141406
30
0
41
1
10
135.516927829063
20
-1.0774651764049
30
0
41
1
10
135.683535386856
20
-2.04538181333925
30
0
41
1
10
135.766839165753
20
-2.53554500081762
30
0
41
1
10
135.933446723546
20
-3.51335370054011
30
0
41
1
10
136.016750502443
20
-4.0009541192116
30
0
41
1
10
136.183358060237
20
-4.95648389552724
30
0
41
1
10
136.266661839134
20
-5.42435054523835
30
0
41
1
10
136.433269396927
20
-6.32272219667544
30
0
41
1
10
136.516573175824
20
-6.75315891225966
30
0
41
1
10
136.59987695472
20
-7.15680980771256
30
0
0
SPLINE
5
F4
100
AcDbEntity
8
1
62
256
6
ByLayer
370
13
48
1
60
0
100
AcDbSpline
70
4
71
3
72
79
73
75
40
0
40
0
40
0
40
0
40
0.0312500000000006
40
0.0312500000000006
40
0.0625000000000011
40
0.0625000000000011
40
0.0937500000000017
40
0.0937500000000017
40
0.125000000000002
40
0.125000000000002
40
0.156250000000003
40
0.156250000000003
40
0.187500000000003
40
0.187500000000003
40
0.203125000000004
40
0.203125000000004
40
0.210937500000004
40
0.214843750000004
40
0.214843750000004
40
0.218750000000004
40
0.218750000000004
40
0.250000000000003
40
0.250000000000003
40
0.281250000000002
40
0.281250000000002
40
0.312500000000001
40
0.312500000000001
40
0.34375
40
0.34375
40
0.374999999999999
40
0.374999999999999
40
0.406249999999998
40
0.406249999999998
40
0.437499999999998
40
0.437499999999998
40
0.468749999999997
40
0.468749999999997
40
0.499999999999996
40
0.499999999999996
40
0.531249999999995
40
0.531249999999995
40
0.562499999999994
40
0.562499999999994
40
0.593749999999993
40
0.593749999999993
40
0.601562499999993
40
0.601562499999993
40
0.609374999999993
40
0.609374999999993
40
0.624999999999993
40
0.624999999999993
40
0.656249999999994
40
0.656249999999994
40
0.687499999999994
40
0.687499999999994
40
0.718749999999995
40
0.718749999999995
40
0.749999999999996
40
0.749999999999996
40
0.781249999999996
40
0.781249999999996
40
0.812499999999997
40
0.812499999999997
40
0.843749999999997
40
0.843749999999997
40
0.874999999999998
40
0.874999999999998
40
0.906249999999998
40
0.906249999999998
40
0.937499999999999
40
0.937499999999999
40
0.96875
40
0.96875
40
1
40
1
40
1
40
1
41
1
10
125.7
20
-6.88658479274673
30
0
41
1
10
125.772461253582
20
-7.24759425759777
30
0
41
1
10
125.844922507164
20
-7.58958251141226
30
0
41
1
10
125.989845014329
20
-8.22642479373468
30
0
41
1
10
126.062306267911
20
-8.52125719490991
30
0
41
1
10
126.207228775076
20
-9.05718265857874
30
0
41
1
10
126.279690028658
20
-9.29826683030601
30
0
41
1
10
126.424612535822
20
-9.72310807826287
30
0
41
1
10
126.497073789405
20
-9.90686953366657
30
0
41
1
10
126.641996296569
20
-10.2165616210321
30
0
41
1
10
126.714457550151
20
-10.3425074936738
30
0
41
1
10
126.859380057316
20
-10.5388426716882
30
0
41
1
10
126.931841310898
20
-10.609253834716
30
0
41
1
10
127.040533191272
20
-10.6765618136429
30
0
41
1
10
127.076763818063
20
-10.6926280629037
30
0
41
1
10
127.131109758249
20
-10.7077013240235
30
0
41
1
10
127.158282728343
20
-10.7129824163537
30
0
41
1
10
127.185455698436
20
-10.7149871865973
30
0
41
1
10
127.203571011832
20
-10.7156079762821
30
0
41
1
10
127.212628668529
20
-10.7155622160067
30
0
41
1
10
127.294147578809
20
-10.7119342269569
30
0
41
1
10
127.366608832392
20
-10.6857055858025
30
0
41
1
10
127.511531339556
20
-10.5814776941106
30
0
41
1
10
127.583992593138
20
-10.503454610727
30
0
41
1
10
127.728915100303
20
-10.2914243445137
30
0
41
1
10
127.801376353885
20
-10.1573959516935
30
0
41
1
10
127.946298861049
20
-9.83142839584156
30
0
41
1
10
128.018760114632
20
-9.63947529494365
30
0
41
1
10
128.163682621796
20
-9.19856392956063
30
0
41
1
10
128.236143875378
20
-8.94960307258296
30
0
41
1
10
128.381066382543
20
-8.39867657305032
30
0
41
1
10
128.453527636125
20
-8.09672172672543
30
0
41
1
10
128.59845014329
20
-7.44678465344313
30
0
41
1
10
128.670911396872
20
-7.09882562398141
30
0
41
1
10
128.815833904037
20
-6.36631770308821
30
0
41
1
10
128.888295157619
20
-5.98180041314953
30
0
41
1
10
129.033217664783
20
-5.18723353579753
30
0
41
1
10
129.105678918365
20
-4.77721809389652
30
0
41
1
10
129.25060142553
20
-3.94332254820699
30
0
41
1
10
129.323062679112
20
-3.51947319933959
30
0
41
1
10
129.467985186277
20
-2.66919175042591
30
0
41
1
10
129.540446439859
20
-2.24278263895246
30
0
41
1
10
129.685368947023
20
-1.39745670140607
30
0
41
1
10
129.757830200606
20
-0.978553130235014
30
0
41
1
10
129.848406767583
20
-0.464805845523785
30
0
41
1
10
129.866522080979
20
-0.362545785161757
30
0
41
1
10
129.90275270777
20
-0.159114812872474
30
0
41
1
10
129.920868021166
20
-0.0582058342033349
30
0
41
1
10
129.975213961352
20
0.244516417462108
30
0
41
1
10
130.011444588143
20
0.4486621437878
30
0
41
1
10
130.120136468517
20
1.06678842304481
30
0
41
1
10
130.192597722099
20
1.48651701079319
30
0
41
1
10
130.337520229264
20
2.33283607769135
30
0
41
1
10
130.409981482846
20
2.75941260247004
30
0
41
1
10
130.55490399001
20
3.60926517832786
30
0
41
1
10
130.627365243592
20
4.03251759836732
30
0
41
1
10
130.772287750757
20
4.86439818516331
30
0
41
1
10
130.844749004339
20
5.27299518881247
30
0
41
1
10
130.989671511504
20
6.06391253569254
30
0
41
1
10
131.062132765086
20
6.44619870869141
30
0
41
1
10
131.20705527225
20
7.17351304752322
30
0
41
1
10
131.279516525833
20
7.51851002519439
30
0
41
1
10
131.424439032997
20
8.16194007412298
30
0
41
1
10
131.496900286579
20
8.46035072323647
30
0
41
1
10
131.641822793744
20
9.00380320306985
30
0
41
1
10
131.714284047326
20
9.24883518841526
30
0
41
1
10
131.859206554491
20
9.68172265285003
30
0
41
1
10
131.931667808073
20
9.86958162356109
30
0
41
1
10
132.076590315237
20
10.1874077718464
30
0
41
1
10
132.14905156882
20
10.3173895493844
30
0
41
1
10
132.293974075984
20
10.5215559262691
30
0
41
1
10
132.366435329566
20
10.5957620712542
30
0
41
1
10
132.511357836731
20
10.6927221808657
30
0
41
1
10
132.583819090313
20
10.7155
30
0
41
1
10
132.656280343895
20
10.7155
30
0
0
SPLINE
5
F5
100
AcDbEntity
8
1
62
256
6
ByLayer
370
13
48
1
60
0
100
AcDbSpline
70
4
71
3
72
44
73
40
40
0
40
0
40
0
40
0
40
0.0624999999999995
40
0.0624999999999995
40
0.124999999999999
40
0.124999999999999
40
0.187499999999999
40
0.187499999999999
40
0.249999999999998
40
0.249999999999998
40
0.312499999999998
40
0.312499999999998
40
0.374999999999997
40
0.374999999999997
40
0.437499999999997
40
0.437499999999997
40
0.499999999999996
40
0.499999999999996
40
0.562499999999996
40
0.562499999999996
40
0.593749999999995
40
0.593749999999995
40
0.601562499999995
40
0.601562499999995
40
0.609374999999996
40
0.609374999999996
40
0.624999999999996
40
0.624999999999996
40
0.687499999999997
40
0.687499999999997
40
0.749999999999997
40
0.749999999999997
40
0.812499999999998
40
0.812499999999998
40
0.874999999999999
40
0.874999999999999
40
0.937499999999999
40
0.937499999999999
40
1
40
1
40
1
40
1
41
1
10
132.1083459232
20
10.7155
30
0
41
1
10
132.201919486357
20
10.7155
30
0
41
1
10
132.295493049513
20
10.6774539685771
30
0
41
1
10
132.482640175827
20
10.5130895440528
30
0
41
1
10
132.576213738983
20
10.386686763612
30
0
41
1
10
132.763360865297
20
10.0381324681913
30
0
41
1
10
132.856934428453
20
9.81591661024251
30
0
41
1
10
133.044081554767
20
9.27545711118626
30
0
41
1
10
133.137655117923
20
8.95719557754475
30
0
41
1
10
133.324802244237
20
8.2328940329835
30
0
41
1
10
133.418375807393
20
7.82689720455417
30
0
41
1
10
133.605522933707
20
6.94356145403782
30
0
41
1
10
133.699096496863
20
6.46631911603794
30
0
41
1
10
133.886243623177
20
5.46296585695998
30
0
41
1
10
133.979817186333
20
4.93697634968066
30
0
41
1
10
134.166964312647
20
3.86124390402247
30
0
41
1
10
134.260537875803
20
3.31161155222912
30
0
41
1
10
134.447685002117
20
2.21273417924181
30
0
41
1
10
134.541258565274
20
1.66356278088247
30
0
41
1
10
134.681618910008
20
0.855333954705941
30
0
41
1
10
134.728405691587
20
0.588475741961872
30
0
41
1
10
134.78688916856
20
0.259364827122226
30
0
41
1
10
134.798585863954
20
0.193764889566438
30
0
41
1
10
134.821979254744
20
0.0630379079763372
30
0
41
1
10
134.833675950138
20
-0.0019257481539796
30
0
41
1
10
134.868766036322
20
-0.197568562439841
30
0
41
1
10
134.892159427111
20
-0.328960781856836
30
0
41
1
10
135.009126381057
20
-0.990167058075684
30
0
41
1
10
135.102699944214
20
-1.53292503856588
30
0
41
1
10
135.289847070527
20
-2.62793542767517
30
0
41
1
10
135.383420633684
20
-3.18013293323614
30
0
41
1
10
135.570567759997
20
-4.27127316940926
30
0
41
1
10
135.664141323154
20
-4.81011841834606
30
0
41
1
10
135.851288449467
20
-5.849476017039
30
0
41
1
10
135.944862012624
20
-6.34986732854489
30
0
41
1
10
136.132009138937
20
-7.28827997613985
30
0
41
1
10
136.225582702094
20
-7.7261901703709
30
0
41
1
10
136.412729828407
20
-8.52026529769196
30
0
41
1
10
136.506303391564
20
-8.87636261575102
30
0
41
1
10
136.59987695472
20
-9.185631929463
30
0
0
SPLINE
5
F6
100
AcDbEntity
8
1
62
256
6
ByLayer
370
13
48
1
60
0
100
AcDbSpline
70
4
71
3
72
75
73
71
40
0
40
0
40
0
40
0
40
0.0312500000000006
40
0.0312500000000006
40
0.0625000000000013
40
0.0625000000000013
40
0.0937500000000019
40
0.0937500000000019
40
0.125000000000003
40
0.125000000000003
40
0.156250000000003
40
0.156250000000003
40
0.164062500000003
40
0.164062500000003
40
0.171875000000003
40
0.187500000000003
40
0.187500000000003
40
0.218750000000003
40
0.218750000000003
40
0.250000000000003
40
0.250000000000003
40
0.281250000000003
40
0.281250000000003
40
0.312500000000003
40
0.312500000000003
40
0.343750000000002
40
0.343750000000002
40
0.375000000000002
40
0.375000000000002
40
0.406250000000002
40
0.406250000000002
40
0.437500000000002
40
0.437500000000002
40
0.468750000000002
40
0.468750000000002
40
0.500000000000002
40
0.500000000000002
40
0.531250000000002
40
0.531250000000002
40
0.562500000000002
40
0.562500000000002
40
0.578125000000002
40
0.578125000000002
40
0.593750000000002
40
0.593750000000002
40
0.625000000000002
40
0.625000000000002
40
0.656250000000001
40
0.656250000000001
40
0.687500000000001
40
0.687500000000001
40
0.718750000000001
40
0.718750000000001
40
0.750000000000001
40
0.750000000000001
40
0.781250000000001
40
0.781250000000001
40
0.812500000000001
40
0.812500000000001
40
0.843750000000001
40
0.843750000000001
40
0.875000000000001
40
0.875000000000001
40
0.90625
40
0.90625
40
0.9375
40
0.9375
40
0.96875
40
0.96875
40
1
40
1
40
1
40
1
41
1
10
125.7
20
-8.99858252230291
30
0
41
1
10
125.767326361452
20
-9.23409102412825
30
0
41
1
10
125.834652722904
20
-9.44586728418452
30
0
41
1
10
125.969305445809
20
-9.81966834100157
30
0
41
1
10
126.036631807261
20
-9.9816978494847
30
0
41
1
10
126.171284530166
20
-10.2559845865353
30
0
41
1
10
126.238610891618
20
-10.3682531428855
30
0
41
1
10
126.373263614523
20
-10.5450220527686
30
0
41
1
10
126.440589975975
20
-10.6095377203595
30
0
41
1
10
126.57524269888
20
-10.6944194739724
30
0
41
1
10
126.642569060332
20
-10.7148020980733
30
0
41
1
10
126.726727012147
20
-10.7156524021918
30
0
41
1
10
126.74355860251
20
-10.7145979027783
30
0
41
1
10
126.777221783236
20
-10.7099632064347
30
0
41
1
10
126.827716554326
20
-10.6992224819802
30
0
41
1
10
126.878211325415
20
-10.6767673472178
30
0
41
1
10
126.979200867593
20
-10.6153895423608
30
0
41
1
10
127.046527229045
20
-10.5524703971317
30
0
41
1
10
127.18117995195
20
-10.3789957099682
30
0
41
1
10
127.248506313402
20
-10.2684247667458
30
0
41
1
10
127.383159036307
20
-9.99757117566139
30
0
41
1
10
127.450485397759
20
-9.83727701516244
30
0
41
1
10
127.585138120664
20
-9.46690931095941
30
0
41
1
10
127.652464482116
20
-9.25683079015394
30
0
41
1
10
127.78711720502
20
-8.7890915011391
30
0
41
1
10
127.854443566473
20
-8.53143406934157
30
0
41
1
10
127.989096289377
20
-7.97302921741769
30
0
41
1
10
128.056422650829
20
-7.67229370156767
30
0
41
1
10
128.191075373734
20
-7.03429073352709
30
0
41
1
10
128.258401735186
20
-6.69704223209175
30
0
41
1
10
128.393054458091
20
-5.99416670897347
30
0
41
1
10
128.460380819543
20
-5.62856269812522
30
0
41
1
10
128.595033542448
20
-4.87808278387942
30
0
41
1
10
128.6623599039
20
-4.4932302857919
30
0
41
1
10
128.797012626804
20
-3.71360252590381
30
0
41
1
10
128.864338988257
20
-3.31884767426405
30
0
41
1
10
128.998991711161
20
-2.52833708314213
30
0
41
1
10
129.066318072614
20
-2.13259640819447
30
0
41
1
10
129.200970795518
20
-1.34806873164163
30
0
41
1
10
129.26829715697
20
-0.959290475245581
30
0
41
1
10
129.369286699149
20
-0.386309050278498
30
0
41
1
10
129.402949879875
20
-0.197001760355391
30
0
41
1
10
129.470276241327
20
0.177551823501858
30
0
41
1
10
129.503939422053
20
0.366592384172236
30
0
41
1
10
129.604928964232
20
0.939222927067021
30
0
41
1
10
129.672255325684
20
1.32781815598361
30
0
41
1
10
129.806908048588
20
2.11210634252277
30
0
41
1
10
129.874234410041
20
2.5077906649226
30
0
41
1
10
130.008887132945
20
3.29833559607903
30
0
41
1
10
130.076213494398
20
3.69318124546578
30
0
41
1
10
130.210866217302
20
4.47315032898646
30
0
41
1
10
130.278192578754
20
4.85825342927919
30
0
41
1
10
130.412845301659
20
5.60939634397892
30
0
41
1
10
130.480171663111
20
5.97541277820605
30
0
41
1
10
130.614824386016
20
6.67926479404298
30
0
41
1
10
130.682150747468
20
7.01707732625064
30
0
41
1
10
130.816803470372
20
7.65633780004586
30
0
41
1
10
130.884129831825
20
7.95776669189601
30
0
41
1
10
131.018782554729
20
8.51765557942974
30
0
41
1
10
131.086108916182
20
8.77610353089909
30
0
41
1
10
131.220761639086
20
9.24548269663276
30
0
41
1
10
131.288088000538
20
9.4564104232488
30
0
41
1
10
131.422740723443
20
9.8284951328705
30
0
41
1
10
131.490067084895
20
9.9896569605599
30
0
41
1
10
131.6247198078
20
10.2622268064301
30
0
41
1
10
131.692046169252
20
10.3736462452262
30
0
41
1
10
131.826698892157
20
10.5487671800672
30
0
41
1
10
131.894025253609
20
10.6124840342064
30
0
41
1
10
132.028677976513
20
10.6958421756123
30
0
41
1
10
132.096004337966
20
10.7155
30
0
41
1
10
132.163330699418
20
10.7155
30
0
0
SPLINE
5
F7
100
AcDbEntity
8
1
62
256
6
ByLayer
370
13
48
1
60
0
100
AcDbSpline
70
4
71
3
72
56
73
52
40
0
40
0
40
0
40
0
40
0.0624999999999998
40
0.0624999999999998
40
0.125
40
0.125
40
0.1875
40
0.1875
40
0.21875
40
0.21875
40
0.25
40
0.25
40
0.28125
40
0.28125
40
0.312499999999999
40
0.312499999999999
40
0.343749999999999
40
0.343749999999999
40
0.374999999999999
40
0.374999999999999
40
0.437499999999999
40
0.437499999999999
40
0.499999999999999
40
0.499999999999999
40
0.531249999999999
40
0.531249999999999
40
0.546874999999999
40
0.546874999999999
40
0.562499999999999
40
0.562499999999999
40
0.624999999999999
40
0.624999999999999
40
0.687499999999998
40
0.687499999999998
40
0.718749999999999
40
0.718749999999999
40
0.749999999999999
40
0.749999999999999
40
0.781249999999999
40
0.781249999999999
40
0.812499999999999
40
0.812499999999999
40
0.843749999999999
40
0.843749999999999
40
0.875
40
0.875
40
0.90625
40
0.90625
40
0.9375
40
0.9375
40
1
40
1
40
1
40
1
41
1
10
131.615396278722
20
10.7155
30
0
41
1
10
131.719239626139
20
10.7155
30
0
41
1
10
131.823082973556
20
10.6685977064753
30
0
41
1
10
132.030769668389
20
10.4646369755415
30
0
41
1
10
132.134613015806
20
10.3074384421105
30
0
41
1
10
132.342299710639
20
9.87405427875066
30
0
41
1
10
132.446143058056
20
9.59777450717934
30
0
41
1
10
132.60190807918
20
9.09612933202993
30
0
41
1
10
132.653829752889
20
8.91447607488499
30
0
41
1
10
132.757673100305
20
8.52386578902426
30
0
41
1
10
132.809594774014
20
8.31491066383683
30
0
41
1
10
132.91343812143
20
7.87205878331679
30
0
41
1
10
132.965359795139
20
7.63816568996836
30
0
41
1
10
133.069203142555
20
7.14850538392236
30
0
41
1
10
133.121124816263
20
6.89274329011488
30
0
41
1
10
133.22496816368
20
6.36298476759214
30
0
41
1
10
133.276889837388
20
6.08899443101029
30
0
41
1
10
133.380733184805
20
5.52682128177142
30
0
41
1
10
133.432654858513
20
5.23864494581582
30
0
41
1
10
133.588419879638
20
4.3592067886585
30
0
41
1
10
133.692263227055
20
3.75313509364295
30
0
41
1
10
133.899949921888
20
2.53492732926909
30
0
41
1
10
134.003793269305
20
1.92293174281099
30
0
41
1
10
134.15955829043
20
1.02209882001702
30
0
41
1
10
134.211479964138
20
0.724629449548985
30
0
41
1
10
134.289362474701
20
0.28479150676543
30
0
41
1
10
134.315323311555
20
0.139291841701748
30
0
41
1
10
134.367244985263
20
-0.149510168530753
30
0
41
1
10
134.393205822117
20
-0.295119408973108
30
0
41
1
10
134.523010006388
20
-1.02843120563171
30
0
41
1
10
134.626853353805
20
-1.63224449730743
30
0
41
1
10
134.834540048638
20
-2.84917593362715
30
0
41
1
10
134.938383396054
20
-3.4621941987009
30
0
41
1
10
135.094148417179
20
-4.36482387703208
30
0
41
1
10
135.146070090888
20
-4.66284125648315
30
0
41
1
10
135.249913438304
20
-5.24889847774534
30
0
41
1
10
135.301835112013
20
-5.53693205155517
30
0
41
1
10
135.405678459429
20
-6.09877038488014
30
0
41
1
10
135.457600133138
20
-6.37256866866511
30
0
41
1
10
135.561443480554
20
-6.90189743260754
30
0
41
1
10
135.613365154263
20
-7.1574218287968
30
0
41
1
10
135.717208501679
20
-7.64656688989453
30
0
41
1
10
135.769130175387
20
-7.88018245057222
30
0
41
1
10
135.872973522804
20
-8.32244703774117
30
0
41
1
10
135.924895196512
20
-8.53109242164737
30
0
41
1
10
136.028738543929
20
-8.92105991844005
30
0
41
1
10
136.080660217637
20
-9.1023801494598
30
0
41
1
10
136.184503565054
20
-9.43613050271935
30
0
41
1
10
136.236425238762
20
-9.5885605793768
30
0
41
1
10
136.392190259887
20
-10.001393719042
30
0
41
1
10
136.496033607304
20
-10.2169832439573
30
0
41
1
10
136.59987695472
20
-10.3745698573501
30
0
0
SPLINE
5
F8
100
AcDbEntity
8
1
62
256
6
ByLayer
370
13
48
1
60
0
100
AcDbSpline
70
4
71
3
72
78
73
74
40
0
40
0
40
0
40
0
40
0.0312499999999996
40
0.0312499999999996
40
0.0624999999999992
40
0.0624999999999992
40
0.0781249999999992
40
0.0781249999999992
40
0.0859374999999992
40
0.0859374999999992
40
0.0937499999999992
40
0.0937499999999992
40
0.124999999999999
40
0.124999999999999
40
0.156249999999999
40
0.156249999999999
40
0.187499999999999
40
0.187499999999999
40
0.218749999999999
40
0.218749999999999
40
0.249999999999999
40
0.249999999999999
40
0.281249999999999
40
0.281249999999999
40
0.312499999999999
40
0.312499999999999
40
0.343749999999999
40
0.343749999999999
40
0.374999999999999
40
0.374999999999999
40
0.406249999999999
40
0.406249999999999
40
0.437499999999999
40
0.437499999999999
40
0.468749999999999
40
0.468749999999999
40
0.499999999999999
40
0.499999999999999
40
0.531249999999999
40
0.531249999999999
40
0.539062499999999
40
0.539062499999999
40
0.546874999999999
40
0.546874999999999
40
0.562499999999999
40
0.562499999999999
40
0.593749999999999
40
0.593749999999999
40
0.624999999999999
40
0.624999999999999
40
0.656249999999999
40
0.656249999999999
40
0.687499999999999
40
0.687499999999999
40
0.718749999999999
40
0.718749999999999
40
0.75
40
0.75
40
0.78125
40
0.78125
40
0.8125
40
0.8125
40
0.84375
40
0.84375
40
0.875
40
0.875
40
0.90625
40
0.90625
40
0.9375
40
0.9375
40
0.96875
40
0.96875
40
1
40
1
40
1
40
1
41
1
10
125.7
20
-10.2857284029647
30
0
41
1
10
125.762191469322
20
-10.3923458440665
30
0
41
1
10
125.824382938645
20
-10.478027686937
30
0
41
1
10
125.948765877289
20
-10.6096362003593
30
0
41
1
10
126.010957346612
20
-10.6555736883098
30
0
41
1
10
126.104244550595
20
-10.6970508171838
30
0
41
1
10
126.135340285256
20
-10.7063121537585
30
0
41
1
10
126.181983887248
20
-10.7137077019323
30
0
41
1
10
126.197531754578
20
-10.715090457715
30
0
41
1
10
126.22862748924
20
-10.7157528276009
30
0
41
1
10
126.24417535657
20
-10.7150394942577
30
0
41
1
10
126.321914693223
20
-10.7061154811481
30
0
41
1
10
126.384106162545
20
-10.6817856310166
30
0
41
1
10
126.50848910119
20
-10.5951292008032
30
0
41
1
10
126.570680570512
20
-10.5327914923268
30
0
41
1
10
126.695063509157
20
-10.3673362126649
30
0
41
1
10
126.757254978479
20
-10.2642083717515
30
0
41
1
10
126.881637917124
20
-10.0155698898867
30
0
41
1
10
126.943829386446
20
-9.87005143293032
30
0
41
1
10
127.06821232509
20
-9.53648659796281
30
0
41
1
10
127.130403794413
20
-9.3484363899959
30
0
41
1
10
127.254786733057
20
-8.93130117211538
30
0
41
1
10
127.31697820238
20
-8.70221741117251
30
0
41
1
10
127.441361141024
20
-8.20618880603661
30
0
41
1
10
127.503552610347
20
-7.93925060627427
30
0
41
1
10
127.627935548991
20
-7.37224939177196
30
0
41
1
10
127.690127018314
20
-7.07219778866312
30
0
41
1
10
127.814509956958
20
-6.44499436740023
30
0
41
1
10
127.87670142628
20
-6.11785723871185
30
0
41
1
10
128.001084364925
20
-5.44339766184376
30
0
41
1
10
128.063275834247
20
-5.0960911567889
30
0
41
1
10
128.187658772892
20
-4.38863033283019
30
0
41
1
10
128.249850242214
20
-4.02849111428435
30
0
41
1
10
128.374233180859
20
-3.3026513089529
30
0
41
1
10
128.436424650181
20
-2.93696325434985
30
0
41
1
10
128.560807588826
20
-2.2068404663618
30
0
41
1
10
128.622999058148
20
-1.84241463298653
30
0
41
1
10
128.747381996793
20
-1.12083428145036
30
0
41
1
10
128.809573466115
20
-0.76368470726652
30
0
41
1
10
128.887312802768
20
-0.324925462292072
30
0
41
1
10
128.902860670098
20
-0.237554890176739
30
0
41
1
10
128.93395640476
20
-0.0636439066811931
30
0
41
1
10
128.94950427209
20
0.0226276082598247
30
0
41
1
10
128.996147874082
20
0.283098678391525
30
0
41
1
10
129.027243608743
20
0.458429082556279
30
0
41
1
10
129.120530812726
20
0.9886404903543
30
0
41
1
10
129.182722282049
20
1.34777408689743
30
0
41
1
10
129.307105220693
20
2.07213546949927
30
0
41
1
10
129.369296690016
20
2.43735748592457
30
0
41
1
10
129.49367962866
20
3.16769652869658
30
0
41
1
10
129.555871097982
20
3.53280383917396
30
0
41
1
10
129.680254036627
20
4.25597571873664
30
0
41
1
10
129.742445505949
20
4.61402710172658
30
0
41
1
10
129.866828444594
20
5.3157569226338
30
0
41
1
10
129.929019913916
20
5.65941992124931
30
0
41
1
10
130.053402852561
20
6.32508515879709
30
0
41
1
10
130.115594321883
20
6.64707153947586
30
0
41
1
10
130.239977260528
20
7.26261521266002
30
0
41
1
10
130.30216872985
20
7.55615834902449
30
0
41
1
10
130.426551668494
20
8.1090252479365
30
0
41
1
10
130.488743137817
20
8.36833850412791
30
0
41
1
10
130.613126076461
20
8.84831053226711
30
0
41
1
10
130.675317545784
20
9.06896377573352
30
0
41
1
10
130.799700484428
20
9.46878077327455
30
0
41
1
10
130.861891953751
20
9.64794440402315
30
0
41
1
10
130.986274892395
20
9.96363279832619
30
0
41
1
10
131.048466361717
20
10.100162342335
30
0
41
1
10
131.172849300362
20
10.3310461842448
30
0
41
1
10
131.235040769684
20
10.425408949648
30
0
41
1
10
131.359423708329
20
10.5738318686651
30
0
41
1
10
131.421615177651
20
10.6279026010423
30
0
41
1
10
131.545998116296
20
10.6987311045239
30
0
41
1
10
131.608189585618
20
10.7155
30
0
41
1
10
131.67038105494
20
10.7155
30
0
0
SPLINE
5
F9
100
AcDbEntity
8
1
62
256
6
ByLayer
370
13
48
1
60
0
100
AcDbSpline
70
4
71
3
72
78
73
74
40
0
40
0
40
0
40
0
40
0.0312499999999992
40
0.0312499999999992
40
0.0624999999999983
40
0.0624999999999983
40
0.0937499999999975
40
0.0937499999999975
40
0.124999999999997
40
0.124999999999997
40
0.156249999999996
40
0.156249999999996
40
0.187499999999995
40
0.187499999999995
40
0.218749999999994
40
0.218749999999994
40
0.249999999999994
40
0.249999999999994
40
0.281249999999993
40
0.281249999999993
40
0.312499999999992
40
0.312499999999992
40
0.343749999999991
40
0.343749999999991
40
0.374999999999991
40
0.374999999999991
40
0.40624999999999
40
0.40624999999999
40
0.437499999999989
40
0.437499999999989
40
0.468749999999989
40
0.468749999999989
40
0.484374999999988
40
0.484374999999988
40
0.492187499999988
40
0.492187499999988
40
0.499999999999988
40
0.499999999999988
40
0.531249999999988
40
0.531249999999988
40
0.562499999999989
40
0.562499999999989
40
0.59374999999999
40
0.59374999999999
40
0.624999999999991
40
0.624999999999991
40
0.656249999999991
40
0.656249999999991
40
0.687499999999992
40
0.687499999999992
40
0.718749999999993
40
0.718749999999993
40
0.749999999999993
40
0.749999999999993
40
0.781249999999994
40
0.781249999999994
40
0.812499999999995
40
0.812499999999995
40
0.843749999999996
40
0.843749999999996
40
0.874999999999997
40
0.874999999999997
40
0.906249999999998
40
0.906249999999998
40
0.937499999999998
40
0.937499999999998
40
0.968749999999999
40
0.968749999999999
40
0.984375
40
0.984375
40
0.9921875
40
0.9921875
40
1
40
1
40
1
40
1
41
1
10
131.122446634245
20
10.7155
30
0
41
1
10
131.179503200083
20
10.7155
30
0
41
1
10
131.236559765922
20
10.7013894412271
30
0
41
1
10
131.350672897598
20
10.642028741214
30
0
41
1
10
131.407729463437
20
10.5967713749187
30
0
41
1
10
131.521842595113
20
10.4727203374843
30
0
41
1
10
131.578899160951
20
10.3939196576759
30
0
41
1
10
131.693012292628
20
10.2011369047249
30
0
41
1
10
131.750068858466
20
10.0871488813079
30
0
41
1
10
131.864181990143
20
9.82329577039556
30
0
41
1
10
131.921238555981
20
9.67342667344377
30
0
41
1
10
132.035351687658
20
9.33821796978268
30
0
41
1
10
132.092408253496
20
9.15287705266516
30
0
41
1
10
132.206521385172
20
8.74831603621698
30
0
41
1
10
132.263577951011
20
8.52909778495052
30
0
41
1
10
132.377691082687
20
8.05955155887943
30
0
41
1
10
132.434747648526
20
7.80922861687685
30
0
41
1
10
132.548860780202
20
7.2813170238324
30
0
41
1
10
132.60591734604
20
7.00373613663757
30
0
41
1
10
132.720030477717
20
6.42603304752188
30
0
41
1
10
132.777087043555
20
6.12592047152236
30
0
41
1
10
132.891200175232
20
5.50849420319619
30
0
41
1
10
132.94825674107
20
5.1911908783942
30
0
41
1
10
133.062369872747
20
4.54503469684491
30
0
41
1
10
133.119426438585
20
4.21619179403106
30
0
41
1
10
133.233539570262
20
3.55261016690071
30
0
41
1
10
133.2905961361
20
3.21788000087534
30
0
41
1
10
133.404709267776
20
2.54789841254586
30
0
41
1
10
133.461765833615
20
2.2126534893672
30
0
41
1
10
133.575878965291
20
1.54650969645607
30
0
41
1
10
133.63293553113
20
1.21561497756679
30
0
41
1
10
133.718520379887
20
0.725682083197938
30
0
41
1
10
133.747048662806
20
0.563433725082632
30
0
41
1
10
133.789841087185
20
0.321995603421328
30
0
41
1
10
133.804105228644
20
0.241838257226789
30
0
41
1
10
133.832633511564
20
0.0822198341292619
30
0
41
1
10
133.846897653023
20
0.0030016507729158
30
0
41
1
10
133.918218360321
20
-0.394784008159775
30
0
41
1
10
133.975274926159
20
-0.718756348425785
30
0
41
1
10
134.089388057836
20
-1.37462608386173
30
0
41
1
10
134.146444623674
20
-1.7065212681407
30
0
41
1
10
134.260557755351
20
-2.37392669464256
30
0
41
1
10
134.317614321189
20
-2.70943240446448
30
0
41
1
10
134.431727452866
20
-3.37910207669159
30
0
41
1
10
134.488784018704
20
-3.71325917995207
30
0
41
1
10
134.602897150381
20
-4.37479919965861
30
0
41
1
10
134.659953716219
20
-4.70217327946747
30
0
41
1
10
134.774066847895
20
-5.3444763545383
30
0
41
1
10
134.831123413734
20
-5.65939525655705
30
0
41
1
10
134.94523654541
20
-6.27116573274458
30
0
41
1
10
135.002293111248
20
-6.56800697884327
30
0
41
1
10
135.116406242925
20
-7.13835909622676
30
0
41
1
10
135.173462808763
20
-7.41186056921919
30
0
41
1
10
135.28757594044
20
-7.93092977373701
30
0
41
1
10
135.344632506278
20
-8.17649013077457
30
0
41
1
10
135.458745637955
20
-8.63598910332774
30
0
41
1
10
135.515802203793
20
-8.84992317929607
30
0
41
1
10
135.62991533547
20
-9.24357847305799
30
0
41
1
10
135.686971901308
20
-9.42329836425063
30
0
41
1
10
135.801085032985
20
-9.74712006586236
30
0
41
1
10
135.858141598823
20
-9.8912236608995
30
0
41
1
10
135.972254730499
20
-10.1435857296048
30
0
41
1
10
136.029311296338
20
-10.2518485809535
30
0
41
1
10
136.143424428014
20
-10.4333855095733
30
0
41
1
10
136.200480993852
20
-10.5066657673384
30
0
41
1
10
136.314594125529
20
-10.6200156107797
30
0
41
1
10
136.371650691367
20
-10.6600922936105
30
0
41
1
10
136.457235540125
20
-10.6971722300522
30
0
41
1
10
136.485763823044
20
-10.705697960921
30
0
41
1
10
136.528556247423
20
-10.7130054973825
30
0
41
1
10
136.542820388882
20
-10.7145280563418
30
0
41
1
10
136.571348671801
20
-10.7157940557906
30
0
41
1
10
136.585612813261
20
-10.7155446760768
30
0
41
1
10
136.59987695472
20
-10.7144029026691
30
0
0
SPLINE
5
FA
100
AcDbEntity
8
1
62
256
6
ByLayer
370
13
48
1
60
0
100
AcDbSpline
70
4
71
3
72
76
73
72
40
0
40
0
40
0
40
0
40
0.0078124999999998
40
0.0078124999999998
40
0.0156249999999996
40
0.0312499999999991
40
0.0312499999999991
40
0.0624999999999987
40
0.0624999999999987
40
0.0937499999999983
40
0.0937499999999983
40
0.124999999999998
40
0.124999999999998
40
0.156249999999997
40
0.156249999999997
40
0.187499999999997
40
0.187499999999997
40
0.218749999999996
40
0.218749999999996
40
0.249999999999996
40
0.249999999999996
40
0.281249999999996
40
0.281249999999996
40
0.312499999999995
40
0.312499999999995
40
0.343749999999995
40
0.343749999999995
40
0.374999999999994
40
0.374999999999994
40
0.406249999999994
40
0.406249999999994
40
0.437499999999993
40
0.437499999999993
40
0.468749999999993
40
0.468749999999993
40
0.499999999999993
40
0.499999999999993
40
0.507812499999993
40
0.507812499999993
40
0.515624999999993
40
0.531249999999993
40
0.531249999999993
40
0.562499999999993
40
0.562499999999993
40
0.593749999999994
40
0.593749999999994
40
0.624999999999994
40
0.624999999999994
40
0.656249999999995
40
0.656249999999995
40
0.687499999999995
40
0.687499999999995
40
0.718749999999996
40
0.718749999999996
40
0.749999999999996
40
0.749999999999996
40
0.781249999999996
40
0.781249999999996
40
0.812499999999997
40
0.812499999999997
40
0.843749999999997
40
0.843749999999997
40
0.874999999999998
40
0.874999999999998
40
0.906249999999998
40
0.906249999999998
40
0.937499999999999
40
0.937499999999999
40
0.968749999999999
40
0.968749999999999
40
1
40
1
40
1
40
1
41
1
10
125.7
20
-10.7144028154193
30
0
41
1
10
125.714264144298
20
-10.7155446347161
30
0
41
1
10
125.728528288596
20
-10.7157940589475
30
0
41
1
10
125.757056577192
20
-10.7145281491664
30
0
41
1
10
125.799849010087
20
-10.7099610544445
30
0
41
1
10
125.842641442981
20
-10.6971725954108
30
0
41
1
10
125.928226308769
20
-10.6600929353383
30
0
41
1
10
125.985282885962
20
-10.6200164392194
30
0
41
1
10
126.099396040346
20
-10.5066669689518
30
0
41
1
10
126.156452617539
20
-10.4333868976385
30
0
41
1
10
126.270565771923
20
-10.2518503357732
30
0
41
1
10
126.327622349116
20
-10.1435876647131
30
0
41
1
10
126.4417355035
20
-9.89122594419115
30
0
41
1
10
126.498792080693
20
-9.74712251703198
30
0
41
1
10
126.612905235077
20
-9.42330113265959
30
0
41
1
10
126.66996181227
20
-9.24358139081087
30
0
41
1
10
126.784074966654
20
-8.84992637174048
30
0
41
1
10
126.841131543846
20
-8.63599242110431
30
0
41
1
10
126.955244698231
20
-8.17649367088598
30
0
41
1
10
127.012301275423
20
-7.93093341084017
30
0
41
1
10
127.126414429808
20
-7.41186436919472
30
0
41
1
10
127.183471007
20
-7.1383629620783
30
0
41
1
10
127.297584161385
20
-6.56801094434459
30
0
41
1
10
127.354640738577
20
-6.27116973202209
30
0
41
1
10
127.468753892962
20
-5.65939929211746
30
0
41
1
10
127.525810470154
20
-5.34448039261417
30
0
41
1
10
127.639923624539
20
-4.70217729378979
30
0
41
1
10
127.696980201731
20
-4.37480318772521
30
0
41
1
10
127.811093356116
20
-3.71326309052111
30
0
41
1
10
127.868149933308
20
-3.37910593603422
30
0
41
1
10
127.982263087693
20
-2.70943614103885
30
0
41
1
10
128.039319664885
20
-2.37393035969026
30
0
41
1
10
128.15343281927
20
-1.70652477489395
30
0
41
1
10
128.210489396462
20
-1.37462950386023
30
0
41
1
10
128.324602550847
20
-0.718759584721482
30
0
41
1
10
128.381659128039
20
-0.394787147517178
30
0
41
1
10
128.45297984953
20
0.0029986360364944
30
0
41
1
10
128.467243993828
20
0.0822168253269524
30
0
41
1
10
128.495772282424
20
0.241835262736373
30
0
41
1
10
128.538564715318
20
0.482306574370711
30
0
41
1
10
128.581357148212
20
0.725679138520093
30
0
41
1
10
128.666942014001
20
1.21561209239337
30
0
41
1
10
128.723998591193
20
1.54650685838075
30
0
41
1
10
128.838111745578
20
2.21265075991985
30
0
41
1
10
128.89516832277
20
2.54789574463081
30
0
41
1
10
129.009281477155
20
3.21787746916328
30
0
41
1
10
129.066338054347
20
3.55260770985873
30
0
41
1
10
129.180451208732
20
4.21618949726559
30
0
41
1
10
129.237507785924
20
4.54503248568156
30
0
41
1
10
129.351620940309
20
5.19118884633133
30
0
41
1
10
129.408677517501
20
5.50849226462381
30
0
41
1
10
129.522790671886
20
6.12591872413057
30
0
41
1
10
129.579847249078
20
6.4260313978096
30
0
41
1
10
129.693960403463
20
7.00373468241065
30
0
41
1
10
129.751016980655
20
7.28131566739941
30
0
41
1
10
129.86513013504
20
7.80922745205237
30
0
41
1
10
129.922186712232
20
8.05955048785808
30
0
41
1
10
130.036299866617
20
8.52909689377577
30
0
41
1
10
130.093356443809
20
8.7483152310765
30
0
41
1
10
130.207469598194
20
9.15287640869579
30
0
41
1
10
130.264526175386
20
9.33821740094436
30
0
41
1
10
130.378639329771
20
9.67342624170323
30
0
41
1
10
130.435695906963
20
9.82329540062
30
0
41
1
10
130.549809061348
20
10.0871486210143
30
0
41
1
10
130.60686563854
20
10.2011366919503
30
0
41
1
10
130.720978792925
20
10.3939195251832
30
0
41
1
10
130.778035370117
20
10.4727202377593
30
0
41
1
10
130.892148524501
20
10.5967713265296
30
0
41
1
10
130.949205101694
20
10.6420287113997
30
0
41
1
10
131.063318256078
20
10.7013894356038
30
0
41
1
10
131.120374833271
20
10.7155
30
0
41
1
10
131.177431410463
20
10.7155
30
0
0
SPLINE
5
FB
100
AcDbEntity
8
1
62
256
6
ByLayer
370
13
48
1
60
0
100
AcDbSpline
70
4
71
3
72
77
73
73
40
0
40
0
40
0
40
0
40
0.0312499999999999
40
0.0312499999999999
40
0.0624999999999998
40
0.0624999999999998
40
0.0937499999999998
40
0.0937499999999998
40
0.125
40
0.125
40
0.15625
40
0.15625
40
0.1875
40
0.1875
40
0.21875
40
0.21875
40
0.25
40
0.25
40
0.28125
40
0.28125
40
0.3125
40
0.3125
40
0.343749999999999
40
0.343749999999999
40
0.374999999999999
40
0.374999999999999
40
0.406249999999999
40
0.406249999999999
40
0.437499999999999
40
0.437499999999999
40
0.453124999999999
40
0.453124999999999
40
0.460937499999999
40
0.460937499999999
40
0.468749999999999
40
0.468749999999999
40
0.499999999999999
40
0.499999999999999
40
0.531249999999999
40
0.531249999999999
40
0.562499999999999
40
0.562499999999999
40
0.593749999999999
40
0.593749999999999
40
0.624999999999999
40
0.624999999999999
40
0.656249999999999
40
0.656249999999999
40
0.687499999999999
40
0.687499999999999
40
0.718749999999999
40
0.718749999999999
40
0.749999999999999
40
0.749999999999999
40
0.781249999999998
40
0.781249999999998
40
0.812499999999998
40
0.812499999999998
40
0.843749999999998
40
0.843749999999998
40
0.874999999999998
40
0.874999999999998
40
0.906249999999998
40
0.906249999999998
40
0.914062499999998
40
0.914062499999998
40
0.921874999999998
40
0.937499999999998
40
0.937499999999998
40
0.968749999999999
40
0.968749999999999
40
1
40
1
40
1
40
1
41
1
10
130.629496989768
20
10.7155
30
0
41
1
10
130.691688447736
20
10.7155
30
0
41
1
10
130.753879905704
20
10.6987311106566
30
0
41
1
10
130.878262821641
20
10.6279026337021
30
0
41
1
10
130.940454279609
20
10.5738319217294
30
0
41
1
10
131.064837195545
20
10.4254090591654
30
0
41
1
10
131.127028653514
20
10.33104632982
30
0
41
1
10
131.25141156945
20
10.1001625761233
30
0
41
1
10
131.313603027419
20
9.9636330842759
30
0
41
1
10
131.437985943355
20
9.64794480968038
30
0
41
1
10
131.500177401323
20
9.46878124647907
30
0
41
1
10
131.62456031726
20
9.06896439742283
30
0
41
1
10
131.686751775228
20
8.84831123488897
30
0
41
1
10
131.811134691165
20
8.36833937878291
30
0
41
1
10
131.873326149133
20
8.10902621368118
30
0
41
1
10
131.997709065069
20
7.55615950290655
30
0
41
1
10
132.059900523038
20
7.26261646357452
30
0
41
1
10
132.184283438974
20
6.64707298561524
30
0
41
1
10
132.246474896942
20
6.32508670311208
30
0
41
1
10
132.370857812879
20
5.65942165818308
30
0
41
1
10
132.433049270847
20
5.31575875399534
30
0
41
1
10
132.557432186784
20
4.61402911372187
30
0
41
1
10
132.619623644752
20
4.25597781692647
30
0
41
1
10
132.744006560688
20
3.5328060978581
30
0
41
1
10
132.806198018657
20
3.16769886167447
30
0
41
1
10
132.930580934593
20
2.43735995300545
30
0
41
1
10
132.992772392561
20
2.0721379963889
30
0
41
1
10
133.117155308498
20
1.34777671751021
30
0
41
1
10
133.179346766466
20
0.988643164885588
30
0
41
1
10
133.272633953419
20
0.458431810827619
30
0
41
1
10
133.303729682403
20
0.283101422561572
30
0
41
1
10
133.350373275879
20
0.0226303732966073
30
0
41
1
10
133.365921140371
20
-0.0636411216013357
30
0
41
1
10
133.397016869355
20
-0.237552055470445
30
0
41
1
10
133.412564733847
20
-0.324922602973459
30
0
41
1
10
133.490304056308
20
-0.763681726100145
30
0
41
1
10
133.552495514276
20
-1.12083120666875
30
0
41
1
10
133.676878430212
20
-1.84241138444378
30
0
41
1
10
133.739069888181
20
-2.20683713768901
30
0
41
1
10
133.863452804117
20
-2.9369597849529
30
0
41
1
10
133.925644262085
20
-3.30264777898213
30
0
41
1
10
134.050027178022
20
-4.02848748852273
30
0
41
1
10
134.11221863599
20
-4.3886266718736
30
0
41
1
10
134.236601551927
20
-5.09608745572851
30
0
41
1
10
134.298793009895
20
-5.44339395589452
30
0
41
1
10
134.423175925831
20
-6.11785355666322
30
0
41
1
10
134.4853673838
20
-6.44499071415493
30
0
41
1
10
134.609750299736
20
-7.07219422803399
30
0
41
1
10
134.671941757705
20
-7.37224589496023
30
0
41
1
10
134.796324673641
20
-7.93924727109067
30
0
41
1
10
134.858516131609
20
-8.2061855686575
30
0
41
1
10
134.982899047546
20
-8.70221440005574
30
0
41
1
10
135.045090505514
20
-8.93129828944055
30
0
41
1
10
135.169473421451
20
-9.348433789534
30
0
41
1
10
135.231664879419
20
-9.53648415124948
30
0
41
1
10
135.356047795355
20
-9.87004931232499
30
0
41
1
10
135.418239253324
20
-10.0155679416162
30
0
41
1
10
135.54262216926
20
-10.2642067793733
30
0
41
1
10
135.604813627229
20
-10.3673348038217
30
0
41
1
10
135.729196543165
20
-10.532790454442
30
0
41
1
10
135.791388001133
20
-10.5951283503245
30
0
41
1
10
135.91577091707
20
-10.6817851525699
30
0
41
1
10
135.977962375038
20
-10.7061151873165
30
0
41
1
10
136.055701697498
20
-10.7150394259716
30
0
41
1
10
136.07124956199
20
-10.7157528038415
30
0
41
1
10
136.102345290974
20
-10.7150905239166
30
0
41
1
10
136.14898888445
20
-10.7109430263476
30
0
41
1
10
136.195632477927
20
-10.6970511690376
30
0
41
1
10
136.288919664879
20
-10.6555743476125
30
0
41
1
10
136.351111122848
20
-10.6096370811673
30
0
41
1
10
136.475494038784
20
-10.4780290406565
30
0
41
1
10
136.537685496752
20
-10.3923474491967
30
0
41
1
10
136.59987695472
20
-10.2857302715741
30
0
0
SPLINE
5
FC
100
AcDbEntity
8
1
62
256
6
ByLayer
370
13
48
1
60
0
100
AcDbSpline
70
4
71
3
72
56
73
52
40
0
40
0
40
0
40
0
40
0.0625
40
0.0625
40
0.09375
40
0.09375
40
0.125
40
0.125
40
0.15625
40
0.15625
40
0.1875
40
0.1875
40
0.21875
40
0.21875
40
0.25
40
0.25
40
0.28125
40
0.28125
40
0.3125
40
0.3125
40
0.375
40
0.375
40
0.4375
40
0.4375
40
0.453125
40
0.453125
40
0.46875
40
0.46875
40
0.499999999999999
40
0.499999999999999
40
0.562499999999999
40
0.562499999999999
40
0.624999999999999
40
0.624999999999999
40
0.656249999999999
40
0.656249999999999
40
0.687499999999999
40
0.687499999999999
40
0.718749999999999
40
0.718749999999999
40
0.749999999999999
40
0.749999999999999
40
0.781249999999999
40
0.781249999999999
40
0.812499999999999
40
0.812499999999999
40
0.875
40
0.875
40
0.9375
40
0.9375
40
1
40
1
40
1
40
1
41
1
10
125.7
20
-10.3745715114498
30
0
41
1
10
125.803843370125
20
-10.2169852662107
30
0
41
1
10
125.907686740249
20
-10.001396099545
30
0
41
1
10
126.063451795436
20
-9.58856345157909
30
0
41
1
10
126.115373480499
20
-9.43613353120179
30
0
41
1
10
126.219216850624
20
-9.10238347051967
30
0
41
1
10
126.271138535686
20
-8.92106337578582
30
0
41
1
10
126.374981905811
20
-8.53109612753633
30
0
41
1
10
126.426903590873
20
-8.32245085587823
30
0
41
1
10
126.530746960998
20
-7.8801864661672
30
0
41
1
10
126.58266864606
20
-7.64657099069353
30
0
41
1
10
126.686512016185
20
-7.15742607122053
30
0
41
1
10
126.738433701247
20
-6.90190173145041
30
0
41
1
10
126.842277071372
20
-6.37257305119388
30
0
41
1
10
126.894198756434
20
-6.09877479467849
30
0
41
1
10
126.998042126559
20
-5.53693648772716
30
0
41
1
10
127.049963811621
20
-5.24890291302796
30
0
41
1
10
127.153807181746
20
-4.66284566401976
30
0
41
1
10
127.205728866808
20
-4.36482825772129
30
0
41
1
10
127.361493921995
20
-3.46219846464598
30
0
41
1
10
127.46533729212
20
-2.84918007733435
30
0
41
1
10
127.673024032369
20
-1.63224833702142
30
0
41
1
10
127.776867402494
20
-1.02843486388517
30
0
41
1
10
127.90667161515
20
-0.295122824073133
30
0
41
1
10
127.932632457681
20
-0.149513534174361
30
0
41
1
10
127.984554142744
20
0.139288576159316
30
0
41
1
10
128.010514985275
20
0.284788220209123
30
0
41
1
10
128.088397512868
20
0.72462621208544
30
0
41
1
10
128.14031919793
20
1.02209562200187
30
0
41
1
10
128.296084253118
20
1.92292868328366
30
0
41
1
10
128.399927623242
20
2.53492438927043
30
0
41
1
10
128.607614363492
20
3.75313243938567
30
0
41
1
10
128.711457733616
20
4.35920430057968
30
0
41
1
10
128.867222788803
20
5.23864272823431
30
0
41
1
10
128.919144473866
20
5.52681915781307
30
0
41
1
10
129.02298784399
20
6.08899249814866
30
0
41
1
10
129.074909529053
20
6.36298293219682
30
0
41
1
10
129.178752899178
20
6.89274165014129
30
0
41
1
10
129.23067458424
20
7.148503841896
30
0
41
1
10
129.334517954365
20
7.63816434091294
30
0
41
1
10
129.386439639427
20
7.87205752927702
30
0
41
1
10
129.490283009552
20
8.31490959368756
30
0
41
1
10
129.542204694614
20
8.523864807743
30
0
41
1
10
129.646048064739
20
8.91447526240478
30
0
41
1
10
129.697969749801
20
9.09612859947782
30
0
41
1
10
129.853734804988
20
9.59777399772111
30
0
41
1
10
129.957578175113
20
9.87405389538591
30
0
41
1
10
130.165264915362
20
10.3074382568502
30
0
41
1
10
130.269108285487
20
10.4646368623614
30
0
41
1
10
130.476795025736
20
10.6685976858513
30
0
41
1
10
130.580638395861
20
10.7155
30
0
41
1
10
130.684481765986
20
10.7155
30
0
0
SPLINE
5
FD
100
AcDbEntity
8
1
62
256
6
ByLayer
370
13
48
1
60
0
100
AcDbSpline
70
4
71
3
72
76
73
72
40
0
40
0
40
0
40
0
40
0.0312499999999999
40
0.0312499999999999
40
0.0624999999999997
40
0.0624999999999997
40
0.0937499999999996
40
0.0937499999999996
40
0.124999999999999
40
0.124999999999999
40
0.156249999999999
40
0.156249999999999
40
0.187499999999999
40
0.187499999999999
40
0.218749999999999
40
0.218749999999999
40
0.249999999999999
40
0.249999999999999
40
0.281249999999999
40
0.281249999999999
40
0.312499999999999
40
0.312499999999999
40
0.343749999999999
40
0.343749999999999
40
0.374999999999999
40
0.374999999999999
40
0.406249999999999
40
0.406249999999999
40
0.421874999999998
40
0.421874999999998
40
0.437499999999998
40
0.437499999999998
40
0.468749999999998
40
0.468749999999998
40
0.499999999999998
40
0.499999999999998
40
0.531249999999998
40
0.531249999999998
40
0.562499999999998
40
0.562499999999998
40
0.593749999999997
40
0.593749999999997
40
0.624999999999997
40
0.624999999999997
40
0.656249999999997
40
0.656249999999997
40
0.687499999999997
40
0.687499999999997
40
0.718749999999997
40
0.718749999999997
40
0.749999999999997
40
0.749999999999997
40
0.781249999999997
40
0.781249999999997
40
0.812499999999996
40
0.812499999999996
40
0.828124999999997
40
0.828124999999997
40
0.835937499999997
40
0.835937499999997
40
0.843749999999997
40
0.843749999999997
40
0.874999999999997
40
0.874999999999997
40
0.906249999999998
40
0.906249999999998
40
0.937499999999999
40
0.937499999999999
40
0.968749999999999
40
0.968749999999999
40
1
40
1
40
1
40
1
41
1
10
130.13654734529
20
10.7155
30
0
41
1
10
130.203873695389
20
10.7155
30
0
41
1
10
130.271200045487
20
10.6958421822554
30
0
41
1
10
130.405852745683
20
10.6124840697362
30
0
41
1
10
130.473179095781
20
10.5487672378545
30
0
41
1
10
130.607831795978
20
10.3736463646351
30
0
41
1
10
130.675158146076
20
10.2622269652151
30
0
41
1
10
130.809810846273
20
9.98965721547481
30
0
41
1
10
130.877137196371
20
9.82849544454598
30
0
41
1
10
131.011789896567
20
9.45641086456163
30
0
41
1
10
131.079116246666
20
9.24548321082119
30
0
41
1
10
131.213768946862
20
8.77610420406469
30
0
41
1
10
131.28109529696
20
8.51765633868661
30
0
41
1
10
131.415747997157
20
7.95776763221104
30
0
41
1
10
131.483074347255
20
7.65633883530953
30
0
41
1
10
131.617727047451
20
7.01707855491352
30
0
41
1
10
131.68505339755
20
6.67926612113368
30
0
41
1
10
131.819706097746
20
5.97541429988797
30
0
41
1
10
131.887032447844
20
5.60939796180193
30
0
41
1
10
132.021685148041
20
4.85825523165641
30
0
41
1
10
132.089011498139
20
4.47315221975941
30
0
41
1
10
132.223664198336
20
3.69318330075427
30
0
41
1
10
132.290990548434
20
3.29833772747773
30
0
41
1
10
132.42564324863
20
2.50779293304808
30
0
41
1
10
132.492969598729
20
2.11210867126357
30
0
41
1
10
132.627622298925
20
1.32782058873846
30
0
41
1
10
132.694948649023
20
0.939225403226203
30
0
41
1
10
132.79593817417
20
0.366594912301025
30
0
41
1
10
132.82960134922
20
0.177554331662037
30
0
41
1
10
132.896927699318
20
-0.196999152119389
30
0
41
1
10
132.930590874367
20
-0.386306392777243
30
0
41
1
10
133.031580399514
20
-0.959287673444777
30
0
41
1
10
133.098906749612
20
-1.34806583828691
30
0
41
1
10
133.233559449809
20
-2.13259334786235
30
0
41
1
10
133.300885799907
20
-2.52833394741001
30
0
41
1
10
133.435538500104
20
-3.31884441096622
30
0
41
1
10
133.502864850202
20
-3.7135992104694
30
0
41
1
10
133.637517550398
20
-4.49322689585708
30
0
41
1
10
133.704843900497
20
-4.87807937161054
30
0
41
1
10
133.839496600693
20
-5.62855927603053
30
0
41
1
10
133.906822950791
20
-5.99416329941101
30
0
41
1
10
134.041475650988
20
-6.69703888520459
30
0
41
1
10
134.108802001086
20
-7.03428743679513
30
0
41
1
10
134.243454701282
20
-7.67229054266053
30
0
41
1
10
134.310781051381
20
-7.97302614617681
30
0
41
1
10
134.445433751577
20
-8.53143120784591
30
0
41
1
10
134.512760101675
20
-8.78908876170374
30
0
41
1
10
134.647412801872
20
-9.25682832348147
30
0
41
1
10
134.71473915197
20
-9.46690699495994
30
0
41
1
10
134.849391852166
20
-9.83727502145598
30
0
41
1
10
134.916718202265
20
-9.99756935354117
30
0
41
1
10
135.051370902461
20
-10.2684233001026
30
0
41
1
10
135.11869725256
20
-10.3789944271848
30
0
41
1
10
135.253349952756
20
-10.5524694857814
30
0
41
1
10
135.320676302854
20
-10.6153888185605
30
0
41
1
10
135.421665828001
20
-10.6767669017487
30
0
41
1
10
135.455329003051
20
-10.6917370838774
30
0
41
1
10
135.505823765624
20
-10.706382421288
30
0
41
1
10
135.522655353149
20
-10.7099630357927
30
0
41
1
10
135.556318528198
20
-10.7145978225231
30
0
41
1
10
135.573150115723
20
-10.7156523666769
30
0
41
1
10
135.657308053345
20
-10.7148022865876
30
0
41
1
10
135.724634403444
20
-10.6944198600747
30
0
41
1
10
135.85928710364
20
-10.6095385366817
30
0
41
1
10
135.926613453738
20
-10.5450231017368
30
0
41
1
10
136.061266153935
20
-10.3682546874384
30
0
41
1
10
136.128592504033
20
-10.2559863940272
30
0
41
1
10
136.263245204229
20
-9.98170020504762
30
0
41
1
10
136.330571554328
20
-9.81967098167866
30
0
41
1
10
136.465224254524
20
-9.44587050608206
30
0
41
1
10
136.532550604622
20
-9.23409454209576
30
0
41
1
10
136.59987695472
20
-8.99858633509214
30
0
0
SPLINE
5
FE
100
AcDbEntity
8
1
62
256
6
ByLayer
370
13
48
1
60
0
100
AcDbSpline
70
4
71
3
72
44
73
40
40
0
40
0
40
0
40
0
40
0.0625000000000024
40
0.0625000000000024
40
0.125000000000005
40
0.125000000000005
40
0.187500000000007
40
0.187500000000007
40
0.250000000000009
40
0.250000000000009
40
0.312500000000012
40
0.312500000000012
40
0.375000000000014
40
0.375000000000014
40
0.390625000000015
40
0.390625000000015
40
0.398437500000015
40
0.398437500000015
40
0.406250000000016
40
0.406250000000016
40
0.437500000000015
40
0.437500000000015
40
0.500000000000013
40
0.500000000000013
40
0.562500000000011
40
0.562500000000011
40
0.62500000000001
40
0.62500000000001
40
0.687500000000008
40
0.687500000000008
40
0.750000000000006
40
0.750000000000006
40
0.812500000000005
40
0.812500000000005
40
0.875000000000003
40
0.875000000000003
40
0.937500000000002
40
0.937500000000002
40
1
40
1
40
1
40
1
41
1
10
125.7
20
-9.18563553197137
30
0
41
1
10
125.793573585865
20
-8.87636650415124
30
0
41
1
10
125.88714717173
20
-8.52026943427254
30
0
41
1
10
126.074294343459
20
-7.7261947054281
30
0
41
1
10
126.167867929324
20
-7.28828466137122
30
0
41
1
10
126.355015101053
20
-6.34987220798877
30
0
41
1
10
126.448588686918
20
-5.84948094055946
30
0
41
1
10
126.635735858648
20
-4.81012333169116
30
0
41
1
10
126.729309444512
20
-4.27127802867466
30
0
41
1
10
126.916456616242
20
-3.18013760654591
30
0
41
1
10
127.010030202107
20
-2.62793996933226
30
0
41
1
10
127.197177373836
20
-1.53292926609663
30
0
41
1
10
127.290750959701
20
-0.990171103321586
30
0
41
1
10
127.407717942032
20
-0.328964584316452
30
0
41
1
10
127.431111338498
20
-0.197572315588445
30
0
41
1
10
127.466201433197
20
-0.0019294264890561
30
0
41
1
10
127.477898131431
20
0.0630342367890364
30
0
41
1
10
127.501291527896
20
0.193761232434696
30
0
41
1
10
127.51298822613
20
0.25936117739198
30
0
41
1
10
127.571471717295
20
0.588472131119971
30
0
41
1
10
127.618258510228
20
0.855330381009253
30
0
41
1
10
127.758618889025
20
1.66355933682971
30
0
41
1
10
127.85219247489
20
2.21273084614495
30
0
41
1
10
128.039339646619
20
3.31160848521276
30
0
41
1
10
128.132913232484
20
3.86124099212716
30
0
41
1
10
128.320060404213
20
4.93697377942789
30
0
41
1
10
128.413633990078
20
5.46296347314029
30
0
41
1
10
128.600781161807
20
6.4663171170381
30
0
41
1
10
128.694354747672
20
6.94355965326864
30
0
41
1
10
128.881501919402
20
7.82689578985463
30
0
41
1
10
128.975075505266
20
8.23289280595583
30
0
41
1
10
129.162222676996
20
8.95719469532321
30
0
41
1
10
129.255796262861
20
9.27545638598718
30
0
41
1
10
129.44294343459
20
9.81591615503152
30
0
41
1
10
129.536517020455
20
10.0381321259258
30
0
41
1
10
129.723664192185
20
10.3866865983624
30
0
41
1
10
129.817237778049
20
10.5130894429344
30
0
41
1
10
130.004384949779
20
10.6774539500334
30
0
41
1
10
130.097958535644
20
10.7155
30
0
41
1
10
130.191532121508
20
10.7155
30
0
0
SPLINE
5
FF
100
AcDbEntity
8
1
62
256
6
ByLayer
370
13
48
1
60
0
100
AcDbSpline
70
4
71
3
72
79
73
75
40
0
40
0
40
0
40
0
40
0.03125
40
0.03125
40
0.0624999999999999
40
0.0624999999999999
40
0.0937499999999999
40
0.0937499999999999
40
0.125
40
0.125
40
0.15625
40
0.15625
40
0.1875
40
0.1875
40
0.21875
40
0.21875
40
0.25
40
0.25
40
0.28125
40
0.28125
40
0.3125
40
0.3125
40
0.343749999999999
40
0.343749999999999
40
0.374999999999999
40
0.374999999999999
40
0.390624999999999
40
0.390624999999999
40
0.398437499999999
40
0.398437499999999
40
0.406249999999999
40
0.406249999999999
40
0.437499999999999
40
0.437499999999999
40
0.468749999999998
40
0.468749999999998
40
0.499999999999998
40
0.499999999999998
40
0.531249999999997
40
0.531249999999997
40
0.562499999999997
40
0.562499999999997
40
0.593749999999996
40
0.593749999999996
40
0.624999999999996
40
0.624999999999996
40
0.656249999999996
40
0.656249999999996
40
0.687499999999995
40
0.687499999999995
40
0.718749999999995
40
0.718749999999995
40
0.749999999999994
40
0.749999999999994
40
0.781249999999994
40
0.781249999999994
40
0.785156249999994
40
0.785156249999994
40
0.789062499999994
40
0.796874999999994
40
0.796874999999994
40
0.812499999999994
40
0.812499999999994
40
0.843749999999995
40
0.843749999999995
40
0.874999999999996
40
0.874999999999996
40
0.906249999999997
40
0.906249999999997
40
0.937499999999998
40
0.937499999999998
40
0.968749999999999
40
0.968749999999999
40
1
40
1
40
1
40
1
41
1
10
129.643597700813
20
10.7155
30
0
41
1
10
129.716058943041
20
10.7155
30
0
41
1
10
129.788520185269
20
10.6927221880203
30
0
41
1
10
129.933442669726
20
10.5957621096779
30
0
41
1
10
130.005903911954
20
10.5215559888259
30
0
41
1
10
130.15082639641
20
10.3173896787739
30
0
41
1
10
130.223287638639
20
10.1874079439508
30
0
41
1
10
130.368210123095
20
9.86958189966151
30
0
41
1
10
130.440671365323
20
9.68172299023848
30
0
41
1
10
130.58559384978
20
9.24883566498244
30
0
41
1
10
130.658055092008
20
9.00380375752258
30
0
41
1
10
130.802977576464
20
8.46035144609672
30
0
41
1
10
130.875438818692
20
8.16194088748696
30
0
41
1
10
131.020361303149
20
7.51851102658677
30
0
41
1
10
131.092822545377
20
7.17351414641229
30
0
41
1
10
131.237745029833
20
6.44620000304059
30
0
41
1
10
131.310206272062
20
6.06391392797406
30
0
41
1
10
131.455128756518
20
5.27299677084508
30
0
41
1
10
131.527589998746
20
4.86439985898812
30
0
41
1
10
131.672512483203
20
4.03251944394759
30
0
41
1
10
131.744973725431
20
3.60926710385499
30
0
41
1
10
131.889896209887
20
2.75941467187462
30
0
41
1
10
131.962357452115
20
2.33283821102219
30
0
41
1
10
132.107279936572
20
1.48651925361622
30
0
41
1
10
132.1797411788
20
1.06679071143989
30
0
41
1
10
132.288433042142
20
0.448664486367761
30
0
41
1
10
132.324663663256
20
0.244518775754898
30
0
41
1
10
132.379009594928
20
-0.0582034558068756
30
0
41
1
10
132.397124905485
20
-0.159112399007427
30
0
41
1
10
132.433355526599
20
-0.362543322024067
30
0
41
1
10
132.451470837156
20
-0.46480335800419
30
0
41
1
10
132.542047389941
20
-0.97855052236676
30
0
41
1
10
132.614508632169
20
-1.39745400222557
30
0
41
1
10
132.759431116626
20
-2.24277977501856
30
0
41
1
10
132.831892358854
20
-2.66918881308297
30
0
41
1
10
132.97681484331
20
-3.51947014126085
30
0
41
1
10
133.049276085539
20
-3.94331944284102
30
0
41
1
10
133.194198569995
20
-4.77721492738709
30
0
41
1
10
133.266659812223
20
-5.18723035547077
30
0
41
1
10
133.41158229668
20
-5.9817972438936
30
0
41
1
10
133.484043538908
20
-6.36631455874863
30
0
41
1
10
133.628966023364
20
-7.09882257033405
30
0
41
1
10
133.701427265592
20
-7.4467816655804
30
0
41
1
10
133.846349750049
20
-8.0967189097413
30
0
41
1
10
133.918810992277
20
-8.39867386114594
30
0
41
1
10
134.063733476733
20
-8.94960060496686
30
0
41
1
10
134.136194718962
20
-9.19856160111942
30
0
41
1
10
134.281117203418
20
-9.63947327090736
30
0
41
1
10
134.353578445646
20
-9.83142653699119
30
0
41
1
10
134.498500930102
20
-10.1573944395102
30
0
41
1
10
134.570962172331
20
-10.2914230137678
30
0
41
1
10
134.715884656787
20
-10.5034536490651
30
0
41
1
10
134.788345899015
20
-10.5814769200609
30
0
41
1
10
134.933268383472
20
-10.6857051839755
30
0
41
1
10
135.0057296257
20
-10.7119340097201
30
0
41
1
10
135.087248523207
20
-10.7155622005245
30
0
41
1
10
135.096306178485
20
-10.7156079830175
30
0
41
1
10
135.114421489042
20
-10.7149872385149
30
0
41
1
10
135.141594454878
20
-10.7129825369647
30
0
41
1
10
135.168767420713
20
-10.7077015160835
30
0
41
1
10
135.223113352385
20
-10.6926284015054
30
0
41
1
10
135.259343973499
20
-10.6765622548044
30
0
41
1
10
135.368035836841
20
-10.6092545976535
30
0
41
1
10
135.440497079069
20
-10.5388436680686
30
0
41
1
10
135.585419563526
20
-10.3425089891734
30
0
41
1
10
135.657880805754
20
-10.2165633822072
30
0
41
1
10
135.80280329021
20
-9.90687184867335
30
0
41
1
10
135.875264532439
20
-9.72311068139868
30
0
41
1
10
136.020187016895
20
-9.29827001865843
30
0
41
1
10
136.092648259123
20
-9.0571861439654
30
0
41
1
10
136.23757074358
20
-8.5212612672504
30
0
41
1
10
136.310031985808
20
-8.22642915592408
30
0
41
1
10
136.454954470264
20
-7.58958742946257
30
0
41
1
10
136.527415712492
20
-7.24759944158782
30
0
41
1
10
136.59987695472
20
-6.88659022317671
30
0
0
SPLINE
5
100
100
AcDbEntity
8
1
62
256
6
ByLayer
370
13
48
1
60
0
100
AcDbSpline
70
4
71
3
72
43
73
39
40
0
40
0
40
0
40
0
40
0.0624999999999999
40
0.0624999999999999
40
0.125
40
0.125
40
0.1875
40
0.1875
40
0.25
40
0.25
40
0.3125
40
0.3125
40
0.3203125
40
0.3203125
40
0.328125
40
0.34375
40
0.34375
40
0.375
40
0.375
40
0.4375
40
0.4375
40
0.5
40
0.5
40
0.5625
40
0.5625
40
0.625
40
0.625
40
0.6875
40
0.6875
40
0.75
40
0.75
40
0.8125
40
0.8125
40
0.875
40
0.875
40
0.9375
40
0.9375
40
1
40
1
40
1
40
1
41
1
10
125.7
20
-7.15681508927821
30
0
41
1
10
125.783303801605
20
-6.75316431646314
30
0
41
1
10
125.86660760321
20
-6.32272767661271
30
0
41
1
10
126.033215206419
20
-5.42435608536536
30
0
41
1
10
126.116519008024
20
-4.9564894201938
30
0
41
1
10
126.283126611234
20
-4.0009595343387
30
0
41
1
10
126.366430412838
20
-3.51335902172161
30
0
41
1
10
126.533038016048
20
-2.53555007486722
30
0
41
1
10
126.616341817653
20
-2.04538673433939
30
0
41
1
10
126.782949420863
20
-1.07746975392874
30
0
41
1
10
126.866253222467
20
-0.59973871834282
30
0
41
1
10
126.959969999273
20
-0.075920079630265
30
0
41
1
10
126.970382974473
20
-0.0180222221358122
30
0
41
1
10
126.991208924875
20
0.0979721637056628
30
0
41
1
10
127.022447850476
20
0.272540396167727
30
0
41
1
10
127.053686776078
20
0.448752136166206
30
0
41
1
10
127.116164627282
20
0.803116976653428
30
0
41
1
10
127.157816528084
20
1.04195536443521
30
0
41
1
10
127.282772230491
20
1.76401010138025
30
0
41
1
10
127.366076032096
20
2.25285676584815
30
0
41
1
10
127.532683635306
20
3.231125305826
30
0
41
1
10
127.615987436911
20
3.72050627314772
30
0
41
1
10
127.78259504012
20
4.68299937257203
30
0
41
1
10
127.865898841725
20
5.15605145119358
30
0
41
1
10
128.032506444935
20
6.06814904133989
30
0
41
1
10
128.11581024654
20
6.50712614826693
30
0
41
1
10
128.282417849749
20
7.33441789877566
30
0
41
1
10
128.365721651354
20
7.72267139768294
30
0
41
1
10
128.532329254564
20
8.43494801562389
30
0
41
1
10
128.615633056168
20
8.758932064867
30
0
41
1
10
128.782240659378
20
9.33374659772102
30
0
41
1
10
128.865544460983
20
9.58456822743449
30
0
41
1
10
129.032152064193
20
10.0095213772134
30
0
41
1
10
129.115455865797
20
10.1836729596295
30
0
41
1
10
129.282063469007
20
10.4569540713994
30
0
41
1
10
129.365367270612
20
10.5561235360782
30
0
41
1
10
129.531974873821
20
10.6853726819665
30
0
41
1
10
129.615278675426
20
10.7155
30
0
41
1
10
129.698582477031
20
10.7155
30
0
0
SPLINE
5
101
100
AcDbEntity
8
1
62
256
6
ByLayer
370
13
48
1
60
0
100
AcDbSpline
70
4
71
3
72
8
73
4
40
0
40
0
40
0
40
0
40
1
40
1
40
1
40
1
41
1
10
136.59987695472
20
-10.6390310282966
30
0
41
1
10
137.899917969814
20
-7.09102606507648
30
0
41
1
10
139.199958984907
20
-3.54465542157791
30
0
41
1
10
140.5
20
5.68E-14
30
0
0
SPLINE
5
102
100
AcDbEntity
8
1
62
256
6
ByLayer
370
13
48
1
60
0
100
AcDbSpline
70
4
71
3
72
8
73
4
40
0
40
0
40
0
40
0
40
1
40
1
40
1
40
1
41
1
10
136.59987695472
20
-4.67895681039835
30
0
41
1
10
137.899917969814
20
-3.13183691565257
30
0
41
1
10
139.199958984907
20
-1.57217275185928
30
0
41
1
10
140.5
20
2.84E-14
30
0
0
SPLINE
5
103
100
AcDbEntity
8
1
62
256
6
ByLayer
370
13
48
1
60
0
100
AcDbSpline
70
4
71
3
72
8
73
4
40
0
40
0
40
0
40
0
40
1
40
1
40
1
40
1
41
1
10
136.59987695472
20
10.1238320824178
30
0
41
1
10
137.899917969814
20
6.74465641791653
30
0
41
1
10
139.199958984907
20
3.37002006984895
30
0
41
1
10
140.5
20
-5.68E-14
30
0
0
SPLINE
5
104
100
AcDbEntity
8
1
62
256
6
ByLayer
370
13
48
1
60
0
100
AcDbSpline
70
4
71
3
72
8
73
4
40
0
40
0
40
0
40
0
40
1
40
1
40
1
40
1
41
1
10
136.59987695472
20
-9.02203550412037
30
0
41
1
10
137.899917969814
20
-6.00717425313508
30
0
41
1
10
139.199958984907
20
-2.99980623187523
30
0
41
1
10
140.5
20
5.68E-14
30
0
0
SPLINE
5
105
100
AcDbEntity
8
1
62
256
6
ByLayer
370
13
48
1
60
0
100
AcDbSpline
70
4
71
3
72
8
73
4
40
0
40
0
40
0
40
0
40
1
40
1
40
1
40
1
41
1
10
136.59987695472
20
1.18763441578287
30
0
41
1
10
137.899917969814
20
0.7779115139287
30
0
41
1
10
139.199958984907
20
0.382030399593674
30
0
41
1
10
140.5
20
0
30
0
0
SPLINE
5
106
100
AcDbEntity
8
1
62
256
6
ByLayer
370
13
48
1
60
0
100
AcDbSpline
70
4
71
3
72
8
73
4
40
0
40
0
40
0
40
0
40
1
40
1
40
1
40
1
41
1
10
136.59987695472
20
-8.40853433534292
30
0
41
1
10
137.899917969814
20
-5.6143246570058
30
0
41
1
10
139.199958984907
20
-2.81145853971424
30
0
41
1
10
140.5
20
5.68E-14
30
0
0
SPLINE
5
107
100
AcDbEntity
8
1
62
256
6
ByLayer
370
13
48
1
60
0
100
AcDbSpline
70
4
71
3
72
8
73
4
40
0
40
0
40
0
40
0
40
1
40
1
40
1
40
1
41
1
10
136.59987695472
20
8.38822577215998
30
0
41
1
10
137.899917969814
20
5.58348209624256
30
0
41
1
10
139.199958984907
20
2.78738559536453
30
0
41
1
10
140.5
20
-5.68E-14
30
0
0
SPLINE
5
108
100
AcDbEntity
8
1
62
256
6
ByLayer
370
13
48
1
60
0
100
AcDbSpline
70
4
71
3
72
8
73
4
40
0
40
0
40
0
40
0
40
1
40
1
40
1
40
1
41
1
10
136.59987695472
20
-3.42545378457461
30
0
41
1
10
137.899917969814
20
-2.27043623280477
30
0
41
1
10
139.199958984907
20
-1.12860965401407
30
0
41
1
10
140.5
20
2.84E-14
30
0
0
SPLINE
5
109
100
AcDbEntity
8
1
62
256
6
ByLayer
370
13
48
1
60
0
100
AcDbSpline
70
4
71
3
72
8
73
4
40
0
40
0
40
0
40
0
40
1
40
1
40
1
40
1
41
1
10
136.59987695472
20
-10.6557691901003
30
0
41
1
10
137.899917969814
20
-7.10531495632432
30
0
41
1
10
139.199958984907
20
-3.55336487518866
30
0
41
1
10
140.5
20
5.68E-14
30
0
0
SPLINE
5
10A
100
AcDbEntity
8
1
62
256
6
ByLayer
370
13
48
1
60
0
100
AcDbSpline
70
4
71
3
72
8
73
4
40
0
40
0
40
0
40
0
40
1
40
1
40
1
40
1
41
1
10
136.59987695472
20
-6.59645299092128
30
0
41
1
10
137.899917969814
20
-4.38665719497752
30
0
41
1
10
139.199958984907
20
-2.18782283612606
30
0
41
1
10
140.5
20
2.84E-14
30
0
0
SPLINE
5
10B
100
AcDbEntity
8
1
62
256
6
ByLayer
370
13
48
1
60
0
100
AcDbSpline
70
4
71
3
72
8
73
4
40
0
40
0
40
0
40
0
40
1
40
1
40
1
40
1
41
1
10
136.59987695472
20
-9.61445487764337
30
0
41
1
10
137.899917969814
20
-6.40348583870914
30
0
41
1
10
139.199958984907
20
-3.19864318760429
30
0
41
1
10
140.5
20
5.68E-14
30
0
0
SPLINE
5
10C
100
AcDbEntity
8
1
62
256
6
ByLayer
370
13
48
1
60
0
100
AcDbSpline
70
4
71
3
72
8
73
4
40
0
40
0
40
0
40
0
40
1
40
1
40
1
40
1
41
1
10
136.59987695472
20
6.80345768752255
30
0
41
1
10
137.899917969814
20
4.54640095322424
30
0
41
1
10
139.199958984907
20
2.27856444893374
30
0
41
1
10
140.5
20
-5.68E-14
30
0
0
SPLINE
5
10D
100
AcDbEntity
8
1
62
256
6
ByLayer
370
13
48
1
60
0
100
AcDbSpline
70
4
71
3
72
8
73
4
40
0
40
0
40
0
40
0
40
1
40
1
40
1
40
1
41
1
10
136.59987695472
20
-2.40845443905832
30
0
41
1
10
137.899917969814
20
-1.61921044468446
30
0
41
1
10
139.199958984907
20
-0.816386158109538
30
0
41
1
10
140.5
20
2.84E-14
30
0
0
SPLINE
5
10E
100
AcDbEntity
8
1
62
256
6
ByLayer
370
13
48
1
60
0
100
AcDbSpline
70
4
71
3
72
8
73
4
40
0
40
0
40
0
40
0
40
1
40
1
40
1
40
1
41
1
10
136.59987695472
20
3.6757277326634
30
0
41
1
10
137.899917969814
20
2.46357050326026
30
0
41
1
10
139.199958984907
20
1.23831857398639
30
0
41
1
10
140.5
20
-2.84E-14
30
0
0
SPLINE
5
10F
100
AcDbEntity
8
1
62
256
6
ByLayer
370
13
48
1
60
0
100
AcDbSpline
70
4
71
3
72
8
73
4
40
0
40
0
40
0
40
0
40
1
40
1
40
1
40
1
41
1
10
136.59987695472
20
-7.60905199979678
30
0
41
1
10
137.899917969814
20
-5.08250990512406
30
0
41
1
10
139.199958984907
20
-2.54613992351932
30
0
41
1
10
140.5
20
5.68E-14
30
0
0
SPLINE
5
110
100
AcDbEntity
8
1
62
256
6
ByLayer
370
13
48
1
60
0
100
AcDbSpline
70
4
71
3
72
8
73
4
40
0
40
0
40
0
40
0
40
1
40
1
40
1
40
1
41
1
10
136.59987695472
20
8.48011851616448
30
0
41
1
10
137.899917969814
20
5.66192831040556
30
0
41
1
10
139.199958984907
20
2.8352006183317
30
0
41
1
10
140.5
20
-5.68E-14
30
0
0
SPLINE
5
111
100
AcDbEntity
8
1
62
256
6
ByLayer
370
13
48
1
60
0
100
AcDbSpline
70
4
71
3
72
8
73
4
40
0
40
0
40
0
40
0
40
1
40
1
40
1
40
1
41
1
10
136.59987695472
20
-10.4281040633509
30
0
41
1
10
137.899917969814
20
-6.94886467929871
30
0
41
1
10
139.199958984907
20
-3.4728035627611
30
0
41
1
10
140.5
20
5.68E-14
30
0
0
SPLINE
5
112
100
AcDbEntity
8
1
62
256
6
ByLayer
370
13
48
1
60
0
100
AcDbSpline
70
4
71
3
72
8
73
4
40
0
40
0
40
0
40
0
40
1
40
1
40
1
40
1
41
1
10
136.59987695472
20
-1.07199885989439
30
0
41
1
10
137.899917969814
20
-0.700805203715049
30
0
41
1
10
139.199958984907
20
-0.343469567870841
30
0
41
1
10
140.5
20
0
30
0
0
SPLINE
5
113
100
AcDbEntity
8
1
62
256
6
ByLayer
370
13
48
1
60
0
100
AcDbSpline
70
4
71
3
72
8
73
4
40
0
40
0
40
0
40
0
40
1
40
1
40
1
40
1
41
1
10
136.59987695472
20
10.6674024360785
30
0
41
1
10
137.899917969814
20
7.11292003840288
30
0
41
1
10
139.199958984907
20
3.55709217949706
30
0
41
1
10
140.5
20
0
30
0
0
SPLINE
5
114
100
AcDbEntity
8
1
62
256
6
ByLayer
370
13
48
1
60
0
100
AcDbSpline
70
4
71
3
72
8
73
4
40
0
40
0
40
0
40
0
40
1
40
1
40
1
40
1
41
1
10
136.59987695472
20
10.6522717499361
30
0
41
1
10
137.899917969814
20
7.10000340327116
30
0
41
1
10
139.199958984907
20
3.5492191519447
30
0
41
1
10
140.5
20
-5.68E-14
30
0
0
SPLINE
5
115
100
AcDbEntity
8
1
62
256
6
ByLayer
370
13
48
1
60
0
100
AcDbSpline
70
4
71
3
72
8
73
4
40
0
40
0
40
0
40
0
40
1
40
1
40
1
40
1
41
1
10
136.59987695472
20
-5.73238155090968
30
0
41
1
10
137.899917969814
20
-3.83335732610874
30
0
41
1
10
139.199958984907
20
-1.92254891348185
30
0
41
1
10
140.5
20
2.84E-14
30
0
0
SPLINE
5
116
100
AcDbEntity
8
1
62
256
6
ByLayer
370
13
48
1
60
0
100
AcDbSpline
70
4
71
3
72
8
73
4
40
0
40
0
40
0
40
0
40
1
40
1
40
1
40
1
41
1
10
136.59987695472
20
3.53543257348218
30
0
41
1
10
137.899917969814
20
2.34380452802043
30
0
41
1
10
139.199958984907
20
1.16531807398928
30
0
41
1
10
140.5
20
-2.84E-14
30
0
0
SPLINE
5
117
100
AcDbEntity
8
1
62
256
6
ByLayer
370
13
48
1
60
0
100
AcDbSpline
70
4
71
3
72
8
73
4
40
0
40
0
40
0
40
0
40
1
40
1
40
1
40
1
41
1
10
136.59987695472
20
-10.1345004259429
30
0
41
1
10
137.899917969814
20
-6.76085840278643
30
0
41
1
10
139.199958984907
20
-3.38266589012056
30
0
41
1
10
140.5
20
5.68E-14
30
0
0
SPLINE
5
118
100
AcDbEntity
8
1
62
256
6
ByLayer
370
13
48
1
60
0
100
AcDbSpline
70
4
71
3
72
8
73
4
40
0
40
0
40
0
40
0
40
1
40
1
40
1
40
1
41
1
10
136.59987695472
20
9.66523054311583
30
0
41
1
10
137.899917969814
20
6.43747228269388
30
0
41
1
10
139.199958984907
20
3.2157042806958
30
0
41
1
10
140.5
20
-5.68E-14
30
0
0
SPLINE
5
119
100
AcDbEntity
8
1
62
256
6
ByLayer
370
13
48
1
60
0
100
AcDbSpline
70
4
71
3
72
8
73
4
40
0
40
0
40
0
40
0
40
1
40
1
40
1
40
1
41
1
10
136.59987695472
20
-8.31537444607915
30
0
41
1
10
137.899917969814
20
-5.53479671708243
30
0
41
1
10
139.199958984907
20
-2.76298417655289
30
0
41
1
10
140.5
20
5.68E-14
30
0
0
SPLINE
5
11A
100
AcDbEntity
8
1
62
256
6
ByLayer
370
13
48
1
60
0
100
AcDbSpline
70
4
71
3
72
8
73
4
40
0
40
0
40
0
40
0
40
1
40
1
40
1
40
1
41
1
10
136.59987695472
20
-0.0163498496185639
30
0
41
1
10
137.899917969814
20
-0.0248304730270092
30
0
41
1
10
139.199958984907
20
-0.0193804463885101
30
0
41
1
10
140.5
20
0
30
0
0
SPLINE
5
11B
100
AcDbEntity
8
1
62
256
6
ByLayer
370
13
48
1
60
0
100
AcDbSpline
70
4
71
3
72
8
73
4
40
0
40
0
40
0
40
0
40
1
40
1
40
1
40
1
41
1
10
136.59987695472
20
-2.26305430486246
30
0
41
1
10
137.899917969814
20
-1.49508649790258
30
0
41
1
10
139.199958984907
20
-0.740729360270677
30
0
41
1
10
140.5
20
0
30
0
0
SPLINE
5
11C
100
AcDbEntity
8
1
62
256
6
ByLayer
370
13
48
1
60
0
100
AcDbSpline
70
4
71
3
72
8
73
4
40
0
40
0
40
0
40
0
40
1
40
1
40
1
40
1
41
1
10
136.59987695472
20
-10.7152410742323
30
0
41
1
10
137.899917969814
20
-7.14339720759187
30
0
41
1
10
139.199958984907
20
-3.57162301827753
30
0
41
1
10
140.5
20
5.68E-14
30
0
0
SPLINE
5
11D
100
AcDbEntity
8
1
62
256
6
ByLayer
370
13
48
1
60
0
100
AcDbSpline
70
4
71
3
72
8
73
4
40
0
40
0
40
0
40
0
40
1
40
1
40
1
40
1
41
1
10
136.59987695472
20
-9.10154345579696
30
0
41
1
10
137.899917969814
20
-6.07504792338457
30
0
41
1
10
139.199958984907
20
-3.04117701230706
30
0
41
1
10
140.5
20
5.68E-14
30
0
0
SPLINE
5
11E
100
AcDbEntity
8
1
62
256
6
ByLayer
370
13
48
1
60
0
100
AcDbSpline
70
4
71
3
72
8
73
4
40
0
40
0
40
0
40
0
40
1
40
1
40
1
40
1
41
1
10
136.59987695472
20
-10.0851310458282
30
0
41
1
10
137.899917969814
20
-6.7187131713263
30
0
41
1
10
139.199958984907
20
-3.35697726726318
30
0
41
1
10
140.5
20
5.68E-14
30
0
0
SPLINE
5
11F
100
AcDbEntity
8
1
62
256
6
ByLayer
370
13
48
1
60
0
100
AcDbSpline
70
4
71
3
72
8
73
4
40
0
40
0
40
0
40
0
40
1
40
1
40
1
40
1
41
1
10
136.59987695472
20
7.58599263605768
30
0
41
1
10
137.899917969814
20
5.04748971088981
30
0
41
1
10
139.199958984907
20
2.51880629213284
30
0
41
1
10
140.5
20
-5.68E-14
30
0
0
SPLINE
5
120
100
AcDbEntity
8
1
62
256
6
ByLayer
370
13
48
1
60
0
100
AcDbSpline
70
4
71
3
72
8
73
4
40
0
40
0
40
0
40
0
40
1
40
1
40
1
40
1
41
1
10
136.59987695472
20
-3.5662846963244
30
0
41
1
10
137.899917969814
20
-2.39065956472913
30
0
41
1
10
139.199958984907
20
-1.20188892489401
30
0
41
1
10
140.5
20
2.84E-14
30
0
0
SPLINE
5
121
100
AcDbEntity
8
1
62
256
6
ByLayer
370
13
48
1
60
0
100
AcDbSpline
70
4
71
3
72
8
73
4
40
0
40
0
40
0
40
0
40
1
40
1
40
1
40
1
41
1
10
136.59987695472
20
10.485926924193
30
0
41
1
10
137.899917969814
20
6.99348608767812
30
0
41
1
10
139.199958984907
20
3.49815052220751
30
0
41
1
10
140.5
20
-2.84E-14
30
0
0
SPLINE
5
122
100
AcDbEntity
8
1
62
256
6
ByLayer
370
13
48
1
60
0
100
AcDbSpline
70
4
71
3
72
8
73
4
40
0
40
0
40
0
40
0
40
1
40
1
40
1
40
1
41
1
10
136.59987695472
20
-6.71321990840605
30
0
41
1
10
137.899917969814
20
-4.48633778146348
30
0
41
1
10
139.199958984907
20
-2.2485807654038
30
0
41
1
10
140.5
20
-3.411E-13
30
0
0
SPLINE
5
123
100
AcDbEntity
8
1
62
256
6
ByLayer
370
13
48
1
60
0
100
AcDbSpline
70
4
71
3
72
8
73
4
40
0
40
0
40
0
40
0
40
1
40
1
40
1
40
1
41
1
10
136.59987695472
20
10.1716731767301
30
0
41
1
10
137.899917969814
20
6.78549699538405
30
0
41
1
10
139.199958984907
20
3.39491347191355
30
0
41
1
10
140.5
20
0
30
0
0
SPLINE
5
124
100
AcDbEntity
8
1
62
256
6
ByLayer
370
13
48
1
60
0
100
AcDbSpline
70
4
71
3
72
8
73
4
40
0
40
0
40
0
40
0
40
1
40
1
40
1
40
1
41
1
10
136.59987695472
20
-5.60595846720449
30
0
41
1
10
137.899917969814
20
-3.72543354597872
30
0
41
1
10
139.199958984907
20
-1.85676654169143
30
0
41
1
10
140.5
20
2.84E-14
30
0
0
SPLINE
5
125
100
AcDbEntity
8
1
62
256
6
ByLayer
370
13
48
1
60
0
100
AcDbSpline
70
4
71
3
72
8
73
4
40
0
40
0
40
0
40
0
40
1
40
1
40
1
40
1
41
1
10
136.59987695472
20
7.69047851209359
30
0
41
1
10
137.899917969814
20
5.13668632262792
30
0
41
1
10
139.199958984907
20
2.57317396410221
30
0
41
1
10
140.5
20
-5.68E-14
30
0
0
SPLINE
5
126
100
AcDbEntity
8
1
62
256
6
ByLayer
370
13
48
1
60
0
100
AcDbSpline
70
4
71
3
72
8
73
4
40
0
40
0
40
0
40
0
40
1
40
1
40
1
40
1
41
1
10
136.59987695472
20
-7.50341981169527
30
0
41
1
10
137.899917969814
20
-4.99233471947599
30
0
41
1
10
139.199958984907
20
-2.49117578511138
30
0
41
1
10
140.5
20
5.68E-14
30
0
0
SPLINE
5
127
100
AcDbEntity
8
1
62
256
6
ByLayer
370
13
48
1
60
0
100
AcDbSpline
70
4
71
3
72
8
73
4
40
0
40
0
40
0
40
0
40
1
40
1
40
1
40
1
41
1
10
136.59987695472
20
-9.67930412088515
30
0
41
1
10
137.899917969814
20
-6.45884578773195
30
0
41
1
10
139.199958984907
20
-3.23238652706598
30
0
41
1
10
140.5
20
5.68E-14
30
0
0
SPLINE
5
128
100
AcDbEntity
8
1
62
256
6
ByLayer
370
13
48
1
60
0
100
AcDbSpline
70
4
71
3
72
8
73
4
40
0
40
0
40
0
40
0
40
1
40
1
40
1
40
1
41
1
10
136.59987695472
20
4.78329210656577
30
0
41
1
10
137.899917969814
20
3.20132703235581
30
0
41
1
10
139.199958984907
20
1.6068841721696
30
0
41
1
10
140.5
20
-2.84E-14
30
0
0
SPLINE
5
129
100
AcDbEntity
8
1
62
256
6
ByLayer
370
13
48
1
60
0
100
AcDbSpline
70
4
71
3
72
8
73
4
40
0
40
0
40
0
40
0
40
1
40
1
40
1
40
1
41
1
10
136.59987695472
20
9.72862043733818
30
0
41
1
10
137.899917969814
20
6.49158642708915
30
0
41
1
10
139.199958984907
20
3.24868826959471
30
0
41
1
10
140.5
20
0
30
0
0
SPLINE
5
12A
100
AcDbEntity
8
1
62
256
6
ByLayer
370
13
48
1
60
0
100
AcDbSpline
70
4
71
3
72
8
73
4
40
0
40
0
40
0
40
0
40
1
40
1
40
1
40
1
41
1
10
136.59987695472
20
-4.5444783950114
30
0
41
1
10
137.899917969814
20
-3.0170365286576
30
0
41
1
10
139.199958984907
20
-1.50219890800494
30
0
41
1
10
140.5
20
2.84E-14
30
0
0
SPLINE
5
12B
100
AcDbEntity
8
1
62
256
6
ByLayer
370
13
48
1
60
0
100
AcDbSpline
70
4
71
3
72
8
73
4
40
0
40
0
40
0
40
0
40
1
40
1
40
1
40
1
41
1
10
136.59987695472
20
4.64951742998522
30
0
41
1
10
137.899917969814
20
3.08712740710456
30
0
41
1
10
139.199958984907
20
1.53727650833912
30
0
41
1
10
140.5
20
-2.84E-14
30
0
0
SPLINE
5
12C
100
AcDbEntity
8
1
62
256
6
ByLayer
370
13
48
1
60
0
100
AcDbSpline
70
4
71
3
72
8
73
4
40
0
40
0
40
0
40
0
40
1
40
1
40
1
40
1
41
1
10
136.59987695472
20
5.70472768960204
30
0
41
1
10
137.899917969814
20
3.79135948066605
30
0
41
1
10
139.199958984907
20
1.88976915164849
30
0
41
1
10
140.5
20
-2.84E-14
30
0
0
SPLINE
5
12D
100
AcDbEntity
8
1
62
256
6
ByLayer
370
13
48
1
60
0
100
AcDbSpline
70
4
71
3
72
8
73
4
40
0
40
0
40
0
40
0
40
1
40
1
40
1
40
1
41
1
10
136.59987695472
20
6.68770173371291
30
0
41
1
10
137.899917969814
20
4.44758339758843
30
0
41
1
10
139.199958984907
20
2.21833255957233
30
0
41
1
10
140.5
20
-2.84E-14
30
0
0
SPLINE
5
12E
100
AcDbEntity
8
1
62
256
6
ByLayer
370
13
48
1
60
0
100
AcDbSpline
70
4
71
3
72
8
73
4
40
0
40
0
40
0
40
0
40
1
40
1
40
1
40
1
41
1
10
136.59987695472
20
10.4542404184956
30
0
41
1
10
137.899917969814
20
6.9664362216746
30
0
41
1
10
139.199958984907
20
3.4816629201222
30
0
41
1
10
140.5
20
-5.68E-14
30
0
0
SPLINE
5
12F
100
AcDbEntity
8
1
62
256
6
ByLayer
370
13
48
1
60
0
100
AcDbSpline
70
4
71
3
72
8
73
4
40
0
40
0
40
0
40
0
40
1
40
1
40
1
40
1
41
1
10
136.59987695472
20
2.52161939118102
30
0
41
1
10
137.899917969814
20
1.69461896899173
30
0
41
1
10
139.199958984907
20
0.854072744906517
30
0
41
1
10
140.5
20
-2.84E-14
30
0
0
SPLINE
5
130
100
AcDbEntity
8
1
62
256
6
ByLayer
370
13
48
1
60
0
100
AcDbSpline
70
4
71
3
72
8
73
4
40
0
40
0
40
0
40
0
40
1
40
1
40
1
40
1
41
1
10
136.59987695472
20
2.37658023933946
30
0
41
1
10
137.899917969814
20
1.57080318254808
30
0
41
1
10
139.199958984907
20
0.778603778868188
30
0
41
1
10
140.5
20
-2.84E-14
30
0
0
SPLINE
5
131
100
AcDbEntity
8
1
62
256
6
ByLayer
370
13
48
1
60
0
100
AcDbSpline
70
4
71
3
72
8
73
4
40
0
40
0
40
0
40
0
40
1
40
1
40
1
40
1
41
1
10
136.59987695472
20
0.132630789642008
30
0
41
1
10
137.899917969814
20
0.102350048788764
30
0
41
1
10
139.199958984907
20
0.0581394140213831
30
0
41
1
10
140.5
20
0
30
0
0
SPLINE
5
132
100
AcDbEntity
8
1
62
256
6
ByLayer
370
13
48
1
60
0
100
AcDbSpline
70
4
71
3
72
8
73
4
40
0
40
0
40
0
40
0
40
1
40
1
40
1
40
1
41
1
10
136.59987695472
20
9.16237886918458
30
0
41
1
10
137.899917969814
20
6.11547603057508
30
0
41
1
10
139.199958984907
20
3.06132649446766
30
0
41
1
10
140.5
20
-5.68E-14
30
0
0
SPLINE
5
133
100
AcDbEntity
8
1
62
256
6
ByLayer
370
13
48
1
60
0
100
AcDbSpline
70
4
71
3
72
8
73
4
40
0
40
0
40
0
40
0
40
1
40
1
40
1
40
1
41
1
10
136.59987695472
20
9.08424285071155
30
0
41
1
10
137.899917969814
20
6.04877354056481
30
0
41
1
10
139.199958984907
20
3.02066957907868
30
0
41
1
10
140.5
20
-5.68E-14
30
0
0
SPLINE
5
134
100
AcDbEntity
8
1
62
256
6
ByLayer
370
13
48
1
60
0
100
AcDbSpline
70
4
71
3
72
8
73
4
40
0
40
0
40
0
40
0
40
1
40
1
40
1
40
1
41
1
10
136.59987695472
20
-10.4613684396877
30
0
41
1
10
137.899917969814
20
-6.97726152845564
30
0
41
1
10
139.199958984907
20
-3.49011218637182
30
0
41
1
10
140.5
20
5.68E-14
30
0
0
SPLINE
5
135
100
AcDbEntity
8
1
62
256
6
ByLayer
370
13
48
1
60
0
100
AcDbSpline
70
4
71
3
72
8
73
4
40
0
40
0
40
0
40
0
40
1
40
1
40
1
40
1
41
1
10
136.59987695472
20
-1.22012708475936
30
0
41
1
10
137.899917969814
20
-0.827258043677801
30
0
41
1
10
139.199958984907
20
-0.420545887124717
30
0
41
1
10
140.5
20
0
30
0
0
SPLINE
5
136
100
AcDbEntity
8
1
62
256
6
ByLayer
370
13
48
1
60
0
100
AcDbSpline
70
4
71
3
72
8
73
4
40
0
40
0
40
0
40
0
40
1
40
1
40
1
40
1
41
1
10
136.59987695472
20
5.83028795936809
30
0
41
1
10
137.899917969814
20
3.8985467011494
30
0
41
1
10
139.199958984907
20
1.95510257103507
30
0
41
1
10
140.5
20
-2.84E-14
30
0
0
SPLINE
5
137
100
AcDbEntity
8
1
62
256
6
ByLayer
370
13
48
1
60
0
100
AcDbSpline
70
4
71
3
72
8
73
4
40
0
40
0
40
0
40
0
40
1
40
1
40
1
40
1
41
1
10
136.59987695472
20
1.33558099945324
30
0
41
1
10
137.899917969814
20
0.904209291985268
30
0
41
1
10
139.199958984907
20
0.459012204552835
30
0
41
1
10
140.5
20
0
30
0
0
LINE
5
7D
100
AcDbEntity
8
4
62
256
6
ByLayer
370
18
48
0.05
60
0
100
AcDbLine
10
-5
20
0
30
0
11
145.5
21
0
31
0
39
0
210
0
220
0
230
1
0
LINE
5
7F
100
AcDbEntity
8
81
62
256
6
ByLayer
370
18
48
1
60
0
100
AcDbLine
10
140.5
20
0
30
0
11
145.5
21
0
31
0
39
0
210
0
220
0
230
1
0
LINE
5
80
100
AcDbEntity
8
SK4
62
256
6
ByLayer
370
18
48
0.05
60
0
100
AcDbLine
10
-61
20
0
30
0
11
145.5
21
0
31
0
39
0
210
0
220
0
230
1
0
LINE
5
82
100
AcDbEntity
8
80
62
256
6
ByLayer
370
18
48
1
60
0
100
AcDbLine
10
0
20
0
30
0
11
-5
21
0
31
0
39
0
210
0
220
0
230
1
0
LINE
5
83
100
AcDbEntity
8
1
62
256
6
ByLayer
370
18
48
1
60
0
100
AcDbLine
10
37.196563
20
-10.2
30
0
11
85.621803
21
-10.2
31
0
39
0
210
0
220
0
230
1
0
LINE
5
84
100
AcDbEntity
8
1
62
256
6
ByLayer
370
18
48
1
60
0
100
AcDbLine
10
85.621803
20
10.2
30
0
11
37.196563
21
10.2
31
0
39
0
210
0
220
0
230
1
0
LINE
5
85
100
AcDbEntity
8
1
62
256
6
ByLayer
370
18
48
1
60
0
100
AcDbLine
10
140.5
20
0
30
0
11
136.599877
21
10.7155
31
0
39
0
210
0
220
0
230
1
0
LINE
5
86
100
AcDbEntity
8
1
62
256
6
ByLayer
370
18
48
1
60
0
100
AcDbLine
10
136.599877
20
-10.7155
30
0
11
140.5
21
0
31
0
39
0
210
0
220
0
230
1
0
LINE
5
87
100
AcDbEntity
8
1
62
256
6
ByLayer
370
18
48
1
60
0
100
AcDbLine
10
3.270822
20
11.882295
30
0
11
0
21
12.7
31
0
39
0
210
0
220
0
230
1
0
LINE
5
88
100
AcDbEntity
8
1
62
256
6
ByLayer
370
18
48
1
60
0
100
AcDbLine
10
0
20
-12.7
30
0
11
3.270822
21
-11.882295
31
0
39
0
210
0
220
0
230
1
0
LINE
5
89
100
AcDbEntity
8
1
62
256
6
ByLayer
370
18
48
1
60
0
100
AcDbLine
10
140.5
20
0
30
0
11
136.599877
21
10.7155
31
0
39
0
210
0
220
0
230
1
0
LINE
5
8A
100
AcDbEntity
8
1
62
256
6
ByLayer
370
18
48
1
60
0
100
AcDbLine
10
136.599877
20
-10.7155
30
0
11
140.5
21
0
31
0
39
0
210
0
220
0
230
1
0
LINE
5
8B
100
AcDbEntity
8
1
62
256
6
ByLayer
370
18
48
1
60
0
100
AcDbLine
10
125.7
20
-10.7155
30
0
11
136.599877
21
-10.7155
31
0
39
0
210
0
220
0
230
1
0
LINE
5
8C
100
AcDbEntity
8
SK1
62
256
6
ByLayer
370
18
48
1
60
0
100
AcDbLine
10
-56
20
-11.7
30
0
11
-55
21
-12.7
31
0
39
0
210
0
220
0
230
1
0
LINE
5
8E
100
AcDbEntity
8
SK1
62
256
6
ByLayer
370
18
48
1
60
0
100
AcDbLine
10
-55
20
12.7
30
0
11
-56
21
11.7
31
0
39
0
210
0
220
0
230
1
0
LINE
5
8F
100
AcDbEntity
8
SK1
62
256
6
ByLayer
370
18
48
1
60
0
100
AcDbLine
10
-55
20
-12.7
30
0
11
0
21
-12.7
31
0
39
0
210
0
220
0
230
1
0
LINE
5
90
100
AcDbEntity
8
SK1
62
256
6
ByLayer
370
18
48
1
60
0
100
AcDbLine
10
0
20
12.7
30
0
11
-55
21
12.7
31
0
39
0
210
0
220
0
230
1
0
LINE
5
91
100
AcDbEntity
8
1
62
256
6
ByLayer
370
18
48
1
60
0
100
AcDbLine
10
0
20
12.7
30
0
11
0
21
-12.7
31
0
39
0
210
0
220
0
230
1
0
LINE
5
92
100
AcDbEntity
8
1
62
256
6
ByLayer
370
18
48
1
60
0
100
AcDbLine
10
136.599877
20
10.7155
30
0
11
136.599877
21
10.375257
31
0
39
0
210
0
220
0
230
1
0
LINE
5
93
100
AcDbEntity
8
1
62
256
6
ByLayer
370
18
48
1
60
0
100
AcDbLine
10
136.599877
20
-10.7155
30
0
11
136.599877
21
-1.52671
31
0
39
0
210
0
220
0
230
1
0
LINE
5
94
100
AcDbEntity
8
1
62
256
6
ByLayer
370
18
48
1
60
0
100
AcDbLine
10
10
20
-7.695324
30
0
11
10
21
8.739622
31
0
39
0
210
0
220
0
230
1
0
LINE
5
95
100
AcDbEntity
8
SK1
62
256
6
ByLayer
370
18
48
1
60
0
100
AcDbLine
10
-9.573685
20
-7.42967
30
0
11
-9.573685
21
7.42967
31
0
39
0
210
0
220
0
230
1
0
LINE
5
96
100
AcDbEntity
8
SK1
62
256
6
ByLayer
370
18
48
1
60
0
100
AcDbLine
10
-56
20
-11.7
30
0
11
-56
21
11.7
31
0
39
0
210
0
220
0
230
1
0
LINE
5
97
100
AcDbEntity
8
SK1
62
256
6
ByLayer
370
18
48
1
60
0
100
AcDbLine
10
0
20
12.7
30
0
11
0
21
-12.7
31
0
39
0
210
0
220
0
230
1
0
LINE
5
98
100
AcDbEntity
8
SK1
62
256
6
ByLayer
370
18
48
1
60
0
100
AcDbLine
10
-55
20
-12.7
30
0
11
-55
21
12.7
31
0
39
0
210
0
220
0
230
1
0
LINE
5
99
100
AcDbEntity
8
SK1
62
256
6
ByLayer
370
18
48
1
60
0
100
AcDbLine
10
-9.573685
20
-7.42967
30
0
11
-46.761964
21
-7.42967
31
0
39
0
210
0
220
0
230
1
0
LINE
5
9A
100
AcDbEntity
8
SK1
62
256
6
ByLayer
370
18
48
1
60
0
100
AcDbLine
10
-46.761964
20
7.42967
30
0
11
-9.573685
21
7.42967
31
0
39
0
210
0
220
0
230
1
0
LINE
5
9B
100
AcDbEntity
8
SK1
62
256
6
ByLayer
370
18
48
1
60
0
100
AcDbLine
10
-46.761964
20
-7.42967
30
0
11
-46.761964
21
7.42967
31
0
39
0
210
0
220
0
230
1
0
LINE
5
9C
100
AcDbEntity
8
1
62
256
6
ByLayer
370
18
48
1
60
0
100
AcDbLine
10
136.599877
20
10.7155
30
0
11
136.599877
21
-10.7155
31
0
39
0
210
0
220
0
230
1
0
LINE
5
9D
100
AcDbEntity
8
1
62
256
6
ByLayer
370
18
48
1
60
0
100
AcDbLine
10
136.599877
20
10.7155
30
0
11
136.599877
21
-10.7155
31
0
39
0
210
0
220
0
230
1
0
LINE
5
9E
100
AcDbEntity
8
1
62
256
6
ByLayer
370
18
48
1
60
0
100
AcDbLine
10
136.599877
20
10.7155
30
0
11
136.599877
21
-10.7155
31
0
39
0
210
0
220
0
230
1
0
LINE
5
9F
100
AcDbEntity
8
1
62
256
6
ByLayer
370
18
48
1
60
0
100
AcDbLine
10
125.7
20
10.7155
30
0
11
125.7
21
-10.7155
31
0
39
0
210
0
220
0
230
1
0
LINE
5
A0
100
AcDbEntity
8
1
62
256
6
ByLayer
370
18
48
1
60
0
100
AcDbLine
10
125.7
20
10.7155
30
0
11
125.7
21
-10.7155
31
0
39
0
210
0
220
0
230
1
0
LINE
5
A1
100
AcDbEntity
8
1
62
256
6
ByLayer
370
18
48
1
60
0
100
AcDbLine
10
136.599877
20
10.7155
30
0
11
136.599877
21
-10.7155
31
0
39
0
210
0
220
0
230
1
0
LINE
5
A2
100
AcDbEntity
8
1
62
256
6
ByLayer
370
18
48
1
60
0
100
AcDbLine
10
125.7
20
10.7155
30
0
11
125.7
21
-10.7155
31
0
39
0
210
0
220
0
230
1
0
LINE
5
A3
100
AcDbEntity
8
1
62
256
6
ByLayer
370
18
48
1
60
0
100
AcDbLine
10
136.599877
20
10.7155
30
0
11
136.599877
21
-10.7155
31
0
39
0
210
0
220
0
230
1
0
LINE
5
A4
100
AcDbEntity
8
SK2
62
256
6
ByLayer
370
13
48
1
60
0
100
AcDbLine
10
-62.5
20
-12.7
30
0
11
-62.5
21
42.040455
31
0
39
0
210
0
220
0
230
1
0
LINE
5
A6
100
AcDbEntity
8
SK2
62
256
6
ByLayer
370
13
48
1
60
0
100
AcDbLine
10
-57.5875
20
12.7
30
0
11
-64.5
21
12.7
31
0
39
0
210
0
220
0
230
1
0
LINE
5
A7
100
AcDbEntity
8
SK2
62
256
6
ByLayer
370
13
48
1
60
0
100
AcDbLine
10
-57.5875
20
-12.7
30
0
11
-64.5
21
-12.7
31
0
39
0
210
0
220
0
230
1
0
LINE
5
A8
100
AcDbEntity
8
1
62
256
6
ByLayer
370
18
48
1
60
1
100
AcDbLine
10
-62.5
20
12.7
30
0
11
-62.039216
21
9.200002
31
0
39
0
210
0
220
0
230
1
0
LINE
5
A9
100
AcDbEntity
8
1
62
256
6
ByLayer
370
18
48
1
60
1
100
AcDbLine
10
-62.039216
20
9.200002
30
0
11
-62.960784
21
9.199998
31
0
39
0
210
0
220
0
230
1
0
LINE
5
AA
100
AcDbEntity
8
1
62
256
6
ByLayer
370
18
48
1
60
1
100
AcDbLine
10
-62.960784
20
9.199998
30
0
11
-62.5
21
12.7
31
0
39
0
210
0
220
0
230
1
0
LINE
5
AB
100
AcDbEntity
8
1
62
256
6
ByLayer
370
18
48
1
60
1
100
AcDbLine
10
-62.5
20
-12.7
30
0
11
-62.960784
21
-9.200002
31
0
39
0
210
0
220
0
230
1
0
LINE
5
AC
100
AcDbEntity
8
1
62
256
6
ByLayer
370
18
48
1
60
1
100
AcDbLine
10
-62.960784
20
-9.200002
30
0
11
-62.039216
21
-9.199998
31
0
39
0
210
0
220
0
230
1
0
LINE
5
AD
100
AcDbEntity
8
1
62
256
6
ByLayer
370
18
48
1
60
1
100
AcDbLine
10
-62.039216
20
-9.199998
30
0
11
-62.5
21
-12.7
31
0
39
0
210
0
220
0
230
1
0
LINE
5
AE
100
AcDbEntity
8
2
62
256
6
ByLayer
370
13
48
1
60
0
100
AcDbLine
10
148
20
-10.7155
30
0
11
148
21
38.556184
31
0
39
0
210
0
220
0
230
1
0
LINE
5
B0
100
AcDbEntity
8
2
62
256
6
ByLayer
370
13
48
1
60
0
100
AcDbLine
10
138.187377
20
10.7155
30
0
11
150
21
10.7155
31
0
39
0
210
0
220
0
230
1
0
LINE
5
B1
100
AcDbEntity
8
2
62
256
6
ByLayer
370
13
48
1
60
0
100
AcDbLine
10
138.187377
20
-10.7155
30
0
11
150
21
-10.7155
31
0
39
0
210
0
220
0
230
1
0
LINE
5
B2
100
AcDbEntity
8
1
62
256
6
ByLayer
370
18
48
1
60
1
100
AcDbLine
10
148
20
10.7155
30
0
11
148.460784
21
7.215502
31
0
39
0
210
0
220
0
230
1
0
LINE
5
B3
100
AcDbEntity
8
1
62
256
6
ByLayer
370
18
48
1
60
1
100
AcDbLine
10
148.460784
20
7.215502
30
0
11
147.539216
21
7.215498
31
0
39
0
210
0
220
0
230
1
0
LINE
5
B4
100
AcDbEntity
8
1
62
256
6
ByLayer
370
18
48
1
60
1
100
AcDbLine
10
147.539216
20
7.215498
30
0
11
148
21
10.7155
31
0
39
0
210
0
220
0
230
1
0
LINE
5
B5
100
AcDbEntity
8
1
62
256
6
ByLayer
370
18
48
1
60
1
100
AcDbLine
10
148
20
-10.7155
30
0
11
147.539216
21
-7.215502
31
0
39
0
210
0
220
0
230
1
0
LINE
5
B6
100
AcDbEntity
8
1
62
256
6
ByLayer
370
18
48
1
60
1
100
AcDbLine
10
147.539216
20
-7.215502
30
0
11
148.460784
21
-7.215498
31
0
39
0
210
0
220
0
230
1
0
LINE
5
B7
100
AcDbEntity
8
1
62
256
6
ByLayer
370
18
48
1
60
1
100
AcDbLine
10
148.460784
20
-7.215498
30
0
11
148
21
-10.7155
31
0
39
0
210
0
220
0
230
1
0
LINE
5
B8
100
AcDbEntity
8
SK2
62
256
6
ByLayer
370
13
48
1
60
0
100
AcDbLine
10
141.042957
20
-1.491762
30
0
11
147.682423
21
-19.733545
31
0
39
0
210
0
220
0
230
1
0
LINE
5
B9
100
AcDbEntity
8
SK2
62
256
6
ByLayer
370
13
48
1
60
0
100
AcDbLine
10
141.042957
20
1.491762
30
0
11
147.682423
21
19.733545
31
0
39
0
210
0
220
0
230
1
0
LINE
5
BA
100
AcDbEntity
8
1
62
256
6
ByLayer
370
18
48
1
60
1
100
AcDbLine
10
146.998383
20
-17.85416
30
0
11
150.051575
21
-16.082064
31
0
39
0
210
0
220
0
230
1
0
LINE
5
BB
100
AcDbEntity
8
1
62
256
6
ByLayer
370
18
48
1
60
1
100
AcDbLine
10
150.051575
20
-16.082064
30
0
11
150.406196
21
-16.93267
31
0
39
0
210
0
220
0
230
1
0
LINE
5
BC
100
AcDbEntity
8
1
62
256
6
ByLayer
370
18
48
1
60
1
100
AcDbLine
10
150.406196
20
-16.93267
30
0
11
146.998383
21
-17.85416
31
0
39
0
210
0
220
0
230
1
0
LINE
5
BD
100
AcDbEntity
8
1
62
256
6
ByLayer
370
18
48
1
60
1
100
AcDbLine
10
146.998383
20
17.85416
30
0
11
150.406193
21
16.932671
31
0
39
0
210
0
220
0
230
1
0
LINE
5
BE
100
AcDbEntity
8
1
62
256
6
ByLayer
370
18
48
1
60
1
100
AcDbLine
10
150.406193
20
16.932671
30
0
11
150.051579
21
16.082063
31
0
39
0
210
0
220
0
230
1
0
LINE
5
BF
100
AcDbEntity
8
1
62
256
6
ByLayer
370
18
48
1
60
1
100
AcDbLine
10
150.051579
20
16.082063
30
0
11
146.998383
21
17.85416
31
0
39
0
210
0
220
0
230
1
0
LINE
5
13C
100
AcDbEntity
8
1
62
256
6
ByLayer
370
18
48
1
60
1
100
AcDbLine
10
-62.5
20
12.7
30
0
11
-62.039216
21
9.200002
31
0
39
0
210
0
220
0
230
1
0
LINE
5
13D
100
AcDbEntity
8
1
62
256
6
ByLayer
370
18
48
1
60
1
100
AcDbLine
10
-62.039216
20
9.200002
30
0
11
-62.960784
21
9.199998
31
0
39
0
210
0
220
0
230
1
0
LINE
5
13E
100
AcDbEntity
8
1
62
256
6
ByLayer
370
18
48
1
60
1
100
AcDbLine
10
-62.960784
20
9.199998
30
0
11
-62.5
21
12.7
31
0
39
0
210
0
220
0
230
1
0
LINE
5
140
100
AcDbEntity
8
1
62
256
6
ByLayer
370
18
48
1
60
1
100
AcDbLine
10
-62.5
20
-12.7
30
0
11
-62.960784
21
-9.200002
31
0
39
0
210
0
220
0
230
1
0
LINE
5
141
100
AcDbEntity
8
1
62
256
6
ByLayer
370
18
48
1
60
1
100
AcDbLine
10
-62.960784
20
-9.200002
30
0
11
-62.039216
21
-9.199998
31
0
39
0
210
0
220
0
230
1
0
LINE
5
142
100
AcDbEntity
8
1
62
256
6
ByLayer
370
18
48
1
60
1
100
AcDbLine
10
-62.039216
20
-9.199998
30
0
11
-62.5
21
-12.7
31
0
39
0
210
0
220
0
230
1
0
LINE
5
146
100
AcDbEntity
8
1
62
256
6
ByLayer
370
18
48
1
60
1
100
AcDbLine
10
148
20
10.7155
30
0
11
148.460784
21
7.215502
31
0
39
0
210
0
220
0
230
1
0
LINE
5
147
100
AcDbEntity
8
1
62
256
6
ByLayer
370
18
48
1
60
1
100
AcDbLine
10
148.460784
20
7.215502
30
0
11
147.539216
21
7.215498
31
0
39
0
210
0
220
0
230
1
0
LINE
5
148
100
AcDbEntity
8
1
62
256
6
ByLayer
370
18
48
1
60
1
100
AcDbLine
10
147.539216
20
7.215498
30
0
11
148
21
10.7155
31
0
39
0
210
0
220
0
230
1
0
LINE
5
14A
100
AcDbEntity
8
1
62
256
6
ByLayer
370
18
48
1
60
1
100
AcDbLine
10
148
20
-10.7155
30
0
11
147.539216
21
-7.215502
31
0
39
0
210
0
220
0
230
1
0
LINE
5
14B
100
AcDbEntity
8
1
62
256
6
ByLayer
370
18
48
1
60
1
100
AcDbLine
10
147.539216
20
-7.215502
30
0
11
148.460784
21
-7.215498
31
0
39
0
210
0
220
0
230
1
0
LINE
5
14C
100
AcDbEntity
8
1
62
256
6
ByLayer
370
18
48
1
60
1
100
AcDbLine
10
148.460784
20
-7.215498
30
0
11
148
21
-10.7155
31
0
39
0
210
0
220
0
230
1
0
LINE
5
14F
100
AcDbEntity
8
1
62
256
6
ByLayer
370
18
48
1
60
1
100
AcDbLine
10
146.998383
20
-17.85416
30
0
11
150.051575
21
-16.082064
31
0
39
0
210
0
220
0
230
1
0
LINE
5
150
100
AcDbEntity
8
1
62
256
6
ByLayer
370
18
48
1
60
1
100
AcDbLine
10
150.051575
20
-16.082064
30
0
11
150.406196
21
-16.93267
31
0
39
0
210
0
220
0
230
1
0
LINE
5
151
100
AcDbEntity
8
1
62
256
6
ByLayer
370
18
48
1
60
1
100
AcDbLine
10
150.406196
20
-16.93267
30
0
11
146.998383
21
-17.85416
31
0
39
0
210
0
220
0
230
1
0
LINE
5
153
100
AcDbEntity
8
1
62
256
6
ByLayer
370
18
48
1
60
1
100
AcDbLine
10
146.998383
20
17.85416
30
0
11
150.406193
21
16.932671
31
0
39
0
210
0
220
0
230
1
0
LINE
5
154
100
AcDbEntity
8
1
62
256
6
ByLayer
370
18
48
1
60
1
100
AcDbLine
10
150.406193
20
16.932671
30
0
11
150.051579
21
16.082063
31
0
39
0
210
0
220
0
230
1
0
LINE
5
155
100
AcDbEntity
8
1
62
256
6
ByLayer
370
18
48
1
60
1
100
AcDbLine
10
150.051579
20
16.082063
30
0
11
146.998383
21
17.85416
31
0
39
0
210
0
220
0
230
1
0
MTEXT
5
138
100
AcDbEntity
8
SK2
62
256
6
ByLayer
370
18
48
1
60
0
100
AcDbMText
10
-63.841114
20
24.358437
30
0
210
0
220
0
230
1
1
%%c
40
3
41
0
44
1.084337
50
90
71
7
72
5
7
iso_b_vert
0
MTEXT
5
13B
100
AcDbEntity
8
SK2
62
256
6
ByLayer
370
18
48
1
60
0
100
AcDbMText
10
-63.841114
20
30.335
30
0
210
0
220
0
230
1
1
\W0.7728;25.400
40
3
41
0
44
1.084337
50
90
71
7
72
5
7
iso_b_vert
0
MTEXT
5
144
100
AcDbEntity
8
2
62
256
6
ByLayer
370
18
48
1
60
0
100
AcDbMText
10
146.658886
20
22.373937
30
0
210
0
220
0
230
1
1
%%c
40
3
41
0
44
1.084337
50
90
71
7
72
5
7
iso_b_vert
0
MTEXT
5
145
100
AcDbEntity
8
2
62
256
6
ByLayer
370
18
48
1
60
0
100
AcDbMText
10
146.658886
20
28.3505
30
0
210
0
220
0
230
1
1
\W0.7147;21.431
40
3
41
0
44
1.084337
50
90
71
7
72
5
7
iso_b_vert
0
MTEXT
5
14E
100
AcDbEntity
8
SK2
62
256
6
ByLayer
370
18
48
1
60
0
100
AcDbMText
10
160.409114
20
3.734657
30
0
210
0
220
0
230
1
1
\W0.7071;140%%d
40
3
41
0
44
1.084337
50
270
71
7
72
5
7
iso_b_vert
0
MTEXT
5
157
100
AcDbEntity
8
SK6
62
256
6
ByLayer
370
18
48
1
60
0
100
AcDbMText
10
14.023489
20
-67.114886
30
0
210
0
220
0
230
1
1
\W0.7833;H85527/32
40
3
41
0
44
1.084337
50
0
71
7
72
5
7
iso_b_vert
0
HATCH
5
13F
100
AcDbEntity
8
SK2
62
256
6
ByLayer
370
13
48
1
60
0
100
AcDbHatch
10
0
20
0
30
0
210
0
220
0
230
1
2
ANSI31
70
0
71
0
91
1
92
5
93
3
72
1
10
-62.5
20
12.7
11
-62.0392162584472
21
9.20000169255317
72
1
10
-62.0392162584472
20
9.20000169255317
11
-62.9607837415528
21
9.1999983074468
72
1
10
-62.9607837415528
20
9.1999983074468
11
-62.5
21
12.7
97
0
75
0
76
1
52
0
41
0.0062
77
0
78
1
53
45
43
0
44
0
45
-0.0139193969876572
46
0.0139193969876572
79
0
47
0
98
1
10
0
20
0
0
HATCH
5
143
100
AcDbEntity
8
SK2
62
256
6
ByLayer
370
13
48
1
60
0
100
AcDbHatch
10
0
20
0
30
0
210
0
220
0
230
1
2
ANSI31
70
0
71
0
91
1
92
5
93
3
72
1
10
-62.5
20
-12.7
11
-62.9607837415528
21
-9.2000016925532
72
1
10
-62.9607837415528
20
-9.2000016925532
11
-62.0392162584472
21
-9.19999830744683
72
1
10
-62.0392162584472
20
-9.19999830744683
11
-62.5
21
-12.7
97
0
75
0
76
1
52
0
41
0.0062
77
0
78
1
53
45
43
0
44
0
45
-0.0139193969876572
46
0.0139193969876572
79
0
47
0
98
1
10
0
20
0
0
HATCH
5
149
100
AcDbEntity
8
2
62
256
6
ByLayer
370
13
48
1
60
0
100
AcDbHatch
10
0
20
0
30
0
210
0
220
0
230
1
2
ANSI31
70
0
71
0
91
1
92
5
93
3
72
1
10
148
20
10.7155
11
148.460783741553
21
7.21550169255318
72
1
10
148.460783741553
20
7.21550169255318
11
147.539216258447
21
7.21549830744681
72
1
10
147.539216258447
20
7.21549830744681
11
148
21
10.7155
97
0
75
0
76
1
52
0
41
0.0062
77
0
78
1
53
45
43
0
44
0
45
-0.0139193969876572
46
0.0139193969876572
79
0
47
0
98
1
10
0
20
0
0
HATCH
5
14D
100
AcDbEntity
8
2
62
256
6
ByLayer
370
13
48
1
60
0
100
AcDbHatch
10
0
20
0
30
0
210
0
220
0
230
1
2
ANSI31
70
0
71
0
91
1
92
5
93
3
72
1
10
148
20
-10.7155
11
147.539216258447
21
-7.2155016925532
72
1
10
147.539216258447
20
-7.2155016925532
11
148.460783741553
21
-7.21549830744684
72
1
10
148.460783741553
20
-7.21549830744684
11
148
21
-10.7155
97
0
75
0
76
1
52
0
41
0.0062
77
0
78
1
53
45
43
0
44
0
45
-0.0139193969876572
46
0.0139193969876572
79
0
47
0
98
1
10
0
20
0
0
HATCH
5
152
100
AcDbEntity
8
SK2
62
256
6
ByLayer
370
13
48
1
60
0
100
AcDbHatch
10
0
20
0
30
0
210
0
220
0
230
1
2
ANSI31
70
0
71
0
91
1
92
5
93
3
72
1
10
146.998382723188
20
-17.8541597949323
11
150.051575425693
21
-16.0820638240608
72
1
10
150.051575425693
20
-16.0820638240608
11
150.406195833975
21
-16.9326700737196
72
1
10
150.406195833975
20
-16.9326700737196
11
146.998382723188
21
-17.8541597949323
97
0
75
0
76
1
52
0
41
0.0062
77
0
78
1
53
45
43
0
44
0
45
-0.0139193969876572
46
0.0139193969876572
79
0
47
0
98
1
10
0
20
0
0
HATCH
5
156
100
AcDbEntity
8
SK2
62
256
6
ByLayer
370
13
48
1
60
0
100
AcDbHatch
10
0
20
0
30
0
210
0
220
0
230
1
2
ANSI31
70
0
71
0
91
1
92
5
93
3
72
1
10
146.998382723188
20
17.8541597949323
11
150.406192709519
21
16.9326713763017
72
1
10
150.406192709519
20
16.9326713763017
11
150.051578550149
21
16.0820625214788
72
1
10
150.051578550149
20
16.0820625214788
11
146.998382723188
21
17.8541597949323
97
0
75
0
76
1
52
0
41
0.0062
77
0
78
1
53
45
43
0
44
0
45
-0.0139193969876572
46
0.0139193969876572
79
0
47
0
98
1
10
0
20
0
0
DIMENSION
5
15A
100
AcDbEntity
8
SK2
62
256
6
ByLayer
370
18
48
1
60
0
100
AcDbDimension
2
_U0
10
140.5
20
-45.952229
30
0
11
42.25
21
-45.952229
31
0
70
32
71
1
72
1
41
1
210
0
220
0
230
1
3
Standard
100
AcDbAlignedDimension
13
-56
23
-12.7
33
0
14
140.5
24
0
34
0
50
0
100
AcDbRotatedDimension
1001
ACAD
1000
DSTYLE
1002
{
1070
   371
1070
    13
1070
   372
1070
    13
1070
     3
1000

1070
   170
1070
     0
1070
   144
1040
1.0
1070
   277
1070
     2
1070
   284
1070
     8
1070
   278
1070
    46
1070
   146
1040
1.166667
1070
   345
1005
16
1070
   347
1005
16
1070
   346
1005
16
1070
   344
1005
0
1070
   343
1005
0
1070
   172
1070
     1
1070
    76
1070
     0
1070
    75
1070
     0
1070
   282
1070
     0
1070
   281
1070
     0
1070
    71
1070
     0
1070
    74
1070
     0
1070
   279
1070
     0
1070
   173
1070
     1
1070
   340
1005
139
1070
   271
1070
     2
1070
   272
1070
     3
1070
    77
1070
     1
1070
    73
1070
     1
1070
   171
1070
     3
1070
   274
1070
     4
1070
   177
1070
     2
1070
   176
1070
     2
1070
   178
1070
     2
1070
    78
1070
     8
1070
    48
1040
-0.1
1070
    41
1040
3.5
1070
   147
1040
1.5
1070
    42
1040
1.5875
1070
    44
1040
2.0
1070
   140
1040
3.0
1002
}
1001
ACAD_DSTYLE_DIM_LINETYPE
1070
   380
1005
16
1001
ACAD_DSTYLE_DIM_EXT1_LINETYPE
1070
   381
1005
16
1001
ACAD_DSTYLE_DIM_EXT2_LINETYPE
1070
   382
1005
16
0
DIMENSION
5
173
100
AcDbEntity
8
SK2
62
256
6
ByLayer
370
18
48
1
60
0
100
AcDbDimension
2
_U1
10
3
20
-35.952229
30
0
11
71.75
21
-35.952229
31
0
70
32
71
1
72
1
41
1
210
0
220
0
230
1
3
Standard
100
AcDbAlignedDimension
13
140.5
23
0
33
0
14
3
24
-10.7155
34
0
50
0
100
AcDbRotatedDimension
1001
ACAD
1000
DSTYLE
1002
{
1070
   371
1070
    13
1070
   372
1070
    13
1070
     3
1000

1070
   170
1070
     0
1070
   144
1040
1.0
1070
   277
1070
     2
1070
   284
1070
     8
1070
   278
1070
    46
1070
   146
1040
1.166667
1070
   345
1005
16
1070
   347
1005
16
1070
   346
1005
16
1070
   344
1005
0
1070
   343
1005
0
1070
   172
1070
     1
1070
    76
1070
     0
1070
    75
1070
     0
1070
   282
1070
     0
1070
   281
1070
     0
1070
    71
1070
     0
1070
    74
1070
     0
1070
   279
1070
     0
1070
   173
1070
     1
1070
   340
1005
139
1070
   271
1070
     2
1070
   272
1070
     3
1070
    77
1070
     1
1070
    73
1070
     1
1070
   171
1070
     3
1070
   274
1070
     4
1070
   177
1070
     2
1070
   176
1070
     2
1070
   178
1070
     2
1070
    78
1070
     8
1070
    48
1040
-0.1
1070
    41
1040
3.5
1070
   147
1040
1.5
1070
    42
1040
1.5875
1070
    44
1040
2.0
1070
   140
1040
3.0
1002
}
1001
ACAD_DSTYLE_DIM_LINETYPE
1070
   380
1005
16
1001
ACAD_DSTYLE_DIM_EXT1_LINETYPE
1070
   381
1005
16
1001
ACAD_DSTYLE_DIM_EXT2_LINETYPE
1070
   382
1005
16
0
DIMENSION
5
18B
100
AcDbEntity
8
SK2
62
256
6
ByLayer
370
18
48
1
60
0
100
AcDbDimension
2
_U2
10
0
20
-35.952229
30
0
11
-28
21
-35.952229
31
0
70
32
71
1
72
1
41
1
210
0
220
0
230
1
3
Standard
100
AcDbAlignedDimension
13
-56
23
-12.7
33
0
14
0
24
-12.7
34
0
50
0
100
AcDbRotatedDimension
1001
ACAD
1000
DSTYLE
1002
{
1070
   371
1070
    13
1070
   372
1070
    13
1070
     3
1000

1070
   170
1070
     0
1070
   144
1040
1.0
1070
   277
1070
     2
1070
   284
1070
     8
1070
   278
1070
    46
1070
   146
1040
1.166667
1070
   345
1005
16
1070
   347
1005
16
1070
   346
1005
16
1070
   344
1005
0
1070
   343
1005
0
1070
   172
1070
     1
1070
    76
1070
     0
1070
    75
1070
     0
1070
   282
1070
     0
1070
   281
1070
     0
1070
    71
1070
     0
1070
    74
1070
     0
1070
   279
1070
     0
1070
   173
1070
     1
1070
   340
1005
139
1070
   271
1070
     2
1070
   272
1070
     3
1070
    77
1070
     1
1070
    73
1070
     1
1070
   171
1070
     3
1070
   274
1070
     4
1070
   177
1070
     2
1070
   176
1070
     2
1070
   178
1070
     2
1070
    78
1070
     8
1070
    48
1040
-0.1
1070
    41
1040
3.5
1070
   147
1040
1.5
1070
    42
1040
1.5875
1070
    44
1040
2.0
1070
   140
1040
3.0
1002
}
1001
ACAD_DSTYLE_DIM_LINETYPE
1070
   380
1005
16
1001
ACAD_DSTYLE_DIM_EXT1_LINETYPE
1070
   381
1005
16
1001
ACAD_DSTYLE_DIM_EXT2_LINETYPE
1070
   382
1005
16
0
DIMENSION
5
1A3
100
AcDbEntity
8
SK2
62
256
6
ByLayer
370
18
48
1
60
0
100
AcDbDimension
2
_U3
10
21
20
32.952229
30
0
11
80.75
21
32.952229
31
0
70
32
71
1
72
1
41
1
210
0
220
0
230
1
3
Standard
100
AcDbAlignedDimension
13
140.5
23
0
33
0
14
21
24
10.7155
34
0
50
0
100
AcDbRotatedDimension
1001
ACAD
1000
DSTYLE
1002
{
1070
   371
1070
    13
1070
   372
1070
    13
1070
     3
1000

1070
   170
1070
     0
1070
   144
1040
1.0
1070
   277
1070
     2
1070
   284
1070
     8
1070
   278
1070
    46
1070
   146
1040
1.166667
1070
   345
1005
16
1070
   347
1005
16
1070
   346
1005
16
1070
   344
1005
0
1070
   343
1005
0
1070
   172
1070
     1
1070
    76
1070
     0
1070
    75
1070
     0
1070
   282
1070
     0
1070
   281
1070
     0
1070
    71
1070
     0
1070
    74
1070
     0
1070
   279
1070
     0
1070
   173
1070
     1
1070
   340
1005
139
1070
   271
1070
     2
1070
   272
1070
     3
1070
    77
1070
     1
1070
    73
1070
     1
1070
   171
1070
     3
1070
   274
1070
     4
1070
   177
1070
     2
1070
   176
1070
     2
1070
   178
1070
     2
1070
    78
1070
     8
1070
    48
1040
-0.1
1070
    41
1040
3.5
1070
   147
1040
1.5
1070
    42
1040
1.5875
1070
    44
1040
2.0
1070
   140
1040
3.0
1002
}
1001
ACAD_DSTYLE_DIM_LINETYPE
1070
   380
1005
16
1001
ACAD_DSTYLE_DIM_EXT1_LINETYPE
1070
   381
1005
16
1001
ACAD_DSTYLE_DIM_EXT2_LINETYPE
1070
   382
1005
16
0
ENDSEC
0
SECTION
2
OBJECTS
0
DICTIONARY
5
22b
330
0
100
AcDbDictionary
280
0
281
1
3
ACAD_GROUP
350
22c
3
ACAD_MLINESTYLE
350
22d
0
DICTIONARY
5
22c
330
0
100
AcDbDictionary
280
0
281
1
0
DICTIONARY
5
22d
330
0
100
AcDbDictionary
280
0
281
1
3
Standard
350
18
0
MLINESTYLE
5
18
330
22d
100
AcDbMlineStyle
2
Standard
70
0
3

62
256
51
90
52
90
71
2
49
-0.5
62
256
6
ByLayer
49
0.5
62
256
6
ByLayer
0
RASTERVARIABLES
5
219
330

100
AcDbRasterVariables
90
0
70
1
71
1
72
1
0
ENDSEC
0
EOF
