0
SECTION
2
HEADER
9
$ACADVER
1
AC1015
9
$DWGCODEPAGE
3
ANSI_1252
9
$HANDSEED
5
24b
9
$ANGBASE
50
0
9
$ANGDIR
70
0
9
$ATTMODE
70
1
9
$AUNITS
70
0
9
$AUPREC
70
0
9
$CECOLOR
62
256
9
$CELTSCALE
40
1
9
$CELTYPE
6
ByLayer
9
$CELWEIGHT
370
18
9
$CLAYER
8
0
9
$CMLJUST
70
0
9
$CMLSCALE
40
1
9
$CMLSTYLE
2
Standard
9
$DIMSTYLE
2
Standard
9
$TEXTSIZE
40
0.2
9
$TEXTSTYLE
7
Standard
9
$LUNITS
70
2
9
$LUPREC
70
4
9
$EXTNAMES
290
1
9
$INSUNITS
70
4
9
$LTSCALE
40
1
9
$LWDISPLAY
290
1
9
$PDMODE
70
0
9
$PDSIZE
40
0
9
$PLINEGEN
70
0
0
ENDSEC
0
SECTION
2
CLASSES
0
CLASS
1
RASTERVARIABLES
2
AcDbRasterVariables
3
ISM
90
0
280
0
281
0
0
ENDSEC
0
SECTION
2
TABLES
0
TABLE
2
VPORT
5
241
100
AcDbSymbolTable
0
VPORT
5
1
100
AcDbSymbolTableRecord
100
AcDbViewportTableRecord
2
*Active
70
0
10
0
20
0
11
1
21
1
12
-1
22
1
13
0
23
0
14
0.5
24
0.5
15
10
25
10
16
0
26
0
36
1
17
0
27
0
37
0
0
ENDTAB
0
TABLE
2
LTYPE
5
242
100
AcDbSymbolTable
0
LTYPE
5
14
100
AcDbSymbolTableRecord
100
AcDbLinetypeTableRecord
70
0
2
ByBlock
3

72
65
73
0
40
0
0
LTYPE
5
15
100
AcDbSymbolTableRecord
100
AcDbLinetypeTableRecord
70
0
2
ByLayer
3

72
65
73
0
40
0
0
LTYPE
5
16
100
AcDbSymbolTableRecord
100
AcDbLinetypeTableRecord
70
0
2
Continuous
3
Solid line
72
65
73
0
40
0
0
LTYPE
5
6E
100
AcDbSymbolTableRecord
100
AcDbLinetypeTableRecord
70
0
2
CENTER
3
____ _ ____ _ ____ _ ____
72
65
73
4
40
47.5
49
22
74
0
49
-8.5
74
0
49
8.5
74
0
49
-8.5
74
0
0
LTYPE
5
6F
100
AcDbSymbolTableRecord
100
AcDbLinetypeTableRecord
70
0
2
DASHED
3
__ __ __ __ __ __ __ __ __
72
65
73
2
40
25.72
49
12.86
74
0
49
-12.86
74
0
0
ENDTAB
0
TABLE
2
LAYER
5
243
100
AcDbSymbolTable
0
LAYER
5
10
100
AcDbSymbolTableRecord
100
AcDbLayerTableRecord
2
0
70
0
62
7
6
Continuous
290
1
370
-3
390
0
0
LAYER
5
71
100
AcDbSymbolTableRecord
100
AcDbLayerTableRecord
2
80
70
0
62
-6
6
Continuous
290
1
370
-3
390
0
0
LAYER
5
73
100
AcDbSymbolTableRecord
100
AcDbLayerTableRecord
2
81
70
0
62
-3
6
Continuous
290
1
370
-3
390
0
0
LAYER
5
75
100
AcDbSymbolTableRecord
100
AcDbLayerTableRecord
2
1
70
0
62
4
6
Continuous
290
1
370
-3
390
0
0
LAYER
5
7F
100
AcDbSymbolTableRecord
100
AcDbLayerTableRecord
2
4
70
0
62
-2
6
CENTER
290
1
370
-3
390
0
0
LAYER
5
B0
100
AcDbSymbolTableRecord
100
AcDbLayerTableRecord
2
2
70
0
62
7
6
Continuous
290
1
370
-3
390
0
0
LAYER
5
170
100
AcDbSymbolTableRecord
100
AcDbLayerTableRecord
2
Defpoints
70
0
62
7
6
Continuous
290
0
370
-3
390
0
0
LAYER
5
22d
100
AcDbSymbolTableRecord
100
AcDbLayerTableRecord
2
SK4
70
0
62
2
6
CENTER
290
1
370
-3
390
0
0
LAYER
5
22e
100
AcDbSymbolTableRecord
100
AcDbLayerTableRecord
2
SK1
70
0
62
4
6
Continuous
290
1
370
-3
390
0
0
LAYER
5
22f
100
AcDbSymbolTableRecord
100
AcDbLayerTableRecord
2
SK2
70
0
62
7
6
Continuous
290
1
370
-3
390
0
0
LAYER
5
230
100
AcDbSymbolTableRecord
100
AcDbLayerTableRecord
2
SK6
70
0
62
5
6
Continuous
290
1
370
-3
390
0
0
ENDTAB
0
TABLE
2
STYLE
5
244
100
AcDbSymbolTable
0
STYLE
5
11
100
AcDbSymbolTableRecord
100
AcDbTextStyleTableRecord
2
Standard
3
txt
70
0
71
0
40
0
41
1
42
0
50
0
0
STYLE
5
14C
100
AcDbSymbolTableRecord
100
AcDbTextStyleTableRecord
2
iso_b_vert
3
simplex.shx
70
0
71
0
40
0
41
1
42
0
50
0
0
STYLE
5
14D
100
AcDbSymbolTableRecord
100
AcDbTextStyleTableRecord
2
DWGDirectTextStyle
3
simplex
70
0
71
0
40
0
41
1
42
0
50
0
0
ENDTAB
0
TABLE
2
DIMSTYLE
5
245
100
AcDbSymbolTable
100
AcDbDimStyleTable
0
DIMSTYLE
105
27
100
AcDbSymbolTableRecord
100
AcDbDimStyleTableRecord
2
Standard
70
0
3
<>
41
0.18
42
0.0625
44
0.18
140
0.18
147
0.09
73
0
74
0
77
1
271
2
275
0
278
52
280
0
340
11
0
ENDTAB
0
TABLE
2
VIEW
5
246
100
AcDbSymbolTable
0
ENDTAB
0
TABLE
2
UCS
5
247
100
AcDbSymbolTable
0
ENDTAB
0
TABLE
2
APPID
5
248
100
AcDbSymbolTable
0
APPID
5
12
100
AcDbSymbolTableRecord
100
AcDbRegAppTableRecord
2
ACAD
70
0
0
APPID
5
16C
100
AcDbSymbolTableRecord
100
AcDbRegAppTableRecord
2
ACAD_DSTYLE_DIMBREAK
70
0
0
APPID
5
1EC
100
AcDbSymbolTableRecord
100
AcDbRegAppTableRecord
2
ACAD_DSTYLE_DIM_LINETYPE
70
0
0
APPID
5
1ED
100
AcDbSymbolTableRecord
100
AcDbRegAppTableRecord
2
ACAD_DSTYLE_DIM_EXT1_LINETYPE
70
0
0
APPID
5
1EE
100
AcDbSymbolTableRecord
100
AcDbRegAppTableRecord
2
ACAD_DSTYLE_DIM_EXT2_LINETYPE
70
0
0
APPID
5
229
100
AcDbSymbolTableRecord
100
AcDbRegAppTableRecord
2
ACAD_MLEADERVER
70
0
0
ENDTAB
0
TABLE
2
BLOCK_RECORD
5
249
100
AcDbSymbolTable
0
BLOCK_RECORD
5
1F
100
AcDbSymbolTableRecord
100
AcDbBlockTableRecord
2
*Model_Space
340
0
70
0
0
BLOCK_RECORD
5
1B
100
AcDbSymbolTableRecord
100
AcDbBlockTableRecord
2
*Paper_Space
340
0
70
0
0
BLOCK_RECORD
5
23
100
AcDbSymbolTableRecord
100
AcDbBlockTableRecord
2
*Paper_Space0
340
0
70
0
0
BLOCK_RECORD
5
171
100
AcDbSymbolTableRecord
100
AcDbBlockTableRecord
2
*D1
340
0
70
0
0
BLOCK_RECORD
5
17D
100
AcDbSymbolTableRecord
100
AcDbBlockTableRecord
2
_U0
340
0
70
0
0
BLOCK_RECORD
5
189
100
AcDbSymbolTableRecord
100
AcDbBlockTableRecord
2
*D3
340
0
70
0
0
BLOCK_RECORD
5
195
100
AcDbSymbolTableRecord
100
AcDbBlockTableRecord
2
_U1
340
0
70
0
0
BLOCK_RECORD
5
1A1
100
AcDbSymbolTableRecord
100
AcDbBlockTableRecord
2
*D5
340
0
70
0
0
BLOCK_RECORD
5
1AD
100
AcDbSymbolTableRecord
100
AcDbBlockTableRecord
2
_U2
340
0
70
0
0
BLOCK_RECORD
5
1B9
100
AcDbSymbolTableRecord
100
AcDbBlockTableRecord
2
*D7
340
0
70
0
0
BLOCK_RECORD
5
1C5
100
AcDbSymbolTableRecord
100
AcDbBlockTableRecord
2
_U3
340
0
70
0
0
ENDTAB
0
ENDSEC
0
SECTION
2
BLOCKS
0
BLOCK
5
20
100
AcDbEntity
8
0
100
AcDbBlockBegin
2
*Model_Space
70
0
10
0
20
0
30
0
3
*Model_Space
0
ENDBLK
5
21
100
AcDbEntity
8
0
100
AcDbBlockEnd
0
BLOCK
5
1C
100
AcDbEntity
8
0
100
AcDbBlockBegin
2
*Paper_Space
70
0
10
0
20
0
30
0
3
*Paper_Space
0
ENDBLK
5
1D
100
AcDbEntity
8
0
100
AcDbBlockEnd
0
BLOCK
5
24
100
AcDbEntity
8
0
100
AcDbBlockBegin
2
*Paper_Space0
70
0
10
0
20
0
30
0
3
*Paper_Space0
0
ENDBLK
5
25
100
AcDbEntity
8
0
100
AcDbBlockEnd
0
BLOCK
5
172
100
AcDbEntity
8
0
100
AcDbBlockBegin
2
*D1
70
1
10
0
20
0
30
0
3
*D1
0
LINE
5
174
100
AcDbEntity
8
0
62
256
6
ByLayer
370
-2
48
1
60
0
100
AcDbLine
10
-60
20
-17.5875
30
0
11
-60
21
-47.952229
31
0
39
0
210
0
220
0
230
1
0
LINE
5
175
100
AcDbEntity
8
0
62
256
6
ByLayer
370
-2
48
1
60
0
100
AcDbLine
10
165
20
-1.5875
30
0
11
165
21
-47.952229
31
0
39
0
210
0
220
0
230
1
0
LINE
5
176
100
AcDbEntity
8
0
62
256
6
ByLayer
370
-2
48
1
60
0
100
AcDbLine
10
-56.5
20
-45.952229
30
0
11
161.5
21
-45.952229
31
0
39
0
210
0
220
0
230
1
0
SOLID
5
177
100
AcDbEntity
8
0
62
256
6
ByLayer
370
-1
48
1
60
0
100
AcDbTrace
10
-56.5
20
-45.368896
30
0
11
-56.5
21
-46.535563
31
0
12
-60
22
-45.952229
32
0
13
-60
23
-45.952229
33
0
39
0
210
0
220
0
230
1
0
SOLID
5
178
100
AcDbEntity
8
0
62
256
6
ByLayer
370
-1
48
1
60
0
100
AcDbTrace
10
161.5
20
-46.535563
30
0
11
161.5
21
-45.368896
31
0
12
165
22
-45.952229
32
0
13
165
23
-45.952229
33
0
39
0
210
0
220
0
230
1
0
MTEXT
5
179
100
AcDbEntity
8
0
62
256
6
ByLayer
370
18
48
1
60
0
100
AcDbMText
10
52.5
20
-39.952229
30
0
210
0
220
0
230
1
1
\A1;225
40
3
41
0
44
1
50
0
71
5
72
5
7
iso_b_vert
0
POINT
5
17A
100
AcDbEntity
8
Defpoints
62
0
6
ByLayer
370
-1
48
1
60
0
100
AcDbPoint
10
-60
20
-16
30
0
39
0
210
0
220
0
230
1
50
360
0
POINT
5
17B
100
AcDbEntity
8
Defpoints
62
0
6
ByLayer
370
-1
48
1
60
0
100
AcDbPoint
10
165
20
0
30
0
39
0
210
0
220
0
230
1
50
360
0
POINT
5
17C
100
AcDbEntity
8
Defpoints
62
0
6
ByLayer
370
-1
48
1
60
0
100
AcDbPoint
10
165
20
-45.952229
30
0
39
0
210
0
220
0
230
1
50
360
0
ENDBLK
5
173
100
AcDbEntity
8
0
100
AcDbBlockEnd
0
BLOCK
5
184
100
AcDbEntity
8
0
100
AcDbBlockBegin
2
_U0
70
0
10
0
20
0
30
0
3
_U0
0
MTEXT
5
17E
100
AcDbEntity
8
SK2
62
256
6
ByLayer
370
18
48
1
60
0
100
AcDbMText
10
46.896716
20
-45.067115
30
0
210
0
220
0
230
1
1
\W0.7513;225.00
40
3
41
0
44
1.084337
50
0
71
7
72
5
7
iso_b_vert
0
LINE
5
17F
100
AcDbEntity
8
SK2
62
256
6
ByLayer
370
13
48
1
60
0
100
AcDbLine
10
-60
20
-17.5875
30
0
11
-60
21
-47.952229
31
0
39
0
210
0
220
0
230
1
0
LINE
5
180
100
AcDbEntity
8
SK2
62
256
6
ByLayer
370
13
48
1
60
0
100
AcDbLine
10
165
20
-1.5875
30
0
11
165
21
-47.952229
31
0
39
0
210
0
220
0
230
1
0
LINE
5
181
100
AcDbEntity
8
SK2
62
256
6
ByLayer
370
13
48
1
60
0
100
AcDbLine
10
-60
20
-45.952229
30
0
11
165
21
-45.952229
31
0
39
0
210
0
220
0
230
1
0
SOLID
5
182
100
AcDbEntity
8
SK2
62
256
6
ByLayer
370
18
48
1
60
0
100
AcDbTrace
10
-60
20
-45.952229
30
0
11
-56.500002
21
-45.491446
31
0
12
-56.499998
22
-46.413013
32
0
13
-56.499998
23
-46.413013
33
0
39
0
210
0
220
0
230
1
0
SOLID
5
183
100
AcDbEntity
8
SK2
62
256
6
ByLayer
370
18
48
1
60
0
100
AcDbTrace
10
165
20
-45.952229
30
0
11
161.500002
21
-46.413013
31
0
12
161.499998
22
-45.491446
32
0
13
161.499998
23
-45.491446
33
0
39
0
210
0
220
0
230
1
0
ENDBLK
5
185
100
AcDbEntity
8
0
100
AcDbBlockEnd
0
BLOCK
5
18A
100
AcDbEntity
8
0
100
AcDbBlockBegin
2
*D3
70
1
10
0
20
0
30
0
3
*D3
0
LINE
5
18C
100
AcDbEntity
8
0
62
256
6
ByLayer
370
-2
48
1
60
0
100
AcDbLine
10
165
20
-1.5875
30
0
11
165
21
-37.952229
31
0
39
0
210
0
220
0
230
1
0
LINE
5
18D
100
AcDbEntity
8
0
62
256
6
ByLayer
370
-2
48
1
60
0
100
AcDbLine
10
3
20
-14.0875
30
0
11
3
21
-37.952229
31
0
39
0
210
0
220
0
230
1
0
LINE
5
18E
100
AcDbEntity
8
0
62
256
6
ByLayer
370
-2
48
1
60
0
100
AcDbLine
10
161.5
20
-35.952229
30
0
11
6.5
21
-35.952229
31
0
39
0
210
0
220
0
230
1
0
SOLID
5
18F
100
AcDbEntity
8
0
62
256
6
ByLayer
370
-1
48
1
60
0
100
AcDbTrace
10
161.5
20
-36.535563
30
0
11
161.5
21
-35.368896
31
0
12
165
22
-35.952229
32
0
13
165
23
-35.952229
33
0
39
0
210
0
220
0
230
1
0
SOLID
5
190
100
AcDbEntity
8
0
62
256
6
ByLayer
370
-1
48
1
60
0
100
AcDbTrace
10
6.5
20
-35.368896
30
0
11
6.5
21
-36.535563
31
0
12
3
22
-35.952229
32
0
13
3
23
-35.952229
33
0
39
0
210
0
220
0
230
1
0
MTEXT
5
191
100
AcDbEntity
8
0
62
256
6
ByLayer
370
18
48
1
60
0
100
AcDbMText
10
84
20
-29.952229
30
0
210
0
220
0
230
1
1
\A1;162
40
3
41
0
44
1
50
0
71
5
72
5
7
iso_b_vert
0
POINT
5
192
100
AcDbEntity
8
Defpoints
62
0
6
ByLayer
370
-1
48
1
60
0
100
AcDbPoint
10
165
20
0
30
0
39
0
210
0
220
0
230
1
50
360
0
POINT
5
193
100
AcDbEntity
8
Defpoints
62
0
6
ByLayer
370
-1
48
1
60
0
100
AcDbPoint
10
3
20
-12.5
30
0
39
0
210
0
220
0
230
1
50
360
0
POINT
5
194
100
AcDbEntity
8
Defpoints
62
0
6
ByLayer
370
-1
48
1
60
0
100
AcDbPoint
10
3
20
-35.952229
30
0
39
0
210
0
220
0
230
1
50
360
0
ENDBLK
5
18B
100
AcDbEntity
8
0
100
AcDbBlockEnd
0
BLOCK
5
19C
100
AcDbEntity
8
0
100
AcDbBlockBegin
2
_U1
70
0
10
0
20
0
30
0
3
_U1
0
MTEXT
5
196
100
AcDbEntity
8
SK2
62
256
6
ByLayer
370
18
48
1
60
0
100
AcDbMText
10
78.771658
20
-35.067115
30
0
210
0
220
0
230
1
1
\W0.7022;162.00
40
3
41
0
44
1.084337
50
0
71
7
72
5
7
iso_b_vert
0
LINE
5
197
100
AcDbEntity
8
SK2
62
256
6
ByLayer
370
13
48
1
60
0
100
AcDbLine
10
165
20
-1.5875
30
0
11
165
21
-37.952229
31
0
39
0
210
0
220
0
230
1
0
LINE
5
198
100
AcDbEntity
8
SK2
62
256
6
ByLayer
370
13
48
1
60
0
100
AcDbLine
10
3
20
-14.0875
30
0
11
3
21
-37.952229
31
0
39
0
210
0
220
0
230
1
0
LINE
5
199
100
AcDbEntity
8
SK2
62
256
6
ByLayer
370
13
48
1
60
0
100
AcDbLine
10
165
20
-35.952229
30
0
11
3
21
-35.952229
31
0
39
0
210
0
220
0
230
1
0
SOLID
5
19A
100
AcDbEntity
8
SK2
62
256
6
ByLayer
370
18
48
1
60
0
100
AcDbTrace
10
165
20
-35.952229
30
0
11
161.500002
21
-36.413013
31
0
12
161.499998
22
-35.491446
32
0
13
161.499998
23
-35.491446
33
0
39
0
210
0
220
0
230
1
0
SOLID
5
19B
100
AcDbEntity
8
SK2
62
256
6
ByLayer
370
18
48
1
60
0
100
AcDbTrace
10
3
20
-35.952229
30
0
11
6.499998
21
-35.491446
31
0
12
6.500002
22
-36.413013
32
0
13
6.500002
23
-36.413013
33
0
39
0
210
0
220
0
230
1
0
ENDBLK
5
19D
100
AcDbEntity
8
0
100
AcDbBlockEnd
0
BLOCK
5
1A2
100
AcDbEntity
8
0
100
AcDbBlockBegin
2
*D5
70
1
10
0
20
0
30
0
3
*D5
0
LINE
5
1A4
100
AcDbEntity
8
0
62
256
6
ByLayer
370
-2
48
1
60
0
100
AcDbLine
10
-60
20
-17.5875
30
0
11
-60
21
-37.952229
31
0
39
0
210
0
220
0
230
1
0
LINE
5
1A5
100
AcDbEntity
8
0
62
256
6
ByLayer
370
-2
48
1
60
0
100
AcDbLine
10
0
20
-17.5875
30
0
11
0
21
-37.952229
31
0
39
0
210
0
220
0
230
1
0
LINE
5
1A6
100
AcDbEntity
8
0
62
256
6
ByLayer
370
-2
48
1
60
0
100
AcDbLine
10
-56.5
20
-35.952229
30
0
11
-3.5
21
-35.952229
31
0
39
0
210
0
220
0
230
1
0
SOLID
5
1A7
100
AcDbEntity
8
0
62
256
6
ByLayer
370
-1
48
1
60
0
100
AcDbTrace
10
-56.5
20
-35.368896
30
0
11
-56.5
21
-36.535563
31
0
12
-60
22
-35.952229
32
0
13
-60
23
-35.952229
33
0
39
0
210
0
220
0
230
1
0
SOLID
5
1A8
100
AcDbEntity
8
0
62
256
6
ByLayer
370
-1
48
1
60
0
100
AcDbTrace
10
-3.5
20
-36.535563
30
0
11
-3.5
21
-35.368896
31
0
12
0
22
-35.952229
32
0
13
0
23
-35.952229
33
0
39
0
210
0
220
0
230
1
0
MTEXT
5
1A9
100
AcDbEntity
8
0
62
256
6
ByLayer
370
18
48
1
60
0
100
AcDbMText
10
-30
20
-29.952229
30
0
210
0
220
0
230
1
1
\A1;60
40
3
41
0
44
1
50
0
71
5
72
5
7
iso_b_vert
0
POINT
5
1AA
100
AcDbEntity
8
Defpoints
62
0
6
ByLayer
370
-1
48
1
60
0
100
AcDbPoint
10
-60
20
-16
30
0
39
0
210
0
220
0
230
1
50
360
0
POINT
5
1AB
100
AcDbEntity
8
Defpoints
62
0
6
ByLayer
370
-1
48
1
60
0
100
AcDbPoint
10
0
20
-16
30
0
39
0
210
0
220
0
230
1
50
360
0
POINT
5
1AC
100
AcDbEntity
8
Defpoints
62
0
6
ByLayer
370
-1
48
1
60
0
100
AcDbPoint
10
0
20
-35.952229
30
0
39
0
210
0
220
0
230
1
50
360
0
ENDBLK
5
1A3
100
AcDbEntity
8
0
100
AcDbBlockEnd
0
BLOCK
5
1B4
100
AcDbEntity
8
0
100
AcDbBlockBegin
2
_U2
70
0
10
0
20
0
30
0
3
_U2
0
MTEXT
5
1AE
100
AcDbEntity
8
SK2
62
256
6
ByLayer
370
18
48
1
60
0
100
AcDbMText
10
-34.48237
20
-35.067115
30
0
210
0
220
0
230
1
1
\W0.7468;60.00
40
3
41
0
44
1.084337
50
0
71
7
72
5
7
iso_b_vert
0
LINE
5
1AF
100
AcDbEntity
8
SK2
62
256
6
ByLayer
370
13
48
1
60
0
100
AcDbLine
10
-60
20
-17.5875
30
0
11
-60
21
-37.952229
31
0
39
0
210
0
220
0
230
1
0
LINE
5
1B0
100
AcDbEntity
8
SK2
62
256
6
ByLayer
370
13
48
1
60
0
100
AcDbLine
10
0
20
-17.5875
30
0
11
0
21
-37.952229
31
0
39
0
210
0
220
0
230
1
0
LINE
5
1B1
100
AcDbEntity
8
SK2
62
256
6
ByLayer
370
13
48
1
60
0
100
AcDbLine
10
-60
20
-35.952229
30
0
11
0
21
-35.952229
31
0
39
0
210
0
220
0
230
1
0
SOLID
5
1B2
100
AcDbEntity
8
SK2
62
256
6
ByLayer
370
18
48
1
60
0
100
AcDbTrace
10
-60
20
-35.952229
30
0
11
-56.500002
21
-35.491446
31
0
12
-56.499998
22
-36.413013
32
0
13
-56.499998
23
-36.413013
33
0
39
0
210
0
220
0
230
1
0
SOLID
5
1B3
100
AcDbEntity
8
SK2
62
256
6
ByLayer
370
18
48
1
60
0
100
AcDbTrace
10
0
20
-35.952229
30
0
11
-3.499998
21
-36.413013
31
0
12
-3.500002
22
-35.491446
32
0
13
-3.500002
23
-35.491446
33
0
39
0
210
0
220
0
230
1
0
ENDBLK
5
1B5
100
AcDbEntity
8
0
100
AcDbBlockEnd
0
BLOCK
5
1BA
100
AcDbEntity
8
0
100
AcDbBlockBegin
2
*D7
70
1
10
0
20
0
30
0
3
*D7
0
LINE
5
1BC
100
AcDbEntity
8
0
62
256
6
ByLayer
370
-2
48
1
60
0
100
AcDbLine
10
165
20
1.5875
30
0
11
165
21
34.952229
31
0
39
0
210
0
220
0
230
1
0
LINE
5
1BD
100
AcDbEntity
8
0
62
256
6
ByLayer
370
-2
48
1
60
0
100
AcDbLine
10
25
20
14.0875
30
0
11
25
21
34.952229
31
0
39
0
210
0
220
0
230
1
0
LINE
5
1BE
100
AcDbEntity
8
0
62
256
6
ByLayer
370
-2
48
1
60
0
100
AcDbLine
10
161.5
20
32.952229
30
0
11
28.5
21
32.952229
31
0
39
0
210
0
220
0
230
1
0
SOLID
5
1BF
100
AcDbEntity
8
0
62
256
6
ByLayer
370
-1
48
1
60
0
100
AcDbTrace
10
161.5
20
32.368896
30
0
11
161.5
21
33.535563
31
0
12
165
22
32.952229
32
0
13
165
23
32.952229
33
0
39
0
210
0
220
0
230
1
0
SOLID
5
1C0
100
AcDbEntity
8
0
62
256
6
ByLayer
370
-1
48
1
60
0
100
AcDbTrace
10
28.5
20
33.535563
30
0
11
28.5
21
32.368896
31
0
12
25
22
32.952229
32
0
13
25
23
32.952229
33
0
39
0
210
0
220
0
230
1
0
MTEXT
5
1C1
100
AcDbEntity
8
0
62
256
6
ByLayer
370
18
48
1
60
0
100
AcDbMText
10
95
20
38.952229
30
0
210
0
220
0
230
1
1
\A1;140
40
3
41
0
44
1
50
0
71
5
72
5
7
iso_b_vert
0
POINT
5
1C2
100
AcDbEntity
8
Defpoints
62
0
6
ByLayer
370
-1
48
1
60
0
100
AcDbPoint
10
165
20
0
30
0
39
0
210
0
220
0
230
1
50
360
0
POINT
5
1C3
100
AcDbEntity
8
Defpoints
62
0
6
ByLayer
370
-1
48
1
60
0
100
AcDbPoint
10
25
20
12.5
30
0
39
0
210
0
220
0
230
1
50
360
0
POINT
5
1C4
100
AcDbEntity
8
Defpoints
62
0
6
ByLayer
370
-1
48
1
60
0
100
AcDbPoint
10
25
20
32.952229
30
0
39
0
210
0
220
0
230
1
50
360
0
ENDBLK
5
1BB
100
AcDbEntity
8
0
100
AcDbBlockEnd
0
BLOCK
5
1CC
100
AcDbEntity
8
0
100
AcDbBlockBegin
2
_U3
70
0
10
0
20
0
30
0
3
_U3
0
MTEXT
5
1C6
100
AcDbEntity
8
SK2
62
256
6
ByLayer
370
18
48
1
60
0
100
AcDbMText
10
89.613715
20
33.837344
30
0
210
0
220
0
230
1
1
\W0.7237;140.00
40
3
41
0
44
1.084337
50
0
71
7
72
5
7
iso_b_vert
0
LINE
5
1C7
100
AcDbEntity
8
SK2
62
256
6
ByLayer
370
13
48
1
60
0
100
AcDbLine
10
165
20
1.5875
30
0
11
165
21
34.952229
31
0
39
0
210
0
220
0
230
1
0
LINE
5
1C8
100
AcDbEntity
8
SK2
62
256
6
ByLayer
370
13
48
1
60
0
100
AcDbLine
10
25
20
14.0875
30
0
11
25
21
34.952229
31
0
39
0
210
0
220
0
230
1
0
LINE
5
1C9
100
AcDbEntity
8
SK2
62
256
6
ByLayer
370
13
48
1
60
0
100
AcDbLine
10
165
20
32.952229
30
0
11
25
21
32.952229
31
0
39
0
210
0
220
0
230
1
0
SOLID
5
1CA
100
AcDbEntity
8
SK2
62
256
6
ByLayer
370
18
48
1
60
0
100
AcDbTrace
10
165
20
32.952229
30
0
11
161.500002
21
32.491446
31
0
12
161.499998
22
33.413013
32
0
13
161.499998
23
33.413013
33
0
39
0
210
0
220
0
230
1
0
SOLID
5
1CB
100
AcDbEntity
8
SK2
62
256
6
ByLayer
370
18
48
1
60
0
100
AcDbTrace
10
25
20
32.952229
30
0
11
28.499998
21
33.413013
31
0
12
28.500002
22
32.491446
32
0
13
28.500002
23
32.491446
33
0
39
0
210
0
220
0
230
1
0
ENDBLK
5
1CD
100
AcDbEntity
8
0
100
AcDbBlockEnd
0
ENDSEC
0
SECTION
2
ENTITIES
0
ARC
5
C1
100
AcDbEntity
8
SK2
62
256
6
ByLayer
370
13
48
1
60
0
100
AcDbCircle
39
0
10
165
20
0
30
0
40
19
210
0
220
0
230
1
100
AcDbArc
50
290
51
70
0
ELLIPSE
5
C2
100
AcDbEntity
8
SK1
62
256
6
ByLayer
370
18
48
1
60
0
100
AcDbEllipse
10
-42.079759
20
0
30
0
11
-2.93905524917505E-15
21
-16.0000000000073
31
0
210
0
220
0
230
1
40
0.932515
41
-1.80249142112189
42
-1.3391012324679
0
ELLIPSE
5
C3
100
AcDbEntity
8
SK1
62
256
6
ByLayer
370
18
48
1
60
0
100
AcDbEllipse
10
375.907546
20
0
30
0
11
458.180052524353
21
-5.19163675692399E-13
31
0
210
0
220
0
230
1
40
0.034921
41
2.59367031451701
42
2.79796683129766
0
ELLIPSE
5
C4
100
AcDbEntity
8
SK1
62
256
6
ByLayer
370
18
48
1
60
0
100
AcDbEllipse
10
-29.157899
20
0
30
0
11
17.1578993603954
21
-1.94416104542868E-14
31
0
210
0
220
0
230
1
40
0.932515
41
-0.494065251162693
42
0.494065251162695
0
ELLIPSE
5
C5
100
AcDbEntity
8
SK1
62
256
6
ByLayer
370
18
48
1
60
0
100
AcDbEllipse
10
375.907546
20
0
30
0
11
458.180052528051
21
-5.19163675696589E-13
31
0
210
0
220
0
230
1
40
0.034921
41
-2.79796683129846
42
-2.59367031451889
0
POINT
5
70
100
AcDbEntity
8
80
62
256
6
ByLayer
370
18
48
1
60
0
100
AcDbPoint
10
0
20
0
30
0
39
0
210
0
220
0
230
1
50
360
0
POINT
5
72
100
AcDbEntity
8
81
62
256
6
ByLayer
370
18
48
1
60
0
100
AcDbPoint
10
165
20
0
30
0
39
0
210
0
220
0
230
1
50
360
0
POINT
5
74
100
AcDbEntity
8
1
62
256
6
ByLayer
370
18
48
1
60
1
100
AcDbPoint
10
-60
20
-16
30
0
39
0
210
0
220
0
230
1
50
360
0
POINT
5
76
100
AcDbEntity
8
1
62
256
6
ByLayer
370
18
48
1
60
1
100
AcDbPoint
10
165
20
0
30
0
39
0
210
0
220
0
230
1
50
360
0
POINT
5
77
100
AcDbEntity
8
1
62
256
6
ByLayer
370
18
48
1
60
1
100
AcDbPoint
10
165
20
0
30
0
39
0
210
0
220
0
230
1
50
360
0
POINT
5
78
100
AcDbEntity
8
1
62
256
6
ByLayer
370
18
48
1
60
1
100
AcDbPoint
10
3
20
-12.5
30
0
39
0
210
0
220
0
230
1
50
360
0
POINT
5
79
100
AcDbEntity
8
1
62
256
6
ByLayer
370
18
48
1
60
1
100
AcDbPoint
10
-60
20
-16
30
0
39
0
210
0
220
0
230
1
50
360
0
POINT
5
7A
100
AcDbEntity
8
1
62
256
6
ByLayer
370
18
48
1
60
1
100
AcDbPoint
10
0
20
-16
30
0
39
0
210
0
220
0
230
1
50
360
0
POINT
5
7B
100
AcDbEntity
8
1
62
256
6
ByLayer
370
18
48
1
60
1
100
AcDbPoint
10
165
20
0
30
0
39
0
210
0
220
0
230
1
50
360
0
POINT
5
7C
100
AcDbEntity
8
1
62
256
6
ByLayer
370
18
48
1
60
1
100
AcDbPoint
10
25
20
12.5
30
0
39
0
210
0
220
0
230
1
50
360
0
SPLINE
5
C6
100
AcDbEntity
8
1
62
256
6
ByLayer
370
18
48
1
60
0
100
AcDbSpline
70
4
71
3
72
27
73
23
40
0
40
0
40
0
40
0
40
0.125000000000009
40
0.125000000000009
40
0.250000000000017
40
0.250000000000017
40
0.375000000000026
40
0.375000000000026
40
0.406250000000032
40
0.421875000000032
40
0.421875000000032
40
0.437500000000033
40
0.437500000000033
40
0.500000000000031
40
0.500000000000031
40
0.625000000000023
40
0.625000000000023
40
0.750000000000016
40
0.750000000000016
40
0.875000000000008
40
0.875000000000008
40
1
40
1
40
1
40
1
41
1
10
10
20
-8.86437274853535
30
0
41
1
10
10.3999244572435
20
-8.77154842861984
30
0
41
1
10
10.8033203721557
20
-8.69342461131151
30
0
41
1
10
11.6165314049914
20
-8.56676069942444
30
0
41
1
10
12.026350788579
20
-8.51822965653284
30
0
41
1
10
12.8521253868778
20
-8.45087525059347
30
0
41
1
10
13.2680838224196
20
-8.43206279096034
30
0
41
1
10
13.791765089206
20
-8.42696226639512
30
0
41
1
10
13.9491497119998
20
-8.42681116194592
30
0
41
1
10
14.106952253569
20
-8.42871678803022
30
0
41
1
10
14.2122465497066
20
-8.43044256058369
30
0
41
1
10
14.2649016004822
20
-8.4315328051986
30
0
41
1
10
14.5276972731851
20
-8.43809391455437
30
0
41
1
10
14.7368919884505
20
-8.44690255603891
30
0
41
1
10
15.3615392586271
20
-8.48327091258125
30
0
41
1
10
15.7740548242873
20
-8.52078746799432
30
0
41
1
10
16.5922120062171
20
-8.61816074061127
30
0
41
1
10
16.9978508670462
20
-8.67801752976442
30
0
41
1
10
17.8032412623177
20
-8.81541425482055
30
0
41
1
10
18.2029939205839
20
-8.8929418872809
30
0
41
1
10
18.9976682354606
20
-9.06071907442953
30
0
41
1
10
19.3925961374544
20
-9.15094326814952
30
0
41
1
10
19.7856178428604
20
-9.24518124027801
30
0
0
SPLINE
5
C7
100
AcDbEntity
8
1
62
256
6
ByLayer
370
18
48
1
60
0
100
AcDbSpline
70
4
71
3
72
14
73
10
40
0
40
0
40
0
40
0
40
0.25
40
0.25
40
0.5
40
0.5
40
0.75
40
0.75
40
1
40
1
40
1
40
1
41
1
10
14.3370434115909
20
9.99861213793486
30
0
41
1
10
13.9637908513856
20
10.0772068093581
30
0
41
1
10
13.5940181451377
20
10.1582263518633
30
0
41
1
10
12.8601417318685
20
10.3222521088682
30
0
41
1
10
12.4960304908167
20
10.4052586214334
30
0
41
1
10
11.7730631897616
20
10.571598724661
30
0
41
1
10
11.4142083574223
20
10.6549471909138
30
0
41
1
10
10.7023469008391
20
10.821311000382
30
0
41
1
10
10.3493474109278
20
10.904348944048
30
0
41
1
10
10
20
10.9870925928471
30
0
0
SPLINE
5
C8
100
AcDbEntity
8
1
62
256
6
ByLayer
370
18
48
1
60
0
100
AcDbSpline
70
4
71
3
72
14
73
10
40
0
40
0
40
0
40
0
40
0.25
40
0.25
40
0.5
40
0.5
40
0.75
40
0.75
40
1
40
1
40
1
40
1
41
1
10
14.3370434115909
20
-9.99861213793486
30
0
41
1
10
13.9637908513856
20
-10.0772068093581
30
0
41
1
10
13.5940181451377
20
-10.1582263518633
30
0
41
1
10
12.8601417318685
20
-10.3222521088682
30
0
41
1
10
12.4960304908167
20
-10.4052586214334
30
0
41
1
10
11.7730631897616
20
-10.5715987246611
30
0
41
1
10
11.4142083574224
20
-10.6549471909138
30
0
41
1
10
10.7023469008391
20
-10.821311000382
30
0
41
1
10
10.3493474109278
20
-10.904348944048
30
0
41
1
10
10
20
-10.9870925928471
30
0
0
SPLINE
5
C9
100
AcDbEntity
8
1
62
256
6
ByLayer
370
18
48
1
60
0
100
AcDbSpline
70
4
71
3
72
8
73
4
40
0
40
0
40
0
40
0
40
1
40
1
40
1
40
1
41
1
10
18.756361787683
20
9.01011967821231
30
0
41
1
10
19.1011067075372
20
9.08442671064915
30
0
41
1
10
19.4440820177042
20
9.16328845133216
30
0
41
1
10
19.7856178428604
20
9.24518124027804
30
0
0
SPLINE
5
CA
100
AcDbEntity
8
1
62
256
6
ByLayer
370
18
48
1
60
0
100
AcDbSpline
70
4
71
3
72
12
73
8
40
0
40
0
40
0
40
0
40
0.273186703381827
40
0.273186703381827
40
0.546373406763654
40
0.546373406763654
40
1
40
1
40
1
40
1
41
1
10
149.2
20
-12.4625997285761
30
0
41
1
10
149.434593738906
20
-12.469076081059
30
0
41
1
10
149.669100098162
20
-12.4746835528311
30
0
41
1
10
150.137930870853
20
-12.4841480692371
30
0
41
1
10
150.372228559392
20
-12.4880064635434
30
0
41
1
10
150.995631247766
20
-12.4958987630909
30
0
41
1
10
151.384791241932
20
-12.4983734765992
30
0
41
1
10
151.77398633147
20
-12.4984384985532
30
0
0
SPLINE
5
CB
100
AcDbEntity
8
1
62
256
6
ByLayer
370
18
48
1
60
0
100
AcDbSpline
70
4
71
3
72
201
73
197
40
0
40
0
40
0
40
0
40
0.0156250000000027
40
0.0156250000000027
40
0.0312500000000055
40
0.0312500000000055
40
0.0468750000000082
40
0.0468750000000082
40
0.0546875000000095
40
0.0546875000000095
40
0.0585937500000099
40
0.0585937500000099
40
0.0625000000000104
40
0.0625000000000104
40
0.0781250000000117
40
0.0781250000000117
40
0.093750000000013
40
0.093750000000013
40
0.109375000000014
40
0.109375000000014
40
0.117187500000015
40
0.117187500000015
40
0.121093750000015
40
0.121093750000015
40
0.125000000000016
40
0.125000000000016
40
0.140625000000017
40
0.140625000000017
40
0.156250000000018
40
0.156250000000018
40
0.17187500000002
40
0.17187500000002
40
0.17578125000002
40
0.17578125000002
40
0.17968750000002
40
0.17968750000002
40
0.18750000000002
40
0.18750000000002
40
0.203125000000021
40
0.203125000000021
40
0.218750000000021
40
0.218750000000021
40
0.234375000000022
40
0.234375000000022
40
0.238281250000022
40
0.238281250000022
40
0.242187500000022
40
0.242187500000022
40
0.250000000000022
40
0.250000000000022
40
0.265625000000023
40
0.265625000000023
40
0.281250000000024
40
0.281250000000024
40
0.289062500000024
40
0.289062500000024
40
0.296875000000025
40
0.296875000000025
40
0.304687500000025
40
0.304687500000025
40
0.312500000000026
40
0.312500000000026
40
0.328125000000027
40
0.328125000000027
40
0.343750000000028
40
0.343750000000028
40
0.351562500000029
40
0.351562500000029
40
0.35546875000003
40
0.35546875000003
40
0.35937500000003
40
0.35937500000003
40
0.367187500000031
40
0.367187500000031
40
0.375000000000032
40
0.375000000000032
40
0.390625000000034
40
0.390625000000034
40
0.406250000000036
40
0.406250000000036
40
0.414062500000037
40
0.414062500000037
40
0.417968750000037
40
0.417968750000037
40
0.421875000000037
40
0.421875000000037
40
0.437500000000037
40
0.437500000000037
40
0.453125000000038
40
0.453125000000038
40
0.468750000000038
40
0.468750000000038
40
0.472656250000038
40
0.472656250000038
40
0.476562500000038
40
0.476562500000038
40
0.484375000000037
40
0.484375000000037
40
0.492187500000037
40
0.492187500000037
40
0.500000000000037
40
0.500000000000037
40
0.515625000000036
40
0.515625000000036
40
0.531250000000035
40
0.531250000000035
40
0.535156250000035
40
0.535156250000035
40
0.539062500000034
40
0.539062500000034
40
0.546875000000034
40
0.546875000000034
40
0.562500000000033
40
0.562500000000033
40
0.578125000000032
40
0.578125000000032
40
0.585937500000031
40
0.585937500000031
40
0.593750000000031
40
0.593750000000031
40
0.60156250000003
40
0.60156250000003
40
0.60937500000003
40
0.60937500000003
40
0.625000000000029
40
0.625000000000029
40
0.640625000000028
40
0.640625000000028
40
0.648437500000027
40
0.648437500000027
40
0.656250000000027
40
0.656250000000027
40
0.671875000000027
40
0.671875000000027
40
0.687500000000027
40
0.687500000000027
40
0.703125000000026
40
0.703125000000026
40
0.710937500000026
40
0.710937500000026
40
0.714843750000026
40
0.714843750000026
40
0.718750000000026
40
0.726562500000026
40
0.726562500000026
40
0.734375000000026
40
0.734375000000026
40
0.750000000000026
40
0.750000000000026
40
0.765625000000025
40
0.765625000000025
40
0.769531250000025
40
0.769531250000025
40
0.773437500000025
40
0.773437500000025
40
0.781250000000025
40
0.781250000000025
40
0.796875000000025
40
0.796875000000025
40
0.812500000000025
40
0.812500000000025
40
0.828125000000024
40
0.828125000000024
40
0.832031250000024
40
0.832031250000024
40
0.835937500000023
40
0.835937500000023
40
0.843750000000022
40
0.843750000000022
40
0.859375000000019
40
0.859375000000019
40
0.867187500000018
40
0.867187500000018
40
0.875000000000017
40
0.882812500000016
40
0.886718750000016
40
0.886718750000016
40
0.890625000000015
40
0.890625000000015
40
0.898437500000014
40
0.898437500000014
40
0.906250000000013
40
0.906250000000013
40
0.921875000000011
40
0.921875000000011
40
0.937500000000009
40
0.937500000000009
40
0.945312500000008
40
0.945312500000008
40
0.953125000000007
40
0.953125000000007
40
0.968750000000004
40
0.968750000000004
40
0.984375000000002
40
0.984375000000002
40
1
40
1
40
1
40
1
41
1
10
19.7856178428604
20
9.24518124027804
30
0
41
1
10
20.4602487259359
20
9.40285450109721
30
0
41
1
10
21.1348645788909
20
9.55403450461839
30
0
41
1
10
22.4837907783626
20
9.84429462495936
30
0
41
1
10
23.1581002342857
20
9.9833745814376
30
0
41
1
10
24.5061687299177
20
10.2499610543041
30
0
41
1
10
25.1799253641105
20
10.3774712719563
30
0
41
1
10
26.1899565985146
20
10.5602556417097
30
0
41
1
10
26.5265341865441
20
10.6197663572832
30
0
41
1
10
27.0312359643232
20
10.7069010033948
30
0
41
1
10
27.1994394898099
20
10.7355944838375
30
0
41
1
10
27.5358038155924
20
10.7922489335539
30
0
41
1
10
27.7039746516847
20
10.8201959427817
30
0
41
1
10
28.5450375364123
20
10.9576888298736
30
0
41
1
10
29.2183725277072
20
11.0607713524293
30
0
41
1
10
30.5656279404533
20
11.2538510520558
30
0
41
1
10
31.2395595769215
20
11.3438316815818
30
0
41
1
10
32.5877930971334
20
11.5109418540074
30
0
41
1
10
33.2620880853835
20
11.5880780917947
30
0
41
1
10
34.2736408660685
20
11.6941281138394
30
0
41
1
10
34.6108439337622
20
11.7278664450403
30
0
41
1
10
35.1166683298353
20
11.776026066829
30
0
41
1
10
35.2852817720071
20
11.7916688031439
30
0
41
1
10
35.6226448963779
20
11.8220392647047
30
0
41
1
10
35.7913669740894
20
11.8367703441999
30
0
41
1
10
36.6348645081512
20
11.9081596518731
30
0
41
1
10
37.3095742461245
20
11.9580660394661
30
0
41
1
10
38.6585027391216
20
12.0439682927816
30
0
41
1
10
39.3327335858359
20
12.0799551191655
30
0
41
1
10
40.680484651128
20
12.1381298355972
30
0
41
1
10
41.353997747747
20
12.1603189206712
30
0
41
1
10
42.195309153807
20
12.1793159647773
30
0
41
1
10
42.3635426822276
20
12.1826776743358
30
0
41
1
10
42.6999497543292
20
12.1885200233383
30
0
41
1
10
42.8681166334712
20
12.1910007307035
30
0
41
1
10
43.3726859816587
20
12.1970990830413
30
0
41
1
10
43.7091860177763
20
12.1993745487077
30
0
41
1
10
44.7189700482579
20
12.2009144863914
30
0
41
1
10
45.3925259722576
20
12.1949022251029
30
0
41
1
10
46.7400831757618
20
12.168958048739
30
0
41
1
10
47.4140933616817
20
12.149026628419
30
0
41
1
10
48.7623270209385
20
12.0950930633776
30
0
41
1
10
49.4365458540784
20
12.0610876231871
30
0
41
1
10
50.2793463523877
20
12.0095176461749
30
0
41
1
10
50.4478994926078
20
11.9987450368389
30
0
41
1
10
50.7850790370612
20
11.9763233102556
30
0
41
1
10
50.9537229370982
20
11.9646841559772
30
0
41
1
10
51.4598388519907
20
11.9285036028205
30
0
41
1
10
51.7973961509886
20
11.9026981663995
30
0
41
1
10
52.8097196857827
20
11.8203061184757
30
0
41
1
10
53.4844108862007
20
11.7587274559686
30
0
41
1
10
54.8331739414532
20
11.6222646971237
30
0
41
1
10
55.5072484699134
20
11.5473827930438
30
0
41
1
10
56.5177079680391
20
11.4248559636493
30
0
41
1
10
56.8544192954975
20
11.3823108717717
30
0
41
1
10
57.5276024320082
20
11.293760971025
30
0
41
1
10
57.8640527625272
20
11.247731745281
30
0
41
1
10
58.5367954816579
20
11.1522625529898
30
0
41
1
10
58.8732362450978
20
11.1029901707233
30
0
41
1
10
59.5463472067903
20
11.0015215001888
30
0
41
1
10
59.882995138521
20
10.949300188638
30
0
41
1
10
60.893142788966
20
10.7881325035984
30
0
41
1
10
61.5668485194766
20
10.6746926655614
30
0
41
1
10
62.914571855995
20
10.435567450061
30
0
41
1
10
63.5885855288486
20
10.3098767157397
30
0
41
1
10
64.599658827162
20
10.1117490662995
30
0
41
1
10
64.9366932466185
20
10.0441074880307
30
0
41
1
10
65.4422460084002
20
9.94019075092118
30
0
41
1
10
65.6107599743174
20
9.90513615024435
30
0
41
1
10
65.9478056832093
20
9.83423144420104
30
0
41
1
10
66.1163495730996
20
9.79840151820858
30
0
41
1
10
66.6221882324465
20
9.69003150076659
30
0
41
1
10
66.959717643817
20
9.61652049481523
30
0
41
1
10
67.6348286029651
20
9.46702371866036
30
0
41
1
10
67.9723346638394
20
9.39105302269996
30
0
41
1
10
68.9846496291913
20
9.1594071543297
30
0
41
1
10
69.6592599642627
20
9.00001259697308
30
0
41
1
10
71.0077155262129
20
8.67089983611032
30
0
41
1
10
71.6815537019444
20
8.5011673471835
30
0
41
1
10
72.691558225431
20
8.23837540632783
30
0
41
1
10
73.0280997397535
20
8.14940842908015
30
0
41
1
10
73.5327174293793
20
8.01387256271815
30
0
41
1
10
73.7008964200463
20
7.96835756794945
30
0
41
1
10
74.0373236794864
20
7.87692076307135
30
0
41
1
10
74.2055633830063
20
7.83098101459342
30
0
41
1
10
75.0468756114988
20
7.60015044254661
30
0
41
1
10
75.720279520268
20
7.41185168712502
30
0
41
1
10
77.0674644673672
20
7.02739538162396
30
0
41
1
10
77.7412576653394
20
6.83126418719891
30
0
41
1
10
79.0890001563542
20
6.43059904737584
30
0
41
1
10
79.7629424640602
20
6.22604765771888
30
0
41
1
10
80.6053431940254
20
5.96468307099471
30
0
41
1
10
80.7738222604326
20
5.91212664071597
30
0
41
1
10
81.1107761653427
20
5.80643709126227
30
0
41
1
10
81.2792459567733
20
5.75329063504643
30
0
41
1
10
81.7848201818805
20
5.59341889958381
30
0
41
1
10
82.1220997094377
20
5.48629035068674
30
0
41
1
10
82.7970638656103
20
5.27082589630896
30
0
41
1
10
83.1347730082251
20
5.16247983080973
30
0
41
1
10
83.809883287367
20
4.94469000872681
30
0
41
1
10
84.1473676878833
20
4.83522320141486
30
0
41
1
10
85.1595660384357
20
4.50500117370296
30
0
41
1
10
85.8340283830574
20
4.28243514083221
30
0
41
1
10
87.1820269144436
20
3.8317834031173
30
0
41
1
10
87.8555586308787
20
3.6036851862699
30
0
41
1
10
88.6967739212786
20
3.31474678789181
30
0
41
1
10
88.8649736040254
20
3.25674503915607
30
0
41
1
10
89.2013851295094
20
3.14058384651531
30
0
41
1
10
89.3696123019057
20
3.08246660818824
30
0
41
1
10
89.8743665601578
20
2.90803074656921
30
0
41
1
10
90.2109585308884
20
2.79160659759589
30
0
41
1
10
91.2209252608451
20
2.44173624466967
30
0
41
1
10
91.8944837466194
20
2.2076743028891
30
0
41
1
10
93.2418477920858
20
1.73725697453548
30
0
41
1
10
93.9156555918847
20
1.50090792620554
30
0
41
1
10
94.9263684255144
20
1.1441214765569
30
0
41
1
10
95.2632733102092
20
1.02481614361258
30
0
41
1
10
95.9370641297226
20
0.785385903303762
30
0
41
1
10
96.2739251109767
20
0.665189085202059
30
0
41
1
10
96.9477314000431
20
0.424261324542727
30
0
41
1
10
97.2848244987848
20
0.303956164860892
30
0
41
1
10
97.9594479724489
20
0.0638388764048727
30
0
41
1
10
98.2969680569804
20
-0.056027022121981
30
0
41
1
10
99.3100115156905
20
-0.415228534219267
30
0
41
1
10
99.9850748938563
20
-0.65382522855171
30
0
41
1
10
101.334379316237
20
-1.12996058115226
30
0
41
1
10
102.008616078643
20
-1.36751154554545
30
0
41
1
10
103.019165718659
20
-1.72355938717447
30
0
41
1
10
103.355882386428
20
-1.84219201545571
30
0
41
1
10
104.02902758539
20
-2.07940899512977
30
0
41
1
10
104.365396738596
20
-2.19815808755834
30
0
41
1
10
105.374864630463
20
-2.55210672822761
30
0
41
1
10
106.048187525285
20
-2.78540058948323
30
0
41
1
10
107.395148994494
20
-3.24775287021032
30
0
41
1
10
108.068799263013
20
-3.47677815356783
30
0
41
1
10
109.416200152258
20
-3.93118446893521
30
0
41
1
10
110.089943646026
20
-4.15658473035842
30
0
41
1
10
111.100464868008
20
-4.4923632140528
30
0
41
1
10
111.437287016981
20
-4.60390864047142
30
0
41
1
10
111.942497649717
20
-4.77063334486658
30
0
41
1
10
112.11090586453
20
-4.82608676298742
30
0
41
1
10
112.447848992489
20
-4.93644074290103
30
0
41
1
10
112.953424066677
20
-5.10122129564272
30
0
41
1
10
113.459448415993
20
-5.26384213043468
30
0
41
1
10
114.134495334155
20
-5.47889340191983
30
0
41
1
10
114.472273035895
20
-5.58555603298956
30
0
41
1
10
115.485189840056
20
-5.90272986910259
30
0
41
1
10
116.160070475859
20
-6.1104769538332
30
0
41
1
10
117.50879589138
20
-6.51920111625435
30
0
41
1
10
118.182633768601
20
-6.72019426455455
30
0
41
1
10
119.0241483795
20
-6.96743625954537
30
0
41
1
10
119.192412349953
20
-7.01668379803405
30
0
41
1
10
119.528860026513
20
-7.11477882547831
30
0
41
1
10
119.697041708548
20
-7.16363042661078
30
0
41
1
10
120.201651716584
20
-7.30915521094056
30
0
41
1
10
120.53813648939
20
-7.40482102948221
30
0
41
1
10
121.547747535798
20
-7.68799650452911
30
0
41
1
10
122.221019900269
20
-7.87171420619558
30
0
41
1
10
123.567683765414
20
-8.22975069783206
30
0
41
1
10
124.241083425904
20
-8.40405155588397
30
0
41
1
10
125.587765491804
20
-8.74369271648365
30
0
41
1
10
126.261043707758
20
-8.90904025066655
30
0
41
1
10
127.102458826122
20
-9.11019959440216
30
0
41
1
10
127.270724692188
20
-9.15016964437822
30
0
41
1
10
127.607327588419
20
-9.22938360642692
30
0
41
1
10
127.775677772648
20
-9.26860317344324
30
0
41
1
10
128.280875083057
20
-9.38510528079033
30
0
41
1
10
128.617864111723
20
-9.46124093727531
30
0
41
1
10
129.629325027654
20
-9.68523272437957
30
0
41
1
10
130.304283669575
20
-9.82869213056216
30
0
41
1
10
131.317514435537
20
-10.0354380027497
30
0
41
1
10
131.655261067221
20
-10.1029159471086
30
0
41
1
10
132.330508732099
20
-10.2350036166547
30
0
41
1
10
133.00557938163
20
-10.3642374490902
30
0
41
1
10
133.84889836231
20
-10.518717478383
30
0
41
1
10
134.354630811885
20
-10.6082283096539
30
0
41
1
10
134.691725735297
20
-10.6671941057603
30
0
41
1
10
134.86023489541
20
-10.6963340105747
30
0
41
1
10
135.365760558197
20
-10.7825651235744
30
0
41
1
10
135.702875503648
20
-10.8383345479441
30
0
41
1
10
136.377326923995
20
-10.9464503755843
30
0
41
1
10
136.714650528988
20
-10.9988140585359
30
0
41
1
10
137.726842154623
20
-11.1509578157255
30
0
41
1
10
138.401934128512
20
-11.2457943127011
30
0
41
1
10
139.752474844034
20
-11.4226022290667
30
0
41
1
10
140.428070046071
20
-11.5045930151852
30
0
41
1
10
141.440457883781
20
-11.6178516533404
30
0
41
1
10
141.777789312797
20
-11.6539851622478
30
0
41
1
10
142.45216802927
20
-11.7229920946279
30
0
41
1
10
142.78916242001
20
-11.7558990729603
30
0
41
1
10
143.80055528674
20
-11.8490705355614
30
0
41
1
10
144.475177402801
20
-11.90397221139
30
0
41
1
10
145.824768657915
20
-11.9998885174527
30
0
41
1
10
146.499749942161
20
-12.0408925309802
30
0
41
1
10
147.849841678327
20
-12.1091248922506
30
0
41
1
10
148.524944790324
20
-12.1363557294933
30
0
41
1
10
149.2
20
-12.1566108771967
30
0
0
SPLINE
5
CC
100
AcDbEntity
8
1
62
256
6
ByLayer
370
18
48
1
60
0
100
AcDbSpline
70
4
71
4
72
10
73
5
40
0
40
0
40
0
40
0
40
0
40
1
40
1
40
1
40
1
40
1
41
0.996969731705432
10
19.78561784286
20
9.24518124027407
30
0
41
0.996789321943817
10
19.7727741165815
20
9.12498509029581
30
0
41
0.996618258864484
10
19.7590485757265
20
9.00541252133173
30
0
41
0.996459490790364
10
19.7444445474244
20
8.88658164018918
30
0
41
0.996315156741451
10
19.7289697656156
20
8.76860564961091
30
0
0
SPLINE
5
CD
100
AcDbEntity
8
1
62
256
6
ByLayer
370
18
48
1
60
0
100
AcDbSpline
70
4
71
3
72
167
73
163
40
0
40
0
40
0
40
0
40
0.0058336932543197
40
0.0058336932543197
40
0.0152126206764483
40
0.0152126206764483
40
0.0245915480985769
40
0.0339704755207056
40
0.0339704755207056
40
0.0433494029428342
40
0.0433494029428342
40
0.0527283303649629
40
0.0527283303649629
40
0.0621072577870915
40
0.0621072577870915
40
0.0808651126313488
40
0.0808651126313488
40
0.099622967475606
40
0.099622967475606
40
0.109001894897735
40
0.109001894897735
40
0.113691358608799
40
0.113691358608799
40
0.118380822319864
40
0.137138677164123
40
0.137138677164123
40
0.146517604586253
40
0.146517604586253
40
0.155896532008382
40
0.155896532008382
40
0.174654386852641
40
0.174654386852641
40
0.18403331427477
40
0.18403331427477
40
0.193412241696899
40
0.193412241696899
40
0.212170096541157
40
0.212170096541157
40
0.230927951385415
40
0.230927951385415
40
0.240306878807544
40
0.244996342518608
40
0.244996342518608
40
0.249685806229672
40
0.249685806229672
40
0.268443661073929
40
0.268443661073929
40
0.287201515918186
40
0.287201515918186
40
0.296580443340314
40
0.296580443340314
40
0.305959370762442
40
0.305959370762442
40
0.31533829818457
40
0.31533829818457
40
0.320027761895634
40
0.320027761895634
40
0.324717225606698
40
0.343475080450955
40
0.343475080450955
40
0.362232935295213
40
0.362232935295213
40
0.380990790139471
40
0.380990790139471
40
0.3903697175616
40
0.3903697175616
40
0.399748644983729
40
0.399748644983729
40
0.418506499827986
40
0.418506499827986
40
0.427885427250115
40
0.427885427250115
40
0.43257489096118
40
0.43257489096118
40
0.437264354672244
40
0.446643282094372
40
0.446643282094372
40
0.451332745805436
40
0.451332745805436
40
0.456022209516501
40
0.456022209516501
40
0.474780064360759
40
0.474780064360759
40
0.493537919205018
40
0.493537919205018
40
0.512295774049276
40
0.512295774049276
40
0.521674701471406
40
0.521674701471406
40
0.531053628893536
40
0.531053628893536
40
0.549811483737795
40
0.568569338582053
40
0.568569338582053
40
0.573258802293118
40
0.573258802293118
40
0.577948266004183
40
0.587327193426313
40
0.587327193426313
40
0.592016657137378
40
0.592016657137378
40
0.596706120848442
40
0.606085048270572
40
0.606085048270572
40
0.624842903114831
40
0.624842903114831
40
0.64360075795909
40
0.64360075795909
40
0.65297968538122
40
0.65297968538122
40
0.66235861280335
40
0.66235861280335
40
0.681116467647609
40
0.681116467647609
40
0.699874322491868
40
0.699874322491868
40
0.709253249913998
40
0.709253249913998
40
0.718632177336127
40
0.718632177336127
40
0.723321641047192
40
0.723321641047192
40
0.728011104758257
40
0.728011104758257
40
0.737390032180386
40
0.737390032180386
40
0.756147887024645
40
0.756147887024645
40
0.774905741868903
40
0.774905741868903
40
0.793663596713162
40
0.793663596713162
40
0.798353060424227
40
0.798353060424227
40
0.803042524135291
40
0.81242145155742
40
0.81242145155742
40
0.831179306401678
40
0.831179306401678
40
0.849937161245936
40
0.849937161245936
40
0.859316088668065
40
0.859316088668065
40
0.868695016090194
40
0.868695016090194
40
0.887452870934451
40
0.887452870934451
40
0.906210725778709
40
0.906210725778709
40
0.924968580622967
40
0.924968580622967
40
0.929658044334032
40
0.929658044334032
40
0.934347508045096
40
0.934347508045096
40
0.943726435467225
40
0.943726435467225
40
0.962484290311484
40
0.962484290311484
40
0.981242145155742
40
0.981242145155742
40
1
40
1
40
1
40
1
41
1
10
126.666893099245
20
-9.01547754338668
30
0
41
1
10
126.448047205771
20
-9.06774027193151
30
0
41
1
10
126.229171654553
20
-9.1194407963049
30
0
41
1
10
125.658333134981
20
-9.25280682549811
30
0
41
1
10
125.306296671001
20
-9.33359366769716
30
0
41
1
10
124.602631811053
20
-9.49218422889047
30
0
41
1
10
123.89924572375
20
-9.64782155036755
30
0
41
1
10
123.196454591127
20
-9.79760772168362
30
0
41
1
10
122.493981581933
20
-9.94448360184822
30
0
41
1
10
122.14291818188
20
-10.0164889014004
30
0
41
1
10
121.441067172504
20
-10.1574876222783
30
0
41
1
10
121.090163397372
20
-10.2262936712564
30
0
41
1
10
120.388290383199
20
-10.3603839009231
30
0
41
1
10
120.037339051065
20
-10.4256970544404
30
0
41
1
10
118.98445876507
20
-10.616510554148
30
0
41
1
10
118.2825029742
20
-10.7368910454787
30
0
41
1
10
116.878629084245
20
-10.9642206934544
30
0
41
1
10
116.176708132704
20
-11.071167143294
30
0
41
1
10
115.123960080124
20
-11.2215433503853
30
0
41
1
10
114.773066505317
20
-11.2699932204857
30
0
41
1
10
114.246774996888
20
-11.3401429707106
30
0
41
1
10
114.071358718072
20
-11.3631110811176
30
0
41
1
10
113.720457871814
20
-11.4081140618257
30
0
41
1
10
112.843015511653
20
-11.5182694193142
30
0
41
1
10
111.96463442171
20
-11.6167530604726
30
0
41
1
10
110.90975621849
20
-11.7239115710286
30
0
41
1
10
110.557993403661
20
-11.7577924649245
30
0
41
1
10
109.854208172059
20
-11.8218870188405
30
0
41
1
10
109.502161788889
20
-11.8521012820682
30
0
41
1
10
108.446740621483
20
-11.9371546485737
30
0
41
1
10
107.743726505639
20
-11.986447642601
30
0
41
1
10
106.690229642439
20
-12.0492155954337
30
0
41
1
10
106.339285807658
20
-12.0682909022458
30
0
41
1
10
105.637344074509
20
-12.1025264139571
30
0
41
1
10
105.286363179157
20
-12.117700805873
30
0
41
1
10
104.233404561822
20
-12.1574600199184
30
0
41
1
10
103.531411151174
20
-12.1762888207452
30
0
41
1
10
102.127486464651
20
-12.1987688861445
30
0
41
1
10
101.425553622878
20
-12.2024205278665
30
0
41
1
10
100.37279484971
20
-12.1964624001887
30
0
41
1
10
99.8464517469906
20
-12.1906214270223
30
0
41
1
10
99.3201849197461
20
-12.1804485129011
30
0
41
1
10
98.9693599546877
20
-12.1726974211503
30
0
41
1
10
98.7939643597516
20
-12.168335564532
30
0
41
1
10
97.9168813319421
20
-12.1441237872254
30
0
41
1
10
97.2146407073953
20
-12.1171363685901
30
0
41
1
10
95.8090781272317
20
-12.0481337857031
30
0
41
1
10
95.10576278631
20
-12.0061174545343
30
0
41
1
10
94.0500701099483
20
-11.9317834673764
30
0
41
1
10
93.6980459874689
20
-11.9051170696792
30
0
41
1
10
92.9945020102597
20
-11.8480434925233
30
0
41
1
10
92.6428915045352
20
-11.8176301039266
30
0
41
1
10
91.940013899361
20
-11.7530178038751
30
0
41
1
10
91.5887496196228
20
-11.7188165742294
30
0
41
1
10
91.0621187569655
20
-11.6646451985592
30
0
41
1
10
90.8866134295614
20
-11.6461140269748
30
0
41
1
10
90.5355846880405
20
-11.6081860406135
30
0
41
1
10
89.6580096520495
20
-11.5111664948479
30
0
41
1
10
88.7804269954055
20
-11.4032309595549
30
0
41
1
10
87.3763819224367
20
-11.2166696686832
30
0
41
1
10
86.6744033923339
20
-11.1164565400852
30
0
41
1
10
85.2706482942847
20
-10.9020303120788
30
0
41
1
10
84.5688734222221
20
-10.7878164764868
30
0
41
1
10
83.51648384981
20
-10.6056702442241
30
0
41
1
10
83.165760501176
20
-10.5431032168532
30
0
41
1
10
82.4639494053498
20
-10.4149914221965
30
0
41
1
10
82.1129072830853
20
-10.3493869168172
30
0
41
1
10
81.0593893333859
20
-10.1479417451142
30
0
41
1
10
80.3565225675484
20
-10.0074755839942
30
0
41
1
10
79.3015226092076
20
-9.78743869863928
30
0
41
1
10
78.949739291413
20
-9.71253508564081
30
0
41
1
10
78.4218991539655
20
-9.59781692794149
30
0
41
1
10
78.2459026099349
20
-9.55917858030088
30
0
41
1
10
77.8940053983033
20
-9.48114070428164
30
0
41
1
10
77.3662855092479
20
-9.3629381721401
30
0
41
1
10
76.8389544669927
20
-9.24127448371445
30
0
41
1
10
76.3118986169459
20
-9.11726115630336
30
0
41
1
10
76.1362593581997
20
-9.07553137914184
30
0
41
1
10
75.7850750030137
20
-8.99128076545989
30
0
41
1
10
75.609531079566
20
-8.94875717205906
30
0
41
1
10
74.7317951936797
20
-8.73465104832681
30
0
41
1
10
74.0296209435668
20
-8.55848728464971
30
0
41
1
10
72.6253853563345
20
-8.19641566033835
30
0
41
1
10
71.923325337403
20
-8.01050523029187
30
0
41
1
10
70.5194296219775
20
-7.62874405907007
30
0
41
1
10
69.8175922577472
20
-7.43289775849982
30
0
41
1
10
68.7651166772705
20
-7.13134254588633
30
0
41
1
10
68.4143513395112
20
-7.02949439445578
30
0
41
1
10
67.7128754491713
20
-6.82326312434932
30
0
41
1
10
67.3620500236811
20
-6.71914868555936
30
0
41
1
10
66.3091338315658
20
-6.40425964519369
30
0
41
1
10
64.9042288299431
20
-5.97726295773921
30
0
41
1
10
63.4975075469549
20
-5.53562328984989
30
0
41
1
10
62.6178080618629
20
-5.25481118143827
30
0
41
1
10
62.4418233314032
20
-5.19840223998668
30
0
41
1
10
62.0899699557378
20
-5.08514871843946
30
0
41
1
10
61.562324386087
20
-4.91460236294182
30
0
41
1
10
61.035093399599
20
-4.74202640771085
30
0
41
1
10
60.5081557714045
20
-4.56804705744693
30
0
41
1
10
60.3325649439163
20
-4.50980342285982
30
0
41
1
10
59.9813972023009
20
-4.39307218646394
30
0
41
1
10
59.4546542525261
20
-4.21764249230623
30
0
41
1
10
58.9279403522277
20
-4.04121225994686
30
0
41
1
10
57.8745668095595
20
-3.68698806265093
30
0
41
1
10
57.1723899676755
20
-3.44902237256733
30
0
41
1
10
55.7682857889617
20
-2.96920027580236
30
0
41
1
10
55.0663556007648
20
-2.72735186766135
30
0
41
1
10
54.0137476473429
20
-2.3613690037034
30
0
41
1
10
53.662926692272
20
-2.23883792433477
30
0
41
1
10
52.9614018429274
20
-1.99263786250859
30
0
41
1
10
52.6107495489961
20
-1.86882286643907
30
0
41
1
10
51.5583807858817
20
-1.49731367597607
30
0
41
1
10
50.8563085041171
20
-1.24940514639044
30
0
41
1
10
49.451279692546
20
-0.752871872477584
30
0
41
1
10
48.7483243369986
20
-0.504243857930817
30
0
41
1
10
47.6933112273219
20
-0.130523241274517
30
0
41
1
10
47.3415433347112
20
-0.0058200472187764
30
0
41
1
10
46.6378308167327
20
0.243900179433098
30
0
41
1
10
46.2859405652409
20
0.368898478782569
30
0
41
1
10
45.7584882696713
20
0.556496189260969
30
0
41
1
10
45.582715132227
20
0.619052458722678
30
0
41
1
10
45.23126033994
20
0.744219727124658
30
0
41
1
10
45.0555858404798
20
0.806851091741748
30
0
41
1
10
44.5286078626499
20
0.994564127999865
30
0
41
1
10
44.1772925282124
20
1.11930152283503
30
0
41
1
10
43.1233450194854
20
1.49228152770956
30
0
41
1
10
42.4207212948472
20
1.73932206371151
30
0
41
1
10
41.0155906029486
20
2.23050261684836
30
0
41
1
10
40.3130832550721
20
2.47464163841818
30
0
41
1
10
38.9083048864415
20
2.96034377733676
30
0
41
1
10
38.2060419795294
20
3.20192940087841
30
0
41
1
10
37.3284510381633
20
3.50251102462423
30
0
41
1
10
37.1529386294346
20
3.56254040417784
30
0
41
1
10
36.8018291614575
20
3.68216385469341
30
0
41
1
10
36.2750627910626
20
3.86101382535844
30
0
41
1
10
35.7479952306798
20
4.03812735935674
30
0
41
1
10
34.693478365095
20
4.39010118369347
30
0
41
1
10
33.9899582029421
20
4.62174795366354
30
0
41
1
10
32.5820106675935
20
5.07934052013127
30
0
41
1
10
31.8786310121557
20
5.30493718219111
30
0
41
1
10
30.8247117572745
20
5.6387436532153
30
0
41
1
10
30.47358912553
20
5.74925032415231
30
0
41
1
10
29.7717335273393
20
5.96877689327209
30
0
41
1
10
29.4210271028362
20
6.07785929514387
30
0
41
1
10
28.3688145199017
20
6.40116835011779
30
0
41
1
10
27.6673952544576
20
6.61192947642499
30
0
41
1
10
26.2647573301493
20
7.02428029691981
30
0
41
1
10
25.5635395991505
20
7.22587229293785
30
0
41
1
10
24.161416042187
20
7.62016680209265
30
0
41
1
10
23.4605102425506
20
7.81287026385056
30
0
41
1
10
22.5846708645882
20
8.04833081594515
30
0
41
1
10
22.4095177220803
20
8.09515174439593
30
0
41
1
10
22.0592432705016
20
8.18825269452026
30
0
41
1
10
21.8841241437492
20
8.23453686729425
30
0
41
1
10
21.3586671235096
20
8.37226509816304
30
0
41
1
10
21.0082421279006
20
8.46261339287327
30
0
41
1
10
19.9566243327265
20
8.72931741650763
30
0
41
1
10
19.2550919614219
20
8.90134343760616
30
0
41
1
10
17.8512080806056
20
9.23408948621196
30
0
41
1
10
17.1488533745856
20
9.39480414417005
30
0
41
1
10
15.7434365889316
20
9.70506687057554
30
0
41
1
10
15.0403755661639
20
9.8546183667718
30
0
41
1
10
14.3370434115909
20
9.99861213793483
30
0
0
SPLINE
5
CE
100
AcDbEntity
8
1
62
256
6
ByLayer
370
18
48
1
60
0
100
AcDbSpline
70
4
71
3
72
21
73
17
40
0
40
0
40
0
40
0
40
0.0624999999999996
40
0.0624999999999996
40
0.124999999999999
40
0.249999999999998
40
0.249999999999998
40
0.499999999999997
40
0.499999999999997
40
0.624999999999996
40
0.624999999999996
40
0.687499999999995
40
0.687499999999995
40
0.749999999999995
40
0.749999999999995
40
1
40
1
40
1
40
1
41
1
10
160.450372071667
20
-1.78286044622212
30
0
41
1
10
160.215862005132
20
-1.69800288490896
30
0
41
1
10
159.981447665868
20
-1.61289926226792
30
0
41
1
10
159.512587659363
20
-1.44281651820631
30
0
41
1
10
158.809300430608
20
-1.18774128520147
30
0
41
1
10
158.106035147761
20
-0.932773603754896
30
0
41
1
10
156.699583364773
20
-0.422842281693505
30
0
41
1
10
155.762049529338
20
-0.0829049344212365
30
0
41
1
10
154.356136040887
20
0.427628713982813
30
0
41
1
10
153.887564834546
20
0.597916804182262
30
0
41
1
10
153.184847331624
20
0.853621697499193
30
0
41
1
10
152.950631445697
20
0.938902288134614
30
0
41
1
10
152.48225279663
20
1.10957250285691
30
0
41
1
10
152.248085445352
20
1.19494944115741
30
0
41
1
10
151.07683864778
20
1.62061113511257
30
0
41
1
10
150.138845485464
20
1.95809973036594
30
0
41
1
10
149.2
20
2.29294660723627
30
0
0
SPLINE
5
CF
100
AcDbEntity
8
1
62
256
6
ByLayer
370
18
48
1
60
0
100
AcDbSpline
70
4
71
3
72
92
73
88
40
0
40
0
40
0
40
0
40
0.0312499999999999
40
0.0312499999999999
40
0.0624999999999999
40
0.0624999999999999
40
0.0937499999999998
40
0.0937499999999998
40
0.125
40
0.125
40
0.140624999999999
40
0.140624999999999
40
0.148437499999999
40
0.148437499999999
40
0.156249999999998
40
0.187499999999995
40
0.187499999999995
40
0.218749999999993
40
0.218749999999993
40
0.24999999999999
40
0.24999999999999
40
0.281249999999987
40
0.281249999999987
40
0.296874999999986
40
0.296874999999986
40
0.312499999999985
40
0.312499999999985
40
0.343749999999982
40
0.343749999999982
40
0.37499999999998
40
0.37499999999998
40
0.406249999999977
40
0.406249999999977
40
0.437499999999974
40
0.437499999999974
40
0.445312499999974
40
0.445312499999974
40
0.453124999999973
40
0.468749999999972
40
0.468749999999972
40
0.499999999999971
40
0.499999999999971
40
0.531249999999969
40
0.531249999999969
40
0.539062499999968
40
0.539062499999968
40
0.546874999999968
40
0.562499999999967
40
0.562499999999967
40
0.593749999999966
40
0.593749999999966
40
0.624999999999965
40
0.624999999999965
40
0.632812499999964
40
0.632812499999964
40
0.640624999999963
40
0.656249999999962
40
0.656249999999962
40
0.68749999999996
40
0.68749999999996
40
0.718749999999958
40
0.718749999999958
40
0.726562499999959
40
0.726562499999959
40
0.734374999999959
40
0.734374999999959
40
0.74999999999996
40
0.74999999999996
40
0.781249999999963
40
0.781249999999963
40
0.812499999999965
40
0.812499999999965
40
0.843749999999967
40
0.843749999999967
40
0.851562499999968
40
0.851562499999968
40
0.859374999999969
40
0.874999999999972
40
0.874999999999972
40
0.906249999999979
40
0.937499999999985
40
0.968749999999991
40
0.968749999999991
40
0.976562499999993
40
0.976562499999993
40
0.984374999999995
40
1
40
1
40
1
40
1
41
1
10
160.450372071672
20
12.1030705264936
30
0
41
1
10
160.528443073572
20
11.9094977621328
30
0
41
1
10
160.606637103323
20
11.7130196082921
30
0
41
1
10
160.763403809404
20
11.3147108994562
30
0
41
1
10
160.841976347751
20
11.1128793246841
30
0
41
1
10
160.999593122835
20
10.7041943686364
30
0
41
1
10
161.07863741664
20
10.497340413726
30
0
41
1
10
161.237253082074
20
10.0788400323648
30
0
41
1
10
161.316824725558
20
9.86719336993028
30
0
41
1
10
161.436587176405
20
9.5462339354327
30
0
41
1
10
161.476575134099
20
9.43866520341533
30
0
41
1
10
161.53665524601
20
9.27644575996663
30
0
41
1
10
161.556712178103
20
9.22219049881599
30
0
41
1
10
161.596786683101
20
9.11358492684573
30
0
41
1
10
161.696825870399
20
8.84196306802571
30
0
41
1
10
161.796139608628
20
8.56981012259885
30
0
41
1
10
161.95404823596
20
8.1336811255529
30
0
41
1
10
162.032506848391
20
7.91527480314016
30
0
41
1
10
162.188252534299
20
7.47772752839046
30
0
41
1
10
162.265541390486
20
7.25858719944372
30
0
41
1
10
162.418615247439
20
6.81946193039713
30
0
41
1
10
162.494403326681
20
6.59947809426032
30
0
41
1
10
162.606539699256
20
6.26872283921372
30
0
41
1
10
162.64365883021
20
6.15834040873733
30
0
41
1
10
162.717276861261
20
5.93727822478095
30
0
41
1
10
162.753791733546
20
5.82654671056784
30
0
41
1
10
162.861691590615
20
5.49546252579398
30
0
41
1
10
162.931625684995
20
5.27570153049882
30
0
41
1
10
163.066217034404
20
4.83773858986333
30
0
41
1
10
163.130883084923
20
4.61953806257753
30
0
41
1
10
163.252973551162
20
4.18423894794856
30
0
41
1
10
163.31040818544
20
3.96714126729438
30
0
41
1
10
163.415078802473
20
3.53345711484843
30
0
41
1
10
163.462318395707
20
3.31686914216374
30
0
41
1
10
163.512375343778
20
3.04599635335512
30
0
41
1
10
163.521939999006
20
2.99177859748977
30
0
41
1
10
163.540060074765
20
2.88347564265385
30
0
41
1
10
163.565667207694
20
2.72158839343481
30
0
41
1
10
163.586280930218
20
2.56142392701133
30
0
41
1
10
163.620178510713
20
2.24348377640271
30
0
41
1
10
163.632931573446
20
2.03469790801748
30
0
41
1
10
163.63635832758
20
1.6242283298258
30
0
41
1
10
163.627011986164
20
1.42254807251211
30
0
41
1
10
163.601612853611
20
1.1755481524493
30
0
41
1
10
163.595847792787
20
1.1263585718761
30
0
41
1
10
163.583012942142
20
1.02870670314016
30
0
41
1
10
163.561869560907
20
0.883786689246136
30
0
41
1
10
163.535380452073
20
0.743482935342257
30
0
41
1
10
163.476164006241
20
0.46888186622769
30
0
41
1
10
163.428402895784
20
0.293812013222834
30
0
41
1
10
163.320621856857
20
-0.0409580123574358
30
0
41
1
10
163.260611041487
20
-0.200662780099094
30
0
41
1
10
163.179930243613
20
-0.390835651857714
30
0
41
1
10
163.163496208319
20
-0.428421744815353
30
0
41
1
10
163.130144636867
20
-0.502531508654528
30
0
41
1
10
163.079492780401
20
-0.611880650570015
30
0
41
1
10
163.027161600394
20
-0.715890532325602
30
0
41
1
10
162.920667058414
20
-0.917005931692785
30
0
41
1
10
162.847252052671
20
-1.04189624329428
30
0
41
1
10
162.697010863731
20
-1.27392183668624
30
0
41
1
10
162.620174510001
20
-1.38105377922392
30
0
41
1
10
162.52246007908
20
-1.50389183314664
30
0
41
1
10
162.502832499993
20
-1.52790429986879
30
0
41
1
10
162.463415273259
20
-1.57481441746683
30
0
41
1
10
162.443608575758
20
-1.59773018335622
30
0
41
1
10
162.38420120421
20
-1.66452388115485
30
0
41
1
10
162.344549954359
20
-1.70652989271281
30
0
41
1
10
162.225519285749
20
-1.8251496026349
30
0
41
1
10
162.146068858034
20
-1.8943802627137
30
0
41
1
10
161.987119176678
20
-2.01364591047027
30
0
41
1
10
161.907617439591
20
-2.06367890408728
30
0
41
1
10
161.748540708328
20
-2.14457801749211
30
0
41
1
10
161.668964578695
20
-2.17544414694365
30
0
41
1
10
161.569365583325
20
-2.2017924606194
30
0
41
1
10
161.549422415309
20
-2.2064515849043
30
0
41
1
10
161.509694127799
20
-2.21450251946632
30
0
41
1
10
161.45028469509
20
-2.22469492645115
30
0
41
1
10
161.391404721815
20
-2.22929849013653
30
0
41
1
10
161.274298953222
20
-2.23118103701094
30
0
41
1
10
161.119901908448
20
-2.21418464916283
30
0
41
1
10
160.892722974578
20
-2.13123218436957
30
0
41
1
10
160.743680486474
20
-2.03755533572087
30
0
41
1
10
160.65111431043
20
-1.96675108606891
30
0
41
1
10
160.63263953273
20
-1.95198252952514
30
0
41
1
10
160.595844982747
20
-1.92129763029007
30
0
41
1
10
160.540850288791
20
-1.87352159122841
30
0
41
1
10
160.486423670702
20
-1.82051659020877
30
0
41
1
10
160.450372071672
20
-1.78286044622394
30
0
0
SPLINE
5
D0
100
AcDbEntity
8
1
62
256
6
ByLayer
370
18
48
1
60
0
100
AcDbSpline
70
4
71
3
72
18
73
14
40
0
40
0
40
0
40
0
40
0.0275132432565102
40
0.0275132432565102
40
0.351675495504349
40
0.351675495504349
40
0.675837747752187
40
0.675837747752187
40
0.756878310814142
40
0.756878310814142
40
0.837918873876098
40
0.837918873876098
40
1
40
1
40
1
40
1
41
1
10
151.773986387555
20
12.4984384985626
30
0
41
1
10
151.853559755724
20
12.4984517926601
30
0
41
1
10
151.933134590962
20
12.4983643559692
30
0
41
1
10
152.950278040387
20
12.495963716101
30
0
41
1
10
153.887989037034
20
12.479847695338
30
0
41
1
10
155.763042916603
20
12.4199734795269
30
0
41
1
10
156.700363512566
20
12.3762057623732
30
0
41
1
10
157.871426457739
20
12.303628894814
30
0
41
1
10
158.105587849051
20
12.2882043915793
30
0
41
1
10
158.574108532024
20
12.2556848175032
30
0
41
1
10
158.808458888616
20
12.2385880744964
30
0
41
1
10
159.511751505897
20
12.184796549539
30
0
41
1
10
159.980932724269
20
12.1456016404341
30
0
41
1
10
160.450372071667
20
12.1030705264941
30
0
0
SPLINE
5
D1
100
AcDbEntity
8
1
62
256
6
ByLayer
370
18
48
1
60
0
100
AcDbSpline
70
4
71
3
72
44
73
40
40
0
40
0
40
0
40
0
40
0.0828157340692375
40
0.0828157340692375
40
0.165631468138475
40
0.165631468138475
40
0.248447202207712
40
0.248447202207712
40
0.289855069242331
40
0.289855069242331
40
0.31055900275964
40
0.31055900275964
40
0.33126293627695
40
0.33126293627695
40
0.414078670346186
40
0.414078670346186
40
0.496894404415422
40
0.496894404415422
40
0.579710138484658
40
0.579710138484658
40
0.621118005519275
40
0.621118005519275
40
0.641821939036584
40
0.641821939036584
40
0.662525872553894
40
0.662525872553894
40
0.745341606623131
40
0.745341606623131
40
0.828157340692369
40
0.828157340692369
40
0.910973074761606
40
0.910973074761606
40
0.931677008278916
40
0.931677008278916
40
0.952380941796226
40
0.952380941796226
40
0.993788808830847
40
0.993788808830847
40
1
40
1
40
1
40
1
41
1
10
19.7856178428604
20
-9.24518124027801
30
0
41
1
10
20.4602487259359
20
-9.40285450109718
30
0
41
1
10
21.1348645788908
20
-9.55403450461836
30
0
41
1
10
22.4837907783626
20
-9.84429462495933
30
0
41
1
10
23.1581002342857
20
-9.9833745814376
30
0
41
1
10
24.5061687299177
20
-10.2499610543041
30
0
41
1
10
25.1799253641104
20
-10.3774712719563
30
0
41
1
10
26.1899565985145
20
-10.5602556417097
30
0
41
1
10
26.526534186544
20
-10.6197663572832
30
0
41
1
10
27.0312359643232
20
-10.7069010033947
30
0
41
1
10
27.1994394898099
20
-10.7355944838375
30
0
41
1
10
27.5358038155924
20
-10.7922489335539
30
0
41
1
10
27.7039746516847
20
-10.8201959427816
30
0
41
1
10
28.5450375364123
20
-10.9576888298736
30
0
41
1
10
29.2183725277072
20
-11.0607713524293
30
0
41
1
10
30.5656279404532
20
-11.2538510520558
30
0
41
1
10
31.2395595769214
20
-11.3438316815818
30
0
41
1
10
32.5877930971334
20
-11.5109418540074
30
0
41
1
10
33.2620880853836
20
-11.5880780917947
30
0
41
1
10
34.2736408660685
20
-11.6941281138394
30
0
41
1
10
34.6108439337621
20
-11.7278664450403
30
0
41
1
10
35.1166683298352
20
-11.776026066829
30
0
41
1
10
35.285281772007
20
-11.7916688031439
30
0
41
1
10
35.6226448963779
20
-11.8220392647047
30
0
41
1
10
35.7913669740894
20
-11.8367703441999
30
0
41
1
10
36.6348645081512
20
-11.9081596518731
30
0
41
1
10
37.3095742461244
20
-11.9580660394661
30
0
41
1
10
38.6585027391216
20
-12.0439682927816
30
0
41
1
10
39.3327335858359
20
-12.0799551191655
30
0
41
1
10
40.6804846511279
20
-12.1381298355971
30
0
41
1
10
41.3539977477469
20
-12.1603189206712
30
0
41
1
10
42.1953091538069
20
-12.1793159647773
30
0
41
1
10
42.3635426822276
20
-12.1826776743358
30
0
41
1
10
42.6999497543292
20
-12.1885200233383
30
0
41
1
10
42.8681166334712
20
-12.1910007307035
30
0
41
1
10
43.3726859816586
20
-12.1970990830413
30
0
41
1
10
43.7091860177763
20
-12.1993745487077
30
0
41
1
10
44.0962699864703
20
-12.1999648582909
30
0
41
1
10
44.1467613403027
20
-12.2000022614351
30
0
41
1
10
44.1972546953957
20
-12.200000104055
30
0
0
SPLINE
5
D2
100
AcDbEntity
8
1
62
256
6
ByLayer
370
18
48
1
60
0
100
AcDbSpline
70
4
71
3
72
42
73
38
40
0
40
0
40
0
40
0
40
0.0119464755598215
40
0.0119464755598215
40
0.0344022374789147
40
0.0344022374789147
40
0.0568579993980085
40
0.0568579993980085
40
0.101769523236199
40
0.101769523236199
40
0.191592570912578
40
0.191592570912578
40
0.236504094750769
40
0.236504094750769
40
0.28141561858896
40
0.326327142427151
40
0.348782904346246
40
0.348782904346246
40
0.371238666265341
40
0.371238666265341
40
0.416150190103532
40
0.416150190103532
40
0.461061713941723
40
0.461061713941723
40
0.550884761618105
40
0.550884761618105
40
0.640707809294487
40
0.640707809294487
40
0.685619333132676
40
0.685619333132676
40
0.730530856970865
40
0.730530856970865
40
0.820353904647244
40
0.820353904647244
40
0.910176952323622
40
0.910176952323622
40
1
40
1
40
1
40
1
41
1
10
126.665588308682
20
9.00552292386826
30
0
41
1
10
126.755119927358
20
9.02708279413091
30
0
41
1
10
126.844649157275
20
9.04856435317336
30
0
41
1
10
127.102458826122
20
9.1101995944021
30
0
41
1
10
127.270724692188
20
9.15016964437822
30
0
41
1
10
127.607327588419
20
9.22938360642689
30
0
41
1
10
127.775677772648
20
9.26860317344324
30
0
41
1
10
128.280875083057
20
9.38510528079033
30
0
41
1
10
128.617864111723
20
9.46124093727528
30
0
41
1
10
129.629325027654
20
9.68523272437955
30
0
41
1
10
130.304283669575
20
9.82869213056216
30
0
41
1
10
131.317514435537
20
10.0354380027497
30
0
41
1
10
131.655261067221
20
10.1029159471086
30
0
41
1
10
132.330508732099
20
10.2350036166547
30
0
41
1
10
133.00557938163
20
10.3642374490902
30
0
41
1
10
133.84889836231
20
10.518717478383
30
0
41
1
10
134.354630811885
20
10.6082283096539
30
0
41
1
10
134.691725735297
20
10.6671941057603
30
0
41
1
10
134.86023489541
20
10.6963340105747
30
0
41
1
10
135.365760558197
20
10.7825651235744
30
0
41
1
10
135.702875503648
20
10.8383345479441
30
0
41
1
10
136.377326923995
20
10.9464503755843
30
0
41
1
10
136.714650528988
20
10.9988140585359
30
0
41
1
10
137.726842154623
20
11.1509578157255
30
0
41
1
10
138.401934128512
20
11.2457943127011
30
0
41
1
10
139.752474844034
20
11.4226022290667
30
0
41
1
10
140.428070046071
20
11.5045930151852
30
0
41
1
10
141.440457883781
20
11.6178516533404
30
0
41
1
10
141.777789312797
20
11.6539851622478
30
0
41
1
10
142.45216802927
20
11.7229920946279
30
0
41
1
10
142.78916242001
20
11.7558990729602
30
0
41
1
10
143.80055528674
20
11.8490705355614
30
0
41
1
10
144.475177402801
20
11.90397221139
30
0
41
1
10
145.824768657915
20
11.9998885174527
30
0
41
1
10
146.499749942161
20
12.0408925309802
30
0
41
1
10
147.849841678328
20
12.1091248922506
30
0
41
1
10
148.524944790324
20
12.1363557294933
30
0
41
1
10
149.2
20
12.1566108771967
30
0
0
SPLINE
5
D3
100
AcDbEntity
8
1
62
256
6
ByLayer
370
18
48
1
60
0
100
AcDbSpline
70
4
71
4
72
10
73
5
40
0
40
0
40
0
40
0
40
0
40
1
40
1
40
1
40
1
40
1
41
0.995534366855394
10
14.5563304498213
20
-8.4443325667578
30
0
41
0.995616457715506
10
14.4884038876721
20
-8.81918841530563
30
0
41
0.99590516110079
10
14.4288968862193
20
-9.20563845463066
30
0
41
0.996389027176888
10
14.3784015195388
20
-9.60013025273803
30
0
41
0.996969731705432
10
14.3370434115913
20
-9.99861213793078
30
0
0
SPLINE
5
D4
100
AcDbEntity
8
1
62
256
6
ByLayer
370
18
48
1
60
0
100
AcDbSpline
70
4
71
3
72
75
73
71
40
0
40
0
40
0
40
0
40
0.043977307791966
40
0.043977307791966
40
0.087954615583932
40
0.087954615583932
40
0.0989489425319235
40
0.0989489425319235
40
0.109943269479915
40
0.131931923375898
40
0.131931923375898
40
0.175909231167864
40
0.175909231167864
40
0.21988653895983
40
0.21988653895983
40
0.241875192855812
40
0.241875192855812
40
0.263863846751794
40
0.263863846751794
40
0.307841154543759
40
0.307841154543759
40
0.329829808439741
40
0.329829808439741
40
0.351818462335723
40
0.351818462335723
40
0.395795770127686
40
0.395795770127686
40
0.406790097075676
40
0.406790097075676
40
0.417784424023667
40
0.417784424023667
40
0.439773077919647
40
0.439773077919647
40
0.483750385711607
40
0.483750385711607
40
0.505739039607587
40
0.505739039607587
40
0.527727693503567
40
0.549716347399547
40
0.549716347399547
40
0.571705001295526
40
0.571705001295526
40
0.593693655191506
40
0.593693655191506
40
0.615682309087486
40
0.615682309087486
40
0.659659616879447
40
0.659659616879447
40
0.703636924671409
40
0.703636924671409
40
0.72562557856739
40
0.72562557856739
40
0.736619905515381
40
0.736619905515381
40
0.747614232463373
40
0.791591540255341
40
0.791591540255341
40
0.813580194151324
40
0.813580194151324
40
0.835568848047307
40
0.835568848047307
40
0.879546155839273
40
0.879546155839273
40
0.901534809735256
40
0.901534809735256
40
0.923523463631239
40
0.923523463631239
40
0.967500771423206
40
0.967500771423206
40
1
40
1
40
1
40
1
41
1
10
149.2
20
2.1289452575802
30
0
41
1
10
148.496030336633
20
2.37452331948774
30
0
41
1
10
147.792545856003
20
2.61840497224813
30
0
41
1
10
146.386664041326
20
3.10311398729667
30
0
41
1
10
145.684274762999
20
3.34396403045517
30
0
41
1
10
144.807063815274
20
3.64332748420083
30
0
41
1
10
144.631654350729
20
3.70309814056304
30
0
41
1
10
144.280805164325
20
3.82217573415176
30
0
41
1
10
143.754510649
20
4.0001641660881
30
0
41
1
10
143.228158025661
20
4.17629023417976
30
0
41
1
10
142.175392992452
20
4.52612643398763
30
0
41
1
10
141.473469581871
20
4.7561314828211
30
0
41
1
10
140.069571648172
20
5.21002771149742
30
0
41
1
10
139.367594071512
20
5.43391136976885
30
0
41
1
10
138.314690742698
20
5.76537071591568
30
0
41
1
10
137.963733778732
20
5.8751294294907
30
0
41
1
10
137.261861256817
20
6.09322474002468
30
0
41
1
10
136.910974538386
20
6.20163002961368
30
0
41
1
10
135.857695420854
20
6.52301979118295
30
0
41
1
10
135.154862988908
20
6.73263257552912
30
0
41
1
10
134.099724249648
20
7.04032585527631
30
0
41
1
10
133.747849444264
20
7.14177263046943
30
0
41
1
10
133.043873155849
20
7.3424401206602
30
0
41
1
10
132.69194869125
20
7.44161022264609
30
0
41
1
10
131.636387582947
20
7.73567702194941
30
0
41
1
10
130.932962891902
20
7.92713576043397
30
0
41
1
10
130.054136717156
20
8.16086567146021
30
0
41
1
10
129.878394385637
20
8.20733185799202
30
0
41
1
10
129.526957607029
20
8.29970523970644
30
0
41
1
10
129.351264509258
20
8.34561471088665
30
0
41
1
10
128.824103995504
20
8.48218753521653
30
0
41
1
10
128.472572250486
20
8.57173230063913
30
0
41
1
10
127.417718351709
20
8.8359248510892
30
0
41
1
10
126.714138014106
20
9.0061372341797
30
0
41
1
10
125.658333134981
20
9.25280682549808
30
0
41
1
10
125.306296671001
20
9.33359366769713
30
0
41
1
10
124.602631811053
20
9.49218422889047
30
0
41
1
10
123.89924572375
20
9.64782155036755
30
0
41
1
10
123.196454591127
20
9.79760772168359
30
0
41
1
10
122.493981581933
20
9.94448360184819
30
0
41
1
10
122.142918181881
20
10.0164889014004
30
0
41
1
10
121.441067172504
20
10.1574876222783
30
0
41
1
10
121.090163397373
20
10.2262936712564
30
0
41
1
10
120.388290383199
20
10.360383900923
30
0
41
1
10
120.037339051065
20
10.4256970544404
30
0
41
1
10
118.98445876507
20
10.6165105541479
30
0
41
1
10
118.2825029742
20
10.7368910454787
30
0
41
1
10
116.878629084245
20
10.9642206934544
30
0
41
1
10
116.176708132704
20
11.071167143294
30
0
41
1
10
115.123960080124
20
11.2215433503853
30
0
41
1
10
114.773066505317
20
11.2699932204857
30
0
41
1
10
114.246774996888
20
11.3401429707106
30
0
41
1
10
114.071358718072
20
11.3631110811176
30
0
41
1
10
113.720457871814
20
11.4081140618257
30
0
41
1
10
112.843015511653
20
11.5182694193143
30
0
41
1
10
111.96463442171
20
11.6167530604726
30
0
41
1
10
110.909756218491
20
11.7239115710287
30
0
41
1
10
110.557993403661
20
11.7577924649245
30
0
41
1
10
109.854208172059
20
11.8218870188405
30
0
41
1
10
109.502161788889
20
11.8521012820682
30
0
41
1
10
108.446740621483
20
11.9371546485737
30
0
41
1
10
107.74372650564
20
11.986447642601
30
0
41
1
10
106.690229642439
20
12.0492155954337
30
0
41
1
10
106.339285807658
20
12.0682909022458
30
0
41
1
10
105.637344074509
20
12.1025264139571
30
0
41
1
10
105.286363179157
20
12.117700805873
30
0
41
1
10
104.233404561822
20
12.1574600199184
30
0
41
1
10
103.531411151174
20
12.1762888207452
30
0
41
1
10
102.310698666274
20
12.195835237129
30
0
41
1
10
101.791964636016
20
12.1999974416239
30
0
41
1
10
101.273272610309
20
12.2000012059637
30
0
0
SPLINE
5
D5
100
AcDbEntity
8
1
62
256
6
ByLayer
370
18
48
1
60
0
100
AcDbSpline
70
4
71
3
72
12
73
8
40
0
40
0
40
0
40
0
40
0.0458015594186087
40
0.0458015594186087
40
0.522900779709303
40
0.522900779709303
40
1
40
1
40
1
40
1
41
1
10
18.755298088163
20
-9.01964459135743
30
0
41
1
10
18.6879191998206
20
-9.03572071924489
30
0
41
1
10
18.6205364977144
20
-9.05174463962521
30
0
41
1
10
17.8512080806056
20
-9.23408948621199
30
0
41
1
10
17.1488533745856
20
-9.39480414417005
30
0
41
1
10
15.7434365889316
20
-9.70506687057556
30
0
41
1
10
15.0403755661639
20
-9.85461836677183
30
0
41
1
10
14.3370434115909
20
-9.99861213793483
30
0
0
SPLINE
5
D6
100
AcDbEntity
8
1
62
256
6
ByLayer
370
18
48
1
60
0
100
AcDbSpline
70
4
71
3
72
102
73
98
40
0
40
0
40
0
40
0
40
0.0625000000000163
40
0.0625000000000163
40
0.0937500000000237
40
0.0937500000000237
40
0.125000000000031
40
0.125000000000031
40
0.156250000000038
40
0.156250000000038
40
0.171875000000043
40
0.171875000000043
40
0.179687500000044
40
0.179687500000044
40
0.187500000000046
40
0.187500000000046
40
0.218750000000049
40
0.218750000000049
40
0.250000000000052
40
0.250000000000052
40
0.281250000000055
40
0.281250000000055
40
0.289062500000056
40
0.289062500000056
40
0.296875000000056
40
0.296875000000056
40
0.312500000000056
40
0.312500000000056
40
0.343750000000057
40
0.343750000000057
40
0.375000000000057
40
0.375000000000057
40
0.378906250000056
40
0.378906250000056
40
0.382812500000056
40
0.382812500000056
40
0.390625000000055
40
0.406250000000053
40
0.406250000000053
40
0.437500000000051
40
0.437500000000051
40
0.45312500000005
40
0.45312500000005
40
0.457031250000049
40
0.457031250000049
40
0.460937500000049
40
0.468750000000048
40
0.468750000000048
40
0.500000000000046
40
0.500000000000046
40
0.515625000000046
40
0.515625000000046
40
0.523437500000045
40
0.527343750000045
40
0.527343750000045
40
0.531250000000044
40
0.531250000000044
40
0.562500000000043
40
0.562500000000043
40
0.593750000000042
40
0.593750000000042
40
0.597656250000042
40
0.597656250000042
40
0.601562500000041
40
0.601562500000041
40
0.60937500000004
40
0.625000000000038
40
0.625000000000038
40
0.656250000000035
40
0.656250000000035
40
0.671875000000033
40
0.671875000000033
40
0.679687500000032
40
0.679687500000032
40
0.687500000000031
40
0.687500000000031
40
0.718750000000029
40
0.718750000000029
40
0.750000000000026
40
0.750000000000026
40
0.781250000000024
40
0.781250000000024
40
0.796875000000023
40
0.796875000000023
40
0.812500000000022
40
0.812500000000022
40
0.843750000000018
40
0.843750000000018
40
0.875000000000014
40
0.875000000000014
40
0.906250000000011
40
0.906250000000011
40
0.937500000000007
40
0.937500000000007
40
0.968750000000004
40
0.968750000000004
40
1
40
1
40
1
40
1
41
1
10
10
20
-8.86437274853535
30
0
41
1
10
9.55823217765158
20
-9.09639786946778
30
0
41
1
10
9.127225696186
20
-9.33930683379609
30
0
41
1
10
8.4964913722182
20
-9.71831416388619
30
0
41
1
10
8.28888066002764
20
-9.84709267080493
30
0
41
1
10
7.87893459087996
20
-10.1092787498374
30
0
41
1
10
7.67659874682306
20
-10.242686327621
30
0
41
1
10
7.27726802697487
20
-10.5138894267096
30
0
41
1
10
7.08027235278831
20
-10.6516849274635
30
0
41
1
10
6.78889204856699
20
-10.8614998497328
30
0
41
1
10
6.69245149402656
20
-10.9319585577113
30
0
41
1
10
6.54884084318184
20
-11.0384072160169
30
0
41
1
10
6.50111953401361
20
-11.0740365816182
30
0
41
1
10
6.40614574291374
20
-11.1454595082174
30
0
41
1
10
6.35898476218148
20
-11.1811839580061
30
0
41
1
10
6.12481263482692
20
-11.3598454444787
30
0
41
1
10
5.94269152157108
20
-11.5029021615067
30
0
41
1
10
5.58909085100214
20
-11.7885855900435
30
0
41
1
10
5.41760877071025
20
-11.9312137612003
30
0
41
1
10
5.08574035207874
20
-12.2152846532413
30
0
41
1
10
4.92534944686849
20
-12.3567297290104
30
0
41
1
10
4.73229862271052
20
-12.5322432839781
30
0
41
1
10
4.69406142651127
20
-12.5672809318033
30
0
41
1
10
4.6183504446727
20
-12.6372103189906
30
0
41
1
10
4.58090963834627
20
-12.6720724270265
30
0
41
1
10
4.47034254095121
20
-12.7758618556576
30
0
41
1
10
4.3987816819423
20
-12.8441665885849
30
0
41
1
10
4.19063898560364
20
-13.0462095745384
30
0
41
1
10
4.06057495783597
20
-13.1770871749663
30
0
41
1
10
3.81877799153506
20
-13.4298985326121
30
0
41
1
10
3.70703357959942
20
-13.551839700295
30
0
41
1
10
3.59262197941007
20
-13.6830240919151
30
0
41
1
10
3.58006723092004
20
-13.6975164390281
30
0
41
1
10
3.55527779888061
20
-13.7263296576164
30
0
41
1
10
3.54303806478168
20
-13.7406566675848
30
0
41
1
10
3.50693354579448
20
-13.7832233221163
30
0
41
1
10
3.43705823434704
20
-13.8668436670827
30
0
41
1
10
3.37418912007786
20
-13.9458652236112
30
0
41
1
10
3.25789739737101
20
-14.0975725980266
30
0
41
1
10
3.19292443458585
20
-14.1902851939364
30
0
41
1
10
3.11537546596082
20
-14.3155577673457
30
0
41
1
10
3.09285369935716
20
-14.3550108601998
30
0
41
1
10
3.06905791767034
20
-14.4012793166146
30
0
41
1
10
3.06451318741435
20
-14.4103884746948
30
0
41
1
10
3.05589961730433
20
-14.4282252356899
30
0
41
1
10
3.04368153418846
20
-14.4544291228089
30
0
41
1
10
3.03355792959758
20
-14.4789863005493
30
0
41
1
10
3.00442534580483
20
-14.5572081591631
30
0
41
1
10
2.9958279078327
20
-14.6081818921907
30
0
41
1
10
3.00483744023387
20
-14.6673347617346
30
0
41
1
10
3.01150191293112
20
-14.6841619106499
30
0
41
1
10
3.02706405484605
20
-14.7050262945765
30
0
41
1
10
3.03623745690916
20
-14.7143638481718
30
0
41
1
10
3.04752213475777
20
-14.7220467042384
30
0
41
1
10
3.05551759855092
20
-14.7267991168069
30
0
41
1
10
3.05975629883642
20
-14.7289926168893
30
0
41
1
10
3.0999292826823
20
-14.7470135180211
30
0
41
1
10
3.14981206235126
20
-14.7508143299458
30
0
41
1
10
3.27591381283528
20
-14.7362144660433
30
0
41
1
10
3.35214665092229
20
-14.7178027059035
30
0
41
1
10
3.452247844672
20
-14.6853791502041
30
0
41
1
10
3.46356994707702
20
-14.6816134696862
30
0
41
1
10
3.48661291505164
20
-14.6737580418429
30
0
41
1
10
3.49834146768757
20
-14.6696654432184
30
0
41
1
10
3.53401279321002
20
-14.6569449175591
30
0
41
1
10
3.60738105910002
20
-14.62970579278
30
0
41
1
10
3.68664064383302
20
-14.59729251884
30
0
41
1
10
3.85261054942407
20
-14.5260662041111
30
0
41
1
10
3.97317322378143
20
-14.4700676223702
30
0
41
1
10
4.16771107848587
20
-14.3748609338626
30
0
41
1
10
4.23484447988636
20
-14.341252058276
30
0
41
1
10
4.33886514308858
20
-14.2881855858472
30
0
41
1
10
4.37404626559186
20
-14.2700774955526
30
0
41
1
10
4.44513679457648
20
-14.2331913623806
30
0
41
1
10
4.48108387504976
20
-14.2143941400757
30
0
41
1
10
4.66275921172002
20
-14.1187240577005
30
0
41
1
10
4.81429098304756
20
-14.0368219824648
30
0
41
1
10
5.12826475053697
20
-13.8641054110352
30
0
41
1
10
5.29071281417239
20
-13.7732845378425
30
0
41
1
10
5.62536064290833
20
-13.5840775626819
30
0
41
1
10
5.79756381675091
20
-13.4856879089188
30
0
41
1
10
6.06243156577017
20
-13.3332084174988
30
0
41
1
10
6.15185648375436
20
-13.2815402613263
30
0
41
1
10
6.33260782231497
20
-13.1767752534772
30
0
41
1
10
6.42361173660274
20
-13.1238655512031
30
0
41
1
10
6.69836310585646
20
-12.9636950279179
30
0
41
1
10
6.88384711098502
20
-12.8549989720887
30
0
41
1
10
7.25875761572794
20
-12.634347768031
30
0
41
1
10
7.44818421084227
20
-12.522390624543
30
0
41
1
10
7.83038874706517
20
-12.2956099667711
30
0
41
1
10
8.02316603686609
20
-12.1807848022359
30
0
41
1
10
8.4115872396851
20
-11.9485398529045
30
0
41
1
10
8.60723005298405
20
-11.8311184912806
30
0
41
1
10
9.00103147358101
20
-11.5938794588999
30
0
41
1
10
9.19918887205716
20
-11.4740601945203
30
0
41
1
10
9.59783853072622
20
-11.2321975791677
30
0
41
1
10
9.79832982986619
20
-11.1101526658937
30
0
41
1
10
10
20
-10.9870925928471
30
0
0
SPLINE
5
D7
100
AcDbEntity
8
1
62
256
6
ByLayer
370
18
48
1
60
0
100
AcDbSpline
70
4
71
3
72
39
73
35
40
0
40
0
40
0
40
0
40
0.0029115506771256
40
0.0427950886500389
40
0.0427950886500389
40
0.122562164595866
40
0.122562164595866
40
0.162445702568779
40
0.162445702568779
40
0.182387471555235
40
0.182387471555235
40
0.202329240541692
40
0.202329240541692
40
0.282096316487521
40
0.282096316487521
40
0.36186339243335
40
0.36186339243335
40
0.441630468379179
40
0.441630468379179
40
0.481514006352093
40
0.481514006352093
40
0.521397544325008
40
0.521397544325008
40
0.60116462027084
40
0.60116462027084
40
0.680931696216672
40
0.680931696216672
40
0.760698772162504
40
0.760698772162504
40
0.840465848108336
40
0.840465848108336
40
0.920232924054168
40
0.920232924054168
40
1
40
1
40
1
40
1
41
1
10
3.57262281126475
20
14.6424025510208
30
0
41
1
10
3.57626106479239
20
14.6410175384011
30
0
41
1
10
3.62994355145844
20
14.6204788425248
30
0
41
1
10
3.68664064383302
20
14.59729251884
30
0
41
1
10
3.85261054942407
20
14.5260662041111
30
0
41
1
10
3.97317322378149
20
14.4700676223702
30
0
41
1
10
4.16771107848589
20
14.3748609338626
30
0
41
1
10
4.23484447988639
20
14.341252058276
30
0
41
1
10
4.33886514308858
20
14.2881855858472
30
0
41
1
10
4.37404626559183
20
14.2700774955526
30
0
41
1
10
4.44513679457646
20
14.2331913623805
30
0
41
1
10
4.48108387504979
20
14.2143941400757
30
0
41
1
10
4.66275921171996
20
14.1187240577005
30
0
41
1
10
4.81429098304753
20
14.0368219824648
30
0
41
1
10
5.12826475053697
20
13.8641054110352
30
0
41
1
10
5.29071281417237
20
13.7732845378424
30
0
41
1
10
5.62536064290831
20
13.5840775626819
30
0
41
1
10
5.79756381675088
20
13.4856879089188
30
0
41
1
10
6.06243156577014
20
13.3332084174988
30
0
41
1
10
6.15185648375436
20
13.2815402613263
30
0
41
1
10
6.33260782231491
20
13.1767752534772
30
0
41
1
10
6.42361173660277
20
13.1238655512031
30
0
41
1
10
6.69836310585643
20
12.9636950279179
30
0
41
1
10
6.88384711098499
20
12.8549989720887
30
0
41
1
10
7.25875761572792
20
12.634347768031
30
0
41
1
10
7.44818421084227
20
12.5223906245429
30
0
41
1
10
7.83038874706523
20
12.2956099667711
30
0
41
1
10
8.02316603686609
20
12.1807848022358
30
0
41
1
10
8.4115872396851
20
11.9485398529044
30
0
41
1
10
8.60723005298405
20
11.8311184912806
30
0
41
1
10
9.00103147358101
20
11.5938794588999
30
0
41
1
10
9.19918887205716
20
11.4740601945203
30
0
41
1
10
9.59783853072622
20
11.2321975791676
30
0
41
1
10
9.79832982986622
20
11.1101526658937
30
0
41
1
10
10
20
10.9870925928471
30
0
0
SPLINE
5
D8
100
AcDbEntity
8
SK1
62
256
6
ByLayer
370
18
48
1
60
0
100
AcDbSpline
70
4
71
3
72
37
73
33
40
0
40
0
40
0
40
0
40
0.124999999999999
40
0.124999999999999
40
0.249999999999997
40
0.249999999999997
40
0.374999999999996
40
0.374999999999996
40
0.437499999999996
40
0.437499999999996
40
0.499999999999995
40
0.499999999999995
40
0.624999999999995
40
0.624999999999995
40
0.656249999999996
40
0.656249999999996
40
0.687499999999996
40
0.687499999999996
40
0.749999999999997
40
0.749999999999997
40
0.812499999999999
40
0.812499999999999
40
0.843749999999999
40
0.843749999999999
40
0.874999999999999
40
0.874999999999999
40
0.9375
40
0.9375
40
0.953125
40
0.953125
40
0.96875
40
1
40
1
40
1
40
1
41
1
10
-56.6013095599541
20
-3.67404242557649
30
0
41
1
10
-56.5818983671532
20
-3.76227101295461
30
0
41
1
10
-56.5608730792548
20
-3.84980231602845
30
0
41
1
10
-56.5149011456991
20
-4.02327304907473
30
0
41
1
10
-56.4899592553202
20
-4.1092138747162
30
0
41
1
10
-56.4351919062966
20
-4.27922783366643
30
0
41
1
10
-56.4053764863432
20
-4.36330392303796
30
0
41
1
10
-56.3559085219568
20
-4.48770487574166
30
0
41
1
10
-56.3386238532612
20
-4.52888499906533
30
0
41
1
10
-56.3022004610974
20
-4.6105950760475
30
0
41
1
10
-56.2830277903437
20
-4.65119311461675
30
0
41
1
10
-56.2224911706718
20
-4.77130399167868
30
0
41
1
10
-56.1782467144578
20
-4.84907413383172
30
0
41
1
10
-56.115968443464
20
-4.94231131697211
30
0
41
1
10
-56.10315836213
20
-4.96075692759766
30
0
41
1
10
-56.0767470461803
20
-4.99720157474036
30
0
41
1
10
-56.0631669720757
20
-5.01516889117784
30
0
41
1
10
-56.0213776959376
20
-5.06798704911631
30
0
41
1
10
-55.992061754375
20
-5.10185542724588
30
0
41
1
10
-55.9298321318183
20
-5.16631273888052
30
0
41
1
10
-55.8969272538349
20
-5.19690945406094
30
0
41
1
10
-55.8440712942131
20
-5.23964848292457
30
0
41
1
10
-55.8258658181591
20
-5.25336554431573
30
0
41
1
10
-55.7880772055068
20
-5.27956269503571
30
0
41
1
10
-55.7687283546429
20
-5.29187752331967
30
0
41
1
10
-55.7092375195426
20
-5.32619065397267
30
0
41
1
10
-55.6676447686972
20
-5.34560920419477
30
0
41
1
10
-55.6125612417126
20
-5.36437634382568
30
0
41
1
10
-55.6013755519815
20
-5.36785346658095
30
0
41
1
10
-55.5789098857052
20
-5.37414928699397
30
0
41
1
10
-55.5449888078968
20
-5.38263478003245
30
0
41
1
10
-55.5103812675636
20
-5.38816693911767
30
0
41
1
10
-55.4869828320874
20
-5.39045045482675
30
0
0
SPLINE
5
D9
100
AcDbEntity
8
SK1
62
256
6
ByLayer
370
18
48
1
60
0
100
AcDbSpline
70
4
71
3
72
38
73
34
40
0
40
0
40
0
40
0
40
0.0624999999999988
40
0.0624999999999988
40
0.0937499999999982
40
0.0937499999999982
40
0.109374999999998
40
0.109374999999998
40
0.124999999999999
40
0.124999999999999
40
0.187499999999997
40
0.187499999999997
40
0.218749999999997
40
0.218749999999997
40
0.249999999999996
40
0.249999999999996
40
0.312499999999996
40
0.312499999999996
40
0.374999999999996
40
0.374999999999996
40
0.437499999999996
40
0.437499999999996
40
0.468749999999996
40
0.468749999999996
40
0.499999999999996
40
0.499999999999996
40
0.624999999999997
40
0.624999999999997
40
0.749999999999998
40
0.749999999999998
40
0.874999999999999
40
0.874999999999999
40
1
40
1
40
1
40
1
41
1
10
-55.4869828320874
20
5.39045045482675
30
0
41
1
10
-55.5340112854939
20
5.38586082265942
30
0
41
1
10
-55.5792475407432
20
5.37567921640115
30
0
41
1
10
-55.6448597758275
20
5.35339526064908
30
0
41
1
10
-55.6663543340588
20
5.34479075805541
30
0
41
1
10
-55.6980700363939
20
5.33023526841174
30
0
41
1
10
-55.7085426555182
20
5.32511155488996
30
0
41
1
10
-55.7290868425515
20
5.31446061507978
30
0
41
1
10
-55.7391894091154
20
5.30891956332113
30
0
41
1
10
-55.7889172059676
20
5.28021446580462
30
0
41
1
10
-55.8262117488448
20
5.25408170222258
30
0
41
1
10
-55.87927436858
20
5.21118741343659
30
0
41
1
10
-55.8964771995976
20
5.19626735233749
30
0
41
1
10
-55.9300114215657
20
5.16530406746776
30
0
41
1
10
-55.9462917892921
20
5.14930296213541
30
0
41
1
10
-55.9934356942821
20
5.10035000843709
30
0
41
1
10
-56.0228020768564
20
5.06628595710666
30
0
41
1
10
-56.078326436026
20
4.99590453061043
30
0
41
1
10
-56.1044778219573
20
4.95958275029739
30
0
41
1
10
-56.1541566098393
20
4.88506830814691
30
0
41
1
10
-56.1776808746374
20
4.84687355258669
30
0
41
1
10
-56.2113079014024
20
4.78837896752557
30
0
41
1
10
-56.2222393682362
20
4.76867706562567
30
0
41
1
10
-56.2434756231488
20
4.72911675343036
30
0
41
1
10
-56.2537968848612
20
4.7092302403565
30
0
41
1
10
-56.3040524668077
20
4.60930752204828
30
0
41
1
10
-56.339989360063
20
4.52781806830399
30
0
41
1
10
-56.4056776145828
20
4.36246555081721
30
0
41
1
10
-56.4354058590262
20
4.27859519764016
30
0
41
1
10
-56.4900491389977
20
4.10890313734902
30
0
41
1
10
-56.5149546873468
20
4.02307844746088
30
0
41
1
10
-56.56088189532
20
3.84976160662609
30
0
41
1
10
-56.5818990222464
20
3.76226803539686
30
0
41
1
10
-56.6013095599541
20
3.67404242557649
30
0
0
SPLINE
5
DA
100
AcDbEntity
8
SK1
62
256
6
ByLayer
370
18
48
1
60
0
100
AcDbSpline
70
4
71
3
72
33
73
29
40
0
40
0
40
0
40
0
40
0.125000000000006
40
0.125000000000006
40
0.250000000000012
40
0.250000000000012
40
0.375000000000017
40
0.375000000000017
40
0.40625000000002
40
0.40625000000002
40
0.437500000000023
40
0.437500000000023
40
0.500000000000019
40
0.500000000000019
40
0.625000000000009
40
0.625000000000009
40
0.656250000000005
40
0.656250000000005
40
0.687500000000001
40
0.687500000000001
40
0.749999999999993
40
0.812499999999985
40
0.812499999999985
40
0.843749999999988
40
0.843749999999988
40
0.87499999999999
40
0.87499999999999
40
1
40
1
40
1
40
1
41
1
10
-14.051872681288
20
7.58734230610622
30
0
41
1
10
-14.0806477010082
20
7.63716049470688
30
0
41
1
10
-14.1111960666033
20
7.68574713585582
30
0
41
1
10
-14.1763795738798
20
7.78016829172287
30
0
41
1
10
-14.2110110664831
20
7.82600493913273
30
0
41
1
10
-14.2851110385999
20
7.91451556477941
30
0
41
1
10
-14.3245721279275
20
7.95719387593883
30
0
41
1
10
-14.3776213268518
20
8.00817431396229
30
0
41
1
10
-14.3884185818754
20
8.01825128676794
30
0
41
1
10
-14.4104115542246
20
8.03815365023897
30
0
41
1
10
-14.4216108037395
20
8.04798083475526
30
0
41
1
10
-14.455622663142
20
8.07687937861485
30
0
41
1
10
-14.4789160665747
20
8.09543103467254
30
0
41
1
10
-14.5508106006942
20
8.14878338695524
30
0
41
1
10
-14.6014062936362
20
8.18130323174049
30
0
41
1
10
-14.6687381239779
20
8.21735588111801
30
0
41
1
10
-14.6824104044294
20
8.22433484183665
30
0
41
1
10
-14.710192970406
20
8.23780190427706
30
0
41
1
10
-14.7242927464647
20
8.24428275713819
30
0
41
1
10
-14.7668701147152
20
8.26277278740699
30
0
41
1
10
-14.8246359059293
20
8.28501525135295
30
0
41
1
10
-14.8845078995177
20
8.30218349007504
30
0
41
1
10
-14.9302595196826
20
8.31302504752674
30
0
41
1
10
-14.9456514993249
20
8.31629937780269
30
0
41
1
10
-14.976730334019
20
8.3221411784192
30
0
41
1
10
-14.9924519952567
20
8.32471328587587
30
0
41
1
10
-15.0714171524834
20
8.33566995587665
30
0
41
1
10
-15.1349687406039
20
8.33829643503807
30
0
41
1
10
-15.198909252112
20
8.33463752287949
30
0
0
SPLINE
5
DB
100
AcDbEntity
8
SK1
62
256
6
ByLayer
370
18
48
1
60
0
100
AcDbSpline
70
4
71
3
72
28
73
24
40
0
40
0
40
0
40
0
40
0.124999999999995
40
0.124999999999995
40
0.187499999999992
40
0.187499999999992
40
0.24999999999999
40
0.24999999999999
40
0.374999999999983
40
0.374999999999983
40
0.437499999999979
40
0.437499999999979
40
0.499999999999976
40
0.499999999999976
40
0.624999999999981
40
0.624999999999981
40
0.687499999999984
40
0.687499999999984
40
0.749999999999987
40
0.749999999999987
40
0.874999999999994
40
0.874999999999994
40
1
40
1
40
1
40
1
41
1
10
-15.198909252112
20
-8.33463752287949
30
0
41
1
10
-15.1350143484387
20
-8.33829382518937
30
0
41
1
10
-15.0719017967204
20
-8.33565332559238
30
0
41
1
10
-14.978337274282
20
-8.32279548271791
30
0
41
1
10
-14.9473338896935
20
-8.31702027865589
30
0
41
1
10
-14.8856931933269
20
-8.30251274872501
30
0
41
1
10
-14.8554833479755
20
-8.29387762923409
30
0
41
1
10
-14.7669559756536
20
-8.26429996307647
30
0
41
1
10
-14.7105270717761
20
-8.23965842490713
30
0
41
1
10
-14.6292411643099
20
-8.19624288886422
30
0
41
1
10
-14.6029581616285
20
-8.18081975592636
30
0
41
1
10
-14.5521237698499
20
-8.14844888077508
30
0
41
1
10
-14.5275204196119
20
-8.13147265143903
30
0
41
1
10
-14.4558957807576
20
-8.07840113768455
30
0
41
1
10
-14.411048006958
20
-8.04017416621042
30
0
41
1
10
-14.347408645875
20
-7.9791980354984
30
0
41
1
10
-14.3267704985616
20
-7.9582267315275
30
0
41
1
10
-14.2867812208927
20
-7.91531082173958
30
0
41
1
10
-14.267487937703
20
-7.89343345035931
30
0
41
1
10
-14.2115013365259
20
-7.82665213506647
30
0
41
1
10
-14.1766922853205
20
-7.78060380498701
30
0
41
1
10
-14.1112733091055
20
-7.68587638410847
30
0
41
1
10
-14.080667629502
20
-7.63719499690606
30
0
41
1
10
-14.051872681288
20
-7.58734230610622
30
0
0
SPLINE
5
DC
100
AcDbEntity
8
1
62
256
6
ByLayer
370
13
48
1
60
0
100
AcDbSpline
70
4
71
3
72
43
73
39
40
0
40
0
40
0
40
0
40
0.0625000000000003
40
0.0625000000000003
40
0.125000000000001
40
0.125000000000001
40
0.187500000000001
40
0.187500000000001
40
0.250000000000001
40
0.250000000000001
40
0.312500000000001
40
0.312500000000001
40
0.343750000000001
40
0.343750000000001
40
0.359375000000001
40
0.367187500000001
40
0.367187500000001
40
0.375000000000001
40
0.375000000000001
40
0.437500000000001
40
0.437500000000001
40
0.500000000000001
40
0.500000000000001
40
0.562500000000001
40
0.562500000000001
40
0.625000000000001
40
0.625000000000001
40
0.687500000000001
40
0.687500000000001
40
0.750000000000001
40
0.750000000000001
40
0.812500000000001
40
0.812500000000001
40
0.875
40
0.875
40
0.9375
40
0.9375
40
1
40
1
40
1
40
1
41
1
10
149.2
20
-9.99857880176094
30
0
41
1
10
149.29291351264
20
-9.59002886416053
30
0
41
1
10
149.385827025279
20
-9.13431778326535
30
0
41
1
10
149.571654050559
20
-8.14558030912337
30
0
41
1
10
149.664567563199
20
-7.61264620173196
30
0
41
1
10
149.850394588478
20
-6.49263174704268
30
0
41
1
10
149.943308101118
20
-5.90566782733256
30
0
41
1
10
150.129135126397
20
-4.70359740615129
30
0
41
1
10
150.222048639037
20
-4.088599534905
30
0
41
1
10
150.407875664316
20
-2.85580075994596
30
0
41
1
10
150.500789176956
20
-2.23807610101844
30
0
41
1
10
150.640159445916
20
-1.32575129488973
30
0
41
1
10
150.686616202236
20
-1.02398547715046
30
0
41
1
10
150.756301336715
20
-0.57653118611475
30
0
41
1
10
150.791143903955
20
-0.354098694997674
30
0
41
1
10
150.825986471195
20
-0.133886783386316
30
0
41
1
10
150.849214849355
20
0.0123993148173156
30
0
41
1
10
150.860829038435
20
0.0853460075803696
30
0
41
1
10
150.965356740155
20
0.745702203544823
30
0
41
1
10
151.058270252794
20
1.34921036996317
30
0
41
1
10
151.244097278074
20
2.57173710003678
30
0
41
1
10
151.337010790713
20
3.19071360641598
30
0
41
1
10
151.522837815993
20
4.42164184446784
30
0
41
1
10
151.615751328633
20
5.03351030910792
30
0
41
1
10
151.801578353912
20
6.22458083723711
30
0
41
1
10
151.894491866552
20
6.80367066953914
30
0
41
1
10
152.080318891831
20
7.90343224236116
30
0
41
1
10
152.173232404471
20
8.42398954919599
30
0
41
1
10
152.35905942975
20
9.38433916244239
30
0
41
1
10
152.45197294239
20
9.82404666617211
30
0
41
1
10
152.63779996767
20
10.6068643954822
30
0
41
1
10
152.73071348031
20
10.9499421314562
30
0
41
1
10
152.916540505589
20
11.532014614133
30
0
41
1
10
153.009454018229
20
11.7710327481794
30
0
41
1
10
153.195281043508
20
12.1459773278476
30
0
41
1
10
153.288194556148
20
12.2819681202158
30
0
41
1
10
153.474021581427
20
12.4589387487626
30
0
41
1
10
153.566935094067
20
12.5
30
0
41
1
10
153.659848606707
20
12.5
30
0
0
SPLINE
5
DD
100
AcDbEntity
8
1
62
256
6
ByLayer
370
13
48
1
60
0
100
AcDbSpline
70
4
71
3
72
80
73
76
40
0
40
0
40
0
40
0
40
0.0312499999999994
40
0.0312499999999994
40
0.0624999999999988
40
0.0624999999999988
40
0.0937499999999981
40
0.0937499999999981
40
0.124999999999998
40
0.124999999999998
40
0.156249999999997
40
0.156249999999997
40
0.187499999999996
40
0.187499999999996
40
0.218749999999996
40
0.218749999999996
40
0.249999999999995
40
0.249999999999995
40
0.281249999999995
40
0.281249999999995
40
0.312499999999994
40
0.312499999999994
40
0.343749999999994
40
0.343749999999994
40
0.351562499999993
40
0.355468749999993
40
0.355468749999993
40
0.359374999999993
40
0.359374999999993
40
0.374999999999993
40
0.374999999999993
40
0.406249999999993
40
0.406249999999993
40
0.437499999999993
40
0.437499999999993
40
0.468749999999992
40
0.468749999999992
40
0.499999999999992
40
0.499999999999992
40
0.531249999999991
40
0.531249999999991
40
0.562499999999991
40
0.562499999999991
40
0.593749999999991
40
0.593749999999991
40
0.62499999999999
40
0.62499999999999
40
0.65624999999999
40
0.65624999999999
40
0.687499999999989
40
0.687499999999989
40
0.703124999999989
40
0.703124999999989
40
0.710937499999989
40
0.714843749999989
40
0.714843749999989
40
0.718749999999989
40
0.718749999999989
40
0.74999999999999
40
0.74999999999999
40
0.781249999999991
40
0.781249999999991
40
0.812499999999993
40
0.812499999999993
40
0.843749999999994
40
0.843749999999994
40
0.874999999999995
40
0.874999999999995
40
0.906249999999996
40
0.906249999999996
40
0.937499999999997
40
0.937499999999997
40
0.968749999999999
40
0.968749999999999
40
1
40
1
40
1
40
1
41
1
10
152.595262576261
20
12.5
30
0
41
1
10
152.677086633505
20
12.5
30
0
41
1
10
152.758910690749
20
12.4681822251624
30
0
41
1
10
152.922558805236
20
12.3320688861298
30
0
41
1
10
153.00438286248
20
12.2277298390256
30
0
41
1
10
153.168030976968
20
11.9403415730373
30
0
41
1
10
153.249855034212
20
11.757254775237
30
0
41
1
10
153.4135031487
20
11.3100823071364
30
0
41
1
10
153.495327205943
20
11.0459750736911
30
0
41
1
10
153.658975320431
20
10.4393430778148
30
0
41
1
10
153.740799377675
20
10.0968209136146
30
0
41
1
10
153.904447492163
20
9.34112266256795
30
0
41
1
10
153.986271549407
20
8.92797588371647
30
0
41
1
10
154.149919663894
20
8.04349864565495
30
0
41
1
10
154.231743721138
20
7.57221928717891
30
0
41
1
10
154.395391835626
20
6.58742129383734
30
0
41
1
10
154.47721589287
20
6.07396444582147
30
0
41
1
10
154.640864007357
20
5.02248923014082
30
0
41
1
10
154.722688064601
20
4.48453002882727
30
0
41
1
10
154.886336179089
20
3.4015954672297
30
0
41
1
10
154.968160236333
20
2.85666575628224
30
0
41
1
10
155.131808350821
20
1.77559267373826
30
0
41
1
10
155.213632408065
20
1.23947590072478
30
0
41
1
10
155.315912479619
20
0.582921394857181
30
0
41
1
10
155.346596501086
20
0.386962708566727
30
0
41
1
10
155.377280522552
20
0.192706385397912
30
0
41
1
10
155.397736536863
20
0.0636001324723168
30
0
41
1
10
155.407964544019
20
-0.000617026855565
30
0
41
1
10
155.459104579796
20
-0.322728226083086
30
0
41
1
10
155.500016608418
20
-0.583660947971566
30
0
41
1
10
155.622752694284
20
-1.37417933957838
30
0
41
1
10
155.704576751528
20
-1.91158200605273
30
0
41
1
10
155.868224866016
20
-2.9939975637383
30
0
41
1
10
155.950048923259
20
-3.53898218585636
30
0
41
1
10
156.113697037747
20
-4.62059945071675
30
0
41
1
10
156.195521094991
20
-5.15718500813801
30
0
41
1
10
156.359169209479
20
-6.2044053607151
30
0
41
1
10
156.440993266723
20
-6.71498028831664
30
0
41
1
10
156.604641381211
20
-7.69257772638431
30
0
41
1
10
156.686465438454
20
-8.15953883494512
30
0
41
1
10
156.850113552942
20
-9.03417087662618
30
0
41
1
10
156.931937610186
20
-9.44179218113362
30
0
41
1
10
157.095585724674
20
-10.1855877056163
30
0
41
1
10
157.177409781918
20
-10.5217347824627
30
0
41
1
10
157.341057896405
20
-11.1151942258082
30
0
41
1
10
157.422881953649
20
-11.372506225333
30
0
41
1
10
157.586530068137
20
-11.8060992682514
30
0
41
1
10
157.668354125381
20
-11.9824035913494
30
0
41
1
10
157.832002239869
20
-12.2566140948783
30
0
41
1
10
157.913826297113
20
-12.3545587409691
30
0
41
1
10
158.036562382978
20
-12.4475517108784
30
0
41
1
10
158.0774744116
20
-12.4695883712003
30
0
41
1
10
158.138842454533
20
-12.4899996835549
30
0
41
1
10
158.169526476
20
-12.497046121697
30
0
41
1
10
158.200210497466
20
-12.4995167658544
30
0
41
1
10
158.220666511777
20
-12.5001659072755
30
0
41
1
10
158.230894518933
20
-12.4999942808857
30
0
41
1
10
158.322946583332
20
-12.4939413334599
30
0
41
1
10
158.404770640576
20
-12.45633121789
30
0
41
1
10
158.568418755063
20
-12.3079860869085
30
0
41
1
10
158.650242812307
20
-12.1972077134579
30
0
41
1
10
158.813890926795
20
-11.8965799987022
30
0
41
1
10
158.895714984039
20
-11.7066940390453
30
0
41
1
10
159.059363098526
20
-11.2459436851725
30
0
41
1
10
159.14118715577
20
-10.9750595044561
30
0
41
1
10
159.304835270258
20
-10.3553287675126
30
0
41
1
10
159.386659327502
20
-10.0064870600712
30
0
41
1
10
159.55030744199
20
-9.23903101823444
30
0
41
1
10
159.632131499234
20
-8.82044812103823
30
0
41
1
10
159.795779613721
20
-7.92632935110328
30
0
41
1
10
159.877603670965
20
-7.45084596991103
30
0
41
1
10
160.041251785453
20
-6.45908824349456
30
0
41
1
10
160.123075842697
20
-5.94287597277267
30
0
41
1
10
160.286723957185
20
-4.88739778971939
30
0
41
1
10
160.368548014429
20
-4.34819026343263
30
0
41
1
10
160.450372071672
20
-3.80618331467198
30
0
0
SPLINE
5
DE
100
AcDbEntity
8
1
62
256
6
ByLayer
370
13
48
1
60
0
100
AcDbSpline
70
4
71
3
72
44
73
40
40
0
40
0
40
0
40
0
40
0.0625000000000032
40
0.0625000000000032
40
0.125000000000006
40
0.125000000000006
40
0.187500000000009
40
0.187500000000009
40
0.250000000000013
40
0.250000000000013
40
0.281250000000014
40
0.281250000000014
40
0.289062500000014
40
0.289062500000014
40
0.296875000000015
40
0.296875000000015
40
0.312500000000014
40
0.312500000000014
40
0.375000000000013
40
0.375000000000013
40
0.437500000000012
40
0.437500000000012
40
0.50000000000001
40
0.50000000000001
40
0.562500000000009
40
0.562500000000009
40
0.625000000000008
40
0.625000000000008
40
0.687500000000006
40
0.687500000000006
40
0.750000000000005
40
0.750000000000005
40
0.812500000000004
40
0.812500000000004
40
0.875000000000003
40
0.875000000000003
40
0.937500000000001
40
0.937500000000001
40
1
40
1
40
1
40
1
41
1
10
149.2
20
-7.48360278024052
30
0
41
1
10
149.28280856617
20
-6.99770298360488
30
0
41
1
10
149.36561713234
20
-6.48784341393869
30
0
41
1
10
149.531234264681
20
-5.43810911708434
30
0
41
1
10
149.614042830851
20
-4.89829923152922
30
0
41
1
10
149.779659963192
20
-3.80706487097666
30
0
41
1
10
149.862468529362
20
-3.25569328227635
30
0
41
1
10
150.028085661702
20
-2.1582919480783
30
0
41
1
10
150.110894227873
20
-1.61229550088174
30
0
41
1
10
150.235107077128
20
-0.807954121855317
30
0
41
1
10
150.276511360213
20
-0.542257965231499
30
0
41
1
10
150.32826671407
20
-0.214066878706973
30
0
41
1
10
150.338617784841
20
-0.148624579193381
30
0
41
1
10
150.359319926384
20
-0.0181523316781806
30
0
41
1
10
150.369670997155
20
0.0468101015556215
30
0
41
1
10
150.400724209469
20
0.242699231657355
30
0
41
1
10
150.421426351011
20
0.374111212796379
30
0
41
1
10
150.524937058724
20
1.03484570568315
30
0
41
1
10
150.607745624894
20
1.57532504818167
30
0
41
1
10
150.773362757235
20
2.66710615956654
30
0
41
1
10
150.856171323405
20
3.21838221842918
30
0
41
1
10
151.021788455746
20
4.31570720107976
30
0
41
1
10
151.104597021916
20
4.86170968934445
30
0
41
1
10
151.270214154256
20
5.93044551216141
30
0
41
1
10
151.353022720427
20
6.4531170007935
30
0
41
1
10
151.518639852767
20
7.45680783776459
30
0
41
1
10
151.601448418937
20
7.93776130300276
30
0
41
1
10
151.767065551278
20
8.84125728355494
30
0
41
1
10
151.849874117448
20
9.26374429246485
30
0
41
1
10
152.015491249789
20
10.0370502093031
30
0
41
1
10
152.098299815959
20
10.3878363910582
30
0
41
1
10
152.263916948299
20
11.0093522838889
30
0
41
1
10
152.34672551447
20
11.28007787058
30
0
41
1
10
152.51234264681
20
11.7385205929526
30
0
41
1
10
152.59515121298
20
11.9262598096878
30
0
41
1
10
152.760768345321
20
12.2209281332948
30
0
41
1
10
152.843576911491
20
12.3278968387591
30
0
41
1
10
153.009194043832
20
12.4674097036813
30
0
41
1
10
153.092002610002
20
12.5
30
0
41
1
10
153.174811176172
20
12.5
30
0
0
SPLINE
5
DF
100
AcDbEntity
8
1
62
256
6
ByLayer
370
13
48
1
60
0
100
AcDbSpline
70
4
71
3
72
81
73
77
40
0
40
0
40
0
40
0
40
0.0312499999999992
40
0.0312499999999992
40
0.0624999999999985
40
0.0624999999999985
40
0.0937499999999977
40
0.0937499999999977
40
0.124999999999997
40
0.124999999999997
40
0.156249999999996
40
0.156249999999996
40
0.187499999999996
40
0.187499999999996
40
0.218749999999995
40
0.218749999999995
40
0.249999999999994
40
0.249999999999994
40
0.281249999999993
40
0.281249999999993
40
0.312499999999992
40
0.312499999999992
40
0.328124999999992
40
0.328124999999992
40
0.335937499999992
40
0.335937499999992
40
0.339843749999992
40
0.339843749999992
40
0.343749999999992
40
0.343749999999992
40
0.374999999999993
40
0.374999999999993
40
0.406249999999993
40
0.406249999999993
40
0.437499999999993
40
0.437499999999993
40
0.468749999999994
40
0.468749999999994
40
0.499999999999994
40
0.499999999999994
40
0.531249999999994
40
0.531249999999994
40
0.562499999999995
40
0.562499999999995
40
0.593749999999995
40
0.593749999999995
40
0.624999999999995
40
0.624999999999995
40
0.656249999999996
40
0.656249999999996
40
0.671874999999996
40
0.671874999999996
40
0.675781249999996
40
0.675781249999996
40
0.679687499999996
40
0.687499999999996
40
0.687499999999996
40
0.718749999999997
40
0.718749999999997
40
0.749999999999997
40
0.749999999999997
40
0.781249999999998
40
0.781249999999998
40
0.812499999999998
40
0.812499999999998
40
0.843749999999998
40
0.843749999999998
40
0.874999999999999
40
0.874999999999999
40
0.906249999999999
40
0.906249999999999
40
0.937499999999999
40
0.937499999999999
40
0.96875
40
0.96875
40
1
40
1
40
1
40
1
41
1
10
152.110225145726
20
12.5
30
0
41
1
10
152.197101676205
20
12.5
30
0
41
1
10
152.283978206683
20
12.4641183944014
30
0
41
1
10
152.457731267641
20
12.3100897686759
30
0
41
1
10
152.544607798119
20
12.1918842661329
30
0
41
1
10
152.718360859076
20
11.8661171940822
30
0
41
1
10
152.805237389555
20
11.6585069390557
30
0
41
1
10
152.978990450512
20
11.1520247482151
30
0
41
1
10
153.065866980991
20
10.8531291551161
30
0
41
1
10
153.239620041948
20
10.1684991106542
30
0
41
1
10
153.326496572427
20
9.78277712961463
30
0
41
1
10
153.500249633384
20
8.93544903227775
30
0
41
1
10
153.587126163863
20
8.47389265144636
30
0
41
1
10
153.76087922482
20
7.49144194890206
30
0
41
1
10
153.847755755298
20
6.97062386058627
30
0
41
1
10
154.021508816256
20
5.88984542913488
30
0
41
1
10
154.108385346734
20
5.32996896131996
30
0
41
1
10
154.282138407691
20
4.19243980834082
30
0
41
1
10
154.36901493817
20
3.6148593158205
30
0
41
1
10
154.542767999127
20
2.46204591886121
30
0
41
1
10
154.629644529606
20
1.88686070672836
30
0
41
1
10
154.759959325324
20
1.03862496031044
30
0
41
1
10
154.803397590563
20
0.75827494905576
30
0
41
1
10
154.868554988422
20
0.342652595270607
30
0
41
1
10
154.890274121042
20
0.204926866853612
30
0
41
1
10
154.922852819971
20
-0.0002941641588734
30
0
41
1
10
154.933712386281
20
-0.0684744181952794
30
0
41
1
10
154.955431518901
20
-0.205591431835899
30
0
41
1
10
154.96629108521
20
-0.274373828160407
30
0
41
1
10
155.064027181999
20
-0.895322445716687
30
0
41
1
10
155.150903712477
20
-1.46100913551211
30
0
41
1
10
155.324656773435
20
-2.60518850208339
30
0
41
1
10
155.411533303913
20
-3.18364994411442
30
0
41
1
10
155.585286364871
20
-4.33493423772842
30
0
41
1
10
155.672162895349
20
-4.90769821806688
30
0
41
1
10
155.845915956306
20
-6.02672091861533
30
0
41
1
10
155.932792486785
20
-6.57290052420458
30
0
41
1
10
156.106545547742
20
-7.61757387380442
30
0
41
1
10
156.193422078221
20
-8.1159844186943
30
0
41
1
10
156.367175139178
20
-9.0461296483839
30
0
41
1
10
156.454051669657
20
-9.47779717019625
30
0
41
1
10
156.627804730614
20
-10.2599906700967
30
0
41
1
10
156.714681261092
20
-10.6104818010896
30
0
41
1
10
156.88843432205
20
-11.2219668923087
30
0
41
1
10
156.975310852528
20
-11.4829642585108
30
0
41
1
10
157.149063913485
20
-11.913699253541
30
0
41
1
10
157.235940443964
20
-12.0834727128939
30
0
41
1
10
157.409693504921
20
-12.3359692692177
30
0
41
1
10
157.4965700354
20
-12.418746997469
30
0
41
1
10
157.626884831118
20
-12.4842012045181
30
0
41
1
10
157.670323096357
20
-12.4962639921656
30
0
41
1
10
157.724620927906
20
-12.5000040460343
30
0
41
1
10
157.735480494216
20
-12.5001871878169
30
0
41
1
10
157.757199626836
20
-12.49943448873
30
0
41
1
10
157.789778325765
20
-12.4966169895185
30
0
41
1
10
157.822357024695
20
-12.4886324555558
30
0
41
1
10
157.930952687793
20
-12.4501030057621
30
0
41
1
10
158.017829218271
20
-12.3810259765394
30
0
41
1
10
158.191582279229
20
-12.1571203748829
30
0
41
1
10
158.278458809707
20
-12.0022355580919
30
0
41
1
10
158.452211870664
20
-11.6016024736555
30
0
41
1
10
158.539088401143
20
-11.3558141896783
30
0
41
1
10
158.7128414621
20
-10.7740140186767
30
0
41
1
10
158.799717992579
20
-10.4379926534025
30
0
41
1
10
158.973471053536
20
-9.68291228416714
30
0
41
1
10
159.060347584015
20
-9.2638818512759
30
0
41
1
10
159.234100644972
20
-8.3562484557286
30
0
41
1
10
159.320977175451
20
-7.86770819618118
30
0
41
1
10
159.494730236408
20
-6.83940303846228
30
0
41
1
10
159.581606766886
20
-6.29972006729599
30
0
41
1
10
159.755359827844
20
-5.19012435275113
30
0
41
1
10
159.842236358322
20
-4.62029271223327
30
0
41
1
10
160.015989419279
20
-3.4715172603625
30
0
41
1
10
160.102865949758
20
-2.89263645724165
30
0
41
1
10
160.276619010715
20
-1.74478031401125
30
0
41
1
10
160.363495541194
20
-1.17584090829894
30
0
41
1
10
160.450372071672
20
-0.61955803357742
30
0
0
SPLINE
5
E0
100
AcDbEntity
8
1
62
256
6
ByLayer
370
13
48
1
60
0
100
AcDbSpline
70
4
71
3
72
42
73
38
40
0
40
0
40
0
40
0
40
0.0625000000000004
40
0.0625000000000004
40
0.125000000000001
40
0.125000000000001
40
0.187500000000001
40
0.187500000000001
40
0.203125000000001
40
0.203125000000001
40
0.218750000000001
40
0.218750000000001
40
0.250000000000002
40
0.250000000000002
40
0.312500000000002
40
0.312500000000002
40
0.375000000000001
40
0.375000000000001
40
0.437500000000001
40
0.437500000000001
40
0.500000000000001
40
0.500000000000001
40
0.562500000000001
40
0.562500000000001
40
0.625000000000001
40
0.625000000000001
40
0.687500000000001
40
0.687500000000001
40
0.750000000000001
40
0.750000000000001
40
0.8125
40
0.8125
40
0.875
40
0.875
40
0.9375
40
0.9375
40
1
40
1
40
1
40
1
41
1
10
149.2
20
-4.43048249408071
30
0
41
1
10
149.272703619701
20
-3.9519510762085
30
0
41
1
10
149.345407239402
20
-3.46863882745185
30
0
41
1
10
149.490814478803
20
-2.50401613095983
30
0
41
1
10
149.563518098504
20
-2.02272493204717
30
0
41
1
10
149.708925337905
20
-1.0722295697052
30
0
41
1
10
149.781628957606
20
-0.603034961201303
30
0
41
1
10
149.872508482232
20
-0.0291695025997853
30
0
41
1
10
149.890684387157
20
0.0847838286554747
30
0
41
1
10
149.927036197008
20
0.314732640095286
30
0
41
1
10
149.945212101933
20
0.430324377679454
30
0
41
1
10
149.999739816709
20
0.778778120891332
30
0
41
1
10
150.036091626559
20
1.01332268841463
30
0
41
1
10
150.14514705611
20
1.72214793000345
30
0
41
1
10
150.217850675811
20
2.20167794288597
30
0
41
1
10
150.363257915212
20
3.16503312009212
30
0
41
1
10
150.435961534913
20
3.64884106677911
30
0
41
1
10
150.581368774315
20
4.6094218569896
30
0
41
1
10
150.654072394015
20
5.08616830707172
30
0
41
1
10
150.799479633417
20
6.02030336912213
30
0
41
1
10
150.872183253118
20
6.47765913546152
30
0
41
1
10
151.017590492519
20
7.36059913674933
30
0
41
1
10
151.09029411222
20
7.7861488813212
30
0
41
1
10
151.235701351622
20
8.59400263404012
30
0
41
1
10
151.308404971322
20
8.97627636055722
30
0
41
1
10
151.453812210724
20
9.68803802124151
30
0
41
1
10
151.526515830425
20
10.0175051822458
30
0
41
1
10
151.671923069827
20
10.6168328960985
30
0
41
1
10
151.744626689527
20
10.8866853928615
30
0
41
1
10
151.890033928929
20
11.3631245539033
30
0
41
1
10
151.96273754863
20
11.5697161764278
30
0
41
1
10
152.108144788031
20
11.9191807261544
30
0
41
1
10
152.180848407732
20
12.0620692156512
30
0
41
1
10
152.326255647134
20
12.2865616352254
30
0
41
1
10
152.398959266834
20
12.3681876460367
30
0
41
1
10
152.544366506236
20
12.4748947445606
30
0
41
1
10
152.617070125937
20
12.5
30
0
41
1
10
152.689773745637
20
12.5
30
0
0
SPLINE
5
E1
100
AcDbEntity
8
1
62
256
6
ByLayer
370
13
48
1
60
0
100
AcDbSpline
70
4
71
3
72
86
73
82
40
0
40
0
40
0
40
0
40
0.0312500000000003
40
0.0312500000000003
40
0.0625000000000005
40
0.0625000000000005
40
0.0937500000000008
40
0.0937500000000008
40
0.125000000000001
40
0.125000000000001
40
0.156250000000001
40
0.156250000000001
40
0.187500000000002
40
0.187500000000002
40
0.218750000000002
40
0.218750000000002
40
0.250000000000002
40
0.250000000000002
40
0.281250000000002
40
0.281250000000002
40
0.312500000000003
40
0.312500000000003
40
0.316406250000003
40
0.316406250000003
40
0.320312500000003
40
0.320312500000003
40
0.328125000000003
40
0.328125000000003
40
0.343750000000003
40
0.343750000000003
40
0.375000000000003
40
0.375000000000003
40
0.406250000000003
40
0.406250000000003
40
0.437500000000004
40
0.437500000000004
40
0.468750000000004
40
0.468750000000004
40
0.500000000000004
40
0.500000000000004
40
0.531250000000004
40
0.531250000000004
40
0.562500000000005
40
0.562500000000005
40
0.593750000000005
40
0.593750000000005
40
0.625000000000005
40
0.625000000000005
40
0.632812500000005
40
0.636718750000005
40
0.636718750000005
40
0.640625000000005
40
0.640625000000005
40
0.656250000000005
40
0.656250000000005
40
0.687500000000004
40
0.687500000000004
40
0.718750000000004
40
0.718750000000004
40
0.750000000000003
40
0.750000000000003
40
0.781250000000003
40
0.781250000000003
40
0.812500000000003
40
0.812500000000003
40
0.843750000000002
40
0.843750000000002
40
0.875000000000002
40
0.875000000000002
40
0.906250000000001
40
0.906250000000001
40
0.937500000000001
40
0.937500000000001
40
0.953125000000001
40
0.953125000000001
40
0.957031250000001
40
0.957031250000001
40
0.960937500000001
40
0.968750000000001
40
0.968750000000001
40
1
40
1
40
1
40
1
41
1
10
151.625187715192
20
12.5
30
0
41
1
10
151.717116718905
20
12.5
30
0
41
1
10
151.809045722618
20
12.4598075596121
30
0
41
1
10
151.992903730045
20
12.2866930086118
30
0
41
1
10
152.084832733758
20
12.1536936348599
30
0
41
1
10
152.268690741185
20
11.787015874164
30
0
41
1
10
152.360619744898
20
11.5532758667075
30
0
41
1
10
152.544477752325
20
10.9838760435814
30
0
41
1
10
152.636406756038
20
10.6481925117712
30
0
41
1
10
152.820264763465
20
9.88173715847532
30
0
41
1
10
152.912193767178
20
9.45099382584615
30
0
41
1
10
153.096051774605
20
8.50929328442305
30
0
41
1
10
153.187980778318
20
7.99841427898994
30
0
41
1
10
153.371838785745
20
6.91773083809275
30
0
41
1
10
153.463767789458
20
6.34803402293971
30
0
41
1
10
153.647625796885
20
5.17453700806743
30
0
41
1
10
153.739554800599
20
4.57084440323052
30
0
41
1
10
153.923412808025
20
3.35436672447989
30
0
41
1
10
154.015341811738
20
2.74166360968255
30
0
41
1
10
154.199199819165
20
1.52943137426863
30
0
41
1
10
154.291128822879
20
0.929945934375695
30
0
41
1
10
154.394548952056
20
0.272836505760267
30
0
41
1
10
154.40604007752
20
0.200061445844682
30
0
41
1
10
154.429022328449
20
0.0550139259869979
30
0
41
1
10
154.440513453913
20
-0.0170954783064303
30
0
41
1
10
154.474986830305
20
-0.234401995983433
30
0
41
1
10
154.497969081233
20
-0.380288524917773
30
0
41
1
10
154.566915834019
20
-0.820648691760681
30
0
41
1
10
154.612880335875
20
-1.11783316632645
30
0
41
1
10
154.750773841445
20
-2.01707665567503
30
0
41
1
10
154.842702845159
20
-2.62696453736194
30
0
41
1
10
155.026560852585
20
-3.84708103795634
30
0
41
1
10
155.118489856299
20
-4.45724222057217
30
0
41
1
10
155.302347863725
20
-5.65374492843682
30
0
41
1
10
155.394276867439
20
-6.23998656744303
30
0
41
1
10
155.578134874865
20
-7.36338044472927
30
0
41
1
10
155.670063878579
20
-7.90042147927832
30
0
41
1
10
155.853921886005
20
-8.90229611696401
30
0
41
1
10
155.945850889719
20
-9.36703662543587
30
0
41
1
10
156.129708897145
20
-10.2065250069212
30
0
41
1
10
156.221637900859
20
-10.5812232820031
30
0
41
1
10
156.405495908285
20
-11.2304030890881
30
0
41
1
10
156.497424911999
20
-11.5048885350279
30
0
41
1
10
156.681282919425
20
-11.9516857124501
30
0
41
1
10
156.773211923139
20
-12.1240464875856
30
0
41
1
10
156.957069930565
20
-12.3720620377842
30
0
41
1
10
157.048998934279
20
-12.447790590123
30
0
41
1
10
157.163910188921
20
-12.4888629774833
30
0
41
1
10
157.198383565313
20
-12.497180796789
30
0
41
1
10
157.232856941705
20
-12.4997233193528
30
0
41
1
10
157.255839192634
20
-12.5001617904139
30
0
41
1
10
157.267330318098
20
-12.4997559053488
30
0
41
1
10
157.324785945419
20
-12.4945448392039
30
0
41
1
10
157.370750447275
20
-12.48017662085
30
0
41
1
10
157.508643952845
20
-12.4040625878395
30
0
41
1
10
157.600572956559
20
-12.3091501447041
30
0
41
1
10
157.784430963986
20
-12.0211083597257
30
0
41
1
10
157.876359967699
20
-11.8279084459769
30
0
41
1
10
158.060217975126
20
-11.3391651985936
30
0
41
1
10
158.152146978839
20
-11.0435807074327
30
0
41
1
10
158.336004986266
20
-10.3536121894705
30
0
41
1
10
158.427933989979
20
-9.95923516485652
30
0
41
1
10
158.611791997406
20
-9.08347164728136
30
0
41
1
10
158.703721001119
20
-8.60214516511994
30
0
41
1
10
158.887579008546
20
-7.57151491297464
30
0
41
1
10
158.979508012259
20
-7.02231038611592
30
0
41
1
10
159.163366019686
20
-5.87973874894706
30
0
41
1
10
159.255295023399
20
-5.28648280135664
30
0
41
1
10
159.439153030826
20
-4.08113599525328
30
0
41
1
10
159.531082034539
20
-3.46913961915348
30
0
41
1
10
159.714940041966
20
-2.24996228335129
30
0
41
1
10
159.806869045679
20
-1.6428407412389
30
0
41
1
10
159.944762551249
20
-0.750474721197321
30
0
41
1
10
159.990727053106
20
-0.45603510963582
30
0
41
1
10
160.048182680426
20
-0.0929792777360774
30
0
41
1
10
160.059673805891
20
-0.0207756297592709
30
0
41
1
10
160.082656056819
20
0.123917192897011
30
0
41
1
10
160.117129433212
20
0.341724425103735
30
0
41
1
10
160.151602809604
20
0.561712214892083
30
0
41
1
10
160.266514064246
20
1.29925256408757
30
0
41
1
10
160.358443067959
20
1.90307465734932
30
0
41
1
10
160.450372071672
20
2.51140697746624
30
0
0
SPLINE
5
E2
100
AcDbEntity
8
1
62
256
6
ByLayer
370
13
48
1
60
0
100
AcDbSpline
70
4
71
3
72
41
73
37
40
0
40
0
40
0
40
0
40
0.0624999999999988
40
0.0624999999999988
40
0.0781249999999986
40
0.0781249999999986
40
0.0937499999999985
40
0.124999999999998
40
0.124999999999998
40
0.187499999999998
40
0.187499999999998
40
0.249999999999998
40
0.249999999999998
40
0.312499999999999
40
0.312499999999999
40
0.374999999999999
40
0.374999999999999
40
0.437499999999999
40
0.437499999999999
40
0.499999999999999
40
0.499999999999999
40
0.562499999999999
40
0.562499999999999
40
0.624999999999999
40
0.624999999999999
40
0.687499999999999
40
0.687499999999999
40
0.749999999999999
40
0.749999999999999
40
0.812499999999999
40
0.812499999999999
40
0.875
40
0.875
40
0.9375
40
0.9375
40
1
40
1
40
1
40
1
41
1
10
149.2
20
-1.22932684392154
30
0
41
1
10
149.262598673231
20
-0.822626302313637
30
0
41
1
10
149.325197346463
20
-0.421135139015945
30
0
41
1
10
149.403445688002
20
0.0711140484997657
30
0
41
1
10
149.41909535631
20
0.169716625655497
30
0
41
1
10
149.450394692925
20
0.368127025309775
30
0
41
1
10
149.497343697849
20
0.667089253786628
30
0
41
1
10
149.544292702772
20
0.969763870797692
30
0
41
1
10
149.638190712619
20
1.57908888400604
30
0
41
1
10
149.70078938585
20
1.99063918696041
30
0
41
1
10
149.825986732313
20
2.81838571098081
30
0
41
1
10
149.888585405544
20
3.23457467836815
30
0
41
1
10
150.013782752007
20
4.06461156482573
30
0
41
1
10
150.076381425238
20
4.47844833751213
30
0
41
1
10
150.201578771701
20
5.29611158617843
30
0
41
1
10
150.264177444932
20
5.69992370470857
30
0
41
1
10
150.389374791395
20
6.48957204648801
30
0
41
1
10
150.451973464626
20
6.87539207897333
30
0
41
1
10
150.577170811089
20
7.62125853983636
30
0
41
1
10
150.63976948432
20
7.98128884781917
30
0
41
1
10
150.764966830783
20
8.66843850891738
30
0
41
1
10
150.827565504014
20
8.9955438935051
30
0
41
1
10
150.952762850477
20
9.61082613495984
30
0
41
1
10
151.015361523708
20
9.89899299473447
30
0
41
1
10
151.140558870171
20
10.4318665091518
30
0
41
1
10
151.203157543402
20
10.6765682994289
30
0
41
1
10
151.328354889865
20
11.1196925653432
30
0
41
1
10
151.390953563096
20
11.3181155874242
30
0
41
1
10
151.516150909558
20
11.667640748424
30
0
41
1
10
151.57874958279
20
11.8187482503044
30
0
41
1
10
151.703946929252
20
12.0742866308617
30
0
41
1
10
151.766545602484
20
12.1787264445483
30
0
41
1
10
151.891742948946
20
12.3430397482669
30
0
41
1
10
151.954341622178
20
12.4029241901452
30
0
41
1
10
152.07953896864
20
12.4813985941595
30
0
41
1
10
152.142137641872
20
12.5
30
0
41
1
10
152.204736315103
20
12.5
30
0
0
SPLINE
5
E3
100
AcDbEntity
8
1
62
256
6
ByLayer
370
13
48
1
60
0
100
AcDbSpline
70
4
71
3
72
82
73
78
40
0
40
0
40
0
40
0
40
0.0312500000000003
40
0.0312500000000003
40
0.0625000000000005
40
0.0625000000000005
40
0.0937500000000008
40
0.0937500000000008
40
0.125000000000001
40
0.125000000000001
40
0.156250000000001
40
0.156250000000001
40
0.187500000000002
40
0.187500000000002
40
0.218750000000002
40
0.218750000000002
40
0.250000000000002
40
0.250000000000002
40
0.281250000000002
40
0.281250000000002
40
0.296875000000002
40
0.296875000000002
40
0.300781250000002
40
0.300781250000002
40
0.304687500000002
40
0.304687500000002
40
0.312500000000002
40
0.312500000000002
40
0.343750000000002
40
0.343750000000002
40
0.375000000000002
40
0.375000000000002
40
0.406250000000002
40
0.406250000000002
40
0.437500000000002
40
0.437500000000002
40
0.468750000000002
40
0.468750000000002
40
0.500000000000002
40
0.500000000000002
40
0.531250000000002
40
0.531250000000002
40
0.562500000000002
40
0.562500000000002
40
0.593750000000002
40
0.593750000000002
40
0.601562500000002
40
0.601562500000002
40
0.605468750000002
40
0.605468750000002
40
0.609375000000002
40
0.609375000000002
40
0.625000000000002
40
0.625000000000002
40
0.656250000000002
40
0.656250000000002
40
0.687500000000002
40
0.687500000000002
40
0.718750000000002
40
0.718750000000002
40
0.750000000000001
40
0.750000000000001
40
0.781250000000001
40
0.781250000000001
40
0.812500000000001
40
0.812500000000001
40
0.843750000000001
40
0.843750000000001
40
0.875000000000001
40
0.875000000000001
40
0.906250000000001
40
0.906250000000001
40
0.9375
40
0.9375
40
0.96875
40
0.96875
40
1
40
1
40
1
40
1
41
1
10
151.140150284657
20
12.5
30
0
41
1
10
151.237131761605
20
12.5
30
0
41
1
10
151.334113238553
20
12.4552489948938
30
0
41
1
10
151.528076192449
20
12.2618688311541
30
0
41
1
10
151.625057669397
20
12.1131392257183
30
0
41
1
10
151.819020623294
20
11.7030157034353
30
0
41
1
10
151.916002100242
20
11.4415455138616
30
0
41
1
10
152.109965054138
20
10.8057090357603
30
0
41
1
10
152.206946531086
20
10.4313222884054
30
0
41
1
10
152.400909484982
20
9.57954287354676
30
0
41
1
10
152.49789096193
20
9.10220283062225
30
0
41
1
10
152.691853915826
20
8.06409081423269
30
0
41
1
10
152.788835392774
20
7.50343486101207
30
0
41
1
10
152.982798346671
20
6.32535307766187
30
0
41
1
10
153.079779823619
20
5.70807199650858
30
0
41
1
10
153.273742777515
20
4.44642675515786
30
0
41
1
10
153.370724254463
20
3.80219334348521
30
0
41
1
10
153.564687208359
20
2.51506004801803
30
0
41
1
10
153.661668685307
20
1.87224609149999
30
0
41
1
10
153.807140900729
20
0.926871773800684
30
0
41
1
10
153.855631639203
20
0.614844110605105
30
0
41
1
10
153.916245062296
20
0.230164392925872
30
0
41
1
10
153.928367746914
20
0.153495184602377
30
0
41
1
10
153.952613116151
20
0.0007232688575414
30
0
41
1
10
153.96473580077
20
-0.0753754088313485
30
0
41
1
10
154.001103854625
20
-0.305082313573422
30
0
41
1
10
154.025349223862
20
-0.459332879322062
30
0
41
1
10
154.146576070047
20
-1.23546126744517
30
0
41
1
10
154.243557546995
20
-1.87221109276828
30
0
41
1
10
154.437520500892
20
-3.15577003784244
30
0
41
1
10
154.53450197784
20
-3.80251130231181
30
0
41
1
10
154.728464931736
20
-5.07898030135684
30
0
41
1
10
154.825446408684
20
-5.70858985412545
30
0
41
1
10
155.01940936258
20
-6.92113451866345
30
0
41
1
10
155.116390839528
20
-7.50392503906153
30
0
41
1
10
155.310353793424
20
-8.59463889001873
30
0
41
1
10
155.407335270372
20
-9.10243189706983
30
0
41
1
10
155.601298224269
20
-10.0207165917818
30
0
41
1
10
155.698279701217
20
-10.4311319391514
30
0
41
1
10
155.892242655113
20
-11.1412276978392
30
0
41
1
10
155.989224132061
20
-11.4409048821643
30
0
41
1
10
156.183187085957
20
-11.9263322432594
30
0
41
1
10
156.280168562905
20
-12.1121432036275
30
0
41
1
10
156.474131516801
20
-12.3759640803495
30
0
41
1
10
156.571112993749
20
-12.4540700565809
30
0
41
1
10
156.692339839934
20
-12.4924327759711
30
0
41
1
10
156.716585209171
20
-12.4971542593164
30
0
41
1
10
156.752953263027
20
-12.4999922445491
30
0
41
1
10
156.765075947645
20
-12.5002332416285
30
0
41
1
10
156.789321316883
20
-12.4993209639334
30
0
41
1
10
156.801444001501
20
-12.4981629982906
30
0
41
1
10
156.862057424594
20
-12.4887863664908
30
0
41
1
10
156.910548163068
20
-12.4697977412943
30
0
41
1
10
157.05602037849
20
-12.3755982541182
30
0
41
1
10
157.153001855438
20
-12.2629471352294
30
0
41
1
10
157.346964809334
20
-11.9270874533908
30
0
41
1
10
157.443946286282
20
-11.7037908103875
30
0
41
1
10
157.637909240178
20
-11.1432947585921
30
0
41
1
10
157.734890717126
20
-10.8060532524061
30
0
41
1
10
157.928853671022
20
-10.0241130057005
30
0
41
1
10
158.02583514797
20
-9.57944207637451
30
0
41
1
10
158.219798101867
20
-8.59916877344037
30
0
41
1
10
158.316779578815
20
-8.06366408917233
30
0
41
1
10
158.510742532711
20
-6.92641830529132
30
0
41
1
10
158.607724009659
20
-6.32481715754031
30
0
41
1
10
158.801686963555
20
-5.08454822938839
30
0
41
1
10
158.898668440503
20
-4.44602023593444
30
0
41
1
10
159.092631394399
20
-3.16117776829722
30
0
41
1
10
159.189612871347
20
-2.51496632678445
30
0
41
1
10
159.383575825244
20
-1.24037805190901
30
0
41
1
10
159.480557302192
20
-0.612051001023474
30
0
41
1
10
159.674520256088
20
0.607141326258557
30
0
41
1
10
159.771501733036
20
1.23529207006322
30
0
41
1
10
159.965464686932
20
2.50978676062294
30
0
41
1
10
160.06244616388
20
3.15598210500036
30
0
41
1
10
160.256409117776
20
4.44086721216979
30
0
41
1
10
160.353390594724
20
5.0794540735406
30
0
41
1
10
160.450372071672
20
5.69968754155337
30
0
0
SPLINE
5
E4
100
AcDbEntity
8
1
62
256
6
ByLayer
370
13
48
1
60
0
100
AcDbSpline
70
4
71
3
72
32
73
28
40
0
40
0
40
0
40
0
40
0.125000000000001
40
0.125000000000001
40
0.187500000000001
40
0.187500000000001
40
0.250000000000001
40
0.250000000000001
40
0.312500000000001
40
0.312500000000001
40
0.375
40
0.375
40
0.4375
40
0.4375
40
0.5
40
0.5
40
0.5625
40
0.5625
40
0.625
40
0.625
40
0.6875
40
0.6875
40
0.749999999999999
40
0.749999999999999
40
0.875
40
0.875
40
1
40
1
40
1
40
1
41
1
10
149.2
20
1.88791853110479
30
0
41
1
10
149.304987453524
20
2.57792290200695
30
0
41
1
10
149.409974907047
20
3.27834514435059
30
0
41
1
10
149.567456087333
20
4.3202131605143
30
0
41
1
10
149.619949814095
20
4.66598490800377
30
0
41
1
10
149.724937267618
20
5.34993313984759
30
0
41
1
10
149.77743099438
20
5.68810355730358
30
0
41
1
10
149.882418447904
20
6.35215394254877
30
0
41
1
10
149.934912174666
20
6.67802721140313
30
0
41
1
10
150.039899628189
20
7.31285632391445
30
0
41
1
10
150.092393354951
20
7.621805388561
30
0
41
1
10
150.197380808475
20
8.21843175292037
30
0
41
1
10
150.249874535237
20
8.50610280471346
30
0
41
1
10
150.35486198876
20
9.05628924873992
30
0
41
1
10
150.407355715522
20
9.31879950458705
30
0
41
1
10
150.512343169046
20
9.81542386577405
30
0
41
1
10
150.564836895808
20
10.0495344058825
30
0
41
1
10
150.669824349331
20
10.4868944140395
30
0
41
1
10
150.722318076093
20
10.6901421573096
30
0
41
1
10
150.827305529617
20
11.0641674165929
30
0
41
1
10
150.879799256379
20
11.2349450941155
30
0
41
1
10
150.984786709903
20
11.5433002447369
30
0
41
1
10
151.037280436664
20
11.6808795970301
30
0
41
1
10
151.19476161695
20
12.0439939624583
30
0
41
1
10
151.299749070474
20
12.2195873175257
30
0
41
1
10
151.509723977521
20
12.4475164169563
30
0
41
1
10
151.614711431045
20
12.5
30
0
41
1
10
151.719698884568
20
12.5
30
0
0
SPLINE
5
E5
100
AcDbEntity
8
1
62
256
6
ByLayer
370
13
48
1
60
0
100
AcDbSpline
70
4
71
3
72
101
73
97
40
0
40
0
40
0
40
0
40
0.0312500000000008
40
0.0312500000000008
40
0.0625000000000016
40
0.0625000000000016
40
0.0937500000000024
40
0.0937500000000024
40
0.109375000000003
40
0.109375000000003
40
0.125000000000003
40
0.125000000000003
40
0.140625000000004
40
0.140625000000004
40
0.156250000000004
40
0.156250000000004
40
0.171875000000004
40
0.171875000000004
40
0.187500000000005
40
0.187500000000005
40
0.218750000000006
40
0.218750000000006
40
0.250000000000007
40
0.250000000000007
40
0.281250000000008
40
0.281250000000008
40
0.285156250000008
40
0.285156250000008
40
0.289062500000008
40
0.289062500000008
40
0.296875000000008
40
0.296875000000008
40
0.312500000000008
40
0.312500000000008
40
0.343750000000007
40
0.343750000000007
40
0.375000000000006
40
0.375000000000006
40
0.406250000000006
40
0.406250000000006
40
0.421875000000006
40
0.421875000000006
40
0.437500000000005
40
0.437500000000005
40
0.453125000000005
40
0.453125000000005
40
0.468750000000005
40
0.468750000000005
40
0.500000000000004
40
0.500000000000004
40
0.531250000000003
40
0.531250000000003
40
0.562500000000002
40
0.562500000000002
40
0.570312500000002
40
0.570312500000002
40
0.578125000000002
40
0.578125000000002
40
0.593750000000002
40
0.593750000000002
40
0.625000000000001
40
0.625000000000001
40
0.656250000000001
40
0.656250000000001
40
0.6875
40
0.6875
40
0.703125
40
0.703125
40
0.71875
40
0.71875
40
0.734374999999999
40
0.734374999999999
40
0.749999999999999
40
0.749999999999999
40
0.781249999999999
40
0.781249999999999
40
0.812499999999998
40
0.812499999999998
40
0.843749999999998
40
0.843749999999998
40
0.859374999999997
40
0.859374999999997
40
0.863281249999997
40
0.863281249999997
40
0.867187499999997
40
0.874999999999997
40
0.874999999999997
40
0.906249999999998
40
0.906249999999998
40
0.937499999999999
40
0.937499999999999
40
0.968749999999999
40
0.968749999999999
40
0.984375
40
0.984375
40
1
40
1
40
1
40
1
41
1
10
150.655112854122
20
12.5
30
0
41
1
10
150.757146804305
20
12.5
30
0
41
1
10
150.859180754488
20
12.4504419113332
30
0
41
1
10
151.063248654854
20
12.2356077741048
30
0
41
1
10
151.165282605037
20
12.0702030274256
30
0
41
1
10
151.369350505402
20
11.6140999590274
30
0
41
1
10
151.471384455585
20
11.3233092581018
30
0
41
1
10
151.624435380859
20
10.7940445635039
30
0
41
1
10
151.675452355951
20
10.6022031773298
30
0
41
1
10
151.777486306133
20
10.189007873662
30
0
41
1
10
151.828503281225
20
9.96765512648722
30
0
41
1
10
151.930537231408
20
9.49753501444377
30
0
41
1
10
151.981554206499
20
9.24877039579465
30
0
41
1
10
152.083588156682
20
8.72663714370381
30
0
41
1
10
152.134605131773
20
8.45327265174078
30
0
41
1
10
152.236639081956
20
7.88535875239637
30
0
41
1
10
152.287656057047
20
7.59081454006525
30
0
41
1
10
152.38969000723
20
6.98442727461929
30
0
41
1
10
152.440706982322
20
6.67259001505738
30
0
41
1
10
152.593757907596
20
5.71740951850884
30
0
41
1
10
152.695791857778
20
5.05444012418954
30
0
41
1
10
152.899859758144
20
3.71038768998787
30
0
41
1
10
153.001893708327
20
3.02945517399434
30
0
41
1
10
153.205961608693
20
1.6808610792236
30
0
41
1
10
153.307995558875
20
1.01328115326911
30
0
41
1
10
153.422783752831
20
0.283536801288165
30
0
41
1
10
153.435537996604
20
0.202744662567397
30
0
41
1
10
153.46104648415
20
0.0417804102699222
30
0
41
1
10
153.473800727923
20
-0.0382274392689226
30
0
41
1
10
153.512063459241
20
-0.279646369005349
30
0
41
1
10
153.537571946787
20
-0.441834489630281
30
0
41
1
10
153.614097409424
20
-0.931647019292427
30
0
41
1
10
153.665114384516
20
-1.26253502285007
30
0
41
1
10
153.81816530979
20
-2.26384430363379
30
0
41
1
10
153.920199259972
20
-2.94310930767486
30
0
41
1
10
154.124267160338
20
-4.29622615589869
30
0
41
1
10
154.226301110521
20
-4.96995137684303
30
0
41
1
10
154.430369010886
20
-6.27813925923482
30
0
41
1
10
154.532402961069
20
-6.91242318790148
30
0
41
1
10
154.685453886344
20
-7.80887768766203
30
0
41
1
10
154.736470861435
20
-8.09855054410968
30
0
41
1
10
154.838504811618
20
-8.65582979496099
30
0
41
1
10
154.889521786709
20
-8.92343121492127
30
0
41
1
10
154.991555736892
20
-9.43328419663828
30
0
41
1
10
155.042572711983
20
-9.67553193447165
30
0
41
1
10
155.144606662166
20
-10.1320315584117
30
0
41
1
10
155.195623637258
20
-10.3462810765481
30
0
41
1
10
155.348674562532
20
-10.9441638551944
30
0
41
1
10
155.450708512715
20
-11.2825397651552
30
0
41
1
10
155.65477641308
20
-11.8329030416625
30
0
41
1
10
155.756810363263
20
-12.0449569819262
30
0
41
1
10
155.960878263629
20
-12.348432777261
30
0
41
1
10
156.062912213812
20
-12.43997523096
30
0
41
1
10
156.19045465154
20
-12.4881041682503
30
0
41
1
10
156.215963139086
20
-12.494431003831
30
0
41
1
10
156.266980114177
20
-12.5007663877642
30
0
41
1
10
156.292488601723
20
-12.5008113660742
30
0
41
1
10
156.36901406436
20
-12.491587796634
30
0
41
1
10
156.420031039451
20
-12.4728013725193
30
0
41
1
10
156.573081964726
20
-12.3752824795721
30
0
41
1
10
156.675115914908
20
-12.2551347883838
30
0
41
1
10
156.879183815274
20
-11.8920546558596
30
0
41
1
10
156.981217765457
20
-11.6490105385568
30
0
41
1
10
157.185285665822
20
-11.0369417916267
30
0
41
1
10
157.287319616005
20
-10.6678705701002
30
0
41
1
10
157.440370541279
20
-10.026479841979
30
0
41
1
10
157.491387516371
20
-9.79815152282688
30
0
41
1
10
157.593421466554
20
-9.31470969352523
30
0
41
1
10
157.644438441645
20
-9.05959929679625
30
0
41
1
10
157.746472391828
20
-8.52556507687228
30
0
41
1
10
157.797489366919
20
-8.24664569174843
30
0
41
1
10
157.899523317102
20
-7.66854195376641
30
0
41
1
10
157.950540292193
20
-7.36936298862904
30
0
41
1
10
158.103591217468
20
-6.44739290406153
30
0
41
1
10
158.205625167651
20
-5.80014642659185
30
0
41
1
10
158.409693068016
20
-4.47461409274734
30
0
41
1
10
158.511727018199
20
-3.79649788867695
30
0
41
1
10
158.715794918565
20
-2.44236449703641
30
0
41
1
10
158.817828868748
20
-1.76645663253669
30
0
41
1
10
158.970879794022
20
-0.774730807054851
30
0
41
1
10
159.021896769113
20
-0.447790131671525
30
0
41
1
10
159.085667987977
20
-0.0453337943171164
30
0
41
1
10
159.09842223175
20
0.0346748816726006
30
0
41
1
10
159.123930719296
20
0.195602519207625
30
0
41
1
10
159.162193450614
20
0.437925193130894
30
0
41
1
10
159.200456181933
20
0.682870247254584
30
0
41
1
10
159.327998619662
20
1.50434534584573
30
0
41
1
10
159.430032569844
20
2.1777903505668
30
0
41
1
10
159.63410047021
20
3.53095234123356
30
0
41
1
10
159.736134420393
20
4.21056949226363
30
0
41
1
10
159.940202320758
20
5.54360722771011
30
0
41
1
10
160.042236270941
20
6.19686413159926
30
0
41
1
10
160.195287196215
20
7.13114689150703
30
0
41
1
10
160.246304171307
20
7.43497385660169
30
0
41
1
10
160.34833812149
20
8.02337737977527
30
0
41
1
10
160.399355096581
20
8.30794837765038
30
0
41
1
10
160.450372071672
20
8.58105552788498
30
0
0
SPLINE
5
E6
100
AcDbEntity
8
1
62
256
6
ByLayer
370
13
48
1
60
0
100
AcDbSpline
70
4
71
3
72
22
73
18
40
0
40
0
40
0
40
0
40
0.125
40
0.125
40
0.25
40
0.25
40
0.375
40
0.375
40
0.5
40
0.5
40
0.625
40
0.625
40
0.75
40
0.75
40
0.875
40
0.875
40
1
40
1
40
1
40
1
41
1
10
149.2
20
5.08992860733289
30
0
41
1
10
149.284777560585
20
5.64121098062239
30
0
41
1
10
149.36955512117
20
6.18207754142605
30
0
41
1
10
149.539110242339
20
7.223299547068
30
0
41
1
10
149.623887802924
20
7.72358059211862
30
0
41
1
10
149.793442924093
20
8.66523546566111
30
0
41
1
10
149.878220484678
20
9.10654426583534
30
0
41
1
10
150.047775605847
20
9.9154342149746
30
0
41
1
10
150.132553166432
20
10.2829750086079
30
0
41
1
10
150.302108287601
20
10.93471967995
30
0
41
1
10
150.386885848186
20
11.2189158305733
30
0
41
1
10
150.556440969356
20
11.7003161462658
30
0
41
1
10
150.64121852994
20
11.8975432836303
30
0
41
1
10
150.81077365111
20
12.2070593918512
30
0
41
1
10
150.895551211695
20
12.3193922102128
30
0
41
1
10
151.065106332864
20
12.4658366012878
30
0
41
1
10
151.149883893449
20
12.5
30
0
41
1
10
151.234661454034
20
12.5
30
0
0
SPLINE
5
E7
100
AcDbEntity
8
1
62
256
6
ByLayer
370
13
48
1
60
0
100
AcDbSpline
70
4
71
3
72
132
73
128
40
0
40
0
40
0
40
0
40
0.0312500000000003
40
0.0312500000000003
40
0.0468750000000003
40
0.0468750000000003
40
0.0625000000000003
40
0.0625000000000003
40
0.0781250000000003
40
0.0781250000000003
40
0.0937500000000004
40
0.0937500000000004
40
0.109375
40
0.109375
40
0.125
40
0.125
40
0.140625
40
0.140625
40
0.15625
40
0.15625
40
0.171875000000001
40
0.171875000000001
40
0.187500000000001
40
0.187500000000001
40
0.203125000000001
40
0.203125000000001
40
0.218750000000001
40
0.218750000000001
40
0.234375000000001
40
0.234375000000001
40
0.250000000000001
40
0.250000000000001
40
0.265625000000001
40
0.265625000000001
40
0.273437500000001
40
0.273437500000001
40
0.281250000000001
40
0.281250000000001
40
0.312500000000001
40
0.312500000000001
40
0.328125000000001
40
0.328125000000001
40
0.343750000000001
40
0.343750000000001
40
0.359375000000001
40
0.359375000000001
40
0.375000000000001
40
0.375000000000001
40
0.390625000000001
40
0.390625000000001
40
0.406250000000001
40
0.406250000000001
40
0.421875000000001
40
0.421875000000001
40
0.437500000000001
40
0.437500000000001
40
0.453125000000001
40
0.453125000000001
40
0.468750000000001
40
0.468750000000001
40
0.484375000000001
40
0.484375000000001
40
0.500000000000001
40
0.500000000000001
40
0.531250000000001
40
0.531250000000001
40
0.546875000000001
40
0.546875000000001
40
0.554687500000001
40
0.554687500000001
40
0.562500000000002
40
0.562500000000002
40
0.593750000000001
40
0.593750000000001
40
0.609375000000001
40
0.609375000000001
40
0.625000000000001
40
0.625000000000001
40
0.640625000000001
40
0.640625000000001
40
0.656250000000001
40
0.656250000000001
40
0.671875000000001
40
0.671875000000001
40
0.687500000000001
40
0.687500000000001
40
0.703125000000001
40
0.703125000000001
40
0.718750000000001
40
0.718750000000001
40
0.734375000000001
40
0.734375000000001
40
0.750000000000001
40
0.750000000000001
40
0.765625000000002
40
0.765625000000002
40
0.781250000000002
40
0.781250000000002
40
0.812500000000001
40
0.812500000000001
40
0.820312500000001
40
0.820312500000001
40
0.824218750000001
40
0.824218750000001
40
0.828125000000001
40
0.828125000000001
40
0.843750000000001
40
0.843750000000001
40
0.859375000000001
40
0.859375000000001
40
0.875000000000001
40
0.875000000000001
40
0.890625000000001
40
0.890625000000001
40
0.906250000000001
40
0.906250000000001
40
0.921875
40
0.921875
40
0.9375
40
0.9375
40
0.953125
40
0.953125
40
0.96875
40
0.96875
40
0.984375
40
0.984375
40
1
40
1
40
1
40
1
41
1
10
150.170075423588
20
12.5
30
0
41
1
10
150.277161847005
20
12.5
30
0
41
1
10
150.384248270423
20
12.4453854547286
30
0
41
1
10
150.544877905549
20
12.2672718865663
30
0
41
1
10
150.598421117258
20
12.1919163517521
30
0
41
1
10
150.705507540676
20
12.0076402725882
30
0
41
1
10
150.759050752384
20
11.8987151375376
30
0
41
1
10
150.866137175802
20
11.6464098810311
30
0
41
1
10
150.919680387511
20
11.5030262668452
30
0
41
1
10
151.026766810928
20
11.1817540692406
30
0
41
1
10
151.080310022637
20
11.0038635871633
30
0
41
1
10
151.187396446054
20
10.6144503959132
30
0
41
1
10
151.240939657763
20
10.4029277530628
30
0
41
1
10
151.348026081181
20
9.94807447676152
30
0
41
1
10
151.40156929289
20
9.70474604052933
30
0
41
1
10
151.508655716307
20
9.18902337169163
30
0
41
1
10
151.562198928016
20
8.91663337813716
30
0
41
1
10
151.669285351434
20
8.34635059515981
30
0
41
1
10
151.722828563142
20
8.04846373878797
30
0
41
1
10
151.82991498656
20
7.43141685928313
30
0
41
1
10
151.883458198269
20
7.11226390389214
30
0
41
1
10
151.990544621686
20
6.45738371915004
30
0
41
1
10
152.044087833395
20
6.12166401040906
30
0
41
1
10
152.151174256813
20
5.43859691866879
30
0
41
1
10
152.204717468521
20
5.09125681425422
30
0
41
1
10
152.311803891939
20
4.38991857378238
30
0
41
1
10
152.365347103648
20
4.03592687026145
30
0
41
1
10
152.472433527065
20
3.32607021774186
30
0
41
1
10
152.525976738774
20
2.97021041819082
30
0
41
1
10
152.633063162191
20
2.2610422470641
30
0
41
1
10
152.6866063739
20
1.90773750774247
30
0
41
1
10
152.793692797318
20
1.20761157210828
30
0
41
1
10
152.847236009026
20
0.860792455155519
30
0
41
1
10
152.92755082659
20
0.347941874049212
30
0
41
1
10
152.954322432444
20
0.178216662299775
30
0
41
1
10
153.007865644153
20
-0.158422586932488
30
0
41
1
10
153.034637250007
20
-0.327937029185733
30
0
41
1
10
153.168495279279
20
-1.18220690741347
30
0
41
1
10
153.275581702697
20
-1.88570718545085
30
0
41
1
10
153.436211337823
20
-2.94930916274731
30
0
41
1
10
153.489754549532
20
-3.30515995417204
30
0
41
1
10
153.596840972949
20
-4.01508923732055
30
0
41
1
10
153.650384184658
20
-4.36916260776823
30
0
41
1
10
153.757470608076
20
-5.07076034473945
30
0
41
1
10
153.811013819784
20
-5.4182783003119
30
0
41
1
10
153.918100243202
20
-6.10179898796363
30
0
41
1
10
153.971643454911
20
-6.43779445268518
30
0
41
1
10
154.078729878328
20
-7.09332148289522
30
0
41
1
10
154.132273090037
20
-7.4128455259812
30
0
41
1
10
154.239359513455
20
-8.03072291282859
30
0
41
1
10
154.292902725163
20
-8.329069173194
30
0
41
1
10
154.399989148581
20
-8.90034791352915
30
0
41
1
10
154.45353236029
20
-9.17327443226446
30
0
41
1
10
154.560618783707
20
-9.69013260212245
30
0
41
1
10
154.614161995416
20
-9.93405997684491
30
0
41
1
10
154.721248418834
20
-10.3901563637941
30
0
41
1
10
154.774791630542
20
-10.6023231370478
30
0
41
1
10
154.88187805396
20
-10.993051293558
30
0
41
1
10
154.935421265669
20
-11.1716125695368
30
0
41
1
10
155.042507689086
20
-11.4942344788548
30
0
41
1
10
155.096050900795
20
-11.6382969753443
30
0
41
1
10
155.203137324212
20
-11.8919506526431
30
0
41
1
10
155.256680535921
20
-12.0015452994364
30
0
41
1
10
155.417310171048
20
-12.2799308231887
30
0
41
1
10
155.524396594465
20
-12.3980507613068
30
0
41
1
10
155.685026229592
20
-12.485287325528
30
0
41
1
10
155.7385694413
20
-12.4994509836407
30
0
41
1
10
155.818884258863
20
-12.5002509921501
30
0
41
1
10
155.845655864718
20
-12.4971250286561
30
0
41
1
10
155.899199076427
20
-12.4837579495742
30
0
41
1
10
155.925970682281
20
-12.4735161706361
30
0
41
1
10
156.059828711553
20
-12.4037353737932
30
0
41
1
10
156.166915134971
20
-12.2881402962072
30
0
41
1
10
156.327544770097
20
-12.013696130801
30
0
41
1
10
156.381087981806
20
-11.9054401619043
30
0
41
1
10
156.488174405223
20
-11.6544829591101
30
0
41
1
10
156.541717616932
20
-11.5117782059303
30
0
41
1
10
156.648804040349
20
-11.1918560337718
30
0
41
1
10
156.702347252058
20
-11.0146366807715
30
0
41
1
10
156.809433675476
20
-10.6265394927922
30
0
41
1
10
156.862976887185
20
-10.4156616832455
30
0
41
1
10
156.970063310602
20
-9.9620532782113
30
0
41
1
10
157.023606522311
20
-9.71932483815385
30
0
41
1
10
157.130692945728
20
-9.20474010297704
30
0
41
1
10
157.184236157437
20
-8.93288800942435
30
0
41
1
10
157.291322580855
20
-8.36360419101945
30
0
41
1
10
157.344865792564
20
-8.0661783708172
30
0
41
1
10
157.451952215981
20
-7.44996544411595
30
0
41
1
10
157.50549542769
20
-7.13118538943945
30
0
41
1
10
157.612581851107
20
-6.47695577148534
30
0
41
1
10
157.666125062816
20
-6.14151372675508
30
0
41
1
10
157.773211486234
20
-5.45890405528692
30
0
41
1
10
157.826754697943
20
-5.11174371812609
30
0
41
1
10
157.93384112136
20
-4.41066873423975
30
0
41
1
10
157.987384333069
20
-4.05676054146667
30
0
41
1
10
158.094470756486
20
-3.34698006743889
30
0
41
1
10
158.148013968195
20
-2.99111296371356
30
0
41
1
10
158.308643603322
20
-1.92721525328648
30
0
41
1
10
158.415730026739
20
-1.22318772014401
30
0
41
1
10
158.549588056011
20
-0.367958586471957
30
0
41
1
10
158.576359661865
20
-0.198130265293912
30
0
41
1
10
158.616517070647
20
0.0545139079743819
30
0
41
1
10
158.629902873574
20
0.138781216694639
30
0
41
1
10
158.656674479429
20
0.308253775886414
30
0
41
1
10
158.670060282356
20
0.393322705671096
30
0
41
1
10
158.736989296992
20
0.820215642907272
30
0
41
1
10
158.7905325087
20
1.16670822925374
30
0
41
1
10
158.897618932118
20
1.86632377121032
30
0
41
1
10
158.951162143827
20
2.21944470665397
30
0
41
1
10
159.058248567244
20
2.92840929558977
30
0
41
1
10
159.111791778953
20
3.28424937824551
30
0
41
1
10
159.21887820237
20
3.99424774961292
30
0
41
1
10
159.27242141408
20
4.34840094530816
30
0
41
1
10
159.379507837497
20
5.05025442151393
30
0
41
1
10
159.433051049206
20
5.39794831282617
30
0
41
1
10
159.540137472623
20
6.08191877172382
30
0
41
1
10
159.593680684332
20
6.41818808341202
30
0
41
1
10
159.70076710775
20
7.07435823408218
30
0
41
1
10
159.754310319459
20
7.39425154913943
30
0
41
1
10
159.861396742876
20
8.01295599083986
30
0
41
1
10
159.914939954585
20
8.31176001869923
30
0
41
1
10
160.022026378002
20
8.88403169916802
30
0
41
1
10
160.075569589711
20
9.15749336257895
30
0
41
1
10
160.182656013129
20
9.6754845884733
30
0
41
1
10
160.236199224837
20
9.92000983734454
30
0
41
1
10
160.343285648255
20
10.3773475605025
30
0
41
1
10
160.396828859964
20
10.590157754098
30
0
41
1
10
160.450372071672
20
10.7861787888087
30
0
0
SPLINE
5
E8
100
AcDbEntity
8
1
62
256
6
ByLayer
370
13
48
1
60
0
100
AcDbSpline
70
4
71
3
72
22
73
18
40
0
40
0
40
0
40
0
40
0.125
40
0.125
40
0.25
40
0.25
40
0.375
40
0.375
40
0.5
40
0.5
40
0.625
40
0.625
40
0.75
40
0.75
40
0.875
40
0.875
40
1
40
1
40
1
40
1
41
1
10
149.2
20
8.06243316332097
30
0
41
1
10
149.264567667646
20
8.42511759152242
30
0
41
1
10
149.329135335292
20
8.77118412845189
30
0
41
1
10
149.458270670583
20
9.42317994093358
30
0
41
1
10
149.522838338229
20
9.72909637993666
30
0
41
1
10
149.651973673521
20
10.2954587240555
30
0
41
1
10
149.716541341167
20
10.555897763152
30
0
41
1
10
149.845676676458
20
11.0278756045912
30
0
41
1
10
149.910244344104
20
11.2394140716318
30
0
41
1
10
150.039379679395
20
11.6121737152362
30
0
41
1
10
150.103947347041
20
11.7734005089367
30
0
41
1
10
150.233082682333
20
12.0460499137131
30
0
41
1
10
150.297650349979
20
12.1574826322064
30
0
41
1
10
150.42678568527
20
12.3327449389896
30
0
41
1
10
150.491353352916
20
12.3965872143186
30
0
41
1
10
150.620488688207
20
12.4802080637696
30
0
41
1
10
150.685056355853
20
12.5
30
0
41
1
10
150.749624023499
20
12.5
30
0
0
SPLINE
5
E9
100
AcDbEntity
8
1
62
256
6
ByLayer
370
13
48
1
60
0
100
AcDbSpline
70
4
71
3
72
145
73
141
40
0
40
0
40
0
40
0
40
0.0156250000000001
40
0.0156250000000001
40
0.0312500000000002
40
0.0312500000000002
40
0.0468750000000003
40
0.0468750000000003
40
0.0625000000000004
40
0.0625000000000004
40
0.0781250000000005
40
0.0781250000000005
40
0.0937500000000006
40
0.0937500000000006
40
0.109375000000001
40
0.109375000000001
40
0.125000000000001
40
0.125000000000001
40
0.140625000000001
40
0.140625000000001
40
0.156250000000001
40
0.156250000000001
40
0.171875000000001
40
0.171875000000001
40
0.187500000000001
40
0.187500000000001
40
0.203125000000001
40
0.203125000000001
40
0.218750000000001
40
0.218750000000001
40
0.234375000000001
40
0.234375000000001
40
0.250000000000002
40
0.250000000000002
40
0.257812500000002
40
0.257812500000002
40
0.261718750000002
40
0.261718750000002
40
0.265625000000002
40
0.265625000000002
40
0.281250000000001
40
0.281250000000001
40
0.296875000000001
40
0.296875000000001
40
0.312500000000001
40
0.312500000000001
40
0.328125000000001
40
0.328125000000001
40
0.343750000000001
40
0.343750000000001
40
0.359375000000001
40
0.359375000000001
40
0.375000000000001
40
0.375000000000001
40
0.390625000000001
40
0.390625000000001
40
0.406250000000001
40
0.406250000000001
40
0.421875000000001
40
0.421875000000001
40
0.437500000000001
40
0.437500000000001
40
0.453125
40
0.453125
40
0.46875
40
0.46875
40
0.484375
40
0.484375
40
0.5
40
0.5
40
0.515625
40
0.515625
40
0.51953125
40
0.51953125
40
0.5234375
40
0.5234375
40
0.53125
40
0.53125
40
0.546875
40
0.546875
40
0.5625
40
0.5625
40
0.578125
40
0.578125
40
0.59375
40
0.59375
40
0.609375
40
0.609375
40
0.625
40
0.625
40
0.640625
40
0.640625
40
0.65625
40
0.65625
40
0.671875
40
0.671875
40
0.6875
40
0.6875
40
0.703125
40
0.703125
40
0.71875
40
0.71875
40
0.734375
40
0.734375
40
0.75
40
0.75
40
0.765625
40
0.765625
40
0.78125
40
0.78125
40
0.78515625
40
0.78515625
40
0.7890625
40
0.796875
40
0.796875
40
0.8125
40
0.8125
40
0.828125
40
0.828125
40
0.84375
40
0.84375
40
0.859375
40
0.859375
40
0.875
40
0.875
40
0.890625
40
0.890625
40
0.90625
40
0.90625
40
0.921875
40
0.921875
40
0.9375
40
0.9375
40
0.953125
40
0.953125
40
0.96875
40
0.96875
40
0.984375
40
0.984375
40
1
40
1
40
1
40
1
41
1
10
149.685037993053
20
12.5
30
0
41
1
10
149.741107441379
20
12.5
30
0
41
1
10
149.797176889705
20
12.4850810265897
30
0
41
1
10
149.909315786358
20
12.4224561835545
30
0
41
1
10
149.965385234684
20
12.3747437253275
30
0
41
1
10
150.077524131336
20
12.2440737692911
30
0
41
1
10
150.133593579662
20
12.1611098214735
30
0
41
1
10
150.245732476315
20
11.9581798069815
30
0
41
1
10
150.301801924641
20
11.8382081174707
30
0
41
1
10
150.413940821293
20
11.5603904846041
30
0
41
1
10
150.470010269619
20
11.4025404801276
30
0
41
1
10
150.582149166272
20
11.0491271477939
30
0
41
1
10
150.638218614598
20
10.8535619807642
30
0
41
1
10
150.75035751125
20
10.4260032643687
30
0
41
1
10
150.806426959576
20
10.1940105507117
30
0
41
1
10
150.918565856228
20
9.6960222486515
30
0
41
1
10
150.974635304555
20
9.4300303041334
30
0
41
1
10
151.086774201207
20
8.86754258838064
30
0
41
1
10
151.142843649533
20
8.57105302551034
30
0
41
1
10
151.254982546185
20
7.95199355408386
30
0
41
1
10
151.311051994511
20
7.62943181773005
30
0
41
1
10
151.423190891164
20
6.96335754782851
30
0
41
1
10
151.47926033949
20
6.61985429050441
30
0
41
1
10
151.591399236142
20
5.9174673263467
30
0
41
1
10
151.647468684468
20
5.55859303249622
30
0
41
1
10
151.75960758112
20
4.83119100285361
30
0
41
1
10
151.815677029447
20
4.46267190792594
30
0
41
1
10
151.927815926099
20
3.72158971392807
30
0
41
1
10
151.983885374425
20
3.34903377148424
30
0
41
1
10
152.096024271077
20
2.60513024161
30
0
41
1
10
152.152093719403
20
2.233787892972
30
0
41
1
10
152.264232616056
20
1.49701948616422
30
0
41
1
10
152.320302064382
20
1.13159660990979
30
0
41
1
10
152.404406236871
20
0.590927205541362
30
0
41
1
10
152.432440961034
20
0.41194269649327
30
0
41
1
10
152.474493047279
20
0.145650539510541
30
0
41
1
10
152.48851040936
20
0.0573985386905065
30
0
41
1
10
152.516545133523
20
-0.118983947772705
30
0
41
1
10
152.530562495605
20
-0.207558263984822
30
0
41
1
10
152.600649306013
20
-0.652218334140997
30
0
41
1
10
152.656718754339
20
-1.01369830808702
30
0
41
1
10
152.768857650991
20
-1.7444505535428
30
0
41
1
10
152.824927099317
20
-2.11372052760808
30
0
41
1
10
152.93706599597
20
-2.85563342535747
30
0
41
1
10
152.993135444295
20
-3.22827201830688
30
0
41
1
10
153.105274340948
20
-3.97189473992864
30
0
41
1
10
153.161343789274
20
-4.34287252356515
30
0
41
1
10
153.273482685926
20
-5.07769861651553
30
0
41
1
10
153.329552134253
20
-5.44153886822505
30
0
41
1
10
153.441691030905
20
-6.15638480592531
30
0
41
1
10
153.497760479231
20
-6.5073813169756
30
0
41
1
10
153.609899375883
20
-7.19086569055057
30
0
41
1
10
153.665968824209
20
-7.52334409692429
30
0
41
1
10
153.778107720862
20
-8.16443211028817
30
0
41
1
10
153.834177169188
20
-8.47303294108337
30
0
41
1
10
153.94631606584
20
-9.06159687454706
30
0
41
1
10
154.002385514166
20
-9.34155280882038
30
0
41
1
10
154.114524410818
20
-9.86889192196924
30
0
41
1
10
154.170593859145
20
-10.1162702714315
30
0
41
1
10
154.282732755797
20
-10.5755356522654
30
0
41
1
10
154.338802204123
20
-10.7874206019492
30
0
41
1
10
154.450941100775
20
-11.1739019980724
30
0
41
1
10
154.507010549101
20
-11.3484991410134
30
0
41
1
10
154.619149445754
20
-11.6597496498185
30
0
41
1
10
154.67521889408
20
-11.7964061673352
30
0
41
1
10
154.787357790732
20
-12.032202776816
30
0
41
1
10
154.843427239058
20
-12.1313478909162
30
0
41
1
10
154.955566135711
20
-12.2935065892598
30
0
41
1
10
155.011635584037
20
-12.356526348148
30
0
41
1
10
155.123774480689
20
-12.4486059565444
30
0
41
1
10
155.179843929015
20
-12.477672411398
30
0
41
1
10
155.249930739423
20
-12.49450795843
30
0
41
1
10
155.263948101504
20
-12.4969013611222
30
0
41
1
10
155.291982825667
20
-12.4997880114111
30
0
41
1
10
155.306000187749
20
-12.5002833016117
30
0
41
1
10
155.348052273994
20
-12.4989778018846
30
0
41
1
10
155.376086998157
20
-12.4943580833313
30
0
41
1
10
155.460191170646
20
-12.4686832469525
30
0
41
1
10
155.516260618972
20
-12.435795742854
30
0
41
1
10
155.628399515624
20
-12.3357868395846
30
0
41
1
10
155.68446896395
20
-12.2686588505557
30
0
41
1
10
155.796607860603
20
-12.0980781966127
30
0
41
1
10
155.852677308929
20
-11.9946194531337
30
0
41
1
10
155.964816205581
20
-11.7500933082672
30
0
41
1
10
156.020885653907
20
-11.6090210669457
30
0
41
1
10
156.13302455056
20
-11.2889574052525
30
0
41
1
10
156.189093998886
20
-11.1099630929666
30
0
41
1
10
156.301232895538
20
-10.7148368988672
30
0
41
1
10
156.357302343864
20
-10.4987046335894
30
0
41
1
10
156.469441240516
20
-10.0312273816479
30
0
41
1
10
156.525510688843
20
-9.77988480551818
30
0
41
1
10
156.637649585495
20
-9.24502540680635
30
0
41
1
10
156.693719033821
20
-8.96151371401081
30
0
41
1
10
156.805857930473
20
-8.36635441376654
30
0
41
1
10
156.861927378799
20
-8.05471420466318
30
0
41
1
10
156.974066275452
20
-7.40814603068344
30
0
41
1
10
157.030135723778
20
-7.07322697108188
30
0
41
1
10
157.14227462043
20
-6.38551130667099
30
0
41
1
10
157.198344068756
20
-6.03272417364235
30
0
41
1
10
157.310482965409
20
-5.31496520020906
30
0
41
1
10
157.366552413735
20
-4.95000244386154
30
0
41
1
10
157.478691310387
20
-4.21358568913197
30
0
41
1
10
157.534760758713
20
-3.84213957415204
30
0
41
1
10
157.646899655365
20
-3.09819270269534
30
0
41
1
10
157.702969103691
20
-2.72569806649133
30
0
41
1
10
157.815108000344
20
-1.98462190416203
30
0
41
1
10
157.87117744867
20
-1.61604446802016
30
0
41
1
10
157.983316345322
20
-0.887147689062687
30
0
41
1
10
158.039385793648
20
-0.526830416784321
30
0
41
1
10
158.109472604056
20
-0.0838639384504347
30
0
41
1
10
158.123489966137
20
0.0041030743781789
30
0
41
1
10
158.151524690301
20
0.180839617576225
30
0
41
1
10
158.193576776545
20
0.447075591526527
30
0
41
1
10
158.23562886279
20
0.716478661220719
30
0
41
1
10
158.319733035279
20
1.25883853708876
30
0
41
1
10
158.375802483605
20
1.62517193699082
30
0
41
1
10
158.487941380257
20
2.36324630853826
30
0
41
1
10
158.544010828584
20
2.734983860413
30
0
41
1
10
158.656149725236
20
3.4790916085089
30
0
41
1
10
158.712219173562
20
3.85145633000289
30
0
41
1
10
158.824358070214
20
4.59151749553877
30
0
41
1
10
158.88042751854
20
4.9592065820938
30
0
41
1
10
158.992566415193
20
5.68428300340926
30
0
41
1
10
159.048635863519
20
6.04166156600817
30
0
41
1
10
159.160774760171
20
6.74039497916331
30
0
41
1
10
159.216844208497
20
7.08174038336804
30
0
41
1
10
159.328983105149
20
7.7428734404584
30
0
41
1
10
159.385052553476
20
8.06265189645427
30
0
41
1
10
159.497191450128
20
8.67558831308287
30
0
41
1
10
159.553260898454
20
8.96873828969592
30
0
41
1
10
159.665399795107
20
9.52408773476196
30
0
41
1
10
159.721469243433
20
9.78628126879633
30
0
41
1
10
159.833608140085
20
10.2763323917108
30
0
41
1
10
159.889677588411
20
10.5041866585208
30
0
41
1
10
160.001816485063
20
10.9232591121022
30
0
41
1
10
160.057885933389
20
11.1144767884006
30
0
41
1
10
160.170024830042
20
11.4591191274056
30
0
41
1
10
160.226094278368
20
11.6125459164472
30
0
41
1
10
160.33823317502
20
11.8815674912134
30
0
41
1
10
160.394302623346
20
11.9971665565054
30
0
41
1
10
160.450372071672
20
12.0943399865728
30
0
0
SPLINE
5
EA
100
AcDbEntity
8
1
62
256
6
ByLayer
370
13
48
1
60
0
100
AcDbSpline
70
4
71
3
72
10
73
6
40
0
40
0
40
0
40
0
40
0.5
40
0.5
40
1
40
1
40
1
40
1
41
1
10
159.87082403428
20
12.5
30
0
41
1
10
159.967415373845
20
12.5
30
0
41
1
10
160.064006713411
20
12.4556098376588
30
0
41
1
10
160.257189392542
20
12.2638367554693
30
0
41
1
10
160.353780732107
20
12.1163553507917
30
0
41
1
10
160.450372071672
20
11.9130161259322
30
0
0
SPLINE
5
EB
100
AcDbEntity
8
1
62
256
6
ByLayer
370
13
48
1
60
0
100
AcDbSpline
70
4
71
3
72
14
73
10
40
0
40
0
40
0
40
0
40
0.25
40
0.25
40
0.5
40
0.5
40
0.75
40
0.75
40
1
40
1
40
1
40
1
41
1
10
149.2
20
10.422934258973
30
0
41
1
10
149.288715549414
20
10.7799275947017
30
0
41
1
10
149.377431098827
20
11.0919861069076
30
0
41
1
10
149.554862197655
20
11.62095599964
30
0
41
1
10
149.643577747068
20
11.8378913547554
30
0
41
1
10
149.821008845896
20
12.1782559311873
30
0
41
1
10
149.90972439531
20
12.3017383374996
30
0
41
1
10
150.087155494137
20
12.4625779474646
30
0
41
1
10
150.175871043551
20
12.5
30
0
41
1
10
150.264586592964
20
12.5
30
0
0
SPLINE
5
EC
100
AcDbEntity
8
1
62
256
6
ByLayer
370
13
48
1
60
0
100
AcDbSpline
70
4
71
3
72
134
73
130
40
0
40
0
40
0
40
0
40
0.015625
40
0.015625
40
0.0312499999999999
40
0.0312499999999999
40
0.0468749999999999
40
0.0468749999999999
40
0.0624999999999998
40
0.0624999999999998
40
0.0781249999999998
40
0.0781249999999998
40
0.0937499999999998
40
0.0937499999999998
40
0.109375
40
0.109375
40
0.125
40
0.125
40
0.140625
40
0.140625
40
0.15625
40
0.15625
40
0.171875
40
0.171875
40
0.1875
40
0.1875
40
0.203125
40
0.203125
40
0.21875
40
0.21875
40
0.234375
40
0.234375
40
0.25
40
0.25
40
0.265625
40
0.265625
40
0.28125
40
0.28125
40
0.296875
40
0.296875
40
0.3125
40
0.3125
40
0.328125
40
0.328125
40
0.34375
40
0.34375
40
0.359375
40
0.359375
40
0.375
40
0.375
40
0.390625
40
0.390625
40
0.406249999999999
40
0.406249999999999
40
0.421874999999999
40
0.421874999999999
40
0.437499999999999
40
0.437499999999999
40
0.453124999999999
40
0.453124999999999
40
0.468749999999999
40
0.468749999999999
40
0.484374999999999
40
0.484374999999999
40
0.499999999999999
40
0.499999999999999
40
0.515624999999999
40
0.515624999999999
40
0.531249999999999
40
0.531249999999999
40
0.546874999999999
40
0.546874999999999
40
0.562499999999999
40
0.562499999999999
40
0.578124999999999
40
0.578124999999999
40
0.593749999999999
40
0.593749999999999
40
0.609374999999999
40
0.609374999999999
40
0.624999999999999
40
0.624999999999999
40
0.640624999999999
40
0.640624999999999
40
0.656249999999999
40
0.656249999999999
40
0.671874999999999
40
0.671874999999999
40
0.687499999999999
40
0.687499999999999
40
0.703124999999999
40
0.703124999999999
40
0.71875
40
0.71875
40
0.734375
40
0.734375
40
0.75
40
0.75
40
0.765625
40
0.765625
40
0.78125
40
0.78125
40
0.796875
40
0.796875
40
0.8125
40
0.8125
40
0.828125
40
0.828125
40
0.84375
40
0.84375
40
0.859375
40
0.859375
40
0.875
40
0.875
40
0.890625
40
0.890625
40
0.90625
40
0.90625
40
0.921875
40
0.921875
40
0.9375
40
0.9375
40
0.953125
40
0.953125
40
0.96875
40
0.96875
40
0.984375
40
0.984375
40
1
40
1
40
1
40
1
41
1
10
149.200000562519
20
12.5
30
0
41
1
10
149.258596247462
20
12.5
30
0
41
1
10
149.317191932406
20
12.4837045841686
30
0
41
1
10
149.434383302293
20
12.4151681414339
30
0
41
1
10
149.492978987236
20
12.362918896199
30
0
41
1
10
149.610170357123
20
12.2197153571764
30
0
41
1
10
149.668766042067
20
12.1287530831853
30
0
41
1
10
149.785957411954
20
11.90622097163
30
0
41
1
10
149.844553096897
20
11.7746443391623
30
0
41
1
10
149.961744466784
20
11.4700633701471
30
0
41
1
10
150.020340151728
20
11.2970544185921
30
0
41
1
10
150.137531521615
20
10.910046042408
30
0
41
1
10
150.196127206558
20
10.6960450416159
30
0
41
1
10
150.313318576445
20
10.2288431593321
30
0
41
1
10
150.371914261389
20
9.97564426872339
30
0
41
1
10
150.489105631276
20
9.43318599022891
30
0
41
1
10
150.547701316219
20
9.14393220598663
30
0
41
1
10
150.664892686106
20
8.53373805591005
30
0
41
1
10
150.72348837105
20
8.21280641395816
30
0
41
1
10
150.840679740937
20
7.54464764803697
30
0
41
1
10
150.89927542588
20
7.19743140518534
30
0
41
1
10
151.016466795767
20
6.48281350137012
30
0
41
1
10
151.075062480711
20
6.11542362432903
30
0
41
1
10
151.192253850598
20
5.36694243706506
30
0
41
1
10
151.250849535542
20
4.98586250833293
30
0
41
1
10
151.368040905429
20
4.21650661555452
30
0
41
1
10
151.426636590372
20
3.82824050851085
30
0
41
1
10
151.543827960259
20
3.05071637879547
30
0
41
1
10
151.602423645202
20
2.66146591687593
30
0
41
1
10
151.719615015089
20
1.88761201852091
30
0
41
1
10
151.778210700033
20
1.50301349361482
30
0
41
1
10
151.89540206992
20
0.743349163072565
30
0
41
1
10
151.953997754864
20
0.368285658124023
30
0
41
1
10
152.071189124751
20
-0.368283890357105
30
0
41
1
10
152.129784809694
20
-0.743347355020461
30
0
41
1
10
152.246976179581
20
-1.50301165527816
30
0
41
1
10
152.305571864525
20
-1.88761016861528
30
0
41
1
10
152.422763234412
20
-2.66146405228281
30
0
41
1
10
152.481358919355
20
-3.05071451108816
30
0
41
1
10
152.598550289242
20
-3.82823864410227
30
0
41
1
10
152.657145974186
20
-4.21650475756294
30
0
41
1
10
152.774337344073
20
-4.98586067341611
30
0
41
1
10
152.832933029016
20
-5.36694061880917
30
0
41
1
10
152.950124398903
20
-6.11542184987508
30
0
41
1
10
153.008720083847
20
-6.48281175405882
30
0
41
1
10
153.125911453734
20
-7.1974297223305
30
0
41
1
10
153.184507138677
20
-7.54464600249554
30
0
41
1
10
153.301698508564
20
-8.21280485233729
30
0
41
1
10
153.360294193508
20
-8.53373654089381
30
0
41
1
10
153.477485563395
20
-9.14393079207068
30
0
41
1
10
153.536081248338
20
-9.43318463080425
30
0
41
1
10
153.653272618225
20
-9.97564302434802
30
0
41
1
10
153.711868303169
20
-10.2288419755092
30
0
41
1
10
153.829059673056
20
-10.6960439828695
30
0
41
1
10
153.887655357999
20
-10.9100450481797
30
0
41
1
10
154.004846727886
20
-11.2970535551799
30
0
41
1
10
154.06344241283
20
-11.4700625730276
30
0
41
1
10
154.180633782717
20
-11.7746436742928
30
0
41
1
10
154.23922946766
20
-11.9062203727136
30
0
41
1
10
154.356420837547
20
-12.1287526139472
30
0
41
1
10
154.415016522491
20
-12.2197149516611
30
0
41
1
10
154.532207892378
20
-12.3629186143371
30
0
41
1
10
154.590803577321
20
-12.4151679195017
30
0
41
1
10
154.707994947209
20
-12.4837044771255
30
0
41
1
10
154.766590632152
20
-12.4999999479165
30
0
41
1
10
154.883782002039
20
-12.5000000520832
30
0
41
1
10
154.942377686983
20
-12.4837046912114
30
0
41
1
10
155.05956905687
20
-12.4151683633657
30
0
41
1
10
155.118164741813
20
-12.3629191780606
30
0
41
1
10
155.2353561117
20
-12.2197157626915
30
0
41
1
10
155.293951796644
20
-12.1287535524229
30
0
41
1
10
155.411143166531
20
-11.9062215705461
30
0
41
1
10
155.469738851474
20
-11.7746450040314
30
0
41
1
10
155.586930221361
20
-11.4700641672663
30
0
41
1
10
155.645525906305
20
-11.297055282004
30
0
41
1
10
155.762717276192
20
-10.9100470366361
30
0
41
1
10
155.821312961135
20
-10.6960461003621
30
0
41
1
10
155.938504331022
20
-10.2288443431547
30
0
41
1
10
155.997100015966
20
-9.97564551309847
30
0
41
1
10
156.114291385853
20
-9.43318734965331
30
0
41
1
10
156.172887070796
20
-9.14393361990236
30
0
41
1
10
156.290078440683
20
-8.53373957092606
30
0
41
1
10
156.348674125627
20
-8.21280797557884
30
0
41
1
10
156.465865495514
20
-7.5446492935782
30
0
41
1
10
156.524461180457
20
-7.19743308804001
30
0
41
1
10
156.641652550344
20
-6.48281524868125
30
0
41
1
10
156.700248235288
20
-6.11542539878286
30
0
41
1
10
156.817439605175
20
-5.36694425532085
30
0
41
1
10
156.876035290118
20
-4.98586434324969
30
0
41
1
10
156.993226660005
20
-4.21650847354604
30
0
41
1
10
157.051822344949
20
-3.82824237291939
30
0
41
1
10
157.169013714836
20
-3.05071824650278
30
0
41
1
10
157.22760939978
20
-2.66146778146904
30
0
41
1
10
157.344800769666
20
-1.88761386842657
30
0
41
1
10
157.40339645461
20
-1.50301533195153
30
0
41
1
10
157.520587824497
20
-0.743350971124755
30
0
41
1
10
157.579183509441
20
-0.368287447464638
30
0
41
1
10
157.696374879327
20
0.368282144163743
30
0
41
1
10
157.754970564271
20
0.743345546968413
30
0
41
1
10
157.872161934158
20
1.50300981694156
30
0
41
1
10
157.930757619102
20
1.88760831870971
30
0
41
1
10
158.047948988988
20
2.66146218768975
30
0
41
1
10
158.106544673932
20
3.05071264338088
30
0
41
1
10
158.223736043819
20
3.82823677969367
30
0
41
1
10
158.282331728763
20
4.21650289957134
30
0
41
1
10
158.39952309865
20
4.98585883849924
30
0
41
1
10
158.458118783593
20
5.36693880055316
30
0
41
1
10
158.57531015348
20
6.11542007542101
30
0
41
1
10
158.633905838424
20
6.48281000674737
30
0
41
1
10
158.751097208311
20
7.19742803947548
30
0
41
1
10
158.809692893254
20
7.54464435695391
30
0
41
1
10
158.926884263141
20
8.21280329071618
30
0
41
1
10
158.985479948085
20
8.53373502587735
30
0
41
1
10
159.102671317972
20
9.14392937815444
30
0
41
1
10
159.161267002915
20
9.43318327137931
30
0
41
1
10
159.278458372802
20
9.97564177997234
30
0
41
1
10
159.337054057746
20
10.228840791686
30
0
41
1
10
159.454245427633
20
10.6960429241227
30
0
41
1
10
159.512841112576
20
10.910044053951
30
0
41
1
10
159.630032482463
20
11.2970526917674
30
0
41
1
10
159.688628167407
20
11.4700617759078
30
0
41
1
10
159.805819537294
20
11.774643009423
30
0
41
1
10
159.864415222237
20
11.9062197737968
30
0
41
1
10
159.981606592124
20
12.1287521447089
30
0
41
1
10
160.040202277068
20
12.2197145461453
30
0
41
1
10
160.157393646955
20
12.3629183324749
30
0
41
1
10
160.215989331898
20
12.4151676975693
30
0
41
1
10
160.333180701785
20
12.4837043700822
30
0
41
1
10
160.391776386729
20
12.4999998958328
30
0
41
1
10
160.450372071672
20
12.4999999999995
30
0
0
SPLINE
5
ED
100
AcDbEntity
8
1
62
256
6
ByLayer
370
13
48
1
60
0
100
AcDbSpline
70
4
71
3
72
14
73
10
40
0
40
0
40
0
40
0
40
0.25
40
0.25
40
0.5
40
0.5
40
0.75
40
0.75
40
1
40
1
40
1
40
1
41
1
10
159.385786603745
20
12.5
30
0
41
1
10
159.474502059406
20
12.5
30
0
41
1
10
159.563217515066
20
12.4625780268311
30
0
41
1
10
159.740648426388
20
12.3017387680505
30
0
41
1
10
159.829363882048
20
12.1782566338939
30
0
41
1
10
160.006794793369
20
11.8378928101969
30
0
41
1
10
160.09551024903
20
11.6209579358965
30
0
41
1
10
160.272941160351
20
11.0919892017064
30
0
41
1
10
160.361656616012
20
10.7799313672364
30
0
41
1
10
160.450372071672
20
10.4229387861451
30
0
0
SPLINE
5
EE
100
AcDbEntity
8
1
62
256
6
ByLayer
370
13
48
1
60
0
100
AcDbSpline
70
4
71
3
72
10
73
6
40
0
40
0
40
0
40
0
40
0.5
40
0.5
40
1
40
1
40
1
40
1
41
1
10
149.2
20
11.9130137575581
30
0
41
1
10
149.296591527072
20
12.116353808481
30
0
41
1
10
149.393183054143
20
12.2638358117109
30
0
41
1
10
149.586366108287
20
12.455609664588
30
0
41
1
10
149.682957635358
20
12.5
30
0
41
1
10
149.77954916243
20
12.5
30
0
0
SPLINE
5
EF
100
AcDbEntity
8
1
62
256
6
ByLayer
370
13
48
1
60
0
100
AcDbSpline
70
4
71
3
72
146
73
142
40
0
40
0
40
0
40
0
40
0.0156249999999999
40
0.0156249999999999
40
0.0312499999999997
40
0.0312499999999997
40
0.0468749999999996
40
0.0468749999999996
40
0.0624999999999995
40
0.0624999999999995
40
0.0781249999999994
40
0.0781249999999994
40
0.0937499999999992
40
0.0937499999999992
40
0.109374999999999
40
0.109374999999999
40
0.124999999999999
40
0.124999999999999
40
0.140624999999999
40
0.140624999999999
40
0.156249999999999
40
0.156249999999999
40
0.171874999999999
40
0.171874999999999
40
0.187499999999999
40
0.187499999999999
40
0.203124999999999
40
0.203124999999999
40
0.210937499999999
40
0.210937499999999
40
0.214843749999999
40
0.214843749999999
40
0.218749999999999
40
0.218749999999999
40
0.234374999999999
40
0.234374999999999
40
0.249999999999998
40
0.249999999999998
40
0.265624999999998
40
0.265624999999998
40
0.281249999999998
40
0.281249999999998
40
0.296874999999998
40
0.296874999999998
40
0.312499999999998
40
0.312499999999998
40
0.328124999999998
40
0.328124999999998
40
0.343749999999998
40
0.343749999999998
40
0.359374999999998
40
0.359374999999998
40
0.374999999999998
40
0.374999999999998
40
0.390624999999998
40
0.390624999999998
40
0.406249999999998
40
0.406249999999998
40
0.421874999999998
40
0.421874999999998
40
0.437499999999997
40
0.437499999999997
40
0.453124999999997
40
0.453124999999997
40
0.468749999999997
40
0.468749999999997
40
0.476562499999997
40
0.476562499999997
40
0.480468749999997
40
0.480468749999997
40
0.484374999999997
40
0.484374999999997
40
0.499999999999998
40
0.499999999999998
40
0.515624999999998
40
0.515624999999998
40
0.531249999999998
40
0.531249999999998
40
0.546874999999998
40
0.546874999999998
40
0.562499999999999
40
0.562499999999999
40
0.578124999999999
40
0.578124999999999
40
0.593749999999999
40
0.593749999999999
40
0.609375
40
0.609375
40
0.625
40
0.625
40
0.640625
40
0.640625
40
0.656250000000001
40
0.656250000000001
40
0.671875000000001
40
0.671875000000001
40
0.687500000000001
40
0.687500000000001
40
0.703125000000002
40
0.703125000000002
40
0.718750000000002
40
0.718750000000002
40
0.734375000000002
40
0.734375000000002
40
0.738281250000002
40
0.738281250000002
40
0.742187500000002
40
0.742187500000002
40
0.750000000000002
40
0.750000000000002
40
0.765625000000002
40
0.765625000000002
40
0.781250000000002
40
0.781250000000002
40
0.796875000000002
40
0.796875000000002
40
0.812500000000002
40
0.812500000000002
40
0.828125000000002
40
0.828125000000002
40
0.843750000000001
40
0.843750000000001
40
0.859375000000001
40
0.859375000000001
40
0.875000000000001
40
0.875000000000001
40
0.890625000000001
40
0.890625000000001
40
0.906250000000001
40
0.906250000000001
40
0.921875000000001
40
0.921875000000001
40
0.937500000000001
40
0.937500000000001
40
0.953125
40
0.953125
40
0.96875
40
0.96875
40
0.984375
40
0.984375
40
1
40
1
40
1
40
1
41
1
10
149.2
20
12.0943419363616
30
0
41
1
10
149.256069454186
20
11.9971687420943
30
0
41
1
10
149.312138908371
20
11.8815699135685
30
0
41
1
10
149.424277816743
20
11.61254880768
30
0
41
1
10
149.480347270928
20
11.4591222507355
30
0
41
1
10
149.5924861793
20
11.1144803642349
30
0
41
1
10
149.648555633486
20
10.9232629083269
30
0
41
1
10
149.760694541857
20
10.5041908768493
30
0
41
1
10
149.816763996043
20
10.2763368117351
30
0
41
1
10
149.928902904414
20
9.78628606711919
30
0
41
1
10
149.9849723586
20
9.52409270967189
30
0
41
1
10
150.097111266971
20
8.96874358734908
30
0
41
1
10
150.153180721157
20
8.6755937568806
30
0
41
1
10
150.265319629528
20
8.06265759826846
30
0
41
1
10
150.321389083714
20
7.7428792541385
30
0
41
1
10
150.433527992086
20
7.08174638443035
30
0
41
1
10
150.489597446271
20
6.74040105574224
30
0
41
1
10
150.601736354643
20
6.041667757043
30
0
41
1
10
150.657805808828
20
5.68428923338965
30
0
41
1
10
150.7699447172
20
4.95921285490664
30
0
41
1
10
150.826014171386
20
4.59152377224933
30
0
41
1
10
150.938153079757
20
3.85146258245282
30
0
41
1
10
150.994222533943
20
3.47909783281386
30
0
41
1
10
151.106361442314
20
2.7349900004871
30
0
41
1
10
151.1624308965
20
2.36325239254049
30
0
41
1
10
151.274569804871
20
1.6251778857166
30
0
41
1
10
151.330639259057
20
1.25884440662284
30
0
41
1
10
151.414743440336
20
0.716484398435767
30
0
41
1
10
151.442778167428
20
0.53688230561238
30
0
41
1
10
151.484830258068
20
0.269590801531592
30
0
41
1
10
151.498847621614
20
0.18084521134702
30
0
41
1
10
151.526882348707
20
0.0041086179880949
30
0
41
1
10
151.540899712253
20
-0.0838583895469185
30
0
41
1
10
151.610986529986
20
-0.52682483692746
30
0
41
1
10
151.667055984171
20
-0.887142094200783
30
0
41
1
10
151.779194892543
20
-1.6160388653401
30
0
41
1
10
151.835264346728
20
-1.98461630867769
30
0
41
1
10
151.9474032551
20
-2.72569250966956
30
0
41
1
10
152.003472709285
20
-3.09818717734862
30
0
41
1
10
152.115611617657
20
-3.84213413723126
30
0
41
1
10
152.171681071843
20
-4.21358030916846
30
0
41
1
10
152.283819980214
20
-4.9499972033945
30
0
41
1
10
152.3398894344
20
-5.3149600422845
30
0
41
1
10
152.452028342771
20
-6.03271920524355
30
0
41
1
10
152.508097796957
20
-6.38550644525463
30
0
41
1
10
152.620236705328
20
-7.07322234564339
30
0
41
1
10
152.676306159514
20
-7.40814153423506
30
0
41
1
10
152.788445067886
20
-8.05470998458492
30
0
41
1
10
152.844514522071
20
-8.3663503410589
30
0
41
1
10
152.956653430442
20
-8.9615099498381
30
0
41
1
10
153.012722884628
20
-9.24502180378562
30
0
41
1
10
153.124861793
20
-9.7798815333567
30
0
41
1
10
153.180931247185
20
-10.03122427918
30
0
41
1
10
153.293070155557
20
-10.4987018735793
30
0
41
1
10
153.349139609743
20
-10.7148343116082
30
0
41
1
10
153.461278518114
20
-11.1099608489567
30
0
41
1
10
153.5173479723
20
-11.2889553317298
30
0
41
1
10
153.629486880671
20
-11.6090193273457
30
0
41
1
10
153.685556334857
20
-11.7500917320954
30
0
41
1
10
153.797695243228
20
-11.9946181927722
30
0
41
1
10
153.853764697414
20
-12.0980770886297
30
0
41
1
10
153.965903605786
20
-12.2686580332617
30
0
41
1
10
154.021973059971
20
-12.3357861606011
30
0
41
1
10
154.134111968342
20
-12.4357953244301
30
0
41
1
10
154.190181422528
20
-12.4686829507804
30
0
41
1
10
154.274285603807
20
-12.4943579577338
30
0
41
1
10
154.3023203309
20
-12.4989777310189
30
0
41
1
10
154.344372421539
20
-12.500283309621
30
0
41
1
10
154.358389785085
20
-12.4997880453356
30
0
41
1
10
154.386424512178
20
-12.4969014475632
30
0
41
1
10
154.400441875725
20
-12.4945080712641
30
0
41
1
10
154.470528693457
20
-12.4776726567845
30
0
41
1
10
154.526598147642
20
-12.4486063098699
30
0
41
1
10
154.638737056014
20
-12.3565269186129
30
0
41
1
10
154.6948065102
20
-12.2935072689212
30
0
41
1
10
154.806945418571
20
-12.1313487872767
30
0
41
1
10
154.863014872757
20
-12.0322037806732
30
0
41
1
10
154.975153781128
20
-11.7964073812618
30
0
41
1
10
155.031223235314
20
-11.6597509663102
30
0
41
1
10
155.143362143685
20
-11.3485006544049
30
0
41
1
10
155.199431597871
20
-11.1739036057901
30
0
41
1
10
155.311570506242
20
-10.7874223869444
30
0
41
1
10
155.367639960428
20
-10.5755375202037
30
0
41
1
10
155.4797788688
20
-10.1162722911505
30
0
41
1
10
155.535848322985
20
-9.868894010519
30
0
41
1
10
155.647987231357
20
-9.3415550188393
30
0
41
1
10
155.704056685542
20
-9.06159913719992
30
0
41
1
10
155.816195593914
20
-8.47303529154479
30
0
41
1
10
155.8722650481
20
-8.16443449592268
30
0
41
1
10
155.984403956471
20
-7.52334653509175
30
0
41
1
10
156.040473410657
20
-7.19086814607959
30
0
41
1
10
156.152612319028
20
-6.5073837899721
30
0
41
1
10
156.208681773214
20
-6.1563872790322
30
0
41
1
10
156.320820681585
20
-5.44154132567226
30
0
41
1
10
156.376890135771
20
-5.07770105819912
30
0
41
1
10
156.489029044142
20
-4.34287491986601
30
0
41
1
10
156.545098498328
20
-3.97189710661783
30
0
41
1
10
156.6572374067
20
-3.2282743143798
30
0
41
1
10
156.713306860885
20
-2.85563568043307
30
0
41
1
10
156.825445769257
20
-2.11372269197142
30
0
41
1
10
156.881515223442
20
-1.74445266819748
30
0
41
1
10
156.993654131814
20
-1.01370031728635
30
0
41
1
10
157.049723585999
20
-0.652220287598539
30
0
41
1
10
157.119810403732
20
-0.207560145562212
30
0
41
1
10
157.133827767278
20
-0.11898581486335
30
0
41
1
10
157.161862494371
20
0.0573967007583178
30
0
41
1
10
157.175879857917
20
0.145648698535666
30
0
41
1
10
157.217931948557
20
0.411940868299467
30
0
41
1
10
157.245966675649
20
0.59092538688401
30
0
41
1
10
157.330070856928
20
1.13159482294105
30
0
41
1
10
157.386140311114
20
1.49701772443973
30
0
41
1
10
157.498279219485
20
2.23378618985908
30
0
41
1
10
157.554348673671
20
2.60512857186592
30
0
41
1
10
157.666487582042
20
3.34903217606234
30
0
41
1
10
157.722557036228
20
3.72158815945974
30
0
41
1
10
157.834695944599
20
4.46267044195332
30
0
41
1
10
157.890765398785
20
4.83118958442168
30
0
41
1
10
158.002904307157
20
5.55859171429631
30
0
41
1
10
158.058973761342
20
5.91746606083501
30
0
41
1
10
158.171112669714
20
6.6198531337059
30
0
41
1
10
158.227182123899
20
6.96335644705044
30
0
41
1
10
158.339321032271
20
7.62943083025428
30
0
41
1
10
158.395390486456
20
7.95199262388442
30
0
41
1
10
158.507529394828
20
8.57105220894061
30
0
41
1
10
158.563598849014
20
8.86754182815852
30
0
41
1
10
158.675737757385
20
9.43002965356132
30
0
41
1
10
158.731807211571
20
9.69602165137667
30
0
41
1
10
158.843946119942
20
10.1940100550931
30
0
41
1
10
158.900015574128
20
10.4260028171051
30
0
41
1
10
159.0121544825
20
10.8535616237471
30
0
41
1
10
159.068223936685
20
11.049126832666
30
0
41
1
10
159.180362845056
20
11.4025402412506
30
0
41
1
10
159.236432299242
20
11.5603902800882
30
0
41
1
10
159.348571207614
20
11.8382079735846
30
0
41
1
10
159.404640661799
20
11.9581796893655
30
0
41
1
10
159.516779570171
20
12.1611097482237
30
0
41
1
10
159.572849024357
20
12.2440737141402
30
0
41
1
10
159.684987932728
20
12.374743698544
30
0
41
1
10
159.741057386914
20
12.4224561670425
30
0
41
1
10
159.853196295285
20
12.4850810234678
30
0
41
1
10
159.909265749471
20
12.5
30
0
41
1
10
159.965335203656
20
12.5
30
0
0
SPLINE
5
F0
100
AcDbEntity
8
1
62
256
6
ByLayer
370
13
48
1
60
0
100
AcDbSpline
70
4
71
3
72
22
73
18
40
0
40
0
40
0
40
0
40
0.125
40
0.125
40
0.25
40
0.25
40
0.375
40
0.375
40
0.5
40
0.5
40
0.625
40
0.625
40
0.75
40
0.75
40
0.875
40
0.875
40
1
40
1
40
1
40
1
41
1
10
158.900749173211
20
12.5
30
0
41
1
10
158.96531679398
20
12.5
30
0
41
1
10
159.029884414749
20
12.4802080925549
30
0
41
1
10
159.159019656287
20
12.3965873676611
30
0
41
1
10
159.223587277057
20
12.3327451881526
30
0
41
1
10
159.352722518595
20
12.1574831464926
30
0
41
1
10
159.417290139364
20
12.0460505973454
30
0
41
1
10
159.546425380903
20
11.7734016068109
30
0
41
1
10
159.610993001672
20
11.6121750580349
30
0
41
1
10
159.740128243211
20
11.2394159763432
30
0
41
1
10
159.80469586398
20
11.0278778262955
30
0
41
1
10
159.933831105518
20
10.5559006813306
30
0
41
1
10
159.998398726288
20
10.2954620216908
30
0
41
1
10
160.127533967826
20
9.72910048358855
30
0
41
1
10
160.192101588596
20
9.42318447109247
30
0
41
1
10
160.321236830134
20
8.7711895387076
30
0
41
1
10
160.385804450903
20
8.42512345529454
30
0
41
1
10
160.450372071672
20
8.0624394827897
30
0
0
SPLINE
5
F1
100
AcDbEntity
8
1
62
256
6
ByLayer
370
13
48
1
60
0
100
AcDbSpline
70
4
71
3
72
8
73
4
40
0
40
0
40
0
40
0
40
1
40
1
40
1
40
1
41
1
10
149.2
20
12.4856117246882
30
0
41
1
10
149.231503910632
20
12.4952936784689
30
0
41
1
10
149.263007821264
20
12.5
30
0
41
1
10
149.294511731895
20
12.5
30
0
0
SPLINE
5
F2
100
AcDbEntity
8
1
62
256
6
ByLayer
370
13
48
1
60
0
100
AcDbSpline
70
4
71
3
72
132
73
128
40
0
40
0
40
0
40
0
40
0.015625
40
0.015625
40
0.03125
40
0.03125
40
0.0468749999999999
40
0.0468749999999999
40
0.0624999999999998
40
0.0624999999999998
40
0.0781249999999998
40
0.0781249999999998
40
0.0937499999999997
40
0.0937499999999997
40
0.109375
40
0.109375
40
0.125
40
0.125
40
0.140624999999999
40
0.140624999999999
40
0.156249999999999
40
0.156249999999999
40
0.171874999999999
40
0.171874999999999
40
0.175781249999999
40
0.175781249999999
40
0.179687499999999
40
0.179687499999999
40
0.187499999999999
40
0.187499999999999
40
0.218749999999999
40
0.218749999999999
40
0.234374999999999
40
0.234374999999999
40
0.249999999999999
40
0.249999999999999
40
0.265624999999999
40
0.265624999999999
40
0.281249999999999
40
0.281249999999999
40
0.296874999999999
40
0.296874999999999
40
0.312499999999999
40
0.312499999999999
40
0.328124999999999
40
0.328124999999999
40
0.343749999999999
40
0.343749999999999
40
0.359374999999998
40
0.359374999999998
40
0.374999999999998
40
0.374999999999998
40
0.390624999999998
40
0.390624999999998
40
0.406249999999998
40
0.406249999999998
40
0.437499999999998
40
0.437499999999998
40
0.445312499999998
40
0.445312499999998
40
0.453124999999998
40
0.453124999999998
40
0.468749999999999
40
0.468749999999999
40
0.499999999999999
40
0.499999999999999
40
0.515624999999999
40
0.515624999999999
40
0.531249999999999
40
0.531249999999999
40
0.546874999999999
40
0.546874999999999
40
0.562499999999999
40
0.562499999999999
40
0.578124999999999
40
0.578124999999999
40
0.593749999999999
40
0.593749999999999
40
0.609374999999999
40
0.609374999999999
40
0.624999999999999
40
0.624999999999999
40
0.640624999999999
40
0.640624999999999
40
0.656249999999999
40
0.656249999999999
40
0.671874999999999
40
0.671874999999999
40
0.687499999999999
40
0.687499999999999
40
0.718749999999999
40
0.718749999999999
40
0.726562499999999
40
0.726562499999999
40
0.734374999999999
40
0.734374999999999
40
0.749999999999999
40
0.749999999999999
40
0.765624999999999
40
0.765624999999999
40
0.78125
40
0.78125
40
0.796875
40
0.796875
40
0.8125
40
0.8125
40
0.828125
40
0.828125
40
0.84375
40
0.84375
40
0.859375
40
0.859375
40
0.875
40
0.875
40
0.890625
40
0.890625
40
0.90625
40
0.90625
40
0.921875
40
0.921875
40
0.9375
40
0.9375
40
0.953125
40
0.953125
40
0.96875
40
0.96875
40
1
40
1
40
1
40
1
41
1
10
149.2
20
10.7861829075534
30
0
41
1
10
149.253543217568
20
10.5901620860201
30
0
41
1
10
149.307086435137
20
10.3773520970496
30
0
41
1
10
149.414172870273
20
9.92001476011589
30
0
41
1
10
149.467716087842
20
9.6754896928305
30
0
41
1
10
149.574802522978
20
9.15749880200346
30
0
41
1
10
149.628345740547
20
8.88403729206354
30
0
41
1
10
149.735432175683
20
8.31176588659071
30
0
41
1
10
149.788975393252
20
8.01296198025005
30
0
41
1
10
149.896061828388
20
7.39425774729199
30
0
41
1
10
149.949605045957
20
7.07436451945708
30
0
41
1
10
150.056691481093
20
6.41819450819341
30
0
41
1
10
150.110234698662
20
6.08192524869301
30
0
41
1
10
150.217321133798
20
5.39795485995845
30
0
41
1
10
150.270864351367
20
5.05026098662924
30
0
41
1
10
150.377950786504
20
4.34840751439708
30
0
41
1
10
150.431494004072
20
3.99425430470291
30
0
41
1
10
150.538580439208
20
3.28425587668193
30
0
41
1
10
150.592123656777
20
2.92841575138317
30
0
41
1
10
150.699210091914
20
2.21945105262176
30
0
41
1
10
150.752753309482
20
1.86633005000692
30
0
41
1
10
150.859839744619
20
1.16671435371325
30
0
41
1
10
150.913382962187
20
0.820221680210892
30
0
41
1
10
150.980311984147
20
0.393328624438539
30
0
41
1
10
150.993697788539
20
0.308259670466953
30
0
41
1
10
151.020469397324
20
0.138787062013137
30
0
41
1
10
151.033855201716
20
0.0545197073051611
30
0
41
1
10
151.074012614892
20
-0.198124445444847
30
0
41
1
10
151.100784223676
20
-0.367952755223001
30
0
41
1
10
151.234642267597
20
-1.22318184410321
30
0
41
1
10
151.341728702734
20
-1.92720938083593
30
0
41
1
10
151.502358355439
20
-2.99110716776542
30
0
41
1
10
151.555901573007
20
-3.34697430877361
30
0
41
1
10
151.662988008144
20
-4.05675488180137
30
0
41
1
10
151.716531225712
20
-4.41066313629639
30
0
41
1
10
151.823617660849
20
-5.11173826795388
30
0
41
1
10
151.877160878417
20
-5.4588986911661
30
0
41
1
10
151.984247313554
20
-6.14150855785823
30
0
41
1
10
152.037790531122
20
-6.47695071175997
30
0
41
1
10
152.144876966259
20
-7.13118056885492
30
0
41
1
10
152.198420183827
20
-7.44996075349613
30
0
41
1
10
152.305506618964
20
-8.06617395757075
30
0
41
1
10
152.359049836532
20
-8.36359992517382
30
0
41
1
10
152.466136271669
20
-8.93288405163003
30
0
41
1
10
152.519679489237
20
-9.20473630582299
30
0
41
1
10
152.626765924374
20
-9.71932137077079
30
0
41
1
10
152.680309141942
20
-9.96204997994764
30
0
41
1
10
152.787395577079
20
-10.4156587267153
30
0
41
1
10
152.840938794647
20
-10.6265367088651
30
0
41
1
10
152.948025229784
20
-11.0146342406526
30
0
41
1
10
153.001568447352
20
-11.1918537648486
30
0
41
1
10
153.108654882489
20
-11.5117762735213
30
0
41
1
10
153.162198100058
20
-11.6544811920128
30
0
41
1
10
153.269284535194
20
-11.9054387157331
30
0
41
1
10
153.322827752762
20
-12.0136948402405
30
0
41
1
10
153.483457405467
20
-12.2881394534336
30
0
41
1
10
153.590543840604
20
-12.4037348037091
30
0
41
1
10
153.724401884525
20
-12.4735159007826
30
0
41
1
10
153.751173493309
20
-12.4837577377691
30
0
41
1
10
153.804716710877
20
-12.4971249288744
30
0
41
1
10
153.831488319662
20
-12.5002509461507
30
0
41
1
10
153.911803146014
20
-12.4994510940233
30
0
41
1
10
153.965346363583
20
-12.4852875424176
30
0
41
1
10
154.125976016287
20
-12.3980513013037
30
0
41
1
10
154.233062451424
20
-12.2799315835198
30
0
41
1
10
154.393692104129
20
-12.0015463816124
30
0
41
1
10
154.447235321698
20
-11.8919518406152
30
0
41
1
10
154.554321756834
20
-11.6382983689495
30
0
41
1
10
154.607864974403
20
-11.4942359722904
30
0
41
1
10
154.714951409539
20
-11.1716142536882
30
0
41
1
10
154.768494627108
20
-10.9930530685878
30
0
41
1
10
154.875581062244
20
-10.6023250821219
30
0
41
1
10
154.929124279813
20
-10.3901583880277
30
0
41
1
10
155.036210714949
20
-9.93406214534281
30
0
41
1
10
155.089753932518
20
-9.69013483571993
30
0
41
1
10
155.196840367654
20
-9.17327678027107
30
0
41
1
10
155.250383585223
20
-8.90035031084196
30
0
41
1
10
155.35747002036
20
-8.32907165233183
30
0
41
1
10
155.411013237928
20
-8.03072542448439
30
0
41
1
10
155.518099673064
20
-7.41284808568901
30
0
41
1
10
155.571642890633
20
-7.09332405813882
30
0
41
1
10
155.678729325769
20
-6.43779704260774
30
0
41
1
10
155.732272543338
20
-6.10180157703323
30
0
41
1
10
155.839358978475
20
-5.41828087257628
30
0
41
1
10
155.892902196043
20
-5.07076290105698
30
0
41
1
10
155.99998863118
20
-4.36916511894572
30
0
41
1
10
156.053531848748
20
-4.01509171931102
30
0
41
1
10
156.160618283885
20
-3.30516236677769
30
0
41
1
10
156.214161501453
20
-2.94931153516126
30
0
41
1
10
156.374791154158
20
-1.88570942442007
30
0
41
1
10
156.481877589295
20
-1.18220904033913
30
0
41
1
10
156.615735633215
20
-0.327939020133016
30
0
41
1
10
156.642507242
20
-0.158424528725845
30
0
41
1
10
156.696050459568
20
0.178214735836662
30
0
41
1
10
156.722822068352
20
0.347939956213793
30
0
41
1
10
156.803136894705
20
0.86079056613292
30
0
41
1
10
156.856680112273
20
1.20760970621137
30
0
41
1
10
156.96376654741
20
1.90773569591971
30
0
41
1
10
157.017309764978
20
2.26104046619127
30
0
41
1
10
157.124396200115
20
2.97020870667174
30
0
41
1
10
157.177939417683
20
3.32606854462711
30
0
41
1
10
157.28502585282
20
4.03592528064593
30
0
41
1
10
157.338569070388
20
4.38991702926114
30
0
41
1
10
157.445655505525
20
5.09125536545406
30
0
41
1
10
157.499198723093
20
5.43859552049346
30
0
41
1
10
157.60628515823
20
6.12166271750135
30
0
41
1
10
157.659828375798
20
6.4573824808819
30
0
41
1
10
157.766914810935
20
7.11226277712825
30
0
41
1
10
157.820458028503
20
7.43141578937963
30
0
41
1
10
157.92754446364
20
8.04846278287241
30
0
41
1
10
157.981087681208
20
8.34634969636699
30
0
41
1
10
158.088174116345
20
8.91663259187038
30
0
41
1
10
158.141717333913
20
9.18902264082348
30
0
41
1
10
158.24880376905
20
9.70474541686724
30
0
41
1
10
158.302346986618
20
9.94807390490291
30
0
41
1
10
158.409433421755
20
10.4029272795951
30
0
41
1
10
158.462976639323
20
10.6144499690302
30
0
41
1
10
158.57006307446
20
11.0038632469597
30
0
41
1
10
158.623606292028
20
11.1817537691303
30
0
41
1
10
158.730692727165
20
11.5030260395731
30
0
41
1
10
158.784235944733
20
11.6464096865038
30
0
41
1
10
158.89132237987
20
11.8987150007287
30
0
41
1
10
158.944865597439
20
12.0076401607541
30
0
41
1
10
159.051952032575
20
12.1919162820878
30
0
41
1
10
159.105495250143
20
12.2672718340992
30
0
41
1
10
159.266124902848
20
12.4453854427103
30
0
41
1
10
159.373211337985
20
12.5
30
0
41
1
10
159.480297773122
20
12.5
30
0
0
SPLINE
5
F3
100
AcDbEntity
8
1
62
256
6
ByLayer
370
13
48
1
60
0
100
AcDbSpline
70
4
71
3
72
22
73
18
40
0
40
0
40
0
40
0
40
0.125
40
0.125
40
0.25
40
0.25
40
0.375
40
0.375
40
0.5
40
0.5
40
0.625
40
0.625
40
0.75
40
0.75
40
0.875
40
0.875
40
1
40
1
40
1
40
1
41
1
10
158.415711742676
20
12.5
30
0
41
1
10
158.500489256384
20
12.5
30
0
41
1
10
158.585266770092
20
12.4658366391851
30
0
41
1
10
158.754821797509
20
12.3193924152385
30
0
41
1
10
158.839599311217
20
12.2070597262498
30
0
41
1
10
159.009154338633
20
11.8975439760866
30
0
41
1
10
159.093931852341
20
11.7003170675115
30
0
41
1
10
159.263486879758
20
11.218917304978
30
0
41
1
10
159.348264393466
20
10.9347214787431
30
0
41
1
10
159.517819420882
20
10.2829775342892
30
0
41
1
10
159.602596934591
20
9.9154371430607
30
0
41
1
10
159.772151962007
20
9.1065480467108
30
0
41
1
10
159.856929475715
20
8.66523969672633
30
0
41
1
10
160.026484503132
20
7.72358573319602
30
0
41
1
10
160.11126201684
20
7.22330514772977
30
0
41
1
10
160.280817044256
20
6.18208403106999
30
0
41
1
10
160.365594557964
20
5.64121789945668
30
0
41
1
10
160.450372071672
20
5.08993592310262
30
0
0
SPLINE
5
F4
100
AcDbEntity
8
1
62
256
6
ByLayer
370
13
48
1
60
0
100
AcDbSpline
70
4
71
3
72
102
73
98
40
0
40
0
40
0
40
0
40
0.0156250000000005
40
0.0156250000000005
40
0.0312500000000009
40
0.0312500000000009
40
0.0625000000000018
40
0.0625000000000018
40
0.0937500000000027
40
0.0937500000000027
40
0.125000000000004
40
0.125000000000004
40
0.132812500000004
40
0.132812500000004
40
0.136718750000004
40
0.136718750000004
40
0.140625000000004
40
0.140625000000004
40
0.156250000000005
40
0.156250000000005
40
0.187500000000006
40
0.187500000000006
40
0.218750000000006
40
0.218750000000006
40
0.250000000000007
40
0.250000000000007
40
0.265625000000008
40
0.265625000000008
40
0.281250000000008
40
0.281250000000008
40
0.296875000000008
40
0.296875000000008
40
0.312500000000009
40
0.312500000000009
40
0.343750000000009
40
0.343750000000009
40
0.37500000000001
40
0.37500000000001
40
0.406250000000011
40
0.406250000000011
40
0.421875000000011
40
0.421875000000011
40
0.429687500000011
40
0.429687500000011
40
0.437500000000011
40
0.437500000000011
40
0.468750000000011
40
0.468750000000011
40
0.500000000000011
40
0.500000000000011
40
0.531250000000011
40
0.531250000000011
40
0.546875000000011
40
0.546875000000011
40
0.562500000000011
40
0.562500000000011
40
0.578125000000011
40
0.578125000000011
40
0.593750000000011
40
0.593750000000011
40
0.625000000000011
40
0.625000000000011
40
0.656250000000011
40
0.656250000000011
40
0.68750000000001
40
0.68750000000001
40
0.70312500000001
40
0.70312500000001
40
0.71093750000001
40
0.71093750000001
40
0.71484375000001
40
0.71484375000001
40
0.71875000000001
40
0.71875000000001
40
0.750000000000009
40
0.750000000000009
40
0.781250000000008
40
0.781250000000008
40
0.812500000000007
40
0.812500000000007
40
0.828125000000006
40
0.828125000000006
40
0.843750000000005
40
0.843750000000005
40
0.859375000000005
40
0.859375000000005
40
0.875000000000004
40
0.875000000000004
40
0.890625000000004
40
0.890625000000004
40
0.906250000000003
40
0.906250000000003
40
0.937500000000002
40
0.937500000000002
40
0.968750000000001
40
0.968750000000001
40
1
40
1
40
1
40
1
41
1
10
149.2
20
8.58106155050004
30
0
41
1
10
149.251016980951
20
8.3079545371389
30
0
41
1
10
149.302033961902
20
8.02338366088878
30
0
41
1
10
149.404067923804
20
7.43498034834084
30
0
41
1
10
149.455084904755
20
7.1311534722457
30
0
41
1
10
149.608135847608
20
6.19687092927646
30
0
41
1
10
149.71016980951
20
5.54361410265952
30
0
41
1
10
149.914237733314
20
4.21057639689042
30
0
41
1
10
150.016271695216
20
3.5309591985264
30
0
41
1
10
150.22033961902
20
2.1777970146218
30
0
41
1
10
150.322373580921
20
1.50435186429809
30
0
41
1
10
150.449916033299
20
0.682876543104811
30
0
41
1
10
150.475424523774
20
0.519579793810777
30
0
41
1
10
150.513687259488
20
0.276383085978409
30
0
41
1
10
150.526441504725
20
0.195608671455147
30
0
41
1
10
150.551949995201
20
0.0346809839123239
30
0
41
1
10
150.564704240439
20
-0.0453276991227369
30
0
41
1
10
150.628475466627
20
-0.447784004458583
30
0
41
1
10
150.679492447578
20
-0.774724663043912
30
0
41
1
10
150.832543390431
20
-1.76645046795954
30
0
41
1
10
150.934577352333
20
-2.44235835884541
30
0
41
1
10
151.138645276137
20
-3.79649189557793
30
0
41
1
10
151.240679238039
20
-4.47460821850663
30
0
41
1
10
151.444747161843
20
-5.80014088250346
30
0
41
1
10
151.546781123745
20
-6.44738757129323
30
0
41
1
10
151.699832066598
20
-7.36935803070702
30
0
41
1
10
151.750849047549
20
-7.66853713031495
30
0
41
1
10
151.852883009451
20
-8.24664115304313
30
0
41
1
10
151.903899990402
20
-8.52556068843563
30
0
41
1
10
152.005933952304
20
-9.05959522077382
30
0
41
1
10
152.056950933255
20
-9.31470577963967
30
0
41
1
10
152.158984895157
20
-9.79814794072149
30
0
41
1
10
152.210001876107
20
-10.0264764295075
30
0
41
1
10
152.363052818961
20
-10.6678676709817
30
0
41
1
10
152.465086780862
20
-11.0369392404697
30
0
41
1
10
152.669154704666
20
-11.6490086608542
30
0
41
1
10
152.771188666568
20
-11.8920531034702
30
0
41
1
10
152.975256590372
20
-12.2551338386712
30
0
41
1
10
153.077290552274
20
-12.3752818071899
30
0
41
1
10
153.230341495127
20
-12.4728010702773
30
0
41
1
10
153.281358476078
20
-12.4915876102271
30
0
41
1
10
153.357883947504
20
-12.5008113416859
30
0
41
1
10
153.38339243798
20
-12.5007664148417
30
0
41
1
10
153.434409418931
20
-12.4944311361081
30
0
41
1
10
153.459917909406
20
-12.4881043536089
30
0
41
1
10
153.587460361784
20
-12.4399756835402
30
0
41
1
10
153.689494323686
20
-12.3484334496164
30
0
41
1
10
153.89356224749
20
-12.044958087215
30
0
41
1
10
153.995596209392
20
-11.8329043599816
30
0
41
1
10
154.199664133196
20
-11.2825414810168
30
0
41
1
10
154.301698095097
20
-10.9441657553899
30
0
41
1
10
154.45474903795
20
-10.3462832165991
30
0
41
1
10
154.505766018901
20
-10.1320337723376
30
0
41
1
10
154.607799980803
20
-9.67553428207572
30
0
41
1
10
154.658816961754
20
-9.43328660404197
30
0
41
1
10
154.760850923656
20
-8.92343372649825
30
0
41
1
10
154.811867904607
20
-8.65583235090955
30
0
41
1
10
154.913901866509
20
-8.09855317268378
30
0
41
1
10
154.96491884746
20
-7.80888034449004
30
0
41
1
10
155.117969790313
20
-6.91242590532181
30
0
41
1
10
155.220003752215
20
-6.27814198453575
30
0
41
1
10
155.424071676019
20
-4.96995406062379
30
0
41
1
10
155.526105637921
20
-4.29622879042293
30
0
41
1
10
155.730173561725
20
-2.94311180176652
30
0
41
1
10
155.832207523627
20
-2.26384670670799
30
0
41
1
10
155.98525846648
20
-1.26253727148256
30
0
41
1
10
156.036275447431
20
-0.93164921346343
30
0
41
1
10
156.112800918857
20
-0.441836599225326
30
0
41
1
10
156.138309409333
20
-0.27964844992664
30
0
41
1
10
156.176572145046
20
-0.0382294766426696
30
0
41
1
10
156.189326390283
20
0.0417783818319037
30
0
41
1
10
156.214834880759
20
0.20274264222266
30
0
41
1
10
156.227589125997
20
0.283534785220127
30
0
41
1
10
156.342377333137
20
1.01327917777681
30
0
41
1
10
156.444411295038
20
1.6808591548224
30
0
41
1
10
156.648479218843
20
3.02945338096015
30
0
41
1
10
156.750513180744
20
3.71038597725084
30
0
41
1
10
156.954581104548
20
5.05443859512488
30
0
41
1
10
157.05661506645
20
5.71740809277986
30
0
41
1
10
157.209666009303
20
6.67258875318652
30
0
41
1
10
157.260682990254
20
6.98442606880735
30
0
41
1
10
157.362716952156
20
7.59081344753352
30
0
41
1
10
157.413733933107
20
7.88535771708217
30
0
41
1
10
157.515767895009
20
8.45327173021772
30
0
41
1
10
157.56678487596
20
8.72663627875042
30
0
41
1
10
157.668818837862
20
9.24876964156454
30
0
41
1
10
157.719835818813
20
9.49753431436358
30
0
41
1
10
157.821869780715
20
9.96765453066877
30
0
41
1
10
157.872886761666
20
10.1890073279523
30
0
41
1
10
157.974920723568
20
10.6022027264286
30
0
41
1
10
158.025937704519
20
10.7940441573003
30
0
41
1
10
158.178988647372
20
11.3233089763098
30
0
41
1
10
158.281022609274
20
11.614099747078
30
0
41
1
10
158.485090533078
20
12.07020292506
30
0
41
1
10
158.587124494979
20
12.2356077115191
30
0
41
1
10
158.791192418783
20
12.4504418998944
30
0
41
1
10
158.893226380685
20
12.5
30
0
41
1
10
158.995260342587
20
12.5
30
0
0
SPLINE
5
F5
100
AcDbEntity
8
1
62
256
6
ByLayer
370
13
48
1
60
0
100
AcDbSpline
70
4
71
3
72
32
73
28
40
0
40
0
40
0
40
0
40
0.125000000000001
40
0.125000000000001
40
0.250000000000002
40
0.250000000000002
40
0.312500000000002
40
0.312500000000002
40
0.375000000000001
40
0.375000000000001
40
0.437500000000001
40
0.437500000000001
40
0.500000000000001
40
0.500000000000001
40
0.562500000000001
40
0.562500000000001
40
0.625000000000001
40
0.625000000000001
40
0.687500000000001
40
0.687500000000001
40
0.750000000000001
40
0.750000000000001
40
0.812500000000001
40
0.812500000000001
40
0.875000000000001
40
0.875000000000001
40
1
40
1
40
1
40
1
41
1
10
157.930674312141
20
12.5
30
0
41
1
10
158.035661718788
20
12.5
30
0
41
1
10
158.140649125436
20
12.4475164640655
30
0
41
1
10
158.35062393873
20
12.2195875757252
30
0
41
1
10
158.455611345377
20
12.0439943849591
30
0
41
1
10
158.613092455348
20
11.6808803585556
30
0
41
1
10
158.665586158671
20
11.5433011345356
30
0
41
1
10
158.770573565318
20
11.2349462695096
30
0
41
1
10
158.823067268642
20
11.0641687493097
30
0
41
1
10
158.928054675289
20
10.6901438306106
30
0
41
1
10
158.980548378613
20
10.4868962705975
30
0
41
1
10
159.08553578526
20
10.0495366501992
30
0
41
1
10
159.138029488583
20
9.81542631458285
30
0
41
1
10
159.243016895231
20
9.31880237756417
30
0
41
1
10
159.295510598554
20
9.05629234137911
30
0
41
1
10
159.400498005201
20
8.50610634479634
30
0
41
1
10
159.452991708525
20
8.21843552076791
30
0
41
1
10
159.557979115172
20
7.62180961246278
30
0
41
1
10
159.610472818496
20
7.31286077608814
30
0
41
1
10
159.715460225143
20
6.67803211304806
30
0
41
1
10
159.767953928466
20
6.35215906537681
30
0
41
1
10
159.872941335113
20
5.68810910834085
30
0
41
1
10
159.925435038437
20
5.34993889789811
30
0
41
1
10
160.030422445084
20
4.66599105979631
30
0
41
1
10
160.082916148407
20
4.32021949902716
30
0
41
1
10
160.240397258378
20
3.27835200532968
30
0
41
1
10
160.345384665025
20
2.57793006027504
30
0
41
1
10
160.450372071672
20
1.88792592513693
30
0
0
SPLINE
5
F6
100
AcDbEntity
8
1
62
256
6
ByLayer
370
13
48
1
60
0
100
AcDbSpline
70
4
71
3
72
82
73
78
40
0
40
0
40
0
40
0
40
0.03125
40
0.03125
40
0.0625
40
0.0625
40
0.09375
40
0.09375
40
0.125
40
0.125
40
0.15625
40
0.15625
40
0.1875
40
0.1875
40
0.21875
40
0.21875
40
0.25
40
0.25
40
0.28125
40
0.28125
40
0.3125
40
0.3125
40
0.34375
40
0.34375
40
0.375
40
0.375
40
0.390625
40
0.390625
40
0.39453125
40
0.39453125
40
0.3984375
40
0.3984375
40
0.40625
40
0.40625
40
0.4375
40
0.4375
40
0.46875
40
0.46875
40
0.5
40
0.5
40
0.53125
40
0.53125
40
0.5625
40
0.5625
40
0.59375
40
0.59375
40
0.625
40
0.625
40
0.65625
40
0.65625
40
0.6875
40
0.6875
40
0.6953125
40
0.6953125
40
0.69921875
40
0.69921875
40
0.703125
40
0.703125
40
0.71875
40
0.71875
40
0.75
40
0.75
40
0.78125
40
0.78125
40
0.8125
40
0.8125
40
0.84375
40
0.84375
40
0.875
40
0.875
40
0.90625
40
0.90625
40
0.9375
40
0.9375
40
0.96875
40
0.96875
40
1
40
1
40
1
40
1
41
1
10
149.2
20
5.69969473659359
30
0
41
1
10
149.296981488667
20
5.07946133607356
30
0
41
1
10
149.393962977334
20
4.44087447997566
30
0
41
1
10
149.587925954669
20
3.15598927675842
30
0
41
1
10
149.684907443336
20
2.50979383130539
30
0
41
1
10
149.87887042067
20
1.23529886015234
30
0
41
1
10
149.975851909338
20
0.607147679237329
30
0
41
1
10
150.169814886672
20
-0.612044536651439
30
0
41
1
10
150.266796375339
20
-1.24037156493174
30
0
41
1
10
150.460759352674
20
-2.51495987609289
30
0
41
1
10
150.557740841341
20
-3.16117137664915
30
0
41
1
10
150.751703818675
20
-4.44601405160489
30
0
41
1
10
150.848685307343
20
-5.08454219343125
30
0
41
1
10
151.042648284677
20
-6.32481150342099
30
0
41
1
10
151.139629773344
20
-6.92641288461951
30
0
41
1
10
151.333592750679
20
-8.0636592030757
30
0
41
1
10
151.430574239346
20
-8.59916418832145
30
0
41
1
10
151.62453721668
20
-9.57943813271891
30
0
41
1
10
151.721518705348
20
-10.0241094022975
30
0
41
1
10
151.915481682682
20
-10.8060503360782
30
0
41
1
10
152.012463171349
20
-11.1432921888623
30
0
41
1
10
152.206426148684
20
-11.7037889099521
30
0
41
1
10
152.303407637351
20
-11.9270858755151
30
0
41
1
10
152.497370614685
20
-12.2629461562529
30
0
41
1
10
152.594352103352
20
-12.3755975514587
30
0
41
1
10
152.739824336353
20
-12.4697974096448
30
0
41
1
10
152.788315080687
20
-12.4887861513508
30
0
41
1
10
152.848928511104
20
-12.4981629195064
30
0
41
1
10
152.861051197187
20
-12.4993209119577
30
0
41
1
10
152.885296569354
20
-12.5002332423417
30
0
41
1
10
152.897419255438
20
-12.499992271153
30
0
41
1
10
152.933787313688
20
-12.4971543645442
30
0
41
1
10
152.958032685855
20
-12.4924329340925
30
0
41
1
10
153.079259546689
20
-12.4540704810331
30
0
41
1
10
153.176241035356
20
-12.3759647239992
30
0
41
1
10
153.37020401269
20
-12.1121442814871
30
0
41
1
10
153.467185501357
20
-11.9263335360335
30
0
41
1
10
153.661148478692
20
-11.4409065809733
30
0
41
1
10
153.758129967359
20
-11.1412295876261
30
0
41
1
10
153.952092944694
20
-10.4311341681092
30
0
41
1
10
154.049074433361
20
-10.0207189687932
30
0
41
1
10
154.243037410695
20
-9.10243451346145
30
0
41
1
10
154.340018899362
20
-8.59464159765918
30
0
41
1
10
154.533981876697
20
-7.50392786704927
30
0
41
1
10
154.630963365364
20
-6.92113737576688
30
0
41
1
10
154.824926342699
20
-5.70859271140273
30
0
41
1
10
154.921907831366
20
-5.0789831297912
30
0
41
1
10
155.1158708087
20
-3.8025140267743
30
0
41
1
10
155.212852297367
20
-3.15577268730809
30
0
41
1
10
155.406815274702
20
-1.87221356173072
30
0
41
1
10
155.503796763369
20
-1.23546363101497
30
0
41
1
10
155.625023624203
20
-0.45933510202525
30
0
41
1
10
155.64926899637
20
-0.305084507643016
30
0
41
1
10
155.68563705462
20
-0.0753775594282615
30
0
41
1
10
155.697759740703
20
0.0007211326753236
30
0
41
1
10
155.72200511287
20
0.153493056341375
30
0
41
1
10
155.734127798954
20
0.230162268843799
30
0
41
1
10
155.794741229371
20
0.614842008517229
30
0
41
1
10
155.843231973704
20
0.926869692835936
30
0
41
1
10
155.988704206705
20
1.87224408457684
30
0
41
1
10
156.085685695372
20
2.51505810483195
30
0
41
1
10
156.279648672707
20
3.80219155381207
30
0
41
1
10
156.376630161374
20
4.44642505525999
30
0
41
1
10
156.570593138708
20
5.70807049483349
30
0
41
1
10
156.667574627376
20
6.32535168438332
30
0
41
1
10
156.86153760471
20
7.50343369184412
30
0
41
1
10
156.958519093377
20
8.06408976068693
30
0
41
1
10
157.152482070712
20
9.10220200250285
30
0
41
1
10
157.249463559379
20
9.57954215513217
30
0
41
1
10
157.443426536713
20
10.4313217716827
30
0
41
1
10
157.54040802538
20
10.8057086109575
30
0
41
1
10
157.734371002715
20
11.4415452471602
30
0
41
1
10
157.831352491382
20
11.7030155029028
30
0
41
1
10
158.025315468717
20
12.1131391288975
30
0
41
1
10
158.122296957384
20
12.261868771912
30
0
41
1
10
158.316259934718
20
12.4552489840324
30
0
41
1
10
158.413241423385
20
12.5
30
0
41
1
10
158.510222912053
20
12.5
30
0
0
SPLINE
5
F7
100
AcDbEntity
8
1
62
256
6
ByLayer
370
13
48
1
60
0
100
AcDbSpline
70
4
71
3
72
42
73
38
40
0
40
0
40
0
40
0
40
0.0624999999999999
40
0.0624999999999999
40
0.125
40
0.125
40
0.1875
40
0.1875
40
0.25
40
0.25
40
0.3125
40
0.3125
40
0.375
40
0.375
40
0.4375
40
0.4375
40
0.5
40
0.5
40
0.5625
40
0.5625
40
0.625
40
0.625
40
0.6875
40
0.6875
40
0.75
40
0.75
40
0.812500000000001
40
0.812500000000001
40
0.875000000000001
40
0.875000000000001
40
0.906250000000001
40
0.906250000000001
40
0.921875
40
0.921875
40
0.9375
40
0.9375
40
1
40
1
40
1
40
1
41
1
10
157.445636881607
20
12.5
30
0
41
1
10
157.5082355314
20
12.5
30
0
41
1
10
157.570834181193
20
12.4813986081103
30
0
41
1
10
157.696031480779
20
12.4029242643419
30
0
41
1
10
157.758630130572
20
12.34303986878
30
0
41
1
10
157.883827430158
20
12.1787266931695
30
0
41
1
10
157.946426079951
20
12.0742869612938
30
0
41
1
10
158.071623379537
20
11.8187487809832
30
0
41
1
10
158.13422202933
20
11.6676413975519
30
0
41
1
10
158.259419328916
20
11.3181165087318
30
0
41
1
10
158.322017978709
20
11.1196936403851
30
0
41
1
10
158.447215278295
20
10.6765697131138
30
0
41
1
10
158.509813928088
20
10.4318681077367
30
0
41
1
10
158.635011227675
20
9.89899498749409
30
0
41
1
10
158.697609877467
20
9.61082833697293
30
0
41
1
10
158.822807177054
20
8.99554652936109
30
0
41
1
10
158.885405826847
20
8.66844136933187
30
0
41
1
10
159.010603126433
20
7.98129216220647
30
0
41
1
10
159.073201776226
20
7.62126208360243
30
0
41
1
10
159.198399075812
20
6.87539607544949
30
0
41
1
10
159.260997725605
20
6.48957626626162
30
0
41
1
10
159.386195025191
20
5.69992835476813
30
0
41
1
10
159.448793674984
20
5.29611644319976
30
0
41
1
10
159.57399097457
20
4.47845358345702
30
0
41
1
10
159.636589624363
20
4.06461699271642
30
0
41
1
10
159.761786923949
20
3.23458043868189
30
0
41
1
10
159.824385573742
20
2.8183916217674
30
0
41
1
10
159.949582873328
20
1.99064536328424
30
0
41
1
10
160.012181523121
20
1.57909517540014
30
0
41
1
10
160.106079497811
20
0.969770307159479
30
0
41
1
10
160.137378822707
20
0.76798727288724
30
0
41
1
10
160.184327810052
20
0.467788010210199
30
0
41
1
10
160.1999774725
20
0.368133582588939
30
0
41
1
10
160.231276797397
20
0.16972321754352
30
0
41
1
10
160.246926459845
20
0.0711206252807699
30
0
41
1
10
160.325174772086
20
-0.421128270602139
30
0
41
1
10
160.38777342188
20
-0.822619207124887
30
0
41
1
10
160.450372071672
20
-1.2293195346102
30
0
0
SPLINE
5
F8
100
AcDbEntity
8
1
62
256
6
ByLayer
370
13
48
1
60
0
100
AcDbSpline
70
4
71
3
72
86
73
82
40
0
40
0
40
0
40
0
40
0.0312500000000003
40
0.0312500000000003
40
0.0390625000000004
40
0.0429687500000005
40
0.0429687500000005
40
0.0468750000000006
40
0.0468750000000006
40
0.0625000000000012
40
0.0625000000000012
40
0.0937500000000026
40
0.0937500000000026
40
0.125000000000004
40
0.125000000000004
40
0.156250000000005
40
0.156250000000005
40
0.187500000000007
40
0.187500000000007
40
0.218750000000008
40
0.218750000000008
40
0.25000000000001
40
0.25000000000001
40
0.281250000000011
40
0.281250000000011
40
0.312500000000012
40
0.312500000000012
40
0.343750000000014
40
0.343750000000014
40
0.359375000000014
40
0.359375000000014
40
0.363281250000014
40
0.363281250000014
40
0.367187500000015
40
0.375000000000015
40
0.375000000000015
40
0.406250000000014
40
0.406250000000014
40
0.437500000000013
40
0.437500000000013
40
0.468750000000012
40
0.468750000000012
40
0.500000000000012
40
0.500000000000012
40
0.531250000000011
40
0.531250000000011
40
0.56250000000001
40
0.56250000000001
40
0.59375000000001
40
0.59375000000001
40
0.625000000000009
40
0.625000000000009
40
0.656250000000008
40
0.656250000000008
40
0.671875000000008
40
0.671875000000008
40
0.679687500000008
40
0.679687500000008
40
0.683593750000007
40
0.683593750000007
40
0.687500000000007
40
0.687500000000007
40
0.718750000000007
40
0.718750000000007
40
0.750000000000006
40
0.750000000000006
40
0.781250000000005
40
0.781250000000005
40
0.812500000000004
40
0.812500000000004
40
0.843750000000004
40
0.843750000000004
40
0.875000000000003
40
0.875000000000003
40
0.906250000000002
40
0.906250000000002
40
0.937500000000001
40
0.937500000000001
40
0.968750000000001
40
0.968750000000001
40
1
40
1
40
1
40
1
41
1
10
149.2
20
2.51141442230366
30
0
41
1
10
149.291929015432
20
1.90308198949586
30
0
41
1
10
149.383858030865
20
1.29925974185556
30
0
41
1
10
149.498769300156
20
0.561719164484458
30
0
41
1
10
149.533242680943
20
0.341731303606764
30
0
41
1
10
149.56771606173
20
0.123923996830598
30
0
41
1
10
149.590698315588
20
-0.0207688762600924
30
0
41
1
10
149.602189442517
20
-0.0929725082057189
30
0
41
1
10
149.659645077162
20
-0.456028308994917
30
0
41
1
10
149.705609584879
20
-0.750467903653799
30
0
41
1
10
149.843503108027
20
-1.64283389969131
30
0
41
1
10
149.93543212346
20
-2.24995546163319
30
0
41
1
10
150.119290154325
20
-3.46913291923653
30
0
41
1
10
150.211219169757
20
-4.08112939741557
30
0
41
1
10
150.395077200622
20
-5.28647649192374
30
0
41
1
10
150.487006216055
20
-5.87973262588042
30
0
41
1
10
150.67086424692
20
-7.02230471109539
30
0
41
1
10
150.762793262352
20
-7.57150949957477
30
0
41
1
10
150.946651293217
20
-8.60214033048319
30
0
41
1
10
151.03858030865
20
-9.08346712963493
30
0
41
1
10
151.222438339514
20
-9.95923130930549
30
0
41
1
10
151.314367354947
20
-10.3536086788299
30
0
41
1
10
151.498225385812
20
-11.0435778851381
30
0
41
1
10
151.590154401244
20
-11.339162719566
30
0
41
1
10
151.774012432109
20
-11.8279066259475
30
0
41
1
10
151.865941447542
20
-12.0211068553351
30
0
41
1
10
152.049799478407
20
-12.3091492255952
30
0
41
1
10
152.141728493839
20
-12.4040619383676
30
0
41
1
10
152.279622016988
20
-12.480176334293
30
0
41
1
10
152.325586524704
20
-12.4945446667655
30
0
41
1
10
152.383042159349
20
-12.4997558667474
30
0
41
1
10
152.394533286278
20
-12.5001617779961
30
0
41
1
10
152.417515540137
20
-12.4997233591023
30
0
41
1
10
152.451988920924
20
-12.497180915146
30
0
41
1
10
152.486462301711
20
-12.4888631754189
30
0
41
1
10
152.601373571002
20
-12.4477910549972
30
0
41
1
10
152.693302586434
20
-12.3720627217207
30
0
41
1
10
152.877160617299
20
-12.1240476058219
30
0
41
1
10
152.969089632732
20
-11.9516870458455
30
0
41
1
10
153.152947663597
20
-11.5048902773542
30
0
41
1
10
153.244876679029
20
-11.2304050250725
30
0
41
1
10
153.428734709894
20
-10.5812255666569
30
0
41
1
10
153.520663725327
20
-10.2065274464711
30
0
41
1
10
153.704521756191
20
-9.36703932276004
30
0
41
1
10
153.796450771624
20
-8.90229891709245
30
0
41
1
10
153.980308802489
20
-7.90042442651674
30
0
41
1
10
154.072237817921
20
-7.36338343627011
30
0
41
1
10
154.256095848786
20
-6.23998959074649
30
0
41
1
10
154.348024864219
20
-5.65374793926577
30
0
41
1
10
154.531882895084
20
-4.45724515843355
30
0
41
1
10
154.623811910516
20
-3.84708391542787
30
0
41
1
10
154.807669941381
20
-2.62696725935993
30
0
41
1
10
154.899598956814
20
-2.01707928269084
30
0
41
1
10
155.037492479963
20
-1.1178356358011
30
0
41
1
10
155.083456987679
20
-0.820651106210335
30
0
41
1
10
155.152403749253
20
-0.38029085433962
30
0
41
1
10
155.175386003111
20
-0.234404296646744
30
0
41
1
10
155.209859383898
20
-0.0170977353578508
30
0
41
1
10
155.221350510828
20
0.0550116753101406
30
0
41
1
10
155.244332764686
20
0.200059203281199
30
0
41
1
10
155.255823891615
20
0.27283426746078
30
0
41
1
10
155.359244033976
20
0.929943736330188
30
0
41
1
10
155.451173049409
20
1.52942922549855
30
0
41
1
10
155.635031080274
20
2.74166158598791
30
0
41
1
10
155.726960095706
20
3.35436477660286
30
0
41
1
10
155.910818126571
20
4.57084262926091
30
0
41
1
10
156.002747142004
20
5.17453533217068
30
0
41
1
10
156.186605172868
20
6.34803255728355
30
0
41
1
10
156.278534188301
20
6.91772948454894
30
0
41
1
10
156.462392219166
20
7.99841315274833
30
0
41
1
10
156.554321234598
20
8.50929227329141
30
0
41
1
10
156.738179265463
20
9.45099303625364
30
0
41
1
10
156.830108280896
20
9.88173647523556
30
0
41
1
10
157.013966311761
20
10.6481920225154
30
0
41
1
10
157.105895327193
20
10.9838756419111
30
0
41
1
10
157.289753358058
20
11.5532756150924
30
0
41
1
10
157.381682373491
20
11.7870156850157
30
0
41
1
10
157.565540404356
20
12.153693543543
30
0
41
1
10
157.657469419788
20
12.2866929526916
30
0
41
1
10
157.841327450653
20
12.4598075493262
30
0
41
1
10
157.933256466086
20
12.5
30
0
41
1
10
158.025185481518
20
12.5
30
0
0
SPLINE
5
F9
100
AcDbEntity
8
1
62
256
6
ByLayer
370
13
48
1
60
0
100
AcDbSpline
70
4
71
3
72
42
73
38
40
0
40
0
40
0
40
0
40
0.0625000000000003
40
0.0625000000000003
40
0.125000000000001
40
0.125000000000001
40
0.187500000000001
40
0.187500000000001
40
0.250000000000001
40
0.250000000000001
40
0.312500000000002
40
0.312500000000002
40
0.375000000000002
40
0.375000000000002
40
0.437500000000002
40
0.437500000000002
40
0.500000000000003
40
0.500000000000003
40
0.562500000000003
40
0.562500000000003
40
0.625000000000003
40
0.625000000000003
40
0.687500000000004
40
0.687500000000004
40
0.750000000000004
40
0.750000000000004
40
0.781250000000004
40
0.781250000000004
40
0.796875000000004
40
0.796875000000004
40
0.812500000000004
40
0.812500000000004
40
0.875000000000003
40
0.875000000000003
40
0.937500000000001
40
0.937500000000001
40
1
40
1
40
1
40
1
41
1
10
156.960599451072
20
12.5
30
0
41
1
10
157.033303047335
20
12.5
30
0
41
1
10
157.106006643597
20
12.4748947607824
30
0
41
1
10
157.251413836122
20
12.3681877330158
30
0
41
1
10
157.324117432385
20
12.2865617767789
30
0
41
1
10
157.46952462491
20
12.0620695083303
30
0
41
1
10
157.542228221172
20
11.9191811154177
30
0
41
1
10
157.687635413697
20
11.5697168011114
30
0
41
1
10
157.76033900996
20
11.3631253174396
30
0
41
1
10
157.905746202485
20
10.8866864724647
30
0
41
1
10
157.978449798747
20
10.6168341529081
30
0
41
1
10
158.123856991272
20
10.0175068236148
30
0
41
1
10
158.196560587535
20
9.68803986992901
30
0
41
1
10
158.34196778006
20
8.97627864212251
30
0
41
1
10
158.414671376322
20
8.59400514110899
30
0
41
1
10
158.560078568847
20
7.78615184342445
30
0
41
1
10
158.63278216511
20
7.36060232831872
30
0
41
1
10
158.778189357635
20
6.47766277532801
30
0
41
1
10
158.850892953897
20
6.02030722776095
30
0
41
1
10
158.996300146422
20
5.08617257941518
30
0
41
1
10
159.069003742685
20
4.60942632422513
30
0
41
1
10
159.21441093521
20
3.64884588973672
30
0
41
1
10
159.287114531472
20
3.16503810386368
30
0
41
1
10
159.432521723997
20
2.20168320784279
30
0
41
1
10
159.50522532026
20
1.72215331533843
30
0
41
1
10
159.614280714654
20
1.01332822217515
30
0
41
1
10
159.650632512785
20
0.778783698800197
30
0
41
1
10
159.705160209982
20
0.430330013843815
30
0
41
1
10
159.723336109047
20
0.31473829435194
30
0
41
1
10
159.759687907179
20
0.0847895164666568
30
0
41
1
10
159.777863806244
20
-0.0291637884823501
30
0
41
1
10
159.868743301572
20
-0.603028957144829
30
0
41
1
10
159.941446897835
20
-1.07222334192628
30
0
41
1
10
160.08685409036
20
-2.02271829011289
30
0
41
1
10
160.159557686622
20
-2.50400929865072
30
0
41
1
10
160.304964879147
20
-3.46863166583449
30
0
41
1
10
160.37766847541
20
-3.95194377573532
30
0
41
1
10
160.450372071672
20
-4.43047508914455
30
0
0
SPLINE
5
FA
100
AcDbEntity
8
1
62
256
6
ByLayer
370
13
48
1
60
0
100
AcDbSpline
70
4
71
3
72
81
73
77
40
0
40
0
40
0
40
0
40
0.03125
40
0.03125
40
0.0625
40
0.0625
40
0.09375
40
0.09375
40
0.125
40
0.125
40
0.15625
40
0.15625
40
0.1875
40
0.1875
40
0.21875
40
0.21875
40
0.25
40
0.25
40
0.28125
40
0.28125
40
0.3125
40
0.3125
40
0.3203125
40
0.32421875
40
0.32421875
40
0.328125
40
0.328125
40
0.34375
40
0.34375
40
0.375
40
0.375
40
0.40625
40
0.40625
40
0.4375
40
0.4375
40
0.46875
40
0.46875
40
0.5
40
0.5
40
0.53125
40
0.53125
40
0.5625
40
0.5625
40
0.59375
40
0.59375
40
0.625
40
0.625
40
0.65625
40
0.65625
40
0.66015625
40
0.66015625
40
0.6640625
40
0.6640625
40
0.671875
40
0.671875
40
0.6875
40
0.6875
40
0.71875
40
0.71875
40
0.75
40
0.75
40
0.78125
40
0.78125
40
0.8125
40
0.8125
40
0.84375
40
0.84375
40
0.875
40
0.875
40
0.90625
40
0.90625
40
0.9375
40
0.9375
40
0.96875
40
0.96875
40
1
40
1
40
1
40
1
41
1
10
149.2
20
-0.619550829803899
30
0
41
1
10
149.286876542198
20
-1.17583367176903
30
0
41
1
10
149.373753084396
20
-1.74477307691697
30
0
41
1
10
149.547506168791
20
-2.89262929430035
30
0
41
1
10
149.634382710989
20
-3.47151017223288
30
0
41
1
10
149.808135795384
20
-4.62028585368276
30
0
41
1
10
149.895012337582
20
-5.19011764902353
30
0
41
1
10
150.068765421977
20
-6.29971374903712
30
0
41
1
10
150.155641964175
20
-6.83939695083589
30
0
41
1
10
150.329395048571
20
-7.86770263196655
30
0
41
1
10
150.416271590768
20
-8.35624318420281
30
0
41
1
10
150.590024675164
20
-9.26387720560845
30
0
41
1
10
150.676901217362
20
-9.68290797152449
30
0
41
1
10
150.850654301757
20
-10.4379890212791
30
0
41
1
10
150.937530843955
20
-10.7740107338945
30
0
41
1
10
151.11128392835
20
-11.3558115883487
30
0
41
1
10
151.198160470548
20
-11.6016002083223
30
0
41
1
10
151.371913554943
20
-12.0022339323215
30
0
41
1
10
151.458790097141
20
-12.1571190526281
30
0
41
1
10
151.632543181537
20
-12.3810252147461
30
0
41
1
10
151.719419723735
20
-12.4501025009263
30
0
41
1
10
151.828015401482
20
-12.4886322387352
30
0
41
1
10
151.860594104806
20
-12.49661685664
30
0
41
1
10
151.89317280813
20
-12.4994344360602
30
0
41
1
10
151.914891943679
20
-12.5001871877883
30
0
41
1
10
151.925751511454
20
-12.5000040719098
30
0
41
1
10
151.980049350328
20
-12.4962641489869
30
0
41
1
10
152.023487621427
20
-12.4842014678286
30
0
41
1
10
152.153802434723
20
-12.4187475833484
30
0
41
1
10
152.240678976921
20
-12.3359700743657
30
0
41
1
10
152.414432061316
20
-12.0834739513627
30
0
41
1
10
152.501308603514
20
-11.9137007059957
30
0
41
1
10
152.67506168791
20
-11.4829661179617
30
0
41
1
10
152.761938230107
20
-11.2219689446783
30
0
41
1
10
152.935691314503
20
-10.6104842029502
30
0
41
1
10
153.022567856701
20
-10.2599932284372
30
0
41
1
10
153.196320941096
20
-9.47779999303484
30
0
41
1
10
153.283197483294
20
-9.04613257917839
30
0
41
1
10
153.456950567689
20
-8.11598751051483
30
0
41
1
10
153.543827109887
20
-7.61757701868513
30
0
41
1
10
153.717580194283
20
-6.57290372073859
30
0
41
1
10
153.80445673648
20
-6.02672411378629
30
0
41
1
10
153.978209820876
20
-4.90770136278027
30
0
41
1
10
154.065086363074
20
-4.33493733342573
30
0
41
1
10
154.238839447469
20
-3.18365290517693
30
0
41
1
10
154.325715989667
20
-2.60519137761162
30
0
41
1
10
154.499469074062
20
-1.46101181633639
30
0
41
1
10
154.58634561626
20
-0.895325017438012
30
0
41
1
10
154.684081726233
20
-0.27437627085277
30
0
41
1
10
154.694941294007
20
-0.205593860103392
30
0
41
1
10
154.716660429557
20
-0.0684768174584462
30
0
41
1
10
154.727519997332
20
-0.0002965488505708
30
0
41
1
10
154.760098700656
20
0.204924493992308
30
0
41
1
10
154.781817836205
20
0.342650231078579
30
0
41
1
10
154.846975242853
20
0.758272613246135
30
0
41
1
10
154.890413513952
20
1.03862264659395
30
0
41
1
10
155.020728327249
20
1.88685846883823
30
0
41
1
10
155.107604869447
20
2.46204374435595
30
0
41
1
10
155.281357953842
20
3.61485729161509
30
0
41
1
10
155.36823449604
20
4.19243787105202
30
0
41
1
10
155.541987580435
20
5.32996721590357
30
0
41
1
10
155.628864122633
20
5.88984378864691
30
0
41
1
10
155.802617207029
20
6.97062243946928
30
0
41
1
10
155.889493749226
20
7.49144064217376
30
0
41
1
10
156.063246833622
20
8.47389157269089
30
0
41
1
10
156.15012337582
20
8.93544806704085
30
0
41
1
10
156.323876460215
20
9.78277638035715
30
0
41
1
10
156.410753002413
20
10.1684984638015
30
0
41
1
10
156.584506086808
20
10.8531286937376
30
0
41
1
10
156.671382629006
20
11.1520243698767
30
0
41
1
10
156.845135713401
20
11.6585067025007
30
0
41
1
10
156.932012255599
20
11.8661170162733
30
0
41
1
10
157.105765339995
20
12.1918841802773
30
0
41
1
10
157.192641882192
20
12.3100897160554
30
0
41
1
10
157.366394966588
20
12.4641183846892
30
0
41
1
10
157.453271508786
20
12.5
30
0
41
1
10
157.540148050983
20
12.5
30
0
0
SPLINE
5
FB
100
AcDbEntity
8
1
62
256
6
ByLayer
370
13
48
1
60
0
100
AcDbSpline
70
4
71
3
72
43
73
39
40
0
40
0
40
0
40
0
40
0.0625000000000007
40
0.0625000000000007
40
0.125000000000001
40
0.125000000000001
40
0.187500000000002
40
0.187500000000002
40
0.250000000000003
40
0.250000000000003
40
0.312500000000003
40
0.312500000000003
40
0.375000000000004
40
0.375000000000004
40
0.437500000000004
40
0.437500000000004
40
0.500000000000005
40
0.500000000000005
40
0.562500000000006
40
0.562500000000006
40
0.625000000000006
40
0.625000000000006
40
0.687500000000007
40
0.687500000000007
40
0.703125000000007
40
0.703125000000007
40
0.710937500000007
40
0.710937500000007
40
0.718750000000007
40
0.750000000000006
40
0.750000000000006
40
0.812500000000004
40
0.812500000000004
40
0.875000000000003
40
0.875000000000003
40
0.937500000000002
40
0.937500000000002
40
1
40
1
40
1
40
1
41
1
10
156.475562020538
20
12.5
30
0
41
1
10
156.55837056327
20
12.5
30
0
41
1
10
156.641179106001
20
12.4674097221841
30
0
41
1
10
156.806796191466
20
12.3278969387201
30
0
41
1
10
156.889604734197
20
12.2209282962758
30
0
41
1
10
157.055221819661
20
11.9262601471273
30
0
41
1
10
157.138030362393
20
11.7385210418794
30
0
41
1
10
157.303647447857
20
11.2800785894785
30
0
41
1
10
157.386455990589
20
11.0093531612835
30
0
41
1
10
157.552073076053
20
10.3878376246419
30
0
41
1
10
157.634881618785
20
10.0370516405415
30
0
41
1
10
157.800498704249
20
9.26374614439297
30
0
41
1
10
157.883307246981
20
8.84125935843375
30
0
41
1
10
158.048924332445
20
7.93776383120957
30
0
41
1
10
158.131732875177
20
7.45681059624101
30
0
41
1
10
158.297349960641
20
6.45312020812943
30
0
41
1
10
158.380158503373
20
5.93044893798833
30
0
41
1
10
158.545775588837
20
4.86171352343956
30
0
41
1
10
158.628584131569
20
4.31571122488879
30
0
41
1
10
158.794201217033
20
3.21838658051468
30
0
41
1
10
158.877009759765
20
2.66711067019787
30
0
41
1
10
159.042626845229
20
1.5753298081369
30
0
41
1
10
159.125435387961
20
1.03485056644013
30
0
41
1
10
159.228946066376
20
0.374116169115439
30
0
41
1
10
159.249648202059
20
0.242704205579287
30
0
41
1
10
159.280701405583
20
0.046815099641293
30
0
41
1
10
159.291052473425
20
-0.0181473199423863
30
0
41
1
10
159.311754609108
20
-0.14861950929054
30
0
41
1
10
159.363509948315
20
-0.475828711466448
30
0
41
1
10
159.415265287523
20
-0.807948766574157
30
0
41
1
10
159.539478101621
20
-1.61228981977223
30
0
41
1
10
159.622286644353
20
-2.15828606543292
30
0
41
1
10
159.787903729817
20
-3.25568705112025
30
0
41
1
10
159.870712272549
20
-3.80705849297073
30
0
41
1
10
160.036329358012
20
-4.89829263721339
30
0
41
1
10
160.119137900745
20
-5.43810245344983
30
0
41
1
10
160.284754986209
20
-6.48783670723717
30
0
41
1
10
160.36756352894
20
-6.99769630327239
30
0
41
1
10
160.450372071672
20
-7.48359617880445
30
0
0
SPLINE
5
FC
100
AcDbEntity
8
1
62
256
6
ByLayer
370
13
48
1
60
0
100
AcDbSpline
70
4
71
3
72
80
73
76
40
0
40
0
40
0
40
0
40
0.0312500000000025
40
0.0312500000000025
40
0.0625000000000051
40
0.0625000000000051
40
0.0937500000000076
40
0.0937500000000076
40
0.12500000000001
40
0.12500000000001
40
0.156250000000013
40
0.156250000000013
40
0.187500000000015
40
0.187500000000015
40
0.218750000000018
40
0.218750000000018
40
0.25000000000002
40
0.25000000000002
40
0.281250000000023
40
0.281250000000023
40
0.285156250000023
40
0.285156250000023
40
0.289062500000023
40
0.296875000000023
40
0.296875000000023
40
0.312500000000023
40
0.312500000000023
40
0.343750000000024
40
0.343750000000024
40
0.375000000000024
40
0.375000000000024
40
0.406250000000025
40
0.406250000000025
40
0.437500000000025
40
0.437500000000025
40
0.468750000000026
40
0.468750000000026
40
0.500000000000027
40
0.500000000000027
40
0.531250000000027
40
0.531250000000027
40
0.562500000000028
40
0.562500000000028
40
0.593750000000028
40
0.593750000000028
40
0.625000000000029
40
0.625000000000029
40
0.640625000000029
40
0.640625000000029
40
0.644531250000029
40
0.644531250000029
40
0.648437500000029
40
0.656250000000028
40
0.656250000000028
40
0.687500000000026
40
0.687500000000026
40
0.718750000000023
40
0.718750000000023
40
0.750000000000021
40
0.750000000000021
40
0.781250000000018
40
0.781250000000018
40
0.812500000000016
40
0.812500000000016
40
0.843750000000013
40
0.843750000000013
40
0.87500000000001
40
0.87500000000001
40
0.906250000000008
40
0.906250000000008
40
0.937500000000005
40
0.937500000000005
40
0.968750000000003
40
0.968750000000003
40
1
40
1
40
1
40
1
41
1
10
149.2
20
-3.80617586236517
30
0
41
1
10
149.281824068963
20
-4.34818291490353
30
0
41
1
10
149.363648137926
20
-4.88739058256152
30
0
41
1
10
149.527296275852
20
-5.94286912117497
30
0
41
1
10
149.609120344815
20
-6.45908160608735
30
0
41
1
10
149.772768482741
20
-7.45083982343465
30
0
41
1
10
149.854592551704
20
-7.92632348131079
30
0
41
1
10
150.01824068963
20
-8.82044284970161
30
0
41
1
10
150.100064758593
20
-9.23902606856583
30
0
41
1
10
150.263712896519
20
-10.006482776639
30
0
41
1
10
150.345536965482
20
-10.3553248285257
30
0
41
1
10
150.509185103408
20
-10.9750562538733
30
0
41
1
10
150.591009172371
20
-11.2459407784411
30
0
41
1
10
150.754657310297
20
-11.7066917985275
30
0
41
1
10
150.83648137926
20
-11.8965780804807
30
0
41
1
10
151.000129517186
20
-12.1972064024023
30
0
41
1
10
151.081953586149
20
-12.3079850607061
30
0
41
1
10
151.245601724075
20
-12.45633071434
30
0
41
1
10
151.327425793038
20
-12.4939410677336
30
0
41
1
10
151.419477870622
20
-12.4999942542825
30
0
41
1
10
151.429705879242
20
-12.5001659066845
30
0
41
1
10
151.450161896483
20
-12.4995168174853
30
0
41
1
10
151.480845922344
20
-12.4970462519748
30
0
41
1
10
151.511529948205
20
-12.4899998933432
30
0
41
1
10
151.572897999927
20
-12.4695887409335
30
0
41
1
10
151.613810034409
20
-12.4475521884784
30
0
41
1
10
151.736546137853
20
-12.354559543846
30
0
41
1
10
151.818370206816
20
-12.2566151169036
30
0
41
1
10
151.982018344742
20
-11.9824050435474
30
0
41
1
10
152.063842413705
20
-11.806100931416
30
0
41
1
10
152.227490551631
20
-11.3725082882122
30
0
41
1
10
152.309314620594
20
-11.1151964773614
30
0
41
1
10
152.47296275852
20
-10.5217373757599
30
0
41
1
10
152.554786827483
20
-10.1855904519123
30
0
41
1
10
152.71843496541
20
-9.44179518740665
30
0
41
1
10
152.800259034372
20
-9.03417398983009
30
0
41
1
10
152.963907172298
20
-8.15954211040622
30
0
41
1
10
153.045731241261
20
-7.69258105716344
30
0
41
1
10
153.209379379188
20
-6.71498367825865
30
0
41
1
10
153.29120344815
20
-6.20440875453403
30
0
41
1
10
153.454851586077
20
-5.15718836371948
30
0
41
1
10
153.536675655039
20
-4.62060276424347
30
0
41
1
10
153.700323792965
20
-3.53898537868116
30
0
41
1
10
153.782147861928
20
-2.99400067798328
30
0
41
1
10
153.945795999855
20
-1.91158493787907
30
0
41
1
10
154.027620068817
20
-1.37418216762308
30
0
41
1
10
154.150356172262
20
-0.583663609901805
30
0
41
1
10
154.191268206744
20
-0.322730830896091
30
0
41
1
10
154.242408249845
20
-0.000619558893618
30
0
41
1
10
154.252636258466
20
0.0635976043843129
30
0
41
1
10
154.273092275706
20
0.192703865425614
30
0
41
1
10
154.303776301568
20
0.386960201321443
30
0
41
1
10
154.334460327429
20
0.582918902009908
30
0
41
1
10
154.436740413633
20
1.23947345961184
30
0
41
1
10
154.518564482596
20
1.77559028608266
30
0
41
1
10
154.682212620522
20
2.85666349888209
30
0
41
1
10
154.764036689485
20
3.40159328663694
30
0
41
1
10
154.927684827411
20
4.48452802167131
30
0
41
1
10
155.009508896374
20
5.02248731960395
30
0
41
1
10
155.1731570343
20
6.07396274205232
30
0
41
1
10
155.254981103263
20
6.58741970018468
30
0
41
1
10
155.418629241189
20
7.57221791885857
30
0
41
1
10
155.500453310152
20
8.04349739250233
30
0
41
1
10
155.664101448078
20
8.92797485666446
30
0
41
1
10
155.745925517041
20
9.34112174639785
30
0
41
1
10
155.909573654967
20
10.0968202062771
30
0
41
1
10
155.99139772393
20
10.439342468389
30
0
41
1
10
156.155045861856
20
11.0459746405086
30
0
41
1
10
156.236869930819
20
11.3100819522685
30
0
41
1
10
156.400518068745
20
11.757254553694
30
0
41
1
10
156.482342137708
20
11.9403414065111
30
0
41
1
10
156.645990275634
20
12.2277297585871
30
0
41
1
10
156.727814344597
20
12.332068836786
30
0
41
1
10
156.891462482523
20
12.4681822160224
30
0
41
1
10
156.973286551486
20
12.5
30
0
41
1
10
157.055110620449
20
12.5
30
0
0
SPLINE
5
FD
100
AcDbEntity
8
1
62
256
6
ByLayer
370
13
48
1
60
0
100
AcDbSpline
70
4
71
3
72
43
73
39
40
0
40
0
40
0
40
0
40
0.0625000000000016
40
0.0625000000000016
40
0.125000000000003
40
0.125000000000003
40
0.187500000000005
40
0.187500000000005
40
0.250000000000006
40
0.250000000000006
40
0.312500000000008
40
0.312500000000008
40
0.37500000000001
40
0.37500000000001
40
0.437500000000011
40
0.437500000000011
40
0.500000000000013
40
0.500000000000013
40
0.562500000000014
40
0.562500000000014
40
0.625000000000016
40
0.625000000000016
40
0.632812500000016
40
0.632812500000016
40
0.640625000000016
40
0.656250000000015
40
0.656250000000015
40
0.687500000000014
40
0.687500000000014
40
0.750000000000011
40
0.750000000000011
40
0.812500000000008
40
0.812500000000008
40
0.875000000000006
40
0.875000000000006
40
0.937500000000003
40
0.937500000000003
40
1
40
1
40
1
40
1
41
1
10
155.990524590003
20
12.5
30
0
41
1
10
156.083438079205
20
12.5
30
0
41
1
10
156.176351568406
20
12.4589387695585
30
0
41
1
10
156.362178546809
20
12.2819682333472
30
0
41
1
10
156.45509203601
20
12.1459775126198
30
0
41
1
10
156.640919014413
20
11.7710331309062
30
0
41
1
10
156.733832503615
20
11.5320151232396
30
0
41
1
10
156.919659482017
20
10.949942943847
30
0
41
1
10
157.012572971219
20
10.606865384768
30
0
41
1
10
157.198399949622
20
9.82404804656028
30
0
41
1
10
157.291313438823
20
9.38434075693883
30
0
41
1
10
157.477140417226
20
8.42399158855241
30
0
41
1
10
157.570053906428
20
7.90343451230791
30
0
41
1
10
157.75588088483
20
6.80367339323857
30
0
41
1
10
157.848794374032
20
6.22458378393412
30
0
41
1
10
158.034621352435
20
5.03351367203533
30
0
41
1
10
158.127534841636
20
4.42164540051809
30
0
41
1
10
158.313361820039
20
3.19071750267253
30
0
41
1
10
158.406275309241
20
2.57174114334839
30
0
41
1
10
158.592102287644
20
1.34921465327443
30
0
41
1
10
158.685015776845
20
0.745706579842789
30
0
41
1
10
158.789543452197
20
0.0853504579682749
30
0
41
1
10
158.801157638347
20
0.0124037692929164
30
0
41
1
10
158.824386010647
20
-0.13388227067847
30
0
41
1
10
158.859228569098
20
-0.354094095411625
30
0
41
1
10
158.894071127548
20
-0.576526501284917
30
0
41
1
10
158.963756244449
20
-1.02398062463732
30
0
41
1
10
159.01021298905
20
-1.32574633432023
30
0
41
1
10
159.149583222852
20
-2.23807083277356
30
0
41
1
10
159.242496712054
20
-2.85579530859883
30
0
41
1
10
159.428323690456
20
-4.08859379080477
30
0
41
1
10
159.521237179658
20
-4.70359155261656
30
0
41
1
10
159.707064158061
20
-5.90566185477383
30
0
41
1
10
159.799977647262
20
-6.49262576510387
30
0
41
1
10
159.985804625665
20
-7.61264031724991
30
0
41
1
10
160.078718114867
20
-8.14557453159586
30
0
41
1
10
160.26454509327
20
-9.13431233698068
30
0
41
1
10
160.357458582471
20
-9.590023642132
30
0
41
1
10
160.450372071672
20
-9.99857385485853
30
0
0
SPLINE
5
FE
100
AcDbEntity
8
1
62
256
6
ByLayer
370
13
48
1
60
0
100
AcDbSpline
70
4
71
3
72
81
73
77
40
0
40
0
40
0
40
0
40
0.0312500000000019
40
0.0312500000000019
40
0.0625000000000038
40
0.0625000000000038
40
0.0937500000000057
40
0.0937500000000057
40
0.125000000000008
40
0.125000000000008
40
0.15625000000001
40
0.15625000000001
40
0.187500000000011
40
0.187500000000011
40
0.218750000000013
40
0.218750000000013
40
0.234375000000014
40
0.234375000000014
40
0.238281250000014
40
0.238281250000014
40
0.242187500000015
40
0.250000000000014
40
0.250000000000014
40
0.281250000000014
40
0.281250000000014
40
0.312500000000013
40
0.312500000000013
40
0.343750000000013
40
0.343750000000013
40
0.375000000000012
40
0.375000000000012
40
0.406250000000012
40
0.406250000000012
40
0.437500000000011
40
0.437500000000011
40
0.468750000000011
40
0.468750000000011
40
0.50000000000001
40
0.50000000000001
40
0.53125000000001
40
0.53125000000001
40
0.562500000000009
40
0.562500000000009
40
0.593750000000009
40
0.593750000000009
40
0.609375000000008
40
0.609375000000008
40
0.617187500000008
40
0.617187500000008
40
0.621093750000008
40
0.621093750000008
40
0.625000000000008
40
0.625000000000008
40
0.656250000000007
40
0.656250000000007
40
0.687500000000006
40
0.687500000000006
40
0.718750000000006
40
0.718750000000006
40
0.750000000000005
40
0.750000000000005
40
0.781250000000005
40
0.781250000000005
40
0.812500000000004
40
0.812500000000004
40
0.843750000000003
40
0.843750000000003
40
0.875000000000003
40
0.875000000000003
40
0.906250000000002
40
0.906250000000002
40
0.937500000000001
40
0.937500000000001
40
0.968750000000001
40
0.968750000000001
40
1
40
1
40
1
40
1
41
1
10
149.2
20
-6.91912742824621
30
0
41
1
10
149.276771595728
20
-7.38529898471165
30
0
41
1
10
149.353543191457
20
-7.83371048369295
30
0
41
1
10
149.507086382913
20
-8.68163632568908
30
0
41
1
10
149.583857978641
20
-9.0811114834851
30
0
41
1
10
149.737401170098
20
-9.82016395581002
30
0
41
1
10
149.814172765826
20
-10.1597157439805
30
0
41
1
10
149.967715957283
20
-10.7713856409497
30
0
41
1
10
150.044487553011
20
-11.0434961194553
30
0
41
1
10
150.198030744468
20
-11.5167221473739
30
0
41
1
10
150.274802340196
20
-11.7178476800044
30
0
41
1
10
150.428345531652
20
-12.0494764545799
30
0
41
1
10
150.505117127381
20
-12.1800030819521
30
0
41
1
10
150.658660318837
20
-12.3742207037655
30
0
41
1
10
150.735431914566
20
-12.4379421996922
30
0
41
1
10
150.850589308158
20
-12.4881729821281
30
0
41
1
10
150.888975106022
20
-12.4973751505763
30
0
41
1
10
150.936957353352
20
-12.5000472891622
30
0
41
1
10
150.946553802818
20
-12.5001418588359
30
0
41
1
10
150.96574670175
20
-12.4994562968425
30
0
41
1
10
150.994536050148
20
-12.4971091527977
30
0
41
1
10
151.023325398546
20
-12.4907354585515
30
0
41
1
10
151.119289893207
20
-12.4602420908215
30
0
41
1
10
151.196061488935
20
-12.4061808023683
30
0
41
1
10
151.349604680392
20
-12.2321103358657
30
0
41
1
10
151.42637627612
20
-12.112070146474
30
0
41
1
10
151.579919467577
20
-11.8017913463333
30
0
41
1
10
151.656691063305
20
-11.611527839802
30
0
41
1
10
151.810234254761
20
-11.1598416101121
30
0
41
1
10
151.88700585049
20
-10.8984065158666
30
0
41
1
10
152.040549041946
20
-10.3072893548447
30
0
41
1
10
152.117320637674
20
-9.97761210712932
30
0
41
1
10
152.270863829131
20
-9.25692453281391
30
0
41
1
10
152.347635424859
20
-8.8659371748935
30
0
41
1
10
152.501178616316
20
-8.03312750300006
30
0
41
1
10
152.577950212044
20
-7.59134272652594
30
0
41
1
10
152.731493403501
20
-6.67009475503028
30
0
41
1
10
152.808264999229
20
-6.19067643654185
30
0
41
1
10
152.961808190685
20
-5.2087094391255
30
0
41
1
10
153.038579786414
20
-4.7062044063868
30
0
41
1
10
153.19212297787
20
-3.69264243721631
30
0
41
1
10
153.268894573598
20
-3.18162065292296
30
0
41
1
10
153.422437765055
20
-2.1644261203966
30
0
41
1
10
153.499209360783
20
-1.65827588248285
30
0
41
1
10
153.614366754376
20
-0.91119657422621
30
0
41
1
10
153.65275255224
20
-0.66417638453882
30
0
41
1
10
153.710331249036
20
-0.297541302289972
30
0
41
1
10
153.729524147968
20
-0.175977548020228
30
0
41
1
10
153.758313496366
20
0.0052969111110599
30
0
41
1
10
153.767909945832
20
0.0655651624418567
30
0
41
1
10
153.787102844764
20
0.186691566948952
30
0
41
1
10
153.79669929423
20
0.247430082549357
30
0
41
1
10
153.883067339425
20
0.795580409910144
30
0
41
1
10
153.959838935153
20
1.29362317803867
30
0
41
1
10
154.11338212661
20
2.30141419106394
30
0
41
1
10
154.190153722338
20
2.81114769697629
30
0
41
1
10
154.343696913794
20
3.83004832330204
30
0
41
1
10
154.420468509523
20
4.33918730126001
30
0
41
1
10
154.574011700979
20
5.34289225362528
30
0
41
1
10
154.650783296707
20
5.83741876273831
30
0
41
1
10
154.804326488164
20
6.79718318650239
30
0
41
1
10
154.881098083892
20
7.26237591560334
30
0
41
1
10
155.034641275349
20
8.14934303691638
30
0
41
1
10
155.111412871077
20
8.57107463198895
30
0
41
1
10
155.264956062534
20
9.35892838443158
30
0
41
1
10
155.341727658262
20
9.725018467854
30
0
41
1
10
155.495270849719
20
10.3924910938756
30
0
41
1
10
155.572042445447
20
10.6938581870078
30
0
41
1
10
155.725585636903
20
11.2266120528704
30
0
41
1
10
155.802357232632
20
11.4580016615162
30
0
41
1
10
155.955900424088
20
11.8495443315304
30
0
41
1
10
156.032672019816
20
12.0097157948997
30
0
41
1
10
156.186215211273
20
12.2612496785306
30
0
41
1
10
156.262986807001
20
12.3526403928752
30
0
41
1
10
156.416529998458
20
12.4719997085179
30
0
41
1
10
156.493301594186
20
12.5
30
0
41
1
10
156.570073189914
20
12.5
30
0
0
SPLINE
5
FF
100
AcDbEntity
8
1
62
256
6
ByLayer
370
13
48
1
60
0
100
AcDbSpline
70
4
71
3
72
55
73
51
40
0
40
0
40
0
40
0
40
0.0625000000000013
40
0.0625000000000013
40
0.125000000000003
40
0.125000000000003
40
0.187500000000004
40
0.187500000000004
40
0.218750000000004
40
0.218750000000004
40
0.250000000000005
40
0.250000000000005
40
0.281250000000006
40
0.281250000000006
40
0.312500000000006
40
0.312500000000006
40
0.343750000000007
40
0.343750000000007
40
0.375000000000007
40
0.375000000000007
40
0.437500000000008
40
0.437500000000008
40
0.500000000000009
40
0.500000000000009
40
0.56250000000001
40
0.56250000000001
40
0.57031250000001
40
0.57031250000001
40
0.57812500000001
40
0.593750000000009
40
0.593750000000009
40
0.625000000000009
40
0.625000000000009
40
0.687500000000007
40
0.687500000000007
40
0.750000000000005
40
0.750000000000005
40
0.781250000000005
40
0.781250000000005
40
0.812500000000004
40
0.812500000000004
40
0.843750000000003
40
0.843750000000003
40
0.875000000000003
40
0.875000000000003
40
0.906250000000002
40
0.906250000000002
40
0.937500000000001
40
0.937500000000001
40
1
40
1
40
1
40
1
41
1
10
155.505487159468
20
12.5
30
0
41
1
10
155.608505595139
20
12.5
30
0
41
1
10
155.71152403081
20
12.44947623893
30
0
41
1
10
155.917560902152
20
12.2303226986385
30
0
41
1
10
156.020579337823
20
12.0615580673209
30
0
41
1
10
156.226616209165
20
11.5962012475029
30
0
41
1
10
156.329634644836
20
11.2995134069264
30
0
41
1
10
156.484162298342
20
10.7597505616411
30
0
41
1
10
156.535671516178
20
10.5641384431441
30
0
41
1
10
156.638689951849
20
10.1429482093895
30
0
41
1
10
156.690199169684
20
9.91737143581625
30
0
41
1
10
156.793217605355
20
9.43846682789552
30
0
41
1
10
156.84472682319
20
9.1851419967563
30
0
41
1
10
156.947745258861
20
8.65369005294608
30
0
41
1
10
156.999254476697
20
8.37556739742899
30
0
41
1
10
157.102272912368
20
7.79808952742405
30
0
41
1
10
157.153782130203
20
7.49873984578852
30
0
41
1
10
157.256800565874
20
6.88284711689502
30
0
41
1
10
157.308309783709
20
6.56631018354949
30
0
41
1
10
157.462837437216
20
5.5974072602632
30
0
41
1
10
157.565855872887
20
4.92580422114324
30
0
41
1
10
157.771892744228
20
3.56645156838101
30
0
41
1
10
157.8749111799
20
2.87885566910268
30
0
41
1
10
158.080948051241
20
1.51941297224778
30
0
41
1
10
158.183966486912
20
0.847645853047908
30
0
41
1
10
158.299862227042
20
0.114614366504952
30
0
41
1
10
158.312739531501
20
0.033656234609083
30
0
41
1
10
158.338494140419
20
-0.128468904737645
30
0
41
1
10
158.377126053795
20
-0.372622009621722
30
0
41
1
10
158.415757967172
20
-0.619497628919049
30
0
41
1
10
158.493021793925
20
-1.11636909626182
30
0
41
1
10
158.54453101176
20
-1.45179283478609
30
0
41
1
10
158.699058665267
20
-2.46592756340951
30
0
41
1
10
158.802077100938
20
-3.15269821233659
30
0
41
1
10
159.00811397228
20
-4.51723659661863
30
0
41
1
10
159.111132407951
20
-5.19486404921125
30
0
41
1
10
159.265660061457
20
-6.17820522083625
30
0
41
1
10
159.317169279292
20
-6.50044685676531
30
0
41
1
10
159.420187714963
20
-7.12946779954058
30
0
41
1
10
159.471696932799
20
-7.43624091045029
30
0
41
1
10
159.57471536847
20
-8.03014490998711
30
0
41
1
10
159.626224586305
20
-8.31726996827723
30
0
41
1
10
159.729243021976
20
-8.86809745690317
30
0
41
1
10
159.780752239812
20
-9.13179494363698
30
0
41
1
10
159.883770675482
20
-9.63254996921856
30
0
41
1
10
159.935279893318
20
-9.86960388426908
30
0
41
1
10
160.038298328989
20
-10.3145476168373
30
0
41
1
10
160.089807546824
20
-10.5224354113079
30
0
41
1
10
160.244335200331
20
-11.0997346268771
30
0
41
1
10
160.347353636002
20
-11.4223810525708
30
0
41
1
10
160.450372071672
20
-11.6806866490933
30
0
0
SPLINE
5
100
100
AcDbEntity
8
1
62
256
6
ByLayer
370
13
48
1
60
0
100
AcDbSpline
70
4
71
3
72
79
73
75
40
0
40
0
40
0
40
0
40
0.0312499999999985
40
0.0312499999999985
40
0.062499999999997
40
0.062499999999997
40
0.0937499999999955
40
0.0937499999999955
40
0.124999999999994
40
0.124999999999994
40
0.156249999999993
40
0.156249999999993
40
0.171874999999992
40
0.171874999999992
40
0.179687499999992
40
0.179687499999992
40
0.187499999999991
40
0.187499999999991
40
0.218749999999991
40
0.218749999999991
40
0.249999999999991
40
0.249999999999991
40
0.28124999999999
40
0.28124999999999
40
0.31249999999999
40
0.31249999999999
40
0.34374999999999
40
0.34374999999999
40
0.374999999999989
40
0.374999999999989
40
0.406249999999989
40
0.406249999999989
40
0.437499999999989
40
0.437499999999989
40
0.468749999999989
40
0.468749999999989
40
0.499999999999988
40
0.499999999999988
40
0.531249999999988
40
0.531249999999988
40
0.562499999999988
40
0.562499999999988
40
0.578124999999987
40
0.578124999999987
40
0.585937499999988
40
0.589843749999988
40
0.589843749999988
40
0.593749999999988
40
0.593749999999988
40
0.624999999999989
40
0.624999999999989
40
0.65624999999999
40
0.65624999999999
40
0.68749999999999
40
0.68749999999999
40
0.718749999999991
40
0.718749999999991
40
0.749999999999992
40
0.749999999999992
40
0.781249999999993
40
0.781249999999993
40
0.812499999999994
40
0.812499999999994
40
0.843749999999995
40
0.843749999999995
40
0.874999999999996
40
0.874999999999996
40
0.906249999999997
40
0.906249999999997
40
0.937499999999998
40
0.937499999999998
40
0.968749999999999
40
0.968749999999999
40
1
40
1
40
1
40
1
41
1
10
149.2
20
-9.56711035473367
30
0
41
1
10
149.271719122494
20
-9.90636489855555
30
0
41
1
10
149.343438244987
20
-10.2190540066604
30
0
41
1
10
149.486876489974
20
-10.7854241325069
30
0
41
1
10
149.558595612468
20
-11.0391002524873
30
0
41
1
10
149.702033857455
20
-11.4845675000969
30
0
41
1
10
149.773752979948
20
-11.676365455715
30
0
41
1
10
149.917191224935
20
-11.9982010272812
30
0
41
1
10
149.988910347429
20
-12.1282546122202
30
0
41
1
10
150.132348592416
20
-12.3293738750092
30
0
41
1
10
150.20406771491
20
-12.4004607974907
30
0
41
1
10
150.31164639865
20
-12.4664849905837
30
0
41
1
10
150.347505959897
20
-12.4817394677606
30
0
41
1
10
150.401295301767
20
-12.4950466669527
30
0
41
1
10
150.41922508239
20
-12.4978872633991
30
0
41
1
10
150.455084643637
20
-12.5004773430924
30
0
41
1
10
150.47301442426
20
-12.500241286379
30
0
41
1
10
150.562663327377
20
-12.4913466794392
30
0
41
1
10
150.634382449871
20
-12.4593292268061
30
0
41
1
10
150.777820694858
20
-12.3396227126563
30
0
41
1
10
150.849539817351
20
-12.2519111072061
30
0
41
1
10
150.992978062339
20
-12.0164975969857
30
0
41
1
10
151.064697184832
20
-11.8687755482584
30
0
41
1
10
151.208135429819
20
-11.5112696097982
30
0
41
1
10
151.279854552313
20
-11.3014720298373
30
0
41
1
10
151.4232927973
20
-10.8205140778427
30
0
41
1
10
151.495011919793
20
-10.5493500873554
30
0
41
1
10
151.63845016478
20
-9.94940165042379
30
0
41
1
10
151.710169287274
20
-9.62062566362971
30
0
41
1
10
151.853607532261
20
-8.91217193312102
30
0
41
1
10
151.925326654755
20
-8.53251425417395
30
0
41
1
10
152.068764899742
20
-7.7315598508238
30
0
41
1
10
152.140484022235
20
-7.31029172989841
30
0
41
1
10
152.283922267222
20
-6.43717892087957
30
0
41
1
10
152.355641389716
20
-5.98536649359775
30
0
41
1
10
152.499079634703
20
-5.06309420796049
30
0
41
1
10
152.570798757196
20
-4.59266495184309
30
0
41
1
10
152.714237002183
20
-3.64499146524375
30
0
41
1
10
152.785956124677
20
-3.16777183733024
30
0
41
1
10
152.929394369664
20
-2.21740987429459
30
0
41
1
10
153.001113492157
20
-1.74428368090531
30
0
41
1
10
153.108692175898
20
-1.04465232897522
30
0
41
1
10
153.144551737145
20
-0.813104556159061
30
0
41
1
10
153.198341079015
20
-0.469017836618605
30
0
41
1
10
153.22523574995
20
-0.297781783011914
30
0
41
1
10
153.252130420885
20
-0.127882523177249
30
0
41
1
10
153.270060201508
20
-0.0149264815281356
30
0
41
1
10
153.27902509182
20
0.0413479616745462
30
0
41
1
10
153.359709104625
20
0.550084640285689
30
0
41
1
10
153.431428227119
20
1.01223770094794
30
0
41
1
10
153.574866472106
20
1.94873532460261
30
0
41
1
10
153.646585594599
20
2.4230713769885
30
0
41
1
10
153.790023839586
20
3.37436614498526
30
0
41
1
10
153.86174296208
20
3.85130742499652
30
0
41
1
10
154.005181207067
20
4.7967566558014
30
0
41
1
10
154.076900329561
20
5.26523893511532
30
0
41
1
10
154.220338574548
20
6.1818782966198
30
0
41
1
10
154.292057697041
20
6.63000423237273
30
0
41
1
10
154.435495942028
20
7.49406824467965
30
0
41
1
10
154.507215064522
20
7.90997425393377
30
0
41
1
10
154.650653309509
20
8.6987322923938
30
0
41
1
10
154.722372432002
20
9.07155667977278
30
0
41
1
10
154.865810676989
20
9.76519845310969
30
0
41
1
10
154.937529799483
20
10.0859973185191
30
0
41
1
10
155.08096804447
20
10.6692574940824
30
0
41
1
10
155.152687166964
20
10.9317121248598
30
0
41
1
10
155.296125411951
20
11.3949619651185
30
0
41
1
10
155.367844534444
20
11.5957624227634
30
0
41
1
10
155.511282779431
20
11.9354099969034
30
0
41
1
10
155.583001901925
20
12.0742719832751
30
0
41
1
10
155.726440146912
20
12.2924639942954
30
0
41
1
10
155.798159269406
20
12.3718147561091
30
0
41
1
10
155.941597514393
20
12.4755714689867
30
0
41
1
10
156.013316636886
20
12.5
30
0
41
1
10
156.08503575938
20
12.5
30
0
0
SPLINE
5
101
100
AcDbEntity
8
1
62
256
6
ByLayer
370
13
48
1
60
0
100
AcDbSpline
70
4
71
3
72
74
73
70
40
0
40
0
40
0
40
0
40
0.0312499999999995
40
0.0312499999999995
40
0.0624999999999989
40
0.0624999999999989
40
0.0937499999999984
40
0.0937499999999984
40
0.124999999999998
40
0.124999999999998
40
0.156249999999997
40
0.156249999999997
40
0.187499999999997
40
0.187499999999997
40
0.218749999999996
40
0.218749999999996
40
0.249999999999996
40
0.249999999999996
40
0.281249999999995
40
0.281249999999995
40
0.312499999999995
40
0.312499999999995
40
0.343749999999994
40
0.343749999999994
40
0.374999999999994
40
0.374999999999994
40
0.406249999999993
40
0.406249999999993
40
0.437499999999993
40
0.437499999999993
40
0.468749999999992
40
0.468749999999992
40
0.499999999999992
40
0.499999999999992
40
0.515624999999991
40
0.515624999999991
40
0.523437499999991
40
0.523437499999991
40
0.531249999999991
40
0.531249999999991
40
0.562499999999992
40
0.562499999999992
40
0.593749999999993
40
0.593749999999993
40
0.624999999999993
40
0.624999999999993
40
0.656249999999994
40
0.656249999999994
40
0.687499999999994
40
0.687499999999994
40
0.718749999999995
40
0.718749999999995
40
0.749999999999995
40
0.749999999999995
40
0.781249999999996
40
0.781249999999996
40
0.812499999999997
40
0.812499999999997
40
0.843749999999997
40
0.843749999999997
40
0.874999999999998
40
0.874999999999998
40
0.906249999999998
40
0.906249999999998
40
0.937499999999999
40
0.937499999999999
40
0.968749999999999
40
0.968749999999999
40
1
40
1
40
1
40
1
41
1
10
155.020449728934
20
12.5
30
0
41
1
10
155.077011420004
20
12.5
30
0
41
1
10
155.133573111074
20
12.4848176063214
30
0
41
1
10
155.246696493215
20
12.4210626483101
30
0
41
1
10
155.303258184285
20
12.3724832000254
30
0
41
1
10
155.416381566425
20
12.2394186976365
30
0
41
1
10
155.472943257495
20
12.1549269146662
30
0
41
1
10
155.586066639636
20
11.948251831493
30
0
41
1
10
155.642628330706
20
11.8260626910906
30
0
41
1
10
155.755751712846
20
11.5431280098149
30
0
41
1
10
155.812313403916
20
11.3823782976806
30
0
41
1
10
155.925436786057
20
11.0225318258636
30
0
41
1
10
155.981998477127
20
10.8234332600536
30
0
41
1
10
156.095121859267
20
10.3882648966269
30
0
41
1
10
156.151683550338
20
10.1521961265331
30
0
41
1
10
156.264806932478
20
9.6456428524119
30
0
41
1
10
156.321368623548
20
9.37516233088314
30
0
41
1
10
156.434492005688
20
8.80344567600741
30
0
41
1
10
156.491053696759
20
8.50221619629261
30
0
41
1
10
156.604177078899
20
7.87360532381797
30
0
41
1
10
156.660738769969
20
7.5462325939329
30
0
41
1
10
156.77386215211
20
6.87064983813215
30
0
41
1
10
156.83042384318
20
6.52244955527172
30
0
41
1
10
156.94354722532
20
5.81095732750805
30
0
41
1
10
157.000108916391
20
5.4476751764899
30
0
41
1
10
157.113232298531
20
4.71189877951551
30
0
41
1
10
157.169793989601
20
4.33941342695326
30
0
41
1
10
157.282917371742
20
3.59096025334736
30
0
41
1
10
157.339479062812
20
3.21499969664981
30
0
41
1
10
157.452602444952
20
2.46493084921369
30
0
41
1
10
157.509164136022
20
2.09082776898589
30
0
41
1
10
157.622287518163
20
1.34922523609899
30
0
41
1
10
157.678849209233
20
0.981728828731235
30
0
41
1
10
157.763691745838
20
0.438469934585271
30
0
41
1
10
157.791972591373
20
0.258708793521009
30
0
41
1
10
157.834393859676
20
-0.0086200660095415
30
0
41
1
10
157.848534282443
20
-0.0973971605655493
30
0
41
1
10
157.876815127978
20
-0.27621965807495
30
0
41
1
10
157.890955550746
20
-0.3660057286653
30
0
41
1
10
157.961657664584
20
-0.816675500226296
30
0
41
1
10
158.018219355654
20
-1.18280698067682
30
0
41
1
10
158.131342737795
20
-1.92233607942814
30
0
41
1
10
158.187904428865
20
-2.29573097104171
30
0
41
1
10
158.301027811005
20
-3.04514014903191
30
0
41
1
10
158.357589502075
20
-3.42114955143561
30
0
41
1
10
158.470712884216
20
-4.17053460981958
30
0
41
1
10
158.527274575286
20
-4.54390329178077
30
0
41
1
10
158.640397957426
20
-5.28232579044246
30
0
41
1
10
158.696959648496
20
-5.6473709195742
30
0
41
1
10
158.810083030637
20
-6.36327392962315
30
0
41
1
10
158.866644721707
20
-6.71412209559324
30
0
41
1
10
158.979768103847
20
-7.39584653497622
30
0
41
1
10
159.036329794918
20
-7.72671299174402
30
0
41
1
10
159.149453177058
20
-8.36307387578452
30
0
41
1
10
159.206014868128
20
-8.66855941336036
30
0
41
1
10
159.319138250269
20
-9.24942746151598
30
0
41
1
10
159.375699941339
20
-9.52480296503882
30
0
41
1
10
159.488823323479
20
-10.0416311128336
30
0
41
1
10
159.545385014549
20
-10.2830793437554
30
0
41
1
10
159.65850839669
20
-10.7293180563536
30
0
41
1
10
159.71507008776
20
-10.9341070631619
30
0
41
1
10
159.8281934699
20
-11.3054666636065
30
0
41
1
10
159.884755160971
20
-11.4720386588213
30
0
41
1
10
159.997878543111
20
-11.7665782751912
30
0
41
1
10
160.054440234181
20
-11.8945497516613
30
0
41
1
10
160.167563616322
20
-12.1125962704237
30
0
41
1
10
160.224125307392
20
-12.2026769508388
30
0
41
1
10
160.337248689532
20
-12.3465985264009
30
0
41
1
10
160.393810380602
20
-12.4004460658336
30
0
41
1
10
160.450372071672
20
-12.4373827401557
30
0
0
SPLINE
5
102
100
AcDbEntity
8
1
62
256
6
ByLayer
370
13
48
1
60
0
100
AcDbSpline
70
4
71
3
72
79
73
75
40
0
40
0
40
0
40
0
40
0.0312499999999991
40
0.0312499999999991
40
0.0624999999999983
40
0.0624999999999983
40
0.0937499999999974
40
0.0937499999999974
40
0.109374999999997
40
0.109374999999997
40
0.117187499999997
40
0.117187499999997
40
0.124999999999997
40
0.124999999999997
40
0.156249999999997
40
0.156249999999997
40
0.187499999999997
40
0.187499999999997
40
0.218749999999997
40
0.218749999999997
40
0.249999999999997
40
0.249999999999997
40
0.281249999999997
40
0.281249999999997
40
0.312499999999997
40
0.312499999999997
40
0.343749999999997
40
0.343749999999997
40
0.374999999999998
40
0.374999999999998
40
0.406249999999998
40
0.406249999999998
40
0.437499999999998
40
0.437499999999998
40
0.468749999999998
40
0.468749999999998
40
0.499999999999998
40
0.499999999999998
40
0.531249999999998
40
0.531249999999998
40
0.546874999999998
40
0.546874999999998
40
0.554687499999998
40
0.558593749999998
40
0.558593749999998
40
0.562499999999998
40
0.562499999999998
40
0.593749999999998
40
0.593749999999998
40
0.624999999999999
40
0.624999999999999
40
0.656249999999999
40
0.656249999999999
40
0.687499999999999
40
0.687499999999999
40
0.718749999999999
40
0.718749999999999
40
0.749999999999999
40
0.749999999999999
40
0.781249999999999
40
0.781249999999999
40
0.812499999999999
40
0.812499999999999
40
0.843749999999999
40
0.843749999999999
40
0.875
40
0.875
40
0.90625
40
0.90625
40
0.9375
40
0.9375
40
0.96875
40
0.96875
40
1
40
1
40
1
40
1
41
1
10
149.2
20
-11.425793081556
30
0
41
1
10
149.266666649259
20
-11.6182318596137
30
0
41
1
10
149.333333298518
20
-11.7838504013798
30
0
41
1
10
149.466666597035
20
-12.062031534986
30
0
41
1
10
149.533333246294
20
-12.1746061151894
30
0
41
1
10
149.666666544812
20
-12.3492042368087
30
0
41
1
10
149.73333319407
20
-12.4112427755539
30
0
41
1
10
149.833333167959
20
-12.4693856338998
30
0
41
1
10
149.866666492588
20
-12.4829576272353
30
0
41
1
10
149.916666479532
20
-12.4950510211791
30
0
41
1
10
149.933333141847
20
-12.4977051727519
30
0
41
1
10
149.966666466476
20
-12.5003391502534
30
0
41
1
10
149.983333128791
20
-12.5003293500747
30
0
41
1
10
150.066666440365
20
-12.493644114013
30
0
41
1
10
150.133333089623
20
-12.4668625185892
30
0
41
1
10
150.266666388141
20
-12.3656553003218
30
0
41
1
10
150.3333330374
20
-12.2912139938642
30
0
41
1
10
150.466666335917
20
-12.0910199246387
30
0
41
1
10
150.533332985176
20
-11.9652526893771
30
0
41
1
10
150.666666283694
20
-11.6603396865422
30
0
41
1
10
150.733332932952
20
-11.4811830772819
30
0
41
1
10
150.86666623147
20
-11.0694139277136
30
0
41
1
10
150.933332880729
20
-10.8367964861471
30
0
41
1
10
151.066666179247
20
-10.3202626929077
30
0
41
1
10
151.133332828505
20
-10.0363489642209
30
0
41
1
10
151.266666127023
20
-9.42165337071071
30
0
41
1
10
151.333332776282
20
-9.09088197597416
30
0
41
1
10
151.466666074799
20
-8.38897901948519
30
0
41
1
10
151.533332724058
20
-8.01786460499994
30
0
41
1
10
151.666666022576
20
-7.24344051897842
30
0
41
1
10
151.733332671834
20
-6.84015221134271
30
0
41
1
10
151.866665970352
20
-6.01061391646837
30
0
41
1
10
151.933332619611
20
-5.58438635006482
30
0
41
1
10
152.066665918129
20
-4.71860238700734
30
0
41
1
10
152.133332567387
20
-4.27906637908805
30
0
41
1
10
152.266665865905
20
-3.39604389459507
30
0
41
1
10
152.333332515164
20
-2.95257343020924
30
0
41
1
10
152.466665813681
20
-2.07025169197925
30
0
41
1
10
152.53333246294
20
-1.63141082655096
30
0
41
1
10
152.633332436828
20
-0.982134650518418
30
0
41
1
10
152.666665761458
20
-0.767196394143895
30
0
41
1
10
152.716665748402
20
-0.447609065075511
30
0
41
1
10
152.741665741874
20
-0.288519344193958
30
0
41
1
10
152.766665735346
20
-0.130586254362498
30
0
41
1
10
152.783332397661
20
-0.025565063996936
30
0
41
1
10
152.791665728818
20
0.0267445979102092
30
0
41
1
10
152.866665709234
20
0.499358013086578
30
0
41
1
10
152.933332358493
20
0.928080098108808
30
0
41
1
10
153.066665657011
20
1.79666417643247
30
0
41
1
10
153.133332306269
20
2.23652077107152
30
0
41
1
10
153.266665604787
20
3.119856123425
30
0
41
1
10
153.333332254046
20
3.56332374003017
30
0
41
1
10
153.466665552563
20
4.44519512605515
30
0
41
1
10
153.533332201822
20
4.8835822399424
30
0
41
1
10
153.66666550034
20
5.74585725618707
30
0
41
1
10
153.733332149599
20
6.16972436437388
30
0
41
1
10
153.866665448116
20
6.99334293759043
30
0
41
1
10
153.933332097375
20
7.39307193598398
30
0
41
1
10
154.066665395893
20
8.1592762534026
30
0
41
1
10
154.133332045151
20
8.52573057283561
30
0
41
1
10
154.266665343669
20
9.21739047676294
30
0
41
1
10
154.333331992928
20
9.54257964171143
30
0
41
1
10
154.466665291446
20
10.1454301736143
30
0
41
1
10
154.533331940704
20
10.4230820250848
30
0
41
1
10
154.666665239222
20
10.9266918568443
30
0
41
1
10
154.733331888481
20
11.1526482094279
30
0
41
1
10
154.866665186998
20
11.5509835094754
30
0
41
1
10
154.933331836257
20
11.7233682144618
30
0
41
1
10
155.066665134775
20
12.0148939733312
30
0
41
1
10
155.133331784033
20
12.1340464613413
30
0
41
1
10
155.266665082551
20
12.3213933888811
30
0
41
1
10
155.33333173181
20
12.389602582623
30
0
41
1
10
155.466665030328
20
12.4788980482058
30
0
41
1
10
155.533331679586
20
12.5
30
0
41
1
10
155.599998328845
20
12.5
30
0
0
SPLINE
5
103
100
AcDbEntity
8
1
62
256
6
ByLayer
370
13
48
1
60
0
100
AcDbSpline
70
4
71
3
72
77
73
73
40
0
40
0
40
0
40
0
40
0.0312499999999996
40
0.0312499999999996
40
0.0624999999999991
40
0.0624999999999991
40
0.0937499999999986
40
0.0937499999999986
40
0.124999999999998
40
0.124999999999998
40
0.156249999999998
40
0.156249999999998
40
0.187499999999997
40
0.187499999999997
40
0.218749999999997
40
0.218749999999997
40
0.249999999999997
40
0.249999999999997
40
0.281249999999996
40
0.281249999999996
40
0.312499999999996
40
0.312499999999996
40
0.343749999999996
40
0.343749999999996
40
0.374999999999995
40
0.374999999999995
40
0.406249999999995
40
0.406249999999995
40
0.437499999999995
40
0.437499999999995
40
0.468749999999994
40
0.468749999999994
40
0.476562499999994
40
0.476562499999994
40
0.484374999999994
40
0.499999999999994
40
0.499999999999994
40
0.531249999999995
40
0.531249999999995
40
0.562499999999995
40
0.562499999999995
40
0.593749999999995
40
0.593749999999995
40
0.624999999999996
40
0.624999999999996
40
0.656249999999996
40
0.656249999999996
40
0.687499999999996
40
0.687499999999996
40
0.718749999999997
40
0.718749999999997
40
0.749999999999997
40
0.749999999999997
40
0.781249999999997
40
0.781249999999997
40
0.812499999999998
40
0.812499999999998
40
0.843749999999998
40
0.843749999999998
40
0.874999999999998
40
0.874999999999998
40
0.906249999999999
40
0.906249999999999
40
0.937499999999999
40
0.937499999999999
40
0.945312499999999
40
0.945312499999999
40
0.953124999999999
40
0.953124999999999
40
0.968749999999999
40
0.968749999999999
40
1
40
1
40
1
40
1
41
1
10
154.535412298399
20
12.5
30
0
41
1
10
154.597026462704
20
12.5
30
0
41
1
10
154.658640627009
20
12.4819799501461
30
0
41
1
10
154.781868955619
20
12.4060148399182
30
0
41
1
10
154.843483119924
20
12.3480592090766
30
0
41
1
10
154.966711448534
20
12.1890803468399
30
0
41
1
10
155.028325612839
20
12.0880469611622
30
0
41
1
10
155.151553941448
20
11.8408476026037
30
0
41
1
10
155.213168105754
20
11.6946732522788
30
0
41
1
10
155.336396434363
20
11.3564880346534
30
0
41
1
10
155.398010598668
20
11.1644719650928
30
0
41
1
10
155.521238927278
20
10.7354694913771
30
0
41
1
10
155.582853091583
20
10.4984822021817
30
0
41
1
10
155.706081420193
20
9.98206894317607
30
0
41
1
10
155.767695584498
20
9.7026469932845
30
0
41
1
10
155.890923913108
20
9.10551613904991
30
0
41
1
10
155.952538077413
20
8.7878159882878
30
0
41
1
10
156.075766406022
20
8.11970746854868
30
0
41
1
10
156.137380570327
20
7.76931162751046
30
0
41
1
10
156.260608898937
20
7.04249379313123
30
0
41
1
10
156.322223063242
20
6.66608652901311
30
0
41
1
10
156.445451391852
20
5.89461579635145
30
0
41
1
10
156.507065556157
20
5.49956740254152
30
0
41
1
10
156.630293884767
20
4.69841785348424
30
0
41
1
10
156.691908049072
20
4.29233036435809
30
0
41
1
10
156.815136377682
20
3.47650187304984
30
0
41
1
10
156.876750541987
20
3.06677179728237
30
0
41
1
10
156.999978870596
20
2.25047961460496
30
0
41
1
10
157.061593034901
20
1.84392496330096
30
0
41
1
10
157.184821363511
20
1.03994935581431
30
0
41
1
10
157.246435527816
20
0.642532264955804
30
0
41
1
10
157.323453233197
20
0.154557099781869
30
0
41
1
10
157.338856774273
20
0.0576002861585039
30
0
41
1
10
157.369663856426
20
-0.136279002095961
30
0
41
1
10
157.415874479655
20
-0.428481836211262
30
0
41
1
10
157.462085102883
20
-0.724539275339197
30
0
41
1
10
157.554506349341
20
-1.32090600597618
30
0
41
1
10
157.616120513646
20
-1.72418452597412
30
0
41
1
10
157.739348842256
20
-2.53661787640436
30
0
41
1
10
157.80096300656
20
-2.94576682139362
30
0
41
1
10
157.92419133517
20
-3.76346883333503
30
0
41
1
10
157.985805499475
20
-4.17201242195537
30
0
41
1
10
158.109033828085
20
-4.98131976557954
30
0
41
1
10
158.17064799239
20
-5.38207090854118
30
0
41
1
10
158.293876321
20
-6.16823140665184
30
0
41
1
10
158.355490485305
20
-6.55362609955114
30
0
41
1
10
158.478718813915
20
-7.30154768550315
30
0
41
1
10
158.54033297822
20
-7.66405946955641
30
0
41
1
10
158.66356130683
20
-8.35917840214927
30
0
41
1
10
158.725175471134
20
-8.69177185271869
30
0
41
1
10
158.848403799744
20
-9.32094589221231
30
0
41
1
10
158.910017964049
20
-9.6175159360032
30
0
41
1
10
159.033246292659
20
-10.1698336867965
30
0
41
1
10
159.094860456964
20
-10.4255752585894
30
0
41
1
10
159.218088785574
20
-10.8929798339126
30
0
41
1
10
159.279702949879
20
-11.1046416326594
30
0
41
1
10
159.402931278489
20
-11.4822950345374
30
0
41
1
10
159.464545442794
20
-11.6482900874473
30
0
41
1
10
159.587773771403
20
-11.9346474996734
30
0
41
1
10
159.649387935708
20
-12.0550170275447
30
0
41
1
10
159.772616264318
20
-12.2516265823393
30
0
41
1
10
159.834230428623
20
-12.3278761706453
30
0
41
1
10
159.957458757233
20
-12.4389583843401
30
0
41
1
10
160.019072921538
20
-12.4738015546705
30
0
41
1
10
160.096090626919
20
-12.4937291925481
30
0
41
1
10
160.111494167995
20
-12.4965351626673
30
0
41
1
10
160.142301250148
20
-12.4998505358126
30
0
41
1
10
160.157704791224
20
-12.5003634200533
30
0
41
1
10
160.203915414453
20
-12.4985293534344
30
0
41
1
10
160.234722496605
20
-12.492771190738
30
0
41
1
10
160.327143743062
20
-12.4611411066465
30
0
41
1
10
160.388757907368
20
-12.4208880961854
30
0
41
1
10
160.450372071672
20
-12.3597235757709
30
0
0
SPLINE
5
104
100
AcDbEntity
8
1
62
256
6
ByLayer
370
13
48
1
60
0
100
AcDbSpline
70
4
71
3
72
78
73
74
40
0
40
0
40
0
40
0
40
0.0312500000000019
40
0.0312500000000019
40
0.0468750000000028
40
0.0468750000000028
40
0.0546875000000031
40
0.0546875000000031
40
0.0625000000000034
40
0.0625000000000034
40
0.0937500000000039
40
0.0937500000000039
40
0.125000000000004
40
0.125000000000004
40
0.156250000000005
40
0.156250000000005
40
0.187500000000005
40
0.187500000000005
40
0.218750000000006
40
0.218750000000006
40
0.250000000000007
40
0.250000000000007
40
0.281250000000007
40
0.281250000000007
40
0.312500000000007
40
0.312500000000007
40
0.343750000000008
40
0.343750000000008
40
0.375000000000008
40
0.375000000000008
40
0.406250000000009
40
0.406250000000009
40
0.437500000000009
40
0.437500000000009
40
0.468750000000009
40
0.468750000000009
40
0.50000000000001
40
0.50000000000001
40
0.51562500000001
40
0.51562500000001
40
0.52343750000001
40
0.52343750000001
40
0.53125000000001
40
0.53125000000001
40
0.56250000000001
40
0.56250000000001
40
0.593750000000009
40
0.593750000000009
40
0.625000000000008
40
0.625000000000008
40
0.656250000000007
40
0.656250000000007
40
0.687500000000007
40
0.687500000000007
40
0.718750000000006
40
0.718750000000006
40
0.750000000000005
40
0.750000000000005
40
0.781250000000005
40
0.781250000000005
40
0.812500000000004
40
0.812500000000004
40
0.843750000000003
40
0.843750000000003
40
0.875000000000003
40
0.875000000000003
40
0.906250000000002
40
0.906250000000002
40
0.937500000000001
40
0.937500000000001
40
0.968750000000001
40
0.968750000000001
40
1
40
1
40
1
40
1
41
1
10
149.2
20
-12.3597224589417
30
0
41
1
10
149.261614176024
20
-12.42088724513
30
0
41
1
10
149.323228352048
20
-12.4611405039862
30
0
41
1
10
149.415649616084
20
-12.4927709325674
30
0
41
1
10
149.446456704096
20
-12.4985292054298
30
0
41
1
10
149.492667336114
20
-12.5003634302146
30
0
41
1
10
149.50807088012
20
-12.4998505977281
30
0
41
1
10
149.538877968132
20
-12.4965353296525
30
0
41
1
10
149.554281512138
20
-12.4937294123634
30
0
41
1
10
149.631299232168
20
-12.4738020398999
30
0
41
1
10
149.692913408193
20
-12.4389590859946
30
0
41
1
10
149.816141760241
20
-12.3278773071282
30
0
41
1
10
149.877755936265
20
-12.2516279372137
30
0
41
1
10
150.000984288313
20
-12.0550188138912
30
0
41
1
10
150.062598464337
20
-11.9346494990823
30
0
41
1
10
150.185826816385
20
-11.6482924997607
30
0
41
1
10
150.247440992409
20
-11.4822976466699
30
0
41
1
10
150.370669344457
20
-11.1046446232972
30
0
41
1
10
150.432283520481
20
-10.8929830032121
30
0
41
1
10
150.55551187253
20
-10.4255787568832
30
0
41
1
10
150.617126048554
20
-10.1698373354009
30
0
41
1
10
150.740354400602
20
-9.61751985113597
30
0
41
1
10
150.801968576626
20
-9.32094992354686
30
0
41
1
10
150.925196928674
20
-8.69177607862309
30
0
41
1
10
150.986811104698
20
-8.35918270641466
30
0
41
1
10
151.110039456746
20
-7.66406389134809
30
0
41
1
10
151.17165363277
20
-7.30155214646339
30
0
41
1
10
151.294881984818
20
-6.55363060072918
30
0
41
1
10
151.356496160842
20
-6.1682359088916
30
0
41
1
10
151.47972451289
20
-5.38207537805863
30
0
41
1
10
151.541338688915
20
-4.98132420133194
30
0
41
1
10
151.664567040963
20
-4.17201676031951
30
0
41
1
10
151.726181216987
20
-3.76347310809774
30
0
41
1
10
151.849409569035
20
-2.94577094517297
30
0
41
1
10
151.911023745059
20
-2.53662191282262
30
0
41
1
10
152.034252097107
20
-1.72418837040482
30
0
41
1
10
152.095866273131
20
-1.32090974579771
30
0
41
1
10
152.188287537167
20
-0.724542850075579
30
0
41
1
10
152.219094625179
20
-0.52717116759726
30
0
41
1
10
152.265305257197
20
-0.233683730348559
30
0
41
1
10
152.280708801203
20
-0.136282405417489
30
0
41
1
10
152.311515889215
20
0.0575969411299013
30
0
41
1
10
152.326919433221
20
0.154553749895086
30
0
41
1
10
152.403937153252
20
0.642528958010445
30
0
41
1
10
152.465551329276
20
1.03994609218898
30
0
41
1
10
152.588779681324
20
1.84392180438024
30
0
41
1
10
152.650393857348
20
2.25047651707442
30
0
41
1
10
152.773622209396
20
3.06676883965722
30
0
41
1
10
152.83523638542
20
3.47649899394179
30
0
41
1
10
152.958464737468
20
4.29232765726655
30
0
41
1
10
153.020078913492
20
4.69841523988904
30
0
41
1
10
153.14330726554
20
5.49956498758846
30
0
41
1
10
153.204921441564
20
5.89461348653577
30
0
41
1
10
153.328149793613
20
6.66608443677032
30
0
41
1
10
153.389763969637
20
7.04249181331073
30
0
41
1
10
153.512992321685
20
7.76930987479119
30
0
41
1
10
153.574606497709
20
8.11970583049214
30
0
41
1
10
153.697834849757
20
8.78781457653028
30
0
41
1
10
153.759449025781
20
9.10551483891214
30
0
41
1
10
153.882677377829
20
9.70264590833693
30
0
41
1
10
153.944291553853
20
9.98206796178479
30
0
41
1
10
154.067519905901
20
10.4984814155618
30
0
41
1
10
154.129134081925
20
10.7354687959629
30
0
41
1
10
154.252362433974
20
11.16447143655
30
0
41
1
10
154.313976609998
20
11.3564875817727
30
0
41
1
10
154.437204962046
20
11.6946729332773
30
0
41
1
10
154.49881913807
20
11.8408473418214
30
0
41
1
10
154.622047490118
20
12.0880467987842
30
0
41
1
10
154.683661666142
20
12.1890802246537
30
0
41
1
10
154.80689001819
20
12.3480591498341
30
0
41
1
10
154.868504194214
20
12.406014803437
30
0
41
1
10
154.991732546262
20
12.4819799432812
30
0
41
1
10
155.053346722286
20
12.5
30
0
41
1
10
155.11496089831
20
12.5
30
0
0
SPLINE
5
105
100
AcDbEntity
8
1
62
256
6
ByLayer
370
13
48
1
60
0
100
AcDbSpline
70
4
71
3
72
77
73
73
40
0
40
0
40
0
40
0
40
0.0312500000000019
40
0.0312500000000019
40
0.0625000000000038
40
0.0625000000000038
40
0.0937500000000057
40
0.0937500000000057
40
0.125000000000008
40
0.125000000000008
40
0.156250000000009
40
0.156250000000009
40
0.187500000000011
40
0.187500000000011
40
0.218750000000013
40
0.218750000000013
40
0.250000000000015
40
0.250000000000015
40
0.281250000000017
40
0.281250000000017
40
0.312500000000019
40
0.312500000000019
40
0.343750000000021
40
0.343750000000021
40
0.375000000000023
40
0.375000000000023
40
0.406250000000025
40
0.406250000000025
40
0.437500000000027
40
0.437500000000027
40
0.441406250000027
40
0.441406250000027
40
0.445312500000027
40
0.453125000000026
40
0.468750000000026
40
0.468750000000026
40
0.500000000000024
40
0.500000000000024
40
0.531250000000023
40
0.531250000000023
40
0.562500000000021
40
0.562500000000021
40
0.593750000000019
40
0.593750000000019
40
0.625000000000018
40
0.625000000000018
40
0.656250000000016
40
0.656250000000016
40
0.687500000000015
40
0.687500000000015
40
0.718750000000013
40
0.718750000000013
40
0.750000000000012
40
0.750000000000012
40
0.78125000000001
40
0.78125000000001
40
0.812500000000009
40
0.812500000000009
40
0.843750000000007
40
0.843750000000007
40
0.875000000000006
40
0.875000000000006
40
0.882812500000005
40
0.882812500000005
40
0.890625000000005
40
0.906250000000004
40
0.906250000000004
40
0.937500000000003
40
0.937500000000003
40
0.968750000000001
40
0.968750000000001
40
1
40
1
40
1
40
1
41
1
10
154.050374867865
20
12.5
30
0
41
1
10
154.117041505404
20
12.5
30
0
41
1
10
154.183708142944
20
12.4788980556378
30
0
41
1
10
154.317041418023
20
12.389602622282
30
0
41
1
10
154.383708055563
20
12.3213934533488
30
0
41
1
10
154.517041330642
20
12.1340465944726
30
0
41
1
10
154.583707968182
20
12.0148941503296
30
0
41
1
10
154.717041243261
20
11.7233684986817
30
0
41
1
10
154.783707880801
20
11.5509838570574
30
0
41
1
10
154.91704115588
20
11.1526487021123
30
0
41
1
10
154.98370779342
20
10.9266924312694
30
0
41
1
10
155.117041068499
20
10.4230827785812
30
0
41
1
10
155.183707706039
20
10.1454310244328
30
0
41
1
10
155.317040981118
20
9.54258069841302
30
0
41
1
10
155.383707618658
20
9.21739164200898
30
0
41
1
10
155.517040893737
20
8.52573196087209
30
0
41
1
10
155.583707531277
20
8.15927775566331
30
0
41
1
10
155.717040806356
20
7.39307366625519
30
0
41
1
10
155.783707443896
20
6.99334478162515
30
0
41
1
10
155.917040718975
20
6.16972642944009
30
0
41
1
10
155.983707356515
20
5.74585942850183
30
0
41
1
10
156.117040631594
20
4.88358461493232
30
0
41
1
10
156.183707269134
20
4.44519759645885
30
0
41
1
10
156.317040544213
20
3.56332638533976
30
0
41
1
10
156.383707181753
20
3.11985884822178
30
0
41
1
10
156.517040456832
20
2.23652363631746
30
0
41
1
10
156.583707094372
20
1.7966671026428
30
0
41
1
10
156.717040369451
20
0.928083126647948
30
0
41
1
10
156.783707006991
20
0.499361082997979
30
0
41
1
10
156.858706974223
20
0.0267477035039008
30
0
41
1
10
156.867040303916
20
-0.0255619493403287
30
0
41
1
10
156.8837069633
20
-0.13058311061468
30
0
41
1
10
156.908706952378
20
-0.28851615698008
30
0
41
1
10
156.967040260225
20
-0.659723978652551
30
0
41
1
10
157.01704023838
20
-0.9821312801771
30
0
41
1
10
157.117040194689
20
-1.63140729513992
30
0
41
1
10
157.183706832229
20
-2.07024805985282
30
0
41
1
10
157.317040107308
20
-2.9525696174982
30
0
41
1
10
157.383706744848
20
-3.39604000204036
30
0
41
1
10
157.517040019927
20
-4.27906235522045
30
0
41
1
10
157.583706657467
20
-4.71859831170002
30
0
41
1
10
157.717039932546
20
-5.58438220691431
30
0
41
1
10
157.783706570086
20
-6.0106097569429
30
0
41
1
10
157.917039845165
20
-6.84014805900574
30
0
41
1
10
157.983706482705
20
-7.24343639022649
30
0
41
1
10
158.117039757784
20
-8.01786056572462
30
0
41
1
10
158.183706395324
20
-8.38897504611077
30
0
41
1
10
158.317039670403
20
-9.09087817606121
30
0
41
1
10
158.383706307943
20
-9.42164967835262
30
0
41
1
10
158.517039583022
20
-10.0363455249101
30
0
41
1
10
158.583706220562
20
-10.3202593990694
30
0
41
1
10
158.717039495641
20
-10.8367935147843
30
0
41
1
10
158.783706133181
20
-11.0694111333242
30
0
41
1
10
158.91703940826
20
-11.4811806600416
30
0
41
1
10
158.9837060458
20
-11.6603374694442
30
0
41
1
10
159.117039320879
20
-11.965250886489
30
0
41
1
10
159.183705958419
20
-12.0910183357873
30
0
41
1
10
159.317039233498
20
-12.2912128377726
30
0
41
1
10
159.383705871038
20
-12.3656543629296
30
0
41
1
10
159.517039146117
20
-12.4668620149134
30
0
41
1
10
159.583705783657
20
-12.4936438253401
30
0
41
1
10
159.667039080581
20
-12.500329323526
30
0
41
1
10
159.683705739966
20
-12.5003391753841
30
0
41
1
10
159.717039058736
20
-12.4977053045816
30
0
41
1
10
159.767039036891
20
-12.4897439196038
30
0
41
1
10
159.817039015046
20
-12.4693861048925
30
0
41
1
10
159.917038971355
20
-12.4112436119762
30
0
41
1
10
159.983705608895
20
-12.3492053367502
30
0
41
1
10
160.117038883974
20
-12.1746077775326
30
0
41
1
10
160.183705521514
20
-12.0620334962153
30
0
41
1
10
160.317038796593
20
-11.7838529879067
30
0
41
1
10
160.383705434133
20
-11.6182347725393
30
0
41
1
10
160.450372071672
20
-11.425796329066
30
0
0
SPLINE
5
106
100
AcDbEntity
8
1
62
256
6
ByLayer
370
13
48
1
60
0
100
AcDbSpline
70
4
71
3
72
74
73
70
40
0
40
0
40
0
40
0
40
0.03125
40
0.03125
40
0.0624999999999999
40
0.0624999999999999
40
0.0937499999999999
40
0.0937499999999999
40
0.125
40
0.125
40
0.15625
40
0.15625
40
0.1875
40
0.1875
40
0.21875
40
0.21875
40
0.25
40
0.25
40
0.28125
40
0.28125
40
0.3125
40
0.3125
40
0.34375
40
0.34375
40
0.375
40
0.375
40
0.406249999999999
40
0.406249999999999
40
0.437499999999999
40
0.437499999999999
40
0.468749999999999
40
0.468749999999999
40
0.476562499999999
40
0.476562499999999
40
0.484374999999999
40
0.484374999999999
40
0.499999999999999
40
0.499999999999999
40
0.531249999999999
40
0.531249999999999
40
0.562499999999999
40
0.562499999999999
40
0.593749999999999
40
0.593749999999999
40
0.624999999999999
40
0.624999999999999
40
0.656249999999999
40
0.656249999999999
40
0.687499999999999
40
0.687499999999999
40
0.718749999999999
40
0.718749999999999
40
0.749999999999999
40
0.749999999999999
40
0.781249999999999
40
0.781249999999999
40
0.812499999999999
40
0.812499999999999
40
0.843749999999999
40
0.843749999999999
40
0.874999999999999
40
0.874999999999999
40
0.906249999999999
40
0.906249999999999
40
0.9375
40
0.9375
40
0.96875
40
0.96875
40
1
40
1
40
1
40
1
41
1
10
149.2
20
-12.4373834748404
30
0
41
1
10
149.256561702789
20
-12.4004470167559
30
0
41
1
10
149.313123405579
20
-12.3465996955935
30
0
41
1
10
149.426246811157
20
-12.2026785548475
30
0
41
1
10
149.482808513947
20
-12.1125980909673
30
0
41
1
10
149.595931919525
20
-11.8945519970903
30
0
41
1
10
149.652493622315
20
-11.7665807289561
30
0
41
1
10
149.765617027893
20
-11.4720415143395
30
0
41
1
10
149.822178730683
20
-11.3054697125253
30
0
41
1
10
149.935302136261
20
-10.9341104774333
30
0
41
1
10
149.991863839051
20
-10.7293216425596
30
0
41
1
10
150.104987244629
20
-10.283083246575
30
0
41
1
10
150.161548947419
20
-10.0416351603171
30
0
41
1
10
150.274672352997
20
-9.52480727000494
30
0
41
1
10
150.331234055787
20
-9.24943187929026
30
0
41
1
10
150.444357461365
20
-8.66856402193025
30
0
41
1
10
150.500919164155
20
-8.36307856233725
30
0
41
1
10
150.614042569733
20
-7.72671779831501
30
0
41
1
10
150.670604272523
20
-7.3958513835847
30
0
41
1
10
150.783727678101
20
-6.71412699309116
30
0
41
1
10
150.840289380891
20
-6.36327883398118
30
0
41
1
10
150.953412786469
20
-5.64737580496021
30
0
41
1
10
151.009974489259
20
-5.28233065000904
30
0
41
1
10
151.123097894837
20
-4.54390807091946
30
0
41
1
10
151.179659597627
20
-4.170539334365
30
0
41
1
10
151.292783003205
20
-3.42115414289123
30
0
41
1
10
151.349344705995
20
-3.04514466200635
30
0
41
1
10
151.462468111573
20
-2.2957353085533
30
0
41
1
10
151.519029814363
20
-1.92234031997168
30
0
41
1
10
151.632153219941
20
-1.18281101426243
30
0
41
1
10
151.688714922731
20
-0.81667942383271
30
0
41
1
10
151.759417051217
20
-0.366009509900664
30
0
41
1
10
151.773557476915
20
-0.27622341059012
30
0
41
1
10
151.801838328309
20
-0.0974008552242083
30
0
41
1
10
151.815978754007
20
-0.0086237295801652
30
0
41
1
10
151.858400031099
20
0.258705153752658
30
0
41
1
10
151.886680882493
20
0.438466312724188
30
0
41
1
10
151.971523436677
20
0.98172526679312
30
0
41
1
10
152.028085139467
20
1.34922172240354
30
0
41
1
10
152.141208545045
20
2.09082436824215
30
0
41
1
10
152.197770247835
20
2.46492751318243
30
0
41
1
10
152.310893653413
20
3.21499650552994
30
0
41
1
10
152.367455356202
20
3.59095714242727
30
0
41
1
10
152.480578761781
20
4.33941049000259
30
0
41
1
10
152.537140464571
20
4.7118959363321
30
0
41
1
10
152.650263870149
20
5.44767253157832
30
0
41
1
10
152.706825572939
20
5.81095478709511
30
0
41
1
10
152.819948978517
20
6.52244723096993
30
0
41
1
10
152.876510681307
20
6.87064762543378
30
0
41
1
10
152.989634086885
20
7.54623060736813
30
0
41
1
10
153.046195789675
20
7.8736034517722
30
0
41
1
10
153.159319195253
20
8.502214551771
30
0
41
1
10
153.215880898043
20
8.80344414447913
30
0
41
1
10
153.329004303621
20
9.3751610194866
30
0
41
1
10
153.385566006411
20
9.64564164814294
30
0
41
1
10
153.498689411989
20
10.152195126771
30
0
41
1
10
153.555251114779
20
10.3882639942356
30
0
41
1
10
153.668374520357
20
10.8234325395024
30
0
41
1
10
153.724936223147
20
11.0225311897768
30
0
41
1
10
153.838059628725
20
11.3823778154069
30
0
41
1
10
153.894621331515
20
11.5431275968889
30
0
41
1
10
154.007744737093
20
11.8260624005545
30
0
41
1
10
154.064306439883
20
11.9482515940015
30
0
41
1
10
154.177429845461
20
12.1549267667646
30
0
41
1
10
154.233991548251
20
12.2394185862854
30
0
41
1
10
154.347114953829
20
12.3724831459569
30
0
41
1
10
154.403676656619
20
12.4210626149804
30
0
41
1
10
154.516800062197
20
12.4848176000224
30
0
41
1
10
154.573361764986
20
12.5
30
0
41
1
10
154.629923467776
20
12.5
30
0
0
SPLINE
5
107
100
AcDbEntity
8
1
62
256
6
ByLayer
370
13
48
1
60
0
100
AcDbSpline
70
4
71
3
72
79
73
75
40
0
40
0
40
0
40
0
40
0.0312499999999999
40
0.0312499999999999
40
0.0624999999999997
40
0.0624999999999997
40
0.0937499999999996
40
0.0937499999999996
40
0.124999999999999
40
0.124999999999999
40
0.156249999999999
40
0.156249999999999
40
0.187499999999999
40
0.187499999999999
40
0.218749999999999
40
0.218749999999999
40
0.249999999999999
40
0.249999999999999
40
0.281249999999999
40
0.281249999999999
40
0.312499999999998
40
0.312499999999998
40
0.343749999999998
40
0.343749999999998
40
0.374999999999998
40
0.374999999999998
40
0.406249999999998
40
0.406249999999998
40
0.410156249999998
40
0.410156249999998
40
0.414062499999998
40
0.421874999999998
40
0.421874999999998
40
0.437499999999998
40
0.437499999999998
40
0.468749999999998
40
0.468749999999998
40
0.499999999999998
40
0.499999999999998
40
0.531249999999998
40
0.531249999999998
40
0.562499999999998
40
0.562499999999998
40
0.593749999999999
40
0.593749999999999
40
0.624999999999999
40
0.624999999999999
40
0.656249999999999
40
0.656249999999999
40
0.687499999999999
40
0.687499999999999
40
0.718749999999999
40
0.718749999999999
40
0.75
40
0.75
40
0.78125
40
0.78125
40
0.8125
40
0.8125
40
0.8203125
40
0.8203125
40
0.828125
40
0.828125
40
0.84375
40
0.84375
40
0.875
40
0.875
40
0.90625
40
0.90625
40
0.9375
40
0.9375
40
0.96875
40
0.96875
40
1
40
1
40
1
40
1
41
1
10
153.56533743733
20
12.5
30
0
41
1
10
153.637056548104
20
12.5
30
0
41
1
10
153.708775658879
20
12.4755714769868
30
0
41
1
10
153.852213880428
20
12.3718147989716
30
0
41
1
10
153.923932991202
20
12.2924640640385
30
0
41
1
10
154.067371212751
20
12.0742721274516
30
0
41
1
10
154.139090323525
20
11.9354101886484
30
0
41
1
10
154.282528545074
20
11.595762730514
30
0
41
1
10
154.354247655848
20
11.3949623413144
30
0
41
1
10
154.497685877397
20
10.9317126570222
30
0
41
1
10
154.569404988172
20
10.6692581137628
30
0
41
1
10
154.71284320972
20
10.0859981284377
30
0
41
1
10
154.784562320495
20
9.76519936573285
30
0
41
1
10
154.928000542044
20
9.07155780732916
30
0
41
1
10
154.999719652818
20
8.69873353215303
30
0
41
1
10
155.143157874367
20
7.90997572077242
30
0
41
1
10
155.214876985141
20
7.49406982636432
30
0
41
1
10
155.35831520669
20
6.63000603926855
30
0
41
1
10
155.430034317464
20
6.18188021385242
30
0
41
1
10
155.573472539013
20
5.26524106199238
30
0
41
1
10
155.645191649788
20
4.79675888196581
30
0
41
1
10
155.788629871336
20
3.85130983351615
30
0
41
1
10
155.860348982111
20
3.37436863656364
30
0
41
1
10
156.00378720366
20
2.42307401508361
30
0
41
1
10
156.075506314434
20
1.94873802615746
30
0
41
1
10
156.218944535983
20
1.01224050835617
30
0
41
1
10
156.290663646757
20
0.550087490097553
30
0
41
1
10
156.371347646378
20
0.0413508474879052
30
0
41
1
10
156.380312535225
20
-0.0149235890407908
30
0
41
1
10
156.398242312919
20
-0.127879601589058
30
0
41
1
10
156.425136979459
20
-0.297778817955304
30
0
41
1
10
156.452031646
20
-0.469014828708794
30
0
41
1
10
156.50582097908
20
-0.813101463547582
30
0
41
1
10
156.541680534468
20
-1.04464918123386
30
0
41
1
10
156.649259200629
20
-1.74428037333763
30
0
41
1
10
156.720978311404
20
-2.21740646758573
30
0
41
1
10
156.864416532952
20
-3.16776825588894
30
0
41
1
10
156.936135643727
20
-3.64498780824641
30
0
41
1
10
157.079573865276
20
-4.59266117590008
30
0
41
1
10
157.15129297605
20
-5.06309038866775
30
0
41
1
10
157.294731197599
20
-5.98536262707367
30
0
41
1
10
157.366450308373
20
-6.43717505051015
30
0
41
1
10
157.509888529922
20
-7.31028789611597
30
0
41
1
10
157.581607640696
20
-7.73155605749719
30
0
41
1
10
157.725045862245
20
-8.53251058742217
30
0
41
1
10
157.79676497302
20
-8.91216835249196
30
0
41
1
10
157.940203194569
20
-9.62062229843892
30
0
41
1
10
158.011922305343
20
-9.94939841453066
30
0
41
1
10
158.155360526892
20
-10.5493471471347
30
0
41
1
10
158.227079637666
20
-10.8205113039615
30
0
41
1
10
158.370517859215
20
-11.3014696167702
30
0
41
1
10
158.442236969989
20
-11.5112673911617
30
0
41
1
10
158.585675191538
20
-11.8687737360758
30
0
41
1
10
158.657394302312
20
-12.0164959967839
30
0
41
1
10
158.800832523861
20
-12.2519099377574
30
0
41
1
10
158.872551634636
20
-12.3396217619464
30
0
41
1
10
159.015989856184
20
-12.4593287104808
30
0
41
1
10
159.087708966959
20
-12.4913463787392
30
0
41
1
10
159.177357855427
20
-12.5002412481865
30
0
41
1
10
159.19528763312
20
-12.5004773565079
30
0
41
1
10
159.231147188508
20
-12.4978873832976
30
0
41
1
10
159.249076966201
20
-12.4950468414648
30
0
41
1
10
159.302866299282
20
-12.4817398102039
30
0
41
1
10
159.338725854669
20
-12.4664854504424
30
0
41
1
10
159.446304520831
20
-12.4004616255166
30
0
41
1
10
159.518023631605
20
-12.3293749698403
30
0
41
1
10
159.661461853154
20
-12.1282562779228
30
0
41
1
10
159.733180963929
20
-11.998202997053
30
0
41
1
10
159.876619185477
20
-11.67636806118
30
0
41
1
10
159.948338296252
20
-11.4845704371643
30
0
41
1
10
160.091776517801
20
-11.0391038665867
30
0
41
1
10
160.163495628575
20
-10.7854280919886
30
0
41
1
10
160.306933850124
20
-10.2190586540186
30
0
41
1
10
160.378652960898
20
-9.90636988834163
30
0
41
1
10
160.450372071672
20
-9.56711567651959
30
0
0
SPLINE
5
108
100
AcDbEntity
8
1
62
256
6
ByLayer
370
13
48
1
60
0
100
AcDbSpline
70
4
71
3
72
56
73
52
40
0
40
0
40
0
40
0
40
0.0625000000000024
40
0.0625000000000024
40
0.0937500000000035
40
0.0937500000000035
40
0.125000000000005
40
0.125000000000005
40
0.156250000000006
40
0.156250000000006
40
0.187500000000007
40
0.187500000000007
40
0.218750000000008
40
0.218750000000008
40
0.250000000000009
40
0.250000000000009
40
0.312500000000011
40
0.312500000000011
40
0.375000000000013
40
0.375000000000013
40
0.406250000000015
40
0.406250000000015
40
0.421875000000015
40
0.421875000000015
40
0.429687500000015
40
0.429687500000015
40
0.437500000000015
40
0.437500000000015
40
0.500000000000014
40
0.500000000000014
40
0.562500000000012
40
0.562500000000012
40
0.625000000000011
40
0.625000000000011
40
0.65625000000001
40
0.65625000000001
40
0.687500000000009
40
0.687500000000009
40
0.718750000000009
40
0.718750000000009
40
0.750000000000008
40
0.750000000000008
40
0.781250000000007
40
0.781250000000007
40
0.812500000000006
40
0.812500000000006
40
0.875000000000004
40
0.875000000000004
40
0.937500000000002
40
0.937500000000002
40
1
40
1
40
1
40
1
41
1
10
149.2
20
-11.6806894699781
30
0
41
1
10
149.303018459109
20
-11.422384279298
30
0
41
1
10
149.406036918218
20
-11.0997382337442
30
0
41
1
10
149.560564606882
20
-10.5224395183703
30
0
41
1
10
149.612073836437
20
-10.3145518790114
30
0
41
1
10
149.715092295546
20
-9.86960842923375
30
0
41
1
10
149.766601525101
20
-9.63255464185323
30
0
41
1
10
149.86961998421
20
-9.13179984107282
30
0
41
1
10
149.921129213764
20
-8.86810245146478
30
0
41
1
10
150.024147672874
20
-8.31727512477093
30
0
41
1
10
150.075656902428
20
-8.03015013128584
30
0
41
1
10
150.178675361537
20
-7.4362462286866
30
0
41
1
10
150.230184591092
20
-7.12947314991226
30
0
41
1
10
150.333203050201
20
-6.50045223978566
30
0
41
1
10
150.384712279756
20
-6.17821060437637
30
0
41
1
10
150.53923996842
20
-5.19486939034394
30
0
41
1
10
150.642258427529
20
-4.51724185052325
30
0
41
1
10
150.848295345747
20
-3.15270320339445
30
0
41
1
10
150.951313804856
20
-2.46593237918188
30
0
41
1
10
151.10584149352
20
-1.45179734883638
30
0
41
1
10
151.157350723075
20
-1.11637350329011
30
0
41
1
10
151.234614567407
20
-0.619501869020439
30
0
41
1
10
151.260369182184
20
-0.45491806611227
30
0
41
1
10
151.29900110435
20
-0.209857542302302
30
0
41
1
10
151.311878411738
20
-0.128472972885191
30
0
41
1
10
151.337633026516
20
0.0336522247316964
30
0
41
1
10
151.350510333904
20
0.114610355508887
30
0
41
1
10
151.466406100402
20
0.84764191742255
30
0
41
1
10
151.569424559511
20
1.51940913381293
30
0
41
1
10
151.77546147773
20
2.87885208448006
30
0
41
1
10
151.878479936839
20
3.5664481404319
30
0
41
1
10
152.084516855057
20
4.92580115434706
30
0
41
1
10
152.187535314167
20
5.59740439787367
30
0
41
1
10
152.34206300283
20
6.56630764681904
30
0
41
1
10
152.393572232385
20
6.88284469181588
30
0
41
1
10
152.496590691494
20
7.49873764674092
30
0
41
1
10
152.548099921049
20
7.79808744274894
30
0
41
1
10
152.651118380158
20
8.37556554055158
30
0
41
1
10
152.702627609712
20
8.65368830948563
30
0
41
1
10
152.805646068822
20
9.1851404755528
30
0
41
1
10
152.857155298376
20
9.43846541552426
30
0
41
1
10
152.960173757486
20
9.91737023319175
30
0
41
1
10
153.01168298704
20
10.1429471076732
30
0
41
1
10
153.114701446149
20
10.5641375324881
30
0
41
1
10
153.166210675704
20
10.759749741133
30
0
41
1
10
153.320738364368
20
11.2995128374645
30
0
41
1
10
153.423756823477
20
11.5962008191493
30
0
41
1
10
153.629793741695
20
12.0615578604195
30
0
41
1
10
153.732812200804
20
12.2303225721592
30
0
41
1
10
153.938849119023
20
12.4494762158269
30
0
41
1
10
154.041867578132
20
12.5
30
0
41
1
10
154.144886037241
20
12.5
30
0
0
SPLINE
5
109
100
AcDbEntity
8
1
62
256
6
ByLayer
370
13
48
1
60
0
100
AcDbSpline
70
4
71
3
72
81
73
77
40
0
40
0
40
0
40
0
40
0.0312499999999989
40
0.0312499999999989
40
0.0624999999999978
40
0.0624999999999978
40
0.0937499999999967
40
0.0937499999999967
40
0.124999999999996
40
0.124999999999996
40
0.156249999999995
40
0.156249999999995
40
0.187499999999993
40
0.187499999999993
40
0.218749999999992
40
0.218749999999992
40
0.249999999999991
40
0.249999999999991
40
0.28124999999999
40
0.28124999999999
40
0.312499999999989
40
0.312499999999989
40
0.343749999999988
40
0.343749999999988
40
0.374999999999987
40
0.374999999999987
40
0.378906249999987
40
0.378906249999987
40
0.382812499999987
40
0.382812499999987
40
0.390624999999987
40
0.390624999999987
40
0.406249999999988
40
0.406249999999988
40
0.43749999999999
40
0.43749999999999
40
0.468749999999991
40
0.468749999999991
40
0.499999999999993
40
0.499999999999993
40
0.531249999999994
40
0.531249999999994
40
0.562499999999996
40
0.562499999999996
40
0.593749999999998
40
0.593749999999998
40
0.624999999999999
40
0.624999999999999
40
0.656250000000001
40
0.656250000000001
40
0.687500000000003
40
0.687500000000003
40
0.718750000000004
40
0.718750000000004
40
0.750000000000006
40
0.750000000000006
40
0.757812500000006
40
0.761718750000006
40
0.761718750000006
40
0.765625000000006
40
0.765625000000006
40
0.781250000000006
40
0.781250000000006
40
0.812500000000005
40
0.812500000000005
40
0.843750000000004
40
0.843750000000004
40
0.875000000000003
40
0.875000000000003
40
0.906250000000003
40
0.906250000000003
40
0.937500000000002
40
0.937500000000002
40
0.968750000000001
40
0.968750000000001
40
1
40
1
40
1
40
1
41
1
10
153.080300006795
20
12.5
30
0
41
1
10
153.157071590804
20
12.5
30
0
41
1
10
153.233843174814
20
12.4719997170873
30
0
41
1
10
153.387386342832
20
12.3526404389662
30
0
41
1
10
153.464157926841
20
12.2612497535978
30
0
41
1
10
153.617701094859
20
12.0097159502115
30
0
41
1
10
153.694472678868
20
11.84954453813
30
0
41
1
10
153.848015846887
20
11.4580019928352
30
0
41
1
10
153.924787430896
20
11.2266124576289
30
0
41
1
10
154.078330598914
20
10.6938587581438
30
0
41
1
10
154.155102182923
20
10.3924917579409
30
0
41
1
10
154.308645350942
20
9.72501933212786
30
0
41
1
10
154.385416934951
20
9.35892935595885
30
0
41
1
10
154.538960102969
20
8.57107582523867
30
0
41
1
10
154.615731686978
20
8.14934434459758
30
0
41
1
10
154.769274854996
20
7.26237745121676
30
0
41
1
10
154.846046439006
20
6.79718483557673
30
0
41
1
10
154.999589607024
20
5.83742062984271
30
0
41
1
10
155.076361191033
20
5.34289422526678
30
0
41
1
10
155.229904359051
20
4.33918946642206
30
0
41
1
10
155.30667594306
20
3.83005057742997
30
0
41
1
10
155.460219111079
20
2.8111501088851
30
0
41
1
10
155.536990695088
20
2.30141667178611
30
0
41
1
10
155.690533863106
20
1.29362577399314
30
0
41
1
10
155.767305447115
20
0.79558305229466
30
0
41
1
10
155.853673479125
20
0.247432764544669
30
0
41
1
10
155.863269927127
20
0.186694253171396
30
0
41
1
10
155.882462823129
20
0.0655678567723044
30
0
41
1
10
155.89205927113
20
0.00529960834956
30
0
41
1
10
155.920848615133
20
-0.175974807095543
30
0
41
1
10
155.940041511136
20
-0.297538532498777
30
0
41
1
10
155.997620199143
20
-0.664173529128306
30
0
41
1
10
156.036005991147
20
-0.911193663040706
30
0
41
1
10
156.151163367161
20
-1.65827280964049
30
0
41
1
10
156.22793495117
20
-2.16442294732894
30
0
41
1
10
156.381478119188
20
-3.18161730447747
30
0
41
1
10
156.458249703197
20
-3.69263901366426
30
0
41
1
10
156.611792871216
20
-4.70620086755599
30
0
41
1
10
156.688564455225
20
-5.2087058601748
30
0
41
1
10
156.842107623243
20
-6.19067282045236
30
0
41
1
10
156.918879207252
20
-6.67009114196802
30
0
41
1
10
157.07242237527
20
-7.5913391675625
30
0
41
1
10
157.14919395928
20
-8.03312399513442
30
0
41
1
10
157.302737127298
20
-8.86593381785204
30
0
41
1
10
157.379508711307
20
-9.25692127549601
30
0
41
1
10
157.533051879325
20
-9.97760909373216
30
0
41
1
10
157.609823463334
20
-10.3072864856126
30
0
41
1
10
157.763366631353
20
-10.8984039710764
30
0
41
1
10
157.840138215362
20
-11.1598392455461
30
0
41
1
10
157.99368138338
20
-11.6115258605393
30
0
41
1
10
158.070452967389
20
-11.801789572091
30
0
41
1
10
158.223996135407
20
-12.1120687946986
30
0
41
1
10
158.300767719417
20
-12.2321092014863
30
0
41
1
10
158.454310887435
20
-12.4061801032945
30
0
41
1
10
158.531082471444
20
-12.4602416096236
30
0
41
1
10
158.627046951455
20
-12.4907352437043
30
0
41
1
10
158.655836295459
20
-12.4971090174145
30
0
41
1
10
158.684625639462
20
-12.4994562401116
30
0
41
1
10
158.703818535465
20
-12.5001418543439
30
0
41
1
10
158.713414983466
20
-12.5000473106412
30
0
41
1
10
158.761397223472
20
-12.4973753044999
30
0
41
1
10
158.799783015476
20
-12.4881732478935
30
0
41
1
10
158.91494039149
20
-12.4379428183122
30
0
41
1
10
158.991711975499
20
-12.3742215808869
30
0
41
1
10
159.145255143517
20
-12.1800045173093
30
0
41
1
10
159.222026727526
20
-12.0494781896794
30
0
41
1
10
159.375569895544
20
-11.7178500453586
30
0
41
1
10
159.452341479554
20
-11.5167248432153
30
0
41
1
10
159.605884647572
20
-11.0434994915737
30
0
41
1
10
159.682656231581
20
-10.7713893587971
30
0
41
1
10
159.836199399599
20
-10.1597201494093
30
0
41
1
10
159.912970983608
20
-9.82016870300356
30
0
41
1
10
160.066514151627
20
-9.08111688971957
30
0
41
1
10
160.143285735636
20
-8.68164204910477
30
0
41
1
10
160.296828903654
20
-7.83371679776266
30
0
41
1
10
160.373600487663
20
-7.38530557217589
30
0
41
1
10
160.450372071672
20
-6.91913425968207
30
0
0
SPLINE
5
10A
100
AcDbEntity
8
1
62
256
6
ByLayer
370
13
48
1
60
0
100
AcDbSpline
70
4
71
3
72
8
73
4
40
0
40
0
40
0
40
0
40
1
40
1
40
1
40
1
41
1
10
160.450372071672
20
-10.7345598284281
30
0
41
1
10
161.966914714448
20
-7.16608610633702
30
0
41
1
10
163.483457357224
20
-3.58786243076994
30
0
41
1
10
165
20
4.832E-13
30
0
0
SPLINE
5
10B
100
AcDbEntity
8
1
62
256
6
ByLayer
370
13
48
1
60
0
100
AcDbSpline
70
4
71
3
72
8
73
4
40
0
40
0
40
0
40
0
40
1
40
1
40
1
40
1
41
1
10
160.450372071672
20
-4.36425939926298
30
0
41
1
10
161.966914714448
20
-2.92727010442118
30
0
41
1
10
163.483457357224
20
-1.47250185402618
30
0
41
1
10
165
20
1.99E-13
30
0
0
SPLINE
5
10C
100
AcDbEntity
8
1
62
256
6
ByLayer
370
13
48
1
60
0
100
AcDbSpline
70
4
71
3
72
8
73
4
40
0
40
0
40
0
40
0
40
1
40
1
40
1
40
1
41
1
10
160.450372071672
20
-11.8196123914051
30
0
41
1
10
161.966914714448
20
-7.87357264571318
30
0
41
1
10
163.483457357224
20
-3.93366109401248
30
0
41
1
10
165
20
-5.68E-14
30
0
0
SPLINE
5
10D
100
AcDbEntity
8
1
62
256
6
ByLayer
370
13
48
1
60
0
100
AcDbSpline
70
4
71
3
72
8
73
4
40
0
40
0
40
0
40
0
40
1
40
1
40
1
40
1
41
1
10
160.450372071672
20
11.9471050658778
30
0
41
1
10
161.966914714448
20
7.97031228544711
30
0
41
1
10
163.483457357224
20
3.98790269524187
30
0
41
1
10
165
20
0
30
0
0
SPLINE
5
10E
100
AcDbEntity
8
1
62
256
6
ByLayer
370
13
48
1
60
0
100
AcDbSpline
70
4
71
3
72
8
73
4
40
0
40
0
40
0
40
0
40
1
40
1
40
1
40
1
41
1
10
160.450372071672
20
-2.19774970694237
30
0
41
1
10
161.966914714448
20
-1.44650499065469
30
0
41
1
10
163.483457357224
20
-0.713914237487558
30
0
41
1
10
165
20
-5.68E-14
30
0
0
SPLINE
5
10F
100
AcDbEntity
8
1
62
256
6
ByLayer
370
13
48
1
60
0
100
AcDbSpline
70
4
71
3
72
8
73
4
40
0
40
0
40
0
40
0
40
1
40
1
40
1
40
1
41
1
10
160.450372071672
20
8.10942534478258
30
0
41
1
10
161.966914714448
20
5.39185748602745
30
0
41
1
10
163.483457357225
20
2.68868777792858
30
0
41
1
10
165.000000000001
20
-1.1653E-12
30
0
0
SPLINE
5
110
100
AcDbEntity
8
1
62
256
6
ByLayer
370
13
48
1
60
0
100
AcDbSpline
70
4
71
3
72
8
73
4
40
0
40
0
40
0
40
0
40
1
40
1
40
1
40
1
41
1
10
160.450372071672
20
-12.3567427356034
30
0
41
1
10
161.966914714448
20
-8.24069026261279
30
0
41
1
10
163.483457357224
20
-4.12173337867438
30
0
41
1
10
165
20
-6.821E-13
30
0
0
SPLINE
5
111
100
AcDbEntity
8
1
62
256
6
ByLayer
370
13
48
1
60
0
100
AcDbSpline
70
4
71
3
72
8
73
4
40
0
40
0
40
0
40
0
40
1
40
1
40
1
40
1
41
1
10
160.450372071672
20
-3.21415915014657
30
0
41
1
10
161.966914714448
20
-2.16109214873836
30
0
41
1
10
163.483457357224
20
-1.08969461380156
30
0
41
1
10
165
20
1.421E-13
30
0
0
SPLINE
5
112
100
AcDbEntity
8
1
62
256
6
ByLayer
370
13
48
1
60
0
100
AcDbSpline
70
4
71
3
72
8
73
4
40
0
40
0
40
0
40
0
40
1
40
1
40
1
40
1
41
1
10
160.450372071672
20
-12.1171293019831
30
0
41
1
10
161.966914714448
20
-8.08274205577075
30
0
41
1
10
163.483457357224
20
-4.04365713681267
30
0
41
1
10
165
20
-6.821E-13
30
0
0
SPLINE
5
113
100
AcDbEntity
8
1
62
256
6
ByLayer
370
13
48
1
60
0
100
AcDbSpline
70
4
71
3
72
8
73
4
40
0
40
0
40
0
40
0
40
1
40
1
40
1
40
1
41
1
10
160.450372071672
20
3.92669474770815
30
0
41
1
10
161.966914714448
20
2.59979934320623
30
0
41
1
10
163.483457357224
20
1.29088760956387
30
0
41
1
10
165
20
2.274E-13
30
0
0
SPLINE
5
114
100
AcDbEntity
8
1
62
256
6
ByLayer
370
13
48
1
60
0
100
AcDbSpline
70
4
71
3
72
8
73
4
40
0
40
0
40
0
40
0
40
1
40
1
40
1
40
1
41
1
10
160.450372071672
20
12.2460040139821
30
0
41
1
10
161.966914714448
20
8.16780475022782
30
0
41
1
10
163.483457357224
20
4.08576115228396
30
0
41
1
10
165
20
2.84E-14
30
0
0
SPLINE
5
115
100
AcDbEntity
8
1
62
256
6
ByLayer
370
13
48
1
60
0
100
AcDbSpline
70
4
71
3
72
8
73
4
40
0
40
0
40
0
40
0
40
1
40
1
40
1
40
1
41
1
10
160.450372071672
20
-8.45675053889468
30
0
41
1
10
161.966914714448
20
-5.65179357844528
30
0
41
1
10
163.483457357224
20
-2.83284750949704
30
0
41
1
10
165
20
-4.832E-13
30
0
0
SPLINE
5
116
100
AcDbEntity
8
1
62
256
6
ByLayer
370
13
48
1
60
0
100
AcDbSpline
70
4
71
3
72
8
73
4
40
0
40
0
40
0
40
0
40
1
40
1
40
1
40
1
41
1
10
160.450372071672
20
-10.8186933990543
30
0
41
1
10
161.966914714448
20
-7.20296649593254
30
0
41
1
10
163.483457357224
20
-3.59669807284263
30
0
41
1
10
165
20
-5.68E-14
30
0
0
SPLINE
5
117
100
AcDbEntity
8
1
62
256
6
ByLayer
370
13
48
1
60
0
100
AcDbSpline
70
4
71
3
72
8
73
4
40
0
40
0
40
0
40
0
40
1
40
1
40
1
40
1
41
1
10
160.450372071672
20
-7.52949612367595
30
0
41
1
10
161.966914714448
20
-5.03479585647233
30
0
41
1
10
163.483457357224
20
-2.52493778743926
30
0
41
1
10
165
20
3.411E-13
30
0
0
SPLINE
5
118
100
AcDbEntity
8
1
62
256
6
ByLayer
370
13
48
1
60
0
100
AcDbSpline
70
4
71
3
72
8
73
4
40
0
40
0
40
0
40
0
40
1
40
1
40
1
40
1
41
1
10
160.450372071672
20
-10.1643382947374
30
0
41
1
10
161.966914714448
20
-6.76519157710732
30
0
41
1
10
163.483457357224
20
-3.37704378485415
30
0
41
1
10
165
20
-5.68E-14
30
0
0
SPLINE
5
119
100
AcDbEntity
8
1
62
256
6
ByLayer
370
13
48
1
60
0
100
AcDbSpline
70
4
71
3
72
8
73
4
40
0
40
0
40
0
40
0
40
1
40
1
40
1
40
1
41
1
10
160.450372071672
20
9.68075223278456
30
0
41
1
10
161.966914714448
20
6.4658273123915
30
0
41
1
10
163.483457357224
20
3.23887646298249
30
0
41
1
10
165
20
-5.68E-14
30
0
0
SPLINE
5
11A
100
AcDbEntity
8
1
62
256
6
ByLayer
370
13
48
1
60
0
100
AcDbSpline
70
4
71
3
72
8
73
4
40
0
40
0
40
0
40
0
40
1
40
1
40
1
40
1
41
1
10
160.450372071672
20
-12.4811381218116
30
0
41
1
10
161.966914714448
20
-8.32179975380723
30
0
41
1
10
163.483457357224
20
-4.16137731826876
30
0
41
1
10
165
20
5.684E-13
30
0
0
SPLINE
5
11B
100
AcDbEntity
8
1
62
256
6
ByLayer
370
13
48
1
60
0
100
AcDbSpline
70
4
71
3
72
8
73
4
40
0
40
0
40
0
40
0
40
1
40
1
40
1
40
1
41
1
10
160.450372071672
20
11.994890533447
30
0
41
1
10
161.966914714448
20
7.99125929444472
30
0
41
1
10
163.483457357225
20
3.99292108783439
30
0
41
1
10
165.000000000001
20
-1.7337E-12
30
0
0
SPLINE
5
11C
100
AcDbEntity
8
1
62
256
6
ByLayer
370
13
48
1
60
0
100
AcDbSpline
70
4
71
3
72
8
73
4
40
0
40
0
40
0
40
0
40
1
40
1
40
1
40
1
41
1
10
160.450372071672
20
-6.67303526812478
30
0
41
1
10
161.966914714448
20
-4.43266063146999
30
0
41
1
10
163.483457357224
20
-2.20829257644758
30
0
41
1
10
165
20
2.842E-13
30
0
0
SPLINE
5
11D
100
AcDbEntity
8
1
62
256
6
ByLayer
370
13
48
1
60
0
100
AcDbSpline
70
4
71
3
72
8
73
4
40
0
40
0
40
0
40
0
40
1
40
1
40
1
40
1
41
1
10
160.450372071672
20
-6.53203438441349
30
0
41
1
10
161.966914714448
20
-4.37085215851627
30
0
41
1
10
163.483457357224
20
-2.19348477343775
30
0
41
1
10
165
20
2.842E-13
30
0
0
SPLINE
5
11E
100
AcDbEntity
8
1
62
256
6
ByLayer
370
13
48
1
60
0
100
AcDbSpline
70
4
71
3
72
8
73
4
40
0
40
0
40
0
40
0
40
1
40
1
40
1
40
1
41
1
10
160.450372071672
20
-12.4891555599919
30
0
41
1
10
161.966914714448
20
-8.32531423965949
30
0
41
1
10
163.483457357224
20
-4.16221930338369
30
0
41
1
10
165
20
-5.68E-14
30
0
0
SPLINE
5
11F
100
AcDbEntity
8
1
62
256
6
ByLayer
370
13
48
1
60
0
100
AcDbSpline
70
4
71
3
72
8
73
4
40
0
40
0
40
0
40
0
40
1
40
1
40
1
40
1
41
1
10
160.450372071672
20
11.5368076572429
30
0
41
1
10
161.966914714448
20
7.69850219194794
30
0
41
1
10
163.483457357224
20
3.85285981414506
30
0
41
1
10
165
20
0
30
0
0
SPLINE
5
120
100
AcDbEntity
8
1
62
256
6
ByLayer
370
13
48
1
60
0
100
AcDbSpline
70
4
71
3
72
8
73
4
40
0
40
0
40
0
40
0
40
1
40
1
40
1
40
1
41
1
10
160.450372071672
20
12.2782279912218
30
0
41
1
10
161.966914714448
20
8.18193029875766
30
0
41
1
10
163.483457357225
20
4.08914528927977
30
0
41
1
10
165.000000000001
20
-1.7621E-12
30
0
0
SPLINE
5
121
100
AcDbEntity
8
1
62
256
6
ByLayer
370
13
48
1
60
0
100
AcDbSpline
70
4
71
3
72
8
73
4
40
0
40
0
40
0
40
0
40
1
40
1
40
1
40
1
41
1
10
160.450372071672
20
-10.0667886350141
30
0
41
1
10
161.966914714448
20
-6.72243017486687
30
0
41
1
10
163.483457357224
20
-3.36679919555229
30
0
41
1
10
165
20
-5.684E-13
30
0
0
SPLINE
5
122
100
AcDbEntity
8
1
62
256
6
ByLayer
370
13
48
1
60
0
100
AcDbSpline
70
4
71
3
72
8
73
4
40
0
40
0
40
0
40
0
40
1
40
1
40
1
40
1
41
1
10
160.450372071672
20
1.57512653487569
30
0
41
1
10
161.966914714448
20
1.0312786789064
30
0
41
1
10
163.483457357224
20
0.506231131546627
30
0
41
1
10
165
20
8.53E-14
30
0
0
SPLINE
5
123
100
AcDbEntity
8
1
62
256
6
ByLayer
370
13
48
1
60
0
100
AcDbSpline
70
4
71
3
72
8
73
4
40
0
40
0
40
0
40
0
40
1
40
1
40
1
40
1
41
1
10
160.450372071672
20
12.4995231282519
30
0
41
1
10
161.966914714448
20
8.33318100394638
30
0
41
1
10
163.483457357224
20
4.16663017252262
30
0
41
1
10
165
20
0
30
0
0
SPLINE
5
124
100
AcDbEntity
8
1
62
256
6
ByLayer
370
13
48
1
60
0
100
AcDbSpline
70
4
71
3
72
8
73
4
40
0
40
0
40
0
40
0
40
1
40
1
40
1
40
1
41
1
10
160.450372071672
20
3.76870078667366
30
0
41
1
10
161.966914714448
20
2.53054186615751
30
0
41
1
10
163.483457357224
20
1.27429520680573
30
0
41
1
10
165
20
-8.53E-14
30
0
0
SPLINE
5
125
100
AcDbEntity
8
1
62
256
6
ByLayer
370
13
48
1
60
0
100
AcDbSpline
70
4
71
3
72
8
73
4
40
0
40
0
40
0
40
0
40
1
40
1
40
1
40
1
41
1
10
160.450372071672
20
2.60160836998367
30
0
41
1
10
161.966914714448
20
1.75294723706347
30
0
41
1
10
163.483457357224
20
0.885735407953632
30
0
41
1
10
165
20
2.84E-14
30
0
0
SPLINE
5
126
100
AcDbEntity
8
1
62
256
6
ByLayer
370
13
48
1
60
0
100
AcDbSpline
70
4
71
3
72
8
73
4
40
0
40
0
40
0
40
0
40
1
40
1
40
1
40
1
41
1
10
160.450372071672
20
-9.30515162638852
30
0
41
1
10
161.966914714448
20
-6.21609224902392
30
0
41
1
10
163.483457357224
20
-3.11434289521603
30
0
41
1
10
165
20
-5.68E-14
30
0
0
SPLINE
5
127
100
AcDbEntity
8
1
62
256
6
ByLayer
370
13
48
1
60
0
100
AcDbSpline
70
4
71
3
72
8
73
4
40
0
40
0
40
0
40
0
40
1
40
1
40
1
40
1
41
1
10
160.450372071672
20
-11.7645320498689
30
0
41
1
10
161.966914714448
20
-7.84942789065548
30
0
41
1
10
163.483457357224
20
-3.92787659943542
30
0
41
1
10
165
20
-5.68E-14
30
0
0
SPLINE
5
128
100
AcDbEntity
8
1
62
256
6
ByLayer
370
13
48
1
60
0
100
AcDbSpline
70
4
71
3
72
8
73
4
40
0
40
0
40
0
40
0
40
1
40
1
40
1
40
1
41
1
10
160.450372071672
20
9.78494715089872
30
0
41
1
10
161.966914714448
20
6.51150169831465
30
0
41
1
10
163.483457357225
20
3.24981893214542
30
0
41
1
10
165.000000000001
20
-1.4211E-12
30
0
0
SPLINE
5
129
100
AcDbEntity
8
1
62
256
6
ByLayer
370
13
48
1
60
0
100
AcDbSpline
70
4
71
3
72
8
73
4
40
0
40
0
40
0
40
0
40
1
40
1
40
1
40
1
41
1
10
160.450372071672
20
-11.3721716982405
30
0
41
1
10
161.966914714448
20
-7.57357875280093
30
0
41
1
10
163.483457357224
20
-3.78281564828833
30
0
41
1
10
165
20
5.116E-13
30
0
0
SPLINE
5
12A
100
AcDbEntity
8
1
62
256
6
ByLayer
370
13
48
1
60
0
100
AcDbSpline
70
4
71
3
72
8
73
4
40
0
40
0
40
0
40
0
40
1
40
1
40
1
40
1
41
1
10
160.450372071672
20
-11.3022387038482
30
0
41
1
10
161.966914714448
20
-7.54292325987987
30
0
41
1
10
163.483457357224
20
-3.77547133967411
30
0
41
1
10
165
20
5.116E-13
30
0
0
SPLINE
5
12B
100
AcDbEntity
8
1
62
256
6
ByLayer
370
13
48
1
60
0
100
AcDbSpline
70
4
71
3
72
8
73
4
40
0
40
0
40
0
40
0
40
1
40
1
40
1
40
1
41
1
10
160.450372071672
20
8.8729147185164
30
0
41
1
10
161.966914714448
20
5.9286290650912
30
0
41
1
10
163.483457357224
20
2.97096016932818
30
0
41
1
10
165
20
5.68E-14
30
0
0
SPLINE
5
12C
100
AcDbEntity
8
1
62
256
6
ByLayer
370
13
48
1
60
0
100
AcDbSpline
70
4
71
3
72
8
73
4
40
0
40
0
40
0
40
0
40
1
40
1
40
1
40
1
41
1
10
160.450372071672
20
11.0189375265664
30
0
41
1
10
161.966914714448
20
7.35490891014959
30
0
41
1
10
163.483457357224
20
3.68189169010711
30
0
41
1
10
165
20
5.68E-14
30
0
0
SPLINE
5
12D
100
AcDbEntity
8
1
62
256
6
ByLayer
370
13
48
1
60
0
100
AcDbSpline
70
4
71
3
72
8
73
4
40
0
40
0
40
0
40
0
40
1
40
1
40
1
40
1
41
1
10
160.450372071672
20
0.371770228127417
30
0
41
1
10
161.966914714448
20
0.228898421814392
30
0
41
1
10
163.483457357224
20
0.104973795257479
30
0
41
1
10
165
20
0
30
0
0
SPLINE
5
12E
100
AcDbEntity
8
1
62
256
6
ByLayer
370
13
48
1
60
0
100
AcDbSpline
70
4
71
3
72
8
73
4
40
0
40
0
40
0
40
0
40
1
40
1
40
1
40
1
41
1
10
160.450372071672
20
7.98234343446791
30
0
41
1
10
161.966914714448
20
5.33615046767542
30
0
41
1
10
163.483457357224
20
2.6753417346668
30
0
41
1
10
165
20
5.68E-14
30
0
0
SPLINE
5
12F
100
AcDbEntity
8
1
62
256
6
ByLayer
370
13
48
1
60
0
100
AcDbSpline
70
4
71
3
72
8
73
4
40
0
40
0
40
0
40
0
40
1
40
1
40
1
40
1
41
1
10
160.450372071672
20
-9.41520779235535
30
0
41
1
10
161.966914714448
20
-6.26433594352079
30
0
41
1
10
163.483457357224
20
-3.12590090806509
30
0
41
1
10
165
20
-5.68E-14
30
0
0
SPLINE
5
130
100
AcDbEntity
8
1
62
256
6
ByLayer
370
13
48
1
60
0
100
AcDbSpline
70
4
71
3
72
8
73
4
40
0
40
0
40
0
40
0
40
1
40
1
40
1
40
1
41
1
10
160.450372071672
20
-1.00066135054394
30
0
41
1
10
161.966914714448
20
-0.648211623592971
30
0
41
1
10
163.483457357224
20
-0.314654453138473
30
0
41
1
10
165
20
0
30
0
0
SPLINE
5
131
100
AcDbEntity
8
1
62
256
6
ByLayer
370
13
48
1
60
0
100
AcDbSpline
70
4
71
3
72
8
73
4
40
0
40
0
40
0
40
0
40
1
40
1
40
1
40
1
41
1
10
160.450372071672
20
-5.62246945089655
30
0
41
1
10
161.966914714448
20
-3.73138208542702
30
0
41
1
10
163.483457357224
20
-1.85720626354765
30
0
41
1
10
165
20
-2.84E-14
30
0
0
SPLINE
5
132
100
AcDbEntity
8
1
62
256
6
ByLayer
370
13
48
1
60
0
100
AcDbSpline
70
4
71
3
72
8
73
4
40
0
40
0
40
0
40
0
40
1
40
1
40
1
40
1
41
1
10
160.450372071672
20
5.05297991277038
30
0
41
1
10
161.966914714448
20
3.3513143841557
30
0
41
1
10
163.483457357224
20
1.66697037437734
30
0
41
1
10
165
20
-2.274E-13
30
0
0
SPLINE
5
133
100
AcDbEntity
8
1
62
256
6
ByLayer
370
13
48
1
60
0
100
AcDbSpline
70
4
71
3
72
8
73
4
40
0
40
0
40
0
40
0
40
1
40
1
40
1
40
1
41
1
10
160.450372071672
20
-2.03408909836651
30
0
41
1
10
161.966914714448
20
-1.37476350909432
30
0
41
1
10
163.483457357224
20
-0.696726727817406
30
0
41
1
10
165
20
8.53E-14
30
0
0
SPLINE
5
134
100
AcDbEntity
8
1
62
256
6
ByLayer
370
13
48
1
60
0
100
AcDbSpline
70
4
71
3
72
8
73
4
40
0
40
0
40
0
40
0
40
1
40
1
40
1
40
1
41
1
10
160.450372071672
20
-7.66137966419399
30
0
41
1
10
161.966914714448
20
-5.0926076944738
30
0
41
1
10
163.483457357224
20
-2.53878809416693
30
0
41
1
10
165
20
-2.84E-14
30
0
0
SPLINE
5
135
100
AcDbEntity
8
1
62
256
6
ByLayer
370
13
48
1
60
0
100
AcDbSpline
70
4
71
3
72
8
73
4
40
0
40
0
40
0
40
0
40
1
40
1
40
1
40
1
41
1
10
160.450372071672
20
12.4307174763736
30
0
41
1
10
161.966914714448
20
8.28913810616393
30
0
41
1
10
163.483457357224
20
4.14552272309712
30
0
41
1
10
165
20
0
30
0
0
SPLINE
5
136
100
AcDbEntity
8
1
62
256
6
ByLayer
370
13
48
1
60
0
100
AcDbSpline
70
4
71
3
72
8
73
4
40
0
40
0
40
0
40
0
40
1
40
1
40
1
40
1
41
1
10
160.450372071672
20
10.3983234532884
30
0
41
1
10
161.966914714448
20
6.9427362088671
30
0
41
1
10
163.483457357224
20
3.47659248219091
30
0
41
1
10
165
20
5.68E-14
30
0
0
SPLINE
5
137
100
AcDbEntity
8
1
62
256
6
ByLayer
370
13
48
1
60
0
100
AcDbSpline
70
4
71
3
72
8
73
4
40
0
40
0
40
0
40
0
40
1
40
1
40
1
40
1
41
1
10
160.450372071672
20
7.01734233958891
30
0
41
1
10
161.966914714448
20
4.69391597174027
30
0
41
1
10
163.483457357224
20
2.35477759567019
30
0
41
1
10
165
20
2.84E-14
30
0
0
SPLINE
5
138
100
AcDbEntity
8
1
62
256
6
ByLayer
370
13
48
1
60
0
100
AcDbSpline
70
4
71
3
72
8
73
4
40
0
40
0
40
0
40
0
40
1
40
1
40
1
40
1
41
1
10
160.450372071672
20
-0.835052577898779
30
0
41
1
10
161.966914714448
20
-0.5756161541496
30
0
41
1
10
163.483457357224
20
-0.297262348794931
30
0
41
1
10
165
20
-5.68E-14
30
0
0
SPLINE
5
139
100
AcDbEntity
8
1
62
256
6
ByLayer
370
13
48
1
60
0
100
AcDbSpline
70
4
71
3
72
8
73
4
40
0
40
0
40
0
40
0
40
1
40
1
40
1
40
1
41
1
10
160.450372071672
20
6.13214954814816
30
0
41
1
10
161.966914714448
20
4.07158074510374
30
0
41
1
10
163.483457357224
20
2.02750979773458
30
0
41
1
10
165
20
-2.842E-13
30
0
0
SPLINE
5
13A
100
AcDbEntity
8
1
62
256
6
ByLayer
370
13
48
1
60
0
100
AcDbSpline
70
4
71
3
72
8
73
4
40
0
40
0
40
0
40
0
40
1
40
1
40
1
40
1
41
1
10
160.450372071672
20
-8.5782870137632
30
0
41
1
10
161.966914714448
20
-5.70506972623988
30
0
41
1
10
163.483457357224
20
-2.84561117544666
30
0
41
1
10
165
20
3.695E-13
30
0
0
SPLINE
5
13B
100
AcDbEntity
8
1
62
256
6
ByLayer
370
13
48
1
60
0
100
AcDbSpline
70
4
71
3
72
8
73
4
40
0
40
0
40
0
40
0
40
1
40
1
40
1
40
1
41
1
10
160.450372071672
20
-5.47366595934315
30
0
41
1
10
161.966914714448
20
-3.66615329862066
30
0
41
1
10
163.483457357224
20
-1.84157903673795
30
0
41
1
10
165
20
2.558E-13
30
0
0
SPLINE
5
13C
100
AcDbEntity
8
1
62
256
6
ByLayer
370
13
48
1
60
0
100
AcDbSpline
70
4
71
3
72
8
73
4
40
0
40
0
40
0
40
0
40
1
40
1
40
1
40
1
41
1
10
160.450372071672
20
-3.37434557309862
30
0
41
1
10
161.966914714448
20
-2.2313107029062
30
0
41
1
10
163.483457357224
20
-1.10651726720275
30
0
41
1
10
165
20
5.68E-14
30
0
0
SPLINE
5
13D
100
AcDbEntity
8
1
62
256
6
ByLayer
370
13
48
1
60
0
100
AcDbSpline
70
4
71
3
72
8
73
4
40
0
40
0
40
0
40
0
40
1
40
1
40
1
40
1
41
1
10
160.450372071672
20
10.4895616808105
30
0
41
1
10
161.966914714448
20
6.9827309618762
30
0
41
1
10
163.483457357225
20
3.4861742497971
30
0
41
1
10
165.000000000001
20
-1.5064E-12
30
0
0
SPLINE
5
13E
100
AcDbEntity
8
1
62
256
6
ByLayer
370
13
48
1
60
0
100
AcDbSpline
70
4
71
3
72
8
73
4
40
0
40
0
40
0
40
0
40
1
40
1
40
1
40
1
41
1
10
160.450372071672
20
1.41025776139514
30
0
41
1
10
161.966914714448
20
0.959007591957288
30
0
41
1
10
163.483457357224
20
0.48891674133904
30
0
41
1
10
165
20
5.68E-14
30
0
0
SPLINE
5
13F
100
AcDbEntity
8
1
62
256
6
ByLayer
370
13
48
1
60
0
100
AcDbSpline
70
4
71
3
72
8
73
4
40
0
40
0
40
0
40
0
40
1
40
1
40
1
40
1
41
1
10
160.450372071672
20
11.0963683303664
30
0
41
1
10
161.966914714448
20
7.38885110693894
30
0
41
1
10
163.483457357225
20
3.69002341282581
30
0
41
1
10
165.000000000001
20
-1.5916E-12
30
0
0
SPLINE
5
140
100
AcDbEntity
8
1
62
256
6
ByLayer
370
13
48
1
60
0
100
AcDbSpline
70
4
71
3
72
8
73
4
40
0
40
0
40
0
40
0
40
1
40
1
40
1
40
1
41
1
10
160.450372071672
20
5.98690939914266
30
0
41
1
10
161.966914714448
20
4.00791396809268
30
0
41
1
10
163.483457357224
20
2.01225679038473
30
0
41
1
10
165
20
2.84E-14
30
0
0
SPLINE
5
141
100
AcDbEntity
8
1
62
256
6
ByLayer
370
13
48
1
60
0
100
AcDbSpline
70
4
71
3
72
8
73
4
40
0
40
0
40
0
40
0
40
1
40
1
40
1
40
1
41
1
10
160.450372071672
20
12.4470794970673
30
0
41
1
10
161.966914714448
20
8.29631048329259
30
0
41
1
10
163.483457357225
20
4.14724104976818
30
0
41
1
10
165.000000000001
20
-1.7906E-12
30
0
0
SPLINE
5
142
100
AcDbEntity
8
1
62
256
6
ByLayer
370
13
48
1
60
0
100
AcDbSpline
70
4
71
3
72
8
73
4
40
0
40
0
40
0
40
0
40
1
40
1
40
1
40
1
41
1
10
160.450372071672
20
4.90065268492671
30
0
41
1
10
161.966914714448
20
3.28454094916378
30
0
41
1
10
163.483457357224
20
1.65097308752658
30
0
41
1
10
165
20
2.84E-14
30
0
0
SPLINE
5
143
100
AcDbEntity
8
1
62
256
6
ByLayer
370
13
48
1
60
0
100
AcDbSpline
70
4
71
3
72
8
73
4
40
0
40
0
40
0
40
0
40
1
40
1
40
1
40
1
41
1
10
160.450372071672
20
2.7637958802087
30
0
41
1
10
161.966914714448
20
1.82404297827688
30
0
41
1
10
163.483457357224
20
0.902768213982114
30
0
41
1
10
165
20
1.421E-13
30
0
0
SPLINE
5
144
100
AcDbEntity
8
1
62
256
6
ByLayer
370
13
48
1
60
0
100
AcDbSpline
70
4
71
3
72
8
73
4
40
0
40
0
40
0
40
0
40
1
40
1
40
1
40
1
41
1
10
160.450372071672
20
7.15414114619892
30
0
41
1
10
161.966914714448
20
4.75388244227511
30
0
41
1
10
163.483457357224
20
2.36914409981495
30
0
41
1
10
165
20
-3.126E-13
30
0
0
SPLINE
5
145
100
AcDbEntity
8
1
62
256
6
ByLayer
370
13
48
1
60
0
100
AcDbSpline
70
4
71
3
72
8
73
4
40
0
40
0
40
0
40
0
40
1
40
1
40
1
40
1
41
1
10
160.450372071672
20
11.5997090488313
30
0
41
1
10
161.966914714448
20
7.72607534509675
30
0
41
1
10
163.483457357225
20
3.85946566930736
30
0
41
1
10
165.000000000001
20
-1.6769E-12
30
0
0
SPLINE
5
146
100
AcDbEntity
8
1
62
256
6
ByLayer
370
13
48
1
60
0
100
AcDbSpline
70
4
71
3
72
8
73
4
40
0
40
0
40
0
40
0
40
1
40
1
40
1
40
1
41
1
10
160.450372071672
20
-4.51947800940567
30
0
41
1
10
161.966914714448
20
-2.99531099192785
30
0
41
1
10
163.483457357224
20
-1.48880279159474
30
0
41
1
10
165
20
-1.421E-13
30
0
0
SPLINE
5
147
100
AcDbEntity
8
1
62
256
6
ByLayer
370
13
48
1
60
0
100
AcDbSpline
70
4
71
3
72
8
73
4
40
0
40
0
40
0
40
0
40
1
40
1
40
1
40
1
41
1
10
160.450372071672
20
0.205757478244948
30
0
41
1
10
161.966914714448
20
0.156125866841563
30
0
41
1
10
163.483457357224
20
0.0875392655390215
30
0
41
1
10
165
20
0
30
0
0
SPLINE
5
148
100
AcDbEntity
8
1
62
256
6
ByLayer
370
13
48
1
60
0
100
AcDbSpline
70
4
71
3
72
8
73
4
40
0
40
0
40
0
40
0
40
1
40
1
40
1
40
1
41
1
10
160.450372071672
20
-12.1568434047177
30
0
41
1
10
161.966914714448
20
-8.10015093988633
30
0
41
1
10
163.483457357224
20
-4.04782788095605
30
0
41
1
10
165
20
-5.68E-14
30
0
0
SPLINE
5
149
100
AcDbEntity
8
1
62
256
6
ByLayer
370
13
48
1
60
0
100
AcDbSpline
70
4
71
3
72
8
73
4
40
0
40
0
40
0
40
0
40
1
40
1
40
1
40
1
41
1
10
160.450372071672
20
8.98909478194787
30
0
41
1
10
161.966914714448
20
5.97955720198877
30
0
41
1
10
163.483457357225
20
2.98316130911951
30
0
41
1
10
165.000000000001
20
-1.279E-12
30
0
0
SPLINE
5
14A
100
AcDbEntity
8
1
62
256
6
ByLayer
370
13
48
1
60
0
100
AcDbSpline
70
4
71
3
72
8
73
4
40
0
40
0
40
0
40
0
40
1
40
1
40
1
40
1
41
1
10
160.450372071672
20
-12.3807202930996
30
0
41
1
10
161.966914714448
20
-8.25120095002808
30
0
41
1
10
163.483457357224
20
-4.12425148309089
30
0
41
1
10
165
20
-5.68E-14
30
0
0
LINE
5
7D
100
AcDbEntity
8
80
62
256
6
ByLayer
370
18
48
1
60
0
100
AcDbLine
10
0
20
0
30
0
11
-5
21
0
31
0
39
0
210
0
220
0
230
1
0
LINE
5
7E
100
AcDbEntity
8
4
62
256
6
ByLayer
370
18
48
0.05
60
0
100
AcDbLine
10
-5
20
0
30
0
11
170
21
0
31
0
39
0
210
0
220
0
230
1
0
LINE
5
80
100
AcDbEntity
8
81
62
256
6
ByLayer
370
18
48
1
60
0
100
AcDbLine
10
165
20
0
30
0
11
170
21
0
31
0
39
0
210
0
220
0
230
1
0
LINE
5
81
100
AcDbEntity
8
SK4
62
256
6
ByLayer
370
18
48
0.05
60
0
100
AcDbLine
10
-65
20
0
30
0
11
170
21
0
31
0
39
0
210
0
220
0
230
1
0
LINE
5
83
100
AcDbEntity
8
1
62
256
6
ByLayer
370
18
48
1
60
0
100
AcDbLine
10
0
20
16
30
0
11
0
21
-16
31
0
39
0
210
0
220
0
230
1
0
LINE
5
84
100
AcDbEntity
8
1
62
256
6
ByLayer
370
18
48
1
60
0
100
AcDbLine
10
160.450372
20
12.5
30
0
11
160.450372
21
12.103071
31
0
39
0
210
0
220
0
230
1
0
LINE
5
85
100
AcDbEntity
8
1
62
256
6
ByLayer
370
18
48
1
60
0
100
AcDbLine
10
160.450372
20
-12.5
30
0
11
160.450372
21
-1.78286
31
0
39
0
210
0
220
0
230
1
0
LINE
5
86
100
AcDbEntity
8
1
62
256
6
ByLayer
370
18
48
1
60
0
100
AcDbLine
10
10
20
-8.864373
30
0
11
10
21
10.987093
31
0
39
0
210
0
220
0
230
1
0
LINE
5
87
100
AcDbEntity
8
SK1
62
256
6
ByLayer
370
13
48
1
60
0
100
AcDbLine
10
-15.198909
20
-8.334638
30
0
11
-15.198909
21
8.334638
31
0
39
0
210
0
220
0
230
1
0
LINE
5
89
100
AcDbEntity
8
SK1
62
256
6
ByLayer
370
13
48
1
60
0
100
AcDbLine
10
-55.486983
20
5.39045
30
0
11
-55.486983
21
-5.39045
31
0
39
0
210
0
220
0
230
1
0
LINE
5
8A
100
AcDbEntity
8
SK1
62
256
6
ByLayer
370
18
48
1
60
0
100
AcDbLine
10
-60
20
-15
30
0
11
-60
21
15
31
0
39
0
210
0
220
0
230
1
0
LINE
5
8B
100
AcDbEntity
8
SK1
62
256
6
ByLayer
370
13
48
1
60
0
100
AcDbLine
10
-14.051873
20
7.587342
30
0
11
-14.051873
21
-7.587342
31
0
39
0
210
0
220
0
230
1
0
LINE
5
8C
100
AcDbEntity
8
SK1
62
256
6
ByLayer
370
13
48
1
60
0
100
AcDbLine
10
-56.60131
20
-3.674042
30
0
11
-56.60131
21
3.674042
31
0
39
0
210
0
220
0
230
1
0
LINE
5
8D
100
AcDbEntity
8
SK1
62
256
6
ByLayer
370
18
48
1
60
0
100
AcDbLine
10
-59
20
-16
30
0
11
-59
21
16
31
0
39
0
210
0
220
0
230
1
0
LINE
5
8E
100
AcDbEntity
8
SK1
62
256
6
ByLayer
370
18
48
1
60
0
100
AcDbLine
10
0
20
16
30
0
11
0
21
-16
31
0
39
0
210
0
220
0
230
1
0
LINE
5
8F
100
AcDbEntity
8
1
62
256
6
ByLayer
370
18
48
1
60
0
100
AcDbLine
10
44.195797
20
-12.2
30
0
11
101.275097
21
-12.2
31
0
39
0
210
0
220
0
230
1
0
LINE
5
90
100
AcDbEntity
8
1
62
256
6
ByLayer
370
18
48
1
60
0
100
AcDbLine
10
101.275097
20
12.2
30
0
11
44.195797
21
12.2
31
0
39
0
210
0
220
0
230
1
0
LINE
5
91
100
AcDbEntity
8
1
62
256
6
ByLayer
370
18
48
1
60
0
100
AcDbLine
10
165
20
0
30
0
11
160.450372
21
12.5
31
0
39
0
210
0
220
0
230
1
0
LINE
5
92
100
AcDbEntity
8
1
62
256
6
ByLayer
370
18
48
1
60
0
100
AcDbLine
10
160.450372
20
-12.5
30
0
11
165
21
0
31
0
39
0
210
0
220
0
230
1
0
LINE
5
93
100
AcDbEntity
8
1
62
256
6
ByLayer
370
18
48
1
60
0
100
AcDbLine
10
3.582153
20
14.638782
30
0
11
0
21
16
31
0
39
0
210
0
220
0
230
1
0
LINE
5
94
100
AcDbEntity
8
1
62
256
6
ByLayer
370
18
48
1
60
0
100
AcDbLine
10
0
20
-16
30
0
11
3.582153
21
-14.638782
31
0
39
0
210
0
220
0
230
1
0
LINE
5
95
100
AcDbEntity
8
1
62
256
6
ByLayer
370
18
48
1
60
0
100
AcDbLine
10
165
20
0
30
0
11
160.450372
21
12.5
31
0
39
0
210
0
220
0
230
1
0
LINE
5
96
100
AcDbEntity
8
1
62
256
6
ByLayer
370
18
48
1
60
0
100
AcDbLine
10
160.450372
20
-12.5
30
0
11
165
21
0
31
0
39
0
210
0
220
0
230
1
0
LINE
5
97
100
AcDbEntity
8
1
62
256
6
ByLayer
370
18
48
1
60
0
100
AcDbLine
10
160.450372
20
12.5
30
0
11
149.2
21
12.5
31
0
39
0
210
0
220
0
230
1
0
LINE
5
98
100
AcDbEntity
8
1
62
256
6
ByLayer
370
18
48
1
60
0
100
AcDbLine
10
149.2
20
-12.5
30
0
11
160.450372
21
-12.5
31
0
39
0
210
0
220
0
230
1
0
LINE
5
99
100
AcDbEntity
8
SK1
62
256
6
ByLayer
370
18
48
1
60
0
100
AcDbLine
10
-60
20
-15
30
0
11
-59
21
-16
31
0
39
0
210
0
220
0
230
1
0
LINE
5
9A
100
AcDbEntity
8
SK1
62
256
6
ByLayer
370
18
48
1
60
0
100
AcDbLine
10
-59
20
16
30
0
11
-60
21
15
31
0
39
0
210
0
220
0
230
1
0
LINE
5
9B
100
AcDbEntity
8
SK1
62
256
6
ByLayer
370
18
48
1
60
0
100
AcDbLine
10
-59
20
-16
30
0
11
0
21
-16
31
0
39
0
210
0
220
0
230
1
0
LINE
5
9C
100
AcDbEntity
8
SK1
62
256
6
ByLayer
370
18
48
1
60
0
100
AcDbLine
10
0
20
16
30
0
11
-59
21
16
31
0
39
0
210
0
220
0
230
1
0
LINE
5
9D
100
AcDbEntity
8
1
62
256
6
ByLayer
370
18
48
1
60
0
100
AcDbLine
10
160.450372
20
12.5
30
0
11
160.450372
21
-12.5
31
0
39
0
210
0
220
0
230
1
0
LINE
5
9E
100
AcDbEntity
8
1
62
256
6
ByLayer
370
18
48
1
60
0
100
AcDbLine
10
160.450372
20
12.5
30
0
11
160.450372
21
-12.5
31
0
39
0
210
0
220
0
230
1
0
LINE
5
9F
100
AcDbEntity
8
1
62
256
6
ByLayer
370
18
48
1
60
0
100
AcDbLine
10
160.450372
20
12.5
30
0
11
160.450372
21
-12.5
31
0
39
0
210
0
220
0
230
1
0
LINE
5
A0
100
AcDbEntity
8
1
62
256
6
ByLayer
370
18
48
1
60
0
100
AcDbLine
10
149.2
20
12.5
30
0
11
149.2
21
-12.5
31
0
39
0
210
0
220
0
230
1
0
LINE
5
A1
100
AcDbEntity
8
1
62
256
6
ByLayer
370
18
48
1
60
0
100
AcDbLine
10
149.2
20
12.5
30
0
11
149.2
21
-12.5
31
0
39
0
210
0
220
0
230
1
0
LINE
5
A2
100
AcDbEntity
8
1
62
256
6
ByLayer
370
18
48
1
60
0
100
AcDbLine
10
160.450372
20
12.5
30
0
11
160.450372
21
-12.5
31
0
39
0
210
0
220
0
230
1
0
LINE
5
A3
100
AcDbEntity
8
1
62
256
6
ByLayer
370
18
48
1
60
0
100
AcDbLine
10
149.2
20
12.5
30
0
11
149.2
21
-12.5
31
0
39
0
210
0
220
0
230
1
0
LINE
5
A4
100
AcDbEntity
8
1
62
256
6
ByLayer
370
18
48
1
60
0
100
AcDbLine
10
160.450372
20
12.5
30
0
11
160.450372
21
-12.5
31
0
39
0
210
0
220
0
230
1
0
LINE
5
A5
100
AcDbEntity
8
SK2
62
256
6
ByLayer
370
13
48
1
60
0
100
AcDbLine
10
-66.5
20
-16
30
0
11
-66.5
21
45.024569
31
0
39
0
210
0
220
0
230
1
0
LINE
5
A7
100
AcDbEntity
8
SK2
62
256
6
ByLayer
370
13
48
1
60
0
100
AcDbLine
10
-61.5875
20
16
30
0
11
-68.5
21
16
31
0
39
0
210
0
220
0
230
1
0
LINE
5
A8
100
AcDbEntity
8
SK2
62
256
6
ByLayer
370
13
48
1
60
0
100
AcDbLine
10
-61.5875
20
-16
30
0
11
-68.5
21
-16
31
0
39
0
210
0
220
0
230
1
0
LINE
5
A9
100
AcDbEntity
8
1
62
256
6
ByLayer
370
18
48
1
60
1
100
AcDbLine
10
-66.5
20
16
30
0
11
-66.039216
21
12.500002
31
0
39
0
210
0
220
0
230
1
0
LINE
5
AA
100
AcDbEntity
8
1
62
256
6
ByLayer
370
18
48
1
60
1
100
AcDbLine
10
-66.039216
20
12.500002
30
0
11
-66.960784
21
12.499998
31
0
39
0
210
0
220
0
230
1
0
LINE
5
AB
100
AcDbEntity
8
1
62
256
6
ByLayer
370
18
48
1
60
1
100
AcDbLine
10
-66.960784
20
12.499998
30
0
11
-66.5
21
16
31
0
39
0
210
0
220
0
230
1
0
LINE
5
AC
100
AcDbEntity
8
1
62
256
6
ByLayer
370
18
48
1
60
1
100
AcDbLine
10
-66.5
20
-16
30
0
11
-66.960784
21
-12.500002
31
0
39
0
210
0
220
0
230
1
0
LINE
5
AD
100
AcDbEntity
8
1
62
256
6
ByLayer
370
18
48
1
60
1
100
AcDbLine
10
-66.960784
20
-12.500002
30
0
11
-66.039216
21
-12.499998
31
0
39
0
210
0
220
0
230
1
0
LINE
5
AE
100
AcDbEntity
8
1
62
256
6
ByLayer
370
18
48
1
60
1
100
AcDbLine
10
-66.039216
20
-12.499998
30
0
11
-66.5
21
-16
31
0
39
0
210
0
220
0
230
1
0
LINE
5
AF
100
AcDbEntity
8
2
62
256
6
ByLayer
370
13
48
1
60
0
100
AcDbLine
10
172.5
20
-12.5
30
0
11
172.5
21
41.524569
31
0
39
0
210
0
220
0
230
1
0
LINE
5
B1
100
AcDbEntity
8
2
62
256
6
ByLayer
370
13
48
1
60
0
100
AcDbLine
10
162.037872
20
12.5
30
0
11
174.5
21
12.5
31
0
39
0
210
0
220
0
230
1
0
LINE
5
B2
100
AcDbEntity
8
2
62
256
6
ByLayer
370
13
48
1
60
0
100
AcDbLine
10
162.037872
20
-12.5
30
0
11
174.5
21
-12.5
31
0
39
0
210
0
220
0
230
1
0
LINE
5
B3
100
AcDbEntity
8
1
62
256
6
ByLayer
370
18
48
1
60
1
100
AcDbLine
10
172.5
20
12.5
30
0
11
172.960784
21
9.000002
31
0
39
0
210
0
220
0
230
1
0
LINE
5
B4
100
AcDbEntity
8
1
62
256
6
ByLayer
370
18
48
1
60
1
100
AcDbLine
10
172.960784
20
9.000002
30
0
11
172.039216
21
8.999998
31
0
39
0
210
0
220
0
230
1
0
LINE
5
B5
100
AcDbEntity
8
1
62
256
6
ByLayer
370
18
48
1
60
1
100
AcDbLine
10
172.039216
20
8.999998
30
0
11
172.5
21
12.5
31
0
39
0
210
0
220
0
230
1
0
LINE
5
B6
100
AcDbEntity
8
1
62
256
6
ByLayer
370
18
48
1
60
1
100
AcDbLine
10
172.5
20
-12.5
30
0
11
172.039216
21
-9.000002
31
0
39
0
210
0
220
0
230
1
0
LINE
5
B7
100
AcDbEntity
8
1
62
256
6
ByLayer
370
18
48
1
60
1
100
AcDbLine
10
172.039216
20
-9.000002
30
0
11
172.960784
21
-8.999998
31
0
39
0
210
0
220
0
230
1
0
LINE
5
B8
100
AcDbEntity
8
1
62
256
6
ByLayer
370
18
48
1
60
1
100
AcDbLine
10
172.960784
20
-8.999998
30
0
11
172.5
21
-12.5
31
0
39
0
210
0
220
0
230
1
0
LINE
5
B9
100
AcDbEntity
8
SK2
62
256
6
ByLayer
370
13
48
1
60
0
100
AcDbLine
10
165.542957
20
-1.491762
30
0
11
172.182423
21
-19.733545
31
0
39
0
210
0
220
0
230
1
0
LINE
5
BA
100
AcDbEntity
8
SK2
62
256
6
ByLayer
370
13
48
1
60
0
100
AcDbLine
10
165.542957
20
1.491762
30
0
11
172.182423
21
19.733545
31
0
39
0
210
0
220
0
230
1
0
LINE
5
BB
100
AcDbEntity
8
1
62
256
6
ByLayer
370
18
48
1
60
1
100
AcDbLine
10
171.498383
20
-17.85416
30
0
11
174.551575
21
-16.082064
31
0
39
0
210
0
220
0
230
1
0
LINE
5
BC
100
AcDbEntity
8
1
62
256
6
ByLayer
370
18
48
1
60
1
100
AcDbLine
10
174.551575
20
-16.082064
30
0
11
174.906196
21
-16.93267
31
0
39
0
210
0
220
0
230
1
0
LINE
5
BD
100
AcDbEntity
8
1
62
256
6
ByLayer
370
18
48
1
60
1
100
AcDbLine
10
174.906196
20
-16.93267
30
0
11
171.498383
21
-17.85416
31
0
39
0
210
0
220
0
230
1
0
LINE
5
BE
100
AcDbEntity
8
1
62
256
6
ByLayer
370
18
48
1
60
1
100
AcDbLine
10
171.498383
20
17.85416
30
0
11
174.906193
21
16.932671
31
0
39
0
210
0
220
0
230
1
0
LINE
5
BF
100
AcDbEntity
8
1
62
256
6
ByLayer
370
18
48
1
60
1
100
AcDbLine
10
174.906193
20
16.932671
30
0
11
174.551579
21
16.082063
31
0
39
0
210
0
220
0
230
1
0
LINE
5
C0
100
AcDbEntity
8
1
62
256
6
ByLayer
370
18
48
1
60
1
100
AcDbLine
10
174.551579
20
16.082063
30
0
11
171.498383
21
17.85416
31
0
39
0
210
0
220
0
230
1
0
LINE
5
14F
100
AcDbEntity
8
1
62
256
6
ByLayer
370
18
48
1
60
1
100
AcDbLine
10
-66.5
20
16
30
0
11
-66.039216
21
12.500002
31
0
39
0
210
0
220
0
230
1
0
LINE
5
150
100
AcDbEntity
8
1
62
256
6
ByLayer
370
18
48
1
60
1
100
AcDbLine
10
-66.039216
20
12.500002
30
0
11
-66.960784
21
12.499998
31
0
39
0
210
0
220
0
230
1
0
LINE
5
151
100
AcDbEntity
8
1
62
256
6
ByLayer
370
18
48
1
60
1
100
AcDbLine
10
-66.960784
20
12.499998
30
0
11
-66.5
21
16
31
0
39
0
210
0
220
0
230
1
0
LINE
5
153
100
AcDbEntity
8
1
62
256
6
ByLayer
370
18
48
1
60
1
100
AcDbLine
10
-66.5
20
-16
30
0
11
-66.960784
21
-12.500002
31
0
39
0
210
0
220
0
230
1
0
LINE
5
154
100
AcDbEntity
8
1
62
256
6
ByLayer
370
18
48
1
60
1
100
AcDbLine
10
-66.960784
20
-12.500002
30
0
11
-66.039216
21
-12.499998
31
0
39
0
210
0
220
0
230
1
0
LINE
5
155
100
AcDbEntity
8
1
62
256
6
ByLayer
370
18
48
1
60
1
100
AcDbLine
10
-66.039216
20
-12.499998
30
0
11
-66.5
21
-16
31
0
39
0
210
0
220
0
230
1
0
LINE
5
159
100
AcDbEntity
8
1
62
256
6
ByLayer
370
18
48
1
60
1
100
AcDbLine
10
172.5
20
12.5
30
0
11
172.960784
21
9.000002
31
0
39
0
210
0
220
0
230
1
0
LINE
5
15A
100
AcDbEntity
8
1
62
256
6
ByLayer
370
18
48
1
60
1
100
AcDbLine
10
172.960784
20
9.000002
30
0
11
172.039216
21
8.999998
31
0
39
0
210
0
220
0
230
1
0
LINE
5
15B
100
AcDbEntity
8
1
62
256
6
ByLayer
370
18
48
1
60
1
100
AcDbLine
10
172.039216
20
8.999998
30
0
11
172.5
21
12.5
31
0
39
0
210
0
220
0
230
1
0
LINE
5
15D
100
AcDbEntity
8
1
62
256
6
ByLayer
370
18
48
1
60
1
100
AcDbLine
10
172.5
20
-12.5
30
0
11
172.039216
21
-9.000002
31
0
39
0
210
0
220
0
230
1
0
LINE
5
15E
100
AcDbEntity
8
1
62
256
6
ByLayer
370
18
48
1
60
1
100
AcDbLine
10
172.039216
20
-9.000002
30
0
11
172.960784
21
-8.999998
31
0
39
0
210
0
220
0
230
1
0
LINE
5
15F
100
AcDbEntity
8
1
62
256
6
ByLayer
370
18
48
1
60
1
100
AcDbLine
10
172.960784
20
-8.999998
30
0
11
172.5
21
-12.5
31
0
39
0
210
0
220
0
230
1
0
LINE
5
162
100
AcDbEntity
8
1
62
256
6
ByLayer
370
18
48
1
60
1
100
AcDbLine
10
171.498383
20
-17.85416
30
0
11
174.551575
21
-16.082064
31
0
39
0
210
0
220
0
230
1
0
LINE
5
163
100
AcDbEntity
8
1
62
256
6
ByLayer
370
18
48
1
60
1
100
AcDbLine
10
174.551575
20
-16.082064
30
0
11
174.906196
21
-16.93267
31
0
39
0
210
0
220
0
230
1
0
LINE
5
164
100
AcDbEntity
8
1
62
256
6
ByLayer
370
18
48
1
60
1
100
AcDbLine
10
174.906196
20
-16.93267
30
0
11
171.498383
21
-17.85416
31
0
39
0
210
0
220
0
230
1
0
LINE
5
166
100
AcDbEntity
8
1
62
256
6
ByLayer
370
18
48
1
60
1
100
AcDbLine
10
171.498383
20
17.85416
30
0
11
174.906193
21
16.932671
31
0
39
0
210
0
220
0
230
1
0
LINE
5
167
100
AcDbEntity
8
1
62
256
6
ByLayer
370
18
48
1
60
1
100
AcDbLine
10
174.906193
20
16.932671
30
0
11
174.551579
21
16.082063
31
0
39
0
210
0
220
0
230
1
0
LINE
5
168
100
AcDbEntity
8
1
62
256
6
ByLayer
370
18
48
1
60
1
100
AcDbLine
10
174.551579
20
16.082063
30
0
11
171.498383
21
17.85416
31
0
39
0
210
0
220
0
230
1
0
MTEXT
5
14B
100
AcDbEntity
8
SK2
62
256
6
ByLayer
370
18
48
1
60
0
100
AcDbMText
10
-67.841114
20
27.658438
30
0
210
0
220
0
230
1
1
%%c
40
3
41
0
44
1.084337
50
90
71
7
72
5
7
iso_b_vert
0
MTEXT
5
14E
100
AcDbEntity
8
SK2
62
256
6
ByLayer
370
18
48
1
60
0
100
AcDbMText
10
-67.841114
20
33.635
30
0
210
0
220
0
230
1
1
\W0.7513;32.000
40
3
41
0
44
1.084337
50
90
71
7
72
5
7
iso_b_vert
0
MTEXT
5
157
100
AcDbEntity
8
2
62
256
6
ByLayer
370
18
48
1
60
0
100
AcDbMText
10
171.158886
20
24.158438
30
0
210
0
220
0
230
1
1
%%c
40
3
41
0
44
1.084337
50
90
71
7
72
5
7
iso_b_vert
0
MTEXT
5
158
100
AcDbEntity
8
2
62
256
6
ByLayer
370
18
48
1
60
0
100
AcDbMText
10
171.158886
20
30.135
30
0
210
0
220
0
230
1
1
\W0.7513;25.000
40
3
41
0
44
1.084337
50
90
71
7
72
5
7
iso_b_vert
0
MTEXT
5
161
100
AcDbEntity
8
SK2
62
256
6
ByLayer
370
18
48
1
60
0
100
AcDbMText
10
184.909114
20
3.734657
30
0
210
0
220
0
230
1
1
\W0.7071;140%%d
40
3
41
0
44
1.084337
50
270
71
7
72
5
7
iso_b_vert
0
MTEXT
5
16A
100
AcDbEntity
8
SK6
62
256
6
ByLayer
370
18
48
1
60
0
100
AcDbMText
10
28.21286
20
-67.114886
30
0
210
0
220
0
230
1
1
\W0.7680;H85525.0
40
3
41
0
44
1.084337
50
0
71
7
72
5
7
iso_b_vert
0
HATCH
5
152
100
AcDbEntity
8
SK2
62
256
6
ByLayer
370
13
48
1
60
0
100
AcDbHatch
10
0
20
0
30
0
210
0
220
0
230
1
2
ANSI31
70
0
71
0
91
1
92
5
93
3
72
1
10
-66.5
20
16
11
-66.0392162584472
21
12.5000016925532
72
1
10
-66.0392162584472
20
12.5000016925532
11
-66.9607837415528
21
12.4999983074468
72
1
10
-66.9607837415528
20
12.4999983074468
11
-66.5
21
16
97
0
75
0
76
1
52
0
41
0.0062
77
0
78
1
53
45
43
0
44
0
45
-0.0139193969876572
46
0.0139193969876572
79
0
47
0
98
1
10
0
20
0
0
HATCH
5
156
100
AcDbEntity
8
SK2
62
256
6
ByLayer
370
13
48
1
60
0
100
AcDbHatch
10
0
20
0
30
0
210
0
220
0
230
1
2
ANSI31
70
0
71
0
91
1
92
5
93
3
72
1
10
-66.5
20
-16
11
-66.9607837415528
21
-12.5000016925532
72
1
10
-66.9607837415528
20
-12.5000016925532
11
-66.0392162584472
21
-12.4999983074468
72
1
10
-66.0392162584472
20
-12.4999983074468
11
-66.5
21
-16
97
0
75
0
76
1
52
0
41
0.0062
77
0
78
1
53
45
43
0
44
0
45
-0.0139193969876572
46
0.0139193969876572
79
0
47
0
98
1
10
0
20
0
0
HATCH
5
15C
100
AcDbEntity
8
2
62
256
6
ByLayer
370
13
48
1
60
0
100
AcDbHatch
10
0
20
0
30
0
210
0
220
0
230
1
2
ANSI31
70
0
71
0
91
1
92
5
93
3
72
1
10
172.5
20
12.5
11
172.960783741553
21
9.00000169255318
72
1
10
172.960783741553
20
9.00000169255318
11
172.039216258447
21
8.99999830744682
72
1
10
172.039216258447
20
8.99999830744682
11
172.5
21
12.5
97
0
75
0
76
1
52
0
41
0.0062
77
0
78
1
53
45
43
0
44
0
45
-0.0139193969876572
46
0.0139193969876572
79
0
47
0
98
1
10
0
20
0
0
HATCH
5
160
100
AcDbEntity
8
2
62
256
6
ByLayer
370
13
48
1
60
0
100
AcDbHatch
10
0
20
0
30
0
210
0
220
0
230
1
2
ANSI31
70
0
71
0
91
1
92
5
93
3
72
1
10
172.5
20
-12.5
11
172.039216258447
21
-9.00000169255318
72
1
10
172.039216258447
20
-9.00000169255318
11
172.960783741553
21
-8.99999830744682
72
1
10
172.960783741553
20
-8.99999830744682
11
172.5
21
-12.5
97
0
75
0
76
1
52
0
41
0.0062
77
0
78
1
53
45
43
0
44
0
45
-0.0139193969876572
46
0.0139193969876572
79
0
47
0
98
1
10
0
20
0
0
HATCH
5
165
100
AcDbEntity
8
SK2
62
256
6
ByLayer
370
13
48
1
60
0
100
AcDbHatch
10
0
20
0
30
0
210
0
220
0
230
1
2
ANSI31
70
0
71
0
91
1
92
5
93
3
72
1
10
171.498382723188
20
-17.8541597949323
11
174.551575425693
21
-16.0820638240608
72
1
10
174.551575425693
20
-16.0820638240608
11
174.906195833975
21
-16.9326700737197
72
1
10
174.906195833975
20
-16.9326700737197
11
171.498382723188
21
-17.8541597949323
97
0
75
0
76
1
52
0
41
0.0062
77
0
78
1
53
45
43
0
44
0
45
-0.0139193969876572
46
0.0139193969876572
79
0
47
0
98
1
10
0
20
0
0
HATCH
5
169
100
AcDbEntity
8
SK2
62
256
6
ByLayer
370
13
48
1
60
0
100
AcDbHatch
10
0
20
0
30
0
210
0
220
0
230
1
2
ANSI31
70
0
71
0
91
1
92
5
93
3
72
1
10
171.498382723188
20
17.8541597949323
11
174.906192709519
21
16.9326713763017
72
1
10
174.906192709519
20
16.9326713763017
11
174.551578550149
21
16.0820625214788
72
1
10
174.551578550149
20
16.0820625214788
11
171.498382723188
21
17.8541597949323
97
0
75
0
76
1
52
0
41
0.0062
77
0
78
1
53
45
43
0
44
0
45
-0.0139193969876572
46
0.0139193969876572
79
0
47
0
98
1
10
0
20
0
0
DIMENSION
5
16D
100
AcDbEntity
8
SK2
62
256
6
ByLayer
370
18
48
1
60
0
100
AcDbDimension
2
_U0
10
165
20
-45.952229
30
0
11
52.5
21
-45.952229
31
0
70
32
71
1
72
1
41
1
210
0
220
0
230
1
3
Standard
100
AcDbAlignedDimension
13
-60
23
-16
33
0
14
165
24
0
34
0
50
0
100
AcDbRotatedDimension
1001
ACAD
1000
DSTYLE
1002
{
1070
   371
1070
    13
1070
   372
1070
    13
1070
     3
1000

1070
   170
1070
     0
1070
   144
1040
1.0
1070
   277
1070
     2
1070
   284
1070
     8
1070
   278
1070
    46
1070
   146
1040
1.166667
1070
   345
1005
16
1070
   347
1005
16
1070
   346
1005
16
1070
   344
1005
0
1070
   343
1005
0
1070
   172
1070
     1
1070
    76
1070
     0
1070
    75
1070
     0
1070
   282
1070
     0
1070
   281
1070
     0
1070
    71
1070
     0
1070
    74
1070
     0
1070
   279
1070
     0
1070
   173
1070
     1
1070
   340
1005
14C
1070
   271
1070
     2
1070
   272
1070
     3
1070
    77
1070
     1
1070
    73
1070
     1
1070
   171
1070
     3
1070
   274
1070
     4
1070
   177
1070
     2
1070
   176
1070
     2
1070
   178
1070
     2
1070
    78
1070
     8
1070
    48
1040
-0.1
1070
    41
1040
3.5
1070
   147
1040
1.5
1070
    42
1040
1.5875
1070
    44
1040
2.0
1070
   140
1040
3.0
1002
}
1001
ACAD_DSTYLE_DIM_LINETYPE
1070
   380
1005
16
1001
ACAD_DSTYLE_DIM_EXT1_LINETYPE
1070
   381
1005
16
1001
ACAD_DSTYLE_DIM_EXT2_LINETYPE
1070
   382
1005
16
0
DIMENSION
5
186
100
AcDbEntity
8
SK2
62
256
6
ByLayer
370
18
48
1
60
0
100
AcDbDimension
2
_U1
10
3
20
-35.952229
30
0
11
84
21
-35.952229
31
0
70
32
71
1
72
1
41
1
210
0
220
0
230
1
3
Standard
100
AcDbAlignedDimension
13
165
23
0
33
0
14
3
24
-12.5
34
0
50
0
100
AcDbRotatedDimension
1001
ACAD
1000
DSTYLE
1002
{
1070
   371
1070
    13
1070
   372
1070
    13
1070
     3
1000

1070
   170
1070
     0
1070
   144
1040
1.0
1070
   277
1070
     2
1070
   284
1070
     8
1070
   278
1070
    46
1070
   146
1040
1.166667
1070
   345
1005
16
1070
   347
1005
16
1070
   346
1005
16
1070
   344
1005
0
1070
   343
1005
0
1070
   172
1070
     1
1070
    76
1070
     0
1070
    75
1070
     0
1070
   282
1070
     0
1070
   281
1070
     0
1070
    71
1070
     0
1070
    74
1070
     0
1070
   279
1070
     0
1070
   173
1070
     1
1070
   340
1005
14C
1070
   271
1070
     2
1070
   272
1070
     3
1070
    77
1070
     1
1070
    73
1070
     1
1070
   171
1070
     3
1070
   274
1070
     4
1070
   177
1070
     2
1070
   176
1070
     2
1070
   178
1070
     2
1070
    78
1070
     8
1070
    48
1040
-0.1
1070
    41
1040
3.5
1070
   147
1040
1.5
1070
    42
1040
1.5875
1070
    44
1040
2.0
1070
   140
1040
3.0
1002
}
1001
ACAD_DSTYLE_DIM_LINETYPE
1070
   380
1005
16
1001
ACAD_DSTYLE_DIM_EXT1_LINETYPE
1070
   381
1005
16
1001
ACAD_DSTYLE_DIM_EXT2_LINETYPE
1070
   382
1005
16
0
DIMENSION
5
19E
100
AcDbEntity
8
SK2
62
256
6
ByLayer
370
18
48
1
60
0
100
AcDbDimension
2
_U2
10
0
20
-35.952229
30
0
11
-30
21
-35.952229
31
0
70
32
71
1
72
1
41
1
210
0
220
0
230
1
3
Standard
100
AcDbAlignedDimension
13
-60
23
-16
33
0
14
0
24
-16
34
0
50
0
100
AcDbRotatedDimension
1001
ACAD
1000
DSTYLE
1002
{
1070
   371
1070
    13
1070
   372
1070
    13
1070
     3
1000

1070
   170
1070
     0
1070
   144
1040
1.0
1070
   277
1070
     2
1070
   284
1070
     8
1070
   278
1070
    46
1070
   146
1040
1.166667
1070
   345
1005
16
1070
   347
1005
16
1070
   346
1005
16
1070
   344
1005
0
1070
   343
1005
0
1070
   172
1070
     1
1070
    76
1070
     0
1070
    75
1070
     0
1070
   282
1070
     0
1070
   281
1070
     0
1070
    71
1070
     0
1070
    74
1070
     0
1070
   279
1070
     0
1070
   173
1070
     1
1070
   340
1005
14C
1070
   271
1070
     2
1070
   272
1070
     3
1070
    77
1070
     1
1070
    73
1070
     1
1070
   171
1070
     3
1070
   274
1070
     4
1070
   177
1070
     2
1070
   176
1070
     2
1070
   178
1070
     2
1070
    78
1070
     8
1070
    48
1040
-0.1
1070
    41
1040
3.5
1070
   147
1040
1.5
1070
    42
1040
1.5875
1070
    44
1040
2.0
1070
   140
1040
3.0
1002
}
1001
ACAD_DSTYLE_DIM_LINETYPE
1070
   380
1005
16
1001
ACAD_DSTYLE_DIM_EXT1_LINETYPE
1070
   381
1005
16
1001
ACAD_DSTYLE_DIM_EXT2_LINETYPE
1070
   382
1005
16
0
DIMENSION
5
1B6
100
AcDbEntity
8
SK2
62
256
6
ByLayer
370
18
48
1
60
0
100
AcDbDimension
2
_U3
10
25
20
32.952229
30
0
11
95
21
32.952229
31
0
70
32
71
1
72
1
41
1
210
0
220
0
230
1
3
Standard
100
AcDbAlignedDimension
13
165
23
0
33
0
14
25
24
12.5
34
0
50
0
100
AcDbRotatedDimension
1001
ACAD
1000
DSTYLE
1002
{
1070
   371
1070
    13
1070
   372
1070
    13
1070
     3
1000

1070
   170
1070
     0
1070
   144
1040
1.0
1070
   277
1070
     2
1070
   284
1070
     8
1070
   278
1070
    46
1070
   146
1040
1.166667
1070
   345
1005
16
1070
   347
1005
16
1070
   346
1005
16
1070
   344
1005
0
1070
   343
1005
0
1070
   172
1070
     1
1070
    76
1070
     0
1070
    75
1070
     0
1070
   282
1070
     0
1070
   281
1070
     0
1070
    71
1070
     0
1070
    74
1070
     0
1070
   279
1070
     0
1070
   173
1070
     1
1070
   340
1005
14C
1070
   271
1070
     2
1070
   272
1070
     3
1070
    77
1070
     1
1070
    73
1070
     1
1070
   171
1070
     3
1070
   274
1070
     4
1070
   177
1070
     2
1070
   176
1070
     2
1070
   178
1070
     2
1070
    78
1070
     8
1070
    48
1040
-0.1
1070
    41
1040
3.5
1070
   147
1040
1.5
1070
    42
1040
1.5875
1070
    44
1040
2.0
1070
   140
1040
3.0
1002
}
1001
ACAD_DSTYLE_DIM_LINETYPE
1070
   380
1005
16
1001
ACAD_DSTYLE_DIM_EXT1_LINETYPE
1070
   381
1005
16
1001
ACAD_DSTYLE_DIM_EXT2_LINETYPE
1070
   382
1005
16
0
ENDSEC
0
SECTION
2
OBJECTS
0
DICTIONARY
5
23e
330
0
100
AcDbDictionary
280
0
281
1
3
ACAD_GROUP
350
23f
3
ACAD_MLINESTYLE
350
240
0
DICTIONARY
5
23f
330
0
100
AcDbDictionary
280
0
281
1
0
DICTIONARY
5
240
330
0
100
AcDbDictionary
280
0
281
1
3
Standard
350
18
0
MLINESTYLE
5
18
330
240
100
AcDbMlineStyle
2
Standard
70
0
3

62
256
51
90
52
90
71
2
49
-0.5
62
256
6
ByLayer
49
0.5
62
256
6
ByLayer
0
RASTERVARIABLES
5
22c
330

100
AcDbRasterVariables
90
0
70
1
71
1
72
1
0
ENDSEC
0
EOF
