0
SECTION
2
HEADER
9
$ACADVER
1
AC1015
9
$DWGCODEPAGE
3
ANSI_1252
9
$HANDSEED
5
245
9
$ANGBASE
50
0
9
$ANGDIR
70
0
9
$ATTMODE
70
1
9
$AUNITS
70
0
9
$AUPREC
70
0
9
$CECOLOR
62
256
9
$CELTSCALE
40
1
9
$CELTYPE
6
ByLayer
9
$CELWEIGHT
370
18
9
$CLAYER
8
0
9
$CMLJUST
70
0
9
$CMLSCALE
40
1
9
$CMLSTYLE
2
Standard
9
$DIMSTYLE
2
Standard
9
$TEXTSIZE
40
0.2
9
$TEXTSTYLE
7
Standard
9
$LUNITS
70
2
9
$LUPREC
70
4
9
$EXTNAMES
290
1
9
$INSUNITS
70
4
9
$LTSCALE
40
1
9
$LWDISPLAY
290
1
9
$PDMODE
70
0
9
$PDSIZE
40
0
9
$PLINEGEN
70
0
0
ENDSEC
0
SECTION
2
CLASSES
0
CLASS
1
RASTERVARIABLES
2
AcDbRasterVariables
3
ISM
90
0
280
0
281
0
0
ENDSEC
0
SECTION
2
TABLES
0
TABLE
2
VPORT
5
23b
100
AcDbSymbolTable
0
VPORT
5
1
100
AcDbSymbolTableRecord
100
AcDbViewportTableRecord
2
*Active
70
0
10
0
20
0
11
1
21
1
12
-1
22
1
13
0
23
0
14
0.5
24
0.5
15
10
25
10
16
0
26
0
36
1
17
0
27
0
37
0
0
ENDTAB
0
TABLE
2
LTYPE
5
23c
100
AcDbSymbolTable
0
LTYPE
5
14
100
AcDbSymbolTableRecord
100
AcDbLinetypeTableRecord
70
0
2
ByBlock
3

72
65
73
0
40
0
0
LTYPE
5
15
100
AcDbSymbolTableRecord
100
AcDbLinetypeTableRecord
70
0
2
ByLayer
3

72
65
73
0
40
0
0
LTYPE
5
16
100
AcDbSymbolTableRecord
100
AcDbLinetypeTableRecord
70
0
2
Continuous
3
Solid line
72
65
73
0
40
0
0
LTYPE
5
6E
100
AcDbSymbolTableRecord
100
AcDbLinetypeTableRecord
70
0
2
CENTER
3
____ _ ____ _ ____ _ ____
72
65
73
4
40
47.5
49
22
74
0
49
-8.5
74
0
49
8.5
74
0
49
-8.5
74
0
0
LTYPE
5
6F
100
AcDbSymbolTableRecord
100
AcDbLinetypeTableRecord
70
0
2
DASHED
3
__ __ __ __ __ __ __ __ __
72
65
73
2
40
25.72
49
12.86
74
0
49
-12.86
74
0
0
ENDTAB
0
TABLE
2
LAYER
5
23d
100
AcDbSymbolTable
0
LAYER
5
10
100
AcDbSymbolTableRecord
100
AcDbLayerTableRecord
2
0
70
0
62
7
6
Continuous
290
1
370
-3
390
0
0
LAYER
5
71
100
AcDbSymbolTableRecord
100
AcDbLayerTableRecord
2
81
70
0
62
-3
6
Continuous
290
1
370
-3
390
0
0
LAYER
5
73
100
AcDbSymbolTableRecord
100
AcDbLayerTableRecord
2
80
70
0
62
-6
6
Continuous
290
1
370
-3
390
0
0
LAYER
5
75
100
AcDbSymbolTableRecord
100
AcDbLayerTableRecord
2
1
70
0
62
4
6
Continuous
290
1
370
-3
390
0
0
LAYER
5
7F
100
AcDbSymbolTableRecord
100
AcDbLayerTableRecord
2
4
70
0
62
-2
6
CENTER
290
1
370
-3
390
0
0
LAYER
5
B0
100
AcDbSymbolTableRecord
100
AcDbLayerTableRecord
2
2
70
0
62
7
6
Continuous
290
1
370
-3
390
0
0
LAYER
5
16A
100
AcDbSymbolTableRecord
100
AcDbLayerTableRecord
2
Defpoints
70
0
62
7
6
Continuous
290
0
370
-3
390
0
0
LAYER
5
227
100
AcDbSymbolTableRecord
100
AcDbLayerTableRecord
2
SK4
70
0
62
2
6
CENTER
290
1
370
-3
390
0
0
LAYER
5
228
100
AcDbSymbolTableRecord
100
AcDbLayerTableRecord
2
SK1
70
0
62
4
6
Continuous
290
1
370
-3
390
0
0
LAYER
5
229
100
AcDbSymbolTableRecord
100
AcDbLayerTableRecord
2
SK2
70
0
62
7
6
Continuous
290
1
370
-3
390
0
0
LAYER
5
22a
100
AcDbSymbolTableRecord
100
AcDbLayerTableRecord
2
SK6
70
0
62
5
6
Continuous
290
1
370
-3
390
0
0
ENDTAB
0
TABLE
2
STYLE
5
23e
100
AcDbSymbolTable
0
STYLE
5
11
100
AcDbSymbolTableRecord
100
AcDbTextStyleTableRecord
2
Standard
3
txt
70
0
71
0
40
0
41
1
42
0
50
0
0
STYLE
5
146
100
AcDbSymbolTableRecord
100
AcDbTextStyleTableRecord
2
iso_b_vert
3
simplex.shx
70
0
71
0
40
0
41
1
42
0
50
0
0
STYLE
5
147
100
AcDbSymbolTableRecord
100
AcDbTextStyleTableRecord
2
DWGDirectTextStyle
3
simplex
70
0
71
0
40
0
41
1
42
0
50
0
0
ENDTAB
0
TABLE
2
DIMSTYLE
5
23f
100
AcDbSymbolTable
100
AcDbDimStyleTable
0
DIMSTYLE
105
27
100
AcDbSymbolTableRecord
100
AcDbDimStyleTableRecord
2
Standard
70
0
3
<>
41
0.18
42
0.0625
44
0.18
140
0.18
147
0.09
73
0
74
0
77
1
271
2
275
0
278
52
280
0
340
11
0
ENDTAB
0
TABLE
2
VIEW
5
240
100
AcDbSymbolTable
0
ENDTAB
0
TABLE
2
UCS
5
241
100
AcDbSymbolTable
0
ENDTAB
0
TABLE
2
APPID
5
242
100
AcDbSymbolTable
0
APPID
5
12
100
AcDbSymbolTableRecord
100
AcDbRegAppTableRecord
2
ACAD
70
0
0
APPID
5
166
100
AcDbSymbolTableRecord
100
AcDbRegAppTableRecord
2
ACAD_DSTYLE_DIMBREAK
70
0
0
APPID
5
1E6
100
AcDbSymbolTableRecord
100
AcDbRegAppTableRecord
2
ACAD_DSTYLE_DIM_LINETYPE
70
0
0
APPID
5
1E7
100
AcDbSymbolTableRecord
100
AcDbRegAppTableRecord
2
ACAD_DSTYLE_DIM_EXT1_LINETYPE
70
0
0
APPID
5
1E8
100
AcDbSymbolTableRecord
100
AcDbRegAppTableRecord
2
ACAD_DSTYLE_DIM_EXT2_LINETYPE
70
0
0
APPID
5
223
100
AcDbSymbolTableRecord
100
AcDbRegAppTableRecord
2
ACAD_MLEADERVER
70
0
0
ENDTAB
0
TABLE
2
BLOCK_RECORD
5
243
100
AcDbSymbolTable
0
BLOCK_RECORD
5
1F
100
AcDbSymbolTableRecord
100
AcDbBlockTableRecord
2
*Model_Space
340
0
70
0
0
BLOCK_RECORD
5
1B
100
AcDbSymbolTableRecord
100
AcDbBlockTableRecord
2
*Paper_Space
340
0
70
0
0
BLOCK_RECORD
5
23
100
AcDbSymbolTableRecord
100
AcDbBlockTableRecord
2
*Paper_Space0
340
0
70
0
0
BLOCK_RECORD
5
16B
100
AcDbSymbolTableRecord
100
AcDbBlockTableRecord
2
*D1
340
0
70
0
0
BLOCK_RECORD
5
177
100
AcDbSymbolTableRecord
100
AcDbBlockTableRecord
2
_U0
340
0
70
0
0
BLOCK_RECORD
5
183
100
AcDbSymbolTableRecord
100
AcDbBlockTableRecord
2
*D3
340
0
70
0
0
BLOCK_RECORD
5
18F
100
AcDbSymbolTableRecord
100
AcDbBlockTableRecord
2
_U1
340
0
70
0
0
BLOCK_RECORD
5
19B
100
AcDbSymbolTableRecord
100
AcDbBlockTableRecord
2
*D5
340
0
70
0
0
BLOCK_RECORD
5
1A7
100
AcDbSymbolTableRecord
100
AcDbBlockTableRecord
2
_U2
340
0
70
0
0
BLOCK_RECORD
5
1B3
100
AcDbSymbolTableRecord
100
AcDbBlockTableRecord
2
*D7
340
0
70
0
0
BLOCK_RECORD
5
1BF
100
AcDbSymbolTableRecord
100
AcDbBlockTableRecord
2
_U3
340
0
70
0
0
ENDTAB
0
ENDSEC
0
SECTION
2
BLOCKS
0
BLOCK
5
20
100
AcDbEntity
8
0
100
AcDbBlockBegin
2
*Model_Space
70
0
10
0
20
0
30
0
3
*Model_Space
0
ENDBLK
5
21
100
AcDbEntity
8
0
100
AcDbBlockEnd
0
BLOCK
5
1C
100
AcDbEntity
8
0
100
AcDbBlockBegin
2
*Paper_Space
70
0
10
0
20
0
30
0
3
*Paper_Space
0
ENDBLK
5
1D
100
AcDbEntity
8
0
100
AcDbBlockEnd
0
BLOCK
5
24
100
AcDbEntity
8
0
100
AcDbBlockBegin
2
*Paper_Space0
70
0
10
0
20
0
30
0
3
*Paper_Space0
0
ENDBLK
5
25
100
AcDbEntity
8
0
100
AcDbBlockEnd
0
BLOCK
5
16C
100
AcDbEntity
8
0
100
AcDbBlockBegin
2
*D1
70
1
10
0
20
0
30
0
3
*D1
0
LINE
5
16E
100
AcDbEntity
8
0
62
256
6
ByLayer
370
-2
48
1
60
0
100
AcDbLine
10
-60
20
-17.5875
30
0
11
-60
21
-47.952229
31
0
39
0
210
0
220
0
230
1
0
LINE
5
16F
100
AcDbEntity
8
0
62
256
6
ByLayer
370
-2
48
1
60
0
100
AcDbLine
10
160.2
20
-1.5875
30
0
11
160.2
21
-47.952229
31
0
39
0
210
0
220
0
230
1
0
LINE
5
170
100
AcDbEntity
8
0
62
256
6
ByLayer
370
-2
48
1
60
0
100
AcDbLine
10
-56.5
20
-45.952229
30
0
11
156.7
21
-45.952229
31
0
39
0
210
0
220
0
230
1
0
SOLID
5
171
100
AcDbEntity
8
0
62
256
6
ByLayer
370
-1
48
1
60
0
100
AcDbTrace
10
-56.5
20
-45.368896
30
0
11
-56.5
21
-46.535563
31
0
12
-60
22
-45.952229
32
0
13
-60
23
-45.952229
33
0
39
0
210
0
220
0
230
1
0
SOLID
5
172
100
AcDbEntity
8
0
62
256
6
ByLayer
370
-1
48
1
60
0
100
AcDbTrace
10
156.7
20
-46.535563
30
0
11
156.7
21
-45.368896
31
0
12
160.2
22
-45.952229
32
0
13
160.2
23
-45.952229
33
0
39
0
210
0
220
0
230
1
0
MTEXT
5
173
100
AcDbEntity
8
0
62
256
6
ByLayer
370
18
48
1
60
0
100
AcDbMText
10
50.1
20
-39.952229
30
0
210
0
220
0
230
1
1
\A1;220.2
40
3
41
0
44
1
50
0
71
5
72
5
7
iso_b_vert
0
POINT
5
174
100
AcDbEntity
8
Defpoints
62
0
6
ByLayer
370
-1
48
1
60
0
100
AcDbPoint
10
-60
20
-16
30
0
39
0
210
0
220
0
230
1
50
360
0
POINT
5
175
100
AcDbEntity
8
Defpoints
62
0
6
ByLayer
370
-1
48
1
60
0
100
AcDbPoint
10
160.2
20
0
30
0
39
0
210
0
220
0
230
1
50
360
0
POINT
5
176
100
AcDbEntity
8
Defpoints
62
0
6
ByLayer
370
-1
48
1
60
0
100
AcDbPoint
10
160.2
20
-45.952229
30
0
39
0
210
0
220
0
230
1
50
360
0
ENDBLK
5
16D
100
AcDbEntity
8
0
100
AcDbBlockEnd
0
BLOCK
5
17E
100
AcDbEntity
8
0
100
AcDbBlockBegin
2
_U0
70
0
10
0
20
0
30
0
3
_U0
0
MTEXT
5
178
100
AcDbEntity
8
SK2
62
256
6
ByLayer
370
18
48
1
60
0
100
AcDbMText
10
44.496716
20
-45.067115
30
0
210
0
220
0
230
1
1
\W0.7513;220.20
40
3
41
0
44
1.084337
50
0
71
7
72
5
7
iso_b_vert
0
LINE
5
179
100
AcDbEntity
8
SK2
62
256
6
ByLayer
370
13
48
1
60
0
100
AcDbLine
10
-60
20
-17.5875
30
0
11
-60
21
-47.952229
31
0
39
0
210
0
220
0
230
1
0
LINE
5
17A
100
AcDbEntity
8
SK2
62
256
6
ByLayer
370
13
48
1
60
0
100
AcDbLine
10
160.2
20
-1.5875
30
0
11
160.2
21
-47.952229
31
0
39
0
210
0
220
0
230
1
0
LINE
5
17B
100
AcDbEntity
8
SK2
62
256
6
ByLayer
370
13
48
1
60
0
100
AcDbLine
10
-60
20
-45.952229
30
0
11
160.2
21
-45.952229
31
0
39
0
210
0
220
0
230
1
0
SOLID
5
17C
100
AcDbEntity
8
SK2
62
256
6
ByLayer
370
18
48
1
60
0
100
AcDbTrace
10
-60
20
-45.952229
30
0
11
-56.500002
21
-45.491446
31
0
12
-56.499998
22
-46.413013
32
0
13
-56.499998
23
-46.413013
33
0
39
0
210
0
220
0
230
1
0
SOLID
5
17D
100
AcDbEntity
8
SK2
62
256
6
ByLayer
370
18
48
1
60
0
100
AcDbTrace
10
160.2
20
-45.952229
30
0
11
156.700002
21
-46.413013
31
0
12
156.699998
22
-45.491446
32
0
13
156.699998
23
-45.491446
33
0
39
0
210
0
220
0
230
1
0
ENDBLK
5
17F
100
AcDbEntity
8
0
100
AcDbBlockEnd
0
BLOCK
5
184
100
AcDbEntity
8
0
100
AcDbBlockBegin
2
*D3
70
1
10
0
20
0
30
0
3
*D3
0
LINE
5
186
100
AcDbEntity
8
0
62
256
6
ByLayer
370
-2
48
1
60
0
100
AcDbLine
10
160.2
20
-1.5875
30
0
11
160.2
21
-37.952229
31
0
39
0
210
0
220
0
230
1
0
LINE
5
187
100
AcDbEntity
8
0
62
256
6
ByLayer
370
-2
48
1
60
0
100
AcDbLine
10
3
20
-13.5875
30
0
11
3
21
-37.952229
31
0
39
0
210
0
220
0
230
1
0
LINE
5
188
100
AcDbEntity
8
0
62
256
6
ByLayer
370
-2
48
1
60
0
100
AcDbLine
10
156.7
20
-35.952229
30
0
11
6.5
21
-35.952229
31
0
39
0
210
0
220
0
230
1
0
SOLID
5
189
100
AcDbEntity
8
0
62
256
6
ByLayer
370
-1
48
1
60
0
100
AcDbTrace
10
156.7
20
-36.535563
30
0
11
156.7
21
-35.368896
31
0
12
160.2
22
-35.952229
32
0
13
160.2
23
-35.952229
33
0
39
0
210
0
220
0
230
1
0
SOLID
5
18A
100
AcDbEntity
8
0
62
256
6
ByLayer
370
-1
48
1
60
0
100
AcDbTrace
10
6.5
20
-35.368896
30
0
11
6.5
21
-36.535563
31
0
12
3
22
-35.952229
32
0
13
3
23
-35.952229
33
0
39
0
210
0
220
0
230
1
0
MTEXT
5
18B
100
AcDbEntity
8
0
62
256
6
ByLayer
370
18
48
1
60
0
100
AcDbMText
10
81.6
20
-29.952229
30
0
210
0
220
0
230
1
1
\A1;157.2
40
3
41
0
44
1
50
0
71
5
72
5
7
iso_b_vert
0
POINT
5
18C
100
AcDbEntity
8
Defpoints
62
0
6
ByLayer
370
-1
48
1
60
0
100
AcDbPoint
10
160.2
20
0
30
0
39
0
210
0
220
0
230
1
50
360
0
POINT
5
18D
100
AcDbEntity
8
Defpoints
62
0
6
ByLayer
370
-1
48
1
60
0
100
AcDbPoint
10
3
20
-12
30
0
39
0
210
0
220
0
230
1
50
360
0
POINT
5
18E
100
AcDbEntity
8
Defpoints
62
0
6
ByLayer
370
-1
48
1
60
0
100
AcDbPoint
10
3
20
-35.952229
30
0
39
0
210
0
220
0
230
1
50
360
0
ENDBLK
5
185
100
AcDbEntity
8
0
100
AcDbBlockEnd
0
BLOCK
5
196
100
AcDbEntity
8
0
100
AcDbBlockBegin
2
_U1
70
0
10
0
20
0
30
0
3
_U1
0
MTEXT
5
190
100
AcDbEntity
8
SK2
62
256
6
ByLayer
370
18
48
1
60
0
100
AcDbMText
10
76.371658
20
-35.067115
30
0
210
0
220
0
230
1
1
\W0.7022;157.20
40
3
41
0
44
1.084337
50
0
71
7
72
5
7
iso_b_vert
0
LINE
5
191
100
AcDbEntity
8
SK2
62
256
6
ByLayer
370
13
48
1
60
0
100
AcDbLine
10
160.2
20
-1.5875
30
0
11
160.2
21
-37.952229
31
0
39
0
210
0
220
0
230
1
0
LINE
5
192
100
AcDbEntity
8
SK2
62
256
6
ByLayer
370
13
48
1
60
0
100
AcDbLine
10
3
20
-13.5875
30
0
11
3
21
-37.952229
31
0
39
0
210
0
220
0
230
1
0
LINE
5
193
100
AcDbEntity
8
SK2
62
256
6
ByLayer
370
13
48
1
60
0
100
AcDbLine
10
160.2
20
-35.952229
30
0
11
3
21
-35.952229
31
0
39
0
210
0
220
0
230
1
0
SOLID
5
194
100
AcDbEntity
8
SK2
62
256
6
ByLayer
370
18
48
1
60
0
100
AcDbTrace
10
160.2
20
-35.952229
30
0
11
156.700002
21
-36.413013
31
0
12
156.699998
22
-35.491446
32
0
13
156.699998
23
-35.491446
33
0
39
0
210
0
220
0
230
1
0
SOLID
5
195
100
AcDbEntity
8
SK2
62
256
6
ByLayer
370
18
48
1
60
0
100
AcDbTrace
10
3
20
-35.952229
30
0
11
6.499998
21
-35.491446
31
0
12
6.500002
22
-36.413013
32
0
13
6.500002
23
-36.413013
33
0
39
0
210
0
220
0
230
1
0
ENDBLK
5
197
100
AcDbEntity
8
0
100
AcDbBlockEnd
0
BLOCK
5
19C
100
AcDbEntity
8
0
100
AcDbBlockBegin
2
*D5
70
1
10
0
20
0
30
0
3
*D5
0
LINE
5
19E
100
AcDbEntity
8
0
62
256
6
ByLayer
370
-2
48
1
60
0
100
AcDbLine
10
-60
20
-17.5875
30
0
11
-60
21
-37.952229
31
0
39
0
210
0
220
0
230
1
0
LINE
5
19F
100
AcDbEntity
8
0
62
256
6
ByLayer
370
-2
48
1
60
0
100
AcDbLine
10
0
20
-17.5875
30
0
11
0
21
-37.952229
31
0
39
0
210
0
220
0
230
1
0
LINE
5
1A0
100
AcDbEntity
8
0
62
256
6
ByLayer
370
-2
48
1
60
0
100
AcDbLine
10
-56.5
20
-35.952229
30
0
11
-3.5
21
-35.952229
31
0
39
0
210
0
220
0
230
1
0
SOLID
5
1A1
100
AcDbEntity
8
0
62
256
6
ByLayer
370
-1
48
1
60
0
100
AcDbTrace
10
-56.5
20
-35.368896
30
0
11
-56.5
21
-36.535563
31
0
12
-60
22
-35.952229
32
0
13
-60
23
-35.952229
33
0
39
0
210
0
220
0
230
1
0
SOLID
5
1A2
100
AcDbEntity
8
0
62
256
6
ByLayer
370
-1
48
1
60
0
100
AcDbTrace
10
-3.5
20
-36.535563
30
0
11
-3.5
21
-35.368896
31
0
12
0
22
-35.952229
32
0
13
0
23
-35.952229
33
0
39
0
210
0
220
0
230
1
0
MTEXT
5
1A3
100
AcDbEntity
8
0
62
256
6
ByLayer
370
18
48
1
60
0
100
AcDbMText
10
-30
20
-29.952229
30
0
210
0
220
0
230
1
1
\A1;60
40
3
41
0
44
1
50
0
71
5
72
5
7
iso_b_vert
0
POINT
5
1A4
100
AcDbEntity
8
Defpoints
62
0
6
ByLayer
370
-1
48
1
60
0
100
AcDbPoint
10
-60
20
-16
30
0
39
0
210
0
220
0
230
1
50
360
0
POINT
5
1A5
100
AcDbEntity
8
Defpoints
62
0
6
ByLayer
370
-1
48
1
60
0
100
AcDbPoint
10
0
20
-16
30
0
39
0
210
0
220
0
230
1
50
360
0
POINT
5
1A6
100
AcDbEntity
8
Defpoints
62
0
6
ByLayer
370
-1
48
1
60
0
100
AcDbPoint
10
0
20
-35.952229
30
0
39
0
210
0
220
0
230
1
50
360
0
ENDBLK
5
19D
100
AcDbEntity
8
0
100
AcDbBlockEnd
0
BLOCK
5
1AE
100
AcDbEntity
8
0
100
AcDbBlockBegin
2
_U2
70
0
10
0
20
0
30
0
3
_U2
0
MTEXT
5
1A8
100
AcDbEntity
8
SK2
62
256
6
ByLayer
370
18
48
1
60
0
100
AcDbMText
10
-34.48237
20
-35.067115
30
0
210
0
220
0
230
1
1
\W0.7468;60.00
40
3
41
0
44
1.084337
50
0
71
7
72
5
7
iso_b_vert
0
LINE
5
1A9
100
AcDbEntity
8
SK2
62
256
6
ByLayer
370
13
48
1
60
0
100
AcDbLine
10
-60
20
-17.5875
30
0
11
-60
21
-37.952229
31
0
39
0
210
0
220
0
230
1
0
LINE
5
1AA
100
AcDbEntity
8
SK2
62
256
6
ByLayer
370
13
48
1
60
0
100
AcDbLine
10
0
20
-17.5875
30
0
11
0
21
-37.952229
31
0
39
0
210
0
220
0
230
1
0
LINE
5
1AB
100
AcDbEntity
8
SK2
62
256
6
ByLayer
370
13
48
1
60
0
100
AcDbLine
10
-60
20
-35.952229
30
0
11
0
21
-35.952229
31
0
39
0
210
0
220
0
230
1
0
SOLID
5
1AC
100
AcDbEntity
8
SK2
62
256
6
ByLayer
370
18
48
1
60
0
100
AcDbTrace
10
-60
20
-35.952229
30
0
11
-56.500002
21
-35.491446
31
0
12
-56.499998
22
-36.413013
32
0
13
-56.499998
23
-36.413013
33
0
39
0
210
0
220
0
230
1
0
SOLID
5
1AD
100
AcDbEntity
8
SK2
62
256
6
ByLayer
370
18
48
1
60
0
100
AcDbTrace
10
0
20
-35.952229
30
0
11
-3.499998
21
-36.413013
31
0
12
-3.500002
22
-35.491446
32
0
13
-3.500002
23
-35.491446
33
0
39
0
210
0
220
0
230
1
0
ENDBLK
5
1AF
100
AcDbEntity
8
0
100
AcDbBlockEnd
0
BLOCK
5
1B4
100
AcDbEntity
8
0
100
AcDbBlockBegin
2
*D7
70
1
10
0
20
0
30
0
3
*D7
0
LINE
5
1B6
100
AcDbEntity
8
0
62
256
6
ByLayer
370
-2
48
1
60
0
100
AcDbLine
10
160.2
20
1.5875
30
0
11
160.2
21
34.952229
31
0
39
0
210
0
220
0
230
1
0
LINE
5
1B7
100
AcDbEntity
8
0
62
256
6
ByLayer
370
-2
48
1
60
0
100
AcDbLine
10
25
20
13.5875
30
0
11
25
21
34.952229
31
0
39
0
210
0
220
0
230
1
0
LINE
5
1B8
100
AcDbEntity
8
0
62
256
6
ByLayer
370
-2
48
1
60
0
100
AcDbLine
10
156.7
20
32.952229
30
0
11
28.5
21
32.952229
31
0
39
0
210
0
220
0
230
1
0
SOLID
5
1B9
100
AcDbEntity
8
0
62
256
6
ByLayer
370
-1
48
1
60
0
100
AcDbTrace
10
156.7
20
32.368896
30
0
11
156.7
21
33.535563
31
0
12
160.2
22
32.952229
32
0
13
160.2
23
32.952229
33
0
39
0
210
0
220
0
230
1
0
SOLID
5
1BA
100
AcDbEntity
8
0
62
256
6
ByLayer
370
-1
48
1
60
0
100
AcDbTrace
10
28.5
20
33.535563
30
0
11
28.5
21
32.368896
31
0
12
25
22
32.952229
32
0
13
25
23
32.952229
33
0
39
0
210
0
220
0
230
1
0
MTEXT
5
1BB
100
AcDbEntity
8
0
62
256
6
ByLayer
370
18
48
1
60
0
100
AcDbMText
10
92.6
20
38.952229
30
0
210
0
220
0
230
1
1
\A1;135.2
40
3
41
0
44
1
50
0
71
5
72
5
7
iso_b_vert
0
POINT
5
1BC
100
AcDbEntity
8
Defpoints
62
0
6
ByLayer
370
-1
48
1
60
0
100
AcDbPoint
10
160.2
20
0
30
0
39
0
210
0
220
0
230
1
50
360
0
POINT
5
1BD
100
AcDbEntity
8
Defpoints
62
0
6
ByLayer
370
-1
48
1
60
0
100
AcDbPoint
10
25
20
12
30
0
39
0
210
0
220
0
230
1
50
360
0
POINT
5
1BE
100
AcDbEntity
8
Defpoints
62
0
6
ByLayer
370
-1
48
1
60
0
100
AcDbPoint
10
25
20
32.952229
30
0
39
0
210
0
220
0
230
1
50
360
0
ENDBLK
5
1B5
100
AcDbEntity
8
0
100
AcDbBlockEnd
0
BLOCK
5
1C6
100
AcDbEntity
8
0
100
AcDbBlockBegin
2
_U3
70
0
10
0
20
0
30
0
3
_U3
0
MTEXT
5
1C0
100
AcDbEntity
8
SK2
62
256
6
ByLayer
370
18
48
1
60
0
100
AcDbMText
10
87.371658
20
33.837344
30
0
210
0
220
0
230
1
1
\W0.7022;135.20
40
3
41
0
44
1.084337
50
0
71
7
72
5
7
iso_b_vert
0
LINE
5
1C1
100
AcDbEntity
8
SK2
62
256
6
ByLayer
370
13
48
1
60
0
100
AcDbLine
10
160.2
20
1.5875
30
0
11
160.2
21
34.952229
31
0
39
0
210
0
220
0
230
1
0
LINE
5
1C2
100
AcDbEntity
8
SK2
62
256
6
ByLayer
370
13
48
1
60
0
100
AcDbLine
10
25
20
13.5875
30
0
11
25
21
34.952229
31
0
39
0
210
0
220
0
230
1
0
LINE
5
1C3
100
AcDbEntity
8
SK2
62
256
6
ByLayer
370
13
48
1
60
0
100
AcDbLine
10
160.2
20
32.952229
30
0
11
25
21
32.952229
31
0
39
0
210
0
220
0
230
1
0
SOLID
5
1C4
100
AcDbEntity
8
SK2
62
256
6
ByLayer
370
18
48
1
60
0
100
AcDbTrace
10
160.2
20
32.952229
30
0
11
156.700002
21
32.491446
31
0
12
156.699998
22
33.413013
32
0
13
156.699998
23
33.413013
33
0
39
0
210
0
220
0
230
1
0
SOLID
5
1C5
100
AcDbEntity
8
SK2
62
256
6
ByLayer
370
18
48
1
60
0
100
AcDbTrace
10
25
20
32.952229
30
0
11
28.499998
21
33.413013
31
0
12
28.500002
22
32.491446
32
0
13
28.500002
23
32.491446
33
0
39
0
210
0
220
0
230
1
0
ENDBLK
5
1C7
100
AcDbEntity
8
0
100
AcDbBlockEnd
0
ENDSEC
0
SECTION
2
ENTITIES
0
ARC
5
C1
100
AcDbEntity
8
SK2
62
256
6
ByLayer
370
13
48
1
60
0
100
AcDbCircle
39
0
10
160.2
20
0
30
0
40
19
210
0
220
0
230
1
100
AcDbArc
50
290
51
70
0
ELLIPSE
5
C2
100
AcDbEntity
8
SK1
62
256
6
ByLayer
370
18
48
1
60
0
100
AcDbEllipse
10
-42.079759
20
0
30
0
11
-2.93905524917505E-15
21
-16.0000000000073
31
0
210
0
220
0
230
1
40
0.932515
41
-1.80249142112189
42
-1.3391012324679
0
ELLIPSE
5
C3
100
AcDbEntity
8
SK1
62
256
6
ByLayer
370
18
48
1
60
0
100
AcDbEllipse
10
375.907546
20
0
30
0
11
458.180052524353
21
-5.19163675692399E-13
31
0
210
0
220
0
230
1
40
0.034921
41
2.59367031451701
42
2.79796683129766
0
ELLIPSE
5
C4
100
AcDbEntity
8
SK1
62
256
6
ByLayer
370
18
48
1
60
0
100
AcDbEllipse
10
-29.157899
20
0
30
0
11
17.1578993603954
21
-1.94416104542868E-14
31
0
210
0
220
0
230
1
40
0.932515
41
-0.494065251162693
42
0.494065251162695
0
ELLIPSE
5
C5
100
AcDbEntity
8
SK1
62
256
6
ByLayer
370
18
48
1
60
0
100
AcDbEllipse
10
375.907546
20
0
30
0
11
458.180052528051
21
-5.19163675696589E-13
31
0
210
0
220
0
230
1
40
0.034921
41
-2.79796683129846
42
-2.59367031451889
0
POINT
5
70
100
AcDbEntity
8
81
62
256
6
ByLayer
370
18
48
1
60
0
100
AcDbPoint
10
160.2
20
0
30
0
39
0
210
0
220
0
230
1
50
360
0
POINT
5
72
100
AcDbEntity
8
80
62
256
6
ByLayer
370
18
48
1
60
0
100
AcDbPoint
10
0
20
0
30
0
39
0
210
0
220
0
230
1
50
360
0
POINT
5
74
100
AcDbEntity
8
1
62
256
6
ByLayer
370
18
48
1
60
1
100
AcDbPoint
10
-60
20
-16
30
0
39
0
210
0
220
0
230
1
50
360
0
POINT
5
76
100
AcDbEntity
8
1
62
256
6
ByLayer
370
18
48
1
60
1
100
AcDbPoint
10
160.2
20
0
30
0
39
0
210
0
220
0
230
1
50
360
0
POINT
5
77
100
AcDbEntity
8
1
62
256
6
ByLayer
370
18
48
1
60
1
100
AcDbPoint
10
160.2
20
0
30
0
39
0
210
0
220
0
230
1
50
360
0
POINT
5
78
100
AcDbEntity
8
1
62
256
6
ByLayer
370
18
48
1
60
1
100
AcDbPoint
10
3
20
-12
30
0
39
0
210
0
220
0
230
1
50
360
0
POINT
5
79
100
AcDbEntity
8
1
62
256
6
ByLayer
370
18
48
1
60
1
100
AcDbPoint
10
-60
20
-16
30
0
39
0
210
0
220
0
230
1
50
360
0
POINT
5
7A
100
AcDbEntity
8
1
62
256
6
ByLayer
370
18
48
1
60
1
100
AcDbPoint
10
0
20
-16
30
0
39
0
210
0
220
0
230
1
50
360
0
POINT
5
7B
100
AcDbEntity
8
1
62
256
6
ByLayer
370
18
48
1
60
1
100
AcDbPoint
10
160.2
20
0
30
0
39
0
210
0
220
0
230
1
50
360
0
POINT
5
7C
100
AcDbEntity
8
1
62
256
6
ByLayer
370
18
48
1
60
1
100
AcDbPoint
10
25
20
12
30
0
39
0
210
0
220
0
230
1
50
360
0
SPLINE
5
C6
100
AcDbEntity
8
1
62
256
6
ByLayer
370
18
48
1
60
0
100
AcDbSpline
70
4
71
3
72
27
73
23
40
0
40
0
40
0
40
0
40
0.125
40
0.125
40
0.249999999999999
40
0.249999999999999
40
0.374999999999998
40
0.374999999999998
40
0.406250000000001
40
0.406250000000001
40
0.421875000000003
40
0.421875000000003
40
0.437500000000004
40
0.500000000000002
40
0.500000000000002
40
0.625000000000002
40
0.625000000000002
40
0.750000000000001
40
0.750000000000001
40
0.875000000000001
40
0.875000000000001
40
1
40
1
40
1
40
1
41
1
10
10
20
-8.17716626374505
30
0
41
1
10
10.3951403705441
20
-8.08349087570772
30
0
41
1
10
10.7936924248025
20
-8.0050775258691
30
0
41
1
10
11.5970898189462
20
-7.87869066199991
30
0
41
1
10
12.0019395957122
20
-7.83072805964648
30
0
41
1
10
12.8176451533147
20
-7.7651943919424
30
0
41
1
10
13.2285042515584
20
-7.74763543791528
30
0
41
1
10
13.7457265786659
20
-7.74444960984962
30
0
41
1
10
13.8493536262313
20
-7.74474926894493
30
0
41
1
10
14.00506634295
20
-7.74659474153268
30
0
41
1
10
14.0570331685157
20
-7.74744321842044
30
0
41
1
10
14.1607708176829
20
-7.74959637457081
30
0
41
1
10
14.4197947633711
20
-7.75612075458361
30
0
41
1
10
14.6772436355875
20
-7.76825788348248
30
0
41
1
10
15.2922803935968
20
-7.80741283642271
30
0
41
1
10
15.6985172164136
20
-7.84689803941598
30
0
41
1
10
16.5043529763414
20
-7.9483681767139
30
0
41
1
10
16.9039493092364
20
-8.01035332601327
30
0
41
1
10
17.6974747580818
20
-8.15211289304139
30
0
41
1
10
18.0914050262176
20
-8.23187501465097
30
0
41
1
10
18.8746396869343
20
-8.40418045957784
30
0
41
1
10
19.2639500664654
20
-8.4966985588388
30
0
41
1
10
19.6514512414487
20
-8.59323927010385
30
0
0
SPLINE
5
C7
100
AcDbEntity
8
1
62
256
6
ByLayer
370
18
48
1
60
0
100
AcDbSpline
70
4
71
3
72
14
73
10
40
0
40
0
40
0
40
0
40
0.25
40
0.25
40
0.5
40
0.5
40
0.75
40
0.75
40
1
40
1
40
1
40
1
41
1
10
14.4234364234702
20
9.81273915596759
30
0
41
1
10
14.0428648503982
20
9.88882573268475
30
0
41
1
10
13.6658497140781
20
9.96700816056148
30
0
41
1
10
12.9175203064197
20
10.124511349327
30
0
41
1
10
12.5461975058742
20
10.203833681909
30
0
41
1
10
11.8088050371856
20
10.3618464088421
30
0
41
1
10
11.4427366760443
20
10.4405544098771
30
0
41
1
10
10.7165174986766
20
10.5965855666688
30
0
41
1
10
10.3563743372744
20
10.6739344282617
30
0
41
1
10
10
20
10.7503800565565
30
0
0
SPLINE
5
C8
100
AcDbEntity
8
1
62
256
6
ByLayer
370
18
48
1
60
0
100
AcDbSpline
70
4
71
3
72
14
73
10
40
0
40
0
40
0
40
0
40
0.25
40
0.25
40
0.5
40
0.5
40
0.75
40
0.75
40
1
40
1
40
1
40
1
41
1
10
14.4234364234702
20
-9.81273915596759
30
0
41
1
10
14.0428648503982
20
-9.88882573268475
30
0
41
1
10
13.6658497140781
20
-9.96700816056151
30
0
41
1
10
12.9175203064197
20
-10.124511349327
30
0
41
1
10
12.5461975058741
20
-10.2038336819091
30
0
41
1
10
11.8088050371856
20
-10.3618464088421
30
0
41
1
10
11.4427366760442
20
-10.4405544098771
30
0
41
1
10
10.7165174986766
20
-10.5965855666688
30
0
41
1
10
10.3563743372744
20
-10.6739344282617
30
0
41
1
10
10
20
-10.7503800565565
30
0
0
SPLINE
5
C9
100
AcDbEntity
8
1
62
256
6
ByLayer
370
18
48
1
60
0
100
AcDbSpline
70
4
71
3
72
20
73
16
40
0
40
0
40
0
40
0
40
0.124999999999996
40
0.124999999999996
40
0.249999999999992
40
0.249999999999992
40
0.49999999999999
40
0.49999999999999
40
0.624999999999989
40
0.624999999999989
40
0.687499999999989
40
0.687499999999989
40
0.749999999999988
40
0.749999999999988
40
1
40
1
40
1
40
1
41
1
10
155.832357188802
20
-1.7104554692456
30
0
41
1
10
155.372471230592
20
-1.54389003451581
30
0
41
1
10
154.912624322066
20
-1.37730515854858
30
0
41
1
10
153.992974304649
20
-1.04418881397547
30
0
41
1
10
153.53318099648
20
-0.877630179036402
30
0
41
1
10
152.153943349449
20
-0.377819934757099
30
0
41
1
10
151.234635876178
20
-0.0444482610152477
30
0
41
1
10
149.856195306094
20
0.456529866346102
30
0
41
1
10
149.39680398984
20
0.623681646097964
30
0
41
1
10
148.70789032094
20
0.874756605524055
30
0
41
1
10
148.478301892882
20
0.958562821421026
30
0
41
1
10
148.01903533996
20
1.12588425000212
30
0
41
1
10
147.789343302241
20
1.20936116533173
30
0
41
1
10
146.640597520517
20
1.6258501248243
30
0
41
1
10
145.720686348903
20
1.95617434723044
30
0
41
1
10
144.8
20
2.28401879356272
30
0
0
SPLINE
5
CA
100
AcDbEntity
8
1
62
256
6
ByLayer
370
18
48
1
60
0
100
AcDbSpline
70
4
71
3
72
93
73
89
40
0
40
0
40
0
40
0
40
0.0312500000000054
40
0.0312500000000054
40
0.0625000000000108
40
0.0625000000000108
40
0.0937500000000163
40
0.0937500000000163
40
0.125000000000022
40
0.125000000000022
40
0.140625000000024
40
0.140625000000024
40
0.148437500000026
40
0.148437500000026
40
0.156250000000027
40
0.187500000000031
40
0.187500000000031
40
0.218750000000035
40
0.218750000000035
40
0.250000000000039
40
0.250000000000039
40
0.281250000000043
40
0.281250000000043
40
0.296875000000045
40
0.296875000000045
40
0.312500000000047
40
0.312500000000047
40
0.34375000000005
40
0.34375000000005
40
0.375000000000052
40
0.375000000000052
40
0.406250000000055
40
0.406250000000055
40
0.437500000000058
40
0.437500000000058
40
0.445312500000059
40
0.445312500000059
40
0.453125000000059
40
0.468750000000061
40
0.468750000000061
40
0.500000000000063
40
0.500000000000063
40
0.531250000000066
40
0.531250000000066
40
0.539062500000066
40
0.539062500000066
40
0.546875000000067
40
0.562500000000068
40
0.562500000000068
40
0.59375000000007
40
0.59375000000007
40
0.625000000000072
40
0.625000000000072
40
0.632812500000071
40
0.632812500000071
40
0.640625000000071
40
0.65625000000007
40
0.65625000000007
40
0.687500000000068
40
0.687500000000068
40
0.718750000000066
40
0.718750000000066
40
0.726562500000065
40
0.726562500000065
40
0.734375000000064
40
0.734375000000064
40
0.750000000000063
40
0.750000000000063
40
0.781250000000058
40
0.781250000000058
40
0.812500000000054
40
0.812500000000054
40
0.84375000000005
40
0.84375000000005
40
0.851562500000048
40
0.851562500000048
40
0.859375000000046
40
0.875000000000042
40
0.875000000000042
40
0.906250000000032
40
0.906250000000032
40
0.937500000000021
40
0.968750000000011
40
0.968750000000011
40
0.976562500000009
40
0.976562500000009
40
0.984375000000006
40
1
40
1
40
1
40
1
41
1
10
155.832357188806
20
11.6189626091948
30
0
41
1
10
155.907308449948
20
11.4331167301684
30
0
41
1
10
155.982377697592
20
11.2444828628427
30
0
41
1
10
156.13287931406
20
10.8620795037456
30
0
41
1
10
156.208311550057
20
10.6683090326981
30
0
41
1
10
156.359628328003
20
10.2759501782776
30
0
41
1
10
156.4355129242
20
10.0773612439444
30
0
41
1
10
156.587787449608
20
9.67558600648314
30
0
41
1
10
156.66417763895
20
9.47239947649578
30
0
41
1
10
156.77915113095
20
9.16427269462432
30
0
41
1
10
156.817539987164
20
9.06100528486343
30
0
41
1
10
156.875217370334
20
8.9052732356634
30
0
41
1
10
156.894472157866
20
8.8531878524166
30
0
41
1
10
156.93294384845
20
8.74892622801443
30
0
41
1
10
157.028981997431
20
8.4881685471876
30
0
41
1
10
157.124324264422
20
8.2269009739986
30
0
41
1
10
157.275918980704
20
7.80821588042605
30
0
41
1
10
157.351240820194
20
7.59854515109305
30
0
41
1
10
157.500760618796
20
7.17849839959675
30
0
41
1
10
157.574960289375
20
6.96812297594383
30
0
41
1
10
157.721916895147
20
6.54656128325644
30
0
41
1
10
157.794676786238
20
6.33537607430662
30
0
41
1
10
157.902333612431
20
6.01784995565183
30
0
41
1
10
157.937970098628
20
5.91188246680699
30
0
41
1
10
158.008648002046
20
5.69966207811154
30
0
41
1
10
158.043705647986
20
5.5933567983825
30
0
41
1
10
158.147301249806
20
5.27550344126149
30
0
41
1
10
158.214446890784
20
5.06452334669231
30
0
41
1
10
158.343674520496
20
4.64405789465496
30
0
41
1
10
158.405764966646
20
4.43457390141782
30
0
41
1
10
158.522995565126
20
4.01666213526934
30
0
41
1
10
158.57814555316
20
3.80823523862224
30
0
41
1
10
158.678655088592
20
3.3918706437741
30
0
41
1
10
158.724019021146
20
3.18393121361274
30
0
41
1
10
158.772078144407
20
2.9238794387874
30
0
41
1
10
158.781261218096
20
2.87182318715662
30
0
41
1
10
158.798653043091
20
2.76786187136867
30
0
41
1
10
158.823228436602
20
2.61246677035612
30
0
41
1
10
158.843004450021
20
2.45873060348671
30
0
41
1
10
158.875516945812
20
2.15355141147225
30
0
41
1
10
158.887737329451
20
1.95314483089609
30
0
41
1
10
158.890987911426
20
1.55913191640852
30
0
41
1
10
158.881997665913
20
1.36553045756449
30
0
41
1
10
158.857592958034
20
1.12841783245952
30
0
41
1
10
158.852053410242
20
1.08119100810927
30
0
41
1
10
158.839725875689
20
0.987464854089154
30
0
41
1
10
158.819419861912
20
0.848369097501831
30
0
41
1
10
158.793983752252
20
0.713699541991701
30
0
41
1
10
158.737124236018
20
0.450120803401177
30
0
41
1
10
158.691267555658
20
0.282071586646907
30
0
41
1
10
158.58778564656
20
-0.0392814708410754
30
0
41
1
10
158.530169195729
20
-0.192589748599289
30
0
41
1
10
158.452706745589
20
-0.375148674500934
30
0
41
1
10
158.436926897177
20
-0.411233015731796
30
0
41
1
10
158.40490988872
20
-0.482366670252276
30
0
41
1
10
158.356284817343
20
-0.58732517408464
30
0
41
1
10
158.306047344218
20
-0.687160351540228
30
0
41
1
10
158.203812916157
20
-0.880204875569433
30
0
41
1
10
158.133333936666
20
-1.00008519225332
30
0
41
1
10
157.98909885485
20
-1.22280386323314
30
0
41
1
10
157.915333001489
20
-1.32563903373438
30
0
41
1
10
157.821521650523
20
-1.44354918033269
30
0
41
1
10
157.802677985113
20
-1.46659827072631
30
0
41
1
10
157.764834880696
20
-1.51162618102094
30
0
41
1
10
157.745820354052
20
-1.53362086510609
30
0
41
1
10
157.688792493405
20
-1.59772560439808
30
0
41
1
10
157.650729137514
20
-1.63804033243602
30
0
41
1
10
157.53646431392
20
-1.75188282221774
30
0
41
1
10
157.460193764863
20
-1.81832356033598
30
0
41
1
10
157.307603309842
20
-1.93277613793725
30
0
41
1
10
157.231281022207
20
-1.98078607590782
30
0
41
1
10
157.078563540145
20
-2.05840181646161
30
0
41
1
10
157.00216725756
20
-2.08800764111081
30
0
41
1
10
156.906546480085
20
-2.11326544734934
30
0
41
1
10
156.887401416603
20
-2.11773023795828
30
0
41
1
10
156.84926545033
20
-2.12544260485586
30
0
41
1
10
156.792236966813
20
-2.13520237347546
30
0
41
1
10
156.735716146331
20
-2.13959621341294
30
0
41
1
10
156.623301735464
20
-2.14135092295462
30
0
41
1
10
156.549194922165
20
-2.13315541163993
30
0
41
1
10
156.402392602478
20
-2.09837276143952
30
0
41
1
10
156.257001610443
20
-2.04519606663948
30
0
41
1
10
156.113920449484
20
-1.95516219043995
30
0
41
1
10
156.02505511757
20
-1.88712118287324
30
0
41
1
10
156.007321427578
20
-1.87293142193695
30
0
41
1
10
155.972001496705
20
-1.84344925670214
30
0
41
1
10
155.919210706696
20
-1.79754746976818
30
0
41
1
10
155.866964721102
20
-1.7466273322857
30
0
41
1
10
155.832357188806
20
-1.71045546924697
30
0
0
SPLINE
5
CB
100
AcDbEntity
8
1
62
256
6
ByLayer
370
18
48
1
60
0
100
AcDbSpline
70
4
71
3
72
18
73
14
40
0
40
0
40
0
40
0
40
0.0066019265016118
40
0.0066019265016118
40
0.337734617667747
40
0.337734617667747
40
0.668867308833882
40
0.668867308833882
40
0.751650481625409
40
0.751650481625409
40
0.834433654416937
40
0.834433654416937
40
1
40
1
40
1
40
1
41
1
10
147.503252266347
20
11.9985007654508
30
0
41
1
10
147.52157904769
20
11.9985040272239
30
0
41
1
10
147.539905949132
20
11.9985017114454
30
0
41
1
10
148.477460779375
20
11.9980981560659
30
0
41
1
10
149.396948776098
20
11.9837302450205
30
0
41
1
10
151.235736634951
20
11.9273705835083
30
0
41
1
10
152.155027386022
20
11.8853720521771
30
0
41
1
10
153.303650571444
20
11.8150778102844
30
0
41
1
10
153.533342912333
20
11.8001221420765
30
0
41
1
10
153.992718506611
20
11.7684276012558
30
0
41
1
10
154.222453311791
20
11.7517150096085
30
0
41
1
10
154.911985336188
20
11.6991060801132
30
0
41
1
10
155.372028798923
20
11.6606999798096
30
0
41
1
10
155.832357188802
20
11.6189626091951
30
0
0
SPLINE
5
CC
100
AcDbEntity
8
1
62
256
6
ByLayer
370
18
48
1
60
0
100
AcDbSpline
70
4
71
3
72
44
73
40
40
0
40
0
40
0
40
0
40
0.0794975748960972
40
0.0794975748960972
40
0.158995149792194
40
0.158995149792194
40
0.238492724688292
40
0.238492724688292
40
0.27824151213634
40
0.27824151213634
40
0.298115905860364
40
0.298115905860364
40
0.317990299584389
40
0.317990299584389
40
0.397487874480489
40
0.397487874480489
40
0.476985449376589
40
0.476985449376589
40
0.556483024272689
40
0.556483024272689
40
0.596231811720739
40
0.596231811720739
40
0.616106205444763
40
0.616106205444763
40
0.635980599168788
40
0.635980599168788
40
0.715478174064888
40
0.715478174064888
40
0.794975748960988
40
0.794975748960988
40
0.874473323857089
40
0.874473323857089
40
0.894347717581114
40
0.894347717581114
40
0.91422211130514
40
0.91422211130514
40
0.95397089875319
40
0.95397089875319
40
1
40
1
40
1
40
1
41
1
10
19.6514512414487
20
-8.59323927010388
30
0
41
1
10
20.303843292936
20
-8.75168807809069
30
0
41
1
10
20.9562237220718
20
-8.90393178943469
30
0
41
1
10
22.260692815239
20
-9.19689176525276
30
0
41
1
10
22.9127805749662
20
-9.33760796035978
30
0
41
1
10
24.2164278071764
20
-9.60804110890786
30
0
41
1
10
24.867985033986
20
-9.73776172408355
30
0
41
1
10
25.8447395754566
20
-9.92430297529455
30
0
41
1
10
26.1702286526966
20
-9.98513953959591
30
0
41
1
10
26.6583040887989
20
-10.074374432739
30
0
41
1
10
26.8209674839216
20
-10.1037855403707
30
0
41
1
10
27.1462490467591
20
-10.1619181910504
30
0
41
1
10
27.3088746132014
20
-10.1906286047049
30
0
41
1
10
28.1222056727955
20
-10.3320163501688
30
0
41
1
10
28.7733527899222
20
-10.4384584626908
30
0
41
1
10
30.0762355819989
20
-10.638762104762
30
0
41
1
10
30.7279816343229
20
-10.7326071877326
30
0
41
1
10
32.0318535171736
20
-10.9079655892629
30
0
41
1
10
32.6839728627832
20
-10.9894857891234
30
0
41
1
10
33.6622750078293
20
-11.1025192980359
30
0
41
1
10
33.9883975351976
20
-11.1386526741402
30
0
41
1
10
34.4776022827726
20
-11.190511011851
30
0
41
1
10
34.6406738713648
20
-11.2074094490613
30
0
41
1
10
34.9669246619655
20
-11.2403247096105
30
0
41
1
10
35.1300493534984
20
-11.2563365271222
30
0
41
1
10
35.945654327725
20
-11.3341994947206
30
0
41
1
10
36.5980713039142
20
-11.3894832483274
30
0
41
1
10
37.9024593063154
20
-11.4865654583795
30
0
41
1
10
38.5544420253172
20
-11.5283538369551
30
0
41
1
10
39.8577508287207
20
-11.5985773214381
30
0
41
1
10
40.5090698694596
20
-11.6270143271869
30
0
41
1
10
41.3226760025507
20
-11.6541176061242
30
0
41
1
10
41.4853703533891
20
-11.6591153664393
30
0
41
1
10
41.8107029405299
20
-11.6682598327567
30
0
41
1
10
41.9733328116435
20
-11.672407754031
30
0
41
1
10
42.4612494363687
20
-11.683546567334
30
0
41
1
10
42.7866393401304
20
-11.6892217717421
30
0
41
1
10
43.4890555416805
20
-11.6977497420157
30
0
41
1
10
43.8661060439714
20
-11.7000198735901
30
0
41
1
10
44.2432568194105
20
-11.700002407986
30
0
0
SPLINE
5
CD
100
AcDbEntity
8
1
62
256
6
ByLayer
370
18
48
1
60
0
100
AcDbSpline
70
4
71
3
72
43
73
39
40
0
40
0
40
0
40
0
40
0.0161984118881883
40
0.0390775185884615
40
0.0390775185884615
40
0.0848357319890079
40
0.0848357319890079
40
0.130593945389554
40
0.130593945389554
40
0.176352158790101
40
0.176352158790101
40
0.267868585591197
40
0.267868585591197
40
0.359385012392292
40
0.359385012392292
40
0.382264119092567
40
0.382264119092567
40
0.405143225792841
40
0.405143225792841
40
0.450901439193391
40
0.450901439193391
40
0.54241786599449
40
0.54241786599449
40
0.588176079395038
40
0.588176079395038
40
0.633934292795586
40
0.679692506196134
40
0.702571612896409
40
0.702571612896409
40
0.725450719596685
40
0.725450719596685
40
0.771208932997237
40
0.771208932997237
40
0.816967146397788
40
0.816967146397788
40
0.908483573198895
40
0.908483573198895
40
1
40
1
40
1
40
1
41
1
10
123.410751131063
20
8.63614174182192
30
0
41
1
10
123.52600387213
20
8.66387632289522
30
0
41
1
10
123.804037533275
20
8.73045973561906
30
0
41
1
10
124.082057806588
20
8.79625550852035
30
0
41
1
10
124.570555732922
20
8.91065753060067
30
0
41
1
10
124.896432220201
20
8.9854103418445
30
0
41
1
10
125.548554622914
20
9.13201347751712
30
0
41
1
10
125.874799842063
20
9.20386499096944
30
0
41
1
10
126.527615865521
20
9.34476014758158
30
0
41
1
10
126.854255621743
20
9.41381559956469
30
0
41
1
10
127.834026674147
20
9.61672334549186
30
0
41
1
10
128.486993110314
20
9.74631994544126
30
0
41
1
10
129.792249259733
20
9.9945195791658
30
0
41
1
10
130.444534981543
20
10.1131268550568
30
0
41
1
10
131.259356939043
20
10.2545119099062
30
0
41
1
10
131.422286878507
20
10.2824545484158
30
0
41
1
10
131.748185207537
20
10.3375238347215
30
0
41
1
10
131.911165470122
20
10.364635279038
30
0
41
1
10
132.400197281641
20
10.4447124686204
30
0
41
1
10
132.726336379925
20
10.496426421613
30
0
41
1
10
133.705031503028
20
10.6467063559689
30
0
41
1
10
134.357858846677
20
10.7404257679049
30
0
41
1
10
135.337463986933
20
10.8715836243848
30
0
41
1
10
135.664101239045
20
10.9137346293672
30
0
41
1
10
136.317270509976
20
10.9948888457344
30
0
41
1
10
136.970239382544
20
11.0728845582281
30
0
41
1
10
137.785875539428
20
11.1625066301539
30
0
41
1
10
138.274974273706
20
11.2127204700198
30
0
41
1
10
138.600974814328
20
11.2454014485684
30
0
41
1
10
138.763934670076
20
11.2613502606642
30
0
41
1
10
139.252795619799
20
11.3079362903727
30
0
41
1
10
139.57878063671
20
11.3372373951156
30
0
41
1
10
140.230946387049
20
11.3923496702117
30
0
41
1
10
140.557112404607
20
11.4181719079689
30
0
41
1
10
141.535789060708
20
11.4905326715397
30
0
41
1
10
142.188480975938
20
11.5319717123191
30
0
41
1
10
143.49411539253
20
11.6014310613843
30
0
41
1
10
144.147053624968
20
11.6294533670779
30
0
41
1
10
144.8
20
11.6507111060985
30
0
0
SPLINE
5
CE
100
AcDbEntity
8
1
62
256
6
ByLayer
370
18
48
1
60
0
100
AcDbSpline
70
4
71
4
72
10
73
5
40
0
40
0
40
0
40
0
40
0
40
1
40
1
40
1
40
1
40
1
41
0.995585159161257
10
14.7365870251329
20
-7.78101435535116
30
0
41
0.995381122133716
10
14.6356186030245
20
-8.26162242293959
30
0
41
0.995555404358305
10
14.5487776330524
20
-8.76625988811598
30
0
41
0.996161330853126
10
14.477937399862
20
-9.2866313872306
30
0
41
0.996950676799056
10
14.4234364234713
20
-9.81273915595852
30
0
0
SPLINE
5
CF
100
AcDbEntity
8
1
62
256
6
ByLayer
370
18
48
1
60
0
100
AcDbSpline
70
4
71
3
72
75
73
71
40
0
40
0
40
0
40
0
40
0.0444879435628627
40
0.0444879435628627
40
0.0667319153442941
40
0.0667319153442941
40
0.0778539012350098
40
0.0778539012350098
40
0.0889758871257255
40
0.0889758871257255
40
0.133463830688583
40
0.133463830688583
40
0.177951774251441
40
0.177951774251441
40
0.222439717814299
40
0.222439717814299
40
0.244683689595728
40
0.244683689595728
40
0.266927661377157
40
0.266927661377157
40
0.311415604940017
40
0.311415604940017
40
0.333659576721446
40
0.333659576721446
40
0.355903548502876
40
0.355903548502876
40
0.400391492065734
40
0.400391492065734
40
0.411513477956449
40
0.411513477956449
40
0.422635463847165
40
0.444879435628595
40
0.444879435628595
40
0.489367379191454
40
0.489367379191454
40
0.533855322754314
40
0.533855322754314
40
0.556099294535744
40
0.556099294535744
40
0.567221280426458
40
0.567221280426458
40
0.578343266317172
40
0.578343266317172
40
0.622831209880023
40
0.622831209880023
40
0.64507518166145
40
0.656197167552163
40
0.656197167552163
40
0.667319153442877
40
0.667319153442877
40
0.711807097005733
40
0.711807097005733
40
0.73405106878716
40
0.73405106878716
40
0.756295040568588
40
0.756295040568588
40
0.800782984131443
40
0.800782984131443
40
0.845270927694297
40
0.845270927694297
40
0.889758871257152
40
0.889758871257152
40
0.900880857147867
40
0.900880857147867
40
0.912002843038582
40
0.934246814820012
40
0.934246814820012
40
0.978734758382871
40
0.978734758382871
40
1
40
1
40
1
40
1
41
1
10
144.8
20
2.11835997466281
30
0
41
1
10
144.119454193599
20
2.35518550209335
30
0
41
1
10
143.439424985526
20
2.59044413446102
30
0
41
1
10
142.4202476739
20
2.94123123108835
30
0
41
1
10
142.080667033516
20
3.05781133013292
30
0
41
1
10
141.571528986389
20
3.23219218582844
30
0
41
1
10
141.401855826617
20
3.29023946520081
30
0
41
1
10
141.062587009722
20
3.40616850452605
30
0
41
1
10
140.892989581268
20
3.46404511999708
30
0
41
1
10
140.044945193511
20
3.75232792664272
30
0
41
1
10
139.366434856048
20
3.97973706298731
30
0
41
1
10
138.00934181593
20
4.42843594192615
30
0
41
1
10
137.330760828653
20
4.64973037031274
30
0
41
1
10
135.973629430314
20
5.08648855809938
30
0
41
1
10
135.295076839916
20
5.301947208554
30
0
41
1
10
134.2773723705
20
5.620966564188
30
0
41
1
10
133.938171997273
20
5.72664471095155
30
0
41
1
10
133.25976935602
20
5.93648407580764
30
0
41
1
10
132.920454372906
20
6.04036559515532
30
0
41
1
10
131.902016443708
20
6.34853968073185
30
0
41
1
10
131.222468044097
20
6.54953250353225
30
0
41
1
10
130.202334673411
20
6.84455288102501
30
0
41
1
10
129.862097463906
20
6.94183091299118
30
0
41
1
10
129.181626307093
20
7.1341821794403
30
0
41
1
10
128.841526667515
20
7.22921695600005
30
0
41
1
10
127.821657357181
20
7.51094659078518
30
0
41
1
10
127.142317000776
20
7.69427306510454
30
0
41
1
10
126.29395769187
20
7.91793863335502
30
0
41
1
10
126.124333093469
20
7.96240976850265
30
0
41
1
10
125.785089201466
20
8.05063941299878
30
0
41
1
10
125.276212965087
20
8.18187798809501
30
0
41
1
10
124.767307794597
20
8.30982445550714
30
0
41
1
10
123.749472880038
20
8.56139709315721
30
0
41
1
10
123.070883413729
20
8.72335741727886
30
0
41
1
10
121.713736978091
20
9.03604725767701
30
0
41
1
10
121.035177104232
20
9.18677193778265
30
0
41
1
10
120.017449946494
20
9.4045330389765
30
0
41
1
10
119.678226877787
20
9.47573186661219
30
0
41
1
10
119.169435302062
20
9.58045063983303
30
0
41
1
10
118.999846937294
20
9.61501288445029
30
0
41
1
10
118.660679374672
20
9.68343106632832
30
0
41
1
10
118.491094552817
20
9.71727746207429
30
0
41
1
10
117.642944694214
20
9.88434621086617
30
0
41
1
10
116.96383867938
20
10.0113094819344
30
0
41
1
10
115.944368736078
20
10.1919333662139
30
0
41
1
10
115.434431381011
20
10.2797885066413
30
0
41
1
10
114.924204794673
20
10.3639819764105
30
0
41
1
10
114.583990960675
20
10.4192983503772
30
0
41
1
10
114.413839714742
20
10.4465521630618
30
0
41
1
10
113.563358447987
20
10.5807244393335
30
0
41
1
10
112.883541470024
20
10.6814114874549
30
0
41
1
10
111.864778828071
20
10.8225126272152
30
0
41
1
10
111.525372611399
20
10.8679107452457
30
0
41
1
10
110.84680422304
20
10.9552779086019
30
0
41
1
10
110.507528731128
20
10.9971307885083
30
0
41
1
10
109.489654298824
20
11.1171845484209
30
0
41
1
10
108.811042081509
20
11.189924080512
30
0
41
1
10
107.453850025971
20
11.3210736799463
30
0
41
1
10
106.775270596834
20
11.3794842631992
30
0
41
1
10
105.418249598241
20
11.4820185731653
30
0
41
1
10
104.739810004749
20
11.526145054287
30
0
41
1
10
103.891942655512
20
11.5722609572904
30
0
41
1
10
103.722382443508
20
11.5810324321136
30
0
41
1
10
103.383189392069
20
11.597629854485
30
0
41
1
10
102.874293097601
20
11.6211105039388
30
0
41
1
10
102.365080862843
20
11.6403678331856
30
0
41
1
10
101.346252067154
20
11.6732957018454
30
0
41
1
10
100.666494104096
20
11.687806122354
30
0
41
1
10
99.6610898716535
20
11.6983015251276
30
0
41
1
10
99.3357436842649
20
11.7000007369875
30
0
41
1
10
99.0105516290735
20
11.6999999956591
30
0
0
SPLINE
5
D0
100
AcDbEntity
8
1
62
256
6
ByLayer
370
18
48
1
60
0
100
AcDbSpline
70
4
71
3
72
12
73
8
40
0
40
0
40
0
40
0
40
0.244427597311004
40
0.244427597311004
40
0.622213798655503
40
0.622213798655503
40
1
40
1
40
1
40
1
41
1
10
19.8179414580419
20
-8.64475858212322
30
0
41
1
10
19.3788850018108
20
-8.7496593636379
30
0
41
1
10
18.9396982006407
20
-8.85214736455768
30
0
41
1
10
17.8214006081534
20
-9.10697739924066
30
0
41
1
10
17.1421197755936
20
-9.2560063274563
30
0
41
1
10
15.7830884712987
20
-9.54280589651961
30
0
41
1
10
15.1033390125467
20
-9.68057990038795
30
0
41
1
10
14.4234364234703
20
-9.81273915596756
30
0
0
SPLINE
5
D1
100
AcDbEntity
8
1
62
256
6
ByLayer
370
18
48
1
60
0
100
AcDbSpline
70
4
71
3
72
12
73
8
40
0
40
0
40
0
40
0
40
0.5101716389644
40
0.5101716389644
40
0.765257458446614
40
0.765257458446614
40
1
40
1
40
1
40
1
41
1
10
144.8
20
-11.9573577339959
30
0
41
1
10
145.260219528992
20
-11.9712242324154
30
0
41
1
10
145.720106021778
20
-11.9816218222243
30
0
41
1
10
146.409407928107
20
-11.9919370818937
30
0
41
1
10
146.639113894482
20
-11.9944895932968
30
0
41
1
10
147.080313570979
20
-11.9976828125517
30
0
41
1
10
147.291774543161
20
-11.998463125184
30
0
41
1
10
147.503251506962
20
-11.9985007653156
30
0
0
SPLINE
5
D2
100
AcDbEntity
8
1
62
256
6
ByLayer
370
18
48
1
60
0
100
AcDbSpline
70
4
71
3
72
195
73
191
40
0
40
0
40
0
40
0
40
0.0143158897803854
40
0.0143158897803854
40
0.0299616693076787
40
0.0299616693076787
40
0.0456074488349721
40
0.0456074488349721
40
0.0534303385986189
40
0.0534303385986189
40
0.0573417834804424
40
0.0573417834804424
40
0.061253228362266
40
0.061253228362266
40
0.0768990078895605
40
0.0768990078895605
40
0.092544787416855
40
0.092544787416855
40
0.108190566944149
40
0.108190566944149
40
0.116013456707797
40
0.116013456707797
40
0.11992490158962
40
0.11992490158962
40
0.123836346471444
40
0.123836346471444
40
0.139482125998738
40
0.139482125998738
40
0.155127905526033
40
0.155127905526033
40
0.170773685053327
40
0.170773685053327
40
0.174685129935151
40
0.174685129935151
40
0.178596574816975
40
0.178596574816975
40
0.186419464580622
40
0.186419464580622
40
0.202065244107917
40
0.202065244107917
40
0.217711023635212
40
0.217711023635212
40
0.233356803162508
40
0.233356803162508
40
0.241179692926155
40
0.241179692926155
40
0.249002582689803
40
0.249002582689803
40
0.264648362217098
40
0.264648362217098
40
0.280294141744393
40
0.280294141744393
40
0.295939921271688
40
0.295939921271688
40
0.299851366153512
40
0.299851366153512
40
0.303762811035336
40
0.311585700798984
40
0.311585700798984
40
0.32723148032628
40
0.32723148032628
40
0.342877259853576
40
0.342877259853576
40
0.350700149617224
40
0.354611594499048
40
0.354611594499048
40
0.358523039380871
40
0.358523039380871
40
0.366345929144519
40
0.366345929144519
40
0.374168818908166
40
0.374168818908166
40
0.389814598435461
40
0.389814598435461
40
0.405460377962755
40
0.405460377962755
40
0.413283267726403
40
0.413283267726403
40
0.417194712608226
40
0.417194712608226
40
0.421106157490049
40
0.421106157490049
40
0.436751937017343
40
0.436751937017343
40
0.452397716544636
40
0.452397716544636
40
0.46804349607193
40
0.46804349607193
40
0.475866385835576
40
0.475866385835576
40
0.483689275599223
40
0.483689275599223
40
0.499335055126517
40
0.499335055126517
40
0.514980834653811
40
0.514980834653811
40
0.530626614181105
40
0.530626614181105
40
0.534538059062928
40
0.534538059062928
40
0.538449503944752
40
0.538449503944752
40
0.5462723937084
40
0.5462723937084
40
0.561918173235695
40
0.561918173235695
40
0.57756395276299
40
0.57756395276299
40
0.593209732290285
40
0.593209732290285
40
0.597121177172109
40
0.597121177172109
40
0.601032622053933
40
0.601032622053933
40
0.608855511817581
40
0.608855511817581
40
0.624501291344877
40
0.640147070872173
40
0.640147070872173
40
0.647969960635821
40
0.651881405517645
40
0.651881405517645
40
0.655792850399469
40
0.655792850399469
40
0.671438629926766
40
0.671438629926766
40
0.687084409454064
40
0.687084409454064
40
0.702730188981361
40
0.702730188981361
40
0.71055307874501
40
0.71055307874501
40
0.718375968508659
40
0.718375968508659
40
0.726198858272308
40
0.726198858272308
40
0.734021748035957
40
0.734021748035957
40
0.749667527563255
40
0.749667527563255
40
0.765313307090552
40
0.765313307090552
40
0.773136196854201
40
0.773136196854201
40
0.777047641736025
40
0.777047641736025
40
0.78095908661785
40
0.78095908661785
40
0.796604866145145
40
0.796604866145145
40
0.812250645672441
40
0.812250645672441
40
0.827896425199737
40
0.827896425199737
40
0.831807870081561
40
0.835719314963385
40
0.835719314963385
40
0.843542204727032
40
0.843542204727032
40
0.85136509449068
40
0.85136509449068
40
0.859187984254327
40
0.859187984254327
40
0.874833763781623
40
0.874833763781623
40
0.890479543308919
40
0.890479543308919
40
0.894390988190743
40
0.894390988190743
40
0.898302433072567
40
0.898302433072567
40
0.906125322836215
40
0.906125322836215
40
0.921771102363512
40
0.921771102363512
40
0.929593992127161
40
0.929593992127161
40
0.937416881890809
40
0.945239771654458
40
0.949151216536282
40
0.949151216536282
40
0.953062661418106
40
0.953062661418106
40
0.960885551181755
40
0.960885551181755
40
0.968708440945404
40
0.968708440945404
40
0.984354220472702
40
0.984354220472702
40
1
40
1
40
1
40
1
41
1
10
19.8178106909572
20
8.6335094460693
30
0
41
1
10
20.4147467857226
20
8.77752783676888
30
0
41
1
10
21.0116635954617
20
8.91638257424265
30
0
41
1
10
22.260692815239
20
9.19689176525276
30
0
41
1
10
22.9127805749662
20
9.3376079603598
30
0
41
1
10
24.2164278071764
20
9.60804110890788
30
0
41
1
10
24.8679850339861
20
9.73776172408358
30
0
41
1
10
25.8447395754566
20
9.92430297529458
30
0
41
1
10
26.1702286526966
20
9.98513953959593
30
0
41
1
10
26.658304088799
20
10.074374432739
30
0
41
1
10
26.8209674839216
20
10.1037855403707
30
0
41
1
10
27.1462490467591
20
10.1619181910504
30
0
41
1
10
27.3088746132015
20
10.1906286047049
30
0
41
1
10
28.1222056727955
20
10.3320163501688
30
0
41
1
10
28.7733527899223
20
10.4384584626908
30
0
41
1
10
30.0762355819989
20
10.638762104762
30
0
41
1
10
30.7279816343229
20
10.7326071877326
30
0
41
1
10
32.0318535171736
20
10.9079655892629
30
0
41
1
10
32.6839728627832
20
10.9894857891234
30
0
41
1
10
33.6622750078294
20
11.1025192980359
30
0
41
1
10
33.9883975351977
20
11.1386526741402
30
0
41
1
10
34.4776022827725
20
11.190511011851
30
0
41
1
10
34.6406738713647
20
11.2074094490614
30
0
41
1
10
34.9669246619655
20
11.2403247096105
30
0
41
1
10
35.1300493534984
20
11.2563365271222
30
0
41
1
10
35.945654327725
20
11.3341994947206
30
0
41
1
10
36.5980713039141
20
11.3894832483274
30
0
41
1
10
37.9024593063154
20
11.4865654583795
30
0
41
1
10
38.5544420253172
20
11.5283538369551
30
0
41
1
10
39.8577508287207
20
11.5985773214381
30
0
41
1
10
40.5090698694596
20
11.6270143271869
30
0
41
1
10
41.3226760025507
20
11.6541176061242
30
0
41
1
10
41.4853703533891
20
11.6591153664393
30
0
41
1
10
41.8107029405299
20
11.6682598327567
30
0
41
1
10
41.9733328116435
20
11.672407754031
30
0
41
1
10
42.4612494363686
20
11.683546567334
30
0
41
1
10
42.7866393401303
20
11.6892217717421
30
0
41
1
10
43.7631214867637
20
11.7010771513601
30
0
41
1
10
44.4144924421909
20
11.7021019700976
30
0
41
1
10
45.7177107762286
20
11.690584158539
30
0
41
1
10
46.3695676549063
20
11.6780409854798
30
0
41
1
10
47.6735370670191
20
11.6392679403024
30
0
41
1
10
48.3256444022328
20
11.613035166025
30
0
41
1
10
49.3038718083104
20
11.5631216178391
30
0
41
1
10
49.6299264249391
20
11.5446911140793
30
0
41
1
10
50.2825402255544
20
11.5045364995742
30
0
41
1
10
50.6088339900988
20
11.482812637598
30
0
41
1
10
51.587606001498
20
11.4127397792379
30
0
41
1
10
52.2399667661324
20
11.3594928764149
30
0
41
1
10
53.5441421667996
20
11.2399607922292
30
0
41
1
10
54.1959612622116
20
11.1736786725209
30
0
41
1
10
55.4988153470188
20
11.0278164481964
30
0
41
1
10
56.1498353516925
20
10.9482186250621
30
0
41
1
10
56.9630498986101
20
10.840159460758
30
0
41
1
10
57.1256780781987
20
10.8181324221208
30
0
41
1
10
57.4510126291186
20
10.7733671423425
30
0
41
1
10
57.9390998229021
20
10.705119306996
30
0
41
1
10
58.4274133155882
20
10.6335689781839
30
0
41
1
10
59.40426863258
20
10.4860309545112
30
0
41
1
10
60.0558084366436
20
10.3817614427818
30
0
41
1
10
61.3592630496547
20
10.1611804356773
30
0
41
1
10
62.0111759695089
20
10.0448666792318
30
0
41
1
10
62.9891509538444
20
9.8609868284789
30
0
41
1
10
63.478166321651
20
9.76669333466003
30
0
41
1
10
63.9672035320088
20
9.66878992507347
30
0
41
1
10
64.2932314737345
20
9.602708956058
30
0
41
1
10
64.4562447480668
20
9.5692579581426
30
0
41
1
10
64.9454677408984
20
9.46798149371284
30
0
41
1
10
65.271902713641
20
9.39921448988071
30
0
41
1
10
65.9245593134402
20
9.25929152921
30
0
41
1
10
66.2508521171092
20
9.18811981357345
30
0
41
1
10
67.229564383828
20
8.97090542472824
30
0
41
1
10
67.8818222807906
20
8.82117743642368
30
0
41
1
10
69.1856815489577
20
8.51153304481252
30
0
41
1
10
69.8372769852959
20
8.35160503040345
30
0
41
1
10
70.8140009770368
20
8.10364110933801
30
0
41
1
10
71.139465252385
20
8.01964190677003
30
0
41
1
10
71.627481282768
20
7.89157468896431
30
0
41
1
10
71.7901149665821
20
7.84852307253794
30
0
41
1
10
72.1154020525674
20
7.76189590111383
30
0
41
1
10
72.2780704750259
20
7.71835258006442
30
0
41
1
10
73.0915508936002
20
7.49952865565547
30
0
41
1
10
73.7427396406194
20
7.32085461376468
30
0
41
1
10
75.0455808820217
20
6.95568927950012
30
0
41
1
10
75.6972452906401
20
6.76922279989458
30
0
41
1
10
77.0008284812037
20
6.38797497168966
30
0
41
1
10
77.6527401584079
20
6.19317632860455
30
0
41
1
10
78.6306471081229
20
5.89424035780178
30
0
41
1
10
78.9566031877322
20
5.79342093233672
30
0
41
1
10
79.6086132613414
20
5.58971128815517
30
0
41
1
10
79.9348374056298
20
5.48717586043412
30
0
41
1
10
80.9140439530495
20
5.17797637615524
30
0
41
1
10
81.5667061607606
20
4.96972084877459
30
0
41
1
10
82.8714660111829
20
4.54830107489417
30
0
41
1
10
83.5235739576651
20
4.33516349918941
30
0
41
1
10
84.8270057595168
20
3.90339528300515
30
0
41
1
10
85.4783236533026
20
3.68474826186284
30
0
41
1
10
86.2918582287186
20
3.40763510265418
30
0
41
1
10
86.4545316034361
20
3.35201416514127
30
0
41
1
10
86.779830204672
20
3.24042584377466
30
0
41
1
10
86.942465498192
20
3.18448578922829
30
0
41
1
10
87.4304832603985
20
3.01665029860749
30
0
41
1
10
87.7559337979947
20
2.90462046610588
30
0
41
1
10
88.7325252831856
20
2.56792090618677
30
0
41
1
10
89.3838963252159
20
2.34261631428322
30
0
41
1
10
90.6869981041729
20
1.88964426940251
30
0
41
1
10
91.3387349513078
20
1.66199385546767
30
0
41
1
10
92.642338525169
20
1.20365332075755
30
0
41
1
10
93.2942019037297
20
0.97295315171786
30
0
41
1
10
94.1090189057085
20
0.682352891945982
30
0
41
1
10
94.2719812411815
20
0.624119885485811
30
0
41
1
10
94.5980277051792
20
0.507786480239304
30
0
41
1
10
94.7611083527524
20
0.449676230307887
30
0
41
1
10
95.2505122953697
20
0.275487453374751
30
0
41
1
10
95.5770359131747
20
0.159536986311906
30
0
41
1
10
96.5562153232072
20
-0.187615131557948
30
0
41
1
10
97.8613467054536
20
-0.648861475185015
30
0
41
1
10
99.165151014338
20
-1.10821668206305
30
0
41
1
10
100.142323782425
20
-1.45253035414243
30
0
41
1
10
100.630740978621
20
-1.62463308617433
30
0
41
1
10
101.118880669481
20
-1.79671338646256
30
0
41
1
10
101.444243123593
20
-1.91143390146328
30
0
41
1
10
101.606884264971
20
-1.96881689581704
30
0
41
1
10
102.420143676492
20
-2.25513138360452
30
0
41
1
10
103.071167924299
20
-2.4815811090408
30
0
41
1
10
104.37369406441
20
-2.93033869140351
30
0
41
1
10
105.025197502438
20
-3.15264148490618
30
0
41
1
10
106.328456653683
20
-3.59373436918176
30
0
41
1
10
106.980207287766
20
-3.81253835040337
30
0
41
1
10
107.957851121268
20
-4.13854231447274
30
0
41
1
10
108.283736626996
20
-4.24683942624682
30
0
41
1
10
108.935498955342
20
-4.46272766731462
30
0
41
1
10
109.261335914175
20
-4.57042358844612
30
0
41
1
10
109.913554452849
20
-4.78362931505688
30
0
41
1
10
110.239922383676
20
-4.88929693764933
30
0
41
1
10
110.892870669643
20
-5.09882635752206
30
0
41
1
10
111.219280791587
20
-5.20263683902536
30
0
41
1
10
112.198270235954
20
-5.51136732884027
30
0
41
1
10
112.850612503399
20
-5.7135821682603
30
0
41
1
10
114.154437141574
20
-6.11142032684359
30
0
41
1
10
114.805912474327
20
-6.30706063919911
30
0
41
1
10
115.782312367985
20
-6.59589634606914
30
0
41
1
10
116.107635623932
20
-6.69142083679685
30
0
41
1
10
116.595433603707
20
-6.83348982774035
30
0
41
1
10
116.758016999264
20
-6.8806074167781
30
0
41
1
10
117.083249099709
20
-6.97414333630252
30
0
41
1
10
117.245886847649
20
-7.02058731276702
30
0
41
1
10
118.059168127987
20
-7.25123460973688
30
0
41
1
10
118.710079437941
20
-7.43075120833154
30
0
41
1
10
120.012164829966
20
-7.78061628363665
30
0
41
1
10
120.66335009217
20
-7.95093923428388
30
0
41
1
10
121.965767742076
20
-8.2828445971202
30
0
41
1
10
122.616993664205
20
-8.44443948380234
30
0
41
1
10
123.430938179628
20
-8.64108709418525
30
0
41
1
10
123.756507171454
20
-8.7192112865221
30
0
41
1
10
124.082057806589
20
-8.7962555085204
30
0
41
1
10
124.570555732922
20
-8.9106575306007
30
0
41
1
10
124.896432220201
20
-8.98541034184453
30
0
41
1
10
125.548554622914
20
-9.13201347751715
30
0
41
1
10
125.874799842063
20
-9.20386499096946
30
0
41
1
10
126.527615865521
20
-9.34476014758158
30
0
41
1
10
126.854255621743
20
-9.41381559956471
30
0
41
1
10
127.834026674147
20
-9.61672334549186
30
0
41
1
10
128.486993110314
20
-9.74631994544129
30
0
41
1
10
129.792249259733
20
-9.9945195791658
30
0
41
1
10
130.444534981543
20
-10.1131268550568
30
0
41
1
10
131.259356939043
20
-10.2545119099062
30
0
41
1
10
131.422286878507
20
-10.2824545484158
30
0
41
1
10
131.748185207537
20
-10.3375238347215
30
0
41
1
10
131.911165470122
20
-10.364635279038
30
0
41
1
10
132.400197281641
20
-10.4447124686204
30
0
41
1
10
132.726336379925
20
-10.496426421613
30
0
41
1
10
133.705031503028
20
-10.6467063559689
30
0
41
1
10
134.357858846677
20
-10.7404257679049
30
0
41
1
10
135.337463986934
20
-10.8715836243848
30
0
41
1
10
135.664101239045
20
-10.9137346293672
30
0
41
1
10
136.317270509976
20
-10.9948888457345
30
0
41
1
10
136.970239382544
20
-11.0728845582281
30
0
41
1
10
137.785875539428
20
-11.1625066301539
30
0
41
1
10
138.274974273706
20
-11.2127204700198
30
0
41
1
10
138.600974814328
20
-11.2454014485684
30
0
41
1
10
138.763934670076
20
-11.2613502606642
30
0
41
1
10
139.252795619799
20
-11.3079362903727
30
0
41
1
10
139.57878063671
20
-11.3372373951156
30
0
41
1
10
140.230946387049
20
-11.3923496702117
30
0
41
1
10
140.557112404607
20
-11.4181719079689
30
0
41
1
10
141.535789060708
20
-11.4905326715397
30
0
41
1
10
142.188480975938
20
-11.5319717123191
30
0
41
1
10
143.49411539253
20
-11.6014310613843
30
0
41
1
10
144.147053624968
20
-11.629453367078
30
0
41
1
10
144.8
20
-11.6507111060985
30
0
0
SPLINE
5
D3
100
AcDbEntity
8
1
62
256
6
ByLayer
370
18
48
1
60
0
100
AcDbSpline
70
4
71
3
72
168
73
164
40
0
40
0
40
0
40
0
40
0.0093643100589095
40
0.0093643100589095
40
0.0280555494917626
40
0.0280555494917626
40
0.0374011692081891
40
0.0374011692081891
40
0.0420739790664021
40
0.0420739790664021
40
0.046746788924615
40
0.046746788924615
40
0.0654380283574674
40
0.0654380283574674
40
0.0747836480738936
40
0.0794564579321067
40
0.0794564579321067
40
0.0841292677903198
40
0.0841292677903198
40
0.102820507223171
40
0.102820507223171
40
0.112166126939596
40
0.112166126939596
40
0.121511746656021
40
0.121511746656021
40
0.140202986088871
40
0.140202986088871
40
0.158894225521722
40
0.158894225521722
40
0.177585464954572
40
0.177585464954572
40
0.182258274812785
40
0.182258274812785
40
0.186931084670998
40
0.196276704387425
40
0.196276704387425
40
0.214967943820277
40
0.214967943820277
40
0.224313563536703
40
0.224313563536703
40
0.233659183253129
40
0.243004802969555
40
0.243004802969555
40
0.25235042268598
40
0.25235042268598
40
0.271041662118831
40
0.271041662118831
40
0.289732901551682
40
0.289732901551682
40
0.308424140984533
40
0.308424140984533
40
0.313096950842746
40
0.313096950842746
40
0.317769760700959
40
0.317769760700959
40
0.327115380417384
40
0.327115380417384
40
0.345806619850235
40
0.345806619850235
40
0.355152239566661
40
0.355152239566661
40
0.364497859283087
40
0.364497859283087
40
0.383189098715939
40
0.383189098715939
40
0.387861908574151
40
0.387861908574151
40
0.392534718432364
40
0.401880338148789
40
0.401880338148789
40
0.420571577581639
40
0.420571577581639
40
0.439262817014488
40
0.439262817014488
40
0.448608436730913
40
0.448608436730913
40
0.457954056447339
40
0.457954056447339
40
0.476645295880188
40
0.476645295880188
40
0.495336535313038
40
0.495336535313038
40
0.504682155029463
40
0.504682155029463
40
0.514027774745888
40
0.5187005846041
40
0.5187005846041
40
0.523373394462313
40
0.523373394462313
40
0.532719014178737
40
0.532719014178737
40
0.551410253611586
40
0.570101493044435
40
0.570101493044435
40
0.588792732477285
40
0.588792732477285
40
0.593465542335497
40
0.593465542335497
40
0.598138352193709
40
0.607483971910134
40
0.607483971910134
40
0.626175211342983
40
0.626175211342983
40
0.635520831059407
40
0.635520831059407
40
0.640193640917619
40
0.640193640917619
40
0.644866450775832
40
0.654212070492256
40
0.654212070492256
40
0.663557690208681
40
0.663557690208681
40
0.68224892964153
40
0.68224892964153
40
0.70094016907438
40
0.70094016907438
40
0.719631408507229
40
0.719631408507229
40
0.724304218365441
40
0.724304218365441
40
0.728977028223654
40
0.728977028223654
40
0.738322647940079
40
0.738322647940079
40
0.75701388737293
40
0.775705126805781
40
0.775705126805781
40
0.785050746522206
40
0.785050746522206
40
0.794396366238632
40
0.794396366238632
40
0.799069176096844
40
0.799069176096844
40
0.803741985955057
40
0.813087605671482
40
0.813087605671482
40
0.831778845104332
40
0.831778845104332
40
0.850470084537183
40
0.850470084537183
40
0.859815704253608
40
0.859815704253608
40
0.864488514111821
40
0.864488514111821
40
0.869161323970034
40
0.869161323970034
40
0.887852563402885
40
0.887852563402885
40
0.906543802835737
40
0.906543802835737
40
0.925235042268589
40
0.925235042268589
40
0.929907852126802
40
0.929907852126802
40
0.934580661985015
40
0.934580661985015
40
0.943926281701442
40
0.943926281701442
40
0.962617521134294
40
0.962617521134294
40
0.981308760567147
40
0.981308760567147
40
1
40
1
40
1
40
1
41
1
10
123.412211704724
20
-8.64047000454443
30
0
41
1
10
123.072244573424
20
-8.72163527071373
30
0
41
1
10
122.732275345474
20
-8.80137353996079
30
0
41
1
10
121.713736978091
20
-9.03604725767696
30
0
41
1
10
121.035177104232
20
-9.18677193778262
30
0
41
1
10
120.017449946494
20
-9.40453303897647
30
0
41
1
10
119.678226877787
20
-9.47573186661214
30
0
41
1
10
119.169435302062
20
-9.580450639833
30
0
41
1
10
118.999846937294
20
-9.61501288445021
30
0
41
1
10
118.660679374672
20
-9.68343106632835
30
0
41
1
10
118.491094552817
20
-9.71727746207426
30
0
41
1
10
117.642944694214
20
-9.88434621086617
30
0
41
1
10
116.963838679381
20
-10.0113094819343
30
0
41
1
10
115.944368736078
20
-10.1919333662138
30
0
41
1
10
115.434431381011
20
-10.2797885066413
30
0
41
1
10
114.924204794673
20
-10.3639819764105
30
0
41
1
10
114.583990960675
20
-10.4192983503772
30
0
41
1
10
114.413839714742
20
-10.4465521630617
30
0
41
1
10
113.563358447987
20
-10.5807244393334
30
0
41
1
10
112.883541470024
20
-10.6814114874549
30
0
41
1
10
111.864778828071
20
-10.8225126272152
30
0
41
1
10
111.525372611399
20
-10.8679107452455
30
0
41
1
10
110.84680422304
20
-10.9552779086019
30
0
41
1
10
110.507528731128
20
-10.9971307885083
30
0
41
1
10
109.489654298824
20
-11.1171845484209
30
0
41
1
10
108.811042081509
20
-11.1899240805119
30
0
41
1
10
107.453850025971
20
-11.3210736799462
30
0
41
1
10
106.775270596834
20
-11.3794842631992
30
0
41
1
10
105.418249598241
20
-11.4820185731653
30
0
41
1
10
104.739810004749
20
-11.526145054287
30
0
41
1
10
103.891942655513
20
-11.5722609572904
30
0
41
1
10
103.722382443508
20
-11.5810324321136
30
0
41
1
10
103.383189392069
20
-11.597629854485
30
0
41
1
10
102.874293097601
20
-11.6211105039388
30
0
41
1
10
102.365080862843
20
-11.6403678331856
30
0
41
1
10
101.346252067154
20
-11.6732957018454
30
0
41
1
10
100.666494104096
20
-11.687806122354
30
0
41
1
10
99.646124521353
20
-11.6984577482406
30
0
41
1
10
99.3057952477294
20
-11.7001535582995
30
0
41
1
10
98.6255084869613
20
-11.699824621399
30
0
41
1
10
97.9455204470651
20
-11.6957780372321
30
0
41
1
10
97.2661668458717
20
-11.6842697046327
30
0
41
1
10
96.5871509939994
20
-11.6689999896106
30
0
41
1
10
96.2478603548105
20
-11.6594682995389
30
0
41
1
10
95.229918979931
20
-11.6253413411739
30
0
41
1
10
94.5512688355606
20
-11.5952312390173
30
0
41
1
10
93.1940018424854
20
-11.5205214471894
30
0
41
1
10
92.5153866222169
20
-11.4759212776896
30
0
41
1
10
91.1582919186635
20
-11.372217669765
30
0
41
1
10
90.4798108922743
20
-11.3131165241013
30
0
41
1
10
89.6318817820959
20
-11.2299996688297
30
0
41
1
10
89.4623046236061
20
-11.2129135850503
30
0
41
1
10
89.1231701004876
20
-11.1778086737912
30
0
41
1
10
88.9536194161572
20
-11.1597838173929
30
0
41
1
10
88.4449179122053
20
-11.1043709197348
30
0
41
1
10
88.1056528105691
20
-11.0657030716251
30
0
41
1
10
87.0874427498389
20
-10.9445923309778
30
0
41
1
10
86.4080985061962
20
-10.8570362815043
30
0
41
1
10
85.3883500522845
20
-10.7154895131705
30
0
41
1
10
85.0483121310038
20
-10.6666030405694
30
0
41
1
10
84.3680043265293
20
-10.5654021417172
30
0
41
1
10
84.0276824717471
20
-10.5130791021067
30
0
41
1
10
83.0074187754428
20
-10.351081419982
30
0
41
1
10
82.3278707355084
20
-10.2363393245659
30
0
41
1
10
81.4793156692002
20
-10.084249636709
30
0
41
1
10
81.3096477463653
20
-10.0533987938763
30
0
41
1
10
80.9702995992175
20
-9.99097643215163
30
0
41
1
10
80.461276635497
20
-9.89623721433429
30
0
41
1
10
79.9522542003103
20
-9.79819793771949
30
0
41
1
10
78.9342244381224
20
-9.59773794613915
30
0
41
1
10
78.2555577778865
20
-9.4582624238397
30
0
41
1
10
76.8983623337903
20
-9.16756563999544
30
0
41
1
10
76.2198302331408
20
-9.01635071442158
30
0
41
1
10
75.2022265363533
20
-8.78049086385133
30
0
41
1
10
74.8630581732056
20
-8.70036228526635
30
0
41
1
10
74.1848063696778
20
-8.53702258872769
30
0
41
1
10
73.8457650306453
20
-8.45372440928682
30
0
41
1
10
72.8281493509936
20
-8.20039829236896
30
0
41
1
10
72.1492046538352
20
-8.02672573875194
30
0
41
1
10
70.7903390839246
20
-7.6697621168328
30
0
41
1
10
70.110419780439
20
-7.48646801369728
30
0
41
1
10
69.0898834087699
20
-7.20413072160864
30
0
41
1
10
68.7496051394213
20
-7.1087866913754
30
0
41
1
10
68.0695536012632
20
-6.91578071430803
30
0
41
1
10
67.5597615028555
20
-6.76925117661213
30
0
41
1
10
67.0503616887017
20
-6.61999506921325
30
0
41
1
10
66.7108518365346
20
-6.5198762640465
30
0
41
1
10
66.5411485731715
20
-6.46949340580079
30
0
41
1
10
66.0320680481271
20
-6.31767441665875
30
0
41
1
10
65.6926846161339
20
-6.21565425345693
30
0
41
1
10
64.6745508434644
20
-5.90718489972124
30
0
41
1
10
63.3170860173819
20
-5.48946854013423
30
0
41
1
10
61.959896925532
20
-5.05860921327516
30
0
41
1
10
60.602952855438
20
-4.62088932237069
30
0
41
1
10
59.9246117639416
20
-4.39857741646867
30
0
41
1
10
59.0769209103658
20
-4.11611146219971
30
0
41
1
10
58.9073882228148
20
-4.05940566362912
30
0
41
1
10
58.5682416392932
20
-3.94581565893591
30
0
41
1
10
58.0594247310039
20
-3.77509737434647
30
0
41
1
10
57.5503211252089
20
-3.60337660160494
30
0
41
1
10
56.531749041545
20
-3.258567595301
30
0
41
1
10
55.8522146126174
20
-3.02687452567372
30
0
41
1
10
54.832259033174
20
-2.67640775533246
30
0
41
1
10
54.4921644571229
20
-2.55909795381521
30
0
41
1
10
53.9818680541256
20
-2.38236986357137
30
0
41
1
10
53.8117407470766
20
-2.32333210648588
30
0
41
1
10
53.4716208645735
20
-2.20505892794273
30
0
41
1
10
52.9615744746205
20
-2.02732854140666
30
0
41
1
10
52.4519385904849
20
-1.8486073028406
30
0
41
1
10
51.7728100502572
20
-1.60937231256685
30
0
41
1
10
51.4334697889637
20
-1.48919616000191
30
0
41
1
10
50.4153843634035
20
-1.12910300309736
30
0
41
1
10
49.7367352549387
20
-0.889159292250724
30
0
41
1
10
48.3796634209278
20
-0.409275789295691
30
0
41
1
10
47.701242210306
20
-0.169331661970375
30
0
41
1
10
46.3447276320704
20
0.310843946478229
30
0
41
1
10
45.6666333958469
20
0.551073014614332
30
0
41
1
10
44.8193109018648
20
0.851790994723785
30
0
41
1
10
44.6498612276556
20
0.911956313018919
30
0
41
1
10
44.3109940757805
20
1.03233739073343
30
0
41
1
10
44.141581950959
20
1.09256831775178
30
0
41
1
10
43.6332653290696
20
1.27297171694303
30
0
41
1
10
43.2942729973097
20
1.39283342219107
30
0
41
1
10
42.2769654575326
20
1.75123661853135
30
0
41
1
10
40.9196747221664
20
2.2259585890942
30
0
41
1
10
39.5608190386
20
2.69494908908661
30
0
41
1
10
38.5411664644246
20
3.04475382811529
30
0
41
1
10
38.2011978070335
20
3.16103418867252
30
0
41
1
10
37.5211075367513
20
3.39299586776701
30
0
41
1
10
37.1810207901326
20
3.50868352831387
30
0
41
1
10
36.6712064816555
20
3.68159697696387
30
0
41
1
10
36.5012922413422
20
3.73910752969348
30
0
41
1
10
36.1614317256272
20
3.85366078571695
30
0
41
1
10
35.6516197243224
20
4.02486144525128
30
0
41
1
10
35.1417475684494
20
4.19419407195045
30
0
41
1
10
34.1219390595239
20
4.5304302605563
30
0
41
1
10
33.4419808194406
20
4.75135124036785
30
0
41
1
10
32.0819938941809
20
5.18701802875972
30
0
41
1
10
31.4019617296
20
5.40175532821539
30
0
41
1
10
30.3819538399474
20
5.71942250900082
30
0
41
1
10
30.0419582918125
20
5.82457184505103
30
0
41
1
10
29.5319898616904
20
5.98120896207016
30
0
41
1
10
29.3619957673335
20
6.03326086649284
30
0
41
1
10
29.0220876660688
20
6.13684061646754
30
0
41
1
10
28.852149567407
20
6.18833472145997
30
0
41
1
10
28.0025066845241
20
6.44425761807111
30
0
41
1
10
27.3229751765795
20
6.64412608719988
30
0
41
1
10
25.9643523753584
20
7.03449302350134
30
0
41
1
10
25.285262498472
20
7.22499486687838
30
0
41
1
10
23.9276236636299
20
7.59689139776558
30
0
41
1
10
23.2490742300345
20
7.77828602303361
30
0
41
1
10
22.4013188356394
20
7.99945852398378
30
0
41
1
10
22.2317896277599
20
8.04341464186547
30
0
41
1
10
21.8927761594183
20
8.13076890595809
30
0
41
1
10
21.7232926628623
20
8.1741681062681
30
0
41
1
10
21.2147622270287
20
8.30322711785331
30
0
41
1
10
20.8756546713187
20
8.38778982615671
30
0
41
1
10
19.8580859711238
20
8.6371163886464
30
0
41
1
10
19.1793820619604
20
8.79752983957738
30
0
41
1
10
17.8214006081533
20
9.10697739924066
30
0
41
1
10
17.1421197755936
20
9.2560063274563
30
0
41
1
10
15.7830884712987
20
9.54280589651961
30
0
41
1
10
15.1033390125467
20
9.68057990038793
30
0
41
1
10
14.4234364234702
20
9.81273915596756
30
0
0
SPLINE
5
D4
100
AcDbEntity
8
1
62
256
6
ByLayer
370
18
48
1
60
0
100
AcDbSpline
70
4
71
3
72
103
73
99
40
0
40
0
40
0
40
0
40
0.0625000000000037
40
0.0625000000000037
40
0.0937500000000048
40
0.0937500000000048
40
0.125000000000006
40
0.125000000000006
40
0.156250000000007
40
0.156250000000007
40
0.171875000000007
40
0.171875000000007
40
0.187500000000008
40
0.187500000000008
40
0.218750000000008
40
0.218750000000008
40
0.250000000000007
40
0.250000000000007
40
0.281250000000007
40
0.281250000000007
40
0.289062500000006
40
0.289062500000006
40
0.296875000000006
40
0.312500000000005
40
0.312500000000005
40
0.343750000000005
40
0.343750000000005
40
0.359375000000005
40
0.359375000000005
40
0.367187500000005
40
0.371093750000005
40
0.371093750000005
40
0.375000000000005
40
0.375000000000005
40
0.406250000000006
40
0.406250000000006
40
0.437500000000008
40
0.437500000000008
40
0.445312500000008
40
0.445312500000008
40
0.453125000000008
40
0.453125000000008
40
0.468750000000009
40
0.468750000000009
40
0.50000000000001
40
0.50000000000001
40
0.51562500000001
40
0.51562500000001
40
0.519531250000011
40
0.519531250000011
40
0.523437500000011
40
0.531250000000011
40
0.531250000000011
40
0.562500000000012
40
0.562500000000012
40
0.578125000000012
40
0.578125000000012
40
0.582031250000012
40
0.582031250000012
40
0.585937500000013
40
0.585937500000013
40
0.593750000000012
40
0.593750000000012
40
0.625000000000013
40
0.625000000000013
40
0.640625000000013
40
0.640625000000013
40
0.648437500000012
40
0.648437500000012
40
0.656250000000012
40
0.656250000000012
40
0.68750000000001
40
0.68750000000001
40
0.718750000000009
40
0.718750000000009
40
0.750000000000007
40
0.750000000000007
40
0.757812500000007
40
0.757812500000007
40
0.765625000000007
40
0.765625000000007
40
0.781250000000007
40
0.781250000000007
40
0.812500000000006
40
0.812500000000006
40
0.843750000000006
40
0.843750000000006
40
0.875000000000006
40
0.875000000000006
40
0.906250000000005
40
0.906250000000005
40
0.937500000000005
40
0.937500000000005
40
0.953125000000004
40
0.953125000000004
40
0.968750000000003
40
0.968750000000003
40
1
40
1
40
1
40
1
41
1
10
10
20
-8.17716626374505
30
0
41
1
10
9.5661321666079
20
-8.41727407915761
30
0
41
1
10
9.14190357541776
20
-8.668823224313
30
0
41
1
10
8.51963452393647
20
-9.06212278842241
30
0
41
1
10
8.31456139982961
20
-9.19588873573846
30
0
41
1
10
7.90910989445234
20
-9.4685991565668
30
0
41
1
10
7.70873110834253
20
-9.60754344808848
30
0
41
1
10
7.31271302009637
20
-9.89049036317661
30
0
41
1
10
7.11707303773872
20
-10.0344926522776
30
0
41
1
10
6.8272507585252
20
-10.2542305275074
30
0
41
1
10
6.73125019162507
20
-10.3280992440702
30
0
41
1
10
6.54048506164779
20
-10.4770772947763
30
0
41
1
10
6.44626274049068
20
-10.5517633841878
30
0
41
1
10
6.16715132707532
20
-10.776269688371
30
0
41
1
10
5.98578668996853
20
-10.926558335831
30
0
41
1
10
5.63271806254173
20
-11.2278191418672
30
0
41
1
10
5.4610114017861
20
-11.3787924153015
30
0
41
1
10
5.12773454534175
20
-11.6808217340861
30
0
41
1
10
4.9661594505327
20
-11.8318796069633
30
0
41
1
10
4.77103947235136
20
-12.02032030033
30
0
41
1
10
4.73233234546998
20
-12.0580160196436
30
0
41
1
10
4.65601477420935
20
-12.1329683682628
30
0
41
1
10
4.54304473320551
20
-12.244871084157
30
0
41
1
10
4.43462144191241
20
-12.355127393246
30
0
41
1
10
4.22395931293673
20
-12.5732416789883
30
0
41
1
10
4.09173983933877
20
-12.7154646385988
30
0
41
1
10
3.90660342626438
20
-12.9230430495259
30
0
41
1
10
3.84709556601749
20
-12.9912740234968
30
0
41
1
10
3.76130930723667
20
-13.0920260577268
30
0
41
1
10
3.71928580366918
20
-13.1420031000546
30
0
41
1
10
3.67860604944803
20
-13.1913494106638
30
0
41
1
10
3.65178979564382
20
-13.2241028942954
30
0
41
1
10
3.63852176423293
20
-13.2404221675406
30
0
41
1
10
3.52084550602024
20
-13.386198296555
30
0
41
1
10
3.42833901217662
20
-13.5082314182233
30
0
41
1
10
3.26834602531017
20
-13.735917617994
30
0
41
1
10
3.20084508422616
20
-13.8415809548503
30
0
41
1
10
3.13343642356554
20
-13.9621821739343
30
0
41
1
10
3.1208070017683
20
-13.9857262891338
30
0
41
1
10
3.09730380265012
20
-14.0316209702715
30
0
41
1
10
3.08650232571205
20
-14.053831535742
30
0
41
1
10
3.05697326473083
20
-14.1181651591763
30
0
41
1
10
3.04109581849892
20
-14.158035247291
30
0
41
1
10
3.00479151918617
20
-14.2686179223176
30
0
41
1
10
2.9956447995375
20
-14.3303314601995
30
0
41
1
10
3.00497749436897
20
-14.4045010607498
30
0
41
1
10
3.01194231232847
20
-14.4261504867571
30
0
41
1
10
3.02560875336653
20
-14.4492732485652
30
0
41
1
10
3.02859443517011
20
-14.4537055852829
30
0
41
1
10
3.03504167946929
20
-14.4621417425783
30
0
41
1
10
3.04542558148796
20
-14.4741572106294
30
0
41
1
10
3.05792327212538
20
-14.4842821994381
30
0
41
1
10
3.10418365678987
20
-14.5139330798894
30
0
41
1
10
3.15586114026266
20
-14.5245785425659
30
0
41
1
10
3.25426409729414
20
-14.5223410909293
30
0
41
1
10
3.29055726251849
20
-14.5185526404419
30
0
41
1
10
3.34024518284815
20
-14.5101063572803
30
0
41
1
10
3.3503990057969
20
-14.5082314437284
30
0
41
1
10
3.3711386811585
20
-14.504112148077
30
0
41
1
10
3.38172891162293
20
-14.5018665208276
30
0
41
1
10
3.41402725782533
20
-14.4946064998707
30
0
41
1
10
3.43629865521115
20
-14.4890625625226
30
0
41
1
10
3.55123715475739
20
-14.4579631690239
30
0
41
1
10
3.65460724877582
20
-14.4223107602109
30
0
41
1
10
3.82516213249818
20
-14.3547882851266
30
0
41
1
10
3.88460536620295
20
-14.3299317194609
30
0
41
1
10
3.97751365015341
20
-14.2893261513072
30
0
41
1
10
4.00910731901357
20
-14.275237155844
30
0
41
1
10
4.07352270780399
20
-14.2459815515003
30
0
41
1
10
4.10636281160564
20
-14.2308055470609
30
0
41
1
10
4.27260928295905
20
-14.1527677482527
30
0
41
1
10
4.4128539471921
20
-14.0831442165935
30
0
41
1
10
4.70593112959878
20
-13.93204677875
30
0
41
1
10
4.85877357130693
20
-13.8505615503145
30
0
41
1
10
5.17563908995598
20
-13.6775581389674
30
0
41
1
10
5.33966763227298
20
-13.5860339217084
30
0
41
1
10
5.55096554274846
20
-13.4662235951689
30
0
41
1
10
5.59353865560561
20
-13.441990419155
30
0
41
1
10
5.67929509431025
20
-13.3930004751666
30
0
41
1
10
5.72250211815575
20
-13.3682299430648
30
0
41
1
10
5.85255810280159
20
-13.2934222049901
30
0
41
1
10
5.93997781972286
20
-13.2428122023913
30
0
41
1
10
6.20421286345012
20
-13.0889752181867
30
0
41
1
10
6.38300031987848
20
-12.983749894919
30
0
41
1
10
6.74503351781888
20
-12.7688229246983
30
0
41
1
10
6.92828003618055
20
-12.6591185628551
30
0
41
1
10
7.29854328885335
20
-12.4358393017415
30
0
41
1
10
7.48555979802458
20
-12.3222625290769
30
0
41
1
10
7.86277902435893
20
-12.0916663128684
30
0
41
1
10
8.05298084560903
20
-11.9746453299865
30
0
41
1
10
8.43610881846982
20
-11.7374601109529
30
0
41
1
10
8.62903372274124
20
-11.617294401717
30
0
41
1
10
8.92023459544507
20
-11.434849854908
30
0
41
1
10
9.01760514634469
20
-11.3736684877344
30
0
41
1
10
9.21293316318244
20
-11.2505956444952
30
0
41
1
10
9.31090118725555
20
-11.1886972830922
30
0
41
1
10
9.60526039002238
20
-11.0022331390924
30
0
41
1
10
9.80223685065087
20
-10.8768109780115
30
0
41
1
10
10
20
-10.7503800565565
30
0
0
SPLINE
5
D5
100
AcDbEntity
8
1
62
256
6
ByLayer
370
18
48
1
60
0
100
AcDbSpline
70
4
71
3
72
40
73
36
40
0
40
0
40
0
40
0
40
0.007294308152741
40
0.007294308152741
40
0.0288748666711591
40
0.0288748666711591
40
0.0504554251895772
40
0.0504554251895772
40
0.13677765926325
40
0.13677765926325
40
0.223099893336923
40
0.223099893336923
40
0.309422127410596
40
0.309422127410596
40
0.331002685929015
40
0.331002685929015
40
0.352583244447434
40
0.352583244447434
40
0.395744361484272
40
0.395744361484272
40
0.482066595557948
40
0.482066595557948
40
0.568388829631624
40
0.568388829631624
40
0.6547110637053
40
0.6547110637053
40
0.741033297778976
40
0.741033297778976
40
0.827355531852652
40
0.827355531852652
40
0.870516648889488
40
0.870516648889488
40
0.913677765926324
40
0.913677765926324
40
1
40
1
40
1
40
1
41
1
10
3.9153551808424
20
14.3163958288993
30
0
41
1
10
3.92567994006001
20
14.3119479981887
30
0
41
1
10
3.93607644160559
20
14.3074362844863
30
0
41
1
10
3.97751365015338
20
14.2893261513072
30
0
41
1
10
4.00910731901357
20
14.275237155844
30
0
41
1
10
4.07352270780396
20
14.2459815515003
30
0
41
1
10
4.10636281160564
20
14.2308055470609
30
0
41
1
10
4.27260928295905
20
14.1527677482527
30
0
41
1
10
4.41285394719208
20
14.0831442165935
30
0
41
1
10
4.70593112959878
20
13.93204677875
30
0
41
1
10
4.8587735713069
20
13.8505615503146
30
0
41
1
10
5.17563908995598
20
13.6775581389675
30
0
41
1
10
5.33966763227298
20
13.5860339217084
30
0
41
1
10
5.55096554274846
20
13.4662235951689
30
0
41
1
10
5.59353865560561
20
13.441990419155
30
0
41
1
10
5.67929509431028
20
13.3930004751666
30
0
41
1
10
5.72250211815569
20
13.3682299430648
30
0
41
1
10
5.85255810280157
20
13.2934222049901
30
0
41
1
10
5.93997781972283
20
13.2428122023913
30
0
41
1
10
6.20421286345012
20
13.0889752181867
30
0
41
1
10
6.38300031987851
20
12.9837498949191
30
0
41
1
10
6.74503351781888
20
12.7688229246983
30
0
41
1
10
6.92828003618055
20
12.6591185628551
30
0
41
1
10
7.29854328885338
20
12.4358393017415
30
0
41
1
10
7.48555979802458
20
12.3222625290769
30
0
41
1
10
7.86277902435893
20
12.0916663128684
30
0
41
1
10
8.05298084560903
20
11.9746453299865
30
0
41
1
10
8.43610881846982
20
11.7374601109529
30
0
41
1
10
8.62903372274118
20
11.617294401717
30
0
41
1
10
8.92023459544504
20
11.434849854908
30
0
41
1
10
9.01760514634472
20
11.3736684877344
30
0
41
1
10
9.21293316318244
20
11.2505956444952
30
0
41
1
10
9.31090118725555
20
11.1886972830921
30
0
41
1
10
9.60526039002241
20
11.0022331390923
30
0
41
1
10
9.80223685065087
20
10.8768109780115
30
0
41
1
10
9.99999999999997
20
10.7503800565564
30
0
0
SPLINE
5
D6
100
AcDbEntity
8
SK1
62
256
6
ByLayer
370
18
48
1
60
0
100
AcDbSpline
70
4
71
3
72
37
73
33
40
0
40
0
40
0
40
0
40
0.124999999999999
40
0.124999999999999
40
0.249999999999997
40
0.249999999999997
40
0.374999999999996
40
0.374999999999996
40
0.437499999999996
40
0.437499999999996
40
0.499999999999995
40
0.499999999999995
40
0.624999999999995
40
0.624999999999995
40
0.656249999999996
40
0.656249999999996
40
0.687499999999996
40
0.687499999999996
40
0.749999999999997
40
0.749999999999997
40
0.812499999999999
40
0.812499999999999
40
0.843749999999999
40
0.843749999999999
40
0.874999999999999
40
0.874999999999999
40
0.9375
40
0.9375
40
0.953125
40
0.953125
40
0.96875
40
1
40
1
40
1
40
1
41
1
10
-56.6013095599541
20
-3.67404242557649
30
0
41
1
10
-56.5818983671532
20
-3.76227101295461
30
0
41
1
10
-56.5608730792548
20
-3.84980231602845
30
0
41
1
10
-56.5149011456991
20
-4.02327304907473
30
0
41
1
10
-56.4899592553202
20
-4.1092138747162
30
0
41
1
10
-56.4351919062966
20
-4.27922783366643
30
0
41
1
10
-56.4053764863432
20
-4.36330392303796
30
0
41
1
10
-56.3559085219568
20
-4.48770487574166
30
0
41
1
10
-56.3386238532612
20
-4.52888499906533
30
0
41
1
10
-56.3022004610974
20
-4.6105950760475
30
0
41
1
10
-56.2830277903437
20
-4.65119311461675
30
0
41
1
10
-56.2224911706718
20
-4.77130399167868
30
0
41
1
10
-56.1782467144578
20
-4.84907413383172
30
0
41
1
10
-56.115968443464
20
-4.94231131697211
30
0
41
1
10
-56.10315836213
20
-4.96075692759766
30
0
41
1
10
-56.0767470461803
20
-4.99720157474036
30
0
41
1
10
-56.0631669720757
20
-5.01516889117784
30
0
41
1
10
-56.0213776959376
20
-5.06798704911631
30
0
41
1
10
-55.992061754375
20
-5.10185542724588
30
0
41
1
10
-55.9298321318183
20
-5.16631273888052
30
0
41
1
10
-55.8969272538349
20
-5.19690945406094
30
0
41
1
10
-55.8440712942131
20
-5.23964848292457
30
0
41
1
10
-55.8258658181591
20
-5.25336554431573
30
0
41
1
10
-55.7880772055068
20
-5.27956269503571
30
0
41
1
10
-55.7687283546429
20
-5.29187752331967
30
0
41
1
10
-55.7092375195426
20
-5.32619065397267
30
0
41
1
10
-55.6676447686972
20
-5.34560920419477
30
0
41
1
10
-55.6125612417126
20
-5.36437634382568
30
0
41
1
10
-55.6013755519815
20
-5.36785346658095
30
0
41
1
10
-55.5789098857052
20
-5.37414928699397
30
0
41
1
10
-55.5449888078968
20
-5.38263478003245
30
0
41
1
10
-55.5103812675636
20
-5.38816693911767
30
0
41
1
10
-55.4869828320874
20
-5.39045045482675
30
0
0
SPLINE
5
D7
100
AcDbEntity
8
SK1
62
256
6
ByLayer
370
18
48
1
60
0
100
AcDbSpline
70
4
71
3
72
38
73
34
40
0
40
0
40
0
40
0
40
0.0624999999999988
40
0.0624999999999988
40
0.0937499999999982
40
0.0937499999999982
40
0.109374999999998
40
0.109374999999998
40
0.124999999999999
40
0.124999999999999
40
0.187499999999997
40
0.187499999999997
40
0.218749999999997
40
0.218749999999997
40
0.249999999999996
40
0.249999999999996
40
0.312499999999996
40
0.312499999999996
40
0.374999999999996
40
0.374999999999996
40
0.437499999999996
40
0.437499999999996
40
0.468749999999996
40
0.468749999999996
40
0.499999999999996
40
0.499999999999996
40
0.624999999999997
40
0.624999999999997
40
0.749999999999998
40
0.749999999999998
40
0.874999999999999
40
0.874999999999999
40
1
40
1
40
1
40
1
41
1
10
-55.4869828320874
20
5.39045045482675
30
0
41
1
10
-55.5340112854939
20
5.38586082265942
30
0
41
1
10
-55.5792475407432
20
5.37567921640115
30
0
41
1
10
-55.6448597758275
20
5.35339526064908
30
0
41
1
10
-55.6663543340588
20
5.34479075805541
30
0
41
1
10
-55.6980700363939
20
5.33023526841174
30
0
41
1
10
-55.7085426555182
20
5.32511155488996
30
0
41
1
10
-55.7290868425515
20
5.31446061507978
30
0
41
1
10
-55.7391894091154
20
5.30891956332113
30
0
41
1
10
-55.7889172059676
20
5.28021446580462
30
0
41
1
10
-55.8262117488448
20
5.25408170222258
30
0
41
1
10
-55.87927436858
20
5.21118741343659
30
0
41
1
10
-55.8964771995976
20
5.19626735233749
30
0
41
1
10
-55.9300114215657
20
5.16530406746776
30
0
41
1
10
-55.9462917892921
20
5.14930296213541
30
0
41
1
10
-55.9934356942821
20
5.10035000843709
30
0
41
1
10
-56.0228020768564
20
5.06628595710666
30
0
41
1
10
-56.078326436026
20
4.99590453061043
30
0
41
1
10
-56.1044778219573
20
4.95958275029739
30
0
41
1
10
-56.1541566098393
20
4.88506830814691
30
0
41
1
10
-56.1776808746374
20
4.84687355258669
30
0
41
1
10
-56.2113079014024
20
4.78837896752557
30
0
41
1
10
-56.2222393682362
20
4.76867706562567
30
0
41
1
10
-56.2434756231488
20
4.72911675343036
30
0
41
1
10
-56.2537968848612
20
4.7092302403565
30
0
41
1
10
-56.3040524668077
20
4.60930752204828
30
0
41
1
10
-56.339989360063
20
4.52781806830399
30
0
41
1
10
-56.4056776145828
20
4.36246555081721
30
0
41
1
10
-56.4354058590262
20
4.27859519764016
30
0
41
1
10
-56.4900491389977
20
4.10890313734902
30
0
41
1
10
-56.5149546873468
20
4.02307844746088
30
0
41
1
10
-56.56088189532
20
3.84976160662609
30
0
41
1
10
-56.5818990222464
20
3.76226803539686
30
0
41
1
10
-56.6013095599541
20
3.67404242557649
30
0
0
SPLINE
5
D8
100
AcDbEntity
8
SK1
62
256
6
ByLayer
370
18
48
1
60
0
100
AcDbSpline
70
4
71
3
72
33
73
29
40
0
40
0
40
0
40
0
40
0.125000000000006
40
0.125000000000006
40
0.250000000000012
40
0.250000000000012
40
0.375000000000017
40
0.375000000000017
40
0.40625000000002
40
0.40625000000002
40
0.437500000000023
40
0.437500000000023
40
0.500000000000019
40
0.500000000000019
40
0.625000000000009
40
0.625000000000009
40
0.656250000000005
40
0.656250000000005
40
0.687500000000001
40
0.687500000000001
40
0.749999999999993
40
0.812499999999985
40
0.812499999999985
40
0.843749999999988
40
0.843749999999988
40
0.87499999999999
40
0.87499999999999
40
1
40
1
40
1
40
1
41
1
10
-14.051872681288
20
7.58734230610622
30
0
41
1
10
-14.0806477010082
20
7.63716049470688
30
0
41
1
10
-14.1111960666033
20
7.68574713585582
30
0
41
1
10
-14.1763795738798
20
7.78016829172287
30
0
41
1
10
-14.2110110664831
20
7.82600493913273
30
0
41
1
10
-14.2851110385999
20
7.91451556477941
30
0
41
1
10
-14.3245721279275
20
7.95719387593883
30
0
41
1
10
-14.3776213268518
20
8.00817431396229
30
0
41
1
10
-14.3884185818754
20
8.01825128676794
30
0
41
1
10
-14.4104115542246
20
8.03815365023897
30
0
41
1
10
-14.4216108037395
20
8.04798083475526
30
0
41
1
10
-14.455622663142
20
8.07687937861485
30
0
41
1
10
-14.4789160665747
20
8.09543103467254
30
0
41
1
10
-14.5508106006942
20
8.14878338695524
30
0
41
1
10
-14.6014062936362
20
8.18130323174049
30
0
41
1
10
-14.6687381239779
20
8.21735588111801
30
0
41
1
10
-14.6824104044294
20
8.22433484183665
30
0
41
1
10
-14.710192970406
20
8.23780190427706
30
0
41
1
10
-14.7242927464647
20
8.24428275713819
30
0
41
1
10
-14.7668701147152
20
8.26277278740699
30
0
41
1
10
-14.8246359059293
20
8.28501525135295
30
0
41
1
10
-14.8845078995177
20
8.30218349007504
30
0
41
1
10
-14.9302595196826
20
8.31302504752674
30
0
41
1
10
-14.9456514993249
20
8.31629937780269
30
0
41
1
10
-14.976730334019
20
8.3221411784192
30
0
41
1
10
-14.9924519952567
20
8.32471328587587
30
0
41
1
10
-15.0714171524834
20
8.33566995587665
30
0
41
1
10
-15.1349687406039
20
8.33829643503807
30
0
41
1
10
-15.198909252112
20
8.33463752287949
30
0
0
SPLINE
5
D9
100
AcDbEntity
8
SK1
62
256
6
ByLayer
370
18
48
1
60
0
100
AcDbSpline
70
4
71
3
72
28
73
24
40
0
40
0
40
0
40
0
40
0.124999999999995
40
0.124999999999995
40
0.187499999999992
40
0.187499999999992
40
0.24999999999999
40
0.24999999999999
40
0.374999999999983
40
0.374999999999983
40
0.437499999999979
40
0.437499999999979
40
0.499999999999976
40
0.499999999999976
40
0.624999999999981
40
0.624999999999981
40
0.687499999999984
40
0.687499999999984
40
0.749999999999987
40
0.749999999999987
40
0.874999999999994
40
0.874999999999994
40
1
40
1
40
1
40
1
41
1
10
-15.198909252112
20
-8.33463752287949
30
0
41
1
10
-15.1350143484387
20
-8.33829382518937
30
0
41
1
10
-15.0719017967204
20
-8.33565332559238
30
0
41
1
10
-14.978337274282
20
-8.32279548271791
30
0
41
1
10
-14.9473338896935
20
-8.31702027865589
30
0
41
1
10
-14.8856931933269
20
-8.30251274872501
30
0
41
1
10
-14.8554833479755
20
-8.29387762923409
30
0
41
1
10
-14.7669559756536
20
-8.26429996307647
30
0
41
1
10
-14.7105270717761
20
-8.23965842490713
30
0
41
1
10
-14.6292411643099
20
-8.19624288886422
30
0
41
1
10
-14.6029581616285
20
-8.18081975592636
30
0
41
1
10
-14.5521237698499
20
-8.14844888077508
30
0
41
1
10
-14.5275204196119
20
-8.13147265143903
30
0
41
1
10
-14.4558957807576
20
-8.07840113768455
30
0
41
1
10
-14.4110480069579
20
-8.04017416621042
30
0
41
1
10
-14.347408645875
20
-7.9791980354984
30
0
41
1
10
-14.3267704985616
20
-7.9582267315275
30
0
41
1
10
-14.2867812208927
20
-7.91531082173958
30
0
41
1
10
-14.267487937703
20
-7.89343345035931
30
0
41
1
10
-14.2115013365259
20
-7.82665213506647
30
0
41
1
10
-14.1766922853205
20
-7.78060380498701
30
0
41
1
10
-14.1112733091054
20
-7.68587638410847
30
0
41
1
10
-14.080667629502
20
-7.63719499690606
30
0
41
1
10
-14.051872681288
20
-7.58734230610622
30
0
0
SPLINE
5
DA
100
AcDbEntity
8
1
62
256
6
ByLayer
370
13
48
1
60
0
100
AcDbSpline
70
4
71
3
72
78
73
74
40
0
40
0
40
0
40
0
40
0.0156249999999989
40
0.0156249999999989
40
0.0234374999999986
40
0.0234374999999986
40
0.0312499999999983
40
0.0312499999999983
40
0.062499999999998
40
0.062499999999998
40
0.0937499999999978
40
0.0937499999999978
40
0.124999999999998
40
0.124999999999998
40
0.156249999999997
40
0.156249999999997
40
0.187499999999997
40
0.187499999999997
40
0.218749999999997
40
0.218749999999997
40
0.249999999999996
40
0.249999999999996
40
0.281249999999996
40
0.281249999999996
40
0.312499999999996
40
0.312499999999996
40
0.343749999999995
40
0.343749999999995
40
0.374999999999995
40
0.374999999999995
40
0.406249999999995
40
0.406249999999995
40
0.437499999999995
40
0.437499999999995
40
0.468749999999994
40
0.468749999999994
40
0.499999999999994
40
0.499999999999994
40
0.507812499999994
40
0.507812499999994
40
0.515624999999994
40
0.515624999999994
40
0.531249999999994
40
0.531249999999994
40
0.562499999999995
40
0.562499999999995
40
0.593749999999995
40
0.593749999999995
40
0.624999999999996
40
0.624999999999996
40
0.656249999999996
40
0.656249999999996
40
0.687499999999996
40
0.687499999999996
40
0.718749999999997
40
0.718749999999997
40
0.749999999999997
40
0.749999999999997
40
0.781249999999998
40
0.781249999999998
40
0.812499999999998
40
0.812499999999998
40
0.843749999999998
40
0.843749999999998
40
0.874999999999999
40
0.874999999999999
40
0.906249999999999
40
0.906249999999999
40
0.937499999999999
40
0.937499999999999
40
0.96875
40
0.96875
40
1
40
1
40
1
40
1
41
1
10
144.8
20
-11.9548167139511
30
0
41
1
10
144.829596801871
20
-11.971147418395
30
0
41
1
10
144.859193603741
20
-11.9829180306429
30
0
41
1
10
144.903588806547
20
-11.994053823441
30
0
41
1
10
144.918387207483
20
-11.9966793580804
30
0
41
1
10
144.947984009353
20
-11.9998141098895
30
0
41
1
10
144.962782410289
20
-12.0003261147594
30
0
41
1
10
145.036774414965
20
-11.9977084968137
30
0
41
1
10
145.095968018706
20
-11.9788930257302
30
0
41
1
10
145.214355226189
20
-11.9043406156339
30
0
41
1
10
145.27354882993
20
-11.8485945100882
30
0
41
1
10
145.391936037413
20
-11.69737054402
30
0
41
1
10
145.451129641154
20
-11.6018839029425
30
0
41
1
10
145.569516848636
20
-11.3693273589681
30
0
41
1
10
145.628710452378
20
-11.2322501968102
30
0
41
1
10
145.74709765986
20
-10.9158650460682
30
0
41
1
10
145.806291263602
20
-10.7365524836554
30
0
41
1
10
145.924678471084
20
-10.3364348713682
30
0
41
1
10
145.983872074825
20
-10.1156288908412
30
0
41
1
10
146.102259282308
20
-9.63473466403053
30
0
41
1
10
146.161452886049
20
-9.37464964241076
30
0
41
1
10
146.279840093532
20
-8.81884648754067
30
0
41
1
10
146.339033697273
20
-8.52313563235859
30
0
41
1
10
146.457420904755
20
-7.90101031454469
30
0
41
1
10
146.516614508497
20
-7.57460643443923
30
0
41
1
10
146.635001715979
20
-6.89703349504325
30
0
41
1
10
146.69419531972
20
-6.545877053662
30
0
41
1
10
146.812582527203
20
-5.82539298860479
30
0
41
1
10
146.871776130944
20
-5.45607848459466
30
0
41
1
10
146.990163338427
20
-4.70613570252408
30
0
41
1
10
147.049356942168
20
-4.32551955531255
30
0
41
1
10
147.167744149651
20
-3.55970991269663
30
0
41
1
10
147.226937753392
20
-3.17452638098044
30
0
41
1
10
147.345324960874
20
-2.40586178843969
30
0
41
1
10
147.404518564616
20
-2.02238782060067
30
0
41
1
10
147.522905772098
20
-1.26270745407774
30
0
41
1
10
147.582099375839
20
-0.886505081064854
30
0
41
1
10
147.656091380516
20
-0.423721396905222
30
0
41
1
10
147.670889781451
20
-0.331535842517582
30
0
41
1
10
147.700486583322
20
-0.147970909785727
30
0
41
1
10
147.715284984257
20
-0.0567668247361155
30
0
41
1
10
147.759680187063
20
0.216720218956453
30
0
41
1
10
147.789276988934
20
0.400749725545182
30
0
41
1
10
147.878067394545
20
0.9571981682559
30
0
41
1
10
147.937260998287
20
1.33400583119564
30
0
41
1
10
148.055648205769
20
2.09457172164235
30
0
41
1
10
148.114841809511
20
2.47832573348697
30
0
41
1
10
148.233229016993
20
3.24717449111165
30
0
41
1
10
148.292422620734
20
3.63226195239531
30
0
41
1
10
148.410809828217
20
4.39746622349892
30
0
41
1
10
148.470003431958
20
4.77757290714078
30
0
41
1
10
148.588390639441
20
5.52606521713716
30
0
41
1
10
148.647584243182
20
5.89443861133518
30
0
41
1
10
148.765971450664
20
6.612613671215
30
0
41
1
10
148.825165054406
20
6.96240220288047
30
0
41
1
10
148.943552261888
20
7.63684219519027
30
0
41
1
10
149.002745865629
20
7.96148112200109
30
0
41
1
10
149.121133073112
20
8.57973294360173
30
0
41
1
10
149.180326676853
20
8.87333543071477
30
0
41
1
10
149.298713884336
20
9.42465174485343
30
0
41
1
10
149.357907488077
20
9.68235853321656
30
0
41
1
10
149.47629469556
20
10.1583132890888
30
0
41
1
10
149.535488299301
20
10.3765582972955
30
0
41
1
10
149.653875506783
20
10.7714639463174
30
0
41
1
10
149.713069110525
20
10.9481257678453
30
0
41
1
10
149.831456318007
20
11.2592103999454
30
0
41
1
10
149.890649921748
20
11.3936379849805
30
0
41
1
10
150.009037129231
20
11.6209784327652
30
0
41
1
10
150.068230732972
20
11.7138986856229
30
0
41
1
10
150.186617940455
20
11.860141104491
30
0
41
1
10
150.245811544196
20
11.9134721074028
30
0
41
1
10
150.364198751678
20
11.9833969767238
30
0
41
1
10
150.42339235542
20
12
30
0
41
1
10
150.482585959161
20
12
30
0
0
SPLINE
5
DB
100
AcDbEntity
8
1
62
256
6
ByLayer
370
13
48
1
60
0
100
AcDbSpline
70
4
71
3
72
78
73
74
40
0
40
0
40
0
40
0
40
0.0312500000000002
40
0.0312500000000002
40
0.0625000000000005
40
0.0625000000000005
40
0.0937500000000007
40
0.0937500000000007
40
0.125000000000001
40
0.125000000000001
40
0.156250000000001
40
0.156250000000001
40
0.187500000000002
40
0.187500000000002
40
0.218750000000002
40
0.218750000000002
40
0.250000000000002
40
0.250000000000002
40
0.281250000000003
40
0.281250000000003
40
0.312500000000003
40
0.312500000000003
40
0.343750000000003
40
0.343750000000003
40
0.375000000000003
40
0.375000000000003
40
0.406250000000004
40
0.406250000000004
40
0.437500000000004
40
0.437500000000004
40
0.445312500000004
40
0.445312500000004
40
0.453125000000004
40
0.453125000000004
40
0.468750000000004
40
0.468750000000004
40
0.500000000000004
40
0.500000000000004
40
0.531250000000004
40
0.531250000000004
40
0.562500000000004
40
0.562500000000004
40
0.593750000000004
40
0.593750000000004
40
0.625000000000004
40
0.625000000000004
40
0.656250000000003
40
0.656250000000003
40
0.687500000000003
40
0.687500000000003
40
0.718750000000003
40
0.718750000000003
40
0.750000000000003
40
0.750000000000003
40
0.781250000000003
40
0.781250000000003
40
0.812500000000003
40
0.812500000000003
40
0.843750000000003
40
0.843750000000003
40
0.875000000000003
40
0.875000000000003
40
0.890625000000003
40
0.890625000000003
40
0.898437500000003
40
0.898437500000003
40
0.906250000000002
40
0.906250000000002
40
0.937500000000002
40
0.937500000000002
40
0.968750000000001
40
0.968750000000001
40
1
40
1
40
1
40
1
41
1
10
149.663429443675
20
12
30
0
41
1
10
149.727689107687
20
12
30
0
41
1
10
149.791948771698
20
11.980428469653
30
0
41
1
10
149.920468099722
20
11.8976792913226
30
0
41
1
10
149.984727763734
20
11.8344878310847
30
0
41
1
10
150.113247091757
20
11.6609706073513
30
0
41
1
10
150.177506755769
20
11.5506317824764
30
0
41
1
10
150.306026083792
20
11.2806624139754
30
0
41
1
10
150.370285747804
20
11.1210215924311
30
0
41
1
10
150.498805075828
20
10.7520198164395
30
0
41
1
10
150.56306473984
20
10.5426533892749
30
0
41
1
10
150.691584067863
20
10.0757448865386
30
0
41
1
10
150.755843731875
20
9.81820365416513
30
0
41
1
10
150.884363059899
20
9.25853750024848
30
0
41
1
10
150.94862272391
20
8.9564202681247
30
0
41
1
10
151.077142051934
20
8.3131144863911
30
0
41
1
10
151.141401715946
20
7.97193976511002
30
0
41
1
10
151.269921043969
20
7.25762503389583
30
0
41
1
10
151.334180707981
20
6.88450312854519
30
0
41
1
10
151.462700036005
20
6.11450649375212
30
0
41
1
10
151.526959700016
20
5.71765154784265
30
0
41
1
10
151.65547902804
20
4.90892885856857
30
0
41
1
10
151.719738692052
20
4.4970798636773
30
0
41
1
10
151.848258020075
20
3.66704829878998
30
0
41
1
10
151.912517684087
20
3.24888121038157
30
0
41
1
10
152.041037012111
20
2.41431041013428
30
0
41
1
10
152.105296676122
20
1.99791755474152
30
0
41
1
10
152.233816004146
20
1.17401045077583
30
0
41
1
10
152.298075668158
20
0.766502049979067
30
0
41
1
10
152.378400248172
20
0.266342129318474
30
0
41
1
10
152.394465164175
20
0.166768233848899
30
0
41
1
10
152.426594996181
20
-0.0313845542636386
30
0
41
1
10
152.442659912184
20
-0.130210602866583
30
0
41
1
10
152.490854660193
20
-0.429028636687178
30
0
41
1
10
152.522984492199
20
-0.630148800121532
30
0
41
1
10
152.619373988217
20
-1.23822248203481
30
0
41
1
10
152.683633652228
20
-1.64992803125909
30
0
41
1
10
152.812152980252
20
-2.47962253551285
30
0
41
1
10
152.876412644264
20
-2.89760372200752
30
0
41
1
10
153.004931972287
20
-3.73232715209451
30
0
41
1
10
153.069191636299
20
-4.14905665624252
30
0
41
1
10
153.197710964323
20
-4.97290853660652
30
0
41
1
10
153.261970628334
20
-5.38001395607532
30
0
41
1
10
153.390489956358
20
-6.17585300757645
30
0
41
1
10
153.45474962037
20
-6.56456718923479
30
0
41
1
10
153.583268948393
20
-7.31501636932401
30
0
41
1
10
153.647528612405
20
-7.67673190260464
30
0
41
1
10
153.776047940429
20
-8.3653275980553
30
0
41
1
10
153.84030760444
20
-8.692191026204
30
0
41
1
10
153.968826932464
20
-9.30453118678059
30
0
41
1
10
154.033086596476
20
-9.58999629691272
30
0
41
1
10
154.161605924499
20
-10.1147273273927
30
0
41
1
10
154.225865588511
20
-10.3539881869765
30
0
41
1
10
154.354384916535
20
-10.7834918527722
30
0
41
1
10
154.418644580547
20
-10.9737363789467
30
0
41
1
10
154.54716390857
20
-11.3044319020366
30
0
41
1
10
154.611423572582
20
-11.4448904449968
30
0
41
1
10
154.739942900605
20
-11.6771382182852
30
0
41
1
10
154.804202564617
20
-11.7689390514396
30
0
41
1
10
154.932721892641
20
-11.9066006428273
30
0
41
1
10
154.996981556653
20
-11.9524749794244
30
0
41
1
10
155.09337105267
20
-11.9897927048934
30
0
41
1
10
155.125500884676
20
-11.9969911906688
30
0
41
1
10
155.173695632685
20
-12.0003561953538
30
0
41
1
10
155.189760548688
20
-12.0002495482558
30
0
41
1
10
155.221890380694
20
-11.9975698486022
30
0
41
1
10
155.237955296697
20
-11.9949882989324
30
0
41
1
10
155.318279876711
20
-11.9756907387313
30
0
41
1
10
155.382539540723
20
-11.939770640208
30
0
41
1
10
155.511058868747
20
-11.8228257217604
30
0
41
1
10
155.575318532759
20
-11.7417871558045
30
0
41
1
10
155.703837860782
20
-11.5315591105997
30
0
41
1
10
155.768097524794
20
-11.4023573939167
30
0
41
1
10
155.832357188806
20
-11.2483164262244
30
0
0
SPLINE
5
DC
100
AcDbEntity
8
1
62
256
6
ByLayer
370
13
48
1
60
0
100
AcDbSpline
70
4
71
3
72
70
73
66
40
0
40
0
40
0
40
0
40
0.0312499999999998
40
0.0312499999999998
40
0.0624999999999997
40
0.0624999999999997
40
0.0937499999999995
40
0.0937499999999995
40
0.124999999999999
40
0.124999999999999
40
0.156249999999999
40
0.156249999999999
40
0.187499999999999
40
0.187499999999999
40
0.218749999999999
40
0.218749999999999
40
0.249999999999999
40
0.249999999999999
40
0.281249999999999
40
0.281249999999999
40
0.312499999999998
40
0.312499999999998
40
0.343749999999998
40
0.343749999999998
40
0.374999999999998
40
0.374999999999998
40
0.406249999999998
40
0.406249999999998
40
0.437499999999998
40
0.437499999999998
40
0.468749999999997
40
0.468749999999997
40
0.484374999999997
40
0.484374999999997
40
0.499999999999997
40
0.499999999999997
40
0.531249999999997
40
0.531249999999997
40
0.562499999999998
40
0.562499999999998
40
0.593749999999998
40
0.593749999999998
40
0.624999999999998
40
0.624999999999998
40
0.656249999999998
40
0.656249999999998
40
0.687499999999998
40
0.687499999999998
40
0.718749999999998
40
0.718749999999998
40
0.749999999999999
40
0.749999999999999
40
0.781249999999999
40
0.781249999999999
40
0.812499999999999
40
0.812499999999999
40
0.843749999999999
40
0.843749999999999
40
0.874999999999999
40
0.874999999999999
40
0.906249999999999
40
0.906249999999999
40
0.9375
40
0.9375
40
1
40
1
40
1
40
1
41
1
10
144.8
20
-11.8282118154422
30
0
41
1
10
144.854127531979
20
-11.768471015881
30
0
41
1
10
144.908255063957
20
-11.6923905345878
30
0
41
1
10
145.016510127915
20
-11.5059032843519
30
0
41
1
10
145.070637659893
20
-11.3954914448162
30
0
41
1
10
145.178892723851
20
-11.13946927159
30
0
41
1
10
145.23302025583
20
-10.9938551792379
30
0
41
1
10
145.341275319787
20
-10.6674774232623
30
0
41
1
10
145.395402851766
20
-10.4867118919496
30
0
41
1
10
145.503657915723
20
-10.0910878612154
30
0
41
1
10
145.557785447702
20
-9.87622979939874
30
0
41
1
10
145.666040511659
20
-9.41450784686396
30
0
41
1
10
145.720168043638
20
-9.16764685150997
30
0
41
1
10
145.828423107595
20
-8.64498701568985
30
0
41
1
10
145.882550639574
20
-8.36919336407558
30
0
41
1
10
145.990805703531
20
-7.7925948222458
30
0
41
1
10
146.04493323551
20
-7.4917969406485
30
0
41
1
10
146.153188299468
20
-6.86979007973403
30
0
41
1
10
146.207315831446
20
-6.54858921811419
30
0
41
1
10
146.315570895404
20
-5.89082022460431
30
0
41
1
10
146.369698427382
20
-5.55426049303432
30
0
41
1
10
146.47795349134
20
-4.87101022955787
30
0
41
1
10
146.532081023318
20
-4.52432757742758
30
0
41
1
10
146.640336087276
20
-3.82601333129773
30
0
41
1
10
146.694463619255
20
-3.4743884391973
30
0
41
1
10
146.802718683212
20
-2.7710958509274
30
0
41
1
10
146.856846215191
20
-2.41943324696405
30
0
41
1
10
146.965101279148
20
-1.72051728685844
30
0
41
1
10
147.019228811127
20
-1.37326723271525
30
0
41
1
10
147.127483875084
20
-0.687047951686623
30
0
41
1
10
147.181611407063
20
-0.348080284170095
30
0
41
1
10
147.262802705031
20
0.151746674297641
30
0
41
1
10
147.28986647102
20
0.319464510115011
30
0
41
1
10
147.343994002999
20
0.657733806577738
30
0
41
1
10
147.371057768988
20
0.828122051821794
30
0
41
1
10
147.452249066957
20
1.3424170635538
30
0
41
1
10
147.506376598935
20
1.68947350754928
30
0
41
1
10
147.614631662893
20
2.38812615549423
30
0
41
1
10
147.668759194871
20
2.73971911097246
30
0
41
1
10
147.777014258829
20
3.44301202381422
30
0
41
1
10
147.831141790807
20
3.7947069408408
30
0
41
1
10
147.939396854765
20
4.49331205089928
30
0
41
1
10
147.993524386744
20
4.84021558491341
30
0
41
1
10
148.101779450701
20
5.52406364726752
30
0
41
1
10
148.15590698268
20
5.86100032235387
30
0
41
1
10
148.264162046637
20
6.51967741842438
30
0
41
1
10
148.318289578615
20
6.84140944343756
30
0
41
1
10
148.426544642573
20
7.46462350304242
30
0
41
1
10
148.480672174552
20
7.76609739938218
30
0
41
1
10
148.588927238509
20
8.34417621099672
30
0
41
1
10
148.643054770488
20
8.62077407350816
30
0
41
1
10
148.751309834445
20
9.14514763159227
30
0
41
1
10
148.805437366424
20
9.39291807594265
30
0
41
1
10
148.913692430381
20
9.85653660115327
30
0
41
1
10
148.96781996236
20
10.0723817144474
30
0
41
1
10
149.076075026317
20
10.4700272645696
30
0
41
1
10
149.130202558296
20
10.6518271914035
30
0
41
1
10
149.238457622253
20
10.9802904708782
30
0
41
1
10
149.292585154232
20
11.1269556275325
30
0
41
1
10
149.40084021819
20
11.3850676262448
30
0
41
1
10
149.454967750168
20
11.4965181785329
30
0
41
1
10
149.563222814126
20
11.6850448682739
30
0
41
1
10
149.617350346104
20
11.7621260464262
30
0
41
1
10
149.779732942041
20
11.9442618382296
30
0
41
1
10
149.887988005998
20
12
30
0
41
1
10
149.996243069955
20
12
30
0
0
SPLINE
5
DD
100
AcDbEntity
8
1
62
256
6
ByLayer
370
13
48
1
60
0
100
AcDbSpline
70
4
71
3
72
78
73
74
40
0
40
0
40
0
40
0
40
0.03125
40
0.03125
40
0.0625
40
0.0625
40
0.09375
40
0.09375
40
0.125
40
0.125
40
0.15625
40
0.15625
40
0.1875
40
0.1875
40
0.21875
40
0.21875
40
0.25
40
0.25
40
0.28125
40
0.28125
40
0.3125
40
0.3125
40
0.34375
40
0.34375
40
0.375
40
0.375
40
0.40625
40
0.40625
40
0.4140625
40
0.4140625
40
0.421875
40
0.421875
40
0.4375
40
0.4375
40
0.46875
40
0.46875
40
0.5
40
0.5
40
0.53125
40
0.53125
40
0.5625
40
0.5625
40
0.59375
40
0.59375
40
0.625
40
0.625
40
0.65625
40
0.65625
40
0.6875
40
0.6875
40
0.71875
40
0.71875
40
0.75
40
0.75
40
0.78125
40
0.78125
40
0.8125
40
0.8125
40
0.828125
40
0.828125
40
0.8359375
40
0.8359375
40
0.84375
40
0.84375
40
0.875
40
0.875
40
0.90625
40
0.90625
40
0.9375
40
0.9375
40
0.96875
40
0.96875
40
1
40
1
40
1
40
1
41
1
10
149.177086554469
20
12
30
0
41
1
10
149.246412290243
20
12
30
0
41
1
10
149.315738026018
20
11.9772144720874
30
0
41
1
10
149.454389497566
20
11.8805082557742
30
0
41
1
10
149.523715233341
20
11.8065673899454
30
0
41
1
10
149.662366704889
20
11.6032940502329
30
0
41
1
10
149.731692440664
20
11.4739429485693
30
0
41
1
10
149.870343912212
20
11.1575322510156
30
0
41
1
10
149.939669647987
20
10.9704590667101
30
0
41
1
10
150.078321119536
20
10.538723988213
30
0
41
1
10
150.14764685531
20
10.2940568390166
30
0
41
1
10
150.286298326858
20
9.74998508803805
30
0
41
1
10
150.355624062633
20
9.4505856675178
30
0
41
1
10
150.494275534182
20
8.80263974976361
30
0
41
1
10
150.563601269956
20
8.45410896024634
30
0
41
1
10
150.702252741505
20
7.71591458957607
30
0
41
1
10
150.771578477279
20
7.32627506362527
30
0
41
1
10
150.910229948827
20
6.51569438911983
30
0
41
1
10
150.979555684602
20
6.09478168842057
30
0
41
1
10
151.118207156151
20
5.23249851073123
30
0
41
1
10
151.187532891925
20
4.79115622634109
30
0
41
1
10
151.326184363474
20
3.89900264380205
30
0
41
1
10
151.395510099248
20
3.44821517714038
30
0
41
1
10
151.534161570796
20
2.54750958959829
30
0
41
1
10
151.603487306571
20
2.09760828893087
30
0
41
1
10
151.74213877812
20
1.20774451632738
30
0
41
1
10
151.811464513894
20
0.76779098307091
30
0
41
1
10
151.898121683612
20
0.228693620120424
30
0
41
1
10
151.915453117555
20
0.121412057279571
30
0
41
1
10
151.950115985443
20
-0.0919771855247689
30
0
41
1
10
151.967447419386
20
-0.199053909167077
30
0
41
1
10
152.019441721217
20
-0.522214331396782
30
0
41
1
10
152.054104589104
20
-0.73982838712169
30
0
41
1
10
152.158093192766
20
-1.39789588999358
30
0
41
1
10
152.22741892854
20
-1.84362617023993
30
0
41
1
10
152.366070400089
20
-2.74091326367937
30
0
41
1
10
152.435396135863
20
-3.19245737859257
30
0
41
1
10
152.574047607412
20
-4.09164960623005
30
0
41
1
10
152.643373343186
20
-4.53927733634021
30
0
41
1
10
152.782024814735
20
-5.41991022361296
30
0
41
1
10
152.851350550509
20
-5.85288903407465
30
0
41
1
10
152.990002022058
20
-6.69320292635123
30
0
41
1
10
153.059327757832
20
-7.10050912128247
30
0
41
1
10
153.197979229381
20
-7.87900537435939
30
0
41
1
10
153.267304965155
20
-8.25016851312625
30
0
41
1
10
153.405956436704
20
-8.9473102221697
30
0
41
1
10
153.475282172478
20
-9.27326831463554
30
0
41
1
10
153.613933644027
20
-9.87306320281965
30
0
41
1
10
153.683259379801
20
-10.1468891767981
30
0
41
1
10
153.82191085135
20
-10.6380950858512
30
0
41
1
10
153.891236587124
20
-10.8554749668352
30
0
41
1
10
154.029888058673
20
-11.2322411894464
30
0
41
1
10
154.099213794447
20
-11.3916371199202
30
0
41
1
10
154.237865265996
20
-11.6535158281107
30
0
41
1
10
154.30719100177
20
-11.7560150434138
30
0
41
1
10
154.445842473319
20
-11.907406164144
30
0
41
1
10
154.515168209093
20
-11.9563178493643
30
0
41
1
10
154.619156812755
20
-11.9932105339181
30
0
41
1
10
154.653819680642
20
-11.999440059171
30
0
41
1
10
154.705813982473
20
-12.0002257922058
30
0
41
1
10
154.723145416416
20
-11.9990688648437
30
0
41
1
10
154.757808284303
20
-11.9938288949468
30
0
41
1
10
154.775139718247
20
-11.9897451098201
30
0
41
1
10
154.861796887965
20
-11.9617835006173
30
0
41
1
10
154.931122623739
20
-11.9152271075237
30
0
41
1
10
155.069774095288
20
-11.7687434897138
30
0
41
1
10
155.139099831062
20
-11.6687964151778
30
0
41
1
10
155.277751302611
20
-11.4121295199507
30
0
41
1
10
155.347077038385
20
-11.2553930295795
30
0
41
1
10
155.485728509934
20
-10.8839407610863
30
0
41
1
10
155.555054245708
20
-10.669215008537
30
0
41
1
10
155.693705717257
20
-10.1831862454407
30
0
41
1
10
155.763031453031
20
-9.91188280502672
30
0
41
1
10
155.832357188806
20
-9.61437903461842
30
0
0
SPLINE
5
DE
100
AcDbEntity
8
1
62
256
6
ByLayer
370
13
48
1
60
0
100
AcDbSpline
70
4
71
3
72
42
73
38
40
0
40
0
40
0
40
0
40
0.062499999999999
40
0.062499999999999
40
0.124999999999998
40
0.124999999999998
40
0.187499999999997
40
0.187499999999997
40
0.249999999999996
40
0.249999999999996
40
0.312499999999995
40
0.312499999999995
40
0.374999999999994
40
0.374999999999994
40
0.406249999999993
40
0.406249999999993
40
0.421874999999993
40
0.421874999999993
40
0.437499999999993
40
0.437499999999993
40
0.499999999999994
40
0.499999999999994
40
0.562499999999995
40
0.562499999999995
40
0.624999999999995
40
0.624999999999995
40
0.687499999999996
40
0.687499999999996
40
0.749999999999997
40
0.749999999999997
40
0.812499999999998
40
0.812499999999998
40
0.874999999999998
40
0.874999999999998
40
0.937499999999999
40
0.937499999999999
40
1
40
1
40
1
40
1
41
1
10
144.8
20
-10.8330916943451
30
0
41
1
10
144.898122920432
20
-10.5375764208768
30
0
41
1
10
144.996245840865
20
-10.1839730690783
30
0
41
1
10
145.192491681729
20
-9.36936632187604
30
0
41
1
10
145.290614602161
20
-8.90841020101263
30
0
41
1
10
145.486860443026
20
-7.89855357516996
30
0
41
1
10
145.584983363458
20
-7.3497768404248
30
0
41
1
10
145.781229204323
20
-6.19185924007655
30
0
41
1
10
145.879352124755
20
-5.58287993217988
30
0
41
1
10
146.07559796562
20
-4.33580847593481
30
0
41
1
10
146.173720886052
20
-3.69786465864269
30
0
41
1
10
146.369966726917
20
-2.42294249682877
30
0
41
1
10
146.468089647349
20
-1.7860614741424
30
0
41
1
10
146.615274027997
20
-0.850286290074308
30
0
41
1
10
146.664335488213
20
-0.541571086346977
30
0
41
1
10
146.737927678538
20
-0.0851741059053381
30
0
41
1
10
146.762458408646
20
0.065211514215008
30
0
41
1
10
146.811519868862
20
0.369280768122536
30
0
41
1
10
146.83605059897
20
0.522430707465901
30
0
41
1
10
146.95870424951
20
1.29301977023016
30
0
41
1
10
147.056827169943
20
1.92524077216393
30
0
41
1
10
147.253073010807
20
3.19795623094055
30
0
41
1
10
147.351195931239
20
3.8383696219793
30
0
41
1
10
147.547441772104
20
5.09850408024582
30
0
41
1
10
147.645564692536
20
5.71808747701391
30
0
41
1
10
147.841810533401
20
6.90522050956173
30
0
41
1
10
147.939933453833
20
7.47260725108865
30
0
41
1
10
148.136179294698
20
8.52628591546625
30
0
41
1
10
148.23430221513
20
9.01243950472352
30
0
41
1
10
148.430548055995
20
9.88159002228198
30
0
41
1
10
148.528670976427
20
10.2645175951809
30
0
41
1
10
148.724916817291
20
10.9154218022821
30
0
41
1
10
148.823039737724
20
11.1834139558239
30
0
41
1
10
149.019285578588
20
11.6037557376069
30
0
41
1
10
149.117408499021
20
11.7561878720943
30
0
41
1
10
149.313654339885
20
11.954253831491
30
0
41
1
10
149.411777260317
20
12
30
0
41
1
10
149.50990018075
20
12
30
0
0
SPLINE
5
DF
100
AcDbEntity
8
1
62
256
6
ByLayer
370
13
48
1
60
0
100
AcDbSpline
70
4
71
3
72
80
73
76
40
0
40
0
40
0
40
0
40
0.0312500000000005
40
0.0312500000000005
40
0.062500000000001
40
0.062500000000001
40
0.0937500000000015
40
0.0937500000000015
40
0.125000000000002
40
0.125000000000002
40
0.156250000000002
40
0.156250000000002
40
0.187500000000003
40
0.187500000000003
40
0.218750000000003
40
0.218750000000003
40
0.250000000000004
40
0.250000000000004
40
0.281250000000004
40
0.281250000000004
40
0.312500000000005
40
0.312500000000005
40
0.343750000000005
40
0.343750000000005
40
0.375000000000006
40
0.375000000000006
40
0.382812500000006
40
0.382812500000006
40
0.390625000000006
40
0.390625000000006
40
0.406250000000006
40
0.406250000000006
40
0.437500000000007
40
0.437500000000007
40
0.468750000000007
40
0.468750000000007
40
0.500000000000008
40
0.500000000000008
40
0.531250000000008
40
0.531250000000008
40
0.562500000000009
40
0.562500000000009
40
0.593750000000009
40
0.593750000000009
40
0.62500000000001
40
0.62500000000001
40
0.65625000000001
40
0.65625000000001
40
0.687500000000011
40
0.687500000000011
40
0.718750000000011
40
0.718750000000011
40
0.750000000000012
40
0.750000000000012
40
0.765625000000012
40
0.765625000000012
40
0.769531250000012
40
0.769531250000012
40
0.773437500000012
40
0.773437500000012
40
0.781250000000011
40
0.781250000000011
40
0.81250000000001
40
0.81250000000001
40
0.843750000000008
40
0.843750000000008
40
0.875000000000006
40
0.875000000000006
40
0.906250000000005
40
0.906250000000005
40
0.937500000000003
40
0.937500000000003
40
0.968750000000002
40
0.968750000000002
40
1
40
1
40
1
40
1
41
1
10
148.690743665263
20
12
30
0
41
1
10
148.7651354728
20
12
30
0
41
1
10
148.839527280337
20
11.9737544917566
30
0
41
1
10
148.988310895411
20
11.8619477576616
30
0
41
1
10
149.062702702948
20
11.776357860189
30
0
41
1
10
149.211486318022
20
11.5408260930342
30
0
41
1
10
149.285878125558
20
11.3908584860165
30
0
41
1
10
149.434661740632
20
11.0242134670679
30
0
41
1
10
149.509053548169
20
10.8075189891329
30
0
41
1
10
149.657837163243
20
10.3084054392297
30
0
41
1
10
149.73222897078
20
10.0259830486013
30
0
41
1
10
149.881012585854
20
9.40006585092428
30
0
41
1
10
149.955404393391
20
9.05658403901361
30
0
41
1
10
150.104188008464
20
8.3167286874484
30
0
41
1
10
150.178579816001
20
7.92038323135324
30
0
41
1
10
150.327363431075
20
7.08588487700021
30
0
41
1
10
150.401755238612
20
6.64777016263275
30
0
41
1
10
150.550538853686
20
5.74270461206302
30
0
41
1
10
150.624930661223
20
5.27579478389529
30
0
41
1
10
150.773714276296
20
4.32678003127523
30
0
41
1
10
150.848106083833
20
3.84471165287056
30
0
41
1
10
150.996889698907
20
2.87849996827569
30
0
41
1
10
151.071281506444
20
2.39438349329296
30
0
41
1
10
151.220065121518
20
1.43570643183529
30
0
41
1
10
151.294456929055
20
0.961160751946949
30
0
41
1
10
151.387446688476
20
0.379894660776358
30
0
41
1
10
151.40604464036
20
0.264231597296572
30
0
41
1
10
151.443240544129
20
0.0342109421537771
30
0
41
1
10
151.461838496013
20
-0.0799160076685155
30
0
41
1
10
151.517632351665
20
-0.42546383656358
30
0
41
1
10
151.554828255434
20
-0.658412487388119
30
0
41
1
10
151.666415966739
20
-1.36343580932385
30
0
41
1
10
151.740807774276
20
-1.84175627870323
30
0
41
1
10
151.88959138935
20
-2.80489042530292
30
0
41
1
10
151.963983196887
20
-3.28968577418615
30
0
41
1
10
152.112766811961
20
-4.25366037647208
30
0
41
1
10
152.187158619498
20
-4.73280968491105
30
0
41
1
10
152.335942234571
20
-5.67213066840438
30
0
41
1
10
152.410334042108
20
-6.13226388274001
30
0
41
1
10
152.559117657182
20
-7.01998022008169
30
0
41
1
10
152.633509464719
20
-7.44752235167178
30
0
41
1
10
152.782293079793
20
-8.25749061408123
30
0
41
1
10
152.85668488733
20
-8.63988074295418
30
0
41
1
10
153.005468502403
20
-9.3491702972324
30
0
41
1
10
153.07986030994
20
-9.67604555306693
30
0
41
1
10
153.228643925014
20
-10.2670492405871
30
0
41
1
10
153.303035732551
20
-10.5311693503171
30
0
41
1
10
153.451819347625
20
-10.9930246972419
30
0
41
1
10
153.526211155162
20
-11.1907675482641
30
0
41
1
10
153.674994770235
20
-11.5198555608669
30
0
41
1
10
153.749386577772
20
-11.6512208232359
30
0
41
1
10
153.898170192846
20
-11.8507341961024
30
0
41
1
10
153.972562000383
20
-11.9189094414288
30
0
41
1
10
154.084149711689
20
-11.9779918131499
30
0
41
1
10
154.121345615457
20
-11.9905057454691
30
0
41
1
10
154.167840495167
20
-11.9977109843111
30
0
41
1
10
154.17713947111
20
-11.9987303805392
30
0
41
1
10
154.195737422994
20
-11.9999400971725
30
0
41
1
10
154.205036398936
20
-12.0001311726906
30
0
41
1
10
154.232933326762
20
-11.9994771773485
30
0
41
1
10
154.251531278647
20
-11.9973964088166
30
0
41
1
10
154.344521038068
20
-11.978484373604
30
0
41
1
10
154.418912845605
20
-11.9360659895136
30
0
41
1
10
154.567696460678
20
-11.7902624333956
30
0
41
1
10
154.642088268215
20
-11.6868488691446
30
0
41
1
10
154.790871883289
20
-11.414696567297
30
0
41
1
10
154.865263690826
20
-11.2459339601478
30
0
41
1
10
155.0140473059
20
-10.8416169076779
30
0
41
1
10
155.088439113437
20
-10.6060488503916
30
0
41
1
10
155.23722272851
20
-10.0701302510828
30
0
41
1
10
155.311614536047
20
-9.76978089998775
30
0
41
1
10
155.460398151121
20
-9.10998695311693
30
0
41
1
10
155.534789958658
20
-8.75055992732746
30
0
41
1
10
155.683573573732
20
-7.98169685532801
30
0
41
1
10
155.757965381269
20
-7.57229239692475
30
0
41
1
10
155.832357188806
20
-7.14375081227121
30
0
0
SPLINE
5
E0
100
AcDbEntity
8
1
62
256
6
ByLayer
370
13
48
1
60
0
100
AcDbSpline
70
4
71
3
72
43
73
39
40
0
40
0
40
0
40
0
40
0.0625000000000006
40
0.0625000000000006
40
0.125000000000001
40
0.125000000000001
40
0.187500000000002
40
0.187500000000002
40
0.250000000000002
40
0.250000000000002
40
0.312500000000003
40
0.312500000000003
40
0.343750000000004
40
0.343750000000004
40
0.351562500000004
40
0.351562500000004
40
0.359375000000004
40
0.375000000000004
40
0.375000000000004
40
0.437500000000004
40
0.437500000000004
40
0.500000000000003
40
0.500000000000003
40
0.562500000000003
40
0.562500000000003
40
0.625000000000002
40
0.625000000000002
40
0.687500000000002
40
0.687500000000002
40
0.750000000000002
40
0.750000000000002
40
0.812500000000001
40
0.812500000000001
40
0.875000000000001
40
0.875000000000001
40
0.9375
40
0.9375
40
1
40
1
40
1
40
1
41
1
10
144.8
20
-8.91408484326485
30
0
41
1
10
144.887990776907
20
-8.48972721433486
30
0
41
1
10
144.975981553814
20
-8.02697193356468
30
0
41
1
10
145.151963107629
20
-7.04242007118745
30
0
41
1
10
145.239953884536
20
-6.52071116484711
30
0
41
1
10
145.41593543835
20
-5.43988087865722
30
0
41
1
10
145.503926215257
20
-4.88085353380663
30
0
41
1
10
145.679907769072
20
-3.74795394465701
30
0
41
1
10
145.767898545979
20
-3.17415949352519
30
0
41
1
10
145.943880099793
20
-2.03257220584203
30
0
41
1
10
146.0318708767
20
-1.46482719825917
30
0
41
1
10
146.163857042061
20
-0.63060982639243
30
0
41
1
10
146.207852430515
20
-0.355404576392374
30
0
41
1
10
146.262846666082
20
-0.0160557270020831
30
0
41
1
10
146.273845513195
20
0.0515155397722253
30
0
41
1
10
146.295843207422
20
0.187416303841189
30
0
41
1
10
146.328839748762
20
0.391957225692011
30
0
41
1
10
146.361836290102
20
0.598455509815608
30
0
41
1
10
146.471824761236
20
1.29059225267039
30
0
41
1
10
146.559815538143
20
1.85666196195427
30
0
41
1
10
146.735797091958
20
2.99685968614409
30
0
41
1
10
146.823787868865
20
3.57094327244334
30
0
41
1
10
146.999769422679
20
4.70668682049228
30
0
41
1
10
147.087760199586
20
5.26827164369826
30
0
41
1
10
147.263741753401
20
6.3565497644727
30
0
41
1
10
147.351732530308
20
6.88314975594733
30
0
41
1
10
147.527714084122
20
7.87959131573172
30
0
41
1
10
147.615704861029
20
8.34934340792103
30
0
41
1
10
147.791686414844
20
9.21365655577554
30
0
41
1
10
147.879677191751
20
9.60815546772119
30
0
41
1
10
148.055658745565
20
10.309325663353
30
0
41
1
10
148.143649522472
20
10.6159771331337
30
0
41
1
10
148.319631076286
20
11.135887068677
30
0
41
1
10
148.407621853194
20
11.3491685889838
30
0
41
1
10
148.583603407008
20
11.6837836230981
30
0
41
1
10
148.671594183915
20
11.8051706751971
30
0
41
1
10
148.84757573773
20
11.9632459432797
30
0
41
1
10
148.935566514637
20
12
30
0
41
1
10
149.023557291544
20
12
30
0
0
SPLINE
5
E1
100
AcDbEntity
8
1
62
256
6
ByLayer
370
13
48
1
60
0
100
AcDbSpline
70
4
71
3
72
79
73
75
40
0
40
0
40
0
40
0
40
0.0312500000000005
40
0.0312500000000005
40
0.062500000000001
40
0.062500000000001
40
0.0937500000000016
40
0.0937500000000016
40
0.125000000000002
40
0.125000000000002
40
0.156250000000003
40
0.156250000000003
40
0.187500000000003
40
0.187500000000003
40
0.218750000000004
40
0.218750000000004
40
0.250000000000004
40
0.250000000000004
40
0.281250000000005
40
0.281250000000005
40
0.312500000000005
40
0.312500000000005
40
0.343750000000005
40
0.343750000000005
40
0.359375000000006
40
0.359375000000006
40
0.363281250000006
40
0.363281250000006
40
0.367187500000006
40
0.375000000000006
40
0.375000000000006
40
0.406250000000006
40
0.406250000000006
40
0.437500000000006
40
0.437500000000006
40
0.468750000000006
40
0.468750000000006
40
0.500000000000006
40
0.500000000000006
40
0.531250000000007
40
0.531250000000007
40
0.562500000000007
40
0.562500000000007
40
0.593750000000007
40
0.593750000000007
40
0.625000000000007
40
0.625000000000007
40
0.656250000000007
40
0.656250000000007
40
0.687500000000008
40
0.687500000000008
40
0.718750000000008
40
0.718750000000008
40
0.726562500000008
40
0.726562500000008
40
0.734375000000008
40
0.734375000000008
40
0.750000000000007
40
0.750000000000007
40
0.781250000000007
40
0.781250000000007
40
0.812500000000006
40
0.812500000000006
40
0.843750000000005
40
0.843750000000005
40
0.875000000000004
40
0.875000000000004
40
0.906250000000003
40
0.906250000000003
40
0.937500000000002
40
0.937500000000002
40
0.968750000000001
40
0.968750000000001
40
1
40
1
40
1
40
1
41
1
10
148.204400776058
20
12
30
0
41
1
10
148.283858655357
20
12
30
0
41
1
10
148.363316534657
20
11.9700479741169
30
0
41
1
10
148.522232293256
20
11.8419868060646
30
0
41
1
10
148.601690172555
20
11.7438378946724
30
0
41
1
10
148.760605931154
20
11.4735283886042
30
0
41
1
10
148.840063810453
20
11.3013332370146
30
0
41
1
10
148.998979569052
20
10.8806971458431
30
0
41
1
10
149.078437448352
20
10.6322359357442
30
0
41
1
10
149.237353206951
20
10.0613117739639
30
0
41
1
10
149.31681108625
20
9.73885025018751
30
0
41
1
10
149.475726844849
20
9.0269557353858
30
0
41
1
10
149.555184724148
20
8.63754840253347
30
0
41
1
10
149.714100482747
20
7.80317622709754
30
0
41
1
10
149.793558362047
20
7.35825718560127
30
0
41
1
10
149.952474120646
20
6.42756497114499
30
0
41
1
10
150.031931999945
20
5.94184801801904
30
0
41
1
10
150.190847758544
20
4.94598060529268
30
0
41
1
10
150.270305637843
20
4.435884840553
30
0
41
1
10
150.429221396442
20
3.40768748253188
30
0
41
1
10
150.508679275742
20
2.88962899117678
30
0
41
1
10
150.667595034341
20
1.86043828277738
30
0
41
1
10
150.74705291364
20
1.34933214644204
30
0
41
1
10
150.866239732589
20
0.597154622883096
30
0
41
1
10
150.905968672239
20
0.348820139205884
30
0
41
1
10
150.955629846801
20
0.0421786055090081
30
0
41
1
10
150.965562081714
20
-0.0188447779050591
30
0
41
1
10
150.985426551539
20
-0.141405329419484
30
0
41
1
10
151.015223256276
20
-0.325814478024995
30
0
41
1
10
151.045019961013
20
-0.511846924445223
30
0
41
1
10
151.144342310138
20
-1.13517084084171
30
0
41
1
10
151.223800189437
20
-1.64423617158536
30
0
41
1
10
151.382715948036
20
-2.67125680395375
30
0
41
1
10
151.462173827336
20
-3.18918855486976
30
0
41
1
10
151.621089585934
20
-4.21935217350412
30
0
41
1
10
151.700547465234
20
-4.73154313218544
30
0
41
1
10
151.859463223833
20
-5.73395103263079
30
0
41
1
10
151.938921103132
20
-6.22411439065252
30
0
41
1
10
152.097836861731
20
-7.16594961470051
30
0
41
1
10
152.17729474103
20
-7.61756475453515
30
0
41
1
10
152.336210499629
20
-8.46723840005106
30
0
41
1
10
152.415668378929
20
-8.86524895264265
30
0
41
1
10
152.574584137528
20
-9.59571758559872
30
0
41
1
10
152.654042016827
20
-9.92814676863961
30
0
41
1
10
152.812957775426
20
-10.5197152048642
30
0
41
1
10
152.892415654726
20
-10.7788496248662
30
0
41
1
10
153.051331413325
20
-11.2208686391709
30
0
41
1
10
153.130789292624
20
-11.4037708147048
30
0
41
1
10
153.289705051223
20
-11.6949392971148
30
0
41
1
10
153.369162930522
20
-11.8032386952642
30
0
41
1
10
153.528078689121
20
-11.9505989165428
30
0
41
1
10
153.607536568421
20
-11.9896992993852
30
0
41
1
10
153.706858917545
20
-12.0003352460381
30
0
41
1
10
153.72672338737
20
-12.0005704848376
30
0
41
1
10
153.76645232702
20
-11.9972836241155
30
0
41
1
10
153.786316796844
20
-11.9937418360205
30
0
41
1
10
153.845910206319
20
-11.977216580135
30
0
41
1
10
153.885639145969
20
-11.958329181623
30
0
41
1
10
154.004825964918
20
-11.8765434687725
30
0
41
1
10
154.084283844218
20
-11.7884270097118
30
0
41
1
10
154.243199602816
20
-11.5388127482089
30
0
41
1
10
154.322657482116
20
-11.3772791083953
30
0
41
1
10
154.481573240715
20
-10.9780247226249
30
0
41
1
10
154.561031120014
20
-10.7402811696325
30
0
41
1
10
154.719946878613
20
-10.1901863792831
30
0
41
1
10
154.799404757913
20
-9.87783321794348
30
0
41
1
10
154.958320516512
20
-9.18488241281628
30
0
41
1
10
155.037778395811
20
-8.80430710525914
30
0
41
1
10
155.19669415441
20
-7.98576011177195
30
0
41
1
10
155.276152033709
20
-7.54783187592793
30
0
41
1
10
155.435067792308
20
-6.62890639851028
30
0
41
1
10
155.514525671608
20
-6.14796462619861
30
0
41
1
10
155.673441430207
20
-5.15929503168903
30
0
41
1
10
155.752899309506
20
-4.65162281091713
30
0
41
1
10
155.832357188806
20
-4.13882038648535
30
0
0
SPLINE
5
E2
100
AcDbEntity
8
1
62
256
6
ByLayer
370
13
48
1
60
0
100
AcDbSpline
70
4
71
3
72
44
73
40
40
0
40
0
40
0
40
0
40
0.0624999999999995
40
0.0624999999999995
40
0.124999999999999
40
0.124999999999999
40
0.187499999999999
40
0.187499999999999
40
0.249999999999998
40
0.249999999999998
40
0.257812499999998
40
0.257812499999998
40
0.265624999999998
40
0.265624999999998
40
0.281249999999998
40
0.281249999999998
40
0.312499999999998
40
0.312499999999998
40
0.374999999999998
40
0.374999999999998
40
0.437499999999999
40
0.437499999999999
40
0.499999999999999
40
0.499999999999999
40
0.562499999999999
40
0.562499999999999
40
0.624999999999999
40
0.624999999999999
40
0.687499999999999
40
0.687499999999999
40
0.749999999999999
40
0.749999999999999
40
0.812499999999999
40
0.812499999999999
40
0.875
40
0.875
40
0.9375
40
0.9375
40
1
40
1
40
1
40
1
41
1
10
144.8
20
-6.23437156585476
30
0
41
1
10
144.877858633382
20
-5.7616234411818
30
0
41
1
10
144.955717266764
20
-5.27291387065728
30
0
41
1
10
145.111434533528
20
-4.27911257462662
30
0
41
1
10
145.18929316691
20
-3.7740665427649
30
0
41
1
10
145.345010433674
20
-2.76258870855861
30
0
41
1
10
145.422869067056
20
-2.25618966608639
30
0
41
1
10
145.57858633382
20
-1.25515405377996
30
0
41
1
10
145.656444967202
20
-0.760534541678197
30
0
41
1
10
145.744035929757
20
-0.216636241803712
30
0
41
1
10
145.75376825893
20
-0.156375580293258
30
0
41
1
10
145.773232917276
20
-0.0362166316721471
30
0
41
1
10
145.782965246448
20
0.0235771616447096
30
0
41
1
10
145.812162233967
20
0.203739064639905
30
0
41
1
10
145.831626892312
20
0.324574495105765
30
0
41
1
10
145.890020867349
20
0.68905073542706
30
0
41
1
10
145.92895018404
20
0.934667014419176
30
0
41
1
10
146.045738134113
20
1.67751077166895
30
0
41
1
10
146.123596767495
20
2.18081148571304
30
0
41
1
10
146.279314034259
20
3.19139717142039
30
0
41
1
10
146.357172667641
20
3.69865532546132
30
0
41
1
10
146.512889934405
20
4.70277832445476
30
0
41
1
10
146.590748567787
20
5.19960182183135
30
0
41
1
10
146.746465834551
20
6.1673125676339
30
0
41
1
10
146.824324467933
20
6.63814946928514
30
0
41
1
10
146.980041734697
20
7.5385800334405
30
0
41
1
10
147.057900368079
20
7.96812356751499
30
0
41
1
10
147.213617634844
20
8.77244196526385
30
0
41
1
10
147.291476268226
20
9.1471772486434
30
0
41
1
10
147.44719353499
20
9.83152045765095
30
0
41
1
10
147.525052168372
20
10.1411073361625
30
0
41
1
10
147.680769435136
20
10.6888983788635
30
0
41
1
10
147.758628068518
20
10.9271029957851
30
0
41
1
10
147.914345335282
20
11.3302924323962
30
0
41
1
10
147.992203968664
20
11.4952965761153
30
0
41
1
10
148.147921235428
20
11.7543545472659
30
0
41
1
10
148.22577986881
20
11.8484399547377
30
0
41
1
10
148.381497135574
20
11.9712447042302
30
0
41
1
10
148.459355768956
20
12
30
0
41
1
10
148.537214402338
20
12
30
0
0
SPLINE
5
E3
100
AcDbEntity
8
1
62
256
6
ByLayer
370
13
48
1
60
0
100
AcDbSpline
70
4
71
3
72
78
73
74
40
0
40
0
40
0
40
0
40
0.03125
40
0.03125
40
0.0624999999999999
40
0.0624999999999999
40
0.0937499999999999
40
0.0937499999999999
40
0.125
40
0.125
40
0.15625
40
0.15625
40
0.1875
40
0.1875
40
0.21875
40
0.21875
40
0.25
40
0.25
40
0.28125
40
0.28125
40
0.3125
40
0.3125
40
0.328125
40
0.328125
40
0.3359375
40
0.3359375
40
0.34375
40
0.34375
40
0.375
40
0.375
40
0.40625
40
0.40625
40
0.4375
40
0.4375
40
0.46875
40
0.46875
40
0.5
40
0.5
40
0.531249999999999
40
0.531249999999999
40
0.562499999999999
40
0.562499999999999
40
0.593749999999999
40
0.593749999999999
40
0.624999999999999
40
0.624999999999999
40
0.656249999999999
40
0.656249999999999
40
0.671874999999999
40
0.671874999999999
40
0.679687499999999
40
0.679687499999999
40
0.687499999999999
40
0.687499999999999
40
0.718749999999999
40
0.718749999999999
40
0.749999999999999
40
0.749999999999999
40
0.781249999999999
40
0.781249999999999
40
0.812499999999999
40
0.812499999999999
40
0.843749999999999
40
0.843749999999999
40
0.874999999999999
40
0.874999999999999
40
0.906249999999999
40
0.906249999999999
40
0.9375
40
0.9375
40
0.96875
40
0.96875
40
1
40
1
40
1
40
1
41
1
10
147.718057886852
20
12
30
0
41
1
10
147.802581837914
20
12
30
0
41
1
10
147.887105788976
20
11.9660943062686
30
0
41
1
10
148.0561536911
20
11.8206147066676
30
0
41
1
10
148.140677642162
20
11.7089868014625
30
0
41
1
10
148.309725544286
20
11.4013674752546
30
0
41
1
10
148.394249495348
20
11.2053308593526
30
0
41
1
10
148.563297397472
20
10.7270005328683
30
0
41
1
10
148.647821348534
20
10.4446842921279
30
0
41
1
10
148.816869250658
20
9.79777185970414
30
0
41
1
10
148.90139320172
20
9.43318605418352
30
0
41
1
10
149.070441103844
20
8.63179775710023
30
0
41
1
10
149.154965054906
20
8.1950399430018
30
0
41
1
10
149.32401295703
20
7.26462585115362
30
0
41
1
10
149.408536908092
20
6.77103914605064
30
0
41
1
10
149.577584810216
20
5.74578046931685
30
0
41
1
10
149.662108761278
20
5.21418602453579
30
0
41
1
10
149.831156663402
20
4.13294354918816
30
0
41
1
10
149.915680614464
20
3.58336326518298
30
0
41
1
10
150.084728516588
20
2.48515408876517
30
0
41
1
10
150.16925246765
20
1.93657101788759
30
0
41
1
10
150.296038394243
20
1.12658615774652
30
0
41
1
10
150.338300369775
20
0.858713644575118
30
0
41
1
10
150.401693333071
20
0.461346250176717
30
0
41
1
10
150.422824320836
20
0.329628786930073
30
0
41
1
10
150.465086296368
20
0.0678570238395082
30
0
41
1
10
150.486217284133
20
-0.0617466647342724
30
0
41
1
10
150.59187222296
20
-0.716046094785099
30
0
41
1
10
150.676396174023
20
-1.25296605533418
30
0
41
1
10
150.845444076146
20
-2.3403741325271
30
0
41
1
10
150.929968027209
20
-2.89083586705809
30
0
41
1
10
151.099015929333
20
-3.98833900648273
30
0
41
1
10
151.183539880395
20
-4.5353285174146
30
0
41
1
10
151.352587782519
20
-5.60648173150963
30
0
41
1
10
151.437111733581
20
-6.1305738580254
30
0
41
1
10
151.606159635705
20
-7.13599323047268
30
0
41
1
10
151.690683586767
20
-7.61724316716044
30
0
41
1
10
151.859731488891
20
-8.51879982852
30
0
41
1
10
151.944255439953
20
-8.9390417270557
30
0
41
1
10
152.113303342077
20
-9.70436849582421
30
0
41
1
10
152.197827293139
20
-10.049416655374
30
0
41
1
10
152.366875195263
20
-10.6556843039189
30
0
41
1
10
152.451399146325
20
-10.9169020451663
30
0
41
1
10
152.620447048449
20
-11.3529725214157
30
0
41
1
10
152.704970999511
20
-11.5278545552799
30
0
41
1
10
152.874018901635
20
-11.7944146392778
30
0
41
1
10
152.958542852697
20
-11.8861413482874
30
0
41
1
10
153.08532877929
20
-11.9670575948283
30
0
41
1
10
153.127590754821
20
-11.9846141079151
30
0
41
1
10
153.190983718118
20
-11.9977515458069
30
0
41
1
10
153.212114705883
20
-11.99993237691
30
0
41
1
10
153.254376681414
20
-12.0000645253348
30
0
41
1
10
153.27550766918
20
-11.9980184298994
30
0
41
1
10
153.381162608007
20
-11.9768093665379
30
0
41
1
10
153.465686559069
20
-11.9246026466417
30
0
41
1
10
153.634734461193
20
-11.7405074074727
30
0
41
1
10
153.719258412255
20
-11.6085657896101
30
0
41
1
10
153.888306314379
20
-11.259355224154
30
0
41
1
10
153.972830265441
20
-11.0420454117992
30
0
41
1
10
154.141878167565
20
-10.5215777173577
30
0
41
1
10
154.226402118627
20
-10.2184047220206
30
0
41
1
10
154.395450020751
20
-9.53170475129556
30
0
41
1
10
154.479973971813
20
-9.14819689404973
30
0
41
1
10
154.649021873938
20
-8.31230110912549
30
0
41
1
10
154.733545824999
20
-7.85996524023659
30
0
41
1
10
154.902593727124
20
-6.90278363985837
30
0
41
1
10
154.987117678186
20
-6.39801116675591
30
0
41
1
10
155.15616558031
20
-5.35528877567032
30
0
41
1
10
155.240689531372
20
-4.81741549562446
30
0
41
1
10
155.409737433496
20
-3.72846601229125
30
0
41
1
10
155.494261384557
20
-3.17745297639871
30
0
41
1
10
155.663309286682
20
-2.08068234042955
30
0
41
1
10
155.747833237744
20
-1.5349642702823
30
0
41
1
10
155.832357188806
20
-0.999558963619535
30
0
0
SPLINE
5
E4
100
AcDbEntity
8
1
62
256
6
ByLayer
370
13
48
1
60
0
100
AcDbSpline
70
4
71
3
72
43
73
39
40
0
40
0
40
0
40
0
40
0.0625
40
0.0625
40
0.125
40
0.125
40
0.140625
40
0.148437500000001
40
0.148437500000001
40
0.156250000000001
40
0.156250000000001
40
0.187500000000001
40
0.187500000000001
40
0.250000000000001
40
0.250000000000001
40
0.312500000000001
40
0.312500000000001
40
0.375000000000001
40
0.375000000000001
40
0.437500000000001
40
0.437500000000001
40
0.500000000000001
40
0.500000000000001
40
0.5625
40
0.5625
40
0.625
40
0.625
40
0.6875
40
0.6875
40
0.75
40
0.75
40
0.8125
40
0.8125
40
0.875
40
0.875
40
0.9375
40
0.9375
40
1
40
1
40
1
40
1
41
1
10
144.8
20
-3.14365858099737
30
0
41
1
10
144.867726489857
20
-2.70366797129054
30
0
41
1
10
144.935452979714
20
-2.26359879035496
30
0
41
1
10
145.070905959428
20
-1.39189158236797
30
0
41
1
10
145.138632449285
20
-0.960262418096107
30
0
41
1
10
145.223290561606
20
-0.430460593654431
30
0
41
1
10
145.248687995302
20
-0.27224431807096
30
0
41
1
10
145.274085428999
20
-0.11522192509301
30
0
41
1
10
145.291017051463
20
-0.0108168227889109
30
0
41
1
10
145.299482862695
20
0.0412124786497259
30
0
41
1
10
145.341811918856
20
0.302492867012376
30
0
41
1
10
145.375675163784
20
0.51371630358841
30
0
41
1
10
145.477264898569
20
1.15282959638847
30
0
41
1
10
145.544991388426
20
1.58621074543481
30
0
41
1
10
145.68044436814
20
2.46022415441345
30
0
41
1
10
145.748170857997
20
2.90084652852002
30
0
41
1
10
145.883623837711
20
3.78054273379021
30
0
41
1
10
145.951350327568
20
4.21959987597901
30
0
41
1
10
146.086803307282
20
5.08633195744522
30
0
41
1
10
146.154529797139
20
5.51398452376949
30
0
41
1
10
146.289982776853
20
6.34763156930674
30
0
41
1
10
146.357709266709
20
6.75360057392322
30
0
41
1
10
146.493162246423
20
7.53389151766521
30
0
41
1
10
146.56088873628
20
7.90818854628969
30
0
41
1
10
146.696341715994
20
8.61620425095862
30
0
41
1
10
146.764068205851
20
8.94990250690415
30
0
41
1
10
146.899521185565
20
9.56954208810217
30
0
41
1
10
146.967247675422
20
9.85547065699549
30
0
41
1
10
147.102700655135
20
10.3746538102184
30
0
41
1
10
147.170427144992
20
10.607904898398
30
0
41
1
10
147.305880124707
20
11.019325796649
30
0
41
1
10
147.373606614563
20
11.1975010725856
30
0
41
1
10
147.509059594277
20
11.4988403384805
30
0
41
1
10
147.576786084134
20
11.6220168383939
30
0
41
1
10
147.712239063848
20
11.8156274725952
30
0
41
1
10
147.779965553705
20
11.8860783198424
30
0
41
1
10
147.915418533419
20
11.9782556040041
30
0
41
1
10
147.983145023276
20
12
30
0
41
1
10
148.050871513133
20
12
30
0
0
SPLINE
5
E5
100
AcDbEntity
8
1
62
256
6
ByLayer
370
13
48
1
60
0
100
AcDbSpline
70
4
71
3
72
85
73
81
40
0
40
0
40
0
40
0
40
0.0312500000000001
40
0.0312500000000001
40
0.0625000000000002
40
0.0625000000000002
40
0.0937500000000004
40
0.0937500000000004
40
0.125000000000001
40
0.125000000000001
40
0.156250000000001
40
0.156250000000001
40
0.187500000000001
40
0.187500000000001
40
0.218750000000001
40
0.218750000000001
40
0.250000000000001
40
0.250000000000001
40
0.281250000000001
40
0.281250000000001
40
0.312500000000001
40
0.312500000000001
40
0.320312500000001
40
0.320312500000001
40
0.328125000000001
40
0.328125000000001
40
0.343750000000001
40
0.343750000000001
40
0.375
40
0.375
40
0.406249999999999
40
0.406249999999999
40
0.437499999999999
40
0.437499999999999
40
0.468749999999998
40
0.468749999999998
40
0.499999999999997
40
0.499999999999997
40
0.531249999999996
40
0.531249999999996
40
0.562499999999995
40
0.562499999999995
40
0.593749999999995
40
0.593749999999995
40
0.624999999999994
40
0.624999999999994
40
0.640624999999993
40
0.640624999999993
40
0.644531249999994
40
0.644531249999994
40
0.648437499999994
40
0.656249999999994
40
0.656249999999994
40
0.687499999999994
40
0.687499999999994
40
0.718749999999995
40
0.718749999999995
40
0.749999999999996
40
0.749999999999996
40
0.781249999999996
40
0.781249999999996
40
0.812499999999997
40
0.812499999999997
40
0.843749999999998
40
0.843749999999998
40
0.874999999999998
40
0.874999999999998
40
0.906249999999999
40
0.906249999999999
40
0.9375
40
0.9375
40
0.953125
40
0.953125
40
0.9609375
40
0.9609375
40
0.96484375
40
0.96484375
40
0.96875
40
0.96875
40
1
40
1
40
1
40
1
41
1
10
147.231714997646
20
12
30
0
41
1
10
147.321305020471
20
12
30
0
41
1
10
147.410895043295
20
11.961892814435
30
0
41
1
10
147.590075088945
20
11.7978210718984
30
0
41
1
10
147.679665111769
20
11.6717845708067
30
0
41
1
10
147.858845157418
20
11.3243149656834
30
0
41
1
10
147.948435180243
20
11.1028241887556
30
0
41
1
10
148.127615225892
20
10.563167702355
30
0
41
1
10
148.217205248717
20
10.2449790983522
30
0
41
1
10
148.396385294366
20
9.51819531735853
30
0
41
1
10
148.48597531719
20
9.10962540709284
30
0
41
1
10
148.66515536284
20
8.21589840534702
30
0
41
1
10
148.754745385664
20
7.73081288663712
30
0
41
1
10
148.933925431313
20
6.70394812066201
30
0
41
1
10
149.023515454138
20
6.16226850755615
30
0
41
1
10
149.202695499787
20
5.04553080539867
30
0
41
1
10
149.292285522612
20
4.47057342734638
30
0
41
1
10
149.471465568261
20
3.31090483200239
30
0
41
1
10
149.561055591085
20
2.72627147278087
30
0
41
1
10
149.740235636735
20
1.56842174131742
30
0
41
1
10
149.829825659559
20
0.995248075981181
30
0
41
1
10
149.94181318809
20
0.296462596076509
30
0
41
1
10
149.964210693796
20
0.157577774176019
30
0
41
1
10
150.009005705208
20
-0.118233206369638
30
0
41
1
10
150.031403210914
20
-0.256766853159689
30
0
41
1
10
150.098595728033
20
-0.675537689277093
30
0
41
1
10
150.143390739445
20
-0.958259458148945
30
0
41
1
10
150.277775773682
20
-1.81414871627615
30
0
41
1
10
150.367365796507
20
-2.39517327020496
30
0
41
1
10
150.546545842156
20
-3.559126014252
30
0
41
1
10
150.63613586498
20
-4.14199410118175
30
0
41
1
10
150.815315910629
20
-5.28706135972129
30
0
41
1
10
150.904905933454
20
-5.84916942238019
30
0
41
1
10
151.084085979103
20
-6.92888090370556
30
0
41
1
10
151.173676001928
20
-7.44638068137584
30
0
41
1
10
151.352856047577
20
-8.41478170554629
30
0
41
1
10
151.442446070401
20
-8.86559358806883
30
0
41
1
10
151.621626116051
20
-9.68326916252585
30
0
41
1
10
151.711216138875
20
-10.0500819790708
30
0
41
1
10
151.890396184524
20
-10.6893428301343
30
0
41
1
10
151.979986207349
20
-10.9617893689703
30
0
41
1
10
152.159166252998
20
-11.4096457206015
30
0
41
1
10
152.248756275823
20
-11.5850973290404
30
0
41
1
10
152.427936321472
20
-11.8433935342882
30
0
41
1
10
152.517526344296
20
-11.9263052192496
30
0
41
1
10
152.651911378533
20
-11.9885836207243
30
0
41
1
10
152.696706389945
20
-11.9990302318703
30
0
41
1
10
152.752700154211
20
-12.0001617626249
30
0
41
1
10
152.763898907064
20
-11.9997952979946
30
0
41
1
10
152.78629641277
20
-11.9978563999447
30
0
41
1
10
152.819892671329
20
-11.993137035329
30
0
41
1
10
152.853488929889
20
-11.9828723123867
30
0
41
1
10
152.965476458419
20
-11.9358591324355
30
0
41
1
10
153.055066481244
20
-11.8571383564843
30
0
41
1
10
153.234246526893
20
-11.6075867237987
30
0
41
1
10
153.323836549718
20
-11.4366881050143
30
0
41
1
10
153.503016595367
20
-10.9980012123383
30
0
41
1
10
153.592606618191
20
-10.7301694742762
30
0
41
1
10
153.77178666384
20
-10.0998401217737
30
0
41
1
10
153.861376686665
20
-9.73734168032968
30
0
41
1
10
154.040556732314
20
-8.92763452745504
30
0
41
1
10
154.130146755139
20
-8.48047445418311
30
0
41
1
10
154.309326800788
20
-7.51842537627195
30
0
41
1
10
154.398916823612
20
-7.00362438252543
30
0
41
1
10
154.578096869261
20
-5.92819510324171
30
0
41
1
10
154.667686892086
20
-5.36767041437682
30
0
41
1
10
154.846866937735
20
-4.22464057189327
30
0
41
1
10
154.93645696056
20
-3.64222763907705
30
0
41
1
10
155.115637006209
20
-2.47817450552949
30
0
41
1
10
155.205227029034
20
-1.89659610703569
30
0
41
1
10
155.339612063271
20
-1.03927304194309
30
0
41
1
10
155.384407074683
20
-0.7559733448619
30
0
41
1
10
155.451599591801
20
-0.336207686478787
30
0
41
1
10
155.473997097507
20
-0.197147375057227
30
0
41
1
10
155.507593356067
20
0.0099887333984441
30
0
41
1
10
155.51879210892
20
0.0788424613508596
30
0
41
1
10
155.541189614626
20
0.21734421356976
30
0
41
1
10
155.552388367479
20
0.286831742515261
30
0
41
1
10
155.653177143157
20
0.914228273207982
30
0
41
1
10
155.742767165981
20
1.48639864565106
30
0
41
1
10
155.832357188806
20
2.06477350281998
30
0
0
SPLINE
5
E6
100
AcDbEntity
8
1
62
256
6
ByLayer
370
13
48
1
60
0
100
AcDbSpline
70
4
71
3
72
41
73
37
40
0
40
0
40
0
40
0
40
0.0156250000000002
40
0.0156250000000002
40
0.0312500000000004
40
0.0625000000000007
40
0.0625000000000007
40
0.125000000000001
40
0.125000000000001
40
0.187500000000001
40
0.187500000000001
40
0.250000000000001
40
0.250000000000001
40
0.312500000000001
40
0.312500000000001
40
0.375000000000001
40
0.375000000000001
40
0.437500000000001
40
0.437500000000001
40
0.500000000000001
40
0.500000000000001
40
0.562500000000001
40
0.562500000000001
40
0.625000000000001
40
0.625000000000001
40
0.687500000000001
40
0.687500000000001
40
0.750000000000001
40
0.750000000000001
40
0.8125
40
0.8125
40
0.875
40
0.875
40
0.9375
40
0.9375
40
1
40
1
40
1
40
1
41
1
10
144.8
20
-0.0396482732309096
30
0
41
1
10
144.814398586583
20
0.0490669988054435
30
0
41
1
10
144.828797173166
20
0.137762347268989
30
0
41
1
10
144.857594346332
20
0.316295218880811
30
0
41
1
10
144.900790106081
20
0.585242537633718
30
0
41
1
10
144.94398586583
20
0.857376122624743
30
0
41
1
10
145.030377385327
20
1.40512913089165
30
0
41
1
10
145.087971731659
20
1.77497023077683
30
0
41
1
10
145.203160424323
20
2.51931032888311
30
0
41
1
10
145.260754770655
20
2.89380464206391
30
0
41
1
10
145.375943463318
20
3.64202547764847
30
0
41
1
10
145.43353780965
20
4.0157447317986
30
0
41
1
10
145.548726502314
20
4.75643477955788
30
0
41
1
10
145.606320848645
20
5.12339605374561
30
0
41
1
10
145.721509541309
20
5.84428801095089
30
0
41
1
10
145.779103887641
20
6.19820766541412
30
0
41
1
10
145.894292580304
20
6.88674430134637
30
0
41
1
10
145.951886926636
20
7.2213498328164
30
0
41
1
10
146.0670756193
20
7.86533789231541
30
0
41
1
10
146.124669965632
20
8.1747098206809
30
0
41
1
10
146.239858658295
20
8.7629978821264
30
0
41
1
10
146.297453004627
20
9.04190549335621
30
0
41
1
10
146.412641697291
20
9.56501112071706
30
0
41
1
10
146.470236043622
20
9.80920363959237
30
0
41
1
10
146.585424736286
20
10.2598178857342
30
0
41
1
10
146.643019082618
20
10.4662376292686
30
0
41
1
10
146.758207775282
20
10.8395513618009
30
0
41
1
10
146.815802121613
20
11.0064468432643
30
0
41
1
10
146.930990814277
20
11.3002700489539
30
0
41
1
10
146.988585160609
20
11.4272022312973
30
0
41
1
10
147.103773853272
20
11.6418781527881
30
0
41
1
10
147.161368199604
20
11.7296284798176
30
0
41
1
10
147.276556892268
20
11.8677721477488
30
0
41
1
10
147.3341512386
20
11.9181732361471
30
0
41
1
10
147.449339931263
20
11.9842831710841
30
0
41
1
10
147.506934277595
20
12
30
0
41
1
10
147.564528623927
20
12
30
0
0
SPLINE
5
E7
100
AcDbEntity
8
1
62
256
6
ByLayer
370
13
48
1
60
0
100
AcDbSpline
70
4
71
3
72
85
73
81
40
0
40
0
40
0
40
0
40
0.0312500000000001
40
0.0312500000000001
40
0.0625000000000001
40
0.0625000000000001
40
0.0937500000000001
40
0.0937500000000001
40
0.125
40
0.125
40
0.15625
40
0.15625
40
0.1875
40
0.1875
40
0.21875
40
0.21875
40
0.25
40
0.25
40
0.28125
40
0.28125
40
0.296875
40
0.296875
40
0.30078125
40
0.30078125
40
0.3046875
40
0.3046875
40
0.3125
40
0.3125
40
0.34375
40
0.34375
40
0.375
40
0.375
40
0.40625
40
0.40625
40
0.4375
40
0.4375
40
0.46875
40
0.46875
40
0.5
40
0.5
40
0.53125
40
0.53125
40
0.562500000000001
40
0.562500000000001
40
0.593750000000001
40
0.593750000000001
40
0.601562500000001
40
0.605468750000001
40
0.605468750000001
40
0.609375000000001
40
0.609375000000001
40
0.625000000000001
40
0.625000000000001
40
0.656250000000001
40
0.656250000000001
40
0.687500000000001
40
0.687500000000001
40
0.718750000000001
40
0.718750000000001
40
0.750000000000001
40
0.750000000000001
40
0.781250000000001
40
0.781250000000001
40
0.812500000000001
40
0.812500000000001
40
0.843750000000001
40
0.843750000000001
40
0.875000000000002
40
0.875000000000002
40
0.906250000000002
40
0.906250000000002
40
0.914062500000002
40
0.914062500000002
40
0.921875000000001
40
0.921875000000001
40
0.937500000000001
40
0.937500000000001
40
0.968750000000001
40
0.968750000000001
40
1
40
1
40
1
40
1
41
1
10
146.745372108441
20
12
30
0
41
1
10
146.840028203028
20
12
30
0
41
1
10
146.934684297615
20
11.9574427614609
30
0
41
1
10
147.123996486789
20
11.7735958310356
30
0
41
1
10
147.218652581376
20
11.6322119033248
30
0
41
1
10
147.407964770551
20
11.2423477271404
30
0
41
1
10
147.502620865138
20
10.9937955852601
30
0
41
1
10
147.691933054312
20
10.3892700753034
30
0
41
1
10
147.786589148899
20
10.0332766165793
30
0
41
1
10
147.975901338073
20
9.22307109098128
30
0
41
1
10
148.070557432661
20
8.76890708529118
30
0
41
1
10
148.259869621835
20
7.78071369274377
30
0
41
1
10
148.354525716422
20
7.24679202216319
30
0
41
1
10
148.543837905596
20
6.12419110353372
30
0
41
1
10
148.638494000183
20
5.53564740688131
30
0
41
1
10
148.827806189358
20
4.33187594888557
30
0
41
1
10
148.922462283945
20
3.71677179431407
30
0
41
1
10
149.111774473119
20
2.48687944667498
30
0
41
1
10
149.206430567706
20
1.87217369206903
30
0
41
1
10
149.348414709587
20
0.967406576748431
30
0
41
1
10
149.39574275688
20
0.668658581249247
30
0
41
1
10
149.454902815997
20
0.300200160634546
30
0
41
1
10
149.466734827821
20
0.2267563591478
30
0
41
1
10
149.490398851468
20
0.0803963418608191
30
0
41
1
10
149.502230863291
20
0.0076610882432249
30
0
41
1
10
149.537726898761
20
-0.211234266582466
30
0
41
1
10
149.561390922408
20
-0.358245200078443
30
0
41
1
10
149.679711040642
20
-1.09806395706977
30
0
41
1
10
149.774367135229
20
-1.70539710558938
30
0
41
1
10
149.963679324403
20
-2.93083034152679
30
0
41
1
10
150.05833541899
20
-3.54886944727929
30
0
41
1
10
150.247647608165
20
-4.77031018805081
30
0
41
1
10
150.342303702752
20
-5.37360325119113
30
0
41
1
10
150.531615891926
20
-6.5375227343267
30
0
41
1
10
150.626271986513
20
-7.09801406727701
30
0
41
1
10
150.815584175687
20
-8.14943331550845
30
0
41
1
10
150.910240270275
20
-8.64023686977922
30
0
41
1
10
151.099552459449
20
-9.53056172141035
30
0
41
1
10
151.194208554036
20
-9.93000697461207
30
0
41
1
10
151.38352074321
20
-10.6242162722249
30
0
41
1
10
151.478176837797
20
-10.9189721313788
30
0
41
1
10
151.667489026972
20
-11.4000386354797
30
0
41
1
10
151.762145121559
20
-11.5864023432416
30
0
41
1
10
151.951457310733
20
-11.8558330348928
30
0
41
1
10
152.04611340532
20
-11.9389885310251
30
0
41
1
10
152.164433523554
20
-11.9857639363107
30
0
41
1
10
152.199929559024
20
-11.9955273699761
30
0
41
1
10
152.235425594494
20
-11.9991407778487
30
0
41
1
10
152.259089618141
20
-12.0002127336804
30
0
41
1
10
152.270921629965
20
-12.0000844566024
30
0
41
1
10
152.330081689082
20
-11.9961003550901
30
0
41
1
10
152.377409736375
20
-11.9821615897628
30
0
41
1
10
152.519393878256
20
-11.9054036183703
30
0
41
1
10
152.614049972843
20
-11.8074566791214
30
0
41
1
10
152.803362162017
20
-11.5071775854956
30
0
41
1
10
152.898018256604
20
-11.304760238687
30
0
41
1
10
153.087330445779
20
-10.7915283200854
30
0
41
1
10
153.181986540366
20
-10.4806685031857
30
0
41
1
10
153.37129872954
20
-9.7556277108186
30
0
41
1
10
153.465954824127
20
-9.34146525926167
30
0
41
1
10
153.655267013302
20
-8.42446178976905
30
0
41
1
10
153.749923107889
20
-7.92170587722626
30
0
41
1
10
153.939235297063
20
-6.85015523384089
30
0
41
1
10
154.03389139165
20
-6.28148907143438
30
0
41
1
10
154.223203580824
20
-5.10543761244446
30
0
41
1
10
154.317859675411
20
-4.49818554771221
30
0
41
1
10
154.507171864586
20
-3.27287861040813
30
0
41
1
10
154.601827959173
20
-2.65492603013487
30
0
41
1
10
154.791140148347
20
-1.43307211528111
30
0
41
1
10
154.885796242934
20
-0.829224144313258
30
0
41
1
10
155.004116361168
20
-0.0953254992971324
30
0
41
1
10
155.027780384815
20
0.0497788257223135
30
0
41
1
10
155.075108432108
20
0.342907209794106
30
0
41
1
10
155.098772455755
20
0.490515193156057
30
0
41
1
10
155.169764526696
20
0.93607586783736
30
0
41
1
10
155.217092573989
20
1.23677711538554
30
0
41
1
10
155.35907671587
20
2.14627104978044
30
0
41
1
10
155.453732810457
20
2.76260821515081
30
0
41
1
10
155.643044999631
20
3.99195385688458
30
0
41
1
10
155.737701094218
20
4.60487265664256
30
0
41
1
10
155.832357188806
20
5.20246843538325
30
0
0
SPLINE
5
E8
100
AcDbEntity
8
1
62
256
6
ByLayer
370
13
48
1
60
0
100
AcDbSpline
70
4
71
3
72
22
73
18
40
0
40
0
40
0
40
0
40
0.125
40
0.125
40
0.25
40
0.25
40
0.375
40
0.375
40
0.5
40
0.5
40
0.625
40
0.625
40
0.75
40
0.75
40
0.875
40
0.875
40
1
40
1
40
1
40
1
41
1
10
144.8
20
3.05999095171001
30
0
41
1
10
144.894924405613
20
3.67667256223766
30
0
41
1
10
144.989848811227
20
4.29380145769045
30
0
41
1
10
145.179697622454
20
5.50203452602207
30
0
41
1
10
145.274622028067
20
6.09301393907492
30
0
41
1
10
145.464470839294
20
7.22064413104909
30
0
41
1
10
145.559395244907
20
7.7571573129795
30
0
41
1
10
145.749244056134
20
8.75039897906487
30
0
41
1
10
145.844168461747
20
9.20701755299012
30
0
41
1
10
146.034017272974
20
10.0217334146223
30
0
41
1
10
146.128941678587
20
10.3797811717784
30
0
41
1
10
146.318790489814
20
10.9878391256129
30
0
41
1
10
146.413714895428
20
11.2378691466462
30
0
41
1
10
146.603563706654
20
11.6300495881084
30
0
41
1
10
146.698488112268
20
11.7722726996691
30
0
41
1
10
146.888336923494
20
11.9572001304159
30
0
41
1
10
146.983261329108
20
12
30
0
41
1
10
147.078185734721
20
12
30
0
0
SPLINE
5
E9
100
AcDbEntity
8
1
62
256
6
ByLayer
370
13
48
1
60
0
100
AcDbSpline
70
4
71
3
72
88
73
84
40
0
40
0
40
0
40
0
40
0.0312500000000001
40
0.0312500000000001
40
0.0625000000000003
40
0.0625000000000003
40
0.0937500000000005
40
0.0937500000000005
40
0.125000000000001
40
0.125000000000001
40
0.156250000000001
40
0.156250000000001
40
0.187500000000001
40
0.187500000000001
40
0.218750000000001
40
0.218750000000001
40
0.250000000000001
40
0.250000000000001
40
0.281250000000001
40
0.281250000000001
40
0.285156250000001
40
0.285156250000001
40
0.289062500000001
40
0.289062500000001
40
0.296875000000001
40
0.296875000000001
40
0.312500000000002
40
0.312500000000002
40
0.343750000000002
40
0.343750000000002
40
0.375000000000001
40
0.375000000000001
40
0.406250000000001
40
0.406250000000001
40
0.437500000000001
40
0.437500000000001
40
0.468750000000001
40
0.468750000000001
40
0.500000000000001
40
0.500000000000001
40
0.531250000000001
40
0.531250000000001
40
0.562500000000001
40
0.562500000000001
40
0.570312500000001
40
0.570312500000001
40
0.574218750000001
40
0.574218750000001
40
0.578125000000001
40
0.578125000000001
40
0.593750000000001
40
0.593750000000001
40
0.625000000000001
40
0.625000000000001
40
0.656250000000002
40
0.656250000000002
40
0.687500000000002
40
0.687500000000002
40
0.718750000000002
40
0.718750000000002
40
0.750000000000002
40
0.750000000000002
40
0.781250000000002
40
0.781250000000002
40
0.812500000000002
40
0.812500000000002
40
0.843750000000002
40
0.843750000000002
40
0.859375000000002
40
0.859375000000002
40
0.863281250000002
40
0.863281250000002
40
0.867187500000002
40
0.867187500000002
40
0.875000000000003
40
0.875000000000003
40
0.906250000000002
40
0.906250000000002
40
0.937500000000001
40
0.937500000000001
40
0.968750000000001
40
0.968750000000001
40
1
40
1
40
1
40
1
41
1
10
146.259029219235
20
12
30
0
41
1
10
146.358751385585
20
12
30
0
41
1
10
146.458473551934
20
11.9527433443376
30
0
41
1
10
146.657917884634
20
11.7479292402746
30
0
41
1
10
146.757640050983
20
11.5902502394986
30
0
41
1
10
146.957084383683
20
11.15544805182
30
0
41
1
10
147.056806550032
20
10.8782372611148
30
0
41
1
10
147.256250882732
20
10.2054067787197
30
0
41
1
10
147.355973049082
20
9.80977460181057
30
0
41
1
10
147.555417381781
20
8.91296509133787
30
0
41
1
10
147.655139548131
20
8.41186874001841
30
0
41
1
10
147.85458388083
20
7.32783253943126
30
0
41
1
10
147.95430604718
20
6.74504683351771
30
0
41
1
10
148.153750379879
20
5.52852747524585
30
0
41
1
10
148.253472546229
20
4.89496989229463
30
0
41
1
10
148.452916878928
20
3.60982698432767
30
0
41
1
10
148.552639045278
20
2.95838504379654
30
0
41
1
10
148.752083377977
20
1.6674272126283
30
0
41
1
10
148.851805544327
20
1.02799027720312
30
0
41
1
10
148.96399298147
20
0.328583611932288
30
0
41
1
10
148.976458252264
20
0.251144235761302
30
0
41
1
10
149.001388793852
20
0.0968478578327563
30
0
41
1
10
149.013854064645
20
0.0201799811687522
30
0
41
1
10
149.051249877026
20
-0.210363432756338
30
0
41
1
10
149.076180418614
20
-0.365261302053199
30
0
41
1
10
149.150972043376
20
-0.833112796972245
30
0
41
1
10
149.200833126551
20
-1.14923899053991
30
0
41
1
10
149.350416376076
20
-2.10616345824627
30
0
41
1
10
149.450138542425
20
-2.75569862222301
30
0
41
1
10
149.649582875125
20
-4.05072396831429
30
0
41
1
10
149.749305041474
20
-4.69609698180918
30
0
41
1
10
149.948749374174
20
-5.95073387835131
30
0
41
1
10
150.048471540523
20
-6.55983021117245
30
0
41
1
10
150.247915873223
20
-7.70947166680554
30
0
41
1
10
150.347638039572
20
-8.24984578685638
30
0
41
1
10
150.547082372272
20
-9.23450510291735
30
0
41
1
10
150.646804538622
20
-9.67867243414381
30
0
41
1
10
150.846248871321
20
-10.4528310227834
30
0
41
1
10
150.94597103767
20
-10.7827939002003
30
0
41
1
10
151.14541537037
20
-11.3222086049701
30
0
41
1
10
151.24513753672
20
-11.5317193791485
30
0
41
1
10
151.444581869419
20
-11.8351426272292
30
0
41
1
10
151.544304035769
20
-11.9291672687232
30
0
41
1
10
151.668956743706
20
-11.9828503183498
30
0
41
1
10
151.693887285293
20
-11.9904102372056
30
0
41
1
10
151.731283097674
20
-11.9971813702513
30
0
41
1
10
151.743748368468
20
-11.9986770925543
30
0
41
1
10
151.768678910056
20
-12.0001800847071
30
0
41
1
10
151.781144180849
20
-12.0001916676065
30
0
41
1
10
151.843470534818
20
-11.9965520822334
30
0
41
1
10
151.893331617993
20
-11.9817269366597
30
0
41
1
10
152.042914867517
20
-11.8983720130415
30
0
41
1
10
152.142637033867
20
-11.7907281931057
30
0
41
1
10
152.342081366566
20
-11.4589243068177
30
0
41
1
10
152.441803532916
20
-11.2346562372568
30
0
41
1
10
152.641247865615
20
-10.6658453479452
30
0
41
1
10
152.740970031965
20
-10.3212529422162
30
0
41
1
10
152.940414364664
20
-9.51942276103114
30
0
41
1
10
153.040136531014
20
-9.06222507436539
30
0
41
1
10
153.239580863714
20
-8.05443990115924
30
0
41
1
10
153.339303030063
20
-7.50397944886572
30
0
41
1
10
153.538747362763
20
-6.3379932287333
30
0
41
1
10
153.638469529112
20
-5.72264117679896
30
0
41
1
10
153.837913861812
20
-4.45956869719961
30
0
41
1
10
153.937636028161
20
-3.81201167099133
30
0
41
1
10
154.137080360861
20
-2.51632078375698
30
0
41
1
10
154.236802527211
20
-1.86829599999376
30
0
41
1
10
154.386385776735
20
-0.915815682228555
30
0
41
1
10
154.43624685991
20
-0.601531501565773
30
0
41
1
10
154.498573213878
20
-0.214335684956239
30
0
41
1
10
154.511038484672
20
-0.137178323301953
30
0
41
1
10
154.53596902626
20
0.0165363068306306
30
0
41
1
10
154.548434297053
20
0.0931900695068748
30
0
41
1
10
154.585830109435
20
0.32460694702371
30
0
41
1
10
154.610760651022
20
0.480051715245935
30
0
41
1
10
154.735413358959
20
1.26234302307654
30
0
41
1
10
154.835135525309
20
1.90467414832636
30
0
41
1
10
155.034579858008
20
3.19804776240977
30
0
41
1
10
155.134302024358
20
3.84900273266788
30
0
41
1
10
155.333746357057
20
5.12920453273006
30
0
41
1
10
155.433468523407
20
5.75830162088045
30
0
41
1
10
155.632912856106
20
6.96188130999366
30
0
41
1
10
155.732635022456
20
7.53618736059596
30
0
41
1
10
155.832357188806
20
8.06802002691165
30
0
0
SPLINE
5
EA
100
AcDbEntity
8
1
62
256
6
ByLayer
370
13
48
1
60
0
100
AcDbSpline
70
4
71
3
72
22
73
18
40
0
40
0
40
0
40
0
40
0.125
40
0.125
40
0.25
40
0.25
40
0.375
40
0.375
40
0.5
40
0.5
40
0.625
40
0.625
40
0.75
40
0.75
40
0.875
40
0.875
40
1
40
1
40
1
40
1
41
1
10
144.8
20
6.15602975317447
30
0
41
1
10
144.874660118563
20
6.61102132632686
30
0
41
1
10
144.949320237126
20
7.05168674842287
30
0
41
1
10
145.098640474253
20
7.89129599584837
30
0
41
1
10
145.173300592816
20
8.29020077747705
30
0
41
1
10
145.322620829942
20
9.03500588527939
30
0
41
1
10
145.397280948505
20
9.38087733128319
30
0
41
1
10
145.546601185631
20
10.0112496197063
30
0
41
1
10
145.621261304195
20
10.2957369308029
30
0
41
1
10
145.770581541321
20
10.7985446509698
30
0
41
1
10
145.845241659884
20
11.0168682087763
30
0
41
1
10
145.99456189701
20
11.3862789037942
30
0
41
1
10
146.069222015574
20
11.5373832884139
30
0
41
1
10
146.2185422527
20
11.7746936542849
30
0
41
1
10
146.293202371263
20
11.8609257958414
30
0
41
1
10
146.442522608389
20
11.9735643738684
30
0
41
1
10
146.517182726952
20
12
30
0
41
1
10
146.591842845515
20
12
30
0
0
SPLINE
5
EB
100
AcDbEntity
8
1
62
256
6
ByLayer
370
13
48
1
60
0
100
AcDbSpline
70
4
71
3
72
129
73
125
40
0
40
0
40
0
40
0
40
0.0312499999999997
40
0.0312499999999997
40
0.0624999999999995
40
0.0624999999999995
40
0.0781249999999994
40
0.0781249999999994
40
0.0937499999999994
40
0.0937499999999994
40
0.109374999999999
40
0.109374999999999
40
0.124999999999999
40
0.124999999999999
40
0.140624999999999
40
0.140624999999999
40
0.156249999999999
40
0.156249999999999
40
0.171874999999999
40
0.171874999999999
40
0.187499999999999
40
0.187499999999999
40
0.203124999999999
40
0.203124999999999
40
0.218749999999999
40
0.218749999999999
40
0.249999999999999
40
0.249999999999999
40
0.265624999999999
40
0.265624999999999
40
0.2734375
40
0.2734375
40
0.27734375
40
0.27734375
40
0.28125
40
0.28125
40
0.3125
40
0.3125
40
0.328125000000001
40
0.328125000000001
40
0.343750000000001
40
0.343750000000001
40
0.359375000000001
40
0.359375000000001
40
0.375000000000002
40
0.375000000000002
40
0.390625000000002
40
0.390625000000002
40
0.406250000000002
40
0.406250000000002
40
0.421875000000002
40
0.421875000000002
40
0.437500000000003
40
0.437500000000003
40
0.453125000000003
40
0.453125000000003
40
0.468750000000003
40
0.468750000000003
40
0.484375000000003
40
0.484375000000003
40
0.500000000000004
40
0.500000000000004
40
0.531250000000004
40
0.531250000000004
40
0.546875000000005
40
0.546875000000005
40
0.550781250000005
40
0.550781250000005
40
0.554687500000005
40
0.562500000000005
40
0.562500000000005
40
0.593750000000004
40
0.593750000000004
40
0.609375000000004
40
0.609375000000004
40
0.625000000000004
40
0.625000000000004
40
0.640625000000004
40
0.640625000000004
40
0.656250000000004
40
0.656250000000004
40
0.671875000000003
40
0.671875000000003
40
0.687500000000003
40
0.687500000000003
40
0.703125000000003
40
0.703125000000003
40
0.718750000000003
40
0.718750000000003
40
0.734375000000003
40
0.734375000000003
40
0.750000000000003
40
0.750000000000003
40
0.765625000000003
40
0.765625000000003
40
0.781250000000003
40
0.781250000000003
40
0.812500000000002
40
0.812500000000002
40
0.820312500000002
40
0.820312500000002
40
0.824218750000002
40
0.824218750000002
40
0.828125000000002
40
0.828125000000002
40
0.843750000000002
40
0.843750000000002
40
0.875000000000002
40
0.875000000000002
40
0.890625000000002
40
0.890625000000002
40
0.906250000000001
40
0.906250000000001
40
0.921875000000001
40
0.921875000000001
40
0.937500000000001
40
0.937500000000001
40
0.953125000000001
40
0.953125000000001
40
0.96875
40
0.96875
40
0.984375
40
0.984375
40
1
40
1
40
1
40
1
41
1
10
145.772686330029
20
12
30
0
41
1
10
145.877474568142
20
12
30
0
41
1
10
145.982262806254
20
11.947793691758
30
0
41
1
10
146.191839282478
20
11.7208118927426
30
0
41
1
10
146.296627520591
20
11.5458817905293
30
0
41
1
10
146.453809877759
20
11.184173309997
30
0
41
1
10
146.506203996815
20
11.0471343903826
30
0
41
1
10
146.610992234927
20
10.7400685962477
30
0
41
1
10
146.663386353983
20
10.5700399000025
30
0
41
1
10
146.768174592096
20
10.1978165248502
30
0
41
1
10
146.820568711152
20
9.99562188365246
30
0
41
1
10
146.925356949264
20
9.56079430593309
30
0
41
1
10
146.97775106832
20
9.32816342635567
30
0
41
1
10
147.082539306432
20
8.83506576073648
30
0
41
1
10
147.134933425488
20
8.57460297037017
30
0
41
1
10
147.239721663601
20
8.02922722490069
30
0
41
1
10
147.292115782657
20
7.74431987910941
30
0
41
1
10
147.396904020769
20
7.15407854779002
30
0
41
1
10
147.449298139825
20
6.84875125929108
30
0
41
1
10
147.554086377937
20
6.22214454093449
30
0
41
1
10
147.606480496994
20
5.90087225229425
30
0
41
1
10
147.711268735106
20
5.24709085139881
30
0
41
1
10
147.763662854162
20
4.91458866635054
30
0
41
1
10
147.868451092274
20
4.24309004621784
30
0
41
1
10
147.92084521133
20
3.90409974976208
30
0
41
1
10
148.078027568499
20
2.88424505852942
30
0
41
1
10
148.182815806611
20
2.20074441609381
30
0
41
1
10
148.33999816378
20
1.19408155651098
30
0
41
1
10
148.392392282836
20
0.861568605650234
30
0
41
1
10
148.47098346142
20
0.369772765291828
30
0
41
1
10
148.497180520948
20
0.206998620271463
30
0
41
1
10
148.53647611024
20
-0.0351654403575594
30
0
41
1
10
148.549574640004
20
-0.115792007479968
30
0
41
1
10
148.575771699532
20
-0.27804769950933
30
0
41
1
10
148.588870229296
20
-0.359495080033554
30
0
41
1
10
148.706756997172
20
-1.09520068760787
30
0
41
1
10
148.811545235285
20
-1.76858093346465
30
0
41
1
10
148.968727592453
20
-2.78714264433495
30
0
41
1
10
149.021121711509
20
-3.12800668870193
30
0
41
1
10
149.125909949622
20
-3.80823707175122
30
0
41
1
10
149.178304068678
20
-4.14759860713872
30
0
41
1
10
149.28309230679
20
-4.82028001396711
30
0
41
1
10
149.335486425846
20
-5.15359384539448
30
0
41
1
10
149.440274663958
20
-5.80944695674782
30
0
41
1
10
149.492668783014
20
-6.13197936119849
30
0
41
1
10
149.597457021127
20
-6.76154328432912
30
0
41
1
10
149.649851140183
20
-7.06856765449922
30
0
41
1
10
149.754639378295
20
-7.66260841703124
30
0
41
1
10
149.807033497351
20
-7.94961804210021
30
0
41
1
10
149.911821735463
20
-8.49955280507845
30
0
41
1
10
149.964215854519
20
-8.76247220632044
30
0
41
1
10
150.069004092632
20
-9.26077063701942
30
0
41
1
10
150.121398211688
20
-9.49614550145196
30
0
41
1
10
150.2261864498
20
-9.93667008727928
30
0
41
1
10
150.278580568856
20
-10.141817561876
30
0
41
1
10
150.383368806968
20
-10.5200710241619
30
0
41
1
10
150.435762926025
20
-10.693176787377
30
0
41
1
10
150.540551164137
20
-11.0064361457614
30
0
41
1
10
150.592945283193
20
-11.1465914001563
30
0
41
1
10
150.697733521305
20
-11.3939224424584
30
0
41
1
10
150.750127640361
20
-11.5011014359653
30
0
41
1
10
150.90730999753
20
-11.7743416711791
30
0
41
1
10
151.012098235642
20
-11.8918414024762
30
0
41
1
10
151.16928059281
20
-11.9816125773879
30
0
41
1
10
151.221674711867
20
-11.9971962549266
30
0
41
1
10
151.287167360687
20
-12.0002678959521
30
0
41
1
10
151.300265890451
20
-12.0000685609453
30
0
41
1
10
151.326462949979
20
-11.9980279322965
30
0
41
1
10
151.365758539271
20
-11.9924935953209
30
0
41
1
10
151.405054128563
20
-11.9793589957926
30
0
41
1
10
151.536039426203
20
-11.91793421232
30
0
41
1
10
151.640827664316
20
-11.8120207707253
30
0
41
1
10
151.798010021484
20
-11.5568679416642
30
0
41
1
10
151.85040414054
20
-11.4558324933702
30
0
41
1
10
151.955192378652
20
-11.2208773678897
30
0
41
1
10
152.007586497709
20
-11.0869542432974
30
0
41
1
10
152.112374735821
20
-10.7860887493656
30
0
41
1
10
152.164768854877
20
-10.6191443989834
30
0
41
1
10
152.269557092989
20
-10.252973738204
30
0
41
1
10
152.321951212045
20
-10.0537472802036
30
0
41
1
10
152.426739450157
20
-9.62465520589382
30
0
41
1
10
152.479133569214
20
-9.39479145596522
30
0
41
1
10
152.583921807326
20
-8.90694782673802
30
0
41
1
10
152.636315926382
20
-8.64897177085226
30
0
41
1
10
152.741104164494
20
-8.10822097222524
30
0
41
1
10
152.79349828355
20
-7.82545170671725
30
0
41
1
10
152.898286521662
20
-7.23908542201923
30
0
41
1
10
152.950680640719
20
-6.93549502381427
30
0
41
1
10
153.055468878831
20
-6.31192726377912
30
0
41
1
10
153.107862997887
20
-5.99195702996735
30
0
41
1
10
153.212651235999
20
-5.34033144739681
30
0
41
1
10
153.265045355055
20
-5.0086830724309
30
0
41
1
10
153.369833593168
20
-4.33845002948013
30
0
41
1
10
153.422227712224
20
-3.9998715950062
30
0
41
1
10
153.527015950336
20
-3.3203739406552
30
0
41
1
10
153.579410069392
20
-2.97945977880835
30
0
41
1
10
153.736592426561
20
-1.95961304502157
30
0
41
1
10
153.841380664673
20
-1.28385834681461
30
0
41
1
10
153.972365962313
20
-0.462054366705303
30
0
41
1
10
153.998563021841
20
-0.298816617606263
30
0
41
1
10
154.037858611133
20
-0.0559102331889108
30
0
41
1
10
154.050957140897
20
0.0245305779845921
30
0
41
1
10
154.077154200425
20
0.186299163742064
30
0
41
1
10
154.090252730189
20
0.267510917916098
30
0
41
1
10
154.15574537901
20
0.675099933564667
30
0
41
1
10
154.208139498066
20
1.00609064193677
30
0
41
1
10
154.365321855234
20
2.0091606575094
30
0
41
1
10
154.470110093346
20
2.69157485682243
30
0
41
1
10
154.627292450515
20
3.71229485310582
30
0
41
1
10
154.679686569571
20
4.05198723127896
30
0
41
1
10
154.784474807683
20
4.72576893455269
30
0
41
1
10
154.836868926739
20
5.0598523218332
30
0
41
1
10
154.941657164851
20
5.71769300766829
30
0
41
1
10
154.994051283908
20
6.04144348751467
30
0
41
1
10
155.09883952202
20
6.67388247815427
30
0
41
1
10
155.151233641076
20
6.98256383901528
30
0
41
1
10
155.256021879188
20
7.58032768198146
30
0
41
1
10
155.308415998244
20
7.86940333236254
30
0
41
1
10
155.413204236357
20
8.42383013373578
30
0
41
1
10
155.465598355413
20
8.68917542556434
30
0
41
1
10
155.570386593525
20
9.19262005325379
30
0
41
1
10
155.622780712581
20
9.43071505784857
30
0
41
1
10
155.727568950693
20
9.8768967023214
30
0
41
1
10
155.779963069749
20
10.0849809064699
30
0
41
1
10
155.832357188806
20
10.2771106120249
30
0
0
SPLINE
5
EC
100
AcDbEntity
8
1
62
256
6
ByLayer
370
13
48
1
60
0
100
AcDbSpline
70
4
71
3
72
22
73
18
40
0
40
0
40
0
40
0
40
0.125
40
0.125
40
0.25
40
0.25
40
0.375
40
0.375
40
0.5
40
0.5
40
0.625
40
0.625
40
0.75
40
0.75
40
0.875
40
0.875
40
1
40
1
40
1
40
1
41
1
10
144.8
20
8.85170253454626
30
0
41
1
10
144.854395831513
20
9.11633210474312
30
0
41
1
10
144.908791663026
20
9.36647308552787
30
0
41
1
10
145.017583326052
20
9.83460730285213
30
0
41
1
10
145.071979157565
20
10.0525974114963
30
0
41
1
10
145.18077082059
20
10.4542425809966
30
0
41
1
10
145.235166652103
20
10.6378970446935
30
0
41
1
10
145.343958315129
20
10.9697341177831
30
0
41
1
10
145.398354146642
20
11.1179185214695
30
0
41
1
10
145.507145809668
20
11.3787103640209
30
0
41
1
10
145.561541641181
20
11.4913215723143
30
0
41
1
10
145.670333304207
20
11.6818083061346
30
0
41
1
10
145.72472913572
20
11.759688982685
30
0
41
1
10
145.833520798745
20
11.8823660887088
30
0
41
1
10
145.887916630258
20
11.9271683961629
30
0
41
1
10
145.996708293284
20
11.985982355119
30
0
41
1
10
146.051104124797
20
12
30
0
41
1
10
146.10549995631
20
12
30
0
0
SPLINE
5
ED
100
AcDbEntity
8
1
62
256
6
ByLayer
370
13
48
1
60
0
100
AcDbSpline
70
4
71
3
72
145
73
141
40
0
40
0
40
0
40
0
40
0.0156249999999999
40
0.0156249999999999
40
0.0312499999999997
40
0.0312499999999997
40
0.0468749999999996
40
0.0468749999999996
40
0.0624999999999994
40
0.0624999999999994
40
0.0781249999999993
40
0.0781249999999993
40
0.0937499999999991
40
0.0937499999999991
40
0.109374999999999
40
0.109374999999999
40
0.124999999999999
40
0.124999999999999
40
0.140624999999999
40
0.140624999999999
40
0.156249999999998
40
0.156249999999998
40
0.171874999999998
40
0.171874999999998
40
0.187499999999998
40
0.187499999999998
40
0.203124999999998
40
0.203124999999998
40
0.218749999999998
40
0.218749999999998
40
0.234374999999998
40
0.234374999999998
40
0.249999999999997
40
0.249999999999997
40
0.257812499999997
40
0.257812499999997
40
0.261718749999997
40
0.261718749999997
40
0.265624999999997
40
0.265624999999997
40
0.281249999999998
40
0.281249999999998
40
0.296874999999998
40
0.296874999999998
40
0.312499999999998
40
0.312499999999998
40
0.328124999999998
40
0.328124999999998
40
0.343749999999999
40
0.343749999999999
40
0.359374999999999
40
0.359374999999999
40
0.374999999999999
40
0.374999999999999
40
0.390624999999999
40
0.390624999999999
40
0.406249999999999
40
0.406249999999999
40
0.421875
40
0.421875
40
0.4375
40
0.4375
40
0.453125
40
0.453125
40
0.46875
40
0.46875
40
0.484375
40
0.484375
40
0.500000000000001
40
0.500000000000001
40
0.515625000000001
40
0.515625000000001
40
0.519531250000001
40
0.519531250000001
40
0.523437500000001
40
0.523437500000001
40
0.531250000000001
40
0.531250000000001
40
0.546875
40
0.546875
40
0.5625
40
0.5625
40
0.578125
40
0.578125
40
0.59375
40
0.59375
40
0.609374999999999
40
0.609374999999999
40
0.624999999999999
40
0.624999999999999
40
0.640624999999999
40
0.640624999999999
40
0.656249999999999
40
0.656249999999999
40
0.671874999999999
40
0.671874999999999
40
0.687499999999999
40
0.687499999999999
40
0.703124999999998
40
0.703124999999998
40
0.718749999999998
40
0.718749999999998
40
0.734374999999998
40
0.734374999999998
40
0.749999999999998
40
0.749999999999998
40
0.765624999999998
40
0.765624999999998
40
0.781249999999998
40
0.781249999999998
40
0.785156249999998
40
0.785156249999998
40
0.789062499999997
40
0.796874999999997
40
0.796874999999997
40
0.812499999999998
40
0.812499999999998
40
0.828124999999998
40
0.828124999999998
40
0.843749999999998
40
0.843749999999998
40
0.859374999999998
40
0.859374999999998
40
0.874999999999998
40
0.874999999999998
40
0.890624999999999
40
0.890624999999999
40
0.906249999999999
40
0.906249999999999
40
0.921874999999999
40
0.921874999999999
40
0.937499999999999
40
0.937499999999999
40
0.953124999999999
40
0.953124999999999
40
0.96875
40
0.96875
40
0.984375
40
0.984375
40
1
40
1
40
1
40
1
41
1
10
145.286343440823
20
12
30
0
41
1
10
145.341270595761
20
12
30
0
41
1
10
145.396197750698
20
11.9857068512513
30
0
41
1
10
145.506052060573
20
11.9257116619188
30
0
41
1
10
145.560979215511
20
11.880003328391
30
0
41
1
10
145.670833525385
20
11.7548242617625
30
0
41
1
10
145.725760680323
20
11.6753473670177
30
0
41
1
10
145.835614990198
20
11.4809475909869
30
0
41
1
10
145.890542145135
20
11.3660193355502
30
0
41
1
10
146.00039645501
20
11.0998788654135
30
0
41
1
10
146.055323609947
20
10.948662764287
30
0
41
1
10
146.165177919822
20
10.6100958814717
30
0
41
1
10
146.220105074759
20
10.422743330998
30
0
41
1
10
146.329959384634
20
10.0131272372504
30
0
41
1
10
146.384886539572
20
9.7908644759045
30
0
41
1
10
146.494740849446
20
9.31374229974455
30
0
41
1
10
146.549668004384
20
9.05888634673082
30
0
41
1
10
146.659522314259
20
8.51991929104344
30
0
41
1
10
146.714449469196
20
8.23581410032028
30
0
41
1
10
146.824303779071
20
7.6425753797196
30
0
41
1
10
146.879230934008
20
7.33344964185835
30
0
41
1
10
146.989085243883
20
6.69507386105215
30
0
41
1
10
147.044012398821
20
6.36583267221988
30
0
41
1
10
147.153866708695
20
5.69255418415935
30
0
41
1
10
147.208793863633
20
5.34852587932957
30
0
41
1
10
147.318648173508
20
4.65115416272729
30
0
41
1
10
147.373575328445
20
4.29781901782584
30
0
41
1
10
147.48342963832
20
3.58720524514655
30
0
41
1
10
147.538356793257
20
3.22993347501736
30
0
41
1
10
147.648211103132
20
2.51647938895803
30
0
41
1
10
147.703138258069
20
2.16030210441039
30
0
41
1
10
147.812992567944
20
1.45355154147569
30
0
41
1
10
147.867919722882
20
1.10298133185333
30
0
41
1
10
147.950310455288
20
0.584234810637639
30
0
41
1
10
147.977774032756
20
0.4124988273675
30
0
41
1
10
148.01896939896
20
0.156977885597314
30
0
41
1
10
148.032701187694
20
0.0722176239779344
30
0
41
1
10
148.060164765163
20
-0.0968378379731973
30
0
41
1
10
148.073896553897
20
-0.181734174165001
30
0
41
1
10
148.142555497569
20
-0.607937929612348
30
0
41
1
10
148.197482652506
20
-0.954439086940027
30
0
41
1
10
148.307336962381
20
-1.65497790952486
30
0
41
1
10
148.362264117318
20
-2.00901341457575
30
0
41
1
10
148.472118427193
20
-2.72040325868505
30
0
41
1
10
148.527045582131
20
-3.07775349931845
30
0
41
1
10
148.636899892005
20
-3.79097138298073
30
0
41
1
10
148.691827046943
20
-4.14683300269093
30
0
41
1
10
148.801681356818
20
-4.85184057900437
30
0
41
1
10
148.856608511755
20
-5.20097886925203
30
0
41
1
10
148.96646282163
20
-5.88708181553531
30
0
41
1
10
149.021389976567
20
-6.22403772390831
30
0
41
1
10
149.131244286442
20
-6.88034169878475
30
0
41
1
10
149.186171441379
20
-7.19968072922777
30
0
41
1
10
149.296025751254
20
-7.81561054144851
30
0
41
1
10
149.350952906192
20
-8.1121929138406
30
0
41
1
10
149.460807216067
20
-8.67802811179735
30
0
41
1
10
149.515734371004
20
-8.94727404180574
30
0
41
1
10
149.625588680879
20
-9.45464710040523
30
0
41
1
10
149.680515835816
20
-9.69276955073272
30
0
41
1
10
149.790370145691
20
-10.1350745493981
30
0
41
1
10
149.845297300628
20
-10.3392550355193
30
0
41
1
10
149.955151610503
20
-10.7119254919244
30
0
41
1
10
150.010078765441
20
-10.8804160549693
30
0
41
1
10
150.119933075315
20
-11.1810483856431
30
0
41
1
10
150.174860230253
20
-11.3131931016689
30
0
41
1
10
150.284714540128
20
-11.5415132164622
30
0
41
1
10
150.339641695065
20
-11.6376933675959
30
0
41
1
10
150.44949600494
20
-11.7953837371778
30
0
41
1
10
150.504423159877
20
-11.8568998295216
30
0
41
1
10
150.614277469752
20
-11.9473192490993
30
0
41
1
10
150.669204624689
20
-11.9762288821425
30
0
41
1
10
150.737863568361
20
-11.9936264483734
30
0
41
1
10
150.751595357096
20
-11.9961701211381
30
0
41
1
10
150.779058934564
20
-11.9994308282968
30
0
41
1
10
150.792790723299
20
-12.0001482674585
30
0
41
1
10
150.833986089502
20
-11.9996276635498
30
0
41
1
10
150.86144966697
20
-11.9957011892006
30
0
41
1
10
150.943840399377
20
-11.9726381390547
30
0
41
1
10
150.998767554314
20
-11.9422021732635
30
0
41
1
10
151.108621864189
20
-11.848615428055
30
0
41
1
10
151.163549019126
20
-11.7854583489418
30
0
41
1
10
151.273403329001
20
-11.6244038999489
30
0
41
1
10
151.328330483938
20
-11.5265006943131
30
0
41
1
10
151.438184793813
20
-11.2946934921629
30
0
41
1
10
151.493111948751
20
-11.1607848156575
30
0
41
1
10
151.602966258625
20
-10.8566316324676
30
0
41
1
10
151.657893413563
20
-10.6863842806098
30
0
41
1
10
151.767747723438
20
-10.3102596277854
30
0
41
1
10
151.822674878375
20
-10.104381858533
30
0
41
1
10
151.93252918825
20
-9.65879479463024
30
0
41
1
10
151.987456343187
20
-9.41908769305928
30
0
41
1
10
152.097310653062
20
-8.90870786761423
30
0
41
1
10
152.152237807999
20
-8.63803994167515
30
0
41
1
10
152.262092117874
20
-8.06956640931139
30
0
41
1
10
152.317019272812
20
-7.771767790242
30
0
41
1
10
152.426873582686
20
-7.15364411672607
30
0
41
1
10
152.481800737624
20
-6.83332752344796
30
0
41
1
10
152.591655047499
20
-6.17532768713176
30
0
41
1
10
152.646582202436
20
-5.8376534868504
30
0
41
1
10
152.756436512311
20
-5.15038062121207
30
0
41
1
10
152.811363667248
20
-4.80079066780414
30
0
41
1
10
152.921217977123
20
-4.0951410507067
30
0
41
1
10
152.976145132061
20
-3.73908898439905
30
0
41
1
10
153.085999441935
20
-3.025734946048
30
0
41
1
10
153.140926596873
20
-2.66843890807004
30
0
41
1
10
153.250780906748
20
-1.95737691885174
30
0
41
1
10
153.305708061685
20
-1.60361497024274
30
0
41
1
10
153.41556237156
20
-0.903811507976513
30
0
41
1
10
153.470489526497
20
-0.557772064079671
30
0
41
1
10
153.539148470169
20
-0.132241681300286
30
0
41
1
10
153.552880258903
20
-0.047653134612716
30
0
41
1
10
153.580343836372
20
0.121545018978452
30
0
41
1
10
153.621539202575
20
0.376440509112939
30
0
41
1
10
153.662734568778
20
0.634416690767864
30
0
41
1
10
153.745125301184
20
1.15384314532073
30
0
41
1
10
153.800052456122
20
1.50478056447056
30
0
41
1
10
153.909906765997
20
2.21206057008169
30
0
41
1
10
153.964833920934
20
2.56839999323381
30
0
41
1
10
154.074688230809
20
3.28194491533134
30
0
41
1
10
154.129615385746
20
3.63914528887881
30
0
41
1
10
154.239469695621
20
4.34936175708907
30
0
41
1
10
154.294396850558
20
4.70237091374653
30
0
41
1
10
154.404251160433
20
5.39882513576484
30
0
41
1
10
154.459178315371
20
5.74226188127074
30
0
41
1
10
154.569032625245
20
6.41409284197945
30
0
41
1
10
154.623959780183
20
6.74247804852413
30
0
41
1
10
154.733814090058
20
7.37889173070081
30
0
41
1
10
154.788741244995
20
7.68691138270322
30
0
41
1
10
154.89859555487
20
8.27771501109541
30
0
41
1
10
154.953522709807
20
8.56049126935179
30
0
41
1
10
155.063377019682
20
9.09661611369009
30
0
41
1
10
155.118304174619
20
9.3499588961127
30
0
41
1
10
155.228158484494
20
9.8239175446468
30
0
41
1
10
155.283085639432
20
10.0445300767245
30
0
41
1
10
155.392939949306
20
10.4507606678775
30
0
41
1
10
155.447867104244
20
10.636378074635
30
0
41
1
10
155.557721414119
20
10.9714428205498
30
0
41
1
10
155.612648569056
20
11.120892043387
30
0
41
1
10
155.722502878931
20
11.3835174247969
30
0
41
1
10
155.777430033868
20
11.4966975576517
30
0
41
1
10
155.832357188806
20
11.5921810349133
30
0
0
SPLINE
5
EE
100
AcDbEntity
8
1
62
256
6
ByLayer
370
13
48
1
60
0
100
AcDbSpline
70
4
71
3
72
10
73
6
40
0
40
0
40
0
40
0
40
0.5
40
0.5
40
1
40
1
40
1
40
1
41
1
10
155.499544114143
20
12
30
0
41
1
10
155.55501295992
20
12
30
0
41
1
10
155.610481805697
20
11.9854232007578
30
0
41
1
10
155.721419497251
20
11.924211140245
30
0
41
1
10
155.776888343029
20
11.877569268448
30
0
41
1
10
155.832357188806
20
11.8136905714437
30
0
0
SPLINE
5
EF
100
AcDbEntity
8
1
62
256
6
ByLayer
370
13
48
1
60
0
100
AcDbSpline
70
4
71
3
72
14
73
10
40
0
40
0
40
0
40
0
40
0.25
40
0.25
40
0.5
40
0.5
40
0.75
40
0.75
40
1
40
1
40
1
40
1
41
1
10
144.8
20
10.7939744945485
30
0
41
1
10
144.868263088925
20
11.0030669747303
30
0
41
1
10
144.936526177851
20
11.1842033910104
30
0
41
1
10
145.073052355701
20
11.4905574111628
30
0
41
1
10
145.141315444627
20
11.6157878842028
30
0
41
1
10
145.277841622477
20
11.8126129071914
30
0
41
1
10
145.346104711403
20
11.8842247957849
30
0
41
1
10
145.482630889254
20
11.9779090018553
30
0
41
1
10
145.550893978179
20
12
30
0
41
1
10
145.619157067104
20
12
30
0
0
SPLINE
5
F0
100
AcDbEntity
8
1
62
256
6
ByLayer
370
13
48
1
60
0
100
AcDbSpline
70
4
71
3
72
134
73
130
40
0
40
0
40
0
40
0
40
0.015625
40
0.015625
40
0.03125
40
0.03125
40
0.046875
40
0.046875
40
0.0625000000000001
40
0.0625000000000001
40
0.0781250000000001
40
0.0781250000000001
40
0.0937500000000001
40
0.0937500000000001
40
0.109375
40
0.109375
40
0.125
40
0.125
40
0.140625
40
0.140625
40
0.15625
40
0.15625
40
0.171875
40
0.171875
40
0.1875
40
0.1875
40
0.203125
40
0.203125
40
0.21875
40
0.21875
40
0.234375
40
0.234375
40
0.25
40
0.25
40
0.265625
40
0.265625
40
0.28125
40
0.28125
40
0.296875
40
0.296875
40
0.3125
40
0.3125
40
0.328125
40
0.328125
40
0.34375
40
0.34375
40
0.359375
40
0.359375
40
0.375
40
0.375
40
0.390625
40
0.390625
40
0.40625
40
0.40625
40
0.421875
40
0.421875
40
0.4375
40
0.4375
40
0.453125
40
0.453125
40
0.46875
40
0.46875
40
0.484375
40
0.484375
40
0.5
40
0.5
40
0.515625
40
0.515625
40
0.53125
40
0.53125
40
0.546875
40
0.546875
40
0.5625
40
0.5625
40
0.578125000000001
40
0.578125000000001
40
0.593750000000001
40
0.593750000000001
40
0.609375000000001
40
0.609375000000001
40
0.625000000000001
40
0.625000000000001
40
0.640625000000001
40
0.640625000000001
40
0.656250000000001
40
0.656250000000001
40
0.671875000000001
40
0.671875000000001
40
0.687500000000001
40
0.687500000000001
40
0.703125000000001
40
0.703125000000001
40
0.718750000000001
40
0.718750000000001
40
0.734375000000001
40
0.734375000000001
40
0.750000000000001
40
0.750000000000001
40
0.765625000000001
40
0.765625000000001
40
0.781250000000001
40
0.781250000000001
40
0.796875000000001
40
0.796875000000001
40
0.812500000000001
40
0.812500000000001
40
0.828125000000001
40
0.828125000000001
40
0.843750000000001
40
0.843750000000001
40
0.859375000000001
40
0.859375000000001
40
0.875000000000001
40
0.875000000000001
40
0.890625000000001
40
0.890625000000001
40
0.906250000000001
40
0.906250000000001
40
0.921875
40
0.921875
40
0.9375
40
0.9375
40
0.953125
40
0.953125
40
0.96875
40
0.96875
40
0.984375
40
0.984375
40
1
40
1
40
1
40
1
41
1
10
144.800000551618
20
12
30
0
41
1
10
144.857460742437
20
12
30
0
41
1
10
144.914920933255
20
11.9843564008018
30
0
41
1
10
145.029841314893
20
11.9185614157765
30
0
41
1
10
145.087301505711
20
11.868402140351
30
0
41
1
10
145.202221887349
20
11.7309267428894
30
0
41
1
10
145.259682078167
20
11.6436029598578
30
0
41
1
10
145.374602459805
20
11.4299721327648
30
0
41
1
10
145.432062650623
20
11.3036585655958
30
0
41
1
10
145.546983032261
20
11.0112608353412
30
0
41
1
10
145.60444322308
20
10.8451722418484
30
0
41
1
10
145.719363604717
20
10.4736442007117
30
0
41
1
10
145.776823795536
20
10.2682032399513
30
0
41
1
10
145.891744177173
20
9.81968943295877
30
0
41
1
10
145.949204367992
20
9.57661849797447
30
0
41
1
10
146.064124749629
20
9.05585855061975
30
0
41
1
10
146.121584940448
20
8.77817491774718
30
0
41
1
10
146.236505322085
20
8.19238853367364
30
0
41
1
10
146.293965512904
20
7.88429415739984
30
0
41
1
10
146.408885894541
20
7.24286174211548
30
0
41
1
10
146.46634608536
20
6.90953414897794
30
0
41
1
10
146.581266466997
20
6.2235009613153
30
0
41
1
10
146.638726657816
20
5.87080667935587
30
0
41
1
10
146.753647039453
20
5.15226473958245
30
0
41
1
10
146.811107230272
20
4.78642800799963
30
0
41
1
10
146.926027611909
20
4.04784635093233
30
0
41
1
10
146.983487802728
20
3.67511088817039
30
0
41
1
10
147.098408184365
20
2.92868772364363
30
0
41
1
10
147.155868375184
20
2.5550072802009
30
0
41
1
10
147.270788756822
20
1.81210753778007
30
0
41
1
10
147.32824894764
20
1.44289295387023
30
0
41
1
10
147.443169329277
20
0.713615196549654
30
0
41
1
10
147.500629520096
20
0.353554231799052
30
0
41
1
10
147.615549901734
20
-0.353552534742818
30
0
41
1
10
147.673010092552
20
-0.71361346081963
30
0
41
1
10
147.78793047419
20
-1.44289118906704
30
0
41
1
10
147.845390665008
20
-1.81210576187067
30
0
41
1
10
147.960311046646
20
-2.55500549019152
30
0
41
1
10
148.017771237464
20
-2.92868593064463
30
0
41
1
10
148.132691619102
20
-3.67510909833817
30
0
41
1
10
148.19015180992
20
-4.04784456726043
30
0
41
1
10
148.305072191558
20
-4.78642624647946
30
0
41
1
10
148.362532382376
20
-5.1522629940568
30
0
41
1
10
148.477452764014
20
-5.87080497588008
30
0
41
1
10
148.534912954832
20
-6.22349928389647
30
0
41
1
10
148.64983333647
20
-6.90953253343727
30
0
41
1
10
148.707293527289
20
-7.24286016239572
30
0
41
1
10
148.822213908926
20
-7.88429265824379
30
0
41
1
10
148.879674099745
20
-8.19238707925805
30
0
41
1
10
148.994594481382
20
-8.77817356038784
30
0
41
1
10
149.052054672201
20
-9.05585724557207
30
0
41
1
10
149.166975053838
20
-9.57661730337409
30
0
41
1
10
149.224435244657
20
-9.81968829648878
30
0
41
1
10
149.339355626294
20
-10.2682022235547
30
0
41
1
10
149.396815817113
20
-10.4736432462524
30
0
41
1
10
149.51173619875
20
-10.8451714129727
30
0
41
1
10
149.569196389569
20
-11.0112600701065
30
0
41
1
10
149.684116771206
20
-11.303657927321
30
0
41
1
10
149.741576962025
20
-11.429971557805
30
0
41
1
10
149.856497343662
20
-11.6436025093893
30
0
41
1
10
149.913957534481
20
-11.7309263535946
30
0
41
1
10
150.028877916118
20
-11.8684018697636
30
0
41
1
10
150.086338106937
20
-11.9185612027217
30
0
41
1
10
150.201258488574
20
-11.9843562980405
30
0
41
1
10
150.258718679393
20
-11.9999999499999
30
0
41
1
10
150.373639061031
20
-12.0000000499999
30
0
41
1
10
150.431099251849
20
-11.9843565035629
30
0
41
1
10
150.546019633487
20
-11.9185616288311
30
0
41
1
10
150.603479824305
20
-11.8684024109382
30
0
41
1
10
150.718400205943
20
-11.7309271321839
30
0
41
1
10
150.775860396761
20
-11.643603410326
30
0
41
1
10
150.890780778399
20
-11.4299727077243
30
0
41
1
10
150.948240969217
20
-11.3036592038702
30
0
41
1
10
151.063161350855
20
-11.0112616005756
30
0
41
1
10
151.120621541673
20
-10.8451730707238
30
0
41
1
10
151.235541923311
20
-10.4736451551706
30
0
41
1
10
151.293002114129
20
-10.2682042563476
30
0
41
1
10
151.407922495767
20
-9.81969056942847
30
0
41
1
10
151.465382686586
20
-9.57661969257452
30
0
41
1
10
151.580303068223
20
-9.05585985566717
30
0
41
1
10
151.637763259041
20
-8.77817627510626
30
0
41
1
10
151.752683640679
20
-8.19238998808902
30
0
41
1
10
151.810143831498
20
-7.88429565655568
30
0
41
1
10
151.925064213135
20
-7.24286332183507
30
0
41
1
10
151.982524403954
20
-6.90953576451841
30
0
41
1
10
152.097444785591
20
-6.223502638734
30
0
41
1
10
152.15490497641
20
-5.87080838283154
30
0
41
1
10
152.269825358047
20
-5.15226648510802
30
0
41
1
10
152.327285548866
20
-4.78642976951969
30
0
41
1
10
152.442205930503
20
-4.04784813460421
30
0
41
1
10
152.499666121322
20
-3.67511267800262
30
0
41
1
10
152.614586502959
20
-2.92868951664266
30
0
41
1
10
152.672046693778
20
-2.55500907021028
30
0
41
1
10
152.786967075415
20
-1.81210931368949
30
0
41
1
10
152.844427266234
20
-1.44289471867347
30
0
41
1
10
152.959347647871
20
-0.713616932279763
30
0
41
1
10
153.01680783869
20
-0.353555949566044
30
0
41
1
10
153.131728220327
20
0.35355085839717
30
0
41
1
10
153.189188411146
20
0.713611725089692
30
0
41
1
10
153.304108792783
20
1.44288942426391
30
0
41
1
10
153.361568983602
20
1.81210398596133
30
0
41
1
10
153.476489365239
20
2.55500370018214
30
0
41
1
10
153.533949556058
20
2.92868413764563
30
0
41
1
10
153.648869937696
20
3.67510730850592
30
0
41
1
10
153.706330128514
20
4.04784278358849
30
0
41
1
10
153.821250510151
20
4.78642448495927
30
0
41
1
10
153.87871070097
20
5.15226124853103
30
0
41
1
10
153.993631082608
20
5.87080327240417
30
0
41
1
10
154.051091273426
20
6.22349760647748
30
0
41
1
10
154.166011655064
20
6.90953091789646
30
0
41
1
10
154.223471845882
20
7.24285858267575
30
0
41
1
10
154.33839222752
20
7.88429115908752
30
0
41
1
10
154.395852418338
20
8.19238562484227
30
0
41
1
10
154.510772799976
20
8.77817220302828
30
0
41
1
10
154.568232990795
20
9.05585594052414
30
0
41
1
10
154.683153372432
20
9.57661610877346
30
0
41
1
10
154.740613563251
20
9.81968716001853
30
0
41
1
10
154.855533944888
20
10.2682012071578
30
0
41
1
10
154.912994135707
20
10.4736422917929
30
0
41
1
10
155.027914517344
20
10.8451705840967
30
0
41
1
10
155.085374708163
20
11.0112593048715
30
0
41
1
10
155.2002950898
20
11.303657289046
30
0
41
1
10
155.257755280619
20
11.429970982845
30
0
41
1
10
155.372675662256
20
11.6436020589205
30
0
41
1
10
155.430135853075
20
11.7309259642995
30
0
41
1
10
155.545056234712
20
11.8684015991759
30
0
41
1
10
155.602516425531
20
11.9185609896665
30
0
41
1
10
155.717436807168
20
11.9843561952789
30
0
41
1
10
155.774896997987
20
11.9999998999995
30
0
41
1
10
155.832357188806
20
11.9999999999995
30
0
0
SPLINE
5
F1
100
AcDbEntity
8
1
62
256
6
ByLayer
370
13
48
1
60
0
100
AcDbSpline
70
4
71
3
72
14
73
10
40
0
40
0
40
0
40
0
40
0.25
40
0.25
40
0.5
40
0.5
40
0.75
40
0.75
40
1
40
1
40
1
40
1
41
1
10
155.013201224937
20
12
30
0
41
1
10
155.081464221926
20
12
30
0
41
1
10
155.149727218915
20
11.9779090614754
30
0
41
1
10
155.286253212893
20
11.8842251146845
30
0
41
1
10
155.354516209882
20
11.8126134258759
30
0
41
1
10
155.49104220386
20
11.6157889560135
30
0
41
1
10
155.55930520085
20
11.4905588364235
30
0
41
1
10
155.695831194827
20
11.1842056791085
30
0
41
1
10
155.764094191816
20
11.0030697722775
30
0
41
1
10
155.832357188806
20
10.7939778737996
30
0
0
SPLINE
5
F2
100
AcDbEntity
8
1
62
256
6
ByLayer
370
13
48
1
60
0
100
AcDbSpline
70
4
71
3
72
10
73
6
40
0
40
0
40
0
40
0
40
0.5
40
0.5
40
1
40
1
40
1
40
1
41
1
10
144.8
20
11.8136893009398
30
0
41
1
10
144.85546902965
20
11.8775684379035
30
0
41
1
10
144.9109380593
20
11.9242106282698
30
0
41
1
10
145.021876118599
20
11.9854231039998
30
0
41
1
10
145.077345148249
20
12
30
0
41
1
10
145.132814177899
20
12
30
0
0
SPLINE
5
F3
100
AcDbEntity
8
1
62
256
6
ByLayer
370
13
48
1
60
0
100
AcDbSpline
70
4
71
3
72
146
73
142
40
0
40
0
40
0
40
0
40
0.015625
40
0.015625
40
0.03125
40
0.03125
40
0.046875
40
0.046875
40
0.0624999999999999
40
0.0624999999999999
40
0.0781249999999999
40
0.0781249999999999
40
0.0937499999999999
40
0.0937499999999999
40
0.109375
40
0.109375
40
0.125
40
0.125
40
0.140625
40
0.140625
40
0.15625
40
0.15625
40
0.171875
40
0.171875
40
0.1875
40
0.1875
40
0.203125
40
0.203125
40
0.2109375
40
0.2109375
40
0.21484375
40
0.21484375
40
0.21875
40
0.21875
40
0.234375
40
0.234375
40
0.25
40
0.25
40
0.265625
40
0.265625
40
0.28125
40
0.28125
40
0.296875
40
0.296875
40
0.3125
40
0.3125
40
0.328125
40
0.328125
40
0.34375
40
0.34375
40
0.359375
40
0.359375
40
0.375
40
0.375
40
0.390625
40
0.390625
40
0.40625
40
0.40625
40
0.421875
40
0.421875
40
0.4375
40
0.4375
40
0.453125
40
0.453125
40
0.46875
40
0.46875
40
0.4765625
40
0.4765625
40
0.48046875
40
0.48046875
40
0.484375000000001
40
0.484375000000001
40
0.5
40
0.5
40
0.515625
40
0.515625
40
0.53125
40
0.53125
40
0.546875
40
0.546875
40
0.5625
40
0.5625
40
0.578125
40
0.578125
40
0.59375
40
0.59375
40
0.609375
40
0.609375
40
0.625
40
0.625
40
0.640625
40
0.640625
40
0.65625
40
0.65625
40
0.671875
40
0.671875
40
0.6875
40
0.6875
40
0.703125
40
0.703125
40
0.71875
40
0.71875
40
0.734375
40
0.734375
40
0.73828125
40
0.73828125
40
0.7421875
40
0.7421875
40
0.75
40
0.75
40
0.765625
40
0.765625
40
0.78125
40
0.78125
40
0.796875
40
0.796875
40
0.8125
40
0.8125
40
0.828125
40
0.828125
40
0.84375
40
0.84375
40
0.859375
40
0.859375
40
0.875
40
0.875
40
0.890625
40
0.890625
40
0.90625
40
0.90625
40
0.921875
40
0.921875
40
0.9375
40
0.9375
40
0.953125
40
0.953125
40
0.96875
40
0.96875
40
0.984375
40
0.984375
40
1
40
1
40
1
40
1
41
1
10
144.8
20
11.5921829527379
30
0
41
1
10
144.854927160683
20
11.4966997019488
30
0
41
1
10
144.909854321367
20
11.383519796297
30
0
41
1
10
145.019708642734
20
11.1208948644058
30
0
41
1
10
145.074635803417
20
10.9714458638703
30
0
41
1
10
145.184490124784
20
10.6363815509205
30
0
41
1
10
145.239417285467
20
10.4507643548099
30
0
41
1
10
145.349271606834
20
10.0445341666372
30
0
41
1
10
145.404198767518
20
9.82392182687622
30
0
41
1
10
145.514053088885
20
9.34996353856513
30
0
41
1
10
145.568980249568
20
9.096620924034
30
0
41
1
10
145.678834570935
20
8.56049638603079
30
0
41
1
10
145.733761731618
20
8.27772026620715
30
0
41
1
10
145.843616052985
20
7.68691688164665
30
0
41
1
10
145.898543213668
20
7.37889733503789
30
0
41
1
10
146.008397535035
20
6.74248382872759
30
0
41
1
10
146.063324695719
20
6.41409869265644
30
0
41
1
10
146.173179017086
20
5.74226783785602
30
0
41
1
10
146.228106177769
20
5.3988311277912
30
0
41
1
10
146.337960499136
20
4.70237694315918
30
0
41
1
10
146.392887659819
20
4.34936778845744
30
0
41
1
10
146.502741981186
20
3.63915129360831
30
0
41
1
10
146.55766914187
20
3.28195089147908
30
0
41
1
10
146.667523463237
20
2.56840588565672
30
0
41
1
10
146.72245062392
20
2.21206640737486
30
0
41
1
10
146.832304945287
20
1.5047862695734
30
0
41
1
10
146.88723210597
20
1.15384877337519
30
0
41
1
10
146.969622846995
20
0.634422190462629
30
0
41
1
10
146.997086427337
20
0.462438024442378
30
0
41
1
10
147.03828179785
20
0.206515797835465
30
0
41
1
10
147.05201358802
20
0.121550379807701
30
0
41
1
10
147.079477168362
20
-0.0476478222838637
30
0
41
1
10
147.093208958533
20
-0.13223634515461
30
0
41
1
10
147.161867909387
20
-0.557766699408262
30
0
41
1
10
147.216795070071
20
-0.903806129912937
30
0
41
1
10
147.326649391438
20
-1.60360958679249
30
0
41
1
10
147.381576552121
20
-1.95737154341541
30
0
41
1
10
147.491430873488
20
-2.66843357201566
30
0
41
1
10
147.546358034171
20
-3.02572964136948
30
0
41
1
10
147.656212355538
20
-3.7390837669343
30
0
41
1
10
147.711139516222
20
-4.09513588908581
30
0
41
1
10
147.820993837588
20
-4.8007856423809
30
0
41
1
10
147.875920998272
20
-5.15037567614553
30
0
41
1
10
147.985775319639
20
-5.83764872585689
30
0
41
1
10
148.040702480322
20
-6.17532302985356
30
0
41
1
10
148.150556801689
20
-6.8333230945795
30
0
41
1
10
148.205483962373
20
-7.15363981254677
30
0
41
1
10
148.315338283739
20
-7.77176375290253
30
0
41
1
10
148.370265444423
20
-8.06956251411344
30
0
41
1
10
148.48011976579
20
-8.63803634378471
30
0
41
1
10
148.535046926473
20
-8.90870442487787
30
0
41
1
10
148.64490124784
20
-9.41908456861904
30
0
41
1
10
148.699828408523
20
-9.65879183331896
30
0
41
1
10
148.80968272989
20
-10.1043792262118
30
0
41
1
10
148.864609890573
20
-10.3102571613128
30
0
41
1
10
148.97446421194
20
-10.68638214348
30
0
41
1
10
149.029391372624
20
-10.8566296588219
30
0
41
1
10
149.139245693991
20
-11.160783162054
30
0
41
1
10
149.194172854674
20
-11.2946919951106
30
0
41
1
10
149.304027176041
20
-11.5264994996438
30
0
41
1
10
149.358954336724
20
-11.6244028511079
30
0
41
1
10
149.468808658091
20
-11.7854575781791
30
0
41
1
10
149.523735818775
20
-11.8486147895422
30
0
41
1
10
149.633590140142
20
-11.9422017837974
30
0
41
1
10
149.688517300825
20
-11.9726378663881
30
0
41
1
10
149.77090804185
20
-11.9957010794415
30
0
41
1
10
149.798371622192
20
-11.9996276060515
30
0
41
1
10
149.839566992704
20
-12.0001482852601
30
0
41
1
10
149.853298782875
20
-11.9994308711048
30
0
41
1
10
149.880762363217
20
-11.996170214431
30
0
41
1
10
149.894494153388
20
-11.9936265670359
30
0
41
1
10
149.963153104242
20
-11.9762291282046
30
0
41
1
10
150.018080264926
20
-11.9473195988634
30
0
41
1
10
150.127934586292
20
-11.856900387813
30
0
41
1
10
150.182861746976
20
-11.7953844002906
30
0
41
1
10
150.292716068343
20
-11.6376942386329
30
0
41
1
10
150.347643229026
20
-11.5415141905964
30
0
41
1
10
150.457497550393
20
-11.3131942771783
30
0
41
1
10
150.512424711076
20
-11.1810496594236
30
0
41
1
10
150.622279032443
20
-10.8804175173065
30
0
41
1
10
150.677206193127
20
-10.711927044539
30
0
41
1
10
150.787060514493
20
-10.3392567576995
30
0
41
1
10
150.841987675177
20
-10.1350763508584
30
0
41
1
10
150.951841996544
20
-9.69277149716169
30
0
41
1
10
151.006769157227
20
-9.45464911251628
30
0
41
1
10
151.116623478594
20
-8.94727616970962
30
0
41
1
10
151.171550639278
20
-8.67803028980765
30
0
41
1
10
151.281404960644
20
-8.11219517530043
30
0
41
1
10
151.336332121328
20
-7.81561283624998
30
0
41
1
10
151.446186442695
20
-7.19968307363223
30
0
41
1
10
151.501113603378
20
-6.88034405945217
30
0
41
1
10
151.610967924745
20
-6.22404010057556
30
0
41
1
10
151.665895085428
20
-5.88708419194376
30
0
41
1
10
151.775749406795
20
-5.20098122995037
30
0
41
1
10
151.830676567478
20
-4.85184292425765
30
0
41
1
10
151.940530888845
20
-4.14683530381308
30
0
41
1
10
151.995458049529
20
-3.7909736554239
30
0
41
1
10
152.105312370896
20
-3.0777557035284
30
0
41
1
10
152.160239531579
20
-2.72040542334767
30
0
41
1
10
152.270093852946
20
-2.00901549183331
30
0
41
1
10
152.325021013629
20
-1.65497993893072
30
0
41
1
10
152.434875334996
20
-0.954441014897725
30
0
41
1
10
152.48980249568
20
-0.607939803978155
30
0
41
1
10
152.558461446534
20
-0.181735979452981
30
0
41
1
10
152.572193236705
20
-0.0968396293406499
30
0
41
1
10
152.599656817047
20
0.072215860626585
30
0
41
1
10
152.613388607217
20
0.156976117264321
30
0
41
1
10
152.65458397773
20
0.412497071402129
30
0
41
1
10
152.682047558072
20
0.584233063892015
30
0
41
1
10
152.764438299097
20
1.10297961572047
30
0
41
1
10
152.81936545978
20
1.45354984970169
30
0
41
1
10
152.929219781147
20
2.16030046913963
30
0
41
1
10
152.98414694183
20
2.51647778583308
30
0
41
1
10
153.094001263197
20
3.2299319434473
30
0
41
1
10
153.148928423881
20
3.58720375298574
30
0
41
1
10
153.258782745247
20
4.2978176107865
30
0
41
1
10
153.313709905931
20
4.65115280139881
30
0
41
1
10
153.423564227298
20
5.34852461434312
30
0
41
1
10
153.478491387981
20
5.69255296980111
30
0
41
1
10
153.588345709348
20
6.36583156229696
30
0
41
1
10
153.643272870032
20
6.69507280493204
30
0
41
1
10
153.753127191399
20
7.33344869453248
30
0
41
1
10
153.808054352082
20
7.64257448737993
30
0
41
1
10
153.917908673449
20
8.23581331704878
30
0
41
1
10
153.972835834132
20
8.51991856184839
30
0
41
1
10
154.082690155499
20
9.05888572275248
30
0
41
1
10
154.137617316182
20
9.31374172690153
30
0
41
1
10
154.247471637549
20
9.79086400058438
30
0
41
1
10
154.302398798233
20
10.0131268083141
30
0
41
1
10
154.4122531196
20
10.4227429886233
30
0
41
1
10
154.467180280283
20
10.6100955792725
30
0
41
1
10
154.57703460165
20
10.9486625352157
30
0
41
1
10
154.631961762333
20
11.0998786692942
30
0
41
1
10
154.7418160837
20
11.3660191975729
30
0
41
1
10
154.796743244384
20
11.4809474782007
30
0
41
1
10
154.90659756575
20
11.6753472967756
30
0
41
1
10
154.961524726434
20
11.7548242088758
30
0
41
1
10
155.071379047801
20
11.8800033027065
30
0
41
1
10
155.126306208484
20
11.9257116460842
30
0
41
1
10
155.236160529851
20
11.9857068482573
30
0
41
1
10
155.291087690534
20
12
30
0
41
1
10
155.346014851218
20
12
30
0
0
SPLINE
5
F4
100
AcDbEntity
8
1
62
256
6
ByLayer
370
13
48
1
60
0
100
AcDbSpline
70
4
71
3
72
22
73
18
40
0
40
0
40
0
40
0
40
0.125
40
0.125
40
0.25
40
0.25
40
0.375
40
0.375
40
0.5
40
0.5
40
0.625
40
0.625
40
0.75
40
0.75
40
0.875
40
0.875
40
1
40
1
40
1
40
1
41
1
10
154.526858335731
20
12
30
0
41
1
10
154.581254121276
20
12
30
0
41
1
10
154.635649906821
20
11.9859823788381
30
0
41
1
10
154.74444147791
20
11.927168521549
30
0
41
1
10
154.798837263455
20
11.8823662920681
30
0
41
1
10
154.907628834545
20
11.7596894013481
30
0
41
1
10
154.962024620089
20
11.6818088621524
30
0
41
1
10
155.070816191179
20
11.4913224650633
30
0
41
1
10
155.125211976724
20
11.3787114561654
30
0
41
1
10
155.234003547813
20
11.1179200739646
30
0
41
1
10
155.288399333358
20
10.9697359312434
30
0
41
1
10
155.397190904448
20
10.6378994376026
30
0
41
1
10
155.451586689992
20
10.4542452923876
30
0
41
1
10
155.560378261082
20
10.0526008096144
30
0
41
1
10
155.614774046627
20
9.83461106920004
30
0
41
1
10
155.723565617716
20
9.36647762688273
30
0
41
1
10
155.777961403261
20
9.11633705284711
30
0
41
1
10
155.832357188806
20
8.85170790166126
30
0
0
SPLINE
5
F5
100
AcDbEntity
8
1
62
256
6
ByLayer
370
13
48
1
60
0
100
AcDbSpline
70
4
71
3
72
130
73
126
40
0
40
0
40
0
40
0
40
0.0156249999999991
40
0.0156249999999991
40
0.0312499999999983
40
0.0312499999999983
40
0.0468749999999974
40
0.0468749999999974
40
0.0624999999999965
40
0.0624999999999965
40
0.0781249999999956
40
0.0781249999999956
40
0.0937499999999948
40
0.0937499999999948
40
0.109374999999994
40
0.109374999999994
40
0.124999999999993
40
0.124999999999993
40
0.156249999999991
40
0.156249999999991
40
0.17187499999999
40
0.17187499999999
40
0.17578124999999
40
0.17578124999999
40
0.17968749999999
40
0.17968749999999
40
0.18749999999999
40
0.18749999999999
40
0.21874999999999
40
0.21874999999999
40
0.234374999999989
40
0.234374999999989
40
0.249999999999989
40
0.249999999999989
40
0.265624999999989
40
0.265624999999989
40
0.281249999999989
40
0.281249999999989
40
0.296874999999989
40
0.296874999999989
40
0.312499999999989
40
0.312499999999989
40
0.328124999999989
40
0.328124999999989
40
0.343749999999988
40
0.343749999999988
40
0.359374999999988
40
0.359374999999988
40
0.374999999999988
40
0.374999999999988
40
0.390624999999988
40
0.390624999999988
40
0.406249999999988
40
0.406249999999988
40
0.437499999999987
40
0.437499999999987
40
0.445312499999987
40
0.445312499999987
40
0.449218749999987
40
0.449218749999987
40
0.453124999999988
40
0.453124999999988
40
0.468749999999988
40
0.468749999999988
40
0.499999999999988
40
0.499999999999988
40
0.515624999999988
40
0.515624999999988
40
0.531249999999988
40
0.531249999999988
40
0.546874999999988
40
0.546874999999988
40
0.562499999999988
40
0.562499999999988
40
0.578124999999989
40
0.578124999999989
40
0.593749999999989
40
0.593749999999989
40
0.609374999999989
40
0.609374999999989
40
0.624999999999989
40
0.624999999999989
40
0.640624999999989
40
0.640624999999989
40
0.656249999999989
40
0.656249999999989
40
0.671874999999989
40
0.671874999999989
40
0.687499999999989
40
0.687499999999989
40
0.71874999999999
40
0.71874999999999
40
0.72265624999999
40
0.72265624999999
40
0.72656249999999
40
0.72656249999999
40
0.73437499999999
40
0.73437499999999
40
0.749999999999991
40
0.749999999999991
40
0.781249999999992
40
0.781249999999992
40
0.796874999999993
40
0.796874999999993
40
0.812499999999993
40
0.812499999999993
40
0.828124999999994
40
0.828124999999994
40
0.843749999999994
40
0.843749999999994
40
0.859374999999995
40
0.859374999999995
40
0.874999999999996
40
0.874999999999996
40
0.890624999999996
40
0.890624999999996
40
0.906249999999997
40
0.906249999999997
40
0.921874999999997
40
0.921874999999997
40
0.937499999999998
40
0.937499999999998
40
0.968749999999999
40
0.968749999999999
40
1
40
1
40
1
40
1
41
1
10
144.8
20
10.2771146575977
30
0
41
1
10
144.852394124802
20
10.084985154413
30
0
41
1
10
144.904788249604
20
9.87690114403762
30
0
41
1
10
145.009576499209
20
9.4307198643456
30
0
41
1
10
145.061970624011
20
9.19262503074606
30
0
41
1
10
145.166758873615
20
8.68918071756568
30
0
41
1
10
145.219152998417
20
8.42383556924148
30
0
41
1
10
145.323941248022
20
7.8694090238985
30
0
41
1
10
145.376335372824
20
7.580333486038
30
0
41
1
10
145.481123622428
20
6.98256983508318
30
0
41
1
10
145.53351774723
20
6.67388855371237
30
0
41
1
10
145.638305996834
20
6.0414496885075
30
0
41
1
10
145.690700121636
20
5.71769925460967
30
0
41
1
10
145.795488371241
20
5.0598586280924
30
0
41
1
10
145.847882496043
20
4.72577525418887
30
0
41
1
10
145.952670745647
20
4.05199354735817
30
0
41
1
10
146.005064870449
20
3.71230115226121
30
0
41
1
10
146.162247244856
20
2.69158106468493
30
0
41
1
10
146.26703549446
20
2.00916675032928
30
0
41
1
10
146.424217868867
20
1.0060965060012
30
0
41
1
10
146.476611993669
20
0.675105712065147
30
0
41
1
10
146.542104649671
20
0.267516580583134
30
0
41
1
10
146.555203180872
20
0.186304802798247
30
0
41
1
10
146.581400243273
20
0.0245361689986225
30
0
41
1
10
146.594498774474
20
-0.0559046450021867
30
0
41
1
10
146.633794368075
20
-0.29881101119696
30
0
41
1
10
146.659991430476
20
-0.462048750366421
30
0
41
1
10
146.790976742481
20
-1.28385269268711
30
0
41
1
10
146.895764992086
20
-1.95960739897026
30
0
41
1
10
147.052947366492
20
-2.9794542134037
30
0
41
1
10
147.105341491294
20
-3.32036841348437
30
0
41
1
10
147.210129740899
20
-3.99986616774569
30
0
41
1
10
147.262523865701
20
-4.3384446639005
30
0
41
1
10
147.367312115305
20
-5.00867785344872
30
0
41
1
10
147.419706240107
20
-5.34032631333298
30
0
41
1
10
147.524494489712
20
-5.99195208771442
30
0
41
1
10
147.576888614514
20
-6.31192242841732
30
0
41
1
10
147.681676864118
20
-6.93549042188542
30
0
41
1
10
147.73407098892
20
-7.23908094662741
30
0
41
1
10
147.838859238524
20
-7.82544750075704
30
0
41
1
10
147.891253363327
20
-8.10821690915179
30
0
41
1
10
147.996041612931
20
-8.64896800583716
30
0
41
1
10
148.048435737733
20
-8.90694421688454
30
0
41
1
10
148.153223987337
20
-9.39478816413583
30
0
41
1
10
148.205618112139
20
-9.62465207691608
30
0
41
1
10
148.310406361744
20
-10.0537444798501
30
0
41
1
10
148.362800486546
20
-10.2529711036127
30
0
41
1
10
148.46758873615
20
-10.6191420941842
30
0
41
1
10
148.519982860952
20
-10.7860866085876
30
0
41
1
10
148.624771110557
20
-11.0869524245934
30
0
41
1
10
148.677165235359
20
-11.2208757072325
30
0
41
1
10
148.781953484963
20
-11.4558311392478
30
0
41
1
10
148.834347609765
20
-11.5568667360264
30
0
41
1
10
148.991529984172
20
-11.8120199920051
30
0
41
1
10
149.096318233776
20
-11.9179336930777
30
0
41
1
10
149.227303545781
20
-11.9793587618366
30
0
41
1
10
149.253500608182
20
-11.9881152166583
30
0
41
1
10
149.292796201784
20
-11.996182941169
30
0
41
1
10
149.305894732985
20
-11.9980278593515
30
0
41
1
10
149.332091795386
20
-12.0000685392243
30
0
41
1
10
149.345190326586
20
-12.0002678991486
30
0
41
1
10
149.410682982589
20
-11.9971963836209
30
0
41
1
10
149.463077107391
20
-11.98161280857
30
0
41
1
10
149.620259481797
20
-11.8918419443135
30
0
41
1
10
149.725047731402
20
-11.7743424245124
30
0
41
1
10
149.882230105808
20
-11.5011024976671
30
0
41
1
10
149.93462423061
20
-11.3939236054306
30
0
41
1
10
150.039412480215
20
-11.1465927597698
30
0
41
1
10
150.091806605017
20
-11.0064376007395
30
0
41
1
10
150.196594854621
20
-10.6931784243381
30
0
41
1
10
150.248988979423
20
-10.5200727477348
30
0
41
1
10
150.353777229027
20
-10.1418194473006
30
0
41
1
10
150.40617135383
20
-9.93667204793763
30
0
41
1
10
150.510959603434
20
-9.49614759899765
30
0
41
1
10
150.563353728236
20
-9.26077279621373
30
0
41
1
10
150.66814197784
20
-8.76247447361118
30
0
41
1
10
150.720536102643
20
-8.49955511881396
30
0
41
1
10
150.825324352247
20
-7.94962043261319
30
0
41
1
10
150.877718477049
20
-7.66261083787626
30
0
41
1
10
150.982506726653
20
-7.06857011975026
30
0
41
1
10
151.034900851455
20
-6.76154576365593
30
0
41
1
10
151.13968910106
20
-6.13198185302133
30
0
41
1
10
151.192083225862
20
-5.80944944699476
30
0
41
1
10
151.296871475466
20
-5.15359631810082
30
0
41
1
10
151.349265600268
20
-4.82028247071401
30
0
41
1
10
151.454053849873
20
-4.14760101937063
30
0
41
1
10
151.506447974675
20
-3.80823945543349
30
0
41
1
10
151.611236224279
20
-3.12800900483836
30
0
41
1
10
151.663630349081
20
-2.78714492148092
30
0
41
1
10
151.820812723488
20
-1.7685830814614
30
0
41
1
10
151.925600973092
20
-1.09520273334579
30
0
41
1
10
152.043487753897
20
-0.359497002790278
30
0
41
1
10
152.056586285097
20
-0.278049608489738
30
0
41
1
10
152.082783347498
20
-0.115793888716695
30
0
41
1
10
152.095881878699
20
-0.0351673031605628
30
0
41
1
10
152.135177472301
20
0.206996768712315
30
0
41
1
10
152.161374534702
20
0.369770922151929
30
0
41
1
10
152.239965721905
20
0.861566790576632
30
0
41
1
10
152.292359846707
20
1.19407976390329
30
0
41
1
10
152.449542221113
20
2.20074270211532
30
0
41
1
10
152.554330470718
20
2.88424341213838
30
0
41
1
10
152.711512845124
20
3.90409822417877
30
0
41
1
10
152.763906969926
20
4.24308856409388
30
0
41
1
10
152.868695219531
20
4.91458727640946
30
0
41
1
10
152.921089344333
20
5.24708951017931
30
0
41
1
10
153.025877593937
20
5.90087101232595
30
0
41
1
10
153.078271718739
20
6.22214335349275
30
0
41
1
10
153.183059968343
20
6.84875017899139
30
0
41
1
10
153.235454093146
20
7.15407752210183
30
0
41
1
10
153.34024234275
20
7.74431896285933
30
0
41
1
10
153.392636467552
20
8.02922636347279
30
0
41
1
10
153.497424717156
20
8.57460221690366
30
0
41
1
10
153.549818841958
20
8.83506506040479
30
0
41
1
10
153.654607091563
20
9.3281628288247
30
0
41
1
10
153.707001216365
20
9.56079375806425
30
0
41
1
10
153.811789465969
20
9.99562143009052
30
0
41
1
10
153.864183590771
20
10.1978161159303
30
0
41
1
10
153.968971840376
20
10.5700395741366
30
0
41
1
10
154.021365965178
20
10.7400683087926
30
0
41
1
10
154.126154214782
20
11.047134172703
30
0
41
1
10
154.178548339584
20
11.1841731236822
30
0
41
1
10
154.335730713991
20
11.5458816871397
30
0
41
1
10
154.440518963595
20
11.7208118295764
30
0
41
1
10
154.650095462804
20
11.9477936802455
30
0
41
1
10
154.754883712408
20
12
30
0
41
1
10
154.859671962012
20
12
30
0
0
SPLINE
5
F6
100
AcDbEntity
8
1
62
256
6
ByLayer
370
13
48
1
60
0
100
AcDbSpline
70
4
71
3
72
22
73
18
40
0
40
0
40
0
40
0
40
0.125
40
0.125
40
0.25
40
0.25
40
0.375
40
0.375
40
0.5
40
0.5
40
0.625
40
0.625
40
0.75
40
0.75
40
0.875
40
0.875
40
1
40
1
40
1
40
1
41
1
10
154.040515446526
20
12
30
0
41
1
10
154.115175519121
20
12
30
0
41
1
10
154.189835591716
20
11.9735644064994
30
0
41
1
10
154.339155736906
20
11.8609259712647
30
0
41
1
10
154.413815809501
20
11.7746939399588
30
0
41
1
10
154.563135954691
20
11.5373838794101
30
0
41
1
10
154.637796027286
20
11.386279689935
30
0
41
1
10
154.787116172476
20
11.0168694696467
30
0
41
1
10
154.861776245071
20
10.7985461914562
30
0
41
1
10
155.011096390261
20
10.2957391052534
30
0
41
1
10
155.085756462856
20
10.0112521484752
30
0
41
1
10
155.235076608046
20
9.38088062430563
30
0
41
1
10
155.309736680641
20
9.03500958814394
30
0
41
1
10
155.459056825831
20
8.29020532897292
30
0
41
1
10
155.533716898426
20
7.89130098599566
30
0
41
1
10
155.683037043616
20
7.05169261414989
30
0
41
1
10
155.757697116211
20
6.61102762883388
30
0
41
1
10
155.832357188806
20
6.15603647648109
30
0
0
SPLINE
5
F7
100
AcDbEntity
8
1
62
256
6
ByLayer
370
13
48
1
60
0
100
AcDbSpline
70
4
71
3
72
87
73
83
40
0
40
0
40
0
40
0
40
0.0312499999999987
40
0.0312499999999987
40
0.0624999999999974
40
0.0624999999999974
40
0.0937499999999962
40
0.0937499999999962
40
0.124999999999995
40
0.124999999999995
40
0.132812499999995
40
0.132812499999995
40
0.136718749999995
40
0.136718749999995
40
0.140624999999994
40
0.140624999999994
40
0.156249999999994
40
0.156249999999994
40
0.187499999999992
40
0.187499999999992
40
0.218749999999991
40
0.218749999999991
40
0.24999999999999
40
0.24999999999999
40
0.281249999999989
40
0.281249999999989
40
0.312499999999988
40
0.312499999999988
40
0.343749999999986
40
0.343749999999986
40
0.374999999999985
40
0.374999999999985
40
0.406249999999984
40
0.406249999999984
40
0.421874999999983
40
0.421874999999983
40
0.425781249999983
40
0.425781249999983
40
0.429687499999983
40
0.437499999999984
40
0.437499999999984
40
0.468749999999984
40
0.468749999999984
40
0.499999999999985
40
0.499999999999985
40
0.531249999999986
40
0.531249999999986
40
0.562499999999986
40
0.562499999999986
40
0.593749999999987
40
0.593749999999987
40
0.624999999999988
40
0.624999999999988
40
0.656249999999988
40
0.656249999999988
40
0.687499999999989
40
0.687499999999989
40
0.70312499999999
40
0.70312499999999
40
0.71093749999999
40
0.71093749999999
40
0.71484374999999
40
0.71484374999999
40
0.71874999999999
40
0.71874999999999
40
0.749999999999991
40
0.749999999999991
40
0.781249999999992
40
0.781249999999992
40
0.812499999999993
40
0.812499999999993
40
0.843749999999994
40
0.843749999999994
40
0.874999999999995
40
0.874999999999995
40
0.906249999999996
40
0.906249999999996
40
0.937499999999998
40
0.937499999999998
40
0.968749999999999
40
0.968749999999999
40
1
40
1
40
1
40
1
41
1
10
144.8
20
8.06802591062467
30
0
41
1
10
144.899722177842
20
7.53619349450437
30
0
41
1
10
144.999444355683
20
6.96188763399255
30
0
41
1
10
145.198888711367
20
5.75830819609104
30
0
41
1
10
145.298610889209
20
5.12921116916425
30
0
41
1
10
145.498055244892
20
3.84900937403864
30
0
41
1
10
145.597777422734
20
3.19805434775063
30
0
41
1
10
145.797221778417
20
1.90468053025768
30
0
41
1
10
145.896943956259
20
1.2623492579107
30
0
41
1
10
146.021596678561
20
0.480057729279963
30
0
41
1
10
146.046527223022
20
0.324612915054701
30
0
41
1
10
146.083923039712
20
0.0931959661397173
30
0
41
1
10
146.096388311942
20
0.0165421726520378
30
0
41
1
10
146.121318856403
20
-0.137172444636207
30
0
41
1
10
146.133784128633
20
-0.214329800390061
30
0
41
1
10
146.196110489784
20
-0.60152559019528
30
0
41
1
10
146.245971578705
20
-0.915809758061215
30
0
41
1
10
146.395554845468
20
-1.86829006650205
30
0
41
1
10
146.49527702331
20
-2.51631488312859
30
0
41
1
10
146.694721378993
20
-3.81200592496032
30
0
41
1
10
146.794443556835
20
-4.45956307303987
30
0
41
1
10
146.993887912518
20
-5.72263588416922
30
0
41
1
10
147.09361009036
20
-6.33798814577406
30
0
41
1
10
147.293054446043
20
-7.50397485726211
30
0
41
1
10
147.392776623885
20
-8.05443559109045
30
0
41
1
10
147.592220979569
20
-9.06222137092885
30
0
41
1
10
147.69194315741
20
-9.5194193824284
30
0
41
1
10
147.891387513094
20
-10.321250222195
30
0
41
1
10
147.991109690936
20
-10.6658429614075
30
0
41
1
10
148.190554046619
20
-11.2346544941371
30
0
41
1
10
148.290276224461
20
-11.4589228734714
30
0
41
1
10
148.489720580144
20
-11.7907273322141
30
0
41
1
10
148.589442757986
20
-11.8983714148087
30
0
41
1
10
148.739026024749
20
-11.9817266882405
30
0
41
1
10
148.788887113669
20
-11.9965519431486
30
0
41
1
10
148.85121347482
20
-12.0001916558204
30
0
41
1
10
148.863678747051
20
-12.0001800977712
30
0
41
1
10
148.888609291511
20
-11.9986771558726
30
0
41
1
10
148.926005108202
20
-11.9941903356982
30
0
41
1
10
148.963400924893
20
-11.9828505341377
30
0
41
1
10
149.088053647195
20
-11.9291677418448
30
0
41
1
10
149.187775825036
20
-11.8351433114842
30
0
41
1
10
149.38722018072
20
-11.5317204781921
30
0
41
1
10
149.486942358561
20
-11.3222099075442
30
0
41
1
10
149.686386714245
20
-10.7827955814228
30
0
41
1
10
149.786108892087
20
-10.4528328789543
30
0
41
1
10
149.98555324777
20
-9.67867459262311
30
0
41
1
10
150.085275425612
20
-9.23450738860882
30
0
41
1
10
150.284719781295
20
-8.24984826701728
30
0
41
1
10
150.384441959137
20
-7.70947421416713
30
0
41
1
10
150.58388631482
20
-6.5598328307382
30
0
41
1
10
150.683608492662
20
-5.95073650297991
30
0
41
1
10
150.883052848346
20
-4.69609956224258
30
0
41
1
10
150.982775026188
20
-4.05072649962824
30
0
41
1
10
151.182219381871
20
-2.75570101581081
30
0
41
1
10
151.281941559713
20
-2.10616576337682
30
0
41
1
10
151.431524826475
20
-1.1492411462701
30
0
41
1
10
151.481385915396
20
-0.833114900120108
30
0
41
1
10
151.556177548777
20
-0.365263323661111
30
0
41
1
10
151.581108093238
20
-0.21036542673869
30
0
41
1
10
151.618503909929
20
0.020178029117119
30
0
41
1
10
151.630969182159
20
0.0968459067985918
30
0
41
1
10
151.655899726619
20
0.251142292712501
30
0
41
1
10
151.66836499885
20
0.328581673096721
30
0
41
1
10
151.780552448921
20
1.02798837828462
30
0
41
1
10
151.880274626763
20
1.66742536358615
30
0
41
1
10
152.079718982447
20
2.9583833223418
30
0
41
1
10
152.179441160288
20
3.60982534060275
30
0
41
1
10
152.378885515972
20
4.89496842590711
30
0
41
1
10
152.478607693814
20
5.52852610842695
30
0
41
1
10
152.678052049497
20
6.74504567687379
30
0
41
1
10
152.777774227339
20
7.32783149329799
30
0
41
1
10
152.977218583022
20
8.41186791227747
30
0
41
1
10
153.076940760864
20
8.91296437136108
30
0
41
1
10
153.276385116547
20
9.80977408160132
30
0
41
1
10
153.376107294389
20
10.2054063504259
30
0
41
1
10
153.575551650073
20
10.8782369915723
30
0
41
1
10
153.675273827914
20
11.1554478490893
30
0
41
1
10
153.874718183598
20
11.5902501415882
30
0
41
1
10
153.974440361439
20
11.7479291804098
30
0
41
1
10
154.173884717123
20
11.9527433333938
30
0
41
1
10
154.273606894965
20
12
30
0
41
1
10
154.373329072806
20
12
30
0
0
SPLINE
5
F8
100
AcDbEntity
8
1
62
256
6
ByLayer
370
13
48
1
60
0
100
AcDbSpline
70
4
71
3
72
22
73
18
40
0
40
0
40
0
40
0
40
0.125
40
0.125
40
0.25
40
0.25
40
0.375
40
0.375
40
0.5
40
0.5
40
0.625
40
0.625
40
0.75
40
0.75
40
0.875
40
0.875
40
1
40
1
40
1
40
1
41
1
10
153.55417255732
20
12
30
0
41
1
10
153.649096916965
20
12
30
0
41
1
10
153.744021276611
20
11.9572001720444
30
0
41
1
10
153.933869995901
20
11.7722729266998
30
0
41
1
10
154.028794355546
20
11.6300499591393
30
0
41
1
10
154.218643074837
20
11.2378699151204
30
0
41
1
10
154.313567434482
20
10.9878401476671
30
0
41
1
10
154.503416153772
20
10.3797827998504
30
0
41
1
10
154.598340513418
20
10.0217353950851
30
0
41
1
10
154.788189232708
20
9.2070203069442
30
0
41
1
10
154.883113592353
20
8.75040215386522
30
0
41
1
10
155.072962311644
20
7.75716135299555
30
0
41
1
10
155.167886671289
20
7.22064861505621
30
0
41
1
10
155.357735390579
20
6.09301928427112
30
0
41
1
10
155.452659750225
20
5.5020402880647
30
0
41
1
10
155.642508469515
20
4.29380798274118
30
0
41
1
10
155.73743282916
20
3.67667943325333
30
0
41
1
10
155.832357188806
20
3.05999811894128
30
0
0
SPLINE
5
F9
100
AcDbEntity
8
1
62
256
6
ByLayer
370
13
48
1
60
0
100
AcDbSpline
70
4
71
3
72
85
73
81
40
0
40
0
40
0
40
0
40
0.0312499999999999
40
0.0312499999999999
40
0.0624999999999998
40
0.0624999999999998
40
0.0781249999999998
40
0.0781249999999998
40
0.0859374999999997
40
0.0859374999999997
40
0.0937499999999997
40
0.0937499999999997
40
0.125
40
0.125
40
0.15625
40
0.15625
40
0.187499999999999
40
0.187499999999999
40
0.218749999999999
40
0.218749999999999
40
0.249999999999999
40
0.249999999999999
40
0.281249999999999
40
0.281249999999999
40
0.312499999999999
40
0.312499999999999
40
0.343749999999999
40
0.343749999999999
40
0.374999999999999
40
0.374999999999999
40
0.390624999999999
40
0.390624999999999
40
0.394531249999999
40
0.394531249999999
40
0.3984375
40
0.40625
40
0.40625
40
0.4375
40
0.4375
40
0.46875
40
0.46875
40
0.5
40
0.5
40
0.53125
40
0.53125
40
0.5625
40
0.5625
40
0.59375
40
0.59375
40
0.625
40
0.625
40
0.65625
40
0.65625
40
0.6875
40
0.6875
40
0.6953125
40
0.6953125
40
0.69921875
40
0.69921875
40
0.703125
40
0.703125
40
0.71875
40
0.71875
40
0.75
40
0.75
40
0.78125
40
0.78125
40
0.8125
40
0.8125
40
0.84375
40
0.84375
40
0.875
40
0.875
40
0.90625
40
0.90625
40
0.9375
40
0.9375
40
0.96875
40
0.96875
40
1
40
1
40
1
40
1
41
1
10
144.8
20
5.20247540048075
30
0
41
1
10
144.894656106079
20
4.60487966889536
30
0
41
1
10
144.989312212158
20
3.9919608577257
30
0
41
1
10
145.178624424317
20
2.76261509482018
30
0
41
1
10
145.273280530396
20
2.14627781992334
30
0
41
1
10
145.415264689515
20
1.23678366812734
30
0
41
1
10
145.462592742554
20
0.936082339302089
30
0
41
1
10
145.533584822114
20
0.490521532200233
30
0
41
1
10
145.557248848633
20
0.342913502947368
30
0
41
1
10
145.604576901673
20
0.0497850240383002
30
0
41
1
10
145.628240928193
20
-0.0953193090214768
30
0
41
1
10
145.746561060792
20
-0.829217898128263
30
0
41
1
10
145.841217166871
20
-1.43306585714035
30
0
41
1
10
146.030529379029
20
-2.65491982744356
30
0
41
1
10
146.125185485108
20
-3.27287247526257
30
0
41
1
10
146.314497697267
20
-4.49817963309729
30
0
41
1
10
146.409153803346
20
-5.10543185089506
30
0
41
1
10
146.598466015504
20
-6.28148369595189
30
0
41
1
10
146.693122121584
20
-6.85015009132744
30
0
41
1
10
146.882434333742
20
-7.92170126259975
30
0
41
1
10
146.977090439821
20
-8.42445746990654
30
0
41
1
10
147.166402651979
20
-9.34146156322794
30
0
41
1
10
147.261058758059
20
-9.75562434362644
30
0
41
1
10
147.450370970217
20
-10.480665796582
30
0
41
1
10
147.545027076296
20
-10.791525945023
30
0
41
1
10
147.734339288454
20
-11.3047585012455
30
0
41
1
10
147.828995394534
20
-11.5071761540158
30
0
41
1
10
148.018307606692
20
-11.807455813847
30
0
41
1
10
148.112963712771
20
-11.9054030133282
30
0
41
1
10
148.25494787189
20
-11.9821613331391
30
0
41
1
10
148.302275924929
20
-11.996100207696
30
0
41
1
10
148.361435991229
20
-12.0000844368568
30
0
41
1
10
148.373268004489
20
-12.0002127388421
30
0
41
1
10
148.396932031009
20
-11.9991408332027
30
0
41
1
10
148.432428070788
20
-11.9955275009703
30
0
41
1
10
148.467924110568
20
-11.9857641438927
30
0
41
1
10
148.586244243167
20
-11.9389889954882
30
0
41
1
10
148.680900349246
20
-11.8558337101016
30
0
41
1
10
148.870212561404
20
-11.5864034344323
30
0
41
1
10
148.964868667484
20
-11.4000399318096
30
0
41
1
10
149.154180879642
20
-10.9189738137271
30
0
41
1
10
149.248836985721
20
-10.6242181353166
30
0
41
1
10
149.43814919788
20
-9.93000915709325
30
0
41
1
10
149.532805303959
20
-9.53056404240908
30
0
41
1
10
149.722117516117
20
-8.64023941295801
30
0
41
1
10
149.816773622196
20
-8.14943594228228
30
0
41
1
10
150.006085834355
20
-7.09801680184694
30
0
41
1
10
150.100741940434
20
-6.5375254931198
30
0
41
1
10
150.290054152592
20
-5.37360600346906
30
0
41
1
10
150.384710258671
20
-4.77031290968708
30
0
41
1
10
150.57402247083
20
-3.54887206419386
30
0
41
1
10
150.668678576909
20
-2.93083288448608
30
0
41
1
10
150.857990789067
20
-1.7053994722977
30
0
41
1
10
150.952646895146
20
-1.0980662215876
30
0
41
1
10
151.070967027745
20
-0.358247328553887
30
0
41
1
10
151.094631054265
20
-0.211236367430132
30
0
41
1
10
151.130127094045
20
0.0076590293077459
30
0
41
1
10
151.141959107305
20
0.0803942855500566
30
0
41
1
10
151.165623133825
20
0.226754310744525
30
0
41
1
10
151.177455147084
20
0.300198116394228
30
0
41
1
10
151.236615213384
20
0.668656558876563
30
0
41
1
10
151.283943266424
20
0.967404575247656
30
0
41
1
10
151.425927425542
20
1.87217176337236
30
0
41
1
10
151.520583531621
20
2.48687758023806
30
0
41
1
10
151.70989574378
20
3.71677007709076
30
0
41
1
10
151.804551849859
20
4.33187431861396
30
0
41
1
10
151.993864062017
20
5.53564596804728
30
0
41
1
10
152.088520168096
20
6.12418976913597
30
0
41
1
10
152.277832380255
20
7.24679090328499
30
0
41
1
10
152.372488486334
20
7.7807126848615
30
0
41
1
10
152.561800698492
20
8.76890629354969
30
0
41
1
10
152.656456804571
20
9.22307040429132
30
0
41
1
10
152.84576901673
20
10.0332761228808
30
0
41
1
10
152.940425122809
20
10.3892696694825
30
0
41
1
10
153.129737334967
20
10.993795330531
30
0
41
1
10
153.224393441046
20
11.2423475356145
30
0
41
1
10
153.413705653205
20
11.6322118108541
30
0
41
1
10
153.508361759284
20
11.773595774451
30
0
41
1
10
153.697673971442
20
11.9574427510837
30
0
41
1
10
153.792330077522
20
12
30
0
41
1
10
153.886986183601
20
12
30
0
0
SPLINE
5
FA
100
AcDbEntity
8
1
62
256
6
ByLayer
370
13
48
1
60
0
100
AcDbSpline
70
4
71
3
72
42
73
38
40
0
40
0
40
0
40
0
40
0.0625
40
0.0625
40
0.125
40
0.125
40
0.1875
40
0.1875
40
0.25
40
0.25
40
0.3125
40
0.3125
40
0.375
40
0.375
40
0.4375
40
0.4375
40
0.5
40
0.5
40
0.5625
40
0.5625
40
0.625
40
0.625
40
0.6875
40
0.6875
40
0.75
40
0.75
40
0.8125
40
0.8125
40
0.875
40
0.875
40
0.9375
40
0.9375
40
0.96875
40
0.96875
40
0.984375
40
0.984375
40
1
40
1
40
1
40
1
41
1
10
153.067829668114
20
12
30
0
41
1
10
153.125423991462
20
12
30
0
41
1
10
153.18301831481
20
11.9842831836448
30
0
41
1
10
153.298206961505
20
11.9181733027335
30
0
41
1
10
153.355801284853
20
11.8677722558161
30
0
41
1
10
153.470989931549
20
11.7296287025227
30
0
41
1
10
153.528584254896
20
11.6418784486651
30
0
41
1
10
153.643772901592
20
11.4272027064533
30
0
41
1
10
153.70136722494
20
11.3002706302281
30
0
41
1
10
153.816555871635
20
11.0064476690561
30
0
41
1
10
153.874150194983
20
10.8395523259966
30
0
41
1
10
153.989338841678
20
10.4662388997374
30
0
41
1
10
154.046933165026
20
10.2598193240687
30
0
41
1
10
154.162121811721
20
9.8092054381226
30
0
41
1
10
154.219716135069
20
9.56501311156495
30
0
41
1
10
154.334904781765
20
9.04190788635972
30
0
41
1
10
154.392499105112
20
8.76300048494761
30
0
41
1
10
154.507687751808
20
8.17471285226938
30
0
41
1
10
154.565282075155
20
7.86534114282813
30
0
41
1
10
154.680470721851
20
7.22135352117343
30
0
41
1
10
154.738065045199
20
6.886748208597
30
0
41
1
10
154.853253691894
20
6.19821200135664
30
0
41
1
10
154.910848015242
20
5.84429255666805
30
0
41
1
10
155.026036661937
20
5.12340100163658
30
0
41
1
10
155.083630985285
20
4.75643991983051
30
0
41
1
10
155.198819631981
20
4.01575023261822
30
0
41
1
10
155.256413955328
20
3.64203114662376
30
0
41
1
10
155.371602602024
20
2.89381061814564
30
0
41
1
10
155.429196925371
20
2.51931644391399
30
0
41
1
10
155.544385572067
20
1.77497659153255
30
0
41
1
10
155.601979895415
20
1.4051355984283
30
0
41
1
10
155.688371380436
20
0.857382725445632
30
0
41
1
10
155.71716854211
20
0.675960376413229
30
0
41
1
10
155.760364284621
20
0.405951300421748
30
0
41
1
10
155.774762865458
20
0.316301935329875
30
0
41
1
10
155.803560027132
20
0.137769096467935
30
0
41
1
10
155.817958607969
20
0.0490737403114565
30
0
41
1
10
155.832357188806
20
-0.039641475768974
30
0
0
SPLINE
5
FB
100
AcDbEntity
8
1
62
256
6
ByLayer
370
13
48
1
60
0
100
AcDbSpline
70
4
71
3
72
85
73
81
40
0
40
0
40
0
40
0
40
0.0312500000000009
40
0.0312500000000009
40
0.0351562500000012
40
0.0351562500000012
40
0.0390625000000015
40
0.0390625000000015
40
0.0468750000000017
40
0.0468750000000017
40
0.0625000000000023
40
0.0625000000000023
40
0.0937500000000035
40
0.0937500000000035
40
0.125000000000005
40
0.125000000000005
40
0.156250000000006
40
0.156250000000006
40
0.187500000000007
40
0.187500000000007
40
0.218750000000008
40
0.218750000000008
40
0.250000000000009
40
0.250000000000009
40
0.28125000000001
40
0.28125000000001
40
0.312500000000012
40
0.312500000000012
40
0.343750000000013
40
0.343750000000013
40
0.351562500000013
40
0.355468750000013
40
0.355468750000013
40
0.359375000000013
40
0.359375000000013
40
0.375000000000013
40
0.375000000000013
40
0.406250000000012
40
0.406250000000012
40
0.437500000000011
40
0.437500000000011
40
0.46875000000001
40
0.46875000000001
40
0.50000000000001
40
0.50000000000001
40
0.531250000000009
40
0.531250000000009
40
0.562500000000008
40
0.562500000000008
40
0.593750000000007
40
0.593750000000007
40
0.625000000000007
40
0.625000000000007
40
0.656250000000006
40
0.656250000000006
40
0.671875000000005
40
0.671875000000005
40
0.679687500000005
40
0.679687500000005
40
0.687500000000005
40
0.687500000000005
40
0.718750000000005
40
0.718750000000005
40
0.750000000000004
40
0.750000000000004
40
0.781250000000004
40
0.781250000000004
40
0.812500000000003
40
0.812500000000003
40
0.843750000000003
40
0.843750000000003
40
0.875000000000002
40
0.875000000000002
40
0.906250000000002
40
0.906250000000002
40
0.937500000000001
40
0.937500000000001
40
0.968750000000001
40
0.968750000000001
40
1
40
1
40
1
40
1
41
1
10
144.8
20
2.06478062508424
30
0
41
1
10
144.889590034317
20
1.48640564441129
30
0
41
1
10
144.979180068633
20
0.914235111207773
30
0
41
1
10
145.079968857239
20
0.286838372260775
30
0
41
1
10
145.091167611529
20
0.217350819795314
30
0
41
1
10
145.113565120108
20
0.0788490198247587
30
0
41
1
10
145.124763874398
20
0.0099952632151883
30
0
41
1
10
145.158360137267
20
-0.197140825956808
30
0
41
1
10
145.180757645846
20
-0.336201126397526
30
0
41
1
10
145.247950171583
20
-0.755966757803975
30
0
41
1
10
145.292745188741
20
-1.03926644486432
30
0
41
1
10
145.427130240216
20
-1.89658950624315
30
0
41
1
10
145.516720274533
20
-2.47816793762667
30
0
41
1
10
145.695900343166
20
-3.64222121637178
30
0
41
1
10
145.785490377483
20
-4.22463426158868
30
0
41
1
10
145.964670446116
20
-5.3676644085501
30
0
41
1
10
146.054260480433
20
-5.92818928951561
30
0
41
1
10
146.233440549066
20
-7.00361902236222
30
0
41
1
10
146.323030583382
20
-7.51842027749939
30
0
41
1
10
146.502210652016
20
-8.48046992732139
30
0
41
1
10
146.591800686332
20
-8.92763031096052
30
0
41
1
10
146.770980754966
20
-9.73733810701518
30
0
41
1
10
146.860570789282
20
-10.0998368810893
30
0
41
1
10
147.039750857915
20
-10.7301668934238
30
0
41
1
10
147.129340892232
20
-10.9979989585384
30
0
41
1
10
147.308520960865
20
-11.4366864760461
30
0
41
1
10
147.398110995182
20
-11.6075853925352
30
0
41
1
10
147.577291063815
20
-11.8571375750264
30
0
41
1
10
147.666881098132
20
-11.9358586030834
30
0
41
1
10
147.778868641027
20
-11.9828720647988
30
0
41
1
10
147.812464903896
20
-11.9931368697975
30
0
41
1
10
147.846061166765
20
-11.9978563127088
30
0
41
1
10
147.868458675344
20
-11.9997952621176
30
0
41
1
10
147.879657429634
20
-12.0001617518629
30
0
41
1
10
147.935651201081
20
-11.9990303463259
30
0
41
1
10
147.98044621824
20
-11.9885838371784
30
0
41
1
10
148.114831269715
20
-11.9263057449802
30
0
41
1
10
148.204421304032
20
-11.8433942706762
30
0
41
1
10
148.383601372665
20
-11.5850984812087
30
0
41
1
10
148.473191406981
20
-11.4096470778141
30
0
41
1
10
148.652371475614
20
-10.9617911139571
30
0
41
1
10
148.741961509931
20
-10.6893447577423
30
0
41
1
10
148.921141578564
20
-10.0500842334776
30
0
41
1
10
149.010731612881
20
-9.68327156100446
30
0
41
1
10
149.189911681514
20
-8.8655962241279
30
0
41
1
10
149.279501715831
20
-8.41478443505054
30
0
41
1
10
149.458681784464
20
-7.44638354178556
30
0
41
1
10
149.548271818781
20
-6.92888380157899
30
0
41
1
10
149.727451887414
20
-5.8491723414443
30
0
41
1
10
149.81704192173
20
-5.28706426257799
30
0
41
1
10
149.996221990364
20
-4.14199692672082
30
0
41
1
10
150.08581202468
20
-3.55912877877878
30
0
41
1
10
150.264992093314
20
-2.39517588063867
30
0
41
1
10
150.35458212763
20
-1.8141512337227
30
0
41
1
10
150.488967179105
20
-0.958261822430842
30
0
41
1
10
150.533762196263
20
-0.675540000221986
30
0
41
1
10
150.600954722001
20
-0.256769081874779
30
0
41
1
10
150.62335223058
20
-0.118235389592485
30
0
41
1
10
150.668147247738
20
0.157575605747724
30
0
41
1
10
150.690544756318
20
0.29646043583395
30
0
41
1
10
150.802532299213
20
0.995245960660696
30
0
41
1
10
150.89212233353
20
1.56841967484172
30
0
41
1
10
151.071302402163
20
2.72626952917335
30
0
41
1
10
151.16089243648
20
3.31090296243332
30
0
41
1
10
151.340072505113
20
4.47057172679746
30
0
41
1
10
151.42966253943
20
5.04552919981379
30
0
41
1
10
151.608842608063
20
6.16226710493268
30
0
41
1
10
151.698432642379
20
6.70394682598268
30
0
41
1
10
151.877612711013
20
7.73081181036204
30
0
41
1
10
151.967202745329
20
8.21589743945691
30
0
41
1
10
152.146382813963
20
9.10962465335859
30
0
41
1
10
152.235972848279
20
9.5181946653241
30
0
41
1
10
152.415152916912
20
10.2449786316601
30
0
41
1
10
152.504742951229
20
10.5631673192635
30
0
41
1
10
152.683923019862
20
11.1028239488338
30
0
41
1
10
152.773513054179
20
11.3243147853284
30
0
41
1
10
152.952693122812
20
11.6717844837346
30
0
41
1
10
153.042283157129
20
11.7978210185726
30
0
41
1
10
153.221463225762
20
11.9618928046226
30
0
41
1
10
153.311053260078
20
12
30
0
41
1
10
153.400643294395
20
12
30
0
0
SPLINE
5
FC
100
AcDbEntity
8
1
62
256
6
ByLayer
370
13
48
1
60
0
100
AcDbSpline
70
4
71
3
72
43
73
39
40
0
40
0
40
0
40
0
40
0.0625000000000004
40
0.0625000000000004
40
0.125000000000001
40
0.125000000000001
40
0.187500000000001
40
0.187500000000001
40
0.250000000000002
40
0.250000000000002
40
0.312500000000002
40
0.312500000000002
40
0.375000000000003
40
0.375000000000003
40
0.437500000000003
40
0.437500000000003
40
0.500000000000003
40
0.500000000000003
40
0.562500000000004
40
0.562500000000004
40
0.625000000000004
40
0.625000000000004
40
0.687500000000004
40
0.687500000000004
40
0.750000000000004
40
0.750000000000004
40
0.812500000000005
40
0.812500000000005
40
0.843750000000005
40
0.843750000000005
40
0.851562500000005
40
0.851562500000005
40
0.859375000000005
40
0.875000000000005
40
0.875000000000005
40
0.937500000000002
40
0.937500000000002
40
1
40
1
40
1
40
1
41
1
10
152.581486778909
20
12
30
0
41
1
10
152.649213245782
20
12
30
0
41
1
10
152.716939712654
20
11.978255618791
30
0
41
1
10
152.8523926464
20
11.886078398901
30
0
41
1
10
152.920119113273
20
11.8156276011691
30
0
41
1
10
153.055572047019
20
11.6220171040493
30
0
41
1
10
153.123298513892
20
11.4988406917285
30
0
41
1
10
153.258751447637
20
11.1975016397165
30
0
41
1
10
153.32647791451
20
11.0193264900855
30
0
41
1
10
153.461930848256
20
10.6079058804291
30
0
41
1
10
153.529657315129
20
10.3746549545366
30
0
41
1
10
153.665110248874
20
9.85547215557452
30
0
41
1
10
153.732836715747
20
9.56954377863292
30
0
41
1
10
153.868289649493
20
8.94990460149722
30
0
41
1
10
153.936016116366
20
8.6162065576228
30
0
41
1
10
154.071469050111
20
7.90819128543242
30
0
41
1
10
154.139195516984
20
7.53389447716586
30
0
41
1
10
154.27464845073
20
6.75360396972559
30
0
41
1
10
154.342374917603
20
6.34763518100385
30
0
41
1
10
154.477827851349
20
5.5139885506843
30
0
41
1
10
154.545554318221
20
5.08633618364416
30
0
41
1
10
154.681007251967
20
4.21960447396515
30
0
41
1
10
154.74873371884
20
3.78054750425727
30
0
41
1
10
154.884186652586
20
2.90085160984324
30
0
41
1
10
154.951913119459
20
2.46022937410788
30
0
41
1
10
155.087366053204
20
1.58621620372065
30
0
41
1
10
155.155092520077
20
1.15283515490577
30
0
41
1
10
155.256682220386
20
0.513721983173326
30
0
41
1
10
155.290545453823
20
0.302498582096661
30
0
41
1
10
155.332874495618
20
0.0412182321263117
30
0
41
1
10
155.341340303977
20
-0.0108110576748004
30
0
41
1
10
155.358271920696
20
-0.115216104089427
30
0
41
1
10
155.383669345773
20
-0.272238413569795
30
0
41
1
10
155.40906677085
20
-0.430454606784309
30
0
41
1
10
155.493724854441
20
-0.960256159717261
30
0
41
1
10
155.561451321314
20
-1.3918851165011
30
0
41
1
10
155.69690425506
20
-2.2635919439667
30
0
41
1
10
155.764630721933
20
-2.70366095191872
30
0
41
1
10
155.832357188806
20
-3.14365141373753
30
0
0
SPLINE
5
FD
100
AcDbEntity
8
1
62
256
6
ByLayer
370
13
48
1
60
0
100
AcDbSpline
70
4
71
3
72
78
73
74
40
0
40
0
40
0
40
0
40
0.0312500000000001
40
0.0312500000000001
40
0.0625000000000002
40
0.0625000000000002
40
0.0937500000000003
40
0.0937500000000003
40
0.125
40
0.125
40
0.156250000000001
40
0.156250000000001
40
0.187500000000001
40
0.187500000000001
40
0.218750000000001
40
0.218750000000001
40
0.250000000000001
40
0.250000000000001
40
0.281250000000001
40
0.281250000000001
40
0.312500000000001
40
0.312500000000001
40
0.320312500000001
40
0.320312500000001
40
0.328125000000001
40
0.328125000000001
40
0.343750000000001
40
0.343750000000001
40
0.375
40
0.375
40
0.40625
40
0.40625
40
0.4375
40
0.4375
40
0.46875
40
0.46875
40
0.5
40
0.5
40
0.53125
40
0.53125
40
0.562499999999999
40
0.562499999999999
40
0.593749999999999
40
0.593749999999999
40
0.624999999999999
40
0.624999999999999
40
0.656249999999999
40
0.656249999999999
40
0.664062499999999
40
0.664062499999999
40
0.671874999999999
40
0.671874999999999
40
0.687499999999999
40
0.687499999999999
40
0.718749999999999
40
0.718749999999999
40
0.749999999999999
40
0.749999999999999
40
0.781249999999999
40
0.781249999999999
40
0.812499999999999
40
0.812499999999999
40
0.843749999999999
40
0.843749999999999
40
0.875
40
0.875
40
0.90625
40
0.90625
40
0.9375
40
0.9375
40
0.96875
40
0.96875
40
1
40
1
40
1
40
1
41
1
10
144.8
20
-0.999551975325772
30
0
41
1
10
144.884523962554
20
-1.53495726636885
30
0
41
1
10
144.969047925108
20
-2.08067535309334
30
0
41
1
10
145.138095850216
20
-3.17744609566458
30
0
41
1
10
145.22261981277
20
-3.72845922166397
30
0
41
1
10
145.391667737878
20
-4.81740896124165
30
0
41
1
10
145.476191700433
20
-5.35528240746376
30
0
41
1
10
145.645239625541
20
-6.3980052009243
30
0
41
1
10
145.729763588095
20
-6.90277791019645
30
0
41
1
10
145.898811513203
20
-7.85996003811556
30
0
41
1
10
145.983335475757
20
-8.31229619827764
30
0
41
1
10
146.152383400865
20
-9.14819259924531
30
0
41
1
10
146.236907363419
20
-9.5317007811212
30
0
41
1
10
146.405955288527
20
-10.2184014097185
30
0
41
1
10
146.490479251081
20
-10.5215747381595
30
0
41
1
10
146.659527176189
20
-11.0420430837105
30
0
41
1
10
146.744051138743
20
-11.2593532139746
30
0
41
1
10
146.913099063851
20
-11.6085643812744
30
0
41
1
10
146.997623026405
20
-11.7405062830359
30
0
41
1
10
147.166670951514
20
-11.9246020440102
30
0
41
1
10
147.251194914068
20
-11.9768090018322
30
0
41
1
10
147.35684986726
20
-11.9980183307553
30
0
41
1
10
147.377980857899
20
-12.000064477665
30
0
41
1
10
147.420242839176
20
-11.9999324292674
30
0
41
1
10
147.441373829814
20
-11.9977516486125
30
0
41
1
10
147.50476680173
20
-11.9846143631386
30
0
41
1
10
147.547028783007
20
-11.9670579531011
30
0
41
1
10
147.673814726838
20
-11.8861420179317
30
0
41
1
10
147.758338689392
20
-11.7944155195425
30
0
41
1
10
147.9273866145
20
-11.5278558495346
30
0
41
1
10
148.011910577054
20
-11.3529740189736
30
0
41
1
10
148.180958502162
20
-10.9169039270783
30
0
41
1
10
148.265482464716
20
-10.6556863667946
30
0
41
1
10
148.434530389824
20
-10.0494190436796
30
0
41
1
10
148.519054352379
20
-9.70437102851218
30
0
41
1
10
148.688102277487
20
-8.93904450118657
30
0
41
1
10
148.772626240041
20
-8.51880269965912
30
0
41
1
10
148.941674165149
20
-7.61724617973434
30
0
41
1
10
149.026198127703
20
-7.13599628747056
30
0
41
1
10
149.195246052811
20
-6.13057695247053
30
0
41
1
10
149.279770015365
20
-5.60648481902385
30
0
41
1
10
149.448817940473
20
-4.53533154661403
30
0
41
1
10
149.533341903027
20
-3.98834198437322
30
0
41
1
10
149.702389828135
20
-2.89083870869422
30
0
41
1
10
149.786913790689
20
-2.34037688929553
30
0
41
1
10
149.955961715797
20
-1.25296862102505
30
0
41
1
10
150.040485678352
20
-0.716048554325852
30
0
41
1
10
150.146140631544
20
-0.0617489855227973
30
0
41
1
10
150.167271622183
20
0.0678547201410424
30
0
41
1
10
150.20953360346
20
0.329626499390884
30
0
41
1
10
150.230664594098
20
0.461343971465794
30
0
41
1
10
150.294057566014
20
0.858711394616165
30
0
41
1
10
150.336319547291
20
1.12658392998372
30
0
41
1
10
150.463105491122
20
1.93656886578762
30
0
41
1
10
150.547629453676
20
2.48515199930526
30
0
41
1
10
150.716677378784
20
3.58336132314801
30
0
41
1
10
150.801201341338
20
4.13294169193779
30
0
41
1
10
150.970249266446
20
5.21418435359888
30
0
41
1
10
151.054773229
20
5.74577889988157
30
0
41
1
10
151.223821154108
20
6.77103778816698
30
0
41
1
10
151.308345116662
20
7.2646246032688
30
0
41
1
10
151.47739304177
20
8.19503891387058
30
0
41
1
10
151.561917004324
20
8.63179683666266
30
0
41
1
10
151.730964929433
20
9.43318534024664
30
0
41
1
10
151.815488891987
20
9.79777124352276
30
0
41
1
10
151.984536817095
20
10.4446838528438
30
0
41
1
10
152.069060779649
20
10.7270001726995
30
0
41
1
10
152.238108704757
20
11.2053306342089
30
0
41
1
10
152.322632667311
20
11.401367306024
30
0
41
1
10
152.491680592419
20
11.7089867197459
30
0
41
1
10
152.576204554973
20
11.820614656578
30
0
41
1
10
152.745252480081
20
11.9660942970192
30
0
41
1
10
152.829776442635
20
12
30
0
41
1
10
152.914300405189
20
12
30
0
0
SPLINE
5
FE
100
AcDbEntity
8
1
62
256
6
ByLayer
370
13
48
1
60
0
100
AcDbSpline
70
4
71
3
72
44
73
40
40
0
40
0
40
0
40
0
40
0.0624999999999989
40
0.0624999999999989
40
0.124999999999998
40
0.124999999999998
40
0.187499999999997
40
0.187499999999997
40
0.249999999999995
40
0.249999999999995
40
0.312499999999994
40
0.312499999999994
40
0.374999999999993
40
0.374999999999993
40
0.437499999999992
40
0.437499999999992
40
0.499999999999991
40
0.499999999999991
40
0.56249999999999
40
0.56249999999999
40
0.624999999999989
40
0.624999999999989
40
0.687499999999987
40
0.687499999999987
40
0.718749999999987
40
0.718749999999987
40
0.734374999999987
40
0.734374999999987
40
0.742187499999987
40
0.742187499999987
40
0.749999999999987
40
0.749999999999987
40
0.81249999999999
40
0.81249999999999
40
0.874999999999993
40
0.874999999999993
40
0.937499999999997
40
0.937499999999997
40
1
40
1
40
1
40
1
41
1
10
152.095143889703
20
12
30
0
41
1
10
152.173002500101
20
12
30
0
41
1
10
152.250861110499
20
11.9712447212525
30
0
41
1
10
152.406578331295
20
11.8484400464722
30
0
41
1
10
152.484436941693
20
11.754354696743
30
0
41
1
10
152.640154162489
20
11.4952968854857
30
0
41
1
10
152.718012772887
20
11.3302928439587
30
0
41
1
10
152.873729993683
20
10.9271036554259
30
0
41
1
10
152.951588604081
20
10.6888991844045
30
0
41
1
10
153.107305824877
20
10.1411084711337
30
0
41
1
10
153.185164435275
20
9.83152177612806
30
0
41
1
10
153.340881656071
20
9.14717896046511
30
0
41
1
10
153.418740266469
20
8.77244388686242
30
0
41
1
10
153.574457487265
20
7.9681259197809
30
0
41
1
10
153.652316097662
20
7.53858260651174
30
0
41
1
10
153.808033318458
20
6.63815247821316
30
0
41
1
10
153.885891928856
20
6.16731579152832
30
0
41
1
10
154.041609149652
20
5.19960545403578
30
0
41
1
10
154.11946776005
20
4.70278214994013
30
0
41
1
10
154.275184980846
20
3.6986595033103
30
0
41
1
10
154.353043591244
20
3.1914015083243
30
0
41
1
10
154.50876081204
20
2.18081609863722
30
0
41
1
10
154.586619422438
20
1.67751550156541
30
0
41
1
10
154.703407338035
20
0.934671886023722
30
0
41
1
10
154.742336643234
20
0.689055648680409
30
0
41
1
10
154.800730601033
20
0.324579462490618
30
0
41
1
10
154.820195253632
20
0.203744048680335
30
0
41
1
10
154.849392232531
20
0.0235821686080442
30
0
41
1
10
154.859124558831
20
-0.0362116049169003
30
0
41
1
10
154.87858921143
20
-0.156370497745002
30
0
41
1
10
154.88832153773
20
-0.216631131491141
30
0
41
1
10
154.975912474428
20
-0.760529182835029
30
0
41
1
10
155.053771084826
20
-1.25514848350929
30
0
41
1
10
155.209488305622
20
-2.25618371153024
30
0
41
1
10
155.28734691602
20
-2.76258258122974
30
0
41
1
10
155.443064136816
20
-3.77406012927315
30
0
41
1
10
155.520922747214
20
-4.27910604785527
30
0
41
1
10
155.67663996801
20
-5.2729071956515
30
0
41
1
10
155.754498578408
20
-5.76161673133294
30
0
41
1
10
155.832357188806
20
-6.2343648671411
30
0
0
SPLINE
5
FF
100
AcDbEntity
8
1
62
256
6
ByLayer
370
13
48
1
60
0
100
AcDbSpline
70
4
71
3
72
79
73
75
40
0
40
0
40
0
40
0
40
0.03125
40
0.03125
40
0.0625000000000001
40
0.0625000000000001
40
0.0937500000000001
40
0.0937500000000001
40
0.125
40
0.125
40
0.15625
40
0.15625
40
0.1875
40
0.1875
40
0.21875
40
0.21875
40
0.25
40
0.25
40
0.265625
40
0.265625
40
0.273437500000001
40
0.273437500000001
40
0.281250000000001
40
0.281250000000001
40
0.312500000000001
40
0.312500000000001
40
0.343750000000001
40
0.343750000000001
40
0.375000000000001
40
0.375000000000001
40
0.406250000000001
40
0.406250000000001
40
0.437500000000001
40
0.437500000000001
40
0.468750000000001
40
0.468750000000001
40
0.500000000000001
40
0.500000000000001
40
0.531250000000001
40
0.531250000000001
40
0.562500000000001
40
0.562500000000001
40
0.593750000000001
40
0.593750000000001
40
0.625000000000001
40
0.625000000000001
40
0.632812500000001
40
0.636718750000001
40
0.636718750000001
40
0.640625
40
0.640625
40
0.65625
40
0.65625
40
0.687500000000001
40
0.687500000000001
40
0.718750000000001
40
0.718750000000001
40
0.75
40
0.75
40
0.78125
40
0.78125
40
0.8125
40
0.8125
40
0.84375
40
0.84375
40
0.875
40
0.875
40
0.90625
40
0.90625
40
0.9375
40
0.9375
40
0.96875
40
0.96875
40
1
40
1
40
1
40
1
41
1
10
144.8
20
-4.13881326646188
30
0
41
1
10
144.879457890792
20
-4.65161581282879
30
0
41
1
10
144.958915781583
20
-5.15928819131696
30
0
41
1
10
145.117831563166
20
-6.14795816832716
30
0
41
1
10
145.197289453957
20
-6.62890016540854
30
0
41
1
10
145.356205235541
20
-7.54782614760271
30
0
41
1
10
145.435663126332
20
-7.98575466338667
30
0
41
1
10
145.594578907915
20
-8.80430225397939
30
0
41
1
10
145.674036798707
20
-9.184877878598
30
0
41
1
10
145.832952580289
20
-9.87782933352125
30
0
41
1
10
145.912410471081
20
-10.1901828274829
30
0
41
1
10
146.071326252664
20
-10.7402782770268
30
0
41
1
10
146.150784143455
20
-10.978022156501
30
0
41
1
10
146.309699925039
20
-11.3772771704535
30
0
41
1
10
146.38915781583
20
-11.5388111119183
30
0
41
1
10
146.548073597413
20
-11.7884259383606
30
0
41
1
10
146.627531488204
20
-11.8765426607046
30
0
41
1
10
146.746718324392
20
-11.9583287339877
30
0
41
1
10
146.786447269787
20
-11.9772162469417
30
0
41
1
10
146.846040687881
20
-11.9937416656174
30
0
41
1
10
146.865905160579
20
-11.9972835064996
30
0
41
1
10
146.905634105975
20
-12.0005704698202
30
0
41
1
10
146.925498578673
20
-12.0003352805102
30
0
41
1
10
147.024820942162
20
-11.9896995860581
30
0
41
1
10
147.104278832953
20
-11.9505994110387
30
0
41
1
10
147.263194614536
20
-11.8032396074105
30
0
41
1
10
147.342652505328
20
-11.6949404190537
30
0
41
1
10
147.501568286911
20
-11.4037723458113
30
0
41
1
10
147.581026177702
20
-11.2208703695953
30
0
41
1
10
147.739941959285
20
-10.7788517302077
30
0
41
1
10
147.819399850077
20
-10.5197174857357
30
0
41
1
10
147.97831563166
20
-9.92814936462264
30
0
41
1
10
148.057773522451
20
-9.5957203211
30
0
41
1
10
148.216689304034
20
-8.86525192213722
30
0
41
1
10
148.296147194826
20
-8.46724146398256
30
0
41
1
10
148.455062976409
20
-7.6175679579307
30
0
41
1
10
148.5345208672
20
-7.16595286312196
30
0
41
1
10
148.693436648783
20
-6.22411768070242
30
0
41
1
10
148.772894539575
20
-5.7339543193178
30
0
41
1
10
148.931810321158
20
-4.73154636954536
30
0
41
1
10
149.011268211949
20
-4.21935536495707
30
0
41
1
10
149.170183993532
20
-3.18919162112917
30
0
41
1
10
149.249641884324
20
-2.67125979098827
30
0
41
1
10
149.408557665907
20
-1.6442389775556
30
0
41
1
10
149.488015556698
20
-1.13517354502329
30
0
41
1
10
149.587337920188
20
-0.511849493860922
30
0
41
1
10
149.617134629235
20
-0.325817006442605
30
0
41
1
10
149.646931338281
20
-0.141407816156999
30
0
41
1
10
149.666795810979
20
-0.018847236722479
30
0
41
1
10
149.676728047328
20
0.0421761535450855
30
0
41
1
10
149.726389229073
20
0.348817706533708
30
0
41
1
10
149.766118174469
20
0.597152208454048
30
0
41
1
10
149.885305010656
20
1.34932979530129
30
0
41
1
10
149.964762901447
20
1.86043598531882
30
0
41
1
10
150.12367868303
20
2.88962682306217
30
0
41
1
10
150.203136573822
20
3.40768539008616
30
0
41
1
10
150.362052355405
20
4.4358829178619
30
0
41
1
10
150.441510246196
20
4.94597877667604
30
0
41
1
10
150.600426027779
20
5.94184638984663
30
0
41
1
10
150.679883918571
20
6.42756344931126
30
0
41
1
10
150.838799700154
20
7.35825588069739
30
0
41
1
10
150.918257590945
20
7.80317503273977
30
0
41
1
10
151.077173372528
20
8.6375474247281
30
0
41
1
10
151.15663126332
20
9.02695486353986
30
0
41
1
10
151.315547044903
20
9.73884957760768
30
0
41
1
10
151.395004935694
20
10.0613111946555
30
0
41
1
10
151.553920717277
20
10.6322355241755
30
0
41
1
10
151.633378608069
20
10.8806968087279
30
0
41
1
10
151.792294389652
20
11.3013330265982
30
0
41
1
10
151.871752280443
20
11.4735282304398
30
0
41
1
10
152.030668062026
20
11.7438378182667
30
0
41
1
10
152.110125952818
20
11.8419867591879
30
0
41
1
10
152.269041734401
20
11.9700479654288
30
0
41
1
10
152.348499625192
20
12
30
0
41
1
10
152.427957515984
20
12
30
0
0
SPLINE
5
100
100
AcDbEntity
8
1
62
256
6
ByLayer
370
13
48
1
60
0
100
AcDbSpline
70
4
71
3
72
43
73
39
40
0
40
0
40
0
40
0
40
0.0624999999999993
40
0.0624999999999993
40
0.124999999999999
40
0.124999999999999
40
0.187499999999998
40
0.187499999999998
40
0.249999999999997
40
0.249999999999997
40
0.312499999999997
40
0.312499999999997
40
0.374999999999996
40
0.374999999999996
40
0.437499999999995
40
0.437499999999995
40
0.499999999999995
40
0.499999999999995
40
0.562499999999994
40
0.562499999999994
40
0.624999999999993
40
0.624999999999993
40
0.640624999999993
40
0.648437499999993
40
0.648437499999993
40
0.656249999999994
40
0.656249999999994
40
0.687499999999994
40
0.687499999999994
40
0.749999999999995
40
0.749999999999995
40
0.812499999999996
40
0.812499999999996
40
0.874999999999998
40
0.874999999999998
40
0.937499999999999
40
0.937499999999999
40
1
40
1
40
1
40
1
41
1
10
151.608801000497
20
12
30
0
41
1
10
151.696791754421
20
12
30
0
41
1
10
151.784782508344
20
11.9632459625487
30
0
41
1
10
151.96076401619
20
11.8051707798006
30
0
41
1
10
152.048754770113
20
11.6837837938517
30
0
41
1
10
152.224736277959
20
11.3491689426591
30
0
41
1
10
152.312727031882
20
11.1358875391819
30
0
41
1
10
152.488708539728
20
10.61597788488
30
0
41
1
10
152.576699293651
20
10.3093265795107
30
0
41
1
10
152.752680801498
20
9.60815674939585
30
0
41
1
10
152.840671555421
20
9.21365803848283
30
0
41
1
10
153.016653063267
20
8.34934531172283
30
0
41
1
10
153.10464381719
20
7.87959343946631
30
0
41
1
10
153.280625325036
20
6.88315231726259
30
0
41
1
10
153.368616078959
20
6.35655254329421
30
0
41
1
10
153.544597586805
20
5.26827483452971
30
0
41
1
10
153.632588340728
20
4.70669020572123
30
0
41
1
10
153.808569848575
20
3.57094700723792
30
0
41
1
10
153.896560602498
20
2.9968635760641
30
0
41
1
10
154.072542110344
20
1.8566661134748
30
0
41
1
10
154.160532864267
20
1.29059651068559
30
0
41
1
10
154.270521306671
20
0.598459869104715
30
0
41
1
10
154.303517839392
20
0.391961612998813
30
0
41
1
10
154.336514372113
20
0.187420715645686
30
0
41
1
10
154.358512060594
20
0.0515199671317816
30
0
41
1
10
154.369510904834
20
-0.0160512873935943
30
0
41
1
10
154.424505126036
20
-0.355399997211066
30
0
41
1
10
154.468500502998
20
-0.630605137910408
30
0
41
1
10
154.600486633882
20
-1.46482219342948
30
0
41
1
10
154.688477387805
20
-2.03256700547902
30
0
41
1
10
154.864458895652
20
-3.17415395890092
30
0
41
1
10
154.952449649575
20
-3.74794827147022
30
0
41
1
10
155.128431157421
20
-4.88084766592641
30
0
41
1
10
155.216421911344
20
-5.43987495483233
30
0
41
1
10
155.39240341919
20
-6.52070523107275
30
0
41
1
10
155.480394173113
20
-7.04241418355195
30
0
41
1
10
155.656375680959
20
-8.02696624832871
30
0
41
1
10
155.744366434883
20
-8.48972168540024
30
0
41
1
10
155.832357188806
20
-8.91407952263151
30
0
0
SPLINE
5
101
100
AcDbEntity
8
1
62
256
6
ByLayer
370
13
48
1
60
0
100
AcDbSpline
70
4
71
3
72
79
73
75
40
0
40
0
40
0
40
0
40
0.0312500000000004
40
0.0312500000000004
40
0.0625000000000008
40
0.0625000000000008
40
0.0937500000000012
40
0.0937500000000012
40
0.125000000000002
40
0.125000000000002
40
0.156250000000002
40
0.156250000000002
40
0.187500000000002
40
0.187500000000002
40
0.218750000000003
40
0.218750000000003
40
0.226562500000003
40
0.226562500000003
40
0.230468750000003
40
0.230468750000003
40
0.234375000000003
40
0.250000000000003
40
0.250000000000003
40
0.281250000000003
40
0.281250000000003
40
0.312500000000003
40
0.312500000000003
40
0.343750000000003
40
0.343750000000003
40
0.375000000000002
40
0.375000000000002
40
0.406250000000002
40
0.406250000000002
40
0.437500000000002
40
0.437500000000002
40
0.468750000000002
40
0.468750000000002
40
0.500000000000002
40
0.500000000000002
40
0.531250000000002
40
0.531250000000002
40
0.562500000000001
40
0.562500000000001
40
0.593750000000001
40
0.593750000000001
40
0.609375000000001
40
0.609375000000001
40
0.617187500000002
40
0.617187500000002
40
0.625000000000002
40
0.625000000000002
40
0.656250000000002
40
0.656250000000002
40
0.687500000000002
40
0.687500000000002
40
0.718750000000001
40
0.718750000000001
40
0.750000000000001
40
0.750000000000001
40
0.781250000000001
40
0.781250000000001
40
0.812500000000001
40
0.812500000000001
40
0.843750000000001
40
0.843750000000001
40
0.875000000000001
40
0.875000000000001
40
0.906250000000001
40
0.906250000000001
40
0.9375
40
0.9375
40
0.96875
40
0.96875
40
1
40
1
40
1
40
1
41
1
10
144.8
20
-7.14374445696819
30
0
41
1
10
144.874391819029
20
-7.57228629619831
30
0
41
1
10
144.948783638058
20
-7.98169103465915
30
0
41
1
10
145.097567276116
20
-8.75055470202156
30
0
41
1
10
145.171959095145
20
-9.10998204303667
30
0
41
1
10
145.320742733203
20
-9.76977663682334
30
0
41
1
10
145.395134552231
20
-10.0701263195214
30
0
41
1
10
145.543918190289
20
-10.6060455793366
30
0
41
1
10
145.618310009318
20
-10.8416139654528
30
0
41
1
10
145.767093647376
20
-11.2459316558253
30
0
41
1
10
145.841485466405
20
-11.4146945720022
30
0
41
1
10
145.990269104463
20
-11.6868474590293
30
0
41
1
10
146.064660923492
20
-11.7902612994197
30
0
41
1
10
146.21344456155
20
-11.9360653666366
30
0
41
1
10
146.287836380579
20
-11.9784839857017
30
0
41
1
10
146.380826154365
20
-11.997396286676
30
0
41
1
10
146.399424109122
20
-11.9994771069731
30
0
41
1
10
146.427321041258
20
-12.0001311778709
30
0
41
1
10
146.436620018637
20
-11.9999401272567
30
0
41
1
10
146.455217973394
20
-11.9987304608969
30
0
41
1
10
146.501712860287
20
-11.9936344350415
30
0
41
1
10
146.54820774718
20
-11.9779921478613
30
0
41
1
10
146.659795475724
20
-11.9189100862958
30
0
41
1
10
146.734187294752
20
-11.8507350510366
30
0
41
1
10
146.88297093281
20
-11.6512220949348
30
0
41
1
10
146.957362751839
20
-11.5198570392278
30
0
41
1
10
147.106146389897
20
-11.1907694251746
30
0
41
1
10
147.180538208926
20
-10.993026765991
30
0
41
1
10
147.329321846984
20
-10.5311717764499
30
0
41
1
10
147.403713666013
20
-10.2670518322118
30
0
41
1
10
147.552497304071
20
-9.67604843933168
30
0
41
1
10
147.6268891231
20
-9.34917331260064
30
0
41
1
10
147.775672761157
20
-8.63988397313005
30
0
41
1
10
147.850064580186
20
-8.25749392993748
30
0
41
1
10
147.998848218244
20
-7.4475257925003
30
0
41
1
10
148.073240037273
20
-7.01998370020556
30
0
41
1
10
148.222023675331
20
-6.13226739646606
30
0
41
1
10
148.29641549436
20
-5.67213417646582
30
0
41
1
10
148.445199132418
20
-4.73281314194713
30
0
41
1
10
148.519590951447
20
-4.25366378819169
30
0
41
1
10
148.668374589505
20
-3.28968906362766
30
0
41
1
10
148.742766408534
20
-2.80489363783045
30
0
41
1
10
148.891550046592
20
-1.84175931513994
30
0
41
1
10
148.965941865621
20
-1.3634387466241
30
0
41
1
10
149.077529594164
20
-0.658415266303336
30
0
41
1
10
149.114725503679
20
-0.425466561066372
30
0
41
1
10
149.17051936795
20
-0.079918648931681
30
0
41
1
10
149.189117322707
20
0.0342083225458509
30
0
41
1
10
149.226313232222
20
0.264228993470482
30
0
41
1
10
149.244911186979
20
0.379892065498922
30
0
41
1
10
149.337900960765
20
0.961158202732207
30
0
41
1
10
149.412292779794
20
1.43570393016589
30
0
41
1
10
149.561076417852
20
2.39438110778352
30
0
41
1
10
149.635468236881
20
2.87849765138972
30
0
41
1
10
149.784251874939
20
3.84470949194815
30
0
41
1
10
149.858643693968
20
4.32677795768976
30
0
41
1
10
150.007427332026
20
5.2757928991808
30
0
41
1
10
150.081819151055
20
5.74270282886496
30
0
41
1
10
150.230602789113
20
6.64776859028436
30
0
41
1
10
150.304994608141
20
7.0858834139548
30
0
41
1
10
150.453778246199
20
7.92038198722096
30
0
41
1
10
150.528170065228
20
8.31672755288969
30
0
41
1
10
150.676953703286
20
9.05658311630225
30
0
41
1
10
150.751345522315
20
9.40006503045294
30
0
41
1
10
150.900129160373
20
10.0259824186982
30
0
41
1
10
150.974520979402
20
10.3084048976321
30
0
41
1
10
151.12330461746
20
10.8075186054942
30
0
41
1
10
151.197696436489
20
11.0242131530755
30
0
41
1
10
151.346480074547
20
11.3908582902552
30
0
41
1
10
151.420871893576
20
11.5408259458655
30
0
41
1
10
151.569655531633
20
11.7763577890482
30
0
41
1
10
151.644047350662
20
11.8619477139741
30
0
41
1
10
151.79283098872
20
11.9737544836285
30
0
41
1
10
151.867222807749
20
12
30
0
41
1
10
151.941614626778
20
12
30
0
0
SPLINE
5
102
100
AcDbEntity
8
1
62
256
6
ByLayer
370
13
48
1
60
0
100
AcDbSpline
70
4
71
3
72
42
73
38
40
0
40
0
40
0
40
0
40
0.0624999999999992
40
0.0624999999999992
40
0.124999999999998
40
0.124999999999998
40
0.187499999999998
40
0.187499999999998
40
0.249999999999997
40
0.249999999999997
40
0.312499999999996
40
0.312499999999996
40
0.374999999999995
40
0.374999999999995
40
0.437499999999994
40
0.437499999999994
40
0.499999999999994
40
0.499999999999994
40
0.562499999999993
40
0.562499999999993
40
0.578124999999993
40
0.578124999999993
40
0.593749999999993
40
0.593749999999993
40
0.624999999999993
40
0.624999999999993
40
0.687499999999994
40
0.687499999999994
40
0.749999999999995
40
0.749999999999995
40
0.812499999999997
40
0.812499999999997
40
0.874999999999998
40
0.874999999999998
40
0.937499999999999
40
0.937499999999999
40
1
40
1
40
1
40
1
41
1
10
151.122458111292
20
12
30
0
41
1
10
151.22058100874
20
12
30
0
41
1
10
151.318703906188
20
11.9542538530204
30
0
41
1
10
151.514949701085
20
11.7561879897483
30
0
41
1
10
151.613072598533
20
11.6037559299846
30
0
41
1
10
151.809318393429
20
11.1834143542052
30
0
41
1
10
151.907441290877
20
10.9154223320159
30
0
41
1
10
152.103687085774
20
10.2645184376431
30
0
41
1
10
152.201809983222
20
9.8815910460811
30
0
41
1
10
152.398055778118
20
9.01244092397684
30
0
41
1
10
152.496178675567
20
8.52628754867831
30
0
41
1
10
152.692424470463
20
7.47260932004363
30
0
41
1
10
152.790547367911
20
6.90522280008136
30
0
41
1
10
152.986793162808
20
5.71809019177536
30
0
41
1
10
153.084916060256
20
5.09850699749728
30
0
41
1
10
153.281161855152
20
3.83837290331587
30
0
41
1
10
153.379284752601
20
3.19795967378596
30
0
41
1
10
153.575530547497
20
1.92524448414602
30
0
41
1
10
153.673653444945
20
1.29302358986328
30
0
41
1
10
153.796307066755
20
0.522434626082969
30
0
41
1
10
153.820837791117
20
0.369284704779488
30
0
41
1
10
153.869899239841
20
0.0652154834726559
30
0
41
1
10
153.894429964204
20
-0.0851700988618234
30
0
41
1
10
153.96802213729
20
-0.541566913226916
30
0
41
1
10
154.017083586014
20
-0.850282009164943
30
0
41
1
10
154.164267932186
20
-1.78605688433794
30
0
41
1
10
154.262390829634
20
-2.42293772037743
30
0
41
1
10
154.458636624531
20
-3.69785958014884
30
0
41
1
10
154.556759521979
20
-4.33580328231676
30
0
41
1
10
154.753005316875
20
-5.58287460980048
30
0
41
1
10
154.851128214324
20
-6.19185390433415
30
0
41
1
10
155.04737400922
20
-7.34977159827992
30
0
41
1
10
155.145496906668
20
-7.89854844013689
30
0
41
1
10
155.341742701564
20
-8.90840540109451
30
0
41
1
10
155.439865599013
20
-9.36936174990382
30
0
41
1
10
155.636111393909
20
-10.1839690545279
30
0
41
1
10
155.734234291357
20
-10.5375727355558
30
0
41
1
10
155.832357188806
20
-10.8330883717448
30
0
0
SPLINE
5
103
100
AcDbEntity
8
1
62
256
6
ByLayer
370
13
48
1
60
0
100
AcDbSpline
70
4
71
3
72
78
73
74
40
0
40
0
40
0
40
0
40
0.03125
40
0.03125
40
0.0625
40
0.0625
40
0.09375
40
0.09375
40
0.125
40
0.125
40
0.15625
40
0.15625
40
0.1640625
40
0.1640625
40
0.171875
40
0.171875
40
0.1875
40
0.1875
40
0.21875
40
0.21875
40
0.25
40
0.25
40
0.28125
40
0.28125
40
0.3125
40
0.3125
40
0.34375
40
0.34375
40
0.375
40
0.375
40
0.40625
40
0.40625
40
0.4375
40
0.4375
40
0.46875
40
0.46875
40
0.5
40
0.5
40
0.53125
40
0.53125
40
0.5625
40
0.5625
40
0.578125
40
0.578125
40
0.5859375
40
0.5859375
40
0.59375
40
0.59375
40
0.625
40
0.625
40
0.65625
40
0.65625
40
0.6875
40
0.6875
40
0.71875
40
0.71875
40
0.75
40
0.75
40
0.78125
40
0.78125
40
0.8125
40
0.8125
40
0.84375
40
0.84375
40
0.875
40
0.875
40
0.90625
40
0.90625
40
0.9375
40
0.9375
40
0.96875
40
0.96875
40
1
40
1
40
1
40
1
41
1
10
144.8
20
-9.61437430020155
30
0
41
1
10
144.869325747266
20
-9.91187839668851
30
0
41
1
10
144.938651494533
20
-10.1831821691577
30
0
41
1
10
145.077302989065
20
-10.6692115919576
30
0
41
1
10
145.146628736332
20
-10.8839376721019
30
0
41
1
10
145.285280230865
20
-11.2553905767945
30
0
41
1
10
145.354605978131
20
-11.4121273757372
30
0
41
1
10
145.493257472664
20
-11.6687948577686
30
0
41
1
10
145.56258321993
20
-11.7687422105273
30
0
41
1
10
145.701234714463
20
-11.9152263469849
30
0
41
1
10
145.770560461729
20
-11.9617829805129
30
0
41
1
10
145.857217645812
20
-11.9897448643964
30
0
41
1
10
145.874549082629
20
-11.9938287031749
30
0
41
1
10
145.909211956262
20
-11.9990687777848
30
0
41
1
10
145.926543393079
20
-12.0002257559458
30
0
41
1
10
145.978537703528
20
-11.9994401731066
30
0
41
1
10
146.013200577162
20
-11.9932107493989
30
0
41
1
10
146.117189198061
20
-11.9563183724406
30
0
41
1
10
146.186514945328
20
-11.9074068962822
30
0
41
1
10
146.32516643986
20
-11.7560161934663
30
0
41
1
10
146.394492187127
20
-11.6535171869926
30
0
41
1
10
146.53314368166
20
-11.391638886649
30
0
41
1
10
146.602469428926
20
-11.2322431551589
30
0
41
1
10
146.741120923459
20
-10.855477310588
30
0
41
1
10
146.810446670725
20
-10.6380976086206
30
0
41
1
10
146.949098165258
20
-10.1468920281804
30
0
41
1
10
147.018423912524
20
-9.87306620375972
30
0
41
1
10
147.157075407057
20
-9.27327157760917
30
0
41
1
10
147.226401154323
20
-8.94731359759112
30
0
41
1
10
147.365052648856
20
-8.25017207156071
30
0
41
1
10
147.434378396122
20
-7.87900900334827
30
0
41
1
10
147.573029890655
20
-7.1005128481612
30
0
41
1
10
147.642355637922
20
-6.69320668057412
30
0
41
1
10
147.781007132454
20
-5.8528928019301
30
0
41
1
10
147.850332879721
20
-5.41991397778185
30
0
41
1
10
147.988984374254
20
-4.53928102722173
30
0
41
1
10
148.05831012152
20
-4.09165324754525
30
0
41
1
10
148.196961616053
20
-3.19246089205865
30
0
41
1
10
148.266287363319
20
-2.74091669889842
30
0
41
1
10
148.404938857852
20
-1.84362942841705
30
0
41
1
10
148.474264605118
20
-1.39789904940611
30
0
41
1
10
148.578253226018
20
-0.739831389069963
30
0
41
1
10
148.612916099651
20
-0.522217279300861
30
0
41
1
10
148.664910410101
20
-0.199056774376316
30
0
41
1
10
148.682241846917
20
-0.091980005077346
30
0
41
1
10
148.71690472055
20
0.121409252483801
30
0
41
1
10
148.734236157367
20
0.228690823312917
30
0
41
1
10
148.82089334145
20
0.767788229286651
30
0
41
1
10
148.890219088716
20
1.20774180688079
30
0
41
1
10
149.028870583249
20
2.09760568796071
30
0
41
1
10
149.098196330515
20
2.54750705277488
30
0
41
1
10
149.236847825048
20
3.44821278677298
30
0
41
1
10
149.306173572315
20
3.89900033574409
30
0
41
1
10
149.444825066847
20
4.79115409766422
30
0
41
1
10
149.514150814114
20
5.23249647911618
30
0
41
1
10
149.652802308647
20
6.09477986066685
30
0
41
1
10
149.722128055913
20
6.51569266814604
30
0
41
1
10
149.860779550446
20
7.32627355974481
30
0
41
1
10
149.930105297712
20
7.71591319598272
30
0
41
1
10
150.068756792245
20
8.45410778407927
30
0
41
1
10
150.138082539511
20
8.80263868070816
30
0
41
1
10
150.276734034044
20
9.45058480320816
30
0
41
1
10
150.34605978131
20
9.74998432133987
30
0
41
1
10
150.484711275843
20
10.2940562528635
30
0
41
1
10
150.554037023109
20
10.5387234849802
30
0
41
1
10
150.692688517642
20
10.9704587111247
30
0
41
1
10
150.762014264908
20
11.1575319601553
30
0
41
1
10
150.900665759441
20
11.4739427673705
30
0
41
1
10
150.969991506708
20
11.6032939139784
30
0
41
1
10
151.108643001241
20
11.8065673240217
30
0
41
1
10
151.177968748507
20
11.8805082152511
30
0
41
1
10
151.31662024304
20
11.9772144645179
30
0
41
1
10
151.385945990306
20
12
30
0
41
1
10
151.455271737572
20
12
30
0
0
SPLINE
5
104
100
AcDbEntity
8
1
62
256
6
ByLayer
370
13
48
1
60
0
100
AcDbSpline
70
4
71
3
72
70
73
66
40
0
40
0
40
0
40
0
40
0.0624999999999995
40
0.0624999999999995
40
0.0937499999999993
40
0.0937499999999993
40
0.124999999999999
40
0.124999999999999
40
0.156249999999999
40
0.156249999999999
40
0.187499999999999
40
0.187499999999999
40
0.218749999999998
40
0.218749999999998
40
0.249999999999998
40
0.249999999999998
40
0.281249999999998
40
0.281249999999998
40
0.312499999999998
40
0.312499999999998
40
0.343749999999998
40
0.343749999999998
40
0.374999999999998
40
0.374999999999998
40
0.406249999999997
40
0.406249999999997
40
0.437499999999997
40
0.437499999999997
40
0.468749999999997
40
0.468749999999997
40
0.499999999999997
40
0.499999999999997
40
0.515624999999997
40
0.515624999999997
40
0.531249999999997
40
0.531249999999997
40
0.562499999999997
40
0.562499999999997
40
0.593749999999997
40
0.593749999999997
40
0.624999999999998
40
0.624999999999998
40
0.656249999999998
40
0.656249999999998
40
0.687499999999998
40
0.687499999999998
40
0.718749999999998
40
0.718749999999998
40
0.749999999999998
40
0.749999999999998
40
0.781249999999999
40
0.781249999999999
40
0.812499999999999
40
0.812499999999999
40
0.843749999999999
40
0.843749999999999
40
0.874999999999999
40
0.874999999999999
40
0.906249999999999
40
0.906249999999999
40
0.9375
40
0.9375
40
0.96875
40
0.96875
40
1
40
1
40
1
40
1
41
1
10
150.636115222086
20
12
30
0
41
1
10
150.744370263059
20
12
30
0
41
1
10
150.852625304033
20
11.9442618620354
30
0
41
1
10
151.015007865493
20
11.7621261505333
30
0
41
1
10
151.069135385979
20
11.6850450065319
30
0
41
1
10
151.177390426953
20
11.4965184005167
30
0
41
1
10
151.231517947439
20
11.3850678978082
30
0
41
1
10
151.339772988413
20
11.1269560135789
30
0
41
1
10
151.393900508899
20
10.9802909218306
30
0
41
1
10
151.502155549873
20
10.6518277865118
30
0
41
1
10
151.556283070359
20
10.4700279389275
30
0
41
1
10
151.664538111333
20
10.072382559753
30
0
41
1
10
151.718665631819
20
9.85653753815356
30
0
41
1
10
151.826920672793
20
9.39291920602994
30
0
41
1
10
151.881048193279
20
9.14514886306523
30
0
41
1
10
151.989303234253
20
8.62077551400063
30
0
41
1
10
152.043430754739
20
8.34417775911396
30
0
41
1
10
152.151685795713
20
7.7660991650904
30
0
41
1
10
152.205813316199
20
7.46462537870659
30
0
41
1
10
152.314068357172
20
6.8414115372872
30
0
41
1
10
152.368195877659
20
6.51967962049343
30
0
41
1
10
152.476450918633
20
5.86100273521703
30
0
41
1
10
152.530578439119
20
5.52406616269681
30
0
41
1
10
152.638833480093
20
4.84021829634517
30
0
41
1
10
152.692961000579
20
4.49331485576135
30
0
41
1
10
152.801216041552
20
3.79470992060365
30
0
41
1
10
152.855343562039
20
3.44301508504452
30
0
41
1
10
152.963598603013
20
2.73972232114036
30
0
41
1
10
153.017726123499
20
2.38812943313221
30
0
41
1
10
153.125981164473
20
1.68947690493295
30
0
41
1
10
153.180108684959
20
1.34242051321539
30
0
41
1
10
153.261299965689
20
0.828125568211306
30
0
41
1
10
153.288363725933
20
0.65773734326774
30
0
41
1
10
153.342491246419
20
0.319468083540329
30
0
41
1
10
153.369555006662
20
0.151750226362935
30
0
41
1
10
153.450746287392
20
-0.348076564029412
30
0
41
1
10
153.504873807879
20
-0.687044122241048
30
0
41
1
10
153.613128848853
20
-1.37326319468343
30
0
41
1
10
153.667256369339
20
-1.72051314955328
30
0
41
1
10
153.775511410312
20
-2.41942892605559
30
0
41
1
10
153.829638930799
20
-2.77109144569977
30
0
41
1
10
153.937893971772
20
-3.47438388528875
30
0
41
1
10
153.992021492259
20
-3.82600871304024
30
0
41
1
10
154.100276533232
20
-4.52432285518103
30
0
41
1
10
154.154404053719
20
-4.87100546768463
30
0
41
1
10
154.262659094693
20
-5.55425568070478
30
0
41
1
10
154.316786615179
20
-5.89081540145764
30
0
41
1
10
154.425041656153
20
-6.54858440515892
30
0
41
1
10
154.479169176639
20
-6.86978528779684
30
0
41
1
10
154.587424217612
20
-7.49179222420432
30
0
41
1
10
154.641551738099
20
-7.7925901602816
30
0
41
1
10
154.749806779072
20
-8.36918884453743
30
0
41
1
10
154.803934299559
20
-8.64498258409731
30
0
41
1
10
154.912189340532
20
-9.16764262759156
30
0
41
1
10
154.966316861019
20
-9.41450374266799
30
0
41
1
10
155.074571901992
20
-9.87622596315481
30
0
41
1
10
155.128699422479
20
-10.0910841731903
30
0
41
1
10
155.236954463452
20
-10.4867085242599
30
0
41
1
10
155.291081983939
20
-10.6674742276752
30
0
41
1
10
155.399337024912
20
-10.9938523461907
30
0
41
1
10
155.453464545399
20
-11.1394666289647
30
0
41
1
10
155.561719586372
20
-11.3954891952965
30
0
41
1
10
155.615847106859
20
-11.5059012375014
30
0
41
1
10
155.724102147832
20
-11.6923888992036
30
0
41
1
10
155.778229668319
20
-11.7684695892817
30
0
41
1
10
155.832357188806
20
-11.8282105977938
30
0
0
SPLINE
5
105
100
AcDbEntity
8
1
62
256
6
ByLayer
370
13
48
1
60
0
100
AcDbSpline
70
4
71
3
72
78
73
74
40
0
40
0
40
0
40
0
40
0.0312499999999992
40
0.0312499999999992
40
0.0624999999999984
40
0.0624999999999984
40
0.0937499999999976
40
0.0937499999999976
40
0.101562499999997
40
0.101562499999997
40
0.109374999999997
40
0.109374999999997
40
0.124999999999997
40
0.124999999999997
40
0.156249999999996
40
0.156249999999996
40
0.187499999999996
40
0.187499999999996
40
0.218749999999996
40
0.218749999999996
40
0.249999999999995
40
0.249999999999995
40
0.281249999999995
40
0.281249999999995
40
0.312499999999994
40
0.312499999999994
40
0.343749999999994
40
0.343749999999994
40
0.374999999999994
40
0.374999999999994
40
0.406249999999993
40
0.406249999999993
40
0.437499999999993
40
0.437499999999993
40
0.468749999999992
40
0.468749999999992
40
0.499999999999992
40
0.499999999999992
40
0.531249999999991
40
0.531249999999991
40
0.546874999999991
40
0.546874999999991
40
0.554687499999991
40
0.554687499999991
40
0.562499999999991
40
0.562499999999991
40
0.593749999999992
40
0.593749999999992
40
0.624999999999992
40
0.624999999999992
40
0.656249999999993
40
0.656249999999993
40
0.687499999999994
40
0.687499999999994
40
0.718749999999994
40
0.718749999999994
40
0.749999999999995
40
0.749999999999995
40
0.781249999999996
40
0.781249999999996
40
0.812499999999996
40
0.812499999999996
40
0.843749999999997
40
0.843749999999997
40
0.874999999999998
40
0.874999999999998
40
0.906249999999998
40
0.906249999999998
40
0.937499999999999
40
0.937499999999999
40
0.968749999999999
40
0.968749999999999
40
1
40
1
40
1
40
1
41
1
10
144.8
20
-11.2483137815848
30
0
41
1
10
144.864259675504
20
-11.4023550603032
30
0
41
1
10
144.928519351008
20
-11.5315570772387
30
0
41
1
10
145.057038702015
20
-11.7417856926717
30
0
41
1
10
145.121298377519
20
-11.8228245286002
30
0
41
1
10
145.249817728527
20
-11.9397699510919
30
0
41
1
10
145.314077404031
20
-11.9756902836961
30
0
41
1
10
145.39440199841
20
-11.9949881124411
30
0
41
1
10
145.410466917286
20
-11.9975697146236
30
0
41
1
10
145.442596755038
20
-12.0002495168966
30
0
41
1
10
145.458661673914
20
-12.0003562136633
30
0
41
1
10
145.506856430542
20
-11.9969913598569
30
0
41
1
10
145.538986268294
20
-11.989792975916
30
0
41
1
10
145.63537578155
20
-11.9524755585744
30
0
41
1
10
145.699635457053
20
-11.9066014309344
30
0
41
1
10
145.828154808061
20
-11.7689402574729
30
0
41
1
10
145.892414483565
20
-11.6771396332711
30
0
41
1
10
146.020933834573
20
-11.4448922697077
30
0
41
1
10
146.085193510076
20
-11.3044339274957
30
0
41
1
10
146.213712861084
20
-10.973738789042
30
0
41
1
10
146.277972536588
20
-10.7834944467264
30
0
41
1
10
146.406491887596
20
-10.3539911234381
30
0
41
1
10
146.470751563099
20
-10.1147304224735
30
0
41
1
10
146.599270914107
20
-9.58999967689951
30
0
41
1
10
146.663530589611
20
-9.30453469303038
30
0
41
1
10
146.792049940618
20
-8.69219474757216
30
0
41
1
10
146.856309616122
20
-8.36533140826549
30
0
41
1
10
146.98482896713
20
-7.6767358506377
30
0
41
1
10
147.049088642634
20
-7.31502036633771
30
0
41
1
10
147.177607993641
20
-6.56457124472797
30
0
41
1
10
147.241867669145
20
-6.17585707258101
30
0
41
1
10
147.370387020153
20
-5.38001800364512
30
0
41
1
10
147.434646695657
20
-4.97291255725213
30
0
41
1
10
147.563166046664
20
-4.1490605917202
30
0
41
1
10
147.627425722168
20
-3.7323310293549
30
0
41
1
10
147.755945073176
20
-2.89760745802008
30
0
41
1
10
147.820204748679
20
-2.47962618852074
30
0
41
1
10
147.948724099687
20
-1.64993150051549
30
0
41
1
10
148.012983775191
20
-1.23822585056576
30
0
41
1
10
148.109373288447
20
-0.630152009443634
30
0
41
1
10
148.141503126199
20
-0.429031791582958
30
0
41
1
10
148.189697882826
20
-0.13021367468798
30
0
41
1
10
148.205762801702
20
-0.031387591720204
30
0
41
1
10
148.237892639454
20
0.166765211552786
30
0
41
1
10
148.25395755833
20
0.266339115169046
30
0
41
1
10
148.33428215271
20
0.766499079421635
30
0
41
1
10
148.398541828214
20
1.17400752428534
30
0
41
1
10
148.527061179222
20
1.99791473475773
30
0
41
1
10
148.591320854725
20
2.41430765259639
30
0
41
1
10
148.719840205733
20
3.24887859482706
30
0
41
1
10
148.784099881237
20
3.66704576277394
30
0
41
1
10
148.912619232245
20
4.49707750114751
30
0
41
1
10
148.976878907748
20
4.90892658998081
30
0
41
1
10
149.105398258756
20
5.71764947753161
30
0
41
1
10
149.16965793426
20
6.1145045277631
30
0
41
1
10
149.298177285267
20
6.88450137651836
30
0
41
1
10
149.362436960771
20
7.25762339149105
30
0
41
1
10
149.490956311779
20
7.97193834160413
30
0
41
1
10
149.555215987283
20
8.31311317214153
30
0
41
1
10
149.68373533829
20
8.95641916638274
30
0
41
1
10
149.747995013794
20
9.25853650173875
30
0
41
1
10
149.876514364802
20
9.81820285106727
30
0
41
1
10
149.940774040306
20
10.0757441756063
30
0
41
1
10
150.069293391313
20
10.5426528476957
30
0
41
1
10
150.133553066817
20
10.7520193520411
30
0
41
1
10
150.262072417825
20
11.1210212649331
30
0
41
1
10
150.326332093328
20
11.2806621461979
30
0
41
1
10
150.454851444336
20
11.550631615728
30
0
41
1
10
150.51911111984
20
11.6609704819188
30
0
41
1
10
150.647630470848
20
11.8344877703289
30
0
41
1
10
150.711890146351
20
11.8976792539387
30
0
41
1
10
150.840409497359
20
11.9804284626409
30
0
41
1
10
150.904669172863
20
12
30
0
41
1
10
150.968928848367
20
12
30
0
0
SPLINE
5
106
100
AcDbEntity
8
1
62
256
6
ByLayer
370
13
48
1
60
0
100
AcDbSpline
70
4
71
3
72
77
73
73
40
0
40
0
40
0
40
0
40
0.03125
40
0.03125
40
0.0624999999999999
40
0.0624999999999999
40
0.0937499999999999
40
0.0937499999999999
40
0.125
40
0.125
40
0.15625
40
0.15625
40
0.1875
40
0.1875
40
0.21875
40
0.21875
40
0.25
40
0.25
40
0.28125
40
0.28125
40
0.3125
40
0.3125
40
0.34375
40
0.34375
40
0.375
40
0.375
40
0.40625
40
0.40625
40
0.4375
40
0.4375
40
0.46875
40
0.46875
40
0.484375
40
0.484375
40
0.4921875
40
0.4921875
40
0.5
40
0.5
40
0.53125
40
0.53125
40
0.5625
40
0.5625
40
0.59375
40
0.59375
40
0.625
40
0.625
40
0.65625
40
0.65625
40
0.6875
40
0.6875
40
0.71875
40
0.71875
40
0.75
40
0.75
40
0.78125
40
0.78125
40
0.8125
40
0.8125
40
0.84375
40
0.84375
40
0.875
40
0.875
40
0.90625
40
0.90625
40
0.9375
40
0.9375
40
0.96875
40
0.96875
40
0.9765625
40
0.9765625
40
0.984375
40
1
40
1
40
1
40
1
41
1
10
150.14977233288
20
12
30
0
41
1
10
150.20896592513
20
12
30
0
41
1
10
150.268159517379
20
11.9833969831796
30
0
41
1
10
150.386546701877
20
11.9134721416733
30
0
41
1
10
150.445740294126
20
11.8601411601294
30
0
41
1
10
150.564127478625
20
11.7138988003363
30
0
41
1
10
150.623321070874
20
11.6209785851941
30
0
41
1
10
150.741708255373
20
11.3936382297811
30
0
41
1
10
150.800901847622
20
11.2592106994083
30
0
41
1
10
150.91928903212
20
10.9481261931221
30
0
41
1
10
150.978482624369
20
10.7714644427477
30
0
41
1
10
151.096869808868
20
10.3765589508891
30
0
41
1
10
151.156063401117
20
10.1583140286892
30
0
41
1
10
151.274450585616
20
9.68235945687718
30
0
41
1
10
151.333644177865
20
9.42465276655955
30
0
41
1
10
151.452031362363
20
8.87333665672958
30
0
41
1
10
151.511224954612
20
8.57973427586771
30
0
41
1
10
151.629612139111
20
7.96148267044089
30
0
41
1
10
151.68880573136
20
7.63684385353824
30
0
41
1
10
151.807192915859
20
6.96240407985746
30
0
41
1
10
151.866386508108
20
6.6126156568983
30
0
41
1
10
151.984773692606
20
5.89444080851686
30
0
41
1
10
152.043967284856
20
5.5260675170986
30
0
41
1
10
152.162354469354
20
4.77757540256525
30
0
41
1
10
152.221548061603
20
4.39746881159817
30
0
41
1
10
152.339935246102
20
3.63226471242871
30
0
41
1
10
152.399128838351
20
3.24717733040058
30
0
41
1
10
152.517516022849
20
2.47832871560308
30
0
41
1
10
152.576709615099
20
2.09457476733073
30
0
41
1
10
152.695096799597
20
1.33400898717417
30
0
41
1
10
152.754290391846
20
0.957201370956426
30
0
41
1
10
152.84308078022
20
0.400752985577014
30
0
41
1
10
152.872677576345
20
0.216723495981
30
0
41
1
10
152.917072770531
20
-0.0567635253514709
30
0
41
1
10
152.931871168594
20
-0.147967569680532
30
0
41
1
10
152.961467964718
20
-0.331532447061477
30
0
41
1
10
152.976266362781
20
-0.423717973995792
30
0
41
1
10
153.050258353092
20
-0.886501522208505
30
0
41
1
10
153.109451945341
20
-1.26270379066696
30
0
41
1
10
153.22783912984
20
-2.02238396218419
30
0
41
1
10
153.287032722089
20
-2.40585783958579
30
0
41
1
10
153.405419906587
20
-3.17452227135817
30
0
41
1
10
153.464613498837
20
-3.55970573276093
30
0
41
1
10
153.583000683335
20
-4.32551526067209
30
0
41
1
10
153.642194275585
20
-4.7061313635115
30
0
41
1
10
153.760581460083
20
-5.45607408782706
30
0
41
1
10
153.819775052332
20
-5.82538857847243
30
0
41
1
10
153.93816223683
20
-6.54587265153506
30
0
41
1
10
153.99735582908
20
-6.89702911430027
30
0
41
1
10
154.115743013578
20
-7.5746021331309
30
0
41
1
10
154.174936605827
20
-7.90100607129378
30
0
41
1
10
154.293323790326
20
-8.523131541689
30
0
41
1
10
154.352517382575
20
-8.81884249139299
30
0
41
1
10
154.470904567074
20
-9.37464586936517
30
0
41
1
10
154.530098159323
20
-9.63473101955452
30
0
41
1
10
154.648485343821
20
-10.1156255331369
30
0
41
1
10
154.70767893607
20
-10.3364316718486
30
0
41
1
10
154.826066120569
20
-10.7365496241214
30
0
41
1
10
154.885259712818
20
-10.9158623683141
30
0
41
1
10
155.003646897316
20
-11.2322478992135
30
0
41
1
10
155.062840489566
20
-11.3693252597276
30
0
41
1
10
155.181227674064
20
-11.6018822096396
30
0
41
1
10
155.240421266313
20
-11.69736905828
30
0
41
1
10
155.358808450812
20
-11.8485934415816
30
0
41
1
10
155.418002043061
20
-11.9043397567842
30
0
41
1
10
155.53638922756
20
-11.9788925819299
30
0
41
1
10
155.595582819809
20
-11.9977082583979
30
0
41
1
10
155.66957481012
20
-12.0003261270991
30
0
41
1
10
155.684373208183
20
-11.9998141723393
30
0
41
1
10
155.713970004307
20
-11.9966795238485
30
0
41
1
10
155.758365198494
20
-11.9888036608327
30
0
41
1
10
155.802760392681
20
-11.9711479106765
30
0
41
1
10
155.832357188806
20
-11.9548173226843
30
0
0
SPLINE
5
107
100
AcDbEntity
8
1
62
256
6
ByLayer
370
13
48
1
60
0
100
AcDbSpline
70
4
71
3
72
8
73
4
40
0
40
0
40
0
40
0
40
1
40
1
40
1
40
1
41
1
10
155.832357188805
20
11.7682917968853
30
0
41
1
10
157.28823812587
20
7.84211125347466
30
0
41
1
10
158.744119062935
20
3.91930991618346
30
0
41
1
10
160.2
20
-5.684E-13
30
0
0
SPLINE
5
108
100
AcDbEntity
8
1
62
256
6
ByLayer
370
13
48
1
60
0
100
AcDbSpline
70
4
71
3
72
8
73
4
40
0
40
0
40
0
40
0
40
1
40
1
40
1
40
1
41
1
10
155.832357188806
20
-5.66398585571611
30
0
41
1
10
157.28823812587
20
-3.76058852920869
30
0
41
1
10
158.744119062935
20
-1.87257528498182
30
0
41
1
10
160.2
20
-2.84E-14
30
0
0
SPLINE
5
109
100
AcDbEntity
8
1
62
256
6
ByLayer
370
13
48
1
60
0
100
AcDbSpline
70
4
71
3
72
8
73
4
40
0
40
0
40
0
40
0
40
1
40
1
40
1
40
1
41
1
10
155.832357188805
20
-3.95923429297872
30
0
41
1
10
157.28823812587
20
-2.65598180444431
30
0
41
1
10
158.744119062936
20
-1.33622439977665
30
0
41
1
10
160.200000000001
20
6.253E-13
30
0
0
SPLINE
5
10A
100
AcDbEntity
8
1
62
256
6
ByLayer
370
13
48
1
60
0
100
AcDbSpline
70
4
71
3
72
8
73
4
40
0
40
0
40
0
40
0
40
1
40
1
40
1
40
1
41
1
10
155.832357188805
20
5.41926653163287
30
0
41
1
10
157.28823812587
20
3.59725680144803
30
0
41
1
10
158.744119062936
20
1.7908174438939
30
0
41
1
10
160.200000000001
20
-8.242E-13
30
0
0
SPLINE
5
10B
100
AcDbEntity
8
1
62
256
6
ByLayer
370
13
48
1
60
0
100
AcDbSpline
70
4
71
3
72
8
73
4
40
0
40
0
40
0
40
0
40
1
40
1
40
1
40
1
41
1
10
155.832357188806
20
-11.6879231345127
30
0
41
1
10
157.28823812587
20
-7.79590716055091
30
0
41
1
10
158.744119062935
20
-3.89989560945872
30
0
41
1
10
160.2
20
-6.537E-13
30
0
0
SPLINE
5
10C
100
AcDbEntity
8
1
62
256
6
ByLayer
370
13
48
1
60
0
100
AcDbSpline
70
4
71
3
72
8
73
4
40
0
40
0
40
0
40
0
40
1
40
1
40
1
40
1
41
1
10
155.832357188806
20
-11.9955087488543
30
0
41
1
10
157.28823812587
20
-7.99748377381519
30
0
41
1
10
158.744119062935
20
-3.99894271774346
30
0
41
1
10
160.2
20
-2.84E-14
30
0
0
SPLINE
5
10D
100
AcDbEntity
8
1
62
256
6
ByLayer
370
13
48
1
60
0
100
AcDbSpline
70
4
71
3
72
8
73
4
40
0
40
0
40
0
40
0
40
1
40
1
40
1
40
1
41
1
10
155.832357188806
20
4.82557404468213
30
0
41
1
10
157.28823812587
20
3.2330451048571
30
0
41
1
10
158.744119062935
20
1.62450503011152
30
0
41
1
10
160.2
20
2.84E-14
30
0
0
SPLINE
5
10E
100
AcDbEntity
8
1
62
256
6
ByLayer
370
13
48
1
60
0
100
AcDbSpline
70
4
71
3
72
8
73
4
40
0
40
0
40
0
40
0
40
1
40
1
40
1
40
1
41
1
10
155.832357188805
20
-6.14322146607415
30
0
41
1
10
157.28823812587
20
-4.1104886193902
30
0
41
1
10
158.744119062935
20
-2.06272855135498
30
0
41
1
10
160.2
20
3.126E-13
30
0
0
SPLINE
5
10F
100
AcDbEntity
8
1
62
256
6
ByLayer
370
13
48
1
60
0
100
AcDbSpline
70
4
71
3
72
8
73
4
40
0
40
0
40
0
40
0
40
1
40
1
40
1
40
1
41
1
10
155.832357188806
20
9.52422339654487
30
0
41
1
10
157.28823812587
20
6.36011011230732
30
0
41
1
10
158.744119062935
20
3.18533866522083
30
0
41
1
10
160.2
20
2.84E-14
30
0
0
SPLINE
5
110
100
AcDbEntity
8
1
62
256
6
ByLayer
370
13
48
1
60
0
100
AcDbSpline
70
4
71
3
72
8
73
4
40
0
40
0
40
0
40
0
40
1
40
1
40
1
40
1
41
1
10
155.832357188805
20
4.31659780311864
30
0
41
1
10
157.28823812587
20
2.86143074863171
30
0
41
1
10
158.744119062936
20
1.4225511419861
30
0
41
1
10
160.200000000001
20
-6.537E-13
30
0
0
SPLINE
5
111
100
AcDbEntity
8
1
62
256
6
ByLayer
370
13
48
1
60
0
100
AcDbSpline
70
4
71
3
72
8
73
4
40
0
40
0
40
0
40
0
40
1
40
1
40
1
40
1
41
1
10
155.832357188806
20
6.92392691912383
30
0
41
1
10
157.28823812587
20
4.63022034137211
30
0
41
1
10
158.744119062935
20
2.32222264251024
30
0
41
1
10
160.2
20
2.84E-14
30
0
0
SPLINE
5
112
100
AcDbEntity
8
1
62
256
6
ByLayer
370
13
48
1
60
0
100
AcDbSpline
70
4
71
3
72
8
73
4
40
0
40
0
40
0
40
0
40
1
40
1
40
1
40
1
41
1
10
155.832357188806
20
10.2092059532905
30
0
41
1
10
157.28823812587
20
6.81531883512514
30
0
41
1
10
158.744119062935
20
3.41221769590274
30
0
41
1
10
160.2
20
2.84E-14
30
0
0
SPLINE
5
113
100
AcDbEntity
8
1
62
256
6
ByLayer
370
13
48
1
60
0
100
AcDbSpline
70
4
71
3
72
8
73
4
40
0
40
0
40
0
40
0
40
1
40
1
40
1
40
1
41
1
10
155.832357188806
20
1.34170856866453
30
0
41
1
10
157.28823812587
20
0.91183340480967
30
0
41
1
10
158.744119062935
20
0.464592894257578
30
0
41
1
10
160.2
20
-2.84E-14
30
0
0
SPLINE
5
114
100
AcDbEntity
8
1
62
256
6
ByLayer
370
13
48
1
60
0
100
AcDbSpline
70
4
71
3
72
8
73
4
40
0
40
0
40
0
40
0
40
1
40
1
40
1
40
1
41
1
10
155.832357188806
20
-4.57287692058833
30
0
41
1
10
157.28823812587
20
-3.03243228582124
30
0
41
1
10
158.744119062935
20
-1.50812549140443
30
0
41
1
10
160.2
20
1.137E-13
30
0
0
SPLINE
5
115
100
AcDbEntity
8
1
62
256
6
ByLayer
370
13
48
1
60
0
100
AcDbSpline
70
4
71
3
72
8
73
4
40
0
40
0
40
0
40
0
40
1
40
1
40
1
40
1
41
1
10
155.832357188806
20
-1.06846324441648
30
0
41
1
10
157.28823812587
20
-0.69490764840333
30
0
41
1
10
158.744119062935
20
-0.338749891873334
30
0
41
1
10
160.2
20
-2.84E-14
30
0
0
SPLINE
5
116
100
AcDbEntity
8
1
62
256
6
ByLayer
370
13
48
1
60
0
100
AcDbSpline
70
4
71
3
72
8
73
4
40
0
40
0
40
0
40
0
40
1
40
1
40
1
40
1
41
1
10
155.832357188806
20
-3.43552784177149
30
0
41
1
10
157.28823812587
20
-2.2736126095318
30
0
41
1
10
158.744119062935
20
-1.12842579265046
30
0
41
1
10
160.2
20
0
30
0
0
SPLINE
5
117
100
AcDbEntity
8
1
62
256
6
ByLayer
370
13
48
1
60
0
100
AcDbSpline
70
4
71
3
72
8
73
4
40
0
40
0
40
0
40
0
40
1
40
1
40
1
40
1
41
1
10
155.832357188805
20
9.90922612353805
30
0
41
1
10
157.28823812587
20
6.59629719479935
30
0
41
1
10
158.744119062935
20
3.29319034643027
30
0
41
1
10
160.2
20
-4.832E-13
30
0
0
SPLINE
5
118
100
AcDbEntity
8
1
62
256
6
ByLayer
370
13
48
1
60
0
100
AcDbSpline
70
4
71
3
72
8
73
4
40
0
40
0
40
0
40
0
40
1
40
1
40
1
40
1
41
1
10
155.832357188806
20
-7.14742750533958
30
0
41
1
10
157.28823812587
20
-4.77898520556465
30
0
41
1
10
158.744119062935
20
-2.3964866014532
30
0
41
1
10
160.2
20
3.411E-13
30
0
0
SPLINE
5
119
100
AcDbEntity
8
1
62
256
6
ByLayer
370
13
48
1
60
0
100
AcDbSpline
70
4
71
3
72
8
73
4
40
0
40
0
40
0
40
0
40
1
40
1
40
1
40
1
41
1
10
155.832357188806
20
-11.5509264824889
30
0
41
1
10
157.28823812587
20
-7.69588299735921
30
0
41
1
10
158.744119062935
20
-3.84553746014447
30
0
41
1
10
160.2
20
-6.253E-13
30
0
0
SPLINE
5
11A
100
AcDbEntity
8
1
62
256
6
ByLayer
370
13
48
1
60
0
100
AcDbSpline
70
4
71
3
72
8
73
4
40
0
40
0
40
0
40
0
40
1
40
1
40
1
40
1
41
1
10
155.832357188806
20
11.2635873270472
30
0
41
1
10
157.28823812587
20
7.51508415839103
30
0
41
1
10
158.744119062935
20
3.76051921900463
30
0
41
1
10
160.2
20
2.84E-14
30
0
0
SPLINE
5
11B
100
AcDbEntity
8
1
62
256
6
ByLayer
370
13
48
1
60
0
100
AcDbSpline
70
4
71
3
72
8
73
4
40
0
40
0
40
0
40
0
40
1
40
1
40
1
40
1
41
1
10
155.832357188805
20
8.35675831269893
30
0
41
1
10
157.28823812587
20
5.55863432695875
30
0
41
1
10
158.744119062935
20
2.77302169328729
30
0
41
1
10
160.2
20
-3.979E-13
30
0
0
SPLINE
5
11C
100
AcDbEntity
8
1
62
256
6
ByLayer
370
13
48
1
60
0
100
AcDbSpline
70
4
71
3
72
8
73
4
40
0
40
0
40
0
40
0
40
1
40
1
40
1
40
1
41
1
10
155.832357188806
20
-8.92959537601729
30
0
41
1
10
157.28823812587
20
-5.96473447685045
30
0
41
1
10
158.744119062935
20
-2.98817425717121
30
0
41
1
10
160.2
20
4.263E-13
30
0
0
SPLINE
5
11D
100
AcDbEntity
8
1
62
256
6
ByLayer
370
13
48
1
60
0
100
AcDbSpline
70
4
71
3
72
8
73
4
40
0
40
0
40
0
40
0
40
1
40
1
40
1
40
1
41
1
10
155.832357188806
20
-9.68953623292037
30
0
41
1
10
157.28823812587
20
-6.46999706958994
30
0
41
1
10
158.744119062935
20
-3.24012081914211
30
0
41
1
10
160.2
20
-5.4E-13
30
0
0
SPLINE
5
11E
100
AcDbEntity
8
1
62
256
6
ByLayer
370
13
48
1
60
0
100
AcDbSpline
70
4
71
3
72
8
73
4
40
0
40
0
40
0
40
0
40
1
40
1
40
1
40
1
41
1
10
155.832357188806
20
-2.26343929722873
30
0
41
1
10
157.28823812587
20
-1.49180255419128
30
0
41
1
10
158.744119062935
20
-0.737315646665792
30
0
41
1
10
160.2
20
0
30
0
0
SPLINE
5
11F
100
AcDbEntity
8
1
62
256
6
ByLayer
370
13
48
1
60
0
100
AcDbSpline
70
4
71
3
72
8
73
4
40
0
40
0
40
0
40
0
40
1
40
1
40
1
40
1
41
1
10
155.832357188805
20
10.5388493730358
30
0
41
1
10
157.28823812587
20
7.01754472110883
30
0
41
1
10
158.744119062935
20
3.50456144966466
30
0
41
1
10
160.2
20
-5.116E-13
30
0
0
SPLINE
5
120
100
AcDbEntity
8
1
62
256
6
ByLayer
370
13
48
1
60
0
100
AcDbSpline
70
4
71
3
72
8
73
4
40
0
40
0
40
0
40
0
40
1
40
1
40
1
40
1
41
1
10
155.832357188806
20
-10.9087875379122
30
0
41
1
10
157.28823812587
20
-7.27980419038391
30
0
41
1
10
158.744119062935
20
-3.64350697143416
30
0
41
1
10
160.2
20
5.4E-13
30
0
0
SPLINE
5
121
100
AcDbEntity
8
1
62
256
6
ByLayer
370
13
48
1
60
0
100
AcDbSpline
70
4
71
3
72
8
73
4
40
0
40
0
40
0
40
0
40
1
40
1
40
1
40
1
41
1
10
155.832357188805
20
11.4731057293788
30
0
41
1
10
157.28823812587
20
7.64361711856384
30
0
41
1
10
158.744119062935
20
3.81921208103233
30
0
41
1
10
160.2
20
-5.684E-13
30
0
0
SPLINE
5
122
100
AcDbEntity
8
1
62
256
6
ByLayer
370
13
48
1
60
0
100
AcDbSpline
70
4
71
3
72
8
73
4
40
0
40
0
40
0
40
0
40
1
40
1
40
1
40
1
41
1
10
155.832357188806
20
2.53253308673993
30
0
41
1
10
157.28823812587
20
1.70543246348473
30
0
41
1
10
158.744119062935
20
0.861246661727961
30
0
41
1
10
160.2
20
0
30
0
0
SPLINE
5
123
100
AcDbEntity
8
1
62
256
6
ByLayer
370
13
48
1
60
0
100
AcDbSpline
70
4
71
3
72
8
73
4
40
0
40
0
40
0
40
0
40
1
40
1
40
1
40
1
41
1
10
155.832357188806
20
-11.3557691268353
30
0
41
1
10
157.28823812587
20
-7.57616008833261
30
0
41
1
10
158.744119062935
20
-3.79086759047308
30
0
41
1
10
160.2
20
-2.84E-14
30
0
0
SPLINE
5
124
100
AcDbEntity
8
1
62
256
6
ByLayer
370
13
48
1
60
0
100
AcDbSpline
70
4
71
3
72
8
73
4
40
0
40
0
40
0
40
0
40
1
40
1
40
1
40
1
41
1
10
155.832357188806
20
-11.9018908768364
30
0
41
1
10
157.28823812587
20
-7.9368233624983
30
0
41
1
10
158.744119062935
20
-3.96948855584409
30
0
41
1
10
160.2
20
-6.537E-13
30
0
0
SPLINE
5
125
100
AcDbEntity
8
1
62
256
6
ByLayer
370
13
48
1
60
0
100
AcDbSpline
70
4
71
3
72
8
73
4
40
0
40
0
40
0
40
0
40
1
40
1
40
1
40
1
41
1
10
155.832357188806
20
3.69774906650085
30
0
41
1
10
157.28823812587
20
2.48178648286984
30
0
41
1
10
158.744119062935
20
1.24919165131482
30
0
41
1
10
160.2
20
0
30
0
0
SPLINE
5
126
100
AcDbEntity
8
1
62
256
6
ByLayer
370
13
48
1
60
0
100
AcDbSpline
70
4
71
3
72
8
73
4
40
0
40
0
40
0
40
0
40
1
40
1
40
1
40
1
41
1
10
155.832357188806
20
5.90460364938551
30
0
41
1
10
157.28823812587
20
3.95161173167412
30
0
41
1
10
158.744119062935
20
1.98339169388387
30
0
41
1
10
160.2
20
2.84E-14
30
0
0
SPLINE
5
127
100
AcDbEntity
8
1
62
256
6
ByLayer
370
13
48
1
60
0
100
AcDbSpline
70
4
71
3
72
8
73
4
40
0
40
0
40
0
40
0
40
1
40
1
40
1
40
1
41
1
10
155.832357188806
20
11.6223244212366
30
0
41
1
10
157.28823812587
20
7.75256485243304
30
0
41
1
10
158.744119062935
20
3.87841974642203
30
0
41
1
10
160.2
20
-2.84E-14
30
0
0
SPLINE
5
128
100
AcDbEntity
8
1
62
256
6
ByLayer
370
13
48
1
60
0
100
AcDbSpline
70
4
71
3
72
8
73
4
40
0
40
0
40
0
40
0
40
1
40
1
40
1
40
1
41
1
10
155.832357188805
20
11.0619055931143
30
0
41
1
10
157.28823812587
20
7.36783204405316
30
0
41
1
10
158.744119062935
20
3.68049503122205
30
0
41
1
10
160.2
20
-5.4E-13
30
0
0
SPLINE
5
129
100
AcDbEntity
8
1
62
256
6
ByLayer
370
13
48
1
60
0
100
AcDbSpline
70
4
71
3
72
8
73
4
40
0
40
0
40
0
40
0
40
1
40
1
40
1
40
1
41
1
10
155.832357188806
20
-11.819134820289
30
0
41
1
10
157.28823812587
20
-7.87640140923907
30
0
41
1
10
158.744119062935
20
-3.93665223457549
30
0
41
1
10
160.2
20
5.684E-13
30
0
0
SPLINE
5
12A
100
AcDbEntity
8
1
62
256
6
ByLayer
370
13
48
1
60
0
100
AcDbSpline
70
4
71
3
72
8
73
4
40
0
40
0
40
0
40
0
40
1
40
1
40
1
40
1
41
1
10
155.832357188805
20
1.99190563019289
30
0
41
1
10
157.28823812587
20
1.31070888345027
30
0
41
1
10
158.744119062936
20
0.646734061804835
30
0
41
1
10
160.200000000001
20
-2.842E-13
30
0
0
SPLINE
5
12B
100
AcDbEntity
8
1
62
256
6
ByLayer
370
13
48
1
60
0
100
AcDbSpline
70
4
71
3
72
8
73
4
40
0
40
0
40
0
40
0
40
1
40
1
40
1
40
1
41
1
10
155.832357188806
20
11.9847906662689
30
0
41
1
10
157.28823812587
20
7.99073976816643
30
0
41
1
10
158.744119062935
20
3.99577143909053
30
0
41
1
10
160.2
20
0
30
0
0
SPLINE
5
12C
100
AcDbEntity
8
1
62
256
6
ByLayer
370
13
48
1
60
0
100
AcDbSpline
70
4
71
3
72
8
73
4
40
0
40
0
40
0
40
0
40
1
40
1
40
1
40
1
41
1
10
155.832357188805
20
11.9444789249685
30
0
41
1
10
157.28823812587
20
7.96130731028634
30
0
41
1
10
158.744119062935
20
3.97977636460942
30
0
41
1
10
160.2
20
-5.969E-13
30
0
0
SPLINE
5
12D
100
AcDbEntity
8
1
62
256
6
ByLayer
370
13
48
1
60
0
100
AcDbSpline
70
4
71
3
72
8
73
4
40
0
40
0
40
0
40
0
40
1
40
1
40
1
40
1
41
1
10
155.832357188805
20
9.17940248645994
30
0
41
1
10
157.28823812587
20
6.10834904754591
30
0
41
1
10
158.744119062935
20
3.04851906970353
30
0
41
1
10
160.2
20
-4.547E-13
30
0
0
SPLINE
5
12E
100
AcDbEntity
8
1
62
256
6
ByLayer
370
13
48
1
60
0
100
AcDbSpline
70
4
71
3
72
8
73
4
40
0
40
0
40
0
40
0
40
1
40
1
40
1
40
1
41
1
10
155.832357188806
20
-10.6680000183524
30
0
41
1
10
157.28823812587
20
-7.10400011199843
30
0
41
1
10
158.744119062935
20
-3.54796621370156
30
0
41
1
10
160.2
20
-2.84E-14
30
0
0
SPLINE
5
12F
100
AcDbEntity
8
1
62
256
6
ByLayer
370
13
48
1
60
0
100
AcDbSpline
70
4
71
3
72
8
73
4
40
0
40
0
40
0
40
0
40
1
40
1
40
1
40
1
41
1
10
155.832357188805
20
-1.61551156728541
30
0
41
1
10
157.28823812587
20
-1.09431923921252
30
0
41
1
10
158.744119062935
20
-0.555810192087364
30
0
41
1
10
160.2
20
8.53E-14
30
0
0
SPLINE
5
130
100
AcDbEntity
8
1
62
256
6
ByLayer
370
13
48
1
60
0
100
AcDbSpline
70
4
71
3
72
8
73
4
40
0
40
0
40
0
40
0
40
1
40
1
40
1
40
1
41
1
10
155.832357188806
20
-7.66393000975253
30
0
41
1
10
157.28823812587
20
-5.09584327192172
30
0
41
1
10
158.744119062935
20
-2.54117561154186
30
0
41
1
10
160.2
20
-2.84E-14
30
0
0
SPLINE
5
131
100
AcDbEntity
8
1
62
256
6
ByLayer
370
13
48
1
60
0
100
AcDbSpline
70
4
71
3
72
8
73
4
40
0
40
0
40
0
40
0
40
1
40
1
40
1
40
1
41
1
10
155.832357188806
20
10.7909547780924
30
0
41
1
10
157.28823812587
20
7.20161222790111
30
0
41
1
10
158.744119062935
20
3.60459296903835
30
0
41
1
10
160.2
20
2.84E-14
30
0
0
SPLINE
5
132
100
AcDbEntity
8
1
62
256
6
ByLayer
370
13
48
1
60
0
100
AcDbSpline
70
4
71
3
72
8
73
4
40
0
40
0
40
0
40
0
40
1
40
1
40
1
40
1
41
1
10
155.832357188806
20
-11.165917165881
30
0
41
1
10
157.28823812587
20
-7.43754514231591
30
0
41
1
10
158.744119062935
20
-3.71553727335436
30
0
41
1
10
160.2
20
-2.84E-14
30
0
0
SPLINE
5
133
100
AcDbEntity
8
1
62
256
6
ByLayer
370
13
48
1
60
0
100
AcDbSpline
70
4
71
3
72
8
73
4
40
0
40
0
40
0
40
0
40
1
40
1
40
1
40
1
41
1
10
155.832357188805
20
6.46713657051168
30
0
41
1
10
157.28823812587
20
4.29670801315817
30
0
41
1
10
158.744119062935
20
2.14097530829886
30
0
41
1
10
160.2
20
-3.126E-13
30
0
0
SPLINE
5
134
100
AcDbEntity
8
1
62
256
6
ByLayer
370
13
48
1
60
0
100
AcDbSpline
70
4
71
3
72
8
73
4
40
0
40
0
40
0
40
0
40
1
40
1
40
1
40
1
41
1
10
155.832357188805
20
0.793389072578435
30
0
41
1
10
157.28823812587
20
0.511493703455812
30
0
41
1
10
158.744119062935
20
0.247028212202565
30
0
41
1
10
160.2
20
-2.84E-14
30
0
0
SPLINE
5
135
100
AcDbEntity
8
1
62
256
6
ByLayer
370
13
48
1
60
0
100
AcDbSpline
70
4
71
3
72
8
73
4
40
0
40
0
40
0
40
0
40
1
40
1
40
1
40
1
41
1
10
155.832357188806
20
0.137316924667914
30
0
41
1
10
157.28823812587
20
0.109014043819258
30
0
41
1
10
158.744119062935
20
0.0632412434721346
30
0
41
1
10
160.2
20
0
30
0
0
SPLINE
5
136
100
AcDbEntity
8
1
62
256
6
ByLayer
370
13
48
1
60
0
100
AcDbSpline
70
4
71
3
72
8
73
4
40
0
40
0
40
0
40
0
40
1
40
1
40
1
40
1
41
1
10
155.832357188805
20
-0.413150098667359
30
0
41
1
10
157.28823812587
20
-0.292893612757268
30
0
41
1
10
158.744119062935
20
-0.155175544128099
30
0
41
1
10
160.2
20
2.84E-14
30
0
0
SPLINE
5
137
100
AcDbEntity
8
1
62
256
6
ByLayer
370
13
48
1
60
0
100
AcDbSpline
70
4
71
3
72
8
73
4
40
0
40
0
40
0
40
0
40
1
40
1
40
1
40
1
41
1
10
155.832357188806
20
-8.5525421378895
30
0
41
1
10
157.28823812587
20
-5.68943990530221
30
0
41
1
10
158.744119062935
20
-2.83856537319639
30
0
41
1
10
160.2
20
4.263E-13
30
0
0
SPLINE
5
138
100
AcDbEntity
8
1
62
256
6
ByLayer
370
13
48
1
60
0
100
AcDbSpline
70
4
71
3
72
8
73
4
40
0
40
0
40
0
40
0
40
1
40
1
40
1
40
1
41
1
10
155.832357188806
20
11.8635385729605
30
0
41
1
10
157.28823812587
20
7.91165294615783
30
0
41
1
10
158.744119062935
20
3.95710236146715
30
0
41
1
10
160.2
20
0
30
0
0
SPLINE
5
139
100
AcDbEntity
8
1
62
256
6
ByLayer
370
13
48
1
60
0
100
AcDbSpline
70
4
71
3
72
8
73
4
40
0
40
0
40
0
40
0
40
1
40
1
40
1
40
1
41
1
10
155.832357188805
20
-5.07689622958563
30
0
41
1
10
157.28823812587
20
-3.40042748037627
30
0
41
1
10
158.744119062935
20
-1.70811254547462
30
0
41
1
10
160.2
20
2.558E-13
30
0
0
SPLINE
5
13A
100
AcDbEntity
8
1
62
256
6
ByLayer
370
13
48
1
60
0
100
AcDbSpline
70
4
71
3
72
8
73
4
40
0
40
0
40
0
40
0
40
1
40
1
40
1
40
1
41
1
10
155.832357188805
20
7.4496120384299
30
0
41
1
10
157.28823812587
20
4.95271165359759
30
0
41
1
10
158.744119062935
20
2.46948399919415
30
0
41
1
10
160.2
20
-3.695E-13
30
0
0
SPLINE
5
13B
100
AcDbEntity
8
1
62
256
6
ByLayer
370
13
48
1
60
0
100
AcDbSpline
70
4
71
3
72
8
73
4
40
0
40
0
40
0
40
0
40
1
40
1
40
1
40
1
41
1
10
155.832357188806
20
-11.9678301027714
30
0
41
1
10
157.28823812587
20
-7.97727500687222
30
0
41
1
10
158.744119062935
20
-3.98796025974642
30
0
41
1
10
160.2
20
-2.84E-14
30
0
0
SPLINE
5
13C
100
AcDbEntity
8
1
62
256
6
ByLayer
370
13
48
1
60
0
100
AcDbSpline
70
4
71
3
72
8
73
4
40
0
40
0
40
0
40
0
40
1
40
1
40
1
40
1
41
1
10
155.832357188806
20
-10.0622098923268
30
0
41
1
10
157.28823812587
20
-6.6986206562961
30
0
41
1
10
158.744119062935
20
-3.34451873087474
30
0
41
1
10
160.2
20
-2.84E-14
30
0
0
SPLINE
5
13D
100
AcDbEntity
8
1
62
256
6
ByLayer
370
13
48
1
60
0
100
AcDbSpline
70
4
71
3
72
8
73
4
40
0
40
0
40
0
40
0
40
1
40
1
40
1
40
1
41
1
10
155.832357188805
20
3.17028038120409
30
0
41
1
10
157.28823812587
20
2.09667040100047
30
0
41
1
10
158.744119062935
20
1.03990024798196
30
0
41
1
10
160.2
20
-1.421E-13
30
0
0
SPLINE
5
13E
100
AcDbEntity
8
1
62
256
6
ByLayer
370
13
48
1
60
0
100
AcDbSpline
70
4
71
3
72
8
73
4
40
0
40
0
40
0
40
0
40
1
40
1
40
1
40
1
41
1
10
155.832357188806
20
-9.35467243320423
30
0
41
1
10
157.28823812587
20
-6.22550590243358
30
0
41
1
10
158.744119062935
20
-3.10725205077404
30
0
41
1
10
160.2
20
-2.84E-14
30
0
0
SPLINE
5
13F
100
AcDbEntity
8
1
62
256
6
ByLayer
370
13
48
1
60
0
100
AcDbSpline
70
4
71
3
72
8
73
4
40
0
40
0
40
0
40
0
40
1
40
1
40
1
40
1
41
1
10
155.832357188806
20
8.74293353347301
30
0
41
1
10
157.28823812587
20
5.84058905163772
30
0
41
1
10
158.744119062935
20
2.92625003866834
30
0
41
1
10
160.2
20
1.421E-13
30
0
0
SPLINE
5
140
100
AcDbEntity
8
1
62
256
6
ByLayer
370
13
48
1
60
0
100
AcDbSpline
70
4
71
3
72
8
73
4
40
0
40
0
40
0
40
0
40
1
40
1
40
1
40
1
41
1
10
155.832357188805
20
-2.80153726122592
30
0
41
1
10
157.28823812587
20
-1.88467929803022
30
0
41
1
10
158.744119062935
20
-0.950824583129076
30
0
41
1
10
160.2
20
1.421E-13
30
0
0
SPLINE
5
141
100
AcDbEntity
8
1
62
256
6
ByLayer
370
13
48
1
60
0
100
AcDbSpline
70
4
71
3
72
8
73
4
40
0
40
0
40
0
40
0
40
1
40
1
40
1
40
1
41
1
10
155.832357188806
20
-8.07935998889985
30
0
41
1
10
157.28823812587
20
-5.39915751657728
30
0
41
1
10
158.744119062935
20
-2.70601179186093
30
0
41
1
10
160.2
20
-2.84E-14
30
0
0
SPLINE
5
142
100
AcDbEntity
8
1
62
256
6
ByLayer
370
13
48
1
60
0
100
AcDbSpline
70
4
71
3
72
8
73
4
40
0
40
0
40
0
40
0
40
1
40
1
40
1
40
1
41
1
10
155.832357188806
20
7.87323663258391
30
0
41
1
10
157.28823812587
20
5.26200896058816
30
0
41
1
10
158.744119062935
20
2.63757167580582
30
0
41
1
10
160.2
20
1.137E-13
30
0
0
SPLINE
5
143
100
AcDbEntity
8
1
62
256
6
ByLayer
370
13
48
1
60
0
100
AcDbSpline
70
4
71
3
72
8
73
4
40
0
40
0
40
0
40
0
40
1
40
1
40
1
40
1
41
1
10
155.832357188806
20
-10.3514981685729
30
0
41
1
10
157.28823812587
20
-6.90983616649424
30
0
41
1
10
158.744119062935
20
-3.45930383753748
30
0
41
1
10
160.2
20
5.116E-13
30
0
0
SPLINE
5
144
100
AcDbEntity
8
1
62
256
6
ByLayer
370
13
48
1
60
0
100
AcDbSpline
70
4
71
3
72
8
73
4
40
0
40
0
40
0
40
0
40
1
40
1
40
1
40
1
41
1
10
155.832357188806
20
-6.69782154155914
30
0
41
1
10
157.28823812587
20
-4.45071834919429
30
0
41
1
10
158.744119062935
20
-2.21808991985034
30
0
41
1
10
160.2
20
3.126E-13
30
0
0
LINE
5
7D
100
AcDbEntity
8
80
62
256
6
ByLayer
370
18
48
1
60
0
100
AcDbLine
10
0
20
0
30
0
11
-5
21
0
31
0
39
0
210
0
220
0
230
1
0
LINE
5
7E
100
AcDbEntity
8
4
62
256
6
ByLayer
370
18
48
0.05
60
0
100
AcDbLine
10
-5
20
0
30
0
11
165.2
21
0
31
0
39
0
210
0
220
0
230
1
0
LINE
5
80
100
AcDbEntity
8
81
62
256
6
ByLayer
370
18
48
1
60
0
100
AcDbLine
10
160.2
20
0
30
0
11
165.2
21
0
31
0
39
0
210
0
220
0
230
1
0
LINE
5
81
100
AcDbEntity
8
SK4
62
256
6
ByLayer
370
18
48
0.05
60
0
100
AcDbLine
10
-65
20
0
30
0
11
165.2
21
0
31
0
39
0
210
0
220
0
230
1
0
LINE
5
83
100
AcDbEntity
8
1
62
256
6
ByLayer
370
18
48
1
60
0
100
AcDbLine
10
0
20
16
30
0
11
0
21
-16
31
0
39
0
210
0
220
0
230
1
0
LINE
5
84
100
AcDbEntity
8
1
62
256
6
ByLayer
370
18
48
1
60
0
100
AcDbLine
10
155.832357
20
12
30
0
11
155.832357
21
11.618963
31
0
39
0
210
0
220
0
230
1
0
LINE
5
85
100
AcDbEntity
8
1
62
256
6
ByLayer
370
18
48
1
60
0
100
AcDbLine
10
155.832357
20
-12
30
0
11
155.832357
21
-1.710455
31
0
39
0
210
0
220
0
230
1
0
LINE
5
86
100
AcDbEntity
8
1
62
256
6
ByLayer
370
18
48
1
60
0
100
AcDbLine
10
10
20
-8.177166
30
0
11
10
21
10.75038
31
0
39
0
210
0
220
0
230
1
0
LINE
5
87
100
AcDbEntity
8
SK1
62
256
6
ByLayer
370
13
48
1
60
0
100
AcDbLine
10
-15.198909
20
-8.334638
30
0
11
-15.198909
21
8.334638
31
0
39
0
210
0
220
0
230
1
0
LINE
5
89
100
AcDbEntity
8
SK1
62
256
6
ByLayer
370
13
48
1
60
0
100
AcDbLine
10
-55.486983
20
5.39045
30
0
11
-55.486983
21
-5.39045
31
0
39
0
210
0
220
0
230
1
0
LINE
5
8A
100
AcDbEntity
8
SK1
62
256
6
ByLayer
370
18
48
1
60
0
100
AcDbLine
10
-60
20
-15
30
0
11
-60
21
15
31
0
39
0
210
0
220
0
230
1
0
LINE
5
8B
100
AcDbEntity
8
SK1
62
256
6
ByLayer
370
13
48
1
60
0
100
AcDbLine
10
-14.051873
20
7.587342
30
0
11
-14.051873
21
-7.587342
31
0
39
0
210
0
220
0
230
1
0
LINE
5
8C
100
AcDbEntity
8
SK1
62
256
6
ByLayer
370
13
48
1
60
0
100
AcDbLine
10
-56.60131
20
-3.674042
30
0
11
-56.60131
21
3.674042
31
0
39
0
210
0
220
0
230
1
0
LINE
5
8D
100
AcDbEntity
8
SK1
62
256
6
ByLayer
370
18
48
1
60
0
100
AcDbLine
10
-59
20
-16
30
0
11
-59
21
16
31
0
39
0
210
0
220
0
230
1
0
LINE
5
8E
100
AcDbEntity
8
SK1
62
256
6
ByLayer
370
18
48
1
60
0
100
AcDbLine
10
0
20
16
30
0
11
0
21
-16
31
0
39
0
210
0
220
0
230
1
0
LINE
5
8F
100
AcDbEntity
8
1
62
256
6
ByLayer
370
18
48
1
60
0
100
AcDbLine
10
44.243722
20
-11.7
30
0
11
99.01248
21
-11.7
31
0
39
0
210
0
220
0
230
1
0
LINE
5
90
100
AcDbEntity
8
1
62
256
6
ByLayer
370
18
48
1
60
0
100
AcDbLine
10
99.01248
20
11.7
30
0
11
44.243722
21
11.7
31
0
39
0
210
0
220
0
230
1
0
LINE
5
91
100
AcDbEntity
8
1
62
256
6
ByLayer
370
18
48
1
60
0
100
AcDbLine
10
160.2
20
0
30
0
11
155.832357
21
12
31
0
39
0
210
0
220
0
230
1
0
LINE
5
92
100
AcDbEntity
8
1
62
256
6
ByLayer
370
18
48
1
60
0
100
AcDbLine
10
155.832357
20
-12
30
0
11
160.2
21
0
31
0
39
0
210
0
220
0
230
1
0
LINE
5
93
100
AcDbEntity
8
1
62
256
6
ByLayer
370
18
48
1
60
0
100
AcDbLine
10
3.925114
20
14.312201
30
0
11
0
21
16
31
0
39
0
210
0
220
0
230
1
0
LINE
5
94
100
AcDbEntity
8
1
62
256
6
ByLayer
370
18
48
1
60
0
100
AcDbLine
10
0
20
-16
30
0
11
3.925114
21
-14.312201
31
0
39
0
210
0
220
0
230
1
0
LINE
5
95
100
AcDbEntity
8
1
62
256
6
ByLayer
370
18
48
1
60
0
100
AcDbLine
10
160.2
20
0
30
0
11
155.832357
21
12
31
0
39
0
210
0
220
0
230
1
0
LINE
5
96
100
AcDbEntity
8
1
62
256
6
ByLayer
370
18
48
1
60
0
100
AcDbLine
10
155.832357
20
-12
30
0
11
160.2
21
0
31
0
39
0
210
0
220
0
230
1
0
LINE
5
97
100
AcDbEntity
8
1
62
256
6
ByLayer
370
18
48
1
60
0
100
AcDbLine
10
155.832357
20
12
30
0
11
144.8
21
12
31
0
39
0
210
0
220
0
230
1
0
LINE
5
98
100
AcDbEntity
8
1
62
256
6
ByLayer
370
18
48
1
60
0
100
AcDbLine
10
144.8
20
-12
30
0
11
155.832357
21
-12
31
0
39
0
210
0
220
0
230
1
0
LINE
5
99
100
AcDbEntity
8
SK1
62
256
6
ByLayer
370
18
48
1
60
0
100
AcDbLine
10
-60
20
-15
30
0
11
-59
21
-16
31
0
39
0
210
0
220
0
230
1
0
LINE
5
9A
100
AcDbEntity
8
SK1
62
256
6
ByLayer
370
18
48
1
60
0
100
AcDbLine
10
-59
20
16
30
0
11
-60
21
15
31
0
39
0
210
0
220
0
230
1
0
LINE
5
9B
100
AcDbEntity
8
SK1
62
256
6
ByLayer
370
18
48
1
60
0
100
AcDbLine
10
-59
20
-16
30
0
11
0
21
-16
31
0
39
0
210
0
220
0
230
1
0
LINE
5
9C
100
AcDbEntity
8
SK1
62
256
6
ByLayer
370
18
48
1
60
0
100
AcDbLine
10
0
20
16
30
0
11
-59
21
16
31
0
39
0
210
0
220
0
230
1
0
LINE
5
9D
100
AcDbEntity
8
1
62
256
6
ByLayer
370
18
48
1
60
0
100
AcDbLine
10
155.832357
20
12
30
0
11
155.832357
21
-12
31
0
39
0
210
0
220
0
230
1
0
LINE
5
9E
100
AcDbEntity
8
1
62
256
6
ByLayer
370
18
48
1
60
0
100
AcDbLine
10
155.832357
20
12
30
0
11
155.832357
21
-12
31
0
39
0
210
0
220
0
230
1
0
LINE
5
9F
100
AcDbEntity
8
1
62
256
6
ByLayer
370
18
48
1
60
0
100
AcDbLine
10
155.832357
20
12
30
0
11
155.832357
21
-12
31
0
39
0
210
0
220
0
230
1
0
LINE
5
A0
100
AcDbEntity
8
1
62
256
6
ByLayer
370
18
48
1
60
0
100
AcDbLine
10
144.8
20
12
30
0
11
144.8
21
-12
31
0
39
0
210
0
220
0
230
1
0
LINE
5
A1
100
AcDbEntity
8
1
62
256
6
ByLayer
370
18
48
1
60
0
100
AcDbLine
10
144.8
20
12
30
0
11
144.8
21
-12
31
0
39
0
210
0
220
0
230
1
0
LINE
5
A2
100
AcDbEntity
8
1
62
256
6
ByLayer
370
18
48
1
60
0
100
AcDbLine
10
155.832357
20
12
30
0
11
155.832357
21
-12
31
0
39
0
210
0
220
0
230
1
0
LINE
5
A3
100
AcDbEntity
8
1
62
256
6
ByLayer
370
18
48
1
60
0
100
AcDbLine
10
144.8
20
12
30
0
11
144.8
21
-12
31
0
39
0
210
0
220
0
230
1
0
LINE
5
A4
100
AcDbEntity
8
1
62
256
6
ByLayer
370
18
48
1
60
0
100
AcDbLine
10
155.832357
20
12
30
0
11
155.832357
21
-12
31
0
39
0
210
0
220
0
230
1
0
LINE
5
A5
100
AcDbEntity
8
SK2
62
256
6
ByLayer
370
13
48
1
60
0
100
AcDbLine
10
-66.5
20
-16
30
0
11
-66.5
21
45.024569
31
0
39
0
210
0
220
0
230
1
0
LINE
5
A7
100
AcDbEntity
8
SK2
62
256
6
ByLayer
370
13
48
1
60
0
100
AcDbLine
10
-61.5875
20
16
30
0
11
-68.5
21
16
31
0
39
0
210
0
220
0
230
1
0
LINE
5
A8
100
AcDbEntity
8
SK2
62
256
6
ByLayer
370
13
48
1
60
0
100
AcDbLine
10
-61.5875
20
-16
30
0
11
-68.5
21
-16
31
0
39
0
210
0
220
0
230
1
0
LINE
5
A9
100
AcDbEntity
8
1
62
256
6
ByLayer
370
18
48
1
60
1
100
AcDbLine
10
-66.5
20
16
30
0
11
-66.039216
21
12.500002
31
0
39
0
210
0
220
0
230
1
0
LINE
5
AA
100
AcDbEntity
8
1
62
256
6
ByLayer
370
18
48
1
60
1
100
AcDbLine
10
-66.039216
20
12.500002
30
0
11
-66.960784
21
12.499998
31
0
39
0
210
0
220
0
230
1
0
LINE
5
AB
100
AcDbEntity
8
1
62
256
6
ByLayer
370
18
48
1
60
1
100
AcDbLine
10
-66.960784
20
12.499998
30
0
11
-66.5
21
16
31
0
39
0
210
0
220
0
230
1
0
LINE
5
AC
100
AcDbEntity
8
1
62
256
6
ByLayer
370
18
48
1
60
1
100
AcDbLine
10
-66.5
20
-16
30
0
11
-66.960784
21
-12.500002
31
0
39
0
210
0
220
0
230
1
0
LINE
5
AD
100
AcDbEntity
8
1
62
256
6
ByLayer
370
18
48
1
60
1
100
AcDbLine
10
-66.960784
20
-12.500002
30
0
11
-66.039216
21
-12.499998
31
0
39
0
210
0
220
0
230
1
0
LINE
5
AE
100
AcDbEntity
8
1
62
256
6
ByLayer
370
18
48
1
60
1
100
AcDbLine
10
-66.039216
20
-12.499998
30
0
11
-66.5
21
-16
31
0
39
0
210
0
220
0
230
1
0
LINE
5
AF
100
AcDbEntity
8
2
62
256
6
ByLayer
370
13
48
1
60
0
100
AcDbLine
10
167.7
20
-12
30
0
11
167.7
21
41.340455
31
0
39
0
210
0
220
0
230
1
0
LINE
5
B1
100
AcDbEntity
8
2
62
256
6
ByLayer
370
13
48
1
60
0
100
AcDbLine
10
157.419857
20
12
30
0
11
169.7
21
12
31
0
39
0
210
0
220
0
230
1
0
LINE
5
B2
100
AcDbEntity
8
2
62
256
6
ByLayer
370
13
48
1
60
0
100
AcDbLine
10
157.419857
20
-12
30
0
11
169.7
21
-12
31
0
39
0
210
0
220
0
230
1
0
LINE
5
B3
100
AcDbEntity
8
1
62
256
6
ByLayer
370
18
48
1
60
1
100
AcDbLine
10
167.7
20
12
30
0
11
168.160784
21
8.500002
31
0
39
0
210
0
220
0
230
1
0
LINE
5
B4
100
AcDbEntity
8
1
62
256
6
ByLayer
370
18
48
1
60
1
100
AcDbLine
10
168.160784
20
8.500002
30
0
11
167.239216
21
8.499998
31
0
39
0
210
0
220
0
230
1
0
LINE
5
B5
100
AcDbEntity
8
1
62
256
6
ByLayer
370
18
48
1
60
1
100
AcDbLine
10
167.239216
20
8.499998
30
0
11
167.7
21
12
31
0
39
0
210
0
220
0
230
1
0
LINE
5
B6
100
AcDbEntity
8
1
62
256
6
ByLayer
370
18
48
1
60
1
100
AcDbLine
10
167.7
20
-12
30
0
11
167.239216
21
-8.500002
31
0
39
0
210
0
220
0
230
1
0
LINE
5
B7
100
AcDbEntity
8
1
62
256
6
ByLayer
370
18
48
1
60
1
100
AcDbLine
10
167.239216
20
-8.500002
30
0
11
168.160784
21
-8.499998
31
0
39
0
210
0
220
0
230
1
0
LINE
5
B8
100
AcDbEntity
8
1
62
256
6
ByLayer
370
18
48
1
60
1
100
AcDbLine
10
168.160784
20
-8.499998
30
0
11
167.7
21
-12
31
0
39
0
210
0
220
0
230
1
0
LINE
5
B9
100
AcDbEntity
8
SK2
62
256
6
ByLayer
370
13
48
1
60
0
100
AcDbLine
10
160.742957
20
-1.491762
30
0
11
167.382423
21
-19.733545
31
0
39
0
210
0
220
0
230
1
0
LINE
5
BA
100
AcDbEntity
8
SK2
62
256
6
ByLayer
370
13
48
1
60
0
100
AcDbLine
10
160.742957
20
1.491762
30
0
11
167.382423
21
19.733545
31
0
39
0
210
0
220
0
230
1
0
LINE
5
BB
100
AcDbEntity
8
1
62
256
6
ByLayer
370
18
48
1
60
1
100
AcDbLine
10
166.698383
20
-17.85416
30
0
11
169.751575
21
-16.082064
31
0
39
0
210
0
220
0
230
1
0
LINE
5
BC
100
AcDbEntity
8
1
62
256
6
ByLayer
370
18
48
1
60
1
100
AcDbLine
10
169.751575
20
-16.082064
30
0
11
170.106196
21
-16.93267
31
0
39
0
210
0
220
0
230
1
0
LINE
5
BD
100
AcDbEntity
8
1
62
256
6
ByLayer
370
18
48
1
60
1
100
AcDbLine
10
170.106196
20
-16.93267
30
0
11
166.698383
21
-17.85416
31
0
39
0
210
0
220
0
230
1
0
LINE
5
BE
100
AcDbEntity
8
1
62
256
6
ByLayer
370
18
48
1
60
1
100
AcDbLine
10
166.698383
20
17.85416
30
0
11
170.106193
21
16.932671
31
0
39
0
210
0
220
0
230
1
0
LINE
5
BF
100
AcDbEntity
8
1
62
256
6
ByLayer
370
18
48
1
60
1
100
AcDbLine
10
170.106193
20
16.932671
30
0
11
169.751579
21
16.082063
31
0
39
0
210
0
220
0
230
1
0
LINE
5
C0
100
AcDbEntity
8
1
62
256
6
ByLayer
370
18
48
1
60
1
100
AcDbLine
10
169.751579
20
16.082063
30
0
11
166.698383
21
17.85416
31
0
39
0
210
0
220
0
230
1
0
LINE
5
149
100
AcDbEntity
8
1
62
256
6
ByLayer
370
18
48
1
60
1
100
AcDbLine
10
-66.5
20
16
30
0
11
-66.039216
21
12.500002
31
0
39
0
210
0
220
0
230
1
0
LINE
5
14A
100
AcDbEntity
8
1
62
256
6
ByLayer
370
18
48
1
60
1
100
AcDbLine
10
-66.039216
20
12.500002
30
0
11
-66.960784
21
12.499998
31
0
39
0
210
0
220
0
230
1
0
LINE
5
14B
100
AcDbEntity
8
1
62
256
6
ByLayer
370
18
48
1
60
1
100
AcDbLine
10
-66.960784
20
12.499998
30
0
11
-66.5
21
16
31
0
39
0
210
0
220
0
230
1
0
LINE
5
14D
100
AcDbEntity
8
1
62
256
6
ByLayer
370
18
48
1
60
1
100
AcDbLine
10
-66.5
20
-16
30
0
11
-66.960784
21
-12.500002
31
0
39
0
210
0
220
0
230
1
0
LINE
5
14E
100
AcDbEntity
8
1
62
256
6
ByLayer
370
18
48
1
60
1
100
AcDbLine
10
-66.960784
20
-12.500002
30
0
11
-66.039216
21
-12.499998
31
0
39
0
210
0
220
0
230
1
0
LINE
5
14F
100
AcDbEntity
8
1
62
256
6
ByLayer
370
18
48
1
60
1
100
AcDbLine
10
-66.039216
20
-12.499998
30
0
11
-66.5
21
-16
31
0
39
0
210
0
220
0
230
1
0
LINE
5
153
100
AcDbEntity
8
1
62
256
6
ByLayer
370
18
48
1
60
1
100
AcDbLine
10
167.7
20
12
30
0
11
168.160784
21
8.500002
31
0
39
0
210
0
220
0
230
1
0
LINE
5
154
100
AcDbEntity
8
1
62
256
6
ByLayer
370
18
48
1
60
1
100
AcDbLine
10
168.160784
20
8.500002
30
0
11
167.239216
21
8.499998
31
0
39
0
210
0
220
0
230
1
0
LINE
5
155
100
AcDbEntity
8
1
62
256
6
ByLayer
370
18
48
1
60
1
100
AcDbLine
10
167.239216
20
8.499998
30
0
11
167.7
21
12
31
0
39
0
210
0
220
0
230
1
0
LINE
5
157
100
AcDbEntity
8
1
62
256
6
ByLayer
370
18
48
1
60
1
100
AcDbLine
10
167.7
20
-12
30
0
11
167.239216
21
-8.500002
31
0
39
0
210
0
220
0
230
1
0
LINE
5
158
100
AcDbEntity
8
1
62
256
6
ByLayer
370
18
48
1
60
1
100
AcDbLine
10
167.239216
20
-8.500002
30
0
11
168.160784
21
-8.499998
31
0
39
0
210
0
220
0
230
1
0
LINE
5
159
100
AcDbEntity
8
1
62
256
6
ByLayer
370
18
48
1
60
1
100
AcDbLine
10
168.160784
20
-8.499998
30
0
11
167.7
21
-12
31
0
39
0
210
0
220
0
230
1
0
LINE
5
15C
100
AcDbEntity
8
1
62
256
6
ByLayer
370
18
48
1
60
1
100
AcDbLine
10
166.698383
20
-17.85416
30
0
11
169.751575
21
-16.082064
31
0
39
0
210
0
220
0
230
1
0
LINE
5
15D
100
AcDbEntity
8
1
62
256
6
ByLayer
370
18
48
1
60
1
100
AcDbLine
10
169.751575
20
-16.082064
30
0
11
170.106196
21
-16.93267
31
0
39
0
210
0
220
0
230
1
0
LINE
5
15E
100
AcDbEntity
8
1
62
256
6
ByLayer
370
18
48
1
60
1
100
AcDbLine
10
170.106196
20
-16.93267
30
0
11
166.698383
21
-17.85416
31
0
39
0
210
0
220
0
230
1
0
LINE
5
160
100
AcDbEntity
8
1
62
256
6
ByLayer
370
18
48
1
60
1
100
AcDbLine
10
166.698383
20
17.85416
30
0
11
170.106193
21
16.932671
31
0
39
0
210
0
220
0
230
1
0
LINE
5
161
100
AcDbEntity
8
1
62
256
6
ByLayer
370
18
48
1
60
1
100
AcDbLine
10
170.106193
20
16.932671
30
0
11
169.751579
21
16.082063
31
0
39
0
210
0
220
0
230
1
0
LINE
5
162
100
AcDbEntity
8
1
62
256
6
ByLayer
370
18
48
1
60
1
100
AcDbLine
10
169.751579
20
16.082063
30
0
11
166.698383
21
17.85416
31
0
39
0
210
0
220
0
230
1
0
MTEXT
5
145
100
AcDbEntity
8
SK2
62
256
6
ByLayer
370
18
48
1
60
0
100
AcDbMText
10
-67.841114
20
27.658438
30
0
210
0
220
0
230
1
1
%%c
40
3
41
0
44
1.084337
50
90
71
7
72
5
7
iso_b_vert
0
MTEXT
5
148
100
AcDbEntity
8
SK2
62
256
6
ByLayer
370
18
48
1
60
0
100
AcDbMText
10
-67.841114
20
33.635
30
0
210
0
220
0
230
1
1
\W0.7513;32.000
40
3
41
0
44
1.084337
50
90
71
7
72
5
7
iso_b_vert
0
MTEXT
5
151
100
AcDbEntity
8
2
62
256
6
ByLayer
370
18
48
1
60
0
100
AcDbMText
10
166.358886
20
23.658438
30
0
210
0
220
0
230
1
1
%%c
40
3
41
0
44
1.084337
50
90
71
7
72
5
7
iso_b_vert
0
MTEXT
5
152
100
AcDbEntity
8
2
62
256
6
ByLayer
370
18
48
1
60
0
100
AcDbMText
10
166.358886
20
29.635
30
0
210
0
220
0
230
1
1
\W0.7728;24.000
40
3
41
0
44
1.084337
50
90
71
7
72
5
7
iso_b_vert
0
MTEXT
5
15B
100
AcDbEntity
8
SK2
62
256
6
ByLayer
370
18
48
1
60
0
100
AcDbMText
10
180.109114
20
3.734657
30
0
210
0
220
0
230
1
1
\W0.7071;140%%d
40
3
41
0
44
1.084337
50
270
71
7
72
5
7
iso_b_vert
0
MTEXT
5
164
100
AcDbEntity
8
SK6
62
256
6
ByLayer
370
18
48
1
60
0
100
AcDbMText
10
25.496974
20
-67.114886
30
0
210
0
220
0
230
1
1
\W0.7811;H85524.0
40
3
41
0
44
1.084337
50
0
71
7
72
5
7
iso_b_vert
0
HATCH
5
14C
100
AcDbEntity
8
SK2
62
256
6
ByLayer
370
13
48
1
60
0
100
AcDbHatch
10
0
20
0
30
0
210
0
220
0
230
1
2
ANSI31
70
0
71
0
91
1
92
5
93
3
72
1
10
-66.5
20
16
11
-66.0392162584472
21
12.5000016925532
72
1
10
-66.0392162584472
20
12.5000016925532
11
-66.9607837415528
21
12.4999983074468
72
1
10
-66.9607837415528
20
12.4999983074468
11
-66.5
21
16
97
0
75
0
76
1
52
0
41
0.0062
77
0
78
1
53
45
43
0
44
0
45
-0.0139193969876572
46
0.0139193969876572
79
0
47
0
98
1
10
0
20
0
0
HATCH
5
150
100
AcDbEntity
8
SK2
62
256
6
ByLayer
370
13
48
1
60
0
100
AcDbHatch
10
0
20
0
30
0
210
0
220
0
230
1
2
ANSI31
70
0
71
0
91
1
92
5
93
3
72
1
10
-66.5
20
-16
11
-66.9607837415528
21
-12.5000016925532
72
1
10
-66.9607837415528
20
-12.5000016925532
11
-66.0392162584472
21
-12.4999983074468
72
1
10
-66.0392162584472
20
-12.4999983074468
11
-66.5
21
-16
97
0
75
0
76
1
52
0
41
0.0062
77
0
78
1
53
45
43
0
44
0
45
-0.0139193969876572
46
0.0139193969876572
79
0
47
0
98
1
10
0
20
0
0
HATCH
5
156
100
AcDbEntity
8
2
62
256
6
ByLayer
370
13
48
1
60
0
100
AcDbHatch
10
0
20
0
30
0
210
0
220
0
230
1
2
ANSI31
70
0
71
0
91
1
92
5
93
3
72
1
10
167.7
20
12
11
168.160783741553
21
8.50000169255318
72
1
10
168.160783741553
20
8.50000169255318
11
167.239216258447
21
8.49999830744682
72
1
10
167.239216258447
20
8.49999830744682
11
167.7
21
12
97
0
75
0
76
1
52
0
41
0.0062
77
0
78
1
53
45
43
0
44
0
45
-0.0139193969876572
46
0.0139193969876572
79
0
47
0
98
1
10
0
20
0
0
HATCH
5
15A
100
AcDbEntity
8
2
62
256
6
ByLayer
370
13
48
1
60
0
100
AcDbHatch
10
0
20
0
30
0
210
0
220
0
230
1
2
ANSI31
70
0
71
0
91
1
92
5
93
3
72
1
10
167.7
20
-12
11
167.239216258447
21
-8.50000169255318
72
1
10
167.239216258447
20
-8.50000169255318
11
168.160783741553
21
-8.49999830744682
72
1
10
168.160783741553
20
-8.49999830744682
11
167.7
21
-12
97
0
75
0
76
1
52
0
41
0.0062
77
0
78
1
53
45
43
0
44
0
45
-0.0139193969876572
46
0.0139193969876572
79
0
47
0
98
1
10
0
20
0
0
HATCH
5
15F
100
AcDbEntity
8
SK2
62
256
6
ByLayer
370
13
48
1
60
0
100
AcDbHatch
10
0
20
0
30
0
210
0
220
0
230
1
2
ANSI31
70
0
71
0
91
1
92
5
93
3
72
1
10
166.698382723188
20
-17.8541597949322
11
169.751575425693
21
-16.0820638240608
72
1
10
169.751575425693
20
-16.0820638240608
11
170.106195833975
21
-16.9326700737196
72
1
10
170.106195833975
20
-16.9326700737196
11
166.698382723188
21
-17.8541597949322
97
0
75
0
76
1
52
0
41
0.0062
77
0
78
1
53
45
43
0
44
0
45
-0.0139193969876572
46
0.0139193969876572
79
0
47
0
98
1
10
0
20
0
0
HATCH
5
163
100
AcDbEntity
8
SK2
62
256
6
ByLayer
370
13
48
1
60
0
100
AcDbHatch
10
0
20
0
30
0
210
0
220
0
230
1
2
ANSI31
70
0
71
0
91
1
92
5
93
3
72
1
10
166.698382723188
20
17.8541597949322
11
170.106192709519
21
16.9326713763016
72
1
10
170.106192709519
20
16.9326713763016
11
169.751578550149
21
16.0820625214787
72
1
10
169.751578550149
20
16.0820625214787
11
166.698382723188
21
17.8541597949322
97
0
75
0
76
1
52
0
41
0.0062
77
0
78
1
53
45
43
0
44
0
45
-0.0139193969876572
46
0.0139193969876572
79
0
47
0
98
1
10
0
20
0
0
DIMENSION
5
167
100
AcDbEntity
8
SK2
62
256
6
ByLayer
370
18
48
1
60
0
100
AcDbDimension
2
_U0
10
160.2
20
-45.952229
30
0
11
50.1
21
-45.952229
31
0
70
32
71
1
72
1
41
1
210
0
220
0
230
1
3
Standard
100
AcDbAlignedDimension
13
-60
23
-16
33
0
14
160.2
24
0
34
0
50
0
100
AcDbRotatedDimension
1001
ACAD
1000
DSTYLE
1002
{
1070
   371
1070
    13
1070
   372
1070
    13
1070
     3
1000

1070
   170
1070
     0
1070
   144
1040
1.0
1070
   277
1070
     2
1070
   284
1070
     8
1070
   278
1070
    46
1070
   146
1040
1.166667
1070
   345
1005
16
1070
   347
1005
16
1070
   346
1005
16
1070
   344
1005
0
1070
   343
1005
0
1070
   172
1070
     1
1070
    76
1070
     0
1070
    75
1070
     0
1070
   282
1070
     0
1070
   281
1070
     0
1070
    71
1070
     0
1070
    74
1070
     0
1070
   279
1070
     0
1070
   173
1070
     1
1070
   340
1005
146
1070
   271
1070
     2
1070
   272
1070
     3
1070
    77
1070
     1
1070
    73
1070
     1
1070
   171
1070
     3
1070
   274
1070
     4
1070
   177
1070
     2
1070
   176
1070
     2
1070
   178
1070
     2
1070
    78
1070
     8
1070
    48
1040
-0.1
1070
    41
1040
3.5
1070
   147
1040
1.5
1070
    42
1040
1.5875
1070
    44
1040
2.0
1070
   140
1040
3.0
1002
}
1001
ACAD_DSTYLE_DIM_LINETYPE
1070
   380
1005
16
1001
ACAD_DSTYLE_DIM_EXT1_LINETYPE
1070
   381
1005
16
1001
ACAD_DSTYLE_DIM_EXT2_LINETYPE
1070
   382
1005
16
0
DIMENSION
5
180
100
AcDbEntity
8
SK2
62
256
6
ByLayer
370
18
48
1
60
0
100
AcDbDimension
2
_U1
10
3
20
-35.952229
30
0
11
81.6
21
-35.952229
31
0
70
32
71
1
72
1
41
1
210
0
220
0
230
1
3
Standard
100
AcDbAlignedDimension
13
160.2
23
0
33
0
14
3
24
-12
34
0
50
0
100
AcDbRotatedDimension
1001
ACAD
1000
DSTYLE
1002
{
1070
   371
1070
    13
1070
   372
1070
    13
1070
     3
1000

1070
   170
1070
     0
1070
   144
1040
1.0
1070
   277
1070
     2
1070
   284
1070
     8
1070
   278
1070
    46
1070
   146
1040
1.166667
1070
   345
1005
16
1070
   347
1005
16
1070
   346
1005
16
1070
   344
1005
0
1070
   343
1005
0
1070
   172
1070
     1
1070
    76
1070
     0
1070
    75
1070
     0
1070
   282
1070
     0
1070
   281
1070
     0
1070
    71
1070
     0
1070
    74
1070
     0
1070
   279
1070
     0
1070
   173
1070
     1
1070
   340
1005
146
1070
   271
1070
     2
1070
   272
1070
     3
1070
    77
1070
     1
1070
    73
1070
     1
1070
   171
1070
     3
1070
   274
1070
     4
1070
   177
1070
     2
1070
   176
1070
     2
1070
   178
1070
     2
1070
    78
1070
     8
1070
    48
1040
-0.1
1070
    41
1040
3.5
1070
   147
1040
1.5
1070
    42
1040
1.5875
1070
    44
1040
2.0
1070
   140
1040
3.0
1002
}
1001
ACAD_DSTYLE_DIM_LINETYPE
1070
   380
1005
16
1001
ACAD_DSTYLE_DIM_EXT1_LINETYPE
1070
   381
1005
16
1001
ACAD_DSTYLE_DIM_EXT2_LINETYPE
1070
   382
1005
16
0
DIMENSION
5
198
100
AcDbEntity
8
SK2
62
256
6
ByLayer
370
18
48
1
60
0
100
AcDbDimension
2
_U2
10
0
20
-35.952229
30
0
11
-30
21
-35.952229
31
0
70
32
71
1
72
1
41
1
210
0
220
0
230
1
3
Standard
100
AcDbAlignedDimension
13
-60
23
-16
33
0
14
0
24
-16
34
0
50
0
100
AcDbRotatedDimension
1001
ACAD
1000
DSTYLE
1002
{
1070
   371
1070
    13
1070
   372
1070
    13
1070
     3
1000

1070
   170
1070
     0
1070
   144
1040
1.0
1070
   277
1070
     2
1070
   284
1070
     8
1070
   278
1070
    46
1070
   146
1040
1.166667
1070
   345
1005
16
1070
   347
1005
16
1070
   346
1005
16
1070
   344
1005
0
1070
   343
1005
0
1070
   172
1070
     1
1070
    76
1070
     0
1070
    75
1070
     0
1070
   282
1070
     0
1070
   281
1070
     0
1070
    71
1070
     0
1070
    74
1070
     0
1070
   279
1070
     0
1070
   173
1070
     1
1070
   340
1005
146
1070
   271
1070
     2
1070
   272
1070
     3
1070
    77
1070
     1
1070
    73
1070
     1
1070
   171
1070
     3
1070
   274
1070
     4
1070
   177
1070
     2
1070
   176
1070
     2
1070
   178
1070
     2
1070
    78
1070
     8
1070
    48
1040
-0.1
1070
    41
1040
3.5
1070
   147
1040
1.5
1070
    42
1040
1.5875
1070
    44
1040
2.0
1070
   140
1040
3.0
1002
}
1001
ACAD_DSTYLE_DIM_LINETYPE
1070
   380
1005
16
1001
ACAD_DSTYLE_DIM_EXT1_LINETYPE
1070
   381
1005
16
1001
ACAD_DSTYLE_DIM_EXT2_LINETYPE
1070
   382
1005
16
0
DIMENSION
5
1B0
100
AcDbEntity
8
SK2
62
256
6
ByLayer
370
18
48
1
60
0
100
AcDbDimension
2
_U3
10
25
20
32.952229
30
0
11
92.6
21
32.952229
31
0
70
32
71
1
72
1
41
1
210
0
220
0
230
1
3
Standard
100
AcDbAlignedDimension
13
160.2
23
0
33
0
14
25
24
12
34
0
50
0
100
AcDbRotatedDimension
1001
ACAD
1000
DSTYLE
1002
{
1070
   371
1070
    13
1070
   372
1070
    13
1070
     3
1000

1070
   170
1070
     0
1070
   144
1040
1.0
1070
   277
1070
     2
1070
   284
1070
     8
1070
   278
1070
    46
1070
   146
1040
1.166667
1070
   345
1005
16
1070
   347
1005
16
1070
   346
1005
16
1070
   344
1005
0
1070
   343
1005
0
1070
   172
1070
     1
1070
    76
1070
     0
1070
    75
1070
     0
1070
   282
1070
     0
1070
   281
1070
     0
1070
    71
1070
     0
1070
    74
1070
     0
1070
   279
1070
     0
1070
   173
1070
     1
1070
   340
1005
146
1070
   271
1070
     2
1070
   272
1070
     3
1070
    77
1070
     1
1070
    73
1070
     1
1070
   171
1070
     3
1070
   274
1070
     4
1070
   177
1070
     2
1070
   176
1070
     2
1070
   178
1070
     2
1070
    78
1070
     8
1070
    48
1040
-0.1
1070
    41
1040
3.5
1070
   147
1040
1.5
1070
    42
1040
1.5875
1070
    44
1040
2.0
1070
   140
1040
3.0
1002
}
1001
ACAD_DSTYLE_DIM_LINETYPE
1070
   380
1005
16
1001
ACAD_DSTYLE_DIM_EXT1_LINETYPE
1070
   381
1005
16
1001
ACAD_DSTYLE_DIM_EXT2_LINETYPE
1070
   382
1005
16
0
ENDSEC
0
SECTION
2
OBJECTS
0
DICTIONARY
5
238
330
0
100
AcDbDictionary
280
0
281
1
3
ACAD_GROUP
350
239
3
ACAD_MLINESTYLE
350
23a
0
DICTIONARY
5
239
330
0
100
AcDbDictionary
280
0
281
1
0
DICTIONARY
5
23a
330
0
100
AcDbDictionary
280
0
281
1
3
Standard
350
18
0
MLINESTYLE
5
18
330
23a
100
AcDbMlineStyle
2
Standard
70
0
3

62
256
51
90
52
90
71
2
49
-0.5
62
256
6
ByLayer
49
0.5
62
256
6
ByLayer
0
RASTERVARIABLES
5
226
330

100
AcDbRasterVariables
90
0
70
1
71
1
72
1
0
ENDSEC
0
EOF
