0
SECTION
2
HEADER
9
$ACADVER
1
AC1015
9
$DWGCODEPAGE
3
ANSI_1252
9
$HANDSEED
5
242
9
$ANGBASE
50
0
9
$ANGDIR
70
0
9
$ATTMODE
70
1
9
$AUNITS
70
0
9
$AUPREC
70
0
9
$CECOLOR
62
256
9
$CELTSCALE
40
1
9
$CELTYPE
6
ByLayer
9
$CELWEIGHT
370
18
9
$CLAYER
8
0
9
$CMLJUST
70
0
9
$CMLSCALE
40
1
9
$CMLSTYLE
2
Standard
9
$DIMSTYLE
2
Standard
9
$TEXTSIZE
40
0.2
9
$TEXTSTYLE
7
Standard
9
$LUNITS
70
2
9
$LUPREC
70
4
9
$EXTNAMES
290
1
9
$INSUNITS
70
4
9
$LTSCALE
40
1
9
$LWDISPLAY
290
1
9
$PDMODE
70
0
9
$PDSIZE
40
0
9
$PLINEGEN
70
0
0
ENDSEC
0
SECTION
2
CLASSES
0
CLASS
1
RASTERVARIABLES
2
AcDbRasterVariables
3
ISM
90
0
280
0
281
0
0
ENDSEC
0
SECTION
2
TABLES
0
TABLE
2
VPORT
5
238
100
AcDbSymbolTable
0
VPORT
5
1
100
AcDbSymbolTableRecord
100
AcDbViewportTableRecord
2
*Active
70
0
10
0
20
0
11
1
21
1
12
-1
22
1
13
0
23
0
14
0.5
24
0.5
15
10
25
10
16
0
26
0
36
1
17
0
27
0
37
0
0
ENDTAB
0
TABLE
2
LTYPE
5
239
100
AcDbSymbolTable
0
LTYPE
5
14
100
AcDbSymbolTableRecord
100
AcDbLinetypeTableRecord
70
0
2
ByBlock
3

72
65
73
0
40
0
0
LTYPE
5
15
100
AcDbSymbolTableRecord
100
AcDbLinetypeTableRecord
70
0
2
ByLayer
3

72
65
73
0
40
0
0
LTYPE
5
16
100
AcDbSymbolTableRecord
100
AcDbLinetypeTableRecord
70
0
2
Continuous
3
Solid line
72
65
73
0
40
0
0
LTYPE
5
6E
100
AcDbSymbolTableRecord
100
AcDbLinetypeTableRecord
70
0
2
CENTER
3
____ _ ____ _ ____ _ ____
72
65
73
4
40
47.5
49
22
74
0
49
-8.5
74
0
49
8.5
74
0
49
-8.5
74
0
0
LTYPE
5
6F
100
AcDbSymbolTableRecord
100
AcDbLinetypeTableRecord
70
0
2
DASHED
3
__ __ __ __ __ __ __ __ __
72
65
73
2
40
25.72
49
12.86
74
0
49
-12.86
74
0
0
ENDTAB
0
TABLE
2
LAYER
5
23a
100
AcDbSymbolTable
0
LAYER
5
10
100
AcDbSymbolTableRecord
100
AcDbLayerTableRecord
2
0
70
0
62
7
6
Continuous
290
1
370
-3
390
0
0
LAYER
5
71
100
AcDbSymbolTableRecord
100
AcDbLayerTableRecord
2
81
70
0
62
-3
6
Continuous
290
1
370
-3
390
0
0
LAYER
5
73
100
AcDbSymbolTableRecord
100
AcDbLayerTableRecord
2
80
70
0
62
-6
6
Continuous
290
1
370
-3
390
0
0
LAYER
5
75
100
AcDbSymbolTableRecord
100
AcDbLayerTableRecord
2
1
70
0
62
4
6
Continuous
290
1
370
-3
390
0
0
LAYER
5
7F
100
AcDbSymbolTableRecord
100
AcDbLayerTableRecord
2
4
70
0
62
-2
6
CENTER
290
1
370
-3
390
0
0
LAYER
5
B0
100
AcDbSymbolTableRecord
100
AcDbLayerTableRecord
2
2
70
0
62
7
6
Continuous
290
1
370
-3
390
0
0
LAYER
5
167
100
AcDbSymbolTableRecord
100
AcDbLayerTableRecord
2
Defpoints
70
0
62
7
6
Continuous
290
0
370
-3
390
0
0
LAYER
5
224
100
AcDbSymbolTableRecord
100
AcDbLayerTableRecord
2
SK4
70
0
62
2
6
CENTER
290
1
370
-3
390
0
0
LAYER
5
225
100
AcDbSymbolTableRecord
100
AcDbLayerTableRecord
2
SK1
70
0
62
4
6
Continuous
290
1
370
-3
390
0
0
LAYER
5
226
100
AcDbSymbolTableRecord
100
AcDbLayerTableRecord
2
SK2
70
0
62
7
6
Continuous
290
1
370
-3
390
0
0
LAYER
5
227
100
AcDbSymbolTableRecord
100
AcDbLayerTableRecord
2
SK6
70
0
62
5
6
Continuous
290
1
370
-3
390
0
0
ENDTAB
0
TABLE
2
STYLE
5
23b
100
AcDbSymbolTable
0
STYLE
5
11
100
AcDbSymbolTableRecord
100
AcDbTextStyleTableRecord
2
Standard
3
txt
70
0
71
0
40
0
41
1
42
0
50
0
0
STYLE
5
143
100
AcDbSymbolTableRecord
100
AcDbTextStyleTableRecord
2
iso_b_vert
3
simplex.shx
70
0
71
0
40
0
41
1
42
0
50
0
0
STYLE
5
144
100
AcDbSymbolTableRecord
100
AcDbTextStyleTableRecord
2
DWGDirectTextStyle
3
simplex
70
0
71
0
40
0
41
1
42
0
50
0
0
ENDTAB
0
TABLE
2
DIMSTYLE
5
23c
100
AcDbSymbolTable
100
AcDbDimStyleTable
0
DIMSTYLE
105
27
100
AcDbSymbolTableRecord
100
AcDbDimStyleTableRecord
2
Standard
70
0
3
<>
41
0.18
42
0.0625
44
0.18
140
0.18
147
0.09
73
0
74
0
77
1
271
2
275
0
278
52
280
0
340
11
0
ENDTAB
0
TABLE
2
VIEW
5
23d
100
AcDbSymbolTable
0
ENDTAB
0
TABLE
2
UCS
5
23e
100
AcDbSymbolTable
0
ENDTAB
0
TABLE
2
APPID
5
23f
100
AcDbSymbolTable
0
APPID
5
12
100
AcDbSymbolTableRecord
100
AcDbRegAppTableRecord
2
ACAD
70
0
0
APPID
5
163
100
AcDbSymbolTableRecord
100
AcDbRegAppTableRecord
2
ACAD_DSTYLE_DIMBREAK
70
0
0
APPID
5
1E3
100
AcDbSymbolTableRecord
100
AcDbRegAppTableRecord
2
ACAD_DSTYLE_DIM_LINETYPE
70
0
0
APPID
5
1E4
100
AcDbSymbolTableRecord
100
AcDbRegAppTableRecord
2
ACAD_DSTYLE_DIM_EXT1_LINETYPE
70
0
0
APPID
5
1E5
100
AcDbSymbolTableRecord
100
AcDbRegAppTableRecord
2
ACAD_DSTYLE_DIM_EXT2_LINETYPE
70
0
0
APPID
5
220
100
AcDbSymbolTableRecord
100
AcDbRegAppTableRecord
2
ACAD_MLEADERVER
70
0
0
ENDTAB
0
TABLE
2
BLOCK_RECORD
5
240
100
AcDbSymbolTable
0
BLOCK_RECORD
5
1F
100
AcDbSymbolTableRecord
100
AcDbBlockTableRecord
2
*Model_Space
340
0
70
0
0
BLOCK_RECORD
5
1B
100
AcDbSymbolTableRecord
100
AcDbBlockTableRecord
2
*Paper_Space
340
0
70
0
0
BLOCK_RECORD
5
23
100
AcDbSymbolTableRecord
100
AcDbBlockTableRecord
2
*Paper_Space0
340
0
70
0
0
BLOCK_RECORD
5
168
100
AcDbSymbolTableRecord
100
AcDbBlockTableRecord
2
*D1
340
0
70
0
0
BLOCK_RECORD
5
174
100
AcDbSymbolTableRecord
100
AcDbBlockTableRecord
2
_U0
340
0
70
0
0
BLOCK_RECORD
5
180
100
AcDbSymbolTableRecord
100
AcDbBlockTableRecord
2
*D3
340
0
70
0
0
BLOCK_RECORD
5
18C
100
AcDbSymbolTableRecord
100
AcDbBlockTableRecord
2
_U1
340
0
70
0
0
BLOCK_RECORD
5
198
100
AcDbSymbolTableRecord
100
AcDbBlockTableRecord
2
*D5
340
0
70
0
0
BLOCK_RECORD
5
1A4
100
AcDbSymbolTableRecord
100
AcDbBlockTableRecord
2
_U2
340
0
70
0
0
BLOCK_RECORD
5
1B0
100
AcDbSymbolTableRecord
100
AcDbBlockTableRecord
2
*D7
340
0
70
0
0
BLOCK_RECORD
5
1BC
100
AcDbSymbolTableRecord
100
AcDbBlockTableRecord
2
_U3
340
0
70
0
0
ENDTAB
0
ENDSEC
0
SECTION
2
BLOCKS
0
BLOCK
5
20
100
AcDbEntity
8
0
100
AcDbBlockBegin
2
*Model_Space
70
0
10
0
20
0
30
0
3
*Model_Space
0
ENDBLK
5
21
100
AcDbEntity
8
0
100
AcDbBlockEnd
0
BLOCK
5
1C
100
AcDbEntity
8
0
100
AcDbBlockBegin
2
*Paper_Space
70
0
10
0
20
0
30
0
3
*Paper_Space
0
ENDBLK
5
1D
100
AcDbEntity
8
0
100
AcDbBlockEnd
0
BLOCK
5
24
100
AcDbEntity
8
0
100
AcDbBlockBegin
2
*Paper_Space0
70
0
10
0
20
0
30
0
3
*Paper_Space0
0
ENDBLK
5
25
100
AcDbEntity
8
0
100
AcDbBlockEnd
0
BLOCK
5
169
100
AcDbEntity
8
0
100
AcDbBlockBegin
2
*D1
70
1
10
0
20
0
30
0
3
*D1
0
LINE
5
16B
100
AcDbEntity
8
0
62
256
6
ByLayer
370
-2
48
1
60
0
100
AcDbLine
10
-56
20
-14.0875
30
0
11
-56
21
-47.952229
31
0
39
0
210
0
220
0
230
1
0
LINE
5
16C
100
AcDbEntity
8
0
62
256
6
ByLayer
370
-2
48
1
60
0
100
AcDbLine
10
154.5
20
-1.5875
30
0
11
154.5
21
-47.952229
31
0
39
0
210
0
220
0
230
1
0
LINE
5
16D
100
AcDbEntity
8
0
62
256
6
ByLayer
370
-2
48
1
60
0
100
AcDbLine
10
-52.5
20
-45.952229
30
0
11
151
21
-45.952229
31
0
39
0
210
0
220
0
230
1
0
SOLID
5
16E
100
AcDbEntity
8
0
62
256
6
ByLayer
370
-1
48
1
60
0
100
AcDbTrace
10
-52.5
20
-45.368896
30
0
11
-52.5
21
-46.535563
31
0
12
-56
22
-45.952229
32
0
13
-56
23
-45.952229
33
0
39
0
210
0
220
0
230
1
0
SOLID
5
16F
100
AcDbEntity
8
0
62
256
6
ByLayer
370
-1
48
1
60
0
100
AcDbTrace
10
151
20
-46.535563
30
0
11
151
21
-45.368896
31
0
12
154.5
22
-45.952229
32
0
13
154.5
23
-45.952229
33
0
39
0
210
0
220
0
230
1
0
MTEXT
5
170
100
AcDbEntity
8
0
62
256
6
ByLayer
370
18
48
1
60
0
100
AcDbMText
10
49.25
20
-39.952229
30
0
210
0
220
0
230
1
1
\A1;210.5
40
3
41
0
44
1
50
0
71
5
72
5
7
iso_b_vert
0
POINT
5
171
100
AcDbEntity
8
Defpoints
62
0
6
ByLayer
370
-1
48
1
60
0
100
AcDbPoint
10
-56
20
-12.5
30
0
39
0
210
0
220
0
230
1
50
360
0
POINT
5
172
100
AcDbEntity
8
Defpoints
62
0
6
ByLayer
370
-1
48
1
60
0
100
AcDbPoint
10
154.5
20
0
30
0
39
0
210
0
220
0
230
1
50
360
0
POINT
5
173
100
AcDbEntity
8
Defpoints
62
0
6
ByLayer
370
-1
48
1
60
0
100
AcDbPoint
10
154.5
20
-45.952229
30
0
39
0
210
0
220
0
230
1
50
360
0
ENDBLK
5
16A
100
AcDbEntity
8
0
100
AcDbBlockEnd
0
BLOCK
5
17B
100
AcDbEntity
8
0
100
AcDbBlockBegin
2
_U0
70
0
10
0
20
0
30
0
3
_U0
0
MTEXT
5
175
100
AcDbEntity
8
SK2
62
256
6
ByLayer
370
18
48
1
60
0
100
AcDbMText
10
44.021658
20
-45.067115
30
0
210
0
220
0
230
1
1
\W0.7022;210.50
40
3
41
0
44
1.084337
50
0
71
7
72
5
7
iso_b_vert
0
LINE
5
176
100
AcDbEntity
8
SK2
62
256
6
ByLayer
370
13
48
1
60
0
100
AcDbLine
10
-56
20
-14.0875
30
0
11
-56
21
-47.952229
31
0
39
0
210
0
220
0
230
1
0
LINE
5
177
100
AcDbEntity
8
SK2
62
256
6
ByLayer
370
13
48
1
60
0
100
AcDbLine
10
154.5
20
-1.5875
30
0
11
154.5
21
-47.952229
31
0
39
0
210
0
220
0
230
1
0
LINE
5
178
100
AcDbEntity
8
SK2
62
256
6
ByLayer
370
13
48
1
60
0
100
AcDbLine
10
-56
20
-45.952229
30
0
11
154.5
21
-45.952229
31
0
39
0
210
0
220
0
230
1
0
SOLID
5
179
100
AcDbEntity
8
SK2
62
256
6
ByLayer
370
18
48
1
60
0
100
AcDbTrace
10
-56
20
-45.952229
30
0
11
-52.500002
21
-45.491446
31
0
12
-52.499998
22
-46.413013
32
0
13
-52.499998
23
-46.413013
33
0
39
0
210
0
220
0
230
1
0
SOLID
5
17A
100
AcDbEntity
8
SK2
62
256
6
ByLayer
370
18
48
1
60
0
100
AcDbTrace
10
154.5
20
-45.952229
30
0
11
151.000002
21
-46.413013
31
0
12
150.999998
22
-45.491446
32
0
13
150.999998
23
-45.491446
33
0
39
0
210
0
220
0
230
1
0
ENDBLK
5
17C
100
AcDbEntity
8
0
100
AcDbBlockEnd
0
BLOCK
5
181
100
AcDbEntity
8
0
100
AcDbBlockBegin
2
*D3
70
1
10
0
20
0
30
0
3
*D3
0
LINE
5
183
100
AcDbEntity
8
0
62
256
6
ByLayer
370
-2
48
1
60
0
100
AcDbLine
10
154.5
20
-1.5875
30
0
11
154.5
21
-37.952229
31
0
39
0
210
0
220
0
230
1
0
LINE
5
184
100
AcDbEntity
8
0
62
256
6
ByLayer
370
-2
48
1
60
0
100
AcDbLine
10
3
20
-13.0875
30
0
11
3
21
-37.952229
31
0
39
0
210
0
220
0
230
1
0
LINE
5
185
100
AcDbEntity
8
0
62
256
6
ByLayer
370
-2
48
1
60
0
100
AcDbLine
10
151
20
-35.952229
30
0
11
6.5
21
-35.952229
31
0
39
0
210
0
220
0
230
1
0
SOLID
5
186
100
AcDbEntity
8
0
62
256
6
ByLayer
370
-1
48
1
60
0
100
AcDbTrace
10
151
20
-36.535563
30
0
11
151
21
-35.368896
31
0
12
154.5
22
-35.952229
32
0
13
154.5
23
-35.952229
33
0
39
0
210
0
220
0
230
1
0
SOLID
5
187
100
AcDbEntity
8
0
62
256
6
ByLayer
370
-1
48
1
60
0
100
AcDbTrace
10
6.5
20
-35.368896
30
0
11
6.5
21
-36.535563
31
0
12
3
22
-35.952229
32
0
13
3
23
-35.952229
33
0
39
0
210
0
220
0
230
1
0
MTEXT
5
188
100
AcDbEntity
8
0
62
256
6
ByLayer
370
18
48
1
60
0
100
AcDbMText
10
78.75
20
-29.952229
30
0
210
0
220
0
230
1
1
\A1;151.5
40
3
41
0
44
1
50
0
71
5
72
5
7
iso_b_vert
0
POINT
5
189
100
AcDbEntity
8
Defpoints
62
0
6
ByLayer
370
-1
48
1
60
0
100
AcDbPoint
10
154.5
20
0
30
0
39
0
210
0
220
0
230
1
50
360
0
POINT
5
18A
100
AcDbEntity
8
Defpoints
62
0
6
ByLayer
370
-1
48
1
60
0
100
AcDbPoint
10
3
20
-11.5
30
0
39
0
210
0
220
0
230
1
50
360
0
POINT
5
18B
100
AcDbEntity
8
Defpoints
62
0
6
ByLayer
370
-1
48
1
60
0
100
AcDbPoint
10
3
20
-35.952229
30
0
39
0
210
0
220
0
230
1
50
360
0
ENDBLK
5
182
100
AcDbEntity
8
0
100
AcDbBlockEnd
0
BLOCK
5
193
100
AcDbEntity
8
0
100
AcDbBlockBegin
2
_U1
70
0
10
0
20
0
30
0
3
_U1
0
MTEXT
5
18D
100
AcDbEntity
8
SK2
62
256
6
ByLayer
370
18
48
1
60
0
100
AcDbMText
10
73.896601
20
-35.067115
30
0
210
0
220
0
230
1
1
\W0.6532;151.50
40
3
41
0
44
1.084337
50
0
71
7
72
5
7
iso_b_vert
0
LINE
5
18E
100
AcDbEntity
8
SK2
62
256
6
ByLayer
370
13
48
1
60
0
100
AcDbLine
10
154.5
20
-1.5875
30
0
11
154.5
21
-37.952229
31
0
39
0
210
0
220
0
230
1
0
LINE
5
18F
100
AcDbEntity
8
SK2
62
256
6
ByLayer
370
13
48
1
60
0
100
AcDbLine
10
3
20
-13.0875
30
0
11
3
21
-37.952229
31
0
39
0
210
0
220
0
230
1
0
LINE
5
190
100
AcDbEntity
8
SK2
62
256
6
ByLayer
370
13
48
1
60
0
100
AcDbLine
10
154.5
20
-35.952229
30
0
11
3
21
-35.952229
31
0
39
0
210
0
220
0
230
1
0
SOLID
5
191
100
AcDbEntity
8
SK2
62
256
6
ByLayer
370
18
48
1
60
0
100
AcDbTrace
10
154.5
20
-35.952229
30
0
11
151.000002
21
-36.413013
31
0
12
150.999998
22
-35.491446
32
0
13
150.999998
23
-35.491446
33
0
39
0
210
0
220
0
230
1
0
SOLID
5
192
100
AcDbEntity
8
SK2
62
256
6
ByLayer
370
18
48
1
60
0
100
AcDbTrace
10
3
20
-35.952229
30
0
11
6.499998
21
-35.491446
31
0
12
6.500002
22
-36.413013
32
0
13
6.500002
23
-36.413013
33
0
39
0
210
0
220
0
230
1
0
ENDBLK
5
194
100
AcDbEntity
8
0
100
AcDbBlockEnd
0
BLOCK
5
199
100
AcDbEntity
8
0
100
AcDbBlockBegin
2
*D5
70
1
10
0
20
0
30
0
3
*D5
0
LINE
5
19B
100
AcDbEntity
8
0
62
256
6
ByLayer
370
-2
48
1
60
0
100
AcDbLine
10
-56
20
-14.0875
30
0
11
-56
21
-37.952229
31
0
39
0
210
0
220
0
230
1
0
LINE
5
19C
100
AcDbEntity
8
0
62
256
6
ByLayer
370
-2
48
1
60
0
100
AcDbLine
10
0
20
-14.0875
30
0
11
0
21
-37.952229
31
0
39
0
210
0
220
0
230
1
0
LINE
5
19D
100
AcDbEntity
8
0
62
256
6
ByLayer
370
-2
48
1
60
0
100
AcDbLine
10
-52.5
20
-35.952229
30
0
11
-3.5
21
-35.952229
31
0
39
0
210
0
220
0
230
1
0
SOLID
5
19E
100
AcDbEntity
8
0
62
256
6
ByLayer
370
-1
48
1
60
0
100
AcDbTrace
10
-52.5
20
-35.368896
30
0
11
-52.5
21
-36.535563
31
0
12
-56
22
-35.952229
32
0
13
-56
23
-35.952229
33
0
39
0
210
0
220
0
230
1
0
SOLID
5
19F
100
AcDbEntity
8
0
62
256
6
ByLayer
370
-1
48
1
60
0
100
AcDbTrace
10
-3.5
20
-36.535563
30
0
11
-3.5
21
-35.368896
31
0
12
0
22
-35.952229
32
0
13
0
23
-35.952229
33
0
39
0
210
0
220
0
230
1
0
MTEXT
5
1A0
100
AcDbEntity
8
0
62
256
6
ByLayer
370
18
48
1
60
0
100
AcDbMText
10
-28
20
-29.952229
30
0
210
0
220
0
230
1
1
\A1;56
40
3
41
0
44
1
50
0
71
5
72
5
7
iso_b_vert
0
POINT
5
1A1
100
AcDbEntity
8
Defpoints
62
0
6
ByLayer
370
-1
48
1
60
0
100
AcDbPoint
10
-56
20
-12.5
30
0
39
0
210
0
220
0
230
1
50
360
0
POINT
5
1A2
100
AcDbEntity
8
Defpoints
62
0
6
ByLayer
370
-1
48
1
60
0
100
AcDbPoint
10
0
20
-12.5
30
0
39
0
210
0
220
0
230
1
50
360
0
POINT
5
1A3
100
AcDbEntity
8
Defpoints
62
0
6
ByLayer
370
-1
48
1
60
0
100
AcDbPoint
10
0
20
-35.952229
30
0
39
0
210
0
220
0
230
1
50
360
0
ENDBLK
5
19A
100
AcDbEntity
8
0
100
AcDbBlockEnd
0
BLOCK
5
1AB
100
AcDbEntity
8
0
100
AcDbBlockBegin
2
_U2
70
0
10
0
20
0
30
0
3
_U2
0
MTEXT
5
1A5
100
AcDbEntity
8
SK2
62
256
6
ByLayer
370
18
48
1
60
0
100
AcDbMText
10
-32.48237
20
-35.067115
30
0
210
0
220
0
230
1
1
\W0.7468;56.00
40
3
41
0
44
1.084337
50
0
71
7
72
5
7
iso_b_vert
0
LINE
5
1A6
100
AcDbEntity
8
SK2
62
256
6
ByLayer
370
13
48
1
60
0
100
AcDbLine
10
-56
20
-14.0875
30
0
11
-56
21
-37.952229
31
0
39
0
210
0
220
0
230
1
0
LINE
5
1A7
100
AcDbEntity
8
SK2
62
256
6
ByLayer
370
13
48
1
60
0
100
AcDbLine
10
0
20
-14.0875
30
0
11
0
21
-37.952229
31
0
39
0
210
0
220
0
230
1
0
LINE
5
1A8
100
AcDbEntity
8
SK2
62
256
6
ByLayer
370
13
48
1
60
0
100
AcDbLine
10
-56
20
-35.952229
30
0
11
0
21
-35.952229
31
0
39
0
210
0
220
0
230
1
0
SOLID
5
1A9
100
AcDbEntity
8
SK2
62
256
6
ByLayer
370
18
48
1
60
0
100
AcDbTrace
10
-56
20
-35.952229
30
0
11
-52.500002
21
-35.491446
31
0
12
-52.499998
22
-36.413013
32
0
13
-52.499998
23
-36.413013
33
0
39
0
210
0
220
0
230
1
0
SOLID
5
1AA
100
AcDbEntity
8
SK2
62
256
6
ByLayer
370
18
48
1
60
0
100
AcDbTrace
10
0
20
-35.952229
30
0
11
-3.499998
21
-36.413013
31
0
12
-3.500002
22
-35.491446
32
0
13
-3.500002
23
-35.491446
33
0
39
0
210
0
220
0
230
1
0
ENDBLK
5
1AC
100
AcDbEntity
8
0
100
AcDbBlockEnd
0
BLOCK
5
1B1
100
AcDbEntity
8
0
100
AcDbBlockBegin
2
*D7
70
1
10
0
20
0
30
0
3
*D7
0
LINE
5
1B3
100
AcDbEntity
8
0
62
256
6
ByLayer
370
-2
48
1
60
0
100
AcDbLine
10
154.5
20
1.5875
30
0
11
154.5
21
34.952229
31
0
39
0
210
0
220
0
230
1
0
LINE
5
1B4
100
AcDbEntity
8
0
62
256
6
ByLayer
370
-2
48
1
60
0
100
AcDbLine
10
25
20
13.0875
30
0
11
25
21
34.952229
31
0
39
0
210
0
220
0
230
1
0
LINE
5
1B5
100
AcDbEntity
8
0
62
256
6
ByLayer
370
-2
48
1
60
0
100
AcDbLine
10
151
20
32.952229
30
0
11
28.5
21
32.952229
31
0
39
0
210
0
220
0
230
1
0
SOLID
5
1B6
100
AcDbEntity
8
0
62
256
6
ByLayer
370
-1
48
1
60
0
100
AcDbTrace
10
151
20
32.368896
30
0
11
151
21
33.535563
31
0
12
154.5
22
32.952229
32
0
13
154.5
23
32.952229
33
0
39
0
210
0
220
0
230
1
0
SOLID
5
1B7
100
AcDbEntity
8
0
62
256
6
ByLayer
370
-1
48
1
60
0
100
AcDbTrace
10
28.5
20
33.535563
30
0
11
28.5
21
32.368896
31
0
12
25
22
32.952229
32
0
13
25
23
32.952229
33
0
39
0
210
0
220
0
230
1
0
MTEXT
5
1B8
100
AcDbEntity
8
0
62
256
6
ByLayer
370
18
48
1
60
0
100
AcDbMText
10
89.75
20
38.952229
30
0
210
0
220
0
230
1
1
\A1;129.5
40
3
41
0
44
1
50
0
71
5
72
5
7
iso_b_vert
0
POINT
5
1B9
100
AcDbEntity
8
Defpoints
62
0
6
ByLayer
370
-1
48
1
60
0
100
AcDbPoint
10
154.5
20
0
30
0
39
0
210
0
220
0
230
1
50
360
0
POINT
5
1BA
100
AcDbEntity
8
Defpoints
62
0
6
ByLayer
370
-1
48
1
60
0
100
AcDbPoint
10
25
20
11.5
30
0
39
0
210
0
220
0
230
1
50
360
0
POINT
5
1BB
100
AcDbEntity
8
Defpoints
62
0
6
ByLayer
370
-1
48
1
60
0
100
AcDbPoint
10
25
20
32.952229
30
0
39
0
210
0
220
0
230
1
50
360
0
ENDBLK
5
1B2
100
AcDbEntity
8
0
100
AcDbBlockEnd
0
BLOCK
5
1C3
100
AcDbEntity
8
0
100
AcDbBlockBegin
2
_U3
70
0
10
0
20
0
30
0
3
_U3
0
MTEXT
5
1BD
100
AcDbEntity
8
SK2
62
256
6
ByLayer
370
18
48
1
60
0
100
AcDbMText
10
84.521658
20
33.837344
30
0
210
0
220
0
230
1
1
\W0.7022;129.50
40
3
41
0
44
1.084337
50
0
71
7
72
5
7
iso_b_vert
0
LINE
5
1BE
100
AcDbEntity
8
SK2
62
256
6
ByLayer
370
13
48
1
60
0
100
AcDbLine
10
154.5
20
1.5875
30
0
11
154.5
21
34.952229
31
0
39
0
210
0
220
0
230
1
0
LINE
5
1BF
100
AcDbEntity
8
SK2
62
256
6
ByLayer
370
13
48
1
60
0
100
AcDbLine
10
25
20
13.0875
30
0
11
25
21
34.952229
31
0
39
0
210
0
220
0
230
1
0
LINE
5
1C0
100
AcDbEntity
8
SK2
62
256
6
ByLayer
370
13
48
1
60
0
100
AcDbLine
10
154.5
20
32.952229
30
0
11
25
21
32.952229
31
0
39
0
210
0
220
0
230
1
0
SOLID
5
1C1
100
AcDbEntity
8
SK2
62
256
6
ByLayer
370
18
48
1
60
0
100
AcDbTrace
10
154.5
20
32.952229
30
0
11
151.000002
21
32.491446
31
0
12
150.999998
22
33.413013
32
0
13
150.999998
23
33.413013
33
0
39
0
210
0
220
0
230
1
0
SOLID
5
1C2
100
AcDbEntity
8
SK2
62
256
6
ByLayer
370
18
48
1
60
0
100
AcDbTrace
10
25
20
32.952229
30
0
11
28.499998
21
33.413013
31
0
12
28.500002
22
32.491446
32
0
13
28.500002
23
32.491446
33
0
39
0
210
0
220
0
230
1
0
ENDBLK
5
1C4
100
AcDbEntity
8
0
100
AcDbBlockEnd
0
ENDSEC
0
SECTION
2
ENTITIES
0
ARC
5
C1
100
AcDbEntity
8
SK2
62
256
6
ByLayer
370
13
48
1
60
0
100
AcDbCircle
39
0
10
154.5
20
0
30
0
40
19
210
0
220
0
230
1
100
AcDbArc
50
290
51
70
0
ELLIPSE
5
C2
100
AcDbEntity
8
SK1
62
256
6
ByLayer
370
18
48
1
60
0
100
AcDbEllipse
10
-41.343561
20
0
30
0
11
-2.29613691341699E-15
21
-12.5000000000002
31
0
210
0
220
0
230
1
40
0.932515
41
-1.86465462472194
42
-1.27693802886786
0
ELLIPSE
5
C3
100
AcDbEntity
8
SK1
62
256
6
ByLayer
370
18
48
1
60
0
100
AcDbEllipse
10
276.680659
20
0
30
0
11
357.953166043254
21
-4.05596621644435E-13
31
0
210
0
220
0
230
1
40
0.034921
41
2.52406396812455
42
2.73005601344533
0
ELLIPSE
5
C4
100
AcDbEntity
8
SK1
62
256
6
ByLayer
370
18
48
1
60
0
100
AcDbEllipse
10
276.680659
20
0
30
0
11
357.953166032003
21
-4.05596621631686E-13
31
0
210
0
220
0
230
1
40
0.034921
41
-2.73005601344242
42
-2.52406396811705
0
ELLIPSE
5
C5
100
AcDbEntity
8
SK1
62
256
6
ByLayer
370
18
48
1
60
0
100
AcDbEllipse
10
-25.404609
20
0
30
0
11
13.4046088753088
21
-1.51887581674114E-14
31
0
210
0
220
0
230
1
40
0.932515
41
-0.555530755442636
42
0.555530755442635
0
POINT
5
70
100
AcDbEntity
8
81
62
256
6
ByLayer
370
18
48
1
60
0
100
AcDbPoint
10
154.5
20
0
30
0
39
0
210
0
220
0
230
1
50
360
0
POINT
5
72
100
AcDbEntity
8
80
62
256
6
ByLayer
370
18
48
1
60
0
100
AcDbPoint
10
0
20
0
30
0
39
0
210
0
220
0
230
1
50
360
0
POINT
5
74
100
AcDbEntity
8
1
62
256
6
ByLayer
370
18
48
1
60
1
100
AcDbPoint
10
-56
20
-12.5
30
0
39
0
210
0
220
0
230
1
50
360
0
POINT
5
76
100
AcDbEntity
8
1
62
256
6
ByLayer
370
18
48
1
60
1
100
AcDbPoint
10
154.5
20
0
30
0
39
0
210
0
220
0
230
1
50
360
0
POINT
5
77
100
AcDbEntity
8
1
62
256
6
ByLayer
370
18
48
1
60
1
100
AcDbPoint
10
154.5
20
0
30
0
39
0
210
0
220
0
230
1
50
360
0
POINT
5
78
100
AcDbEntity
8
1
62
256
6
ByLayer
370
18
48
1
60
1
100
AcDbPoint
10
3
20
-11.5
30
0
39
0
210
0
220
0
230
1
50
360
0
POINT
5
79
100
AcDbEntity
8
1
62
256
6
ByLayer
370
18
48
1
60
1
100
AcDbPoint
10
-56
20
-12.5
30
0
39
0
210
0
220
0
230
1
50
360
0
POINT
5
7A
100
AcDbEntity
8
1
62
256
6
ByLayer
370
18
48
1
60
1
100
AcDbPoint
10
0
20
-12.5
30
0
39
0
210
0
220
0
230
1
50
360
0
POINT
5
7B
100
AcDbEntity
8
1
62
256
6
ByLayer
370
18
48
1
60
1
100
AcDbPoint
10
154.5
20
0
30
0
39
0
210
0
220
0
230
1
50
360
0
POINT
5
7C
100
AcDbEntity
8
1
62
256
6
ByLayer
370
18
48
1
60
1
100
AcDbPoint
10
25
20
11.5
30
0
39
0
210
0
220
0
230
1
50
360
0
SPLINE
5
C6
100
AcDbEntity
8
1
62
256
6
ByLayer
370
18
48
1
60
0
100
AcDbSpline
70
4
71
3
72
14
73
10
40
0
40
0
40
0
40
0
40
0.25
40
0.25
40
0.5
40
0.5
40
0.75
40
0.75
40
1
40
1
40
1
40
1
41
1
10
13.6181115933412
20
9.71483422296501
30
0
41
1
10
13.3094979813778
20
9.77315276930591
30
0
41
1
10
13.0030459389278
20
9.83247607866812
30
0
41
1
10
12.3936450575427
20
9.95143795651845
30
0
41
1
10
12.0906924059322
20
10.0110762972641
30
0
41
1
10
11.4878807018342
20
10.12955187747
30
0
41
1
10
11.1880207380154
20
10.1883940793044
30
0
41
1
10
10.5914814633916
20
10.3046782955506
30
0
41
1
10
10.2948041044753
20
10.3621290461075
30
0
41
1
10
10
20
10.4187323258669
30
0
0
SPLINE
5
C7
100
AcDbEntity
8
1
62
256
6
ByLayer
370
18
48
1
60
0
100
AcDbSpline
70
4
71
3
72
14
73
10
40
0
40
0
40
0
40
0
40
0.25
40
0.25
40
0.5
40
0.5
40
0.75
40
0.75
40
1
40
1
40
1
40
1
41
1
10
13.6181115933412
20
-9.71483422296501
30
0
41
1
10
13.3094979813778
20
-9.77315276930594
30
0
41
1
10
13.0030459389278
20
-9.83247607866815
30
0
41
1
10
12.3936450575426
20
-9.95143795651845
30
0
41
1
10
12.0906924059321
20
-10.0110762972642
30
0
41
1
10
11.4878807018342
20
-10.12955187747
30
0
41
1
10
11.1880207380154
20
-10.1883940793044
30
0
41
1
10
10.5914814633916
20
-10.3046782955506
30
0
41
1
10
10.2948041044754
20
-10.3621290461076
30
0
41
1
10
10
20
-10.4187323258669
30
0
0
SPLINE
5
C8
100
AcDbEntity
8
1
62
256
6
ByLayer
370
18
48
1
60
0
100
AcDbSpline
70
4
71
3
72
25
73
21
40
0
40
0
40
0
40
0
40
0.124999999999994
40
0.124999999999994
40
0.249999999999988
40
0.249999999999988
40
0.374999999999983
40
0.374999999999983
40
0.437499999999982
40
0.437499999999982
40
0.468749999999984
40
0.468749999999984
40
0.499999999999986
40
0.624999999999989
40
0.624999999999989
40
0.749999999999993
40
0.749999999999993
40
0.874999999999996
40
0.874999999999996
40
1
40
1
40
1
40
1
41
1
10
10
20
-7.37542239356117
30
0
41
1
10
10.361546172874
20
-7.31145695831376
30
0
41
1
10
10.7242997551124
20
-7.26088941006074
30
0
41
1
10
11.4520497636734
20
-7.1857570646435
30
0
41
1
10
11.8170474039512
20
-7.16120103610191
30
0
41
1
10
12.5491713590879
20
-7.13728310276016
30
0
41
1
10
12.9162986795258
20
-7.13793000758352
30
0
41
1
10
13.4685172582118
20
-7.15696883713855
30
0
41
1
10
13.6528448017328
20
-7.1663234043898
30
0
41
1
10
13.9297091470549
20
-7.18472574033348
30
0
41
1
10
14.0219192573728
20
-7.19157965821884
30
0
41
1
10
14.2057742013006
20
-7.20664690265363
30
0
41
1
10
14.664321482423
20
-7.24773206690793
30
0
41
1
10
15.1175874542317
20
-7.30526332322918
30
0
41
1
10
15.8369208442274
20
-7.41480314297505
30
0
41
1
10
16.1936402521153
20
-7.47831615683626
30
0
41
1
10
16.9020912351364
20
-7.61901884460184
30
0
41
1
10
17.2538243347779
20
-7.69619898103221
30
0
41
1
10
17.9532479860167
20
-7.86032773416358
30
0
41
1
10
18.3009431326775
20
-7.94725994994229
30
0
41
1
10
18.6470642835274
20
-8.03727339519702
30
0
0
SPLINE
5
C9
100
AcDbEntity
8
1
62
256
6
ByLayer
370
18
48
1
60
0
100
AcDbSpline
70
4
71
3
72
21
73
17
40
0
40
0
40
0
40
0
40
0.250000000000005
40
0.250000000000005
40
0.312500000000008
40
0.312500000000008
40
0.375000000000011
40
0.50000000000001
40
0.50000000000001
40
0.750000000000008
40
0.750000000000008
40
0.875000000000007
40
0.875000000000007
40
0.937500000000004
40
0.937500000000004
40
1
40
1
40
1
40
1
41
1
10
150.314342305937
20
-1.64357208594186
30
0
41
1
10
149.403408645834
20
-1.31642925655996
30
0
41
1
10
148.493382485223
20
-0.987199578361611
30
0
41
1
10
147.357290934992
20
-0.572213895810307
30
0
41
1
10
147.130118340857
20
-0.489117341118885
30
0
41
1
10
146.675684449658
20
-0.323223322112625
30
0
41
1
10
145.99396528998
20
-0.0746518262837128
30
0
41
1
10
145.312068588256
20
0.17318894565949
30
0
41
1
10
143.948108833329
20
0.668093552987358
30
0
41
1
10
143.038570231258
20
0.996966635609624
30
0
41
1
10
141.674248556024
20
1.48959951685654
30
0
41
1
10
141.21947479352
20
1.65370411671836
30
0
41
1
10
140.5373576861
20
1.89981818725789
30
0
41
1
10
140.310012654051
20
1.98190417652933
30
0
41
1
10
139.855136024055
20
2.1455090785731
30
0
41
1
10
139.627610251792
20
2.22704406857096
30
0
41
1
10
139.4
20
2.30831995784973
30
0
0
SPLINE
5
CA
100
AcDbEntity
8
1
62
256
6
ByLayer
370
18
48
1
60
0
100
AcDbSpline
70
4
71
3
72
93
73
89
40
0
40
0
40
0
40
0
40
0.0312499999999954
40
0.0312499999999954
40
0.0624999999999908
40
0.0624999999999908
40
0.0937499999999861
40
0.0937499999999861
40
0.124999999999982
40
0.124999999999982
40
0.140624999999978
40
0.140624999999978
40
0.148437499999978
40
0.148437499999978
40
0.156249999999977
40
0.187499999999974
40
0.187499999999974
40
0.218749999999972
40
0.218749999999972
40
0.24999999999997
40
0.24999999999997
40
0.281249999999968
40
0.281249999999968
40
0.296874999999967
40
0.296874999999967
40
0.304687499999965
40
0.304687499999965
40
0.312499999999963
40
0.312499999999963
40
0.34374999999996
40
0.34374999999996
40
0.374999999999957
40
0.374999999999957
40
0.406249999999953
40
0.406249999999953
40
0.43749999999995
40
0.43749999999995
40
0.44531249999995
40
0.44531249999995
40
0.453124999999949
40
0.468749999999948
40
0.468749999999948
40
0.499999999999947
40
0.499999999999947
40
0.531249999999946
40
0.531249999999946
40
0.539062499999946
40
0.539062499999946
40
0.546874999999946
40
0.562499999999946
40
0.562499999999946
40
0.593749999999946
40
0.593749999999946
40
0.624999999999947
40
0.624999999999947
40
0.632812499999947
40
0.632812499999947
40
0.640624999999947
40
0.656249999999948
40
0.656249999999948
40
0.687499999999951
40
0.687499999999951
40
0.718749999999954
40
0.718749999999954
40
0.726562499999954
40
0.726562499999954
40
0.734374999999955
40
0.734374999999955
40
0.749999999999957
40
0.749999999999957
40
0.781249999999962
40
0.781249999999962
40
0.812499999999968
40
0.812499999999968
40
0.843749999999973
40
0.843749999999973
40
0.851562499999975
40
0.851562499999975
40
0.859374999999977
40
0.874999999999979
40
0.874999999999979
40
0.906249999999984
40
0.937499999999989
40
0.968749999999994
40
0.968749999999994
40
0.984374999999997
40
0.984374999999997
40
1
40
1
40
1
40
1
41
1
10
150.314342305939
20
11.1348339175358
30
0
41
1
10
150.38616592908
20
10.956756505923
30
0
41
1
10
150.458101840073
20
10.7760020249608
30
0
41
1
10
150.602321150397
20
10.4095589407158
30
0
41
1
10
150.674604427436
20
10.223869382739
30
0
41
1
10
150.819604653863
20
9.84785891648349
30
0
41
1
10
150.892321659318
20
9.65753748915466
30
0
41
1
10
151.038240378418
20
9.27247340373404
30
0
41
1
10
151.111442348672
20
9.07773052506815
30
0
41
1
10
151.221617323888
20
8.78239647716347
30
0
41
1
10
151.258403984844
20
8.68341455218325
30
0
41
1
10
151.313674036676
20
8.53414226359823
30
0
41
1
10
151.332125108213
20
8.48421700853001
30
0
41
1
10
151.368991520194
20
8.38427671055328
30
0
41
1
10
151.461021179282
20
8.13432694855831
30
0
41
1
10
151.552378012098
20
7.88388989605579
30
0
41
1
10
151.697626522529
20
7.48256208037961
30
0
41
1
10
151.769789857776
20
7.28158380801762
30
0
41
1
10
151.913037281867
20
6.87895812187995
30
0
41
1
10
151.984124135629
20
6.67731205733116
30
0
41
1
10
152.124917649881
20
6.27325270754534
30
0
41
1
10
152.194626708164
20
6.07084013682234
30
0
41
1
10
152.297770642108
20
5.76651101039138
30
0
41
1
10
152.331913481213
20
5.66494889232877
30
0
41
1
10
152.382700583433
20
5.51240232405914
30
0
41
1
10
152.399568058177
20
5.46148968811627
30
0
41
1
10
152.433093517693
20
5.35975248223846
30
0
41
1
10
152.449747703662
20
5.30893981372262
30
0
41
1
10
152.532441620998
20
5.05514472565073
30
0
41
1
10
152.596770512947
20
4.85296966610954
30
0
41
1
10
152.720599066429
20
4.45001250861932
30
0
41
1
10
152.780106903372
20
4.24923170726098
30
0
41
1
10
152.892485137299
20
3.84864809067256
30
0
41
1
10
152.945365060197
20
3.64884615717816
30
0
41
1
10
153.041763190941
20
3.24968110760111
30
0
41
1
10
153.085285794493
20
3.05031639469831
30
0
41
1
10
153.131410813353
20
2.80097057643289
30
0
41
1
10
153.140226852068
20
2.75104686018776
30
0
41
1
10
153.156916688078
20
2.65139676343378
30
0
41
1
10
153.180503650301
20
2.50244242505141
30
0
41
1
10
153.19949312158
20
2.35507059565711
30
0
41
1
10
153.230722512609
20
2.06251848487088
30
0
41
1
10
153.242476353968
20
1.87039569472935
30
0
41
1
10
153.245644914149
20
1.49265507637537
30
0
41
1
10
153.237041012202
20
1.30704033807334
30
0
41
1
10
153.213645139566
20
1.07969238379766
30
0
41
1
10
153.208331364933
20
1.03439310537388
30
0
41
1
10
153.196518166601
20
0.944585363195301
30
0
41
1
10
153.177058578901
20
0.811303343205822
30
0
41
1
10
153.152680546883
20
0.682257519075677
30
0
41
1
10
153.098183621671
20
0.42967791345896
30
0
41
1
10
153.054229221389
20
0.268630657913121
30
0
41
1
10
152.955032313936
20
-0.0393552037661493
30
0
41
1
10
152.89979821106
20
-0.186297971963711
30
0
41
1
10
152.825533036588
20
-0.361290032420754
30
0
41
1
10
152.810400010387
20
-0.39588859536434
30
0
41
1
10
152.779721598706
20
-0.46403653610858
30
0
41
1
10
152.733128962202
20
-0.564592647569214
30
0
41
1
10
152.684989403181
20
-0.660249072210888
30
0
41
1
10
152.587021081674
20
-0.845224180921463
30
0
41
1
10
152.519478869573
20
-0.960108209337079
30
0
41
1
10
152.381243083722
20
-1.17356899934137
30
0
41
1
10
152.310540197056
20
-1.27214272628663
30
0
41
1
10
152.220616598357
20
-1.3851804395216
30
0
41
1
10
152.202553486281
20
-1.40727781501596
30
0
41
1
10
152.166277177242
20
-1.45044792312376
30
0
41
1
10
152.148059371683
20
-1.47152427499222
30
0
41
1
10
152.093431559664
20
-1.53294350560074
30
0
41
1
10
152.056968181743
20
-1.5715744685904
30
0
41
1
10
151.947500590477
20
-1.6806762971095
30
0
41
1
10
151.874424354775
20
-1.74437008646845
30
0
41
1
10
151.728209073718
20
-1.85412595816302
30
0
41
1
10
151.655067757424
20
-1.9001862507788
30
0
41
1
10
151.508699765194
20
-1.97469117185673
30
0
41
1
10
151.435472052265
20
-2.00313584036547
30
0
41
1
10
151.343807373374
20
-2.0274412625991
30
0
41
1
10
151.325465877443
20
-2.03173752277675
30
0
41
1
10
151.288936213256
20
-2.0391651392209
30
0
41
1
10
151.234307847164
20
-2.04857717126444
30
0
41
1
10
151.180160091591
20
-2.05285811008099
30
0
41
1
10
151.072458204654
20
-2.05469321601436
30
0
41
1
10
150.930438281844
20
-2.03922549175061
30
0
41
1
10
150.721411219101
20
-1.96322618493178
30
0
41
1
10
150.584238858513
20
-1.87728053465952
30
0
41
1
10
150.481991766776
20
-1.7992946355084
30
0
41
1
10
150.448132700002
20
-1.77113023149698
30
0
41
1
10
150.380900795645
20
-1.71055124763407
30
0
41
1
10
150.347515321732
20
-1.67812704430582
30
0
41
1
10
150.314342305939
20
-1.64357208594237
30
0
0
SPLINE
5
CB
100
AcDbEntity
8
1
62
256
6
ByLayer
370
18
48
1
60
0
100
AcDbSpline
70
4
71
3
72
16
73
12
40
0
40
0
40
0
40
0
40
0.316764906180125
40
0.316764906180125
40
0.402169292907606
40
0.402169292907606
40
0.487573679635087
40
0.487573679635087
40
0.658382453090058
40
0.658382453090058
40
1
40
1
40
1
40
1
41
1
10
142.328763742044
20
11.4985633247643
30
0
41
1
10
143.172245699465
20
11.4987270807696
30
0
41
1
10
144.015291868571
20
11.4867162592596
30
0
41
1
10
145.084733402659
20
11.455662903144
30
0
41
1
10
145.31177027
20
11.4481551597561
30
0
41
1
10
145.765837919029
20
11.4313320275279
30
0
41
1
10
145.992928968973
20
11.422034547743
30
0
41
1
10
146.674422668993
20
11.3915290402176
30
0
41
1
10
147.129010843286
20
11.3677014603043
30
0
41
1
10
148.49333184039
20
11.2858075369783
30
0
41
1
10
149.403642722865
20
11.2173783423881
30
0
41
1
10
150.314342305937
20
11.1348339175359
30
0
0
SPLINE
5
CC
100
AcDbEntity
8
1
62
256
6
ByLayer
370
18
48
1
60
0
100
AcDbSpline
70
4
71
3
72
44
73
40
40
0
40
0
40
0
40
0
40
0.0765638153147889
40
0.0765638153147889
40
0.153127630629578
40
0.153127630629578
40
0.229691445944367
40
0.229691445944367
40
0.267973353601761
40
0.267973353601761
40
0.306255261259156
40
0.306255261259156
40
0.382819076573946
40
0.382819076573946
40
0.459382891888737
40
0.459382891888737
40
0.535946707203527
40
0.535946707203527
40
0.555087661032226
40
0.555087661032226
40
0.574228614860924
40
0.574228614860924
40
0.612510522518321
40
0.612510522518321
40
0.689074337833113
40
0.689074337833113
40
0.765638153147905
40
0.765638153147905
40
0.842201968462697
40
0.842201968462697
40
0.861342922291394
40
0.861342922291394
40
0.880483876120091
40
0.880483876120091
40
0.918765783777486
40
0.918765783777486
40
0.995329599092275
40
0.995329599092275
40
1
40
1
40
1
40
1
41
1
10
18.6470642835274
20
-8.03727339519708
30
0
41
1
10
19.276423708129
20
-8.19681262969561
30
0
41
1
10
19.9057730415325
20
-8.35039932681806
30
0
41
1
10
21.1641797291439
20
-8.64655790080371
30
0
41
1
10
21.7932362711748
20
-8.78912982047203
30
0
41
1
10
23.0508096321902
20
-9.06381134081508
30
0
41
1
10
23.679323715283
20
-9.19592540448477
30
0
41
1
10
24.6215019627448
20
-9.38646978316874
30
0
41
1
10
24.9354636438018
20
-9.44870959533122
30
0
41
1
10
25.5631699814627
20
-9.57063749302003
30
0
41
1
10
25.8768717628244
20
-9.63038298490426
30
0
41
1
10
26.8184796168796
20
-9.80454833714964
30
0
41
1
10
27.4466724190733
20
-9.91425356530931
30
0
41
1
10
28.7035979743314
20
-10.1215941879951
30
0
41
1
10
29.3323440857337
20
-10.2192091083296
30
0
41
1
10
30.5901606644665
20
-10.4026186944078
30
0
41
1
10
31.2192229348553
20
-10.4884224749361
30
0
41
1
10
32.0056162726196
20
-10.5882891630126
30
0
41
1
10
32.1628985649475
20
-10.6078921126633
30
0
41
1
10
32.4774682186601
20
-10.6463535328893
30
0
41
1
10
32.6347478024483
20
-10.6652191853922
30
0
41
1
10
33.1066701612604
20
-10.720618715863
30
0
41
1
10
33.4215142685882
20
-10.7558624323157
30
0
41
1
10
34.365776668357
20
-10.8564286174938
30
0
41
1
10
34.9951767695909
20
-10.9167017234246
30
0
41
1
10
36.2534773050114
20
-11.0241822792879
30
0
41
1
10
36.8823887655667
20
-11.0713807617034
30
0
41
1
10
38.1394772275748
20
-11.1528303119803
30
0
41
1
10
38.7676480815463
20
-11.1870826577837
30
0
41
1
10
39.5522752161062
20
-11.2216854972445
30
0
41
1
10
39.7091630124108
20
-11.2281970770587
30
0
41
1
10
40.0229417206759
20
-11.2403731556502
30
0
41
1
10
40.1798506302058
20
-11.246032576084
30
0
41
1
10
40.6506707999608
20
-11.261725278471
30
0
41
1
10
40.9646577326266
20
-11.270479310031
30
0
41
1
10
41.9068610849054
20
-11.2917001173434
30
0
41
1
10
42.5353119466941
20
-11.2991354108971
30
0
41
1
10
43.2023013429529
20
-11.2999774281178
30
0
41
1
10
43.2406493031227
20
-11.300001126207
30
0
41
1
10
43.2789979557524
20
-11.300000093108
30
0
0
SPLINE
5
CD
100
AcDbEntity
8
1
62
256
6
ByLayer
370
18
48
1
60
0
100
AcDbSpline
70
4
71
3
72
41
73
37
40
0
40
0
40
0
40
0
40
0.063056315583184
40
0.063056315583184
40
0.109903499804026
40
0.109903499804026
40
0.156750684024869
40
0.156750684024869
40
0.203597868245711
40
0.203597868245711
40
0.250445052466553
40
0.250445052466553
40
0.273868644576975
40
0.273868644576975
40
0.297292236687396
40
0.344139420908235
40
0.344139420908235
40
0.437833789349913
40
0.437833789349913
40
0.53152815779159
40
0.53152815779159
40
0.578375342012429
40
0.578375342012429
40
0.625222526233269
40
0.625222526233269
40
0.718916894674951
40
0.718916894674951
40
0.812611263116633
40
0.812611263116633
40
0.906305631558314
40
0.906305631558314
40
0.929729223668735
40
0.929729223668735
40
0.953152815779156
40
0.953152815779156
40
1
40
1
40
1
40
1
41
1
10
119.244478997655
20
8.36701181499257
30
0
41
1
10
119.668198507522
20
8.46866307515572
30
0
41
1
10
120.092056746719
20
8.56790815993975
30
0
41
1
10
120.830989099696
20
8.73684869269479
30
0
41
1
10
121.146020533522
20
8.80757758161059
30
0
41
1
10
121.776162351323
20
8.94652208541731
30
0
41
1
10
122.091216669129
20
9.01472556823688
30
0
41
1
10
122.721017574074
20
9.14858294726406
30
0
41
1
10
123.035799987925
20
9.21424523033471
30
0
41
1
10
123.6651047985
20
9.34304819055424
30
0
41
1
10
123.979611150377
20
9.40621333848793
30
0
41
1
10
124.451214751373
20
9.49898016205111
30
0
41
1
10
124.608413501222
20
9.52953595517621
30
0
41
1
10
124.922876054541
20
9.58981346313408
30
0
41
1
10
125.394638718468
20
9.67902270677064
30
0
41
1
10
125.866577165576
20
9.76468454206827
30
0
41
1
10
126.810613472169
20
9.93143236694036
30
0
41
1
10
127.440186146025
20
10.0364999975241
30
0
41
1
10
128.699524510987
20
10.2348168252171
30
0
41
1
10
129.329285462896
20
10.3280723281507
30
0
41
1
10
130.27388153398
20
10.45918802089
30
0
41
1
10
130.588784324162
20
10.501433676867
30
0
41
1
10
131.218195947391
20
10.5829279212596
30
0
41
1
10
131.532689198013
20
10.6222178974595
30
0
41
1
10
132.476500076559
20
10.7347839032237
30
0
41
1
10
133.105937602829
20
10.8030036388832
30
0
41
1
10
134.364909123257
20
10.9264011753496
30
0
41
1
10
134.994456606941
20
10.9815650040373
30
0
41
1
10
136.253429206305
20
11.0790114715287
30
0
41
1
10
136.882845969439
20
11.1212986111294
30
0
41
1
10
137.669395254197
20
11.166032615572
30
0
41
1
10
137.826694360867
20
11.1745723178936
30
0
41
1
10
138.141268629289
20
11.190832446699
30
0
41
1
10
138.298535807711
20
11.1985556168858
30
0
41
1
10
138.77037970255
20
11.2204582449491
30
0
41
1
10
139.085100702252
20
11.2333353845311
30
0
41
1
10
139.4
20
11.244504424197
30
0
0
SPLINE
5
CE
100
AcDbEntity
8
1
62
256
6
ByLayer
370
18
48
1
60
0
100
AcDbSpline
70
4
71
4
72
10
73
5
40
0
40
0
40
0
40
0
40
0
40
1
40
1
40
1
40
1
40
1
41
0.995924165268622
10
14.0287214764931
20
-7.19413310007827
30
0
41
0.995313346779492
10
13.8908876474332
20
-7.77784155757158
30
0
41
0.995260899658287
10
13.7740705075259
20
-8.40432619482977
30
0
41
0.996045299011366
10
13.6829476269649
20
-9.05701942289466
30
0
41
0.99709786085766
10
13.6181115933421
20
-9.71483422295666
30
0
0
SPLINE
5
CF
100
AcDbEntity
8
1
62
256
6
ByLayer
370
18
48
1
60
0
100
AcDbSpline
70
4
71
3
72
78
73
74
40
0
40
0
40
0
40
0
40
0.0452140886985728
40
0.0452140886985728
40
0.0904281773971456
40
0.0904281773971456
40
0.135642266095718
40
0.135642266095718
40
0.146945788270362
40
0.146945788270362
40
0.158249310445005
40
0.180856354794293
40
0.180856354794293
40
0.226070443492871
40
0.226070443492871
40
0.271284532191449
40
0.271284532191449
40
0.293891576540739
40
0.293891576540739
40
0.305195098715384
40
0.305195098715384
40
0.316498620890029
40
0.327802143064673
40
0.327802143064673
40
0.339105665239318
40
0.339105665239318
40
0.361712709588608
40
0.361712709588608
40
0.40692679828719
40
0.40692679828719
40
0.452140886985771
40
0.452140886985771
40
0.474747931335062
40
0.474747931335062
40
0.497354975684354
40
0.497354975684354
40
0.542569064382936
40
0.542569064382936
40
0.587783153081517
40
0.587783153081517
40
0.610390197430808
40
0.610390197430808
40
0.621693719605452
40
0.621693719605452
40
0.632997241780097
40
0.632997241780097
40
0.655604286129387
40
0.655604286129387
40
0.678211330478678
40
0.678211330478678
40
0.723425419177259
40
0.723425419177259
40
0.768639507875841
40
0.768639507875841
40
0.779943030050487
40
0.779943030050487
40
0.791246552225133
40
0.791246552225133
40
0.813853596574426
40
0.813853596574426
40
0.859067685273011
40
0.859067685273011
40
0.904281773971595
40
0.904281773971595
40
0.926888818320887
40
0.926888818320887
40
0.949495862670178
40
0.949495862670178
40
0.97210290701947
40
0.97210290701947
40
0.994709951368762
40
0.994709951368762
40
1
40
1
40
1
40
1
41
1
10
139.4
20
2.19499246687525
30
0
41
1
10
138.743921263331
20
2.4255855046994
30
0
41
1
10
138.088098368355
20
2.65380521013904
30
0
41
1
10
136.777079013638
20
3.10592111000244
30
0
41
1
10
136.121879879845
20
3.32981008574524
30
0
41
1
10
134.81225352134
20
3.77366200070836
30
0
41
1
10
134.157835882613
20
3.99365064871731
30
0
41
1
10
133.340399732114
20
4.2663920567162
30
0
41
1
10
133.176933956328
20
4.32080701402455
30
0
41
1
10
132.849951481211
20
4.4291261475945
30
0
41
1
10
132.359425463981
20
4.59090208409035
30
0
41
1
10
131.868750072531
20
4.75059992261342
30
0
41
1
10
130.887226249
20
5.06731128270326
30
0
41
1
10
130.232645789736
20
5.2748750336072
30
0
41
1
10
128.923151305899
20
5.68320228338851
30
0
41
1
10
128.26823618569
20
5.88396369535727
30
0
41
1
10
127.285739371483
20
6.18026018228878
30
0
41
1
10
126.958219495865
20
6.27821652443041
30
0
41
1
10
126.466922939585
20
6.42395775523553
30
0
41
1
10
126.3031615654
20
6.47235533102924
30
0
41
1
10
125.975556079676
20
6.56856916726008
30
0
41
1
10
125.647852231634
20
6.66416559885636
30
0
41
1
10
125.319953242141
20
6.75853478491032
30
0
41
1
10
124.991958993095
20
6.85229727246028
30
0
41
1
10
124.827897202873
20
6.89887991520666
30
0
41
1
10
124.335816190861
20
7.03765930627358
30
0
41
1
10
124.007838510601
20
7.12890644587074
30
0
41
1
10
123.02415476528
20
7.39890953680515
30
0
41
1
10
122.368696150584
20
7.57392974188056
30
0
41
1
10
121.058578243914
20
7.91433870295904
30
0
41
1
10
120.403923128232
20
8.07973685289195
30
0
41
1
10
119.422680733204
20
8.32077240218032
30
0
41
1
10
119.095762312754
20
8.40000809620182
30
0
41
1
10
118.441725556689
20
8.55526421884028
30
0
41
1
10
118.114645716852
20
8.6313626321467
30
0
41
1
10
117.133245657522
20
8.85515551160879
30
0
41
1
10
116.478766414571
20
8.99835650364517
30
0
41
1
10
115.1695104292
20
9.27308139434103
30
0
41
1
10
114.514731166623
20
9.40460209520259
30
0
41
1
10
113.532459747358
20
9.59324630599795
30
0
41
1
10
113.20501916749
20
9.65468697747281
30
0
41
1
10
112.713847764915
20
9.74468523258423
30
0
41
1
10
112.550122980059
20
9.77432517765357
30
0
41
1
10
112.222669105714
20
9.83287769334629
30
0
41
1
10
112.058935127875
20
9.8617827590906
30
0
41
1
10
111.567567971112
20
9.94718279269341
30
0
41
1
10
111.239799532483
20
10.0024068609098
30
0
41
1
10
110.583898836329
20
10.1094839728297
30
0
41
1
10
110.255699008716
20
10.1613472457736
30
0
41
1
10
109.2715530859
20
10.3117897468448
30
0
41
1
10
108.615806760499
20
10.405271257685
30
0
41
1
10
107.305143907225
20
10.578844891386
30
0
41
1
10
106.650229629614
20
10.658940572161
30
0
41
1
10
105.832221647483
20
10.7507082363183
30
0
41
1
10
105.668651748004
20
10.7686434318035
30
0
41
1
10
105.341578224926
20
10.8036746960973
30
0
41
1
10
105.178081750648
20
10.8207761310787
30
0
41
1
10
104.687578964685
20
10.8707247905946
30
0
41
1
10
104.360522870631
20
10.9021902575807
30
0
41
1
10
103.379204466681
20
10.9911570995272
30
0
41
1
10
102.724797590061
20
11.0432411351599
30
0
41
1
10
101.41572347886
20
11.1331929949554
30
0
41
1
10
100.761053521658
20
11.1710601204468
30
0
41
1
10
99.7789656832322
20
11.2171941482521
30
0
41
1
10
99.4515902751963
20
11.2307926707135
30
0
41
1
10
98.7968337404949
20
11.2544039363696
30
0
41
1
10
98.4694671659728
20
11.2644194713889
30
0
41
1
10
97.8146811969547
20
11.2808070334648
30
0
41
1
10
97.4871453116963
20
11.2871553812761
30
0
41
1
10
96.8316807548662
20
11.2961747792542
30
0
41
1
10
96.5037708631148
20
11.2988497556152
30
0
41
1
10
96.0989222668236
20
11.2999008739065
30
0
41
1
10
96.0221387408808
20
11.3000003061585
30
0
41
1
10
95.9453521180978
20
11.2999999733337
30
0
0
SPLINE
5
D0
100
AcDbEntity
8
1
62
256
6
ByLayer
370
18
48
1
60
0
100
AcDbSpline
70
4
71
3
72
14
73
10
40
0
40
0
40
0
40
0
40
0.0752157229003026
40
0.0752157229003026
40
0.3834771486002
40
0.3834771486002
40
0.6917385743001
40
0.6917385743001
40
1
40
1
40
1
40
1
41
1
10
19.9988580081342
20
-8.36041726031348
30
0
41
1
10
19.8389687139981
20
-8.3990113319644
30
0
41
1
10
19.6790687415833
20
-8.43724574967041
30
0
41
1
10
18.8637869887994
20
-8.63035677710661
30
0
41
1
10
18.208248817653
20
-8.77961220731629
30
0
41
1
10
16.8969639057054
20
-9.06651864435568
30
0
41
1
10
16.2412145795132
20
-9.20416583769938
30
0
41
1
10
14.9296559279162
20
-9.46804588215019
30
0
41
1
10
14.2738475878766
20
-9.59428186203476
30
0
41
1
10
13.6181115933413
20
-9.71483422296495
30
0
0
SPLINE
5
D1
100
AcDbEntity
8
1
62
256
6
ByLayer
370
18
48
1
60
0
100
AcDbSpline
70
4
71
3
72
10
73
6
40
0
40
0
40
0
40
0
40
0.932183593182241
40
0.932183593182241
40
1
40
1
40
1
40
1
41
1
10
139.4
20
-11.4488699169788
30
0
41
1
10
140.310284032894
20
-11.4797008867724
30
0
41
1
10
141.220491384709
20
-11.4960650368075
30
0
41
1
10
142.196405923276
20
-11.498462687358
30
0
41
1
10
142.262586390754
20
-11.498550477231
30
0
41
1
10
142.328764175679
20
-11.4985633248485
30
0
0
SPLINE
5
D2
100
AcDbEntity
8
1
62
256
6
ByLayer
370
18
48
1
60
0
100
AcDbSpline
70
4
71
3
72
206
73
202
40
0
40
0
40
0
40
0
40
0.0045034376056143
40
0.0045034376056143
40
0.0203049703420321
40
0.0203049703420321
40
0.03610650307845
40
0.03610650307845
40
0.0440072694466588
40
0.0440072694466588
40
0.0519080358148675
40
0.0519080358148675
40
0.0677095685512854
40
0.0677095685512854
40
0.0835111012877032
40
0.0835111012877032
40
0.099312634024121
40
0.099312634024121
40
0.103263017208226
40
0.103263017208226
40
0.10721340039233
40
0.10721340039233
40
0.11511416676054
40
0.11511416676054
40
0.130915699496959
40
0.130915699496959
40
0.146717232233378
40
0.146717232233378
40
0.162518764969798
40
0.162518764969798
40
0.166469148153903
40
0.166469148153903
40
0.170419531338008
40
0.170419531338008
40
0.178320297706218
40
0.178320297706218
40
0.194121830442637
40
0.194121830442637
40
0.209923363179057
40
0.209923363179057
40
0.217824129547267
40
0.221774512731372
40
0.221774512731372
40
0.225724895915476
40
0.225724895915476
40
0.233625662283686
40
0.233625662283686
40
0.241526428651896
40
0.241526428651896
40
0.257327961388316
40
0.257327961388316
40
0.273129494124736
40
0.273129494124736
40
0.281030260492946
40
0.281030260492946
40
0.284980643677051
40
0.284980643677051
40
0.288931026861156
40
0.288931026861156
40
0.304732559597577
40
0.304732559597577
40
0.320534092333997
40
0.320534092333997
40
0.336335625070417
40
0.336335625070417
40
0.340286008254522
40
0.340286008254522
40
0.344236391438627
40
0.344236391438627
40
0.352137157806837
40
0.352137157806837
40
0.360037924175047
40
0.360037924175047
40
0.367938690543257
40
0.367938690543257
40
0.383740223279677
40
0.383740223279677
40
0.399541756016096
40
0.399541756016096
40
0.403492139200201
40
0.403492139200201
40
0.407442522384306
40
0.415343288752516
40
0.415343288752516
40
0.431144821488936
40
0.446946354225356
40
0.446946354225356
40
0.454847120593567
40
0.458797503777672
40
0.458797503777672
40
0.462747886961776
40
0.462747886961776
40
0.470648653329987
40
0.470648653329987
40
0.478549419698197
40
0.478549419698197
40
0.494350952434618
40
0.494350952434618
40
0.510152485171039
40
0.510152485171039
40
0.51805325153925
40
0.51805325153925
40
0.522003634723355
40
0.522003634723355
40
0.52595401790746
40
0.52595401790746
40
0.541755550643879
40
0.541755550643879
40
0.557557083380298
40
0.557557083380298
40
0.573358616116717
40
0.573358616116717
40
0.577308999300822
40
0.577308999300822
40
0.581259382484927
40
0.581259382484927
40
0.589160148853137
40
0.589160148853137
40
0.597060915221347
40
0.597060915221347
40
0.604961681589557
40
0.604961681589557
40
0.620763214325977
40
0.620763214325977
40
0.636564747062398
40
0.636564747062398
40
0.640515130246503
40
0.640515130246503
40
0.644465513430607
40
0.652366279798817
40
0.652366279798817
40
0.668167812535237
40
0.668167812535237
40
0.683969345271658
40
0.683969345271658
40
0.691870111639868
40
0.691870111639868
40
0.695820494823973
40
0.695820494823973
40
0.699770878008077
40
0.699770878008077
40
0.715572410744495
40
0.715572410744495
40
0.723473177112703
40
0.723473177112703
40
0.731373943480911
40
0.731373943480911
40
0.747175476217327
40
0.747175476217327
40
0.755076242585535
40
0.755076242585535
40
0.75902662576964
40
0.75902662576964
40
0.762977008953744
40
0.762977008953744
40
0.778778541690161
40
0.778778541690161
40
0.786679308058369
40
0.786679308058369
40
0.794580074426577
40
0.794580074426577
40
0.810381607162993
40
0.810381607162993
40
0.818282373531201
40
0.818282373531201
40
0.826183139899409
40
0.826183139899409
40
0.841984672635825
40
0.841984672635825
40
0.849885439004034
40
0.849885439004034
40
0.857786205372243
40
0.857786205372243
40
0.865686971740451
40
0.865686971740451
40
0.87358773810866
40
0.87358773810866
40
0.877538121292764
40
0.877538121292764
40
0.881488504476869
40
0.889389270845078
40
0.889389270845078
40
0.905190803581495
40
0.905190803581495
40
0.920992336317912
40
0.920992336317912
40
0.92889310268612
40
0.92889310268612
40
0.936793869054329
40
0.936793869054329
40
0.952595401790747
40
0.952595401790747
40
0.968396934527165
40
0.968396934527165
40
0.984198467263582
40
0.984198467263582
40
0.988148850447687
40
0.988148850447687
40
0.992099233631791
40
0.992099233631791
40
1
40
1
40
1
40
1
41
1
10
19.9969750056202
20
8.37051847868608
30
0
41
1
10
20.1763185595815
20
8.41362606614396
30
0
41
1
10
20.3556534014644
20
8.45627600974836
30
0
41
1
10
21.1641797291439
20
8.64655790080371
30
0
41
1
10
21.7932362711749
20
8.78912982047206
30
0
41
1
10
23.0508096321903
20
9.06381134081511
30
0
41
1
10
23.679323715283
20
9.1959254044848
30
0
41
1
10
24.6215019627448
20
9.38646978316876
30
0
41
1
10
24.9354636438018
20
9.44870959533125
30
0
41
1
10
25.5631699814627
20
9.57063749302006
30
0
41
1
10
25.8768717628245
20
9.63038298490426
30
0
41
1
10
26.8184796168796
20
9.80454833714967
30
0
41
1
10
27.4466724190733
20
9.91425356530931
30
0
41
1
10
28.7035979743314
20
10.1215941879951
30
0
41
1
10
29.3323440857338
20
10.2192091083296
30
0
41
1
10
30.5901606644665
20
10.4026186944079
30
0
41
1
10
31.2192229348553
20
10.4884224749361
30
0
41
1
10
32.0056162726196
20
10.5882891630126
30
0
41
1
10
32.1628985649476
20
10.6078921126633
30
0
41
1
10
32.4774682186602
20
10.6463535328893
30
0
41
1
10
32.6347478024484
20
10.6652191853922
30
0
41
1
10
33.1066701612604
20
10.720618715863
30
0
41
1
10
33.4215142685882
20
10.7558624323158
30
0
41
1
10
34.365776668357
20
10.8564286174938
30
0
41
1
10
34.995176769591
20
10.9167017234246
30
0
41
1
10
36.2534773050114
20
11.0241822792879
30
0
41
1
10
36.8823887655667
20
11.0713807617034
30
0
41
1
10
38.1394772275748
20
11.1528303119803
30
0
41
1
10
38.7676480815463
20
11.1870826577837
30
0
41
1
10
39.5522752161063
20
11.2216854972445
30
0
41
1
10
39.7091630124108
20
11.2281970770587
30
0
41
1
10
40.0229417206759
20
11.2403731556502
30
0
41
1
10
40.1798506302057
20
11.246032576084
30
0
41
1
10
40.6506707999608
20
11.261725278471
30
0
41
1
10
40.9646577326267
20
11.270479310031
30
0
41
1
10
41.9068610849054
20
11.2917001173434
30
0
41
1
10
42.5353119466942
20
11.2991354108972
30
0
41
1
10
43.7925962617713
20
11.3007226251025
30
0
41
1
10
44.4214323045965
20
11.2948750222266
30
0
41
1
10
45.3647856189138
20
11.2760151896333
30
0
41
1
10
45.8364878008646
20
11.2640593065724
30
0
41
1
10
46.3082056951949
20
11.2482606881789
30
0
41
1
10
46.6226856782429
20
11.2368664561396
30
0
41
1
10
46.7799176995434
20
11.2307353525905
30
0
41
1
10
47.2517220082406
20
11.2110749354392
30
0
41
1
10
47.566557395636
20
11.196303413636
30
0
41
1
10
48.1962565693798
20
11.1635025256797
30
0
41
1
10
48.5110728713971
20
11.1454736797597
30
0
41
1
10
49.4553559503167
20
11.0865291930055
30
0
41
1
10
50.084662010235
20
11.0407661467879
30
0
41
1
10
51.3426140044809
20
10.9362786474105
30
0
41
1
10
51.9712537861993
20
10.8775501838799
30
0
41
1
10
52.9135261289225
20
10.779484053881
30
0
41
1
10
53.2275035913997
20
10.7451317832971
30
0
41
1
10
53.6982835743191
20
10.6910640940273
30
0
41
1
10
53.8551706223288
20
10.6726097919949
30
0
41
1
10
54.1689656144934
20
10.6349276979512
30
0
41
1
10
54.3258874551577
20
10.6157136121038
30
0
41
1
10
55.1106279774242
20
10.517803980113
30
0
41
1
10
55.7388055282321
20
10.4335713123318
30
0
41
1
10
56.9955789589772
20
10.2531653829629
30
0
41
1
10
57.6241884835921
20
10.1570048219369
30
0
41
1
10
58.8816075899168
20
9.95245186032878
30
0
41
1
10
59.5104089959817
20
9.84404813178438
30
0
41
1
10
60.2964020419292
20
9.70054628704651
30
0
41
1
10
60.4536005340699
20
9.67144584741453
30
0
41
1
10
60.7679951012282
20
9.6124351118049
30
0
41
1
10
60.9251832291917
20
9.58251217766716
30
0
41
1
10
61.3968823551335
20
9.4917327115347
30
0
41
1
10
61.7115738138548
20
9.4299395725067
30
0
41
1
10
62.3413618338581
20
9.30377793934079
30
0
41
1
10
62.6563139507796
20
9.23943404598049
30
0
41
1
10
63.2860013779438
20
9.10823567872339
30
0
41
1
10
63.6007833243699
20
9.04137411234942
30
0
41
1
10
64.5449014354136
20
8.83695192727231
30
0
41
1
10
65.1740135786399
20
8.69556716109776
30
0
41
1
10
66.431378834085
20
8.40210614366401
30
0
41
1
10
67.0596269236878
20
8.25001912142434
30
0
41
1
10
67.8442766766086
20
8.05286869069494
30
0
41
1
10
68.0011671275666
20
8.01307271858786
30
0
41
1
10
68.3149870216362
20
7.93298281272968
30
0
41
1
10
68.7857939779991
20
7.81213978335009
30
0
41
1
10
69.2568031706398
20
7.68913782508923
30
0
41
1
10
70.1990142375676
20
7.44013944205503
30
0
41
1
10
71.4557985498396
20
7.10014468477775
30
0
41
1
10
72.7131085247122
20
6.74327375552886
30
0
41
1
10
73.6560977361608
20
6.46878186807973
30
0
41
1
10
74.1275952854771
20
6.32982641208056
30
0
41
1
10
74.5990746628166
20
6.18821970233404
30
0
41
1
10
74.9133881005795
20
6.09321600017662
30
0
41
1
10
75.0705368898635
20
6.04540230944133
30
0
41
1
10
75.5421438778188
20
5.90147047722368
30
0
41
1
10
75.8567687280305
20
5.80487939451865
30
0
41
1
10
76.4864038877768
20
5.61032017831792
30
0
41
1
10
76.8014693237709
20
5.51233226594064
30
0
41
1
10
77.7462601569403
20
5.21644099624137
30
0
41
1
10
78.375843668743
20
5.01654853660685
30
0
41
1
10
79.6342275814488
20
4.6109436914368
30
0
41
1
10
80.2630208446308
20
4.40521282190005
30
0
41
1
10
81.2054341257279
20
4.09172291335435
30
0
41
1
10
81.5194436370634
20
3.9864131012111
30
0
41
1
10
81.9902495344768
20
3.8271770866798
30
0
41
1
10
82.1471488269749
20
3.77388284698156
30
0
41
1
10
82.4610010587449
20
3.66719789384715
30
0
41
1
10
82.6179508629686
20
3.61379908360922
30
0
41
1
10
83.4028017239624
20
3.34648406430506
30
0
41
1
10
84.0309985834016
20
3.13158295395436
30
0
41
1
10
85.2876897883871
20
2.69884709959385
30
0
41
1
10
85.9161975225098
20
2.48104815549041
30
0
41
1
10
87.1732880617394
20
2.04189483509168
30
0
41
1
10
87.8018630004275
20
1.8205183300291
30
0
41
1
10
88.5874985192782
20
1.5411593735063
30
0
41
1
10
88.7446214919435
20
1.48515553840818
30
0
41
1
10
89.0588585704284
20
1.37288009770359
30
0
41
1
10
89.2159742483485
20
1.31661269257205
30
0
41
1
10
89.6874979128713
20
1.14794778229106
30
0
41
1
10
90.002058810054
20
1.03562137827549
30
0
41
1
10
90.6315495894151
20
0.811058936116552
30
0
41
1
10
90.9465335121186
20
0.698800647095567
30
0
41
1
10
91.5765749942136
20
0.474341497255011
30
0
41
1
10
91.8915185872033
20
0.362184989528231
30
0
41
1
10
92.8360761661024
20
0.0258089194124693
30
0
41
1
10
93.4654202905469
20
-0.19830936275028
30
0
41
1
10
94.7231258480581
20
-0.647020581580193
30
0
41
1
10
95.351479343903
20
-0.871635572252501
30
0
41
1
10
96.1361980168569
20
-1.15297740178889
30
0
41
1
10
96.2931123130702
20
-1.2092552435108
30
0
41
1
10
96.6070010084379
20
-1.32149576046774
30
0
41
1
10
97.0778987652781
20
-1.48945562533575
30
0
41
1
10
97.5489605902384
20
-1.65630308640013
30
0
41
1
10
98.4912272942296
20
-1.98873663486421
30
0
41
1
10
99.1195939501615
20
-2.20868382125576
30
0
41
1
10
100.376469692706
20
-2.64589700809358
30
0
41
1
10
101.004976321772
20
-2.86316989104515
30
0
41
1
10
101.94765155793
20
-3.187572119962
30
0
41
1
10
102.261863600396
20
-3.29545161434629
30
0
41
1
10
102.733147031547
20
-3.45692416425831
30
0
41
1
10
102.890234143154
20
-3.51069485396036
30
0
41
1
10
103.204401932174
20
-3.61810558628983
30
0
41
1
10
103.361490131145
20
-3.67172514118491
30
0
41
1
10
104.14723441158
20
-3.93863335058882
30
0
41
1
10
104.776637843461
20
-4.14879705657003
30
0
41
1
10
105.721659692252
20
-4.45982512323118
30
0
41
1
10
106.036775384158
20
-4.56277379592424
30
0
41
1
10
106.666805403243
20
-4.76717136084656
30
0
41
1
10
106.981775843945
20
-4.86863701598017
30
0
41
1
10
107.926504433195
20
-5.1709594623434
30
0
41
1
10
108.556074392382
20
-5.36976009681609
30
0
41
1
10
109.499882257231
20
-5.6641932664574
30
0
41
1
10
109.814387993338
20
-5.76172208495973
30
0
41
1
10
110.286018868575
20
-5.90703184711967
30
0
41
1
10
110.4432221183
20
-5.95526999036457
30
0
41
1
10
110.757717136269
20
-6.05110628165662
30
0
41
1
10
110.914998039433
20
-6.09873064936869
30
0
41
1
10
111.701552487919
20
-6.33543217539489
30
0
41
1
10
112.331264596072
20
-6.52028189194064
30
0
41
1
10
113.27629117998
20
-6.79143331843349
30
0
41
1
10
113.591423139005
20
-6.88080162190482
30
0
41
1
10
114.221566875457
20
-7.05747752145882
30
0
41
1
10
114.536569188632
20
-7.14478417973419
30
0
41
1
10
115.481316564075
20
-7.4037128743266
30
0
41
1
10
116.110797000238
20
-7.57236034952078
30
0
41
1
10
117.054340289797
20
-7.8195510001411
30
0
41
1
10
117.368681543554
20
-7.90109967057967
30
0
41
1
10
117.997652511267
20
-8.06121888010938
30
0
41
1
10
118.312254458243
20
-8.13985136611248
30
0
41
1
10
119.256329962758
20
-8.37167294731117
30
0
41
1
10
119.886062865453
20
-8.52081221684679
30
0
41
1
10
120.830989099696
20
-8.73684869269482
30
0
41
1
10
121.146020533522
20
-8.80757758161059
30
0
41
1
10
121.776162351323
20
-8.94652208541734
30
0
41
1
10
122.091216669129
20
-9.01472556823691
30
0
41
1
10
122.721017574074
20
-9.14858294726412
30
0
41
1
10
123.035799987926
20
-9.21424523033477
30
0
41
1
10
123.6651047985
20
-9.34304819055427
30
0
41
1
10
123.979611150377
20
-9.40621333848799
30
0
41
1
10
124.451214751373
20
-9.49898016205111
30
0
41
1
10
124.608413501222
20
-9.52953595517624
30
0
41
1
10
124.922876054541
20
-9.58981346313411
30
0
41
1
10
125.394638718468
20
-9.67902270677061
30
0
41
1
10
125.866577165576
20
-9.76468454206832
30
0
41
1
10
126.81061347217
20
-9.93143236694038
30
0
41
1
10
127.440186146025
20
-10.0364999975242
30
0
41
1
10
128.699524510988
20
-10.2348168252171
30
0
41
1
10
129.329285462896
20
-10.3280723281507
30
0
41
1
10
130.27388153398
20
-10.4591880208901
30
0
41
1
10
130.588784324162
20
-10.501433676867
30
0
41
1
10
131.218195947391
20
-10.5829279212597
30
0
41
1
10
131.532689198013
20
-10.6222178974595
30
0
41
1
10
132.476500076559
20
-10.7347839032237
30
0
41
1
10
133.105937602829
20
-10.8030036388832
30
0
41
1
10
134.364909123257
20
-10.9264011753497
30
0
41
1
10
134.994456606941
20
-10.9815650040373
30
0
41
1
10
136.253429206305
20
-11.0790114715288
30
0
41
1
10
136.882845969439
20
-11.1212986111294
30
0
41
1
10
137.669395254197
20
-11.166032615572
30
0
41
1
10
137.826694360867
20
-11.1745723178936
30
0
41
1
10
138.141268629289
20
-11.190832446699
30
0
41
1
10
138.298535807712
20
-11.1985556168858
30
0
41
1
10
138.77037970255
20
-11.2204582449491
30
0
41
1
10
139.085100702252
20
-11.2333353845311
30
0
41
1
10
139.4
20
-11.244504424197
30
0
0
SPLINE
5
D3
100
AcDbEntity
8
1
62
256
6
ByLayer
370
18
48
1
60
0
100
AcDbSpline
70
4
71
3
72
177
73
173
40
0
40
0
40
0
40
0
40
0.0045215206127476
40
0.0045215206127476
40
0.0138250578032825
40
0.0138250578032825
40
0.032432132184353
40
0.032432132184353
40
0.0510392065654236
40
0.0510392065654236
40
0.0603427437559591
40
0.0603427437559591
40
0.0649945123512266
40
0.0649945123512266
40
0.0696462809464941
40
0.0696462809464941
40
0.0789498181370289
40
0.0789498181370289
40
0.0882533553275638
40
0.0882533553275638
40
0.106860429708634
40
0.106860429708634
40
0.125467504089704
40
0.125467504089704
40
0.130119272684972
40
0.130119272684972
40
0.13477104128024
40
0.13477104128024
40
0.144074578470775
40
0.144074578470775
40
0.162681652851844
40
0.162681652851844
40
0.181288727232914
40
0.181288727232914
40
0.190592264423449
40
0.190592264423449
40
0.199895801613983
40
0.199895801613983
40
0.209199338804518
40
0.209199338804518
40
0.218502875995053
40
0.218502875995053
40
0.22315464459032
40
0.22315464459032
40
0.227806413185588
40
0.237109950376122
40
0.237109950376122
40
0.255717024757191
40
0.255717024757191
40
0.265020561947726
40
0.265020561947726
40
0.269672330542994
40
0.269672330542994
40
0.274324099138261
40
0.292931173519333
40
0.292931173519333
40
0.311538247900405
40
0.311538247900405
40
0.330145322281477
40
0.330145322281477
40
0.334797090876745
40
0.334797090876745
40
0.339448859472013
40
0.339448859472013
40
0.348752396662549
40
0.358055933853085
40
0.358055933853085
40
0.367359471043621
40
0.367359471043621
40
0.385966545424693
40
0.385966545424693
40
0.395270082615229
40
0.395270082615229
40
0.404573619805765
40
0.404573619805765
40
0.423180694186837
40
0.423180694186837
40
0.441787768567909
40
0.441787768567909
40
0.46039484294898
40
0.46039484294898
40
0.465046611544248
40
0.465046611544248
40
0.469698380139516
40
0.469698380139516
40
0.479001917330052
40
0.488305454520588
40
0.492957223115856
40
0.492957223115856
40
0.497608991711124
40
0.497608991711124
40
0.516216066092194
40
0.516216066092194
40
0.525519603282729
40
0.530171371877996
40
0.530171371877996
40
0.534823140473263
40
0.534823140473263
40
0.553430214854333
40
0.553430214854333
40
0.572037289235403
40
0.572037289235403
40
0.590644363616473
40
0.590644363616473
40
0.599947900807007
40
0.599947900807007
40
0.609251437997542
40
0.609251437997542
40
0.627858512378612
40
0.627858512378612
40
0.637162049569146
40
0.637162049569146
40
0.646465586759681
40
0.646465586759681
40
0.665072661140751
40
0.665072661140751
40
0.669724429736018
40
0.669724429736018
40
0.674376198331285
40
0.68367973552182
40
0.692983272712355
40
0.692983272712355
40
0.70228680990289
40
0.70228680990289
40
0.720893884283959
40
0.720893884283959
40
0.730197421474494
40
0.730197421474494
40
0.734849190069761
40
0.734849190069761
40
0.739500958665029
40
0.739500958665029
40
0.758108033046098
40
0.758108033046098
40
0.776715107427168
40
0.776715107427168
40
0.795322181808238
40
0.795322181808238
40
0.804625718998772
40
0.804625718998772
40
0.813929256189307
40
0.813929256189307
40
0.823232793379842
40
0.823232793379842
40
0.832536330570377
40
0.832536330570377
40
0.851143404951446
40
0.851143404951446
40
0.860446942141981
40
0.860446942141981
40
0.865098710737248
40
0.865098710737248
40
0.869750479332515
40
0.869750479332515
40
0.888357553713584
40
0.888357553713584
40
0.906964628094654
40
0.906964628094654
40
0.916268165285188
40
0.916268165285188
40
0.925571702475723
40
0.93022347107099
40
0.93022347107099
40
0.934875239666257
40
0.934875239666257
40
0.944178776856792
40
0.944178776856792
40
0.962785851237861
40
0.962785851237861
40
0.981392925618931
40
0.981392925618931
40
1
40
1
40
1
40
1
41
1
10
119.245496177148
20
-8.36337243818983
30
0
41
1
10
119.086582296703
20
-8.40180193957829
30
0
41
1
10
118.927674920511
20
-8.43990890688571
30
0
41
1
10
118.441725556689
20
-8.55526421884028
30
0
41
1
10
118.114645716852
20
-8.63136263214673
30
0
41
1
10
117.133245657522
20
-8.85515551160879
30
0
41
1
10
116.478766414571
20
-8.99835650364514
30
0
41
1
10
115.1695104292
20
-9.27308139434101
30
0
41
1
10
114.514731166623
20
-9.40460209520259
30
0
41
1
10
113.532459747358
20
-9.59324630599795
30
0
41
1
10
113.20501916749
20
-9.65468697747281
30
0
41
1
10
112.713847764915
20
-9.74468523258423
30
0
41
1
10
112.550122980059
20
-9.77432517765357
30
0
41
1
10
112.222669105714
20
-9.83287769334629
30
0
41
1
10
112.058935127875
20
-9.86178275909057
30
0
41
1
10
111.567567971112
20
-9.94718279269341
30
0
41
1
10
111.239799532483
20
-10.0024068609098
30
0
41
1
10
110.583898836329
20
-10.1094839728297
30
0
41
1
10
110.255699008716
20
-10.1613472457736
30
0
41
1
10
109.2715530859
20
-10.3117897468448
30
0
41
1
10
108.615806760499
20
-10.4052712576849
30
0
41
1
10
107.305143907225
20
-10.578844891386
30
0
41
1
10
106.650229629614
20
-10.658940572161
30
0
41
1
10
105.832221647484
20
-10.7507082363183
30
0
41
1
10
105.668651748004
20
-10.7686434318035
30
0
41
1
10
105.341578224926
20
-10.8036746960973
30
0
41
1
10
105.178081750648
20
-10.8207761310787
30
0
41
1
10
104.687578964685
20
-10.8707247905946
30
0
41
1
10
104.360522870631
20
-10.9021902575807
30
0
41
1
10
103.379204466681
20
-10.9911570995272
30
0
41
1
10
102.724797590061
20
-11.0432411351599
30
0
41
1
10
101.41572347886
20
-11.1331929949554
30
0
41
1
10
100.761053521658
20
-11.1710601204468
30
0
41
1
10
99.7789656832323
20
-11.2171941482521
30
0
41
1
10
99.4515902751962
20
-11.2307926707134
30
0
41
1
10
98.7968337404949
20
-11.2544039363696
30
0
41
1
10
98.4694671659728
20
-11.2644194713889
30
0
41
1
10
97.8146811969547
20
-11.2808070334648
30
0
41
1
10
97.4871453116962
20
-11.2871553812761
30
0
41
1
10
96.8316807548661
20
-11.2961747792542
30
0
41
1
10
96.5037708631148
20
-11.2988497556152
30
0
41
1
10
96.0116534490803
20
-11.300127452068
30
0
41
1
10
95.8475540177986
20
-11.300097289474
30
0
41
1
10
95.5194318079951
20
-11.2991272477735
30
0
41
1
10
95.027320986438
20
-11.296307769414
30
0
41
1
10
94.5354354948111
20
-11.2894081500492
30
0
41
1
10
93.551988981369
20
-11.2701805029391
30
0
41
1
10
92.8967893114558
20
-11.2501337150675
30
0
41
1
10
91.9147723458536
20
-11.2091049876754
30
0
41
1
10
91.5875649687444
20
-11.1935995659499
30
0
41
1
10
91.0969622168528
20
-11.1675656095131
30
0
41
1
10
90.9334577504963
20
-11.1584262146697
30
0
41
1
10
90.6064105296151
20
-11.1392693493015
30
0
41
1
10
89.7887329161204
20
-11.0891664106964
30
0
41
1
10
88.9707793333476
20
-11.0280942277838
30
0
41
1
10
87.6618305288331
20
-10.9164624214116
30
0
41
1
10
87.0072421634943
20
-10.8536903295804
30
0
41
1
10
85.6979826608142
20
-10.7140926341308
30
0
41
1
10
85.0433161438781
20
-10.6372641163877
30
0
41
1
10
84.2250396742008
20
-10.5321690484539
30
0
41
1
10
84.0613945408416
20
-10.5106882583999
30
0
41
1
10
83.7340395156128
20
-10.4668883968684
30
0
41
1
10
83.5703194577457
20
-10.4445807138881
30
0
41
1
10
83.0790270185898
20
-10.3764463915283
30
0
41
1
10
82.4236235322384
20
-10.2823655243656
30
0
41
1
10
81.7675635561328
20
-10.1818260297027
30
0
41
1
10
81.1111913825971
20
-10.0780499131968
30
0
41
1
10
80.7830894063464
20
-10.0245814306412
30
0
41
1
10
79.799152135164
20
-9.85943762185238
30
0
41
1
10
79.1436411879093
20
-9.74302900238399
30
0
41
1
10
78.1611765670204
20
-9.55872251912447
30
0
41
1
10
77.833822176614
20
-9.49566939334011
30
0
41
1
10
77.1794034311335
20
-9.36626840504124
30
0
41
1
10
76.8523821098474
20
-9.29984707805747
30
0
41
1
10
75.8710984417997
20
-9.09667305901607
30
0
41
1
10
75.216751573215
20
-8.95582080233484
30
0
41
1
10
73.9078714618191
20
-8.66328426306396
30
0
41
1
10
73.2533365478279
20
-8.51160293814422
30
0
41
1
10
71.9442140909352
20
-8.19717305156965
30
0
41
1
10
71.2896297958566
20
-8.03441930300829
30
0
41
1
10
70.4714769947009
20
-7.82372794263244
30
0
41
1
10
70.3078506076647
20
-7.7812260387395
30
0
41
1
10
69.9806064670833
20
-7.69548949349485
30
0
41
1
10
69.8169858454394
20
-7.65226021478099
30
0
41
1
10
69.3259780594784
20
-7.52180390184819
30
0
41
1
10
68.6709637519444
20
-7.34570909827519
30
0
41
1
10
67.8513946599422
20
-7.1201828736699
30
0
41
1
10
67.3593128203735
20
-6.98240507392566
30
0
41
1
10
67.0311844024835
20
-6.89000242359313
30
0
41
1
10
66.8670641942656
20
-6.84352021119457
30
0
41
1
10
66.0466723745925
20
-6.60983179403911
30
0
41
1
10
65.3908243967994
20
-6.41875123424251
30
0
41
1
10
64.4078716972619
20
-6.12564606620651
30
0
41
1
10
63.9166016174015
20
-5.97746756080045
30
0
41
1
10
63.425665378594
20
-5.82677902411348
30
0
41
1
10
63.0984517147869
20
-5.72575280397223
30
0
41
1
10
62.9348908948844
20
-5.67493773767936
30
0
41
1
10
62.1171087423148
20
-5.41986019029284
30
0
41
1
10
61.462754266916
20
-5.21308839730497
30
0
41
1
10
60.1538860426478
20
-4.79400051512516
30
0
41
1
10
59.4993762446207
20
-4.58167467865619
30
0
41
1
10
58.1903364770294
20
-4.15114615093177
30
0
41
1
10
57.5358073898246
20
-3.93294175279775
30
0
41
1
10
56.5541308316818
20
-3.60082061451249
30
0
41
1
10
56.2269367173397
20
-3.48927790393597
30
0
41
1
10
55.5725521115101
20
-3.26466217197938
30
0
41
1
10
55.2452473910573
20
-3.15189840879884
30
0
41
1
10
54.2627985700777
20
-2.81279744579092
30
0
41
1
10
53.6072100350147
20
-2.58540964401234
30
0
41
1
10
52.6229945418172
20
-2.24210593060349
30
0
41
1
10
52.2947292047854
20
-2.12728174827339
30
0
41
1
10
51.6384139519058
20
-1.89701244074587
30
0
41
1
10
51.3103214177708
20
-1.78155282137507
30
0
41
1
10
50.3262714530335
20
-1.43410827342959
30
0
41
1
10
49.670545175441
20
-1.20104859755935
30
0
41
1
10
48.851376566871
20
-0.907629767555193
30
0
41
1
10
48.687564241469
20
-0.84884973332521
30
0
41
1
10
48.359880294881
20
-0.731382442654422
30
0
41
1
10
47.8682847948134
20
-0.555266697296275
30
0
41
1
10
47.0486239482057
20
-0.262133720685739
30
0
41
1
10
46.3925737759598
20
-0.0279512088219747
30
0
41
1
10
45.7363788126326
20
0.206112956327957
30
0
41
1
10
45.4081715827798
20
0.323099248602034
30
0
41
1
10
44.4236078299926
20
0.673861885429943
30
0
41
1
10
43.7677098454009
20
0.907293827008345
30
0
41
1
10
42.7847136180571
20
1.25719383381045
30
0
41
1
10
42.457189971164
20
1.37378521301514
30
0
41
1
10
41.9661342939521
20
1.54865135445041
30
0
41
1
10
41.8024948695661
20
1.6069574608504
30
0
41
1
10
41.4752238787983
20
1.72336920406877
30
0
41
1
10
41.3115814892871
20
1.78144470361508
30
0
41
1
10
40.4933240108039
20
2.07114300340672
30
0
41
1
10
39.8385869454212
20
2.30077161587062
30
0
41
1
10
38.5289798345866
20
2.75618276618982
30
0
41
1
10
37.8741076614082
20
2.98195949519604
30
0
41
1
10
36.5643671807783
20
3.43003908814461
30
0
41
1
10
35.9095029803208
20
3.6523533298618
30
0
41
1
10
34.9273428471355
20
3.98353061531833
30
0
41
1
10
34.6000233412617
20
4.09365661443223
30
0
41
1
10
33.9449972822723
20
4.31199193971466
30
0
41
1
10
33.6173222737953
20
4.420286434008
30
0
41
1
10
32.9616654858843
20
4.6351817971121
30
0
41
1
10
32.6336841140178
20
4.74178373189514
30
0
41
1
10
31.9774319954118
20
4.95334322837471
30
0
41
1
10
31.6492046894656
20
5.05828610899658
30
0
41
1
10
30.6649025700018
20
5.37046296301207
30
0
41
1
10
30.0089568900116
20
5.57512200316665
30
0
41
1
10
29.0255505071107
20
5.87721068016791
30
0
41
1
10
28.6978342265961
20
5.97709018585732
30
0
41
1
10
28.2064048252287
20
6.12570936060271
30
0
41
1
10
28.0426195969398
20
6.17504993553226
30
0
41
1
10
27.7150987405368
20
6.27333070737518
30
0
41
1
10
27.5513601422196
20
6.3222635242233
30
0
41
1
10
26.7325224494058
20
6.56529956376667
30
0
41
1
10
26.0770939851796
20
6.75477414938428
30
0
41
1
10
24.7656553643203
20
7.12426022348461
30
0
41
1
10
24.1096441124004
20
7.30426927327042
30
0
41
1
10
23.1252905212323
20
7.56740575787077
30
0
41
1
10
22.7970650163752
20
7.65398436928078
30
0
41
1
10
22.1409133037937
20
7.82478116993838
30
0
41
1
10
21.6489846088753
20
7.95112037021255
30
0
41
1
10
21.1573581504302
20
8.07484753099047
30
0
41
1
10
20.8296773229858
20
8.15675352324328
30
0
41
1
10
20.6658794413266
20
8.19743131315059
30
0
41
1
10
20.1744855488548
20
8.31838822135998
30
0
41
1
10
19.8468439312183
20
8.39750582032931
30
0
41
1
10
18.8637869887995
20
8.63035677710661
30
0
41
1
10
18.208248817653
20
8.77961220731629
30
0
41
1
10
16.8969639057053
20
9.06651864435568
30
0
41
1
10
16.2412145795133
20
9.20416583769938
30
0
41
1
10
14.9296559279163
20
9.46804588215019
30
0
41
1
10
14.2738475878766
20
9.59428186203476
30
0
41
1
10
13.6181115933412
20
9.71483422296495
30
0
0
SPLINE
5
D4
100
AcDbEntity
8
1
62
256
6
ByLayer
370
18
48
1
60
0
100
AcDbSpline
70
4
71
3
72
99
73
95
40
0
40
0
40
0
40
0
40
0.0624999999999933
40
0.0624999999999933
40
0.0937499999999891
40
0.0937499999999891
40
0.124999999999985
40
0.124999999999985
40
0.156249999999981
40
0.156249999999981
40
0.171874999999979
40
0.171874999999979
40
0.187499999999978
40
0.187499999999978
40
0.218749999999976
40
0.218749999999976
40
0.249999999999973
40
0.249999999999973
40
0.281249999999971
40
0.281249999999971
40
0.289062499999971
40
0.289062499999971
40
0.29687499999997
40
0.29687499999997
40
0.312499999999971
40
0.312499999999971
40
0.343749999999972
40
0.343749999999972
40
0.374999999999973
40
0.374999999999973
40
0.382812499999973
40
0.382812499999973
40
0.386718749999973
40
0.386718749999973
40
0.390624999999974
40
0.406249999999974
40
0.406249999999974
40
0.437499999999974
40
0.437499999999974
40
0.453124999999974
40
0.453124999999974
40
0.457031249999974
40
0.457031249999974
40
0.460937499999974
40
0.460937499999974
40
0.468749999999974
40
0.468749999999974
40
0.499999999999974
40
0.499999999999974
40
0.531249999999974
40
0.531249999999974
40
0.535156249999974
40
0.535156249999974
40
0.539062499999974
40
0.546874999999974
40
0.562499999999974
40
0.562499999999974
40
0.593749999999975
40
0.593749999999975
40
0.601562499999975
40
0.601562499999975
40
0.609374999999975
40
0.609374999999975
40
0.624999999999976
40
0.624999999999976
40
0.656249999999978
40
0.656249999999978
40
0.68749999999998
40
0.68749999999998
40
0.703124999999981
40
0.703124999999981
40
0.710937499999982
40
0.710937499999982
40
0.718749999999983
40
0.718749999999983
40
0.749999999999987
40
0.749999999999987
40
0.781249999999992
40
0.781249999999992
40
0.812499999999996
40
0.812499999999996
40
0.843749999999999
40
0.843749999999999
40
0.859375
40
0.859375
40
0.875000000000001
40
0.875000000000001
40
0.906250000000001
40
0.906250000000001
40
0.9375
40
0.9375
40
0.96875
40
0.96875
40
1
40
1
40
1
40
1
41
1
10
10
20
-7.37542239356117
30
0
41
1
10
9.55918118933124
20
-7.49198561817656
30
0
41
1
10
9.12819782245629
20
-7.62446870737989
30
0
41
1
10
8.4965651622602
20
-7.84547155325754
30
0
41
1
10
8.2884994255229
20
-7.9228538139476
30
0
41
1
10
7.87741232067347
20
-8.08481126181832
30
0
41
1
10
7.6743903384407
20
-8.16938612986834
30
0
41
1
10
7.27354391934372
20
-8.34552348321225
30
0
41
1
10
7.07571852742146
20
-8.43708553014932
30
0
41
1
10
6.78306059330512
20
-8.57954730581412
30
0
41
1
10
6.68618875957702
20
-8.62788805428724
30
0
41
1
10
6.49384852289219
20
-8.72626157197857
30
0
41
1
10
6.3982293895493
20
-8.77637880404382
30
0
41
1
10
6.11570420701997
20
-8.9280765280551
30
0
41
1
10
5.93256007808719
20
-9.03127504440633
30
0
41
1
10
5.57700006221273
20
-9.24115589989242
30
0
41
1
10
5.40458157564166
20
-9.34783882351476
30
0
41
1
10
5.07104632566467
20
-9.56405040040704
30
0
41
1
10
4.90992489358428
20
-9.67357984478807
30
0
41
1
10
4.71617310584489
20
-9.81186540738122
30
0
41
1
10
4.67780636585189
20
-9.83959114805356
30
0
41
1
10
4.60185984627955
20
-9.89516943633495
30
0
41
1
10
4.56423170082101
20
-9.92305853678735
30
0
41
1
10
4.45296523889732
20
-10.0065950623966
30
0
41
1
10
4.38099039435374
20
-10.0620721551552
30
0
41
1
10
4.17179059610879
20
-10.2276655295452
30
0
41
1
10
4.04126870556811
20
-10.3369475155895
30
0
41
1
10
3.79919131986395
20
-10.5521779469588
30
0
41
1
10
3.68762486560647
20
-10.6581301441074
30
0
41
1
10
3.56119765608565
20
-10.7876995167896
30
0
41
1
10
3.53656629263349
20
-10.8134692835467
30
0
41
1
10
3.50063112172583
20
-10.8518909719118
30
0
41
1
10
3.48881874115438
20
-10.8646625939666
30
0
41
1
10
3.46561941192698
20
-10.8900339005033
30
0
41
1
10
3.40863173169115
20
-10.9530888808503
30
0
41
1
10
3.35669672291695
20
-11.0142556649959
30
0
41
1
10
3.24185576832028
20
-11.1572448754934
30
0
41
1
10
3.1783295253517
20
-11.2474982833409
30
0
41
1
10
3.10359696398058
20
-11.3744001922845
30
0
41
1
10
3.08212083115222
20
-11.4152858488296
30
0
41
1
10
3.05974844819366
20
-11.4645147911985
30
0
41
1
10
3.05549783396404
20
-11.474266612552
30
0
41
1
10
3.04744974383789
20
-11.4935793295487
30
0
41
1
10
3.04364959906019
20
-11.5031481169083
30
0
41
1
10
3.03297921414611
20
-11.5314481728489
30
0
41
1
10
3.02682443423657
20
-11.549804731339
30
0
41
1
10
3.00078699033253
20
-11.6390562727952
30
0
41
1
10
2.99506693000097
20
-11.7023706955749
30
0
41
1
10
3.01314920875399
20
-11.8131064588864
30
0
41
1
10
3.0369543055827
20
-11.8605270687676
30
0
41
1
10
3.08058913817172
20
-11.9049117125116
30
0
41
1
10
3.08567770900521
20
-11.9097232883024
30
0
41
1
10
3.09629662764215
20
-11.919070998475
30
0
41
1
10
3.11288102025716
20
-11.9326759595298
30
0
41
1
10
3.15610857092005
20
-11.9615515718325
30
0
41
1
10
3.20073053584574
20
-11.9815370258017
30
0
41
1
10
3.29964801140307
20
-12.01550970076
30
0
41
1
10
3.37846571158315
20
-12.0301732045238
30
0
41
1
10
3.49215160053174
20
-12.0394652405834
30
0
41
1
10
3.51564901005574
20
-12.040870754203
30
0
41
1
10
3.56414866941856
20
-12.0427958239786
30
0
41
1
10
3.58916530574825
20
-12.0433138134962
30
0
41
1
10
3.66593746606549
20
-12.0435746668699
30
0
41
1
10
3.71956682723294
20
-12.0420348881024
30
0
41
1
10
3.88731277699174
20
-12.0327464330133
30
0
41
1
10
4.00826756006629
20
-12.0203452809645
30
0
41
1
10
4.26645970322352
20
-11.9851301989494
30
0
41
1
10
4.40370651323889
20
-11.9623095863389
30
0
41
1
10
4.62072639195617
20
-11.9214152736988
30
0
41
1
10
4.69492787321434
20
-11.9066702900452
30
0
41
1
10
4.8089110949353
20
-11.8830040958968
30
0
41
1
10
4.84726972589021
20
-11.8748741314025
30
0
41
1
10
4.92455704827555
20
-11.8581859922679
30
0
41
1
10
4.96350699408222
20
-11.8496234090097
30
0
41
1
10
5.15973294026057
20
-11.8057786990516
30
0
41
1
10
5.32142620002665
20
-11.7674166379531
30
0
41
1
10
5.65302928077003
20
-11.6854061802988
30
0
41
1
10
5.82294289031898
20
-11.6417540296515
30
0
41
1
10
6.17000594496506
20
-11.5501175184154
30
0
41
1
10
6.34715753296371
20
-11.5021309334228
30
0
41
1
10
6.70784533474296
20
-11.4025458657126
30
0
41
1
10
6.89138262841641
20
-11.3509459418068
30
0
41
1
10
7.17090091506694
20
-11.2712413442627
30
0
41
1
10
7.26477629257954
20
-11.2442877331874
30
0
41
1
10
7.45384218428262
20
-11.1896633100144
30
0
41
1
10
7.54887119779519
20
-11.1620390879664
30
0
41
1
10
7.83514609222931
20
-11.0783539711825
30
0
41
1
10
8.0276617436719
20
-11.0214594976472
30
0
41
1
10
8.41552403759255
20
-10.9057271583249
30
0
41
1
10
8.61087028824915
20
-10.8468878927104
30
0
41
1
10
9.00397596250804
20
-10.7274415943719
30
0
41
1
10
9.20173472039824
20
-10.6668331302296
30
0
41
1
10
9.59934670004952
20
-10.5439793664635
30
0
41
1
10
9.79919919478994
20
-10.4817325980708
30
0
41
1
10
10
20
-10.4187323258669
30
0
0
SPLINE
5
D5
100
AcDbEntity
8
1
62
256
6
ByLayer
370
18
48
1
60
0
100
AcDbSpline
70
4
71
3
72
36
73
32
40
0
40
0
40
0
40
0
40
0.021047476164519
40
0.021047476164519
40
0.110043160149566
40
0.110043160149566
40
0.15454100214209
40
0.15454100214209
40
0.176789923138353
40
0.176789923138353
40
0.199038844134616
40
0.199038844134616
40
0.288034528119663
40
0.288034528119663
40
0.37703021210471
40
0.37703021210471
40
0.466025896089758
40
0.466025896089758
40
0.555021580074805
40
0.555021580074805
40
0.599519422067326
40
0.599519422067326
40
0.644017264059847
40
0.644017264059847
40
0.733012948044886
40
0.733012948044886
40
0.822008632029924
40
0.822008632029924
40
0.911004316014962
40
0.911004316014962
40
1
40
1
40
1
40
1
41
1
10
4.04714906495337
20
12.0143434130656
30
0
41
1
10
4.07675655922577
20
12.0107749006646
30
0
41
1
10
4.10683241521042
20
12.0069019227923
30
0
41
1
10
4.26645970322355
20
11.9851301989494
30
0
41
1
10
4.40370651323889
20
11.9623095863389
30
0
41
1
10
4.62072639195614
20
11.9214152736988
30
0
41
1
10
4.69492787321434
20
11.9066702900452
30
0
41
1
10
4.80891109493533
20
11.8830040958968
30
0
41
1
10
4.84726972589021
20
11.8748741314025
30
0
41
1
10
4.92455704827552
20
11.8581859922679
30
0
41
1
10
4.9635069940822
20
11.8496234090097
30
0
41
1
10
5.15973294026051
20
11.8057786990516
30
0
41
1
10
5.32142620002659
20
11.7674166379531
30
0
41
1
10
5.65302928077003
20
11.6854061802989
30
0
41
1
10
5.82294289031898
20
11.6417540296514
30
0
41
1
10
6.17000594496503
20
11.5501175184154
30
0
41
1
10
6.34715753296365
20
11.5021309334228
30
0
41
1
10
6.70784533474301
20
11.4025458657127
30
0
41
1
10
6.89138262841641
20
11.3509459418068
30
0
41
1
10
7.17090091506691
20
11.2712413442627
30
0
41
1
10
7.26477629257954
20
11.2442877331874
30
0
41
1
10
7.45384218428256
20
11.1896633100143
30
0
41
1
10
7.54887119779519
20
11.1620390879664
30
0
41
1
10
7.83514609222934
20
11.0783539711825
30
0
41
1
10
8.0276617436719
20
11.0214594976472
30
0
41
1
10
8.41552403759255
20
10.9057271583249
30
0
41
1
10
8.61087028824915
20
10.8468878927104
30
0
41
1
10
9.00397596250804
20
10.7274415943719
30
0
41
1
10
9.20173472039824
20
10.6668331302296
30
0
41
1
10
9.59934670004955
20
10.5439793664634
30
0
41
1
10
9.79919919478999
20
10.4817325980708
30
0
41
1
10
10
20
10.4187323258668
30
0
0
SPLINE
5
D6
100
AcDbEntity
8
SK1
62
256
6
ByLayer
370
18
48
1
60
0
100
AcDbSpline
70
4
71
3
72
34
73
30
40
0
40
0
40
0
40
0
40
0.125000000000001
40
0.125000000000001
40
0.250000000000002
40
0.250000000000002
40
0.375000000000003
40
0.375000000000003
40
0.437500000000004
40
0.437500000000004
40
0.500000000000005
40
0.500000000000005
40
0.625000000000005
40
0.625000000000005
40
0.656250000000005
40
0.656250000000005
40
0.687500000000005
40
0.687500000000005
40
0.750000000000005
40
0.750000000000005
40
0.812500000000005
40
0.812500000000005
40
0.843750000000004
40
0.843750000000004
40
0.875000000000004
40
0.875000000000004
40
0.937500000000002
40
0.937500000000002
40
1
40
1
40
1
40
1
41
1
10
-52.5003287739481
20
-3.62059097355461
30
0
41
1
10
-52.4791023107682
20
-3.69580949914169
30
0
41
1
10
-52.456173666836
20
-3.7701328086529
30
0
41
1
10
-52.4062202513366
20
-3.91675156331095
30
0
41
1
10
-52.3792000011183
20
-3.98904864238443
30
0
41
1
10
-52.3201140822394
20
-4.13128549106548
30
0
41
1
10
-52.2880578558644
20
-4.20122868864783
30
0
41
1
10
-52.2351342019209
20
-4.30400502578081
30
0
41
1
10
-52.2166821098451
20
-4.33790583931534
30
0
41
1
10
-52.1779019271959
20
-4.40490146665846
30
0
41
1
10
-52.1575385793023
20
-4.43805147836142
30
0
41
1
10
-52.093380094742
20
-4.53574061166557
30
0
41
1
10
-52.0468993353633
20
-4.59806703723407
30
0
41
1
10
-51.9825062567773
20
-4.67139689881651
30
0
41
1
10
-51.9693089720826
20
-4.68583123022111
30
0
41
1
10
-51.9422155209833
20
-4.71419608571787
30
0
41
1
10
-51.9282893124733
20
-4.72815494045494
30
0
41
1
10
-51.8855899983215
20
-4.7689776324583
30
0
41
1
10
-51.8559681934236
20
-4.79473829352929
30
0
41
1
10
-51.7940523105194
20
-4.84293492664423
30
0
41
1
10
-51.7617609635258
20
-4.86537421079322
30
0
41
1
10
-51.710934585781
20
-4.89608972183805
30
0
41
1
10
-51.693592788252
20
-4.9058359097269
30
0
41
1
10
-51.6580214478988
20
-4.92423937407065
30
0
41
1
10
-51.6397301965266
20
-4.93292309713041
30
0
41
1
10
-51.583780125377
20
-4.9569645106269
30
0
41
1
10
-51.5455987975117
20
-4.97010157811332
30
0
41
1
10
-51.4673083175319
20
-4.99008231274206
30
0
41
1
10
-51.4272005227822
20
-4.99693051090844
30
0
41
1
10
-51.3860020460815
20
-5.00022676868039
30
0
0
SPLINE
5
D7
100
AcDbEntity
8
SK1
62
256
6
ByLayer
370
18
48
1
60
0
100
AcDbSpline
70
4
71
3
72
34
73
30
40
0
40
0
40
0
40
0
40
0.0625000000000001
40
0.0625000000000001
40
0.125
40
0.125
40
0.1875
40
0.1875
40
0.25
40
0.25
40
0.28125
40
0.28125
40
0.312499999999999
40
0.312499999999999
40
0.374999999999998
40
0.374999999999998
40
0.499999999999995
40
0.499999999999995
40
0.531249999999995
40
0.531249999999995
40
0.562499999999995
40
0.562499999999995
40
0.624999999999996
40
0.624999999999996
40
0.749999999999997
40
0.749999999999997
40
0.874999999999999
40
0.874999999999999
40
1
40
1
40
1
40
1
41
1
10
-51.3860020460815
20
5.00022676868039
30
0
41
1
10
-51.4271597094618
20
4.99693377635015
30
0
41
1
10
-51.4672462826171
20
4.9900941818546
30
0
41
1
10
-51.5455242136708
20
4.97012456894885
30
0
41
1
10
-51.5837142752675
20
4.95699014998107
30
0
41
1
10
-51.658355568598
20
4.92492253812571
30
0
41
1
10
-51.6938849422845
20
4.90639169663621
30
0
41
1
10
-51.7618166387264
20
4.86534206803361
30
0
41
1
10
-51.7942559781117
20
4.84279931421437
30
0
41
1
10
-51.8409760500773
20
4.80639681369991
30
0
41
1
10
-51.8562248159031
20
4.79382938651
30
0
41
1
10
-51.8861176712827
20
4.76788296468004
30
0
41
1
10
-51.9007110618413
20
4.75454548912128
30
0
41
1
10
-51.9432559764382
20
4.71379512925466
30
0
41
1
10
-51.9701014783725
20
4.68554212638855
30
0
41
1
10
-52.0468805903312
20
4.59805033156974
30
0
41
1
10
-52.0930959781036
20
4.5361050376323
30
0
41
1
10
-52.146279276313
20
4.45521167958731
30
0
41
1
10
-52.1566830990007
20
4.43885754119347
30
0
41
1
10
-52.1770537162702
20
4.4058167491863
30
0
41
1
10
-52.1870311208955
20
4.38911114781021
30
0
41
1
10
-52.2162315231511
20
4.33872068618709
30
0
41
1
10
-52.2347469485042
20
4.30473232112985
30
0
41
1
10
-52.2878314108395
20
4.20171722667834
30
0
41
1
10
-52.3199565384223
20
4.13164670884206
30
0
41
1
10
-52.3791390929746
20
3.98921323503123
30
0
41
1
10
-52.4061866509714
20
3.91684682729945
30
0
41
1
10
-52.4561716481468
20
3.77014208810513
30
0
41
1
10
-52.4791043925606
20
3.69580212206003
30
0
41
1
10
-52.5003287739482
20
3.62059097355464
30
0
0
SPLINE
5
D8
100
AcDbEntity
8
SK1
62
256
6
ByLayer
370
18
48
1
60
0
100
AcDbSpline
70
4
71
3
72
32
73
28
40
0
40
0
40
0
40
0
40
0.124999999999982
40
0.124999999999982
40
0.249999999999963
40
0.249999999999963
40
0.374999999999945
40
0.374999999999945
40
0.406249999999941
40
0.406249999999941
40
0.437499999999938
40
0.499999999999932
40
0.499999999999932
40
0.624999999999931
40
0.624999999999931
40
0.656249999999931
40
0.656249999999931
40
0.68749999999993
40
0.68749999999993
40
0.749999999999941
40
0.749999999999941
40
0.874999999999977
40
0.874999999999977
40
0.906249999999979
40
0.906249999999979
40
0.937499999999981
40
1
40
1
40
1
40
1
41
1
10
-14.0157764695459
20
6.59242894057729
30
0
41
1
10
-14.0458287908144
20
6.6375753796253
30
0
41
1
10
-14.0777095790597
20
6.68135165141678
30
0
41
1
10
-14.1456160664485
20
6.76590887596987
30
0
41
1
10
-14.1816386907667
20
6.80669170869109
30
0
41
1
10
-14.2584995514322
20
6.88489663469755
30
0
41
1
10
-14.2993317458756
20
6.92232243783545
30
0
41
1
10
-14.35399779722
20
6.96665617585003
30
0
41
1
10
-14.3651284778382
20
6.97541075031074
30
0
41
1
10
-14.3876400333972
20
6.9925614515505
30
0
41
1
10
-14.4218166346372
20
7.01777898878851
30
0
41
1
10
-14.4572545898122
20
7.04143848131534
30
0
41
1
10
-14.529923003083
20
7.08656817107874
30
0
41
1
10
-14.5807455844469
20
7.11375097789289
30
0
41
1
10
-14.6477689594914
20
7.14354340177493
30
0
41
1
10
-14.6613494138678
20
7.1492913738704
30
0
41
1
10
-14.6888796972728
20
7.1603468035685
30
0
41
1
10
-14.7028224503024
20
7.16564964334611
30
0
41
1
10
-14.7448319317882
20
7.18073146134719
30
0
41
1
10
-14.7732044950192
20
7.1897362156873
30
0
41
1
10
-14.8594560991353
20
7.21351895535656
30
0
41
1
10
-14.9184624466539
20
7.22508541231923
30
0
41
1
10
-14.9943023139084
20
7.23365556703433
30
0
41
1
10
-15.009604540326
20
7.23507501753883
30
0
41
1
10
-15.0401948935638
20
7.23728819114979
30
0
41
1
10
-15.0861089470591
20
7.23967813447453
30
0
41
1
10
-15.1321084232236
20
7.23928527151031
30
0
41
1
10
-15.1628130403699
20
7.23777548279986
30
0
0
SPLINE
5
D9
100
AcDbEntity
8
SK1
62
256
6
ByLayer
370
18
48
1
60
0
100
AcDbSpline
70
4
71
3
72
24
73
20
40
0
40
0
40
0
40
0
40
0.124999999999998
40
0.124999999999998
40
0.249999999999995
40
0.249999999999995
40
0.374999999999993
40
0.374999999999993
40
0.49999999999999
40
0.49999999999999
40
0.624999999999988
40
0.624999999999988
40
0.749999999999985
40
0.749999999999985
40
0.812499999999989
40
0.812499999999989
40
0.874999999999992
40
0.874999999999992
40
1
40
1
40
1
40
1
41
1
10
-15.1628130403699
20
-7.23777548279986
30
0
41
1
10
-15.1013368482927
20
-7.2407983526281
30
0
41
1
10
-15.0406973758297
20
-7.23880609117487
30
0
41
1
10
-14.920978556398
20
-7.22545942224767
30
0
41
1
10
-14.8618998887329
20
-7.21410077871741
30
0
41
1
10
-14.7452745335612
20
-7.18212437688828
30
0
41
1
10
-14.6895699451789
20
-7.16201960319464
30
0
41
1
10
-14.5827589175342
20
-7.11474711952985
30
0
41
1
10
-14.5316211412475
20
-7.08755690757022
30
0
41
1
10
-14.4334554488588
20
-7.02672282100497
30
0
41
1
10
-14.38751619038
20
-6.99376703919228
30
0
41
1
10
-14.3007925764322
20
-6.92357765523022
30
0
41
1
10
-14.2600161652162
20
-6.88633798514746
30
0
41
1
10
-14.2021759714483
20
-6.82763631844753
30
0
41
1
10
-14.1834523029509
20
-6.80759363972547
30
0
41
1
10
-14.1470479748901
20
-6.76660288333122
30
0
41
1
10
-14.1293429656042
20
-6.74562348347595
30
0
41
1
10
-14.0779142754528
20
-6.68164973874727
30
0
41
1
10
-14.0458764161971
20
-6.63764692539442
30
0
41
1
10
-14.0157764695459
20
-6.59242894057729
30
0
0
SPLINE
5
DA
100
AcDbEntity
8
1
62
256
6
ByLayer
370
13
48
1
60
0
100
AcDbSpline
70
4
71
3
72
124
73
120
40
0
40
0
40
0
40
0
40
0.0156249999999988
40
0.0156249999999988
40
0.0312499999999977
40
0.0312499999999977
40
0.0468749999999965
40
0.0468749999999965
40
0.0624999999999954
40
0.0624999999999954
40
0.0781249999999942
40
0.0781249999999942
40
0.0937499999999931
40
0.0937499999999931
40
0.109374999999992
40
0.109374999999992
40
0.124999999999991
40
0.124999999999991
40
0.156249999999989
40
0.156249999999989
40
0.171874999999988
40
0.171874999999988
40
0.175781249999988
40
0.175781249999988
40
0.179687499999988
40
0.179687499999988
40
0.187499999999987
40
0.187499999999987
40
0.218749999999985
40
0.218749999999985
40
0.249999999999984
40
0.249999999999984
40
0.265624999999983
40
0.265624999999983
40
0.281249999999982
40
0.281249999999982
40
0.296874999999981
40
0.296874999999981
40
0.312499999999981
40
0.312499999999981
40
0.32812499999998
40
0.32812499999998
40
0.343749999999979
40
0.343749999999979
40
0.359374999999978
40
0.359374999999978
40
0.374999999999978
40
0.374999999999978
40
0.406249999999976
40
0.406249999999976
40
0.437499999999974
40
0.437499999999974
40
0.445312499999974
40
0.445312499999974
40
0.449218749999974
40
0.449218749999974
40
0.453124999999974
40
0.453124999999974
40
0.468749999999974
40
0.468749999999974
40
0.499999999999975
40
0.499999999999975
40
0.515624999999975
40
0.515624999999975
40
0.531249999999976
40
0.531249999999976
40
0.546874999999976
40
0.546874999999976
40
0.562499999999977
40
0.562499999999977
40
0.578124999999977
40
0.578124999999977
40
0.593749999999978
40
0.593749999999978
40
0.609374999999978
40
0.609374999999978
40
0.624999999999979
40
0.624999999999979
40
0.640624999999979
40
0.640624999999979
40
0.65624999999998
40
0.65624999999998
40
0.687499999999981
40
0.687499999999981
40
0.718749999999982
40
0.718749999999982
40
0.722656249999982
40
0.722656249999982
40
0.726562499999982
40
0.726562499999982
40
0.734374999999982
40
0.734374999999982
40
0.749999999999984
40
0.749999999999984
40
0.781249999999986
40
0.781249999999986
40
0.796874999999987
40
0.796874999999987
40
0.812499999999988
40
0.812499999999988
40
0.828124999999989
40
0.828124999999989
40
0.84374999999999
40
0.84374999999999
40
0.859374999999991
40
0.859374999999991
40
0.874999999999992
40
0.874999999999992
40
0.890624999999993
40
0.890624999999993
40
0.906249999999994
40
0.906249999999994
40
0.921874999999995
40
0.921874999999995
40
0.937499999999996
40
0.937499999999996
40
0.968749999999998
40
0.968749999999998
40
1
40
1
40
1
40
1
41
1
10
139.4
20
9.79729559926827
30
0
41
1
10
139.451758566635
20
9.61061983773658
30
0
41
1
10
139.50351713327
20
9.40876482097963
30
0
41
1
10
139.607034266541
20
8.97658305606828
30
0
41
1
10
139.658792833176
20
8.74625879855216
30
0
41
1
10
139.762309966447
20
8.259841220863
30
0
41
1
10
139.814068533082
20
8.00375216954171
30
0
41
1
10
139.917585666353
20
7.46922024193174
30
0
41
1
10
139.969344232988
20
7.19078304528307
30
0
41
1
10
140.072861366259
20
6.61553177113075
30
0
41
1
10
140.124619932894
20
6.31872424513693
30
0
41
1
10
140.228137066164
20
5.71108526109506
30
0
41
1
10
140.279895632799
20
5.40026060209317
30
0
41
1
10
140.38341276607
20
4.76911357186779
30
0
41
1
10
140.435171332705
20
4.4487976359579
30
0
41
1
10
140.538688465976
20
3.80316669586642
30
0
41
1
10
140.590447032611
20
3.47785725308162
30
0
41
1
10
140.745722732517
20
2.50086420185565
30
0
41
1
10
140.849239865787
20
1.8483633126292
30
0
41
1
10
141.004515565693
20
0.890010988511818
30
0
41
1
10
141.056274132328
20
0.57390261737595
30
0
41
1
10
141.120972340623
20
0.18477127521453
30
0
41
1
10
141.133911982281
20
0.107243855356415
30
0
41
1
10
141.159791265599
20
-0.0471731015326782
30
0
41
1
10
141.172730907258
20
-0.124404449226262
30
0
41
1
10
141.211549832234
20
-0.357413968701252
30
0
41
1
10
141.237429115552
20
-0.513971417736144
30
0
41
1
10
141.36682553214
20
-1.30198921880384
30
0
41
1
10
141.47034266541
20
-1.9494651521735
30
0
41
1
10
141.677376931952
20
-3.25119998356169
30
0
41
1
10
141.780894065222
20
-3.9053451939854
30
0
41
1
10
141.936169765128
20
-4.86599118213124
30
0
41
1
10
141.987928331763
20
-5.18273606211534
30
0
41
1
10
142.091445465034
20
-5.80476378978278
30
0
41
1
10
142.143204031669
20
-6.11003997348496
30
0
41
1
10
142.246721164939
20
-6.70465447370313
30
0
41
1
10
142.298479731575
20
-6.99398602074675
30
0
41
1
10
142.401996864845
20
-7.55249651164553
30
0
41
1
10
142.45375543148
20
-7.82166920942205
30
0
41
1
10
142.557272564751
20
-8.33610607594181
30
0
41
1
10
142.609031131386
20
-8.58136512107762
30
0
41
1
10
142.712548264657
20
-9.0448503763412
30
0
41
1
10
142.764306831292
20
-9.26307305866885
30
0
41
1
10
142.867823964563
20
-9.67012436081345
30
0
41
1
10
142.919582531198
20
-9.85895132237115
30
0
41
1
10
143.023099664468
20
-10.2056916786696
30
0
41
1
10
143.074858231104
20
-10.3636053243139
30
0
41
1
10
143.230133931009
20
-10.7899907977718
30
0
41
1
10
143.33365106428
20
-11.0107395530496
30
0
41
1
10
143.540685330821
20
-11.3295800621421
30
0
41
1
10
143.644202464092
20
-11.4278059289003
30
0
41
1
10
143.77359888068
20
-11.4830728420381
30
0
41
1
10
143.799478163997
20
-11.490769017753
30
0
41
1
10
143.838297088974
20
-11.4974945592492
30
0
41
1
10
143.851236730633
20
-11.4989334441303
30
0
41
1
10
143.87711601395
20
-11.5002431852085
30
0
41
1
10
143.890055655609
20
-11.5001195273744
30
0
41
1
10
143.954753863903
20
-11.495585656977
30
0
41
1
10
144.006512430538
20
-11.4793529942843
30
0
41
1
10
144.161788130444
20
-11.3893880548914
30
0
41
1
10
144.265305263715
20
-11.2741071958282
30
0
41
1
10
144.42058096362
20
-11.0083513279941
30
0
41
1
10
144.472339530256
20
-10.9043575418177
30
0
41
1
10
144.575856663526
20
-10.6648462340017
30
0
41
1
10
144.627615230162
20
-10.5293257196847
30
0
41
1
10
144.731132363432
20
-10.2268201009063
30
0
41
1
10
144.782890930067
20
-10.0598334901513
30
0
41
1
10
144.886408063338
20
-9.69529790299234
30
0
41
1
10
144.938166629973
20
-9.49774921983325
30
0
41
1
10
145.041683763244
20
-9.07385405450123
30
0
41
1
10
145.093442329879
20
-8.84750978754477
30
0
41
1
10
145.19695946315
20
-8.36861300239059
30
0
41
1
10
145.248718029785
20
-8.11606451298059
30
0
41
1
10
145.352235163055
20
-7.58807949620936
30
0
41
1
10
145.403993729691
20
-7.31264847404839
30
0
41
1
10
145.507510862961
20
-6.74280473658243
30
0
41
1
10
145.559269429596
20
-6.44839848409273
30
0
41
1
10
145.662786562867
20
-5.84491507406435
30
0
41
1
10
145.714545129502
20
-5.53584471894141
30
0
41
1
10
145.818062262773
20
-4.90754689192877
30
0
41
1
10
145.869820829408
20
-4.58832594295214
30
0
41
1
10
146.025096529313
20
-3.6221992215913
30
0
41
1
10
146.128613662584
20
-2.96701657691833
30
0
41
1
10
146.335647929125
20
-1.66770670366481
30
0
41
1
10
146.439165062396
20
-1.02368031678338
30
0
41
1
10
146.555621837325
20
-0.32018713959539
30
0
41
1
10
146.568561478984
20
-0.242307917111219
30
0
41
1
10
146.594440762302
20
-0.0871643087353959
30
0
41
1
10
146.60738040396
20
-0.0101105528378298
30
0
41
1
10
146.646199328937
20
0.221820124615249
30
0
41
1
10
146.672078612254
20
0.377704852393663
30
0
41
1
10
146.749716462207
20
0.848652182977474
30
0
41
1
10
146.801475028843
20
1.16702490950661
30
0
41
1
10
146.956750728748
20
2.13074490375445
30
0
41
1
10
147.060267862019
20
2.78490883300051
30
0
41
1
10
147.215543561925
20
3.76073793918701
30
0
41
1
10
147.26730212856
20
4.08505280188189
30
0
41
1
10
147.37081926183
20
4.72740420672005
30
0
41
1
10
147.422577828466
20
5.04543489009245
30
0
41
1
10
147.526094961736
20
5.67069292008739
30
0
41
1
10
147.577853528371
20
5.9779136674467
30
0
41
1
10
147.681370661642
20
6.57705514099274
30
0
41
1
10
147.733129228277
20
6.86896907457884
30
0
41
1
10
147.836646361548
20
7.43323170093544
30
0
41
1
10
147.888404928183
20
7.70557403276064
30
0
41
1
10
147.991922061454
20
8.22685948038782
30
0
41
1
10
148.043680628089
20
8.47579727648969
30
0
41
1
10
148.14719776136
20
8.94704845099761
30
0
41
1
10
148.198956327995
20
9.16935804785621
30
0
41
1
10
148.302473461265
20
9.58487470489627
30
0
41
1
10
148.354232027901
20
9.77807982756636
30
0
41
1
10
148.457749161171
20
10.1337432705282
30
0
41
1
10
148.509507727806
20
10.2962015713039
30
0
41
1
10
148.613024861077
20
10.5895903749757
30
0
41
1
10
148.664783427712
20
10.7205226229023
30
0
41
1
10
148.820059127618
20
11.0661110566392
30
0
41
1
10
148.923576260888
20
11.2332436675602
30
0
41
1
10
149.130610527429
20
11.4501145726067
30
0
41
1
10
149.2341276607
20
11.5
30
0
41
1
10
149.33764479397
20
11.5
30
0
0
SPLINE
5
DB
100
AcDbEntity
8
1
62
256
6
ByLayer
370
13
48
1
60
0
100
AcDbSpline
70
4
71
3
72
22
73
18
40
0
40
0
40
0
40
0
40
0.125
40
0.125
40
0.25
40
0.25
40
0.375
40
0.375
40
0.5
40
0.5
40
0.625
40
0.625
40
0.75
40
0.75
40
0.875
40
0.875
40
1
40
1
40
1
40
1
41
1
10
148.678632093727
20
11.5
30
0
41
1
10
148.746786685903
20
11.5
30
0
41
1
10
148.814941278078
20
11.4784370839303
30
0
41
1
10
148.951250462429
20
11.3869494636645
30
0
41
1
10
149.019405054605
20
11.3170060194638
30
0
41
1
10
149.155714238956
20
11.1247401556578
30
0
41
1
10
149.223868831131
20
11.0024003970057
30
0
41
1
10
149.360178015482
20
10.7031307873626
30
0
41
1
10
149.428332607657
20
10.5261881968739
30
0
41
1
10
149.564641792009
20
10.1177717742133
30
0
41
1
10
149.632796384184
20
9.88629283628555
30
0
41
1
10
149.769105568535
20
9.37141143405771
30
0
41
1
10
149.837260160711
20
9.0880134656239
30
0
41
1
10
149.973569345061
20
8.47446591069419
30
0
41
1
10
150.041723937237
20
8.14433056965339
30
0
41
1
10
150.178033121588
20
7.44476180553394
30
0
41
1
10
150.246187713763
20
7.07535045273369
30
0
41
1
10
150.314342305939
20
6.69088056049438
30
0
0
SPLINE
5
DC
100
AcDbEntity
8
1
62
256
6
ByLayer
370
13
48
1
60
0
100
AcDbSpline
70
4
71
3
72
85
73
81
40
0
40
0
40
0
40
0
40
0.031250000000001
40
0.031250000000001
40
0.0625000000000021
40
0.0625000000000021
40
0.0937500000000031
40
0.0937500000000031
40
0.125000000000004
40
0.125000000000004
40
0.132812500000004
40
0.132812500000004
40
0.136718750000004
40
0.136718750000004
40
0.140625000000004
40
0.140625000000004
40
0.156250000000005
40
0.156250000000005
40
0.187500000000005
40
0.187500000000005
40
0.218750000000006
40
0.218750000000006
40
0.250000000000007
40
0.250000000000007
40
0.281250000000008
40
0.281250000000008
40
0.312500000000009
40
0.312500000000009
40
0.343750000000009
40
0.343750000000009
40
0.37500000000001
40
0.37500000000001
40
0.406250000000011
40
0.406250000000011
40
0.421875000000012
40
0.421875000000012
40
0.425781250000011
40
0.425781250000011
40
0.429687500000011
40
0.437500000000011
40
0.437500000000011
40
0.46875000000001
40
0.46875000000001
40
0.50000000000001
40
0.50000000000001
40
0.531250000000009
40
0.531250000000009
40
0.562500000000008
40
0.562500000000008
40
0.593750000000007
40
0.593750000000007
40
0.625000000000006
40
0.625000000000006
40
0.656250000000005
40
0.656250000000005
40
0.687500000000004
40
0.687500000000004
40
0.703125000000004
40
0.703125000000004
40
0.710937500000004
40
0.710937500000004
40
0.718750000000004
40
0.718750000000004
40
0.750000000000003
40
0.750000000000003
40
0.781250000000003
40
0.781250000000003
40
0.812500000000002
40
0.812500000000002
40
0.843750000000002
40
0.843750000000002
40
0.875000000000002
40
0.875000000000002
40
0.906250000000001
40
0.906250000000001
40
0.937500000000001
40
0.937500000000001
40
0.96875
40
0.96875
40
1
40
1
40
1
40
1
41
1
10
139.4
20
7.61949153061755
30
0
41
1
10
139.49843016422
20
7.10515043434592
30
0
41
1
10
139.59686032844
20
6.55125208131273
30
0
41
1
10
139.79372065688
20
5.39322254796798
30
0
41
1
10
139.8921508211
20
4.78925848980205
30
0
41
1
10
140.089011149541
20
3.56245506811118
30
0
41
1
10
140.187441313761
20
2.93975429011843
30
0
41
1
10
140.384301642201
20
1.70424654005865
30
0
41
1
10
140.482731806421
20
1.0915181236376
30
0
41
1
10
140.605769511696
20
0.346059000797453
30
0
41
1
10
140.630377052751
20
0.197972791224885
30
0
41
1
10
140.667288364333
20
-0.0224346610534951
30
0
41
1
10
140.679592134861
20
-0.0957532223252144
30
0
41
1
10
140.704199675916
20
-0.24329690427723
30
0
41
1
10
140.716503446444
20
-0.317346308416092
30
0
41
1
10
140.778022299081
20
-0.688892046190119
30
0
41
1
10
140.827237381191
20
-0.990302186971832
30
0
41
1
10
140.974882627521
20
-1.90320466208766
30
0
41
1
10
141.073312791741
20
-2.52355531341661
30
0
41
1
10
141.270173120182
20
-3.76222431694652
30
0
41
1
10
141.368603284402
20
-4.38043559386756
30
0
41
1
10
141.565463612842
20
-5.58449138564058
30
0
41
1
10
141.663893777062
20
-6.17017916951229
30
0
41
1
10
141.860754105502
20
-7.27817966149874
30
0
41
1
10
141.959184269722
20
-7.80032881091037
30
0
41
1
10
142.156044598162
20
-8.75456230135552
30
0
41
1
10
142.254474762382
20
-9.18652991438407
30
0
41
1
10
142.451335090823
20
-9.94243772424574
30
0
41
1
10
142.549765255043
20
-10.2663444691297
30
0
41
1
10
142.746625583483
20
-10.7992592647106
30
0
41
1
10
142.845055747703
20
-11.0083178184155
30
0
41
1
10
143.041916076143
20
-11.3154672446105
30
0
41
1
10
143.140346240363
20
-11.4136619935518
30
0
41
1
10
143.287991486693
20
-11.4869375183621
30
0
41
1
10
143.337206568803
20
-11.4990810467275
30
0
41
1
10
143.398725421441
20
-11.5001668652762
30
0
41
1
10
143.411029191968
20
-11.4996836202409
30
0
41
1
10
143.435636733023
20
-11.4972875117469
30
0
41
1
10
143.472548044606
20
-11.4915471577356
30
0
41
1
10
143.509459356188
20
-11.4792212329457
30
0
41
1
10
143.632497061464
20
-11.4228839725222
30
0
41
1
10
143.730927225684
20
-11.3287674363953
30
0
41
1
10
143.927787554124
20
-11.030116920498
30
0
41
1
10
144.026217718344
20
-10.825477834005
30
0
41
1
10
144.223078046784
20
-10.3013689939388
30
0
41
1
10
144.321508211004
20
-9.98184596562783
30
0
41
1
10
144.518368539444
20
-9.23423466230904
30
0
41
1
10
144.616798703664
20
-8.80617636296685
30
0
41
1
10
144.813659032105
20
-7.85888797902413
30
0
41
1
10
144.912089196325
20
-7.33977188493247
30
0
41
1
10
145.108949524765
20
-6.23669571610128
30
0
41
1
10
145.207379688985
20
-5.65289836737017
30
0
41
1
10
145.404240017425
20
-4.45140501115981
30
0
41
1
10
145.502670181645
20
-3.83386694112929
30
0
41
1
10
145.699530510085
20
-2.59543467938306
30
0
41
1
10
145.797960674305
20
-1.97464995538868
30
0
41
1
10
145.945605920635
20
-1.06044131256937
30
0
41
1
10
145.994821002746
20
-0.758487351214143
30
0
41
1
10
146.068643625911
20
-0.311680107400747
30
0
41
1
10
146.093251166966
20
-0.163761480069013
30
0
41
1
10
146.142466249076
20
0.12975917233797
30
0
41
1
10
146.167073790131
20
0.277339362199058
30
0
41
1
10
146.290111495406
20
1.02122886408418
30
0
41
1
10
146.388541659626
20
1.63307020720512
30
0
41
1
10
146.585401988066
20
2.86780603573734
30
0
41
1
10
146.683832152286
20
3.49062450939706
30
0
41
1
10
146.880692480726
20
4.71884608325055
30
0
41
1
10
146.979122644946
20
5.32411251816504
30
0
41
1
10
147.175982973387
20
6.48595006995345
30
0
41
1
10
147.274413137607
20
7.04235426779383
30
0
41
1
10
147.471273466047
20
8.0770761357789
30
0
41
1
10
147.569703630267
20
8.55524830539406
30
0
41
1
10
147.766563958707
20
9.41090034092394
30
0
41
1
10
147.864994122927
20
9.78830425628203
30
0
41
1
10
148.061854451367
20
10.4300890305765
30
0
41
1
10
148.160284615587
20
10.6944823065518
30
0
41
1
10
148.357144944028
20
11.1091799041419
30
0
41
1
10
148.455575108248
20
11.2595674773019
30
0
41
1
10
148.652435436688
20
11.4549199260992
30
0
41
1
10
148.750865600908
20
11.5
30
0
41
1
10
148.849295765128
20
11.5
30
0
0
SPLINE
5
DD
100
AcDbEntity
8
1
62
256
6
ByLayer
370
13
48
1
60
0
100
AcDbSpline
70
4
71
3
72
22
73
18
40
0
40
0
40
0
40
0
40
0.125
40
0.125
40
0.25
40
0.25
40
0.375
40
0.375
40
0.5
40
0.5
40
0.625
40
0.625
40
0.75
40
0.75
40
0.875
40
0.875
40
1
40
1
40
1
40
1
41
1
10
148.190283064885
20
11.5
30
0
41
1
10
148.278785533262
20
11.5
30
0
41
1
10
148.367288001639
20
11.4635873946123
30
0
41
1
10
148.544292938394
20
11.3068254701232
30
0
41
1
10
148.632795406771
20
11.1864076974882
30
0
41
1
10
148.809800343525
20
10.8544310569244
30
0
41
1
10
148.898302811903
20
10.6428172490445
30
0
41
1
10
149.075307748657
20
10.1272044755617
30
0
41
1
10
149.163810217034
20
9.82318354618565
30
0
41
1
10
149.340815153789
20
9.12869971684947
30
0
41
1
10
149.429317622166
20
8.73826057670223
30
0
41
1
10
149.606322558921
20
7.88408195218909
30
0
41
1
10
149.694825027298
20
7.420410287816
30
0
41
1
10
149.871829964052
20
6.43871025825746
30
0
41
1
10
149.96033243243
20
5.92077655935464
30
0
41
1
10
150.137337369184
20
4.85278131331802
30
0
41
1
10
150.225839837561
20
4.30281570122719
30
0
41
1
10
150.314342305939
20
3.7480628111783
30
0
0
SPLINE
5
DE
100
AcDbEntity
8
1
62
256
6
ByLayer
370
13
48
1
60
0
100
AcDbSpline
70
4
71
3
72
84
73
80
40
0
40
0
40
0
40
0
40
0.0312500000000015
40
0.0312500000000015
40
0.062500000000003
40
0.062500000000003
40
0.0781250000000039
40
0.0781250000000039
40
0.0859375000000043
40
0.0859375000000043
40
0.0898437500000044
40
0.0898437500000044
40
0.0937500000000045
40
0.0937500000000045
40
0.125000000000004
40
0.125000000000004
40
0.156250000000004
40
0.156250000000004
40
0.187500000000004
40
0.187500000000004
40
0.218750000000004
40
0.218750000000004
40
0.250000000000004
40
0.250000000000004
40
0.281250000000004
40
0.281250000000004
40
0.312500000000005
40
0.312500000000005
40
0.343750000000005
40
0.343750000000005
40
0.375000000000005
40
0.375000000000005
40
0.390625000000004
40
0.390625000000004
40
0.398437500000004
40
0.398437500000004
40
0.406250000000004
40
0.406250000000004
40
0.437500000000004
40
0.437500000000004
40
0.468750000000004
40
0.468750000000004
40
0.500000000000004
40
0.500000000000004
40
0.531250000000004
40
0.531250000000004
40
0.562500000000003
40
0.562500000000003
40
0.593750000000003
40
0.593750000000003
40
0.625000000000003
40
0.625000000000003
40
0.656250000000003
40
0.656250000000003
40
0.687500000000003
40
0.687500000000003
40
0.695312500000003
40
0.695312500000003
40
0.703125000000002
40
0.703125000000002
40
0.718750000000002
40
0.718750000000002
40
0.750000000000002
40
0.750000000000002
40
0.781250000000002
40
0.781250000000002
40
0.812500000000002
40
0.812500000000002
40
0.843750000000001
40
0.843750000000001
40
0.875000000000001
40
0.875000000000001
40
0.906250000000001
40
0.906250000000001
40
0.937500000000001
40
0.937500000000001
40
0.96875
40
0.96875
40
1
40
1
40
1
40
1
41
1
10
139.4
20
4.80891024331498
30
0
41
1
10
139.49334319517
20
4.23517073423719
30
0
41
1
10
139.586686390339
20
3.64821836660681
30
0
41
1
10
139.773372780679
20
2.47340642077057
30
0
41
1
10
139.866715975848
20
1.88562689519006
30
0
41
1
10
140.006730768603
20
1.01965959912565
30
0
41
1
10
140.053402366187
20
0.733582881222389
30
0
41
1
10
140.123409762565
20
0.309989269465945
30
0
41
1
10
140.146745561357
20
0.16970880919456
30
0
41
1
10
140.181749259546
20
-0.0391550733014299
30
0
41
1
10
140.193417158942
20
-0.108768107822954
30
0
41
1
10
140.216752957734
20
-0.248730391778423
30
0
41
1
10
140.22842085713
20
-0.318960490342391
30
0
41
1
10
140.333431951696
20
-0.953135102056393
30
0
41
1
10
140.426775146866
20
-1.532039817038
30
0
41
1
10
140.613461537205
20
-2.70139938101249
30
0
41
1
10
140.706804732375
20
-3.29179958744521
30
0
41
1
10
140.893491122714
20
-4.46028342069098
30
0
41
1
10
140.986834317884
20
-5.03826708857815
30
0
41
1
10
141.173520708223
20
-6.15537643114916
30
0
41
1
10
141.266863903393
20
-6.69437537369194
30
0
41
1
10
141.453550293732
20
-7.70779087086205
30
0
41
1
10
141.546893488902
20
-8.1820881919017
30
0
41
1
10
141.733579879241
20
-9.04502528410097
30
0
41
1
10
141.826923074411
20
-9.433589135734
30
0
41
1
10
142.01360946475
20
-10.1116915593943
30
0
41
1
10
142.10695265992
20
-10.401217494089
30
0
41
1
10
142.293639050259
20
-10.8769675505412
30
0
41
1
10
142.386982245428
20
-11.0632379011688
30
0
41
1
10
142.573668635768
20
-11.3367478172037
30
0
41
1
10
142.667011830937
20
-11.4240692270288
30
0
41
1
10
142.807026623692
20
-11.4888752332984
30
0
41
1
10
142.853698221276
20
-11.4994904887948
30
0
41
1
10
142.923705617654
20
-11.5002278612918
30
0
41
1
10
142.947041416446
20
-11.4979542838025
30
0
41
1
10
142.993713014031
20
-11.4881486475627
30
0
41
1
10
143.017048812823
20
-11.4806159906932
30
0
41
1
10
143.133727806785
20
-11.4292765506311
30
0
41
1
10
143.227071001955
20
-11.3442484338775
30
0
41
1
10
143.413757392295
20
-11.0755215395347
30
0
41
1
10
143.507100587464
20
-10.8917404127208
30
0
41
1
10
143.693786977803
20
-10.420979482395
30
0
41
1
10
143.787130172973
20
-10.133952257418
30
0
41
1
10
143.973816563312
20
-9.46063697290001
30
0
41
1
10
144.067159758482
20
-9.07435996830768
30
0
41
1
10
144.253846148821
20
-8.21557326954493
30
0
41
1
10
144.347189343991
20
-7.74313809948401
30
0
41
1
10
144.53387573433
20
-6.73286556439007
30
0
41
1
10
144.6272189295
20
-6.19514677237632
30
0
41
1
10
144.813905319839
20
-5.07994606958596
30
0
41
1
10
144.907248515009
20
-4.50259115724981
30
0
41
1
10
145.093934905348
20
-3.33473678749704
30
0
41
1
10
145.187278100518
20
-2.74433824011538
30
0
41
1
10
145.373964490857
20
-1.57445195601036
30
0
41
1
10
145.467307686026
20
-0.995020029445925
30
0
41
1
10
145.583986679988
20
-0.289478004216363
30
0
41
1
10
145.607322478781
20
-0.149293139366705
30
0
41
1
10
145.653994076366
20
0.128989720440018
30
0
41
1
10
145.677329875158
20
0.268980434600763
30
0
41
1
10
145.747337271535
20
0.692035467972289
30
0
41
1
10
145.79400886912
20
0.977802094843383
30
0
41
1
10
145.934023661875
20
1.84301254084124
30
0
41
1
10
146.027366857044
20
2.430520106252
30
0
41
1
10
146.214053247384
20
3.60537349602942
30
0
41
1
10
146.307396442553
20
4.19264038511992
30
0
41
1
10
146.494082832892
20
5.34139831194466
30
0
41
1
10
146.587426028062
20
5.90277215347808
30
0
41
1
10
146.774112418401
20
6.97313859179241
30
0
41
1
10
146.867455613571
20
7.48200348814126
30
0
41
1
10
147.05414200391
20
8.42355248095257
30
0
41
1
10
147.14748519908
20
8.85613569487748
30
0
41
1
10
147.334171589419
20
9.62770215391225
30
0
41
1
10
147.427514784589
20
9.96664090093728
30
0
41
1
10
147.614201174928
20
10.5421585491017
30
0
41
1
10
147.707544370098
20
10.7787569770898
30
0
41
1
10
147.894230760437
20
11.1498733922442
30
0
41
1
10
147.987573955607
20
11.2844594171212
30
0
41
1
10
148.174260345946
20
11.4594782709325
30
0
41
1
10
148.267603541116
20
11.5
30
0
41
1
10
148.360946736285
20
11.5
30
0
0
SPLINE
5
DF
100
AcDbEntity
8
1
62
256
6
ByLayer
370
13
48
1
60
0
100
AcDbSpline
70
4
71
3
72
38
73
34
40
0
40
0
40
0
40
0
40
0.0625000000000001
40
0.0625000000000001
40
0.125
40
0.125
40
0.1875
40
0.1875
40
0.25
40
0.25
40
0.3125
40
0.3125
40
0.375
40
0.375
40
0.4375
40
0.4375
40
0.5
40
0.5
40
0.5625
40
0.5625
40
0.625
40
0.625
40
0.6875
40
0.6875
40
0.75
40
0.75
40
0.8125
40
0.8125
40
0.875
40
0.875
40
0.9375
40
0.9375
40
1
40
1
40
1
40
1
41
1
10
147.701934036042
20
11.5
30
0
41
1
10
147.756359208332
20
11.5
30
0
41
1
10
147.810784380621
20
11.4862591678778
30
0
41
1
10
147.9196347252
20
11.4285783605448
30
0
41
1
10
147.97405989749
20
11.3846323067907
30
0
41
1
10
148.082910242069
20
11.264276225182
30
0
41
1
10
148.137335414358
20
11.1878602472225
30
0
41
1
10
148.246185758937
20
11.0009461088818
30
0
41
1
10
148.300610931227
20
10.8904427628969
30
0
41
1
10
148.409461275806
20
10.6345519133702
30
0
41
1
10
148.463886448095
20
10.4891606671248
30
0
41
1
10
148.572736792674
20
10.1636448425897
30
0
41
1
10
148.627161964964
20
9.98351857398211
30
0
41
1
10
148.736012309543
20
9.58972007890165
30
0
41
1
10
148.790437481832
20
9.37604863211607
30
0
41
1
10
148.899287826411
20
8.91739874887361
30
0
41
1
10
148.953712998701
20
8.67242368409742
30
0
41
1
10
149.06256334328
20
8.15439500680219
30
0
41
1
10
149.116988515569
20
7.88134713150262
30
0
41
1
10
149.225838860148
20
7.31125288727694
30
0
41
1
10
149.280264032438
20
7.014214065045
30
0
41
1
10
149.389114377017
20
6.40086787565568
30
0
41
1
10
149.443539549306
20
6.08456906967618
30
0
41
1
10
149.552389893885
20
5.43783786397196
30
0
41
1
10
149.606815066175
20
5.1074141464436
30
0
41
1
10
149.715665410754
20
4.43771091034228
30
0
41
1
10
149.770090583043
20
4.09843935632665
30
0
41
1
10
149.878940927622
20
3.41620822356188
30
0
41
1
10
149.933366099912
20
3.07325523556537
30
0
41
1
10
150.042216444491
20
2.38849831980633
30
0
41
1
10
150.096641616781
20
2.04669921051737
30
0
41
1
10
150.20549196136
20
1.36858400966599
30
0
41
1
10
150.259917133649
20
1.03227083791217
30
0
41
1
10
150.314342305939
20
0.70055642831079
30
0
0
SPLINE
5
E0
100
AcDbEntity
8
1
62
256
6
ByLayer
370
13
48
1
60
0
100
AcDbSpline
70
4
71
3
72
85
73
81
40
0
40
0
40
0
40
0
40
0.0312499999999979
40
0.0312499999999979
40
0.0351562499999978
40
0.0351562499999978
40
0.0390624999999977
40
0.0468749999999977
40
0.0468749999999977
40
0.0624999999999977
40
0.0624999999999977
40
0.0937499999999978
40
0.0937499999999978
40
0.124999999999998
40
0.124999999999998
40
0.156249999999998
40
0.156249999999998
40
0.187499999999998
40
0.187499999999998
40
0.218749999999998
40
0.218749999999998
40
0.249999999999998
40
0.249999999999998
40
0.281249999999998
40
0.281249999999998
40
0.312499999999998
40
0.312499999999998
40
0.343749999999998
40
0.343749999999998
40
0.351562499999998
40
0.351562499999998
40
0.359374999999998
40
0.359374999999998
40
0.374999999999998
40
0.374999999999998
40
0.406249999999998
40
0.406249999999998
40
0.437499999999998
40
0.437499999999998
40
0.468749999999998
40
0.468749999999998
40
0.499999999999998
40
0.499999999999998
40
0.531249999999998
40
0.531249999999998
40
0.562499999999998
40
0.562499999999998
40
0.593749999999998
40
0.593749999999998
40
0.624999999999998
40
0.624999999999998
40
0.656249999999998
40
0.656249999999998
40
0.671874999999998
40
0.671874999999998
40
0.675781249999997
40
0.675781249999997
40
0.679687499999997
40
0.679687499999997
40
0.687499999999997
40
0.687499999999997
40
0.718749999999998
40
0.718749999999998
40
0.749999999999998
40
0.749999999999998
40
0.781249999999998
40
0.781249999999998
40
0.812499999999998
40
0.812499999999998
40
0.843749999999999
40
0.843749999999999
40
0.874999999999999
40
0.874999999999999
40
0.906249999999999
40
0.906249999999999
40
0.9375
40
0.9375
40
0.96875
40
0.96875
40
1
40
1
40
1
40
1
41
1
10
139.4
20
1.75368479415405
30
0
41
1
10
139.488256226119
20
1.2034746208426
30
0
41
1
10
139.576512452238
20
0.660359495059083
30
0
41
1
10
139.675800706623
20
0.0658063373599589
30
0
41
1
10
139.686832734887
20
0.0001261050246626
30
0
41
1
10
139.708896791417
20
-0.131693009566334
30
0
41
1
10
139.741992876212
20
-0.330110238327819
30
0
41
1
10
139.775088961007
20
-0.530482598862335
30
0
41
1
10
139.841281130596
20
-0.933513271360539
30
0
41
1
10
139.885409243655
20
-1.2052572471336
30
0
41
1
10
140.017793582834
20
-2.02676290627645
30
0
41
1
10
140.106049808953
20
-2.58291635600105
30
0
41
1
10
140.282562261192
20
-3.69356519420288
30
0
41
1
10
140.370818487311
20
-4.24799853872656
30
0
41
1
10
140.54733093955
20
-5.33347128544608
30
0
41
1
10
140.635587165669
20
-5.8644217393406
30
0
41
1
10
140.812099617907
20
-6.88044198710136
30
0
41
1
10
140.900355844026
20
-7.36541491861524
30
0
41
1
10
141.076868296265
20
-8.26911371193199
30
0
41
1
10
141.165124522384
20
-8.68776013159842
30
0
41
1
10
141.341636974622
20
-9.44330395355797
30
0
41
1
10
141.429893200742
20
-9.7801604694765
30
0
41
1
10
141.60640565298
20
-10.3633643380052
30
0
41
1
10
141.694661879099
20
-10.6097170731177
30
0
41
1
10
141.871174331337
20
-11.0104421052314
30
0
41
1
10
141.959430557457
20
-11.1648582665414
30
0
41
1
10
142.135943009695
20
-11.3867458952413
30
0
41
1
10
142.224199235814
20
-11.4542820545963
30
0
41
1
10
142.334519518463
20
-11.4905123913244
30
0
41
1
10
142.356583574993
20
-11.4953578382964
30
0
41
1
10
142.400711688053
20
-11.500430564262
30
0
41
1
10
142.422775744582
20
-11.5006790054098
30
0
41
1
10
142.488967914172
20
-11.4946078469944
30
0
41
1
10
142.533096027231
20
-11.4813608092152
30
0
41
1
10
142.66548036641
20
-11.4118730625986
30
0
41
1
10
142.753736592529
20
-11.3257472682119
30
0
41
1
10
142.930249044768
20
-11.0650711654226
30
0
41
1
10
143.018505270887
20
-10.8904590787467
30
0
41
1
10
143.195017723125
20
-10.4490466229051
30
0
41
1
10
143.283273949244
20
-10.1822096263254
30
0
41
1
10
143.459786401483
20
-9.55933042002818
30
0
41
1
10
143.548042627602
20
-9.20329293657002
30
0
41
1
10
143.724555079841
20
-8.41227638391101
30
0
41
1
10
143.81281130596
20
-7.97734800025822
30
0
41
1
10
143.989323758198
20
-7.04526567119166
30
0
41
1
10
144.077579984317
20
-6.54819718965422
30
0
41
1
10
144.254092436556
20
-5.51290258167455
30
0
41
1
10
144.342348662675
20
-4.97477367166471
30
0
41
1
10
144.518861114913
20
-3.87994155381193
30
0
41
1
10
144.607117341032
20
-3.32332257428845
30
0
41
1
10
144.783629793271
20
-2.21279533018563
30
0
41
1
10
144.87188601939
20
-1.65894174131992
30
0
41
1
10
145.004270358569
20
-0.84358169965995
30
0
41
1
10
145.048398471628
20
-0.574333244313067
30
0
41
1
10
145.103558612953
20
-0.242071943831178
30
0
41
1
10
145.114590641218
20
-0.175833929275598
30
0
41
1
10
145.136654697748
20
-0.043811664721062
30
0
41
1
10
145.147686726012
20
0.0218341505296564
30
0
41
1
10
145.180782810807
20
0.219715641083639
30
0
41
1
10
145.202846867337
20
0.352550226241419
30
0
41
1
10
145.313167149986
20
1.02077659717685
30
0
41
1
10
145.401423376105
20
1.56850567787066
30
0
41
1
10
145.577935828343
20
2.67419329985313
30
0
41
1
10
145.666192054463
20
3.23211045898839
30
0
41
1
10
145.842704506701
20
4.338088551851
30
0
41
1
10
145.93096073282
20
4.8860754451922
30
0
41
1
10
146.107473185059
20
5.94984745346602
30
0
41
1
10
146.195729411178
20
6.46553773843451
30
0
41
1
10
146.372241863416
20
7.4427028477339
30
0
41
1
10
146.460498089536
20
7.90408455141642
30
0
41
1
10
146.637010541774
20
8.75386467394259
30
0
41
1
10
146.725266767893
20
9.14219672520383
30
0
41
1
10
146.901779220131
20
9.8328419532142
30
0
41
1
10
146.990035446251
20
10.1351322219115
30
0
41
1
10
147.166547898489
20
10.6477817114319
30
0
41
1
10
147.254804124608
20
10.8581629347631
30
0
41
1
10
147.431316576847
20
11.1882093874892
30
0
41
1
10
147.519572802966
20
11.3079289311483
30
0
41
1
10
147.696085255204
20
11.4637904765655
30
0
41
1
10
147.784341481323
20
11.5
30
0
41
1
10
147.872597707443
20
11.5
30
0
0
SPLINE
5
E1
100
AcDbEntity
8
1
62
256
6
ByLayer
370
13
48
1
60
0
100
AcDbSpline
70
4
71
3
72
41
73
37
40
0
40
0
40
0
40
0
40
0.0624999999999997
40
0.0624999999999997
40
0.124999999999999
40
0.124999999999999
40
0.187499999999999
40
0.187499999999999
40
0.249999999999999
40
0.249999999999999
40
0.312499999999998
40
0.312499999999998
40
0.374999999999998
40
0.374999999999998
40
0.437499999999998
40
0.437499999999998
40
0.499999999999997
40
0.499999999999997
40
0.562499999999997
40
0.562499999999997
40
0.624999999999997
40
0.624999999999997
40
0.687499999999997
40
0.687499999999997
40
0.749999999999996
40
0.749999999999996
40
0.812499999999996
40
0.812499999999996
40
0.874999999999996
40
0.874999999999996
40
0.890624999999996
40
0.890624999999996
40
0.906249999999996
40
0.937499999999997
40
0.937499999999997
40
1
40
1
40
1
40
1
41
1
10
147.213585007199
20
11.5
30
0
41
1
10
147.27818411759
20
11.5
30
0
41
1
10
147.34278322798
20
11.4806320749466
30
0
41
1
10
147.471981448761
20
11.3986791450169
30
0
41
1
10
147.536580559151
20
11.3360797994598
30
0
41
1
10
147.665778779932
20
11.1641443963874
30
0
41
1
10
147.730377890323
20
11.0547948401544
30
0
41
1
10
147.859576111103
20
10.7872528878879
30
0
41
1
10
147.924175221494
20
10.6290500193996
30
0
41
1
10
148.053373442275
20
10.2634771228909
30
0
41
1
10
148.117972552665
20
10.0561018000803
30
0
41
1
10
148.247170773446
20
9.59388608386789
30
0
41
1
10
148.311769883836
20
9.33904713660695
30
0
41
1
10
148.440968104617
20
8.78569563466516
30
0
41
1
10
148.505567215007
20
8.48719173326415
30
0
41
1
10
148.634765435788
20
7.8522402229826
30
0
41
1
10
148.699364546179
20
7.51580758653273
30
0
41
1
10
148.828562766959
20
6.8123077670343
30
0
41
1
10
148.89316187735
20
6.44525976337599
30
0
41
1
10
149.022360098131
20
5.68889612481328
30
0
41
1
10
149.086959208521
20
5.29960103930128
30
0
41
1
10
149.216157429302
20
4.50756054142065
30
0
41
1
10
149.280756539692
20
4.1048341802539
30
0
41
1
10
149.409954760473
20
3.29459393893168
30
0
41
1
10
149.474553870864
20
2.8870953513599
30
0
41
1
10
149.603752091644
20
2.07529580845318
30
0
41
1
10
149.668351202035
20
1.67100511782402
30
0
41
1
10
149.797549422816
20
0.872541563908356
30
0
41
1
10
149.862148533206
20
0.478373715639293
30
0
41
1
10
149.942897421194
20
-0.0044961465270035
30
0
41
1
10
149.959047198791
20
-0.100612417686875
30
0
41
1
10
149.991346753987
20
-0.294460014042386
30
0
41
1
10
150.039796086779
20
-0.586653614644348
30
0
41
1
10
150.088245419572
20
-0.882755132203329
30
0
41
1
10
150.185144085158
20
-1.47909340231212
30
0
41
1
10
150.249743195548
20
-1.88220405682424
30
0
41
1
10
150.314342305939
20
-2.28751322356558
30
0
0
SPLINE
5
E2
100
AcDbEntity
8
1
62
256
6
ByLayer
370
13
48
1
60
0
100
AcDbSpline
70
4
71
3
72
79
73
75
40
0
40
0
40
0
40
0
40
0.03125
40
0.03125
40
0.0625000000000001
40
0.0625000000000001
40
0.0937500000000001
40
0.0937500000000001
40
0.125
40
0.125
40
0.15625
40
0.15625
40
0.1875
40
0.1875
40
0.21875
40
0.21875
40
0.25
40
0.25
40
0.28125
40
0.28125
40
0.3125
40
0.3125
40
0.3203125
40
0.3203125
40
0.328125
40
0.328125
40
0.34375
40
0.34375
40
0.375
40
0.375
40
0.40625
40
0.40625
40
0.4375
40
0.4375
40
0.46875
40
0.46875
40
0.5
40
0.5
40
0.53125
40
0.53125
40
0.5625
40
0.5625
40
0.59375
40
0.59375
40
0.625
40
0.625
40
0.656250000000001
40
0.656250000000001
40
0.66015625
40
0.66015625
40
0.6640625
40
0.671875
40
0.671875
40
0.6875
40
0.6875
40
0.71875
40
0.71875
40
0.75
40
0.75
40
0.78125
40
0.78125
40
0.8125
40
0.8125
40
0.84375
40
0.84375
40
0.875
40
0.875
40
0.90625
40
0.90625
40
0.9375
40
0.9375
40
0.96875
40
0.96875
40
1
40
1
40
1
40
1
41
1
10
139.4
20
-1.22413470267443
30
0
41
1
10
139.483169257069
20
-1.73761308081106
30
0
41
1
10
139.566338514138
20
-2.25973648004947
30
0
41
1
10
139.732677028275
20
-3.30629502935651
30
0
41
1
10
139.815846285344
20
-3.83068930512863
30
0
41
1
10
139.982184799481
20
-4.86407273223807
30
0
41
1
10
140.06535405655
20
-5.37300007735996
30
0
41
1
10
140.231692570687
20
-6.3565873121581
30
0
41
1
10
140.314861827756
20
-6.83117506210414
30
0
41
1
10
140.481200341894
20
-7.72813299890518
30
0
41
1
10
140.564369598963
20
-8.15043682904809
30
0
41
1
10
140.7307081131
20
-8.92793212263769
30
0
41
1
10
140.813877370169
20
-9.28307901673517
30
0
41
1
10
140.980215884306
20
-9.91614350021416
30
0
41
1
10
141.063385141375
20
-10.1940478946259
30
0
41
1
10
141.229723655512
20
-10.6681833719027
30
0
41
1
10
141.312892912581
20
-10.8644324129893
30
0
41
1
10
141.479231426719
20
-11.1764042944134
30
0
41
1
10
141.562400683788
20
-11.2921674823815
30
0
41
1
10
141.728739197925
20
-11.4489911243181
30
0
41
1
10
141.811908454994
20
-11.490101628378
30
0
41
1
10
141.91587002633
20
-11.500483982786
30
0
41
1
10
141.936662340597
20
-11.5005355847275
30
0
41
1
10
141.978246969131
20
-11.4965952475813
30
0
41
1
10
141.999039283398
20
-11.4925826369193
30
0
41
1
10
142.0614162262
20
-11.4741861450444
30
0
41
1
10
142.103000854734
20
-11.4534386081473
30
0
41
1
10
142.227754740337
20
-11.3640517283781
30
0
41
1
10
142.310923997406
20
-11.2681501625295
30
0
41
1
10
142.477262511544
20
-10.9970075486462
30
0
41
1
10
142.560431768612
20
-10.8217224201393
30
0
41
1
10
142.72677028275
20
-10.3893137827047
30
0
41
1
10
142.809939539819
20
-10.1321654856014
30
0
41
1
10
142.976278053956
20
-9.53893558692207
30
0
41
1
10
143.059447311025
20
-9.20285876940943
30
0
41
1
10
143.225785825162
20
-8.46041558215842
30
0
41
1
10
143.308955082231
20
-8.05408628010892
30
0
41
1
10
143.475293596369
20
-7.18489392951295
30
0
41
1
10
143.558462853438
20
-6.72209301762399
30
0
41
1
10
143.724801367575
20
-5.75729983402221
30
0
41
1
10
143.807970624644
20
-5.25537986762359
30
0
41
1
10
143.974309138781
20
-4.23119817173711
30
0
41
1
10
144.05747839585
20
-3.70900220090272
30
0
41
1
10
144.223816909988
20
-2.66249099233056
30
0
41
1
10
144.306986167056
20
-2.13822257912239
30
0
41
1
10
144.473324681194
20
-1.103431316605
30
0
41
1
10
144.556493938262
20
-0.592931534520346
30
0
41
1
10
144.650059352465
20
-0.0333528212731551
30
0
41
1
10
144.660455509598
20
0.0285114355318399
30
0
41
1
10
144.681247823866
20
0.152841203515834
30
0
41
1
10
144.712436295266
20
0.339943231577735
30
0
41
1
10
144.743624766667
20
0.52877435890295
30
0
41
1
10
144.806001709469
20
0.908473405766102
30
0
41
1
10
144.847586338003
20
1.1643288856672
30
0
41
1
10
144.972340223606
20
1.93765396150238
30
0
41
1
10
145.055509480675
20
2.46097755062462
30
0
41
1
10
145.221847994812
20
3.50778918254295
30
0
41
1
10
145.305017251881
20
4.03123334530753
30
0
41
1
10
145.471355766019
20
5.06032173638542
30
0
41
1
10
145.554525023087
20
5.5659020856676
30
0
41
1
10
145.720863537225
20
6.54039589440967
30
0
41
1
10
145.804032794294
20
7.00923699163818
30
0
41
1
10
145.970371308431
20
7.89257810789547
30
0
41
1
10
146.0535405655
20
8.30701374823542
30
0
41
1
10
146.219879079638
20
9.06717985964968
30
0
41
1
10
146.303048336706
20
9.41286944087233
30
0
41
1
10
146.469386850844
20
10.0261243826514
30
0
41
1
10
146.552556107912
20
10.2936807672918
30
0
41
1
10
146.71889462205
20
10.7469669956669
30
0
41
1
10
146.802063879119
20
10.9327182948294
30
0
41
1
10
146.968402393256
20
11.2242065383807
30
0
41
1
10
147.051571650325
20
11.3299858055869
30
0
41
1
10
147.217910164462
20
11.4678573431412
30
0
41
1
10
147.301079421531
20
11.5
30
0
41
1
10
147.3842486786
20
11.5
30
0
0
SPLINE
5
E3
100
AcDbEntity
8
1
62
256
6
ByLayer
370
13
48
1
60
0
100
AcDbSpline
70
4
71
3
72
44
73
40
40
0
40
0
40
0
40
0
40
0.0624999999999992
40
0.0624999999999992
40
0.124999999999998
40
0.124999999999998
40
0.187499999999998
40
0.187499999999998
40
0.249999999999997
40
0.249999999999997
40
0.312499999999996
40
0.312499999999996
40
0.374999999999995
40
0.374999999999995
40
0.437499999999994
40
0.437499999999994
40
0.499999999999994
40
0.499999999999994
40
0.562499999999993
40
0.562499999999993
40
0.624999999999992
40
0.624999999999992
40
0.687499999999991
40
0.687499999999991
40
0.74999999999999
40
0.74999999999999
40
0.757812499999991
40
0.757812499999991
40
0.765624999999991
40
0.765624999999991
40
0.781249999999992
40
0.781249999999992
40
0.812499999999993
40
0.812499999999993
40
0.874999999999995
40
0.874999999999995
40
0.937499999999998
40
0.937499999999998
40
1
40
1
40
1
40
1
41
1
10
146.725235978357
20
11.5
30
0
41
1
10
146.800009026848
20
11.5
30
0
41
1
10
146.874782075339
20
11.4740351098421
30
0
41
1
10
147.024328172322
20
11.3633284665382
30
0
41
1
10
147.099101220813
20
11.2785569808486
30
0
41
1
10
147.248647317796
20
11.0452293593515
30
0
41
1
10
147.323420366287
20
10.8966467258317
30
0
41
1
10
147.47296646327
20
10.533449131601
30
0
41
1
10
147.547739511761
20
10.3188170513913
30
0
41
1
10
147.697285608743
20
9.82471136222952
30
0
41
1
10
147.772058657235
20
9.54523535444363
30
0
41
1
10
147.921604754217
20
8.9263828013838
30
0
41
1
10
147.996377802709
20
8.58702109018228
30
0
41
1
10
148.145923899691
20
7.85690788706893
30
0
41
1
10
148.220696948183
20
7.46618680525106
30
0
41
1
10
148.370243045165
20
6.64474597691233
30
0
41
1
10
148.445016093656
20
6.21406655747435
30
0
41
1
10
148.594562190639
20
5.32589421170104
30
0
41
1
10
148.66933523913
20
4.86844362047279
30
0
41
1
10
148.818881336113
20
3.9404364772486
30
0
41
1
10
148.893654384604
20
3.46991664852541
30
0
41
1
10
149.043200481587
20
2.52878691316136
30
0
41
1
10
149.117973530078
20
2.05820293051696
30
0
41
1
10
149.267519627061
20
1.128312176761
30
0
41
1
10
149.342292675552
20
0.669018694314246
30
0
41
1
10
149.426412355105
20
0.163790606837011
30
0
41
1
10
149.435758986166
20
0.107812015456432
30
0
41
1
10
149.454452248289
20
-0.0038143333211167
30
0
41
1
10
149.46379887935
20
-0.0594777175985826
30
0
41
1
10
149.491838772534
20
-0.227289470700271
30
0
41
1
10
149.510532034657
20
-0.339814650073151
30
0
41
1
10
149.566611821026
20
-0.679154596368448
30
0
41
1
10
149.603998345271
20
-0.907738465065307
30
0
41
1
10
149.716157918008
20
-1.59888974457795
30
0
41
1
10
149.7909309665
20
-2.06692366629727
30
0
41
1
10
149.940477063482
20
-3.00688863333804
30
0
41
1
10
150.015250111974
20
-3.47879785604195
30
0
41
1
10
150.164796208956
20
-4.41397252155556
30
0
41
1
10
150.239569257447
20
-4.87720436692263
30
0
41
1
10
150.314342305939
20
-5.32931927434066
30
0
0
SPLINE
5
E4
100
AcDbEntity
8
1
62
256
6
ByLayer
370
13
48
1
60
0
100
AcDbSpline
70
4
71
3
72
80
73
76
40
0
40
0
40
0
40
0
40
0.0312500000000003
40
0.0312500000000003
40
0.0625000000000006
40
0.0625000000000006
40
0.093750000000001
40
0.093750000000001
40
0.125000000000001
40
0.125000000000001
40
0.156250000000001
40
0.156250000000001
40
0.187500000000002
40
0.187500000000002
40
0.218750000000002
40
0.218750000000002
40
0.250000000000002
40
0.250000000000002
40
0.265625000000002
40
0.265625000000002
40
0.269531250000003
40
0.269531250000003
40
0.273437500000003
40
0.273437500000003
40
0.281250000000003
40
0.281250000000003
40
0.312500000000003
40
0.312500000000003
40
0.343750000000002
40
0.343750000000002
40
0.375000000000002
40
0.375000000000002
40
0.406250000000002
40
0.406250000000002
40
0.437500000000002
40
0.437500000000002
40
0.468750000000002
40
0.468750000000002
40
0.500000000000002
40
0.500000000000002
40
0.531250000000002
40
0.531250000000002
40
0.562500000000002
40
0.562500000000002
40
0.593750000000002
40
0.593750000000002
40
0.625000000000002
40
0.625000000000002
40
0.632812500000002
40
0.632812500000002
40
0.640625000000002
40
0.640625000000002
40
0.656250000000001
40
0.656250000000001
40
0.687500000000001
40
0.687500000000001
40
0.718750000000001
40
0.718750000000001
40
0.750000000000001
40
0.750000000000001
40
0.781250000000001
40
0.781250000000001
40
0.812500000000001
40
0.812500000000001
40
0.843750000000001
40
0.843750000000001
40
0.875000000000001
40
0.875000000000001
40
0.90625
40
0.90625
40
0.9375
40
0.9375
40
0.96875
40
0.96875
40
1
40
1
40
1
40
1
41
1
10
139.4
20
-4.28107302834647
30
0
41
1
10
139.478082288018
20
-4.76677036049514
30
0
41
1
10
139.556164576037
20
-5.2459744410952
30
0
41
1
10
139.712329152073
20
-6.17589767123036
30
0
41
1
10
139.790411440092
20
-6.62656441492689
30
0
41
1
10
139.946576016128
20
-7.48436012392841
30
0
41
1
10
140.024658304146
20
-7.8914390562833
30
0
41
1
10
140.180822880183
20
-8.64911948449924
30
0
41
1
10
140.258905168201
20
-8.99968398723891
30
0
41
1
10
140.415069744238
20
-9.63485451405171
30
0
41
1
10
140.493152032256
20
-9.91944401629914
30
0
41
1
10
140.649316608293
20
-10.4174690177468
30
0
41
1
10
140.727398896311
20
-10.6309101851115
30
0
41
1
10
140.883563472348
20
-10.9858920692059
30
0
41
1
10
140.961645760366
20
-11.1274566200672
30
0
41
1
10
141.117810336403
20
-11.3419250587829
30
0
41
1
10
141.195892624421
20
-11.4148633496509
30
0
41
1
10
141.313016056449
20
-11.4775160453029
30
0
41
1
10
141.352057200458
20
-11.4906284643523
30
0
41
1
10
141.400858630469
20
-11.4979182020206
30
0
41
1
10
141.410618916471
20
-11.498921363861
30
0
41
1
10
141.430139488476
20
-11.5000344111941
30
0
41
1
10
141.439899774478
20
-11.5001457519653
30
0
41
1
10
141.469180632485
20
-11.4991534553546
30
0
41
1
10
141.48870120449
20
-11.4967135626006
30
0
41
1
10
141.586304064512
20
-11.4752980970521
30
0
41
1
10
141.664386352531
20
-11.4285962095481
30
0
41
1
10
141.820550928567
20
-11.2688637046043
30
0
41
1
10
141.898633216586
20
-11.1557967859374
30
0
41
1
10
142.054797792622
20
-10.8587012289162
30
0
41
1
10
142.132880080641
20
-10.6746434428476
30
0
41
1
10
142.289044656677
20
-10.2345747121636
30
0
41
1
10
142.367126944696
20
-9.97854995867604
30
0
41
1
10
142.523291520732
20
-9.39787275447483
30
0
41
1
10
142.601373808751
20
-9.07322765632512
30
0
41
1
10
142.757538384787
20
-8.36306772908983
30
0
41
1
10
142.835620672805
20
-7.97758217345702
30
0
41
1
10
142.991785248842
20
-7.15737947741596
30
0
41
1
10
143.06986753686
20
-6.72270824983684
30
0
41
1
10
143.226032112897
20
-5.81849866273882
30
0
41
1
10
143.304114400915
20
-5.34901308514347
30
0
41
1
10
143.460278976952
20
-4.39074432543651
30
0
41
1
10
143.53836126497
20
-3.90200996302255
30
0
41
1
10
143.694525841007
20
-2.92045296549247
30
0
41
1
10
143.772608129025
20
-2.42766684520578
30
0
41
1
10
143.928772705062
20
-1.4515466817582
30
0
41
1
10
144.00685499308
20
-0.968233019979436
30
0
41
1
10
144.104457853103
20
-0.376878210222571
30
0
41
1
10
144.123978425107
20
-0.259239788887299
30
0
41
1
10
144.163019569117
20
-0.0253715785865722
30
0
41
1
10
144.182540141121
20
0.0906677082853378
30
0
41
1
10
144.241101857135
20
0.442251086899688
30
0
41
1
10
144.280143001144
20
0.679411064825786
30
0
41
1
10
144.397266433171
20
1.39738813462327
30
0
41
1
10
144.47534872119
20
1.88478423318111
30
0
41
1
10
144.631513297226
20
2.8652969591287
30
0
41
1
10
144.709595585245
20
3.3583883044582
30
0
41
1
10
144.865760161281
20
4.33617474093882
30
0
41
1
10
144.9438424493
20
4.82082904708824
30
0
41
1
10
145.100007025336
20
5.76629275337075
30
0
41
1
10
145.178089313355
20
6.22705111871502
30
0
41
1
10
145.334253889391
20
7.10934492455354
30
0
41
1
10
145.412336177409
20
7.53082846378746
30
0
41
1
10
145.568500753446
20
8.32084886826303
30
0
41
1
10
145.646583041465
20
8.68934388506952
30
0
41
1
10
145.802747617501
20
9.36276616601256
30
0
41
1
10
145.880829905519
20
9.6676703741438
30
0
41
1
10
146.036994481556
20
10.207396275773
30
0
41
1
10
146.115076769574
20
10.4422172416783
30
0
41
1
10
146.271241345611
20
10.8397328759116
30
0
41
1
10
146.349323633629
20
11.0024466774227
30
0
41
1
10
146.505488209666
20
11.257884243627
30
0
41
1
10
146.583570497684
20
11.3506401583729
30
0
41
1
10
146.739735073721
20
11.4716796040123
30
0
41
1
10
146.817817361739
20
11.5
30
0
41
1
10
146.895899649757
20
11.5
30
0
0
SPLINE
5
E5
100
AcDbEntity
8
1
62
256
6
ByLayer
370
13
48
1
60
0
100
AcDbSpline
70
4
71
3
72
44
73
40
40
0
40
0
40
0
40
0
40
0.0624999999999995
40
0.0624999999999995
40
0.124999999999999
40
0.124999999999999
40
0.187499999999998
40
0.187499999999998
40
0.249999999999998
40
0.249999999999998
40
0.312499999999997
40
0.312499999999997
40
0.374999999999997
40
0.374999999999997
40
0.437499999999996
40
0.437499999999996
40
0.499999999999996
40
0.499999999999996
40
0.562499999999995
40
0.562499999999995
40
0.624999999999995
40
0.624999999999995
40
0.656249999999994
40
0.656249999999994
40
0.664062499999994
40
0.664062499999994
40
0.671874999999994
40
0.671874999999994
40
0.687499999999994
40
0.687499999999994
40
0.749999999999995
40
0.749999999999995
40
0.812499999999997
40
0.812499999999997
40
0.874999999999998
40
0.874999999999998
40
0.937499999999999
40
0.937499999999999
40
1
40
1
40
1
40
1
41
1
10
146.236886949514
20
11.5
30
0
41
1
10
146.321833936106
20
11.5
30
0
41
1
10
146.406780922698
20
11.4664639465492
30
0
41
1
10
146.576674895883
20
11.3224375972361
30
0
41
1
10
146.661621882475
20
11.211891368602
30
0
41
1
10
146.831515855659
20
10.9072136360186
30
0
41
1
10
146.916462842251
20
10.7130358237703
30
0
41
1
10
147.086356815436
20
10.239408348513
30
0
41
1
10
147.171303802028
20
9.9599367805852
30
0
41
1
10
147.341197775212
20
9.32005927899883
30
0
41
1
10
147.426144761805
20
8.95966644874036
30
0
41
1
10
147.596038734989
20
8.16847373386588
30
0
41
1
10
147.680985721581
20
7.73772269797442
30
0
41
1
10
147.850879694765
20
6.82159271979793
30
0
41
1
10
147.935826681358
20
6.33628749773575
30
0
41
1
10
148.105720654542
20
5.33018913403856
30
0
41
1
10
148.190667641134
20
4.8094760698651
30
0
41
1
10
148.360561614319
20
3.75268017044323
30
0
41
1
10
148.445508600911
20
3.21666519881055
30
0
41
1
10
148.615402574095
20
2.14807434537684
30
0
41
1
10
148.700349560687
20
1.61554220195396
30
0
41
1
10
148.827770040576
20
0.831163989019444
30
0
41
1
10
148.870243533872
20
0.572080331642752
30
0
41
1
10
148.923335400492
20
0.252198423388137
30
0
41
1
10
148.933953773816
20
0.188420058602446
30
0
41
1
10
148.955190520464
20
0.0612819578759343
30
0
41
1
10
148.965808893788
20
-0.0019336572339057
30
0
41
1
10
148.99766401376
20
-0.192245564621658
30
0
41
1
10
149.018900760408
20
-0.319971626137857
30
0
41
1
10
149.125084493648
20
-0.962403566828868
30
0
41
1
10
149.21003148024
20
-1.48866710897286
30
0
41
1
10
149.379925453425
20
-2.55167209607836
30
0
41
1
10
149.464872440017
20
-3.08838109143866
30
0
41
1
10
149.634766413201
20
-4.15460786210318
30
0
41
1
10
149.719713399793
20
-4.68406683913972
30
0
41
1
10
149.889607372978
20
-5.71600087426776
30
0
41
1
10
149.97455435957
20
-6.21839892464757
30
0
41
1
10
150.144448332754
20
-7.17637295177997
30
0
41
1
10
150.229395319347
20
-7.63187014250707
30
0
41
1
10
150.314342305939
20
-8.05521801669806
30
0
0
SPLINE
5
E6
100
AcDbEntity
8
1
62
256
6
ByLayer
370
13
48
1
60
0
100
AcDbSpline
70
4
71
3
72
80
73
76
40
0
40
0
40
0
40
0
40
0.0312500000000029
40
0.0312500000000029
40
0.0625000000000057
40
0.0625000000000057
40
0.0937500000000086
40
0.0937500000000086
40
0.125000000000011
40
0.125000000000011
40
0.156250000000014
40
0.156250000000014
40
0.187500000000017
40
0.187500000000017
40
0.21875000000002
40
0.21875000000002
40
0.22265625000002
40
0.22265625000002
40
0.226562500000021
40
0.234375000000021
40
0.234375000000021
40
0.250000000000021
40
0.250000000000021
40
0.281250000000021
40
0.281250000000021
40
0.312500000000022
40
0.312500000000022
40
0.343750000000022
40
0.343750000000022
40
0.375000000000023
40
0.375000000000023
40
0.406250000000024
40
0.406250000000024
40
0.437500000000024
40
0.437500000000024
40
0.468750000000025
40
0.468750000000025
40
0.500000000000025
40
0.500000000000025
40
0.531250000000026
40
0.531250000000026
40
0.562500000000027
40
0.562500000000027
40
0.593750000000027
40
0.593750000000027
40
0.609375000000028
40
0.609375000000028
40
0.613281250000028
40
0.613281250000028
40
0.617187500000027
40
0.625000000000027
40
0.625000000000027
40
0.656250000000025
40
0.656250000000025
40
0.687500000000022
40
0.687500000000022
40
0.71875000000002
40
0.71875000000002
40
0.750000000000018
40
0.750000000000018
40
0.781250000000016
40
0.781250000000016
40
0.812500000000013
40
0.812500000000013
40
0.843750000000011
40
0.843750000000011
40
0.875000000000009
40
0.875000000000009
40
0.906250000000007
40
0.906250000000007
40
0.937500000000004
40
0.937500000000004
40
0.968750000000002
40
0.968750000000002
40
1
40
1
40
1
40
1
41
1
10
139.4
20
-7.16405321953997
30
0
41
1
10
139.472995318968
20
-7.56152163847671
30
0
41
1
10
139.545990637936
20
-7.93941171142029
30
0
41
1
10
139.691981275871
20
-8.64566407595794
30
0
41
1
10
139.764976594839
20
-8.97400016825557
30
0
41
1
10
139.910967232775
20
-9.57336268799233
30
0
41
1
10
139.983962551743
20
-9.84437658374455
30
0
41
1
10
140.129953189679
20
-10.3245686523531
30
0
41
1
10
140.202948508646
20
-10.5337492100906
30
0
41
1
10
140.348939146582
20
-10.8891579510617
30
0
41
1
10
140.42193446555
20
-11.0354012518616
30
0
41
1
10
140.567925103486
20
-11.2669543163737
30
0
41
1
10
140.640920422454
20
-11.3522874152705
30
0
41
1
10
140.786911060389
20
-11.4665786051336
30
0
41
1
10
140.859906379357
20
-11.4955630440738
30
0
41
1
10
140.942026113196
20
-11.5000218131561
30
0
41
1
10
140.951150528067
20
-11.5001282454426
30
0
41
1
10
140.969399357809
20
-11.4995686124838
30
0
41
1
10
140.996772602422
20
-11.4975644720898
30
0
41
1
10
141.024145847035
20
-11.4920054634102
30
0
41
1
10
141.078892336261
20
-11.475991543039
30
0
41
1
10
141.115389995745
20
-11.4587848308072
30
0
41
1
10
141.224882974197
20
-11.3864159597061
30
0
41
1
10
141.297878293164
20
-11.3104388842291
30
0
41
1
10
141.4438689311
20
-11.098175475246
30
0
41
1
10
141.516864250068
20
-10.9618649815317
30
0
41
1
10
141.662854888004
20
-10.6264494466869
30
0
41
1
10
141.735850206972
20
-10.4273276353597
30
0
41
1
10
141.881840844907
20
-9.96685301660523
30
0
41
1
10
141.954836163875
20
-9.70549556706905
30
0
41
1
10
142.100826801811
20
-9.12450043300035
30
0
41
1
10
142.173822120779
20
-8.80487288771079
30
0
41
1
10
142.319812758714
20
-8.11460058135953
30
0
41
1
10
142.392808077682
20
-7.7439800700314
30
0
41
1
10
142.538798715618
20
-6.96177510587054
30
0
41
1
10
142.611794034586
20
-6.55022488306838
30
0
41
1
10
142.757784672522
20
-5.69810776670789
30
0
41
1
10
142.830779991489
20
-5.25757866243697
30
0
41
1
10
142.976770629425
20
-4.3602384699102
30
0
41
1
10
143.049765948393
20
-3.90346200457648
30
0
41
1
10
143.195756586329
20
-2.98603755729855
30
0
41
1
10
143.268751905297
20
-2.52541590831106
30
0
41
1
10
143.414742543232
20
-1.61145526250041
30
0
41
1
10
143.4877378622
20
-1.15813185184902
30
0
41
1
10
143.597230840652
20
-0.490555355796289
30
0
41
1
10
143.633728500136
20
-0.270081790858257
30
0
41
1
10
143.679350574491
20
0.0023506102021145
30
0
41
1
10
143.688474989362
20
0.0566886733175807
30
0
41
1
10
143.706723819104
20
0.165887737481057
30
0
41
1
10
143.734097063717
20
0.330151588040081
30
0
41
1
10
143.76147030833
20
0.495748037595661
30
0
41
1
10
143.852714457039
20
1.05039642811926
30
0
41
1
10
143.925709776007
20
1.50271074133542
30
0
41
1
10
144.071700413943
20
2.41546625979208
30
0
41
1
10
144.144695732911
20
2.87589275900564
30
0
41
1
10
144.290686370847
20
3.79387214512644
30
0
41
1
10
144.363681689815
20
4.25139950443796
30
0
41
1
10
144.50967232775
20
5.15125676150984
30
0
41
1
10
144.582667646718
20
5.59355254122346
30
0
41
1
10
144.728658284654
20
6.45020565385616
30
0
41
1
10
144.801653603622
20
6.86452521378564
30
0
41
1
10
144.947644241557
20
7.65316773196264
30
0
41
1
10
145.020639560525
20
8.02745592266552
30
0
41
1
10
145.166630198461
20
8.72577528694561
30
0
41
1
10
145.239625517429
20
9.04978122173148
30
0
41
1
10
145.385616155365
20
9.6399976970367
30
0
41
1
10
145.458611474333
20
9.90619689904835
30
0
41
1
10
145.604602112268
20
10.3765463505284
30
0
41
1
10
145.677597431236
20
10.5807001215432
30
0
41
1
10
145.823588069172
20
10.9261074821253
30
0
41
1
10
145.89658338814
20
11.0673770307905
30
0
41
1
10
146.042574026075
20
11.2892626218102
30
0
41
1
10
146.115569345043
20
11.3699024287785
30
0
41
1
10
146.261559982979
20
11.4752579282996
30
0
41
1
10
146.334555301947
20
11.5
30
0
41
1
10
146.407550620915
20
11.5
30
0
0
SPLINE
5
E7
100
AcDbEntity
8
1
62
256
6
ByLayer
370
13
48
1
60
0
100
AcDbSpline
70
4
71
3
72
43
73
39
40
0
40
0
40
0
40
0
40
0.0625000000000002
40
0.0625000000000002
40
0.125
40
0.125
40
0.187500000000001
40
0.187500000000001
40
0.250000000000001
40
0.250000000000001
40
0.312500000000001
40
0.312500000000001
40
0.375000000000001
40
0.375000000000001
40
0.437500000000001
40
0.437500000000001
40
0.500000000000001
40
0.500000000000001
40
0.562500000000002
40
0.562500000000002
40
0.593750000000001
40
0.593750000000001
40
0.601562500000002
40
0.601562500000002
40
0.609375000000002
40
0.625000000000002
40
0.625000000000002
40
0.687500000000002
40
0.687500000000002
40
0.750000000000001
40
0.750000000000001
40
0.812500000000001
40
0.812500000000001
40
0.875000000000001
40
0.875000000000001
40
0.9375
40
0.9375
40
1
40
1
40
1
40
1
41
1
10
145.748537920671
20
11.5
30
0
41
1
10
145.843658845365
20
11.5
30
0
41
1
10
145.938779770057
20
11.457913299908
30
0
41
1
10
146.129021619444
20
11.2759226745104
30
0
41
1
10
146.224142544137
20
11.1359212538322
30
0
41
1
10
146.414384393523
20
10.74985991639
30
0
41
1
10
146.509505318216
20
10.5037267967883
30
0
41
1
10
146.699747167602
20
9.90543135263806
30
0
41
1
10
146.794868092295
20
9.55325136513886
30
0
41
1
10
146.985109941681
20
8.75263966269182
30
0
41
1
10
147.080230866374
20
8.30426219843591
30
0
41
1
10
147.27047271576
20
7.33027271845856
30
0
41
1
10
147.365593640454
20
6.80477598891412
30
0
41
1
10
147.55583548984
20
5.70219118169177
30
0
41
1
10
147.650956414533
20
5.12524407109288
30
0
41
1
10
147.841198263919
20
3.94803050299214
30
0
41
1
10
147.936319188612
20
3.34788853451479
30
0
41
1
10
148.126561037998
20
2.1510453257701
30
0
41
1
10
148.221681962691
20
1.55442300963148
30
0
41
1
10
148.364363349731
20
0.678647642364041
30
0
41
1
10
148.411923812077
20
0.389871962545414
30
0
41
1
10
148.471374390011
20
0.0341995417417138
30
0
41
1
10
148.483264505597
20
-0.0365384531751261
30
0
41
1
10
148.50704473677
20
-0.178819011776966
30
0
41
1
10
148.54271508353
20
-0.393030601568512
30
0
41
1
10
148.57838543029
20
-0.609474601014568
30
0
41
1
10
148.697286586157
20
-1.33523533628278
30
0
41
1
10
148.79240751085
20
-1.92977289897857
30
0
41
1
10
148.982649360236
20
-3.12546610106355
30
0
41
1
10
149.077770284929
20
-3.72654938169362
30
0
41
1
10
149.268012134315
20
-4.90910369810865
30
0
41
1
10
149.363133059008
20
-5.49045472461367
30
0
41
1
10
149.553374908394
20
-6.6052884258248
30
0
41
1
10
149.648495833087
20
-7.13862998804876
30
0
41
1
10
149.838737682473
20
-8.13120368120047
30
0
41
1
10
149.933858607167
20
-8.59031508913785
30
0
41
1
10
150.124100456553
20
-9.41429699283592
30
0
41
1
10
150.219221381246
20
-9.77910450579165
30
0
41
1
10
150.314342305939
20
-10.0912232280335
30
0
0
SPLINE
5
E8
100
AcDbEntity
8
1
62
256
6
ByLayer
370
13
48
1
60
0
100
AcDbSpline
70
4
71
3
72
77
73
73
40
0
40
0
40
0
40
0
40
0.0312500000000003
40
0.0312500000000003
40
0.0625000000000006
40
0.0625000000000006
40
0.0937500000000009
40
0.0937500000000009
40
0.125000000000001
40
0.125000000000001
40
0.156250000000001
40
0.156250000000001
40
0.164062500000002
40
0.164062500000002
40
0.171875000000002
40
0.187500000000002
40
0.187500000000002
40
0.218750000000002
40
0.218750000000002
40
0.250000000000002
40
0.250000000000002
40
0.281250000000003
40
0.281250000000003
40
0.312500000000003
40
0.312500000000003
40
0.343750000000003
40
0.343750000000003
40
0.375000000000004
40
0.375000000000004
40
0.406250000000004
40
0.406250000000004
40
0.437500000000004
40
0.437500000000004
40
0.468750000000005
40
0.468750000000005
40
0.500000000000005
40
0.500000000000005
40
0.531250000000005
40
0.531250000000005
40
0.562500000000005
40
0.562500000000005
40
0.578125000000005
40
0.578125000000005
40
0.585937500000005
40
0.585937500000005
40
0.593750000000005
40
0.593750000000005
40
0.625000000000005
40
0.625000000000005
40
0.656250000000005
40
0.656250000000005
40
0.687500000000004
40
0.687500000000004
40
0.718750000000004
40
0.718750000000004
40
0.750000000000003
40
0.750000000000003
40
0.781250000000003
40
0.781250000000003
40
0.812500000000003
40
0.812500000000003
40
0.843750000000002
40
0.843750000000002
40
0.875000000000002
40
0.875000000000002
40
0.906250000000001
40
0.906250000000001
40
0.937500000000001
40
0.937500000000001
40
0.96875
40
0.96875
40
1
40
1
40
1
40
1
41
1
10
139.4
20
-9.4759384198118
30
0
41
1
10
139.467908349918
20
-9.74237893666378
30
0
41
1
10
139.535816699835
20
-9.9834470298841
30
0
41
1
10
139.67163339967
20
-10.4117470641736
30
0
41
1
10
139.739541749587
20
-10.5989822596375
30
0
41
1
10
139.875358449422
20
-10.9190534637928
30
0
41
1
10
139.943266799339
20
-11.0519006932332
30
0
41
1
10
140.079083499174
20
-11.2649489162396
30
0
41
1
10
140.146991849092
20
-11.3451662757745
30
0
41
1
10
140.282808548926
20
-11.4565981772201
30
0
41
1
10
140.350716898844
20
-11.4878310771922
30
0
41
1
10
140.435602336241
20
-11.4993709552548
30
0
41
1
10
140.45257942372
20
-11.5003080393158
30
0
41
1
10
140.486533598679
20
-11.4995166978784
30
0
41
1
10
140.537464861117
20
-11.4943041749254
30
0
41
1
10
140.588396123555
20
-11.4766223799904
30
0
41
1
10
140.690258648431
20
-11.4236657620121
30
0
41
1
10
140.758166998348
20
-11.3648586583636
30
0
41
1
10
140.893983698183
20
-11.1959843604473
30
0
41
1
10
140.961892048101
20
-11.0858995760992
30
0
41
1
10
141.097708747935
20
-10.8118433277317
30
0
41
1
10
141.165617097853
20
-10.6478580662381
30
0
41
1
10
141.301433797688
20
-10.2655221555525
30
0
41
1
10
141.369342147605
20
-10.0471645705608
30
0
41
1
10
141.50515884744
20
-9.55807575750757
30
0
41
1
10
141.573067197357
20
-9.28734668601348
30
0
41
1
10
141.708883897192
20
-8.69805621060144
30
0
41
1
10
141.77679224711
20
-8.37950665321009
30
0
41
1
10
141.912608946944
20
-7.70145647208756
30
0
41
1
10
141.980517296862
20
-7.34197596838362
30
0
41
1
10
142.116333996697
20
-6.590798145138
30
0
41
1
10
142.184242346614
20
-6.1991260444195
30
0
41
1
10
142.320059046449
20
-5.39345844025621
30
0
41
1
10
142.387967396366
20
-4.97948915874247
30
0
41
1
10
142.523784096201
20
-4.1394918394297
30
0
41
1
10
142.591692446119
20
-3.7134871019683
30
0
41
1
10
142.727509145953
20
-2.85929729117106
30
0
41
1
10
142.795417495871
20
-2.43112976545697
30
0
41
1
10
142.931234195706
20
-1.58148415925331
30
0
41
1
10
142.999142545623
20
-1.16001658970495
30
0
41
1
10
143.101005070499
20
-0.538409883490601
30
0
41
1
10
143.134959245458
20
-0.332961289962469
30
0
41
1
10
143.185890507896
20
-0.0280004108865342
30
0
41
1
10
143.202867595375
20
0.0729421871882039
30
0
41
1
10
143.236821770334
20
0.276563241898913
30
0
41
1
10
143.253798857814
20
0.378901576157148
30
0
41
1
10
143.33868429521
20
0.892995690039925
30
0
41
1
10
143.406592645127
20
1.31202175583204
30
0
41
1
10
143.542409344962
20
2.15849623366179
30
0
41
1
10
143.61031769488
20
2.58593565244337
30
0
41
1
10
143.746134394715
20
3.44065832182716
30
0
41
1
10
143.814042744632
20
3.86792547069294
30
0
41
1
10
143.949859444467
20
4.71260630368863
30
0
41
1
10
144.017767794384
20
5.1299977250865
30
0
41
1
10
144.153584494219
20
5.94469175307214
30
0
41
1
10
144.221492844137
20
6.34196845681055
30
0
41
1
10
144.357309543971
20
7.10639344569185
30
0
41
1
10
144.425217893889
20
7.47351594405728
30
0
41
1
10
144.561034593724
20
8.16857952148311
30
0
41
1
10
144.628942943641
20
8.4964990811167
30
0
41
1
10
144.764759643476
20
9.10581601047181
30
0
41
1
10
144.832667993393
20
9.3871995841904
30
0
41
1
10
144.968484693228
20
9.89835800514271
30
0
41
1
10
145.036393043146
20
10.1281286149772
30
0
41
1
10
145.172209742981
20
10.5335045946376
30
0
41
1
10
145.240118092898
20
10.7091151050182
30
0
41
1
10
145.375934792733
20
11.0061282408553
30
0
41
1
10
145.44384314265
20
11.1275434443883
30
0
41
1
10
145.579659842485
20
11.31836248241
30
0
41
1
10
145.647568192402
20
11.3877833669746
30
0
41
1
10
145.783384892237
20
11.4785929234755
30
0
41
1
10
145.851293242155
20
11.5
30
0
41
1
10
145.919201592072
20
11.5
30
0
0
SPLINE
5
E9
100
AcDbEntity
8
1
62
256
6
ByLayer
370
13
48
1
60
0
100
AcDbSpline
70
4
71
3
72
68
73
64
40
0
40
0
40
0
40
0
40
0.0624999999999988
40
0.0624999999999988
40
0.0937499999999984
40
0.0937499999999984
40
0.124999999999998
40
0.124999999999998
40
0.156249999999998
40
0.156249999999998
40
0.187499999999997
40
0.187499999999997
40
0.218749999999997
40
0.218749999999997
40
0.249999999999997
40
0.249999999999997
40
0.281249999999996
40
0.281249999999996
40
0.312499999999996
40
0.312499999999996
40
0.343749999999996
40
0.343749999999996
40
0.374999999999995
40
0.374999999999995
40
0.406249999999995
40
0.406249999999995
40
0.437499999999995
40
0.437499999999995
40
0.499999999999993
40
0.499999999999993
40
0.531249999999993
40
0.531249999999993
40
0.539062499999993
40
0.539062499999993
40
0.546874999999993
40
0.546874999999993
40
0.562499999999993
40
0.562499999999993
40
0.624999999999994
40
0.624999999999994
40
0.656249999999995
40
0.656249999999995
40
0.687499999999995
40
0.687499999999995
40
0.718749999999996
40
0.718749999999996
40
0.749999999999996
40
0.749999999999996
40
0.781249999999997
40
0.781249999999997
40
0.812499999999998
40
0.812499999999998
40
0.843749999999998
40
0.843749999999998
40
0.874999999999998
40
0.874999999999998
40
0.906249999999999
40
0.906249999999999
40
0.937499999999999
40
0.937499999999999
40
0.96875
40
0.96875
40
1
40
1
40
1
40
1
41
1
10
145.260188891829
20
11.5
30
0
41
1
10
145.365483754623
20
11.5
30
0
41
1
10
145.470778617417
20
11.4483768429142
30
0
41
1
10
145.628720911608
20
11.2798729869687
30
0
41
1
10
145.681368343005
20
11.2085732908052
30
0
41
1
10
145.786663205799
20
11.0342024056781
30
0
41
1
10
145.839310637196
20
10.931126733764
30
0
41
1
10
145.94460549999
20
10.6923869538239
30
0
41
1
10
145.997252931386
20
10.5567194827558
30
0
41
1
10
146.10254779418
20
10.2528001486309
30
0
41
1
10
146.155195225577
20
10.0845465390404
30
0
41
1
10
146.260490088371
20
9.71635845794142
30
0
41
1
10
146.313137519768
20
9.51642421933778
30
0
41
1
10
146.418432382562
20
9.08670184408007
30
0
41
1
10
146.471079813959
20
8.85691606770627
30
0
41
1
10
146.576374676753
20
8.3702024533288
30
0
41
1
10
146.62902210815
20
8.11327898750531
30
0
41
1
10
146.734316970944
20
7.57578499942886
30
0
41
1
10
146.786964402341
20
7.29522048349435
30
0
41
1
10
146.892259265135
20
6.71456517871482
30
0
41
1
10
146.944906696532
20
6.41448144473927
30
0
41
1
10
147.050201559326
20
5.79933589979936
30
0
41
1
10
147.102848990723
20
5.4842814950336
30
0
41
1
10
147.208143853517
20
4.84395052288338
30
0
41
1
10
147.260791284914
20
4.51868101846358
30
0
41
1
10
147.366086147708
20
3.86266378408018
30
0
41
1
10
147.418733579105
20
3.53192218671236
30
0
41
1
10
147.576675873296
20
2.53827786843661
30
0
41
1
10
147.68197073609
20
1.87421940317478
30
0
41
1
10
147.839913030281
20
0.899099933126649
30
0
41
1
10
147.892560461678
20
0.577493760948016
30
0
41
1
10
147.958369750924
20
0.181702367515641
30
0
41
1
10
147.971531608773
20
0.102853452130972
30
0
41
1
10
147.997855324472
20
-0.0541833974478152
30
0
41
1
10
148.011017182321
20
-0.132782916470205
30
0
41
1
10
148.050502755869
20
-0.369871412978455
30
0
41
1
10
148.076826471567
20
-0.52918689268688
30
0
41
1
10
148.20844505006
20
-1.33114070827918
30
0
41
1
10
148.313739912854
20
-1.99025363211726
30
0
41
1
10
148.471682207044
20
-2.98355342326605
30
0
41
1
10
148.524329638441
20
-3.3153539054079
30
0
41
1
10
148.629624501235
20
-3.97602538247134
30
0
41
1
10
148.682271932632
20
-4.30489094550779
30
0
41
1
10
148.787566795426
20
-4.95504519365883
30
0
41
1
10
148.840214226823
20
-5.27632726679207
30
0
41
1
10
148.945509089617
20
-5.90654027387109
30
0
41
1
10
148.998156521014
20
-6.21546390981842
30
0
41
1
10
149.103451383808
20
-6.81626967423421
30
0
41
1
10
149.156098815205
20
-7.10814446529722
30
0
41
1
10
149.261393677999
20
-7.67046823491347
30
0
41
1
10
149.314041109396
20
-7.94091054655425
30
0
41
1
10
149.41933597219
20
-8.45650396397451
30
0
41
1
10
149.471983403587
20
-8.70164973420174
30
0
41
1
10
149.577278266381
20
-9.16348610334168
30
0
41
1
10
149.629925697778
20
-9.38017320032205
30
0
41
1
10
149.735220560572
20
-9.7827640118208
30
0
41
1
10
149.787867991969
20
-9.96866632184623
30
0
41
1
10
149.893162854763
20
-10.308269476827
30
0
41
1
10
149.94581028616
20
-10.4619710090328
30
0
41
1
10
150.051105148954
20
-10.7366751351957
30
0
41
1
10
150.103752580351
20
-10.8576802553785
30
0
41
1
10
150.209047443145
20
-11.067365294221
30
0
41
1
10
150.261694874542
20
-11.1560491440162
30
0
41
1
10
150.314342305939
20
-11.2291435221176
30
0
0
SPLINE
5
EA
100
AcDbEntity
8
1
62
256
6
ByLayer
370
13
48
1
60
0
100
AcDbSpline
70
4
71
3
72
77
73
73
40
0
40
0
40
0
40
0
40
0.0312499999999994
40
0.0312499999999994
40
0.0624999999999988
40
0.0624999999999988
40
0.0937499999999982
40
0.0937499999999982
40
0.101562499999998
40
0.101562499999998
40
0.109374999999998
40
0.124999999999998
40
0.124999999999998
40
0.156249999999998
40
0.156249999999998
40
0.187499999999998
40
0.187499999999998
40
0.218749999999998
40
0.218749999999998
40
0.249999999999998
40
0.249999999999998
40
0.281249999999998
40
0.281249999999998
40
0.312499999999998
40
0.312499999999998
40
0.343749999999999
40
0.343749999999999
40
0.374999999999999
40
0.374999999999999
40
0.406249999999999
40
0.406249999999999
40
0.437499999999999
40
0.437499999999999
40
0.468749999999999
40
0.468749999999999
40
0.499999999999999
40
0.499999999999999
40
0.531249999999999
40
0.531249999999999
40
0.546874999999999
40
0.546874999999999
40
0.554687499999999
40
0.554687499999999
40
0.562499999999999
40
0.562499999999999
40
0.593749999999999
40
0.593749999999999
40
0.624999999999999
40
0.624999999999999
40
0.65625
40
0.65625
40
0.6875
40
0.6875
40
0.71875
40
0.71875
40
0.75
40
0.75
40
0.78125
40
0.78125
40
0.8125
40
0.8125
40
0.84375
40
0.84375
40
0.875
40
0.875
40
0.90625
40
0.90625
40
0.9375
40
0.9375
40
0.96875
40
0.96875
40
1
40
1
40
1
40
1
41
1
10
139.4
20
-10.9368752254406
30
0
41
1
10
139.462821380867
20
-11.0650813577684
30
0
41
1
10
139.525642761734
20
-11.1702195725338
30
0
41
1
10
139.651285523468
20
-11.3363111905391
30
0
41
1
10
139.714106904335
20
-11.3972763596616
30
0
41
1
10
139.839749666069
20
-11.4782548992249
30
0
41
1
10
139.902571046936
20
-11.4982807485851
30
0
41
1
10
139.98109777302
20
-11.5002969185676
30
0
41
1
10
139.996803118236
20
-11.4995592868154
30
0
41
1
10
140.02821380867
20
-11.4957449642598
30
0
41
1
10
140.07532984432
20
-11.4865103136303
30
0
41
1
10
140.12244587997
20
-11.4664318875459
30
0
41
1
10
140.216677951271
20
-11.4110682389652
30
0
41
1
10
140.279499332138
20
-11.3538495498795
30
0
41
1
10
140.405142093871
20
-11.195490076849
30
0
41
1
10
140.467963474739
20
-11.0943373949456
30
0
41
1
10
140.593606236473
20
-10.846010548055
30
0
41
1
10
140.656427617339
20
-10.6988268319313
30
0
41
1
10
140.782070379073
20
-10.3578958746798
30
0
41
1
10
140.84489175994
20
-10.1641432295755
30
0
41
1
10
140.970534521674
20
-9.73132088804479
30
0
41
1
10
141.033355902541
20
-9.49225132789462
30
0
41
1
10
141.158998664275
20
-8.97191397231444
30
0
41
1
10
141.221820045142
20
-8.69065242530817
30
0
41
1
10
141.347462806876
20
-8.09082774411459
30
0
41
1
10
141.410284187743
20
-7.77227647387991
30
0
41
1
10
141.535926949477
20
-7.10427212362586
30
0
41
1
10
141.598748330344
20
-6.7548349929188
30
0
41
1
10
141.724391092078
20
-6.03253777530392
30
0
41
1
10
141.787212472945
20
-5.65969548994079
30
0
41
1
10
141.912855234679
20
-4.89863047721676
30
0
41
1
10
141.975676615546
20
-4.51042498773208
30
0
41
1
10
142.10131937728
20
-3.72670482192604
30
0
41
1
10
142.164140758147
20
-3.3312047521238
30
0
41
1
10
142.289783519881
20
-2.54051023597398
30
0
41
1
10
142.352604900748
20
-2.14532641934846
30
0
41
1
10
142.478247662482
20
-1.36203976683026
30
0
41
1
10
142.541069043349
20
-0.973943091376157
30
0
41
1
10
142.635301114649
20
-0.401370999360381
30
0
41
1
10
142.666711805083
20
-0.212100042483996
30
0
41
1
10
142.713827840733
20
0.0689793462775867
30
0
41
1
10
142.729533185949
20
0.162837974723942
30
0
41
1
10
142.760943876383
20
0.351726449450751
30
0
41
1
10
142.7766492216
20
0.446611694448904
30
0
41
1
10
142.855175947684
20
0.923052655862534
30
0
41
1
10
142.91799732855
20
1.3106986302331
30
0
41
1
10
143.043640090284
20
2.09335774309326
30
0
41
1
10
143.106461471152
20
2.48836491643402
30
0
41
1
10
143.232104232885
20
3.27902373897547
30
0
41
1
10
143.294925613752
20
3.67466495082687
30
0
41
1
10
143.420568375486
20
4.45901483137015
30
0
41
1
10
143.483389756353
20
4.84770904631054
30
0
41
1
10
143.609032518087
20
5.61010956057376
30
0
41
1
10
143.671853898954
20
5.98379869855398
30
0
41
1
10
143.797496660688
20
6.70813549754311
30
0
41
1
10
143.860318041555
20
7.05876533178119
30
0
41
1
10
143.985960803289
20
7.72946514367484
30
0
41
1
10
144.048782184156
20
8.04951904025182
30
0
41
1
10
144.17442494589
20
8.65260191989495
30
0
41
1
10
144.237246326757
20
8.93561882044392
30
0
41
1
10
144.362889088491
20
9.45964678776394
30
0
41
1
10
144.425710469358
20
9.70065134054099
30
0
41
1
10
144.551353231092
20
10.1374420302251
30
0
41
1
10
144.614174611959
20
10.3332277667702
30
0
41
1
10
144.739817373693
20
10.6782413626961
30
0
41
1
10
144.80263875456
20
10.8274744070113
30
0
41
1
10
144.928281516294
20
11.0798414995059
30
0
41
1
10
144.99110289716
20
11.1829849529083
30
0
41
1
10
145.116745658895
20
11.3452052980977
30
0
41
1
10
145.179567039762
20
11.4042940235625
30
0
41
1
10
145.305209801495
20
11.4816851379691
30
0
41
1
10
145.368031182362
20
11.5
30
0
41
1
10
145.430852563229
20
11.5
30
0
0
SPLINE
5
EB
100
AcDbEntity
8
1
62
256
6
ByLayer
370
13
48
1
60
0
100
AcDbSpline
70
4
71
3
72
74
73
70
40
0
40
0
40
0
40
0
40
0.0312499999999999
40
0.0312499999999999
40
0.0624999999999999
40
0.0624999999999999
40
0.0937499999999998
40
0.0937499999999998
40
0.125
40
0.125
40
0.15625
40
0.15625
40
0.1875
40
0.1875
40
0.218749999999999
40
0.218749999999999
40
0.249999999999999
40
0.249999999999999
40
0.281249999999999
40
0.281249999999999
40
0.312499999999999
40
0.312499999999999
40
0.343749999999999
40
0.343749999999999
40
0.374999999999999
40
0.374999999999999
40
0.406249999999999
40
0.406249999999999
40
0.437499999999999
40
0.437499999999999
40
0.468749999999999
40
0.468749999999999
40
0.484374999999999
40
0.484374999999999
40
0.499999999999999
40
0.499999999999999
40
0.531249999999999
40
0.531249999999999
40
0.562499999999999
40
0.562499999999999
40
0.593749999999999
40
0.593749999999999
40
0.625
40
0.625
40
0.65625
40
0.65625
40
0.6875
40
0.6875
40
0.71875
40
0.71875
40
0.75
40
0.75
40
0.78125
40
0.78125
40
0.8125
40
0.8125
40
0.84375
40
0.84375
40
0.875
40
0.875
40
0.90625
40
0.90625
40
0.9375
40
0.9375
40
0.96875
40
0.96875
40
0.984375
40
0.984375
40
1
40
1
40
1
40
1
41
1
10
144.771839862986
20
11.5
30
0
41
1
10
144.829574263434
20
11.5
30
0
41
1
10
144.887308663881
20
11.4845350698873
30
0
41
1
10
145.002777464776
20
11.4194457714383
30
0
41
1
10
145.060511865223
20
11.3698132307306
30
0
41
1
10
145.175980666118
20
11.2337454405728
30
0
41
1
10
145.233715066566
20
11.1473022804776
30
0
41
1
10
145.34918386746
20
10.935816142852
30
0
41
1
10
145.406918267908
20
10.8107664911088
30
0
41
1
10
145.522387068803
20
10.5213391291677
30
0
41
1
10
145.58012146925
20
10.3569569983555
30
0
41
1
10
145.695590270145
20
9.98937565229869
30
0
41
1
10
145.753324670592
20
9.7861751345784
30
0
41
1
10
145.868793471487
20
9.34279617109559
30
0
41
1
10
145.926527871935
20
9.10262004799637
30
0
41
1
10
146.041996672829
20
8.58844344784509
30
0
41
1
10
146.099731073277
20
8.31444891405317
30
0
41
1
10
146.215199874172
20
7.73697893227711
30
0
41
1
10
146.272934274619
20
7.43351248487539
30
0
41
1
10
146.388403075514
20
6.80240510019428
30
0
41
1
10
146.446137475961
20
6.47477518469
30
0
41
1
10
146.561606276856
20
5.80130551650421
30
0
41
1
10
146.619340677304
20
5.45547749850701
30
0
41
1
10
146.734809478199
20
4.75188791074484
30
0
41
1
10
146.792543878646
20
4.39413746565216
30
0
41
1
10
146.908012679541
20
3.67294299581778
30
0
41
1
10
146.965747079988
20
3.30950838785012
30
0
41
1
10
147.081215880883
20
2.58283714878343
30
0
41
1
10
147.13895028133
20
2.21960751372529
30
0
41
1
10
147.254419082225
20
1.49864079128969
30
0
41
1
10
147.312153482673
20
1.14090800368243
30
0
41
1
10
147.398755083344
20
0.611823838381213
30
0
41
1
10
147.427622283568
20
0.436708575313787
30
0
41
1
10
147.485356684015
20
0.0894559482257478
30
0
41
1
10
147.514223884239
20
-0.081860089395775
30
0
41
1
10
147.60082548491
20
-0.602608037655273
30
0
41
1
10
147.658559885357
20
-0.955769361019804
30
0
41
1
10
147.774028686252
20
-1.66999073005795
30
0
41
1
10
147.8317630867
20
-2.03104782040134
30
0
41
1
10
147.947231887594
20
-2.75614457766591
30
0
41
1
10
148.004966288042
20
-3.12017860861457
30
0
41
1
10
148.120435088937
20
-3.84561946004368
30
0
41
1
10
148.178169489384
20
-4.20701803030443
30
0
41
1
10
148.293638290279
20
-4.92109347688003
30
0
41
1
10
148.351372690726
20
-5.2737599794466
30
0
41
1
10
148.466841491621
20
-5.96407382628786
30
0
41
1
10
148.524575892069
20
-6.30170958924586
30
0
41
1
10
148.640044692963
20
-6.95579480165122
30
0
41
1
10
148.697779093411
20
-7.27223269703322
30
0
41
1
10
148.813247894306
20
-7.87823740763096
30
0
41
1
10
148.870982294753
20
-8.16779404454039
30
0
41
1
10
148.986451095648
20
-8.71516509961475
30
0
41
1
10
149.044185496096
20
-8.97297191978512
30
0
41
1
10
149.15965429699
20
-9.45305691303196
30
0
41
1
10
149.217388697438
20
-9.675330890509
30
0
41
1
10
149.332857498332
20
-10.0818281328332
30
0
41
1
10
149.39059189878
20
-10.2660508948179
30
0
41
1
10
149.506060699675
20
-10.5952590717707
30
0
41
1
10
149.563795100122
20
-10.740247415524
30
0
41
1
10
149.679263901017
20
-10.991097651235
30
0
41
1
10
149.736998301464
20
-11.0969651965727
30
0
41
1
10
149.852467102359
20
-11.2708504247886
30
0
41
1
10
149.910201502807
20
-11.3388755196013
30
0
41
1
10
150.025670303702
20
-11.4393182335968
30
0
41
1
10
150.083404704149
20
-11.4717440052524
30
0
41
1
10
150.17000630482
20
-11.4959051436939
30
0
41
1
10
150.198873505044
20
-11.4998841767823
30
0
41
1
10
150.256607905491
20
-11.5001108367733
30
0
41
1
10
150.285475105715
20
-11.4963646071657
30
0
41
1
10
150.314342305939
20
-11.4885497308376
30
0
0
SPLINE
5
EC
100
AcDbEntity
8
1
62
256
6
ByLayer
370
13
48
1
60
0
100
AcDbSpline
70
4
71
3
72
74
73
70
40
0
40
0
40
0
40
0
40
0.0156250000000002
40
0.0156250000000002
40
0.0312500000000004
40
0.0312500000000004
40
0.0625000000000005
40
0.0625000000000005
40
0.0937500000000005
40
0.0937500000000005
40
0.125000000000001
40
0.125000000000001
40
0.156250000000001
40
0.156250000000001
40
0.187500000000001
40
0.187500000000001
40
0.218750000000001
40
0.218750000000001
40
0.250000000000001
40
0.250000000000001
40
0.281250000000001
40
0.281250000000001
40
0.312500000000001
40
0.312500000000001
40
0.343750000000001
40
0.343750000000001
40
0.375000000000001
40
0.375000000000001
40
0.406250000000001
40
0.406250000000001
40
0.437500000000001
40
0.437500000000001
40
0.468750000000001
40
0.468750000000001
40
0.500000000000001
40
0.500000000000001
40
0.515625
40
0.515625
40
0.53125
40
0.53125
40
0.5625
40
0.5625
40
0.59375
40
0.59375
40
0.625
40
0.625
40
0.65625
40
0.65625
40
0.6875
40
0.6875
40
0.71875
40
0.71875
40
0.75
40
0.75
40
0.78125
40
0.78125
40
0.8125
40
0.8125
40
0.84375
40
0.84375
40
0.875
40
0.875
40
0.90625
40
0.90625
40
0.9375
40
0.9375
40
0.96875
40
0.96875
40
1
40
1
40
1
40
1
41
1
10
139.4
20
-11.4885494353646
30
0
41
1
10
139.428867205908
20
-11.4963644157594
30
0
41
1
10
139.457734411816
20
-11.5001107451224
30
0
41
1
10
139.515468823633
20
-11.4998842768655
30
0
41
1
10
139.544336029541
20
-11.4959053407949
30
0
41
1
10
139.630937647266
20
-11.4717444960016
30
0
41
1
10
139.688672059083
20
-11.4393189236017
30
0
41
1
10
139.804140882716
20
-11.3388766097263
30
0
41
1
10
139.861875294532
20
-11.2708517157685
30
0
41
1
10
139.977344118165
20
-11.0969668846104
30
0
41
1
10
140.035078529982
20
-10.9910995354613
30
0
41
1
10
140.150547353615
20
-10.7402496806958
30
0
41
1
10
140.208281765431
20
-10.5952615216813
30
0
41
1
10
140.323750589064
20
-10.2660536959678
30
0
41
1
10
140.381485000881
20
-10.0818311004639
30
0
41
1
10
140.496953824514
20
-9.67533416660191
30
0
41
1
10
140.55468823633
20
-9.45306033108812
30
0
41
1
10
140.670157059964
20
-8.97297559213172
30
0
41
1
10
140.72789147178
20
-8.71516888427468
30
0
41
1
10
140.843360295413
20
-8.16779802066941
30
0
41
1
10
140.90109470723
20
-7.8782414629087
30
0
41
1
10
141.016563530863
20
-7.27223687586564
30
0
41
1
10
141.074297942679
20
-6.95579902489052
30
0
41
1
10
141.189766766312
20
-6.3017138670038
30
0
41
1
10
141.247501178129
20
-5.96407811416589
30
0
41
1
10
141.362970001762
20
-5.27376425561005
30
0
41
1
10
141.420704413579
20
-4.92109773122274
30
0
41
1
10
141.536173237212
20
-4.2070222129413
30
0
41
1
10
141.593907649028
20
-3.84562359281242
30
0
41
1
10
141.709376472661
20
-3.12018261854757
30
0
41
1
10
141.767110884478
20
-2.75614851464854
30
0
41
1
10
141.882579708111
20
-2.03105159389841
30
0
41
1
10
141.940314119927
20
-1.66999441303497
30
0
41
1
10
142.05578294356
20
-0.955772850941543
30
0
41
1
10
142.113517355377
20
-0.602611425053368
30
0
41
1
10
142.200118973102
20
-0.0818633179108019
30
0
41
1
10
142.22898617901
20
0.0894527524570208
30
0
41
1
10
142.286720590826
20
0.436705411624047
30
0
41
1
10
142.315587796735
20
0.611820692717913
30
0
41
1
10
142.40218941446
20
1.14090491811677
30
0
41
1
10
142.459923826276
20
1.49863775384219
30
0
41
1
10
142.575392649909
20
2.21960458829145
30
0
41
1
10
142.633127061726
20
2.58283428724826
30
0
41
1
10
142.748595885359
20
3.3095056686137
30
0
41
1
10
142.806330297175
20
3.67294035498125
30
0
41
1
10
142.921799120808
20
4.39413499383278
30
0
41
1
10
142.979533532625
20
4.7518855295385
30
0
41
1
10
143.095002356258
20
5.45547530751537
30
0
41
1
10
143.152736768074
20
5.80130342510591
30
0
41
1
10
143.268205591707
20
6.47477329748179
30
0
41
1
10
143.325940003524
20
6.80240331757125
30
0
41
1
10
143.441408827157
20
7.43351091198699
30
0
41
1
10
143.499143238974
20
7.73697746452481
30
0
41
1
10
143.614612062607
20
8.31444765262435
30
0
41
1
10
143.672346474423
20
8.58844228759068
30
0
41
1
10
143.787815298056
20
9.10261908195679
30
0
41
1
10
143.845549709873
20
9.34279529808597
30
0
41
1
10
143.961018533506
20
9.78617443599788
30
0
41
1
10
144.018752945322
20
9.98937503511064
30
0
41
1
10
144.134221768955
20
10.356956529777
30
0
41
1
10
144.191956180772
20
10.5213387278042
30
0
41
1
10
144.307425004405
20
10.8107662085409
30
0
41
1
10
144.365159416222
20
10.935815911867
30
0
41
1
10
144.480628239855
20
11.1473021366484
30
0
41
1
10
144.538362651671
20
11.2337453323219
30
0
41
1
10
144.653831475304
20
11.369813178214
30
0
41
1
10
144.711565887121
20
11.419445739085
30
0
41
1
10
144.827034710754
20
11.4845350637883
30
0
41
1
10
144.88476912257
20
11.5
30
0
41
1
10
144.942503534387
20
11.5
30
0
0
SPLINE
5
ED
100
AcDbEntity
8
1
62
256
6
ByLayer
370
13
48
1
60
0
100
AcDbSpline
70
4
71
3
72
78
73
74
40
0
40
0
40
0
40
0
40
0.03125
40
0.03125
40
0.0625
40
0.0625
40
0.09375
40
0.09375
40
0.125
40
0.125
40
0.15625
40
0.15625
40
0.1875
40
0.1875
40
0.21875
40
0.21875
40
0.25
40
0.25
40
0.28125
40
0.28125
40
0.3125
40
0.3125
40
0.34375
40
0.34375
40
0.375
40
0.375
40
0.40625
40
0.40625
40
0.4375
40
0.4375
40
0.4453125
40
0.4453125
40
0.453125
40
0.453125
40
0.46875
40
0.46875
40
0.5
40
0.5
40
0.53125
40
0.53125
40
0.5625
40
0.5625
40
0.59375
40
0.59375
40
0.625
40
0.625
40
0.65625
40
0.65625
40
0.6875
40
0.6875
40
0.71875
40
0.71875
40
0.75
40
0.75
40
0.78125
40
0.78125
40
0.8125
40
0.8125
40
0.84375
40
0.84375
40
0.875
40
0.875
40
0.890625
40
0.890625
40
0.8984375
40
0.8984375
40
0.90625
40
0.90625
40
0.9375
40
0.9375
40
0.96875
40
0.96875
40
1
40
1
40
1
40
1
41
1
10
144.283490834143
20
11.5
30
0
41
1
10
144.346312203641
20
11.5
30
0
41
1
10
144.409133573139
20
11.4816851446091
30
0
41
1
10
144.534776312135
20
11.4042940589401
30
0
41
1
10
144.597597681633
20
11.3452053555842
30
0
41
1
10
144.723240420629
20
11.1829850715689
30
0
41
1
10
144.786061790126
20
11.079841657242
30
0
41
1
10
144.911704529122
20
10.8274746603246
30
0
41
1
10
144.97452589862
20
10.6782416725179
30
0
41
1
10
145.100168637616
20
10.3332282062149
30
0
41
1
10
145.162990007114
20
10.1374425427853
30
0
41
1
10
145.288632746109
20
9.70065201370443
30
0
41
1
10
145.351454115607
20
9.45964754840938
30
0
41
1
10
145.477096854603
20
8.93561976684668
30
0
41
1
10
145.539918224101
20
8.65260296456069
30
0
41
1
10
145.665560963097
20
8.04952028758873
30
0
41
1
10
145.728382332594
20
7.72946649540287
30
0
41
1
10
145.85402507159
20
7.05876689317233
30
0
41
1
10
145.916846441088
20
6.70813716418743
30
0
41
1
10
146.042489180084
20
5.98380057125664
30
0
41
1
10
146.105310549582
20
5.6101115340646
30
0
41
1
10
146.230953288577
20
4.8477112120851
30
0
41
1
10
146.293774658075
20
4.459017088628
30
0
41
1
10
146.419417397071
20
3.67466737784656
30
0
41
1
10
146.482238766569
20
3.27902624426764
30
0
41
1
10
146.607881505565
20
2.48836756236631
30
0
41
1
10
146.670702875062
20
2.09336045139327
30
0
41
1
10
146.796345614058
20
1.31070144596419
30
0
41
1
10
146.859166983556
20
0.923055516662004
30
0
41
1
10
146.937693695428
20
0.446614600655323
30
0
41
1
10
146.953399037803
20
0.351729364194881
30
0
41
1
10
146.984809722552
20
0.162840905463384
30
0
41
1
10
147.000515064926
20
0.0689822698122668
30
0
41
1
10
147.04763109205
20
-0.212097038456847
30
0
41
1
10
147.079041776799
20
-0.401367942453533
30
0
41
1
10
147.173273831045
20
-0.973939879273473
30
0
41
1
10
147.236095200543
20
-1.3620364558399
30
0
41
1
10
147.361737939539
20
-2.14532292608033
30
0
41
1
10
147.424559309037
20
-2.54050665933425
30
0
41
1
10
147.550202048033
20
-3.33120103086614
30
0
41
1
10
147.613023417531
20
-3.72670103944512
30
0
41
1
10
147.738666156526
20
-4.51042111118522
30
0
41
1
10
147.801487526024
20
-4.89862656785172
30
0
41
1
10
147.92713026502
20
-5.65969154847727
30
0
41
1
10
147.989951634518
20
-6.03253383458156
30
0
41
1
10
148.115594373513
20
-6.75483109057112
30
0
41
1
10
148.178415743011
20
-7.10426825892543
30
0
41
1
10
148.304058482007
20
-7.77227272237283
30
0
41
1
10
148.366879851505
20
-8.09082406815637
30
0
41
1
10
148.4925225905
20
-8.69064893674431
30
0
41
1
10
148.555343959999
20
-8.97191059558688
30
0
41
1
10
148.680986698994
20
-9.49224820702037
30
0
41
1
10
148.743808068492
20
-9.73131791116793
30
0
41
1
10
148.869450807488
20
-10.1641405666847
30
0
41
1
10
148.932272176986
20
-10.3578933817517
30
0
41
1
10
149.057914915981
20
-10.6988246973552
30
0
41
1
10
149.120736285479
20
-10.8460086018411
30
0
41
1
10
149.246379024475
20
-11.0943358357601
30
0
41
1
10
149.309200393973
20
-11.1954887163058
30
0
41
1
10
149.434843132969
20
-11.3538485890306
30
0
41
1
10
149.497664502467
20
-11.4110674791507
30
0
41
1
10
149.591896556713
20
-11.4664314258177
30
0
41
1
10
149.623307241462
20
-11.4798171420003
30
0
41
1
10
149.670423268586
20
-11.4926662763687
30
0
41
1
10
149.68612861096
20
-11.4957447967764
30
0
41
1
10
149.717539295709
20
-11.4995592161432
30
0
41
1
10
149.733244638083
20
-11.5002968956435
30
0
41
1
10
149.811771349956
20
-11.4982809672507
30
0
41
1
10
149.874592719454
20
-11.4782553295086
30
0
41
1
10
150.000235458449
20
-11.3972772483333
30
0
41
1
10
150.063056827947
20
-11.3363123259925
30
0
41
1
10
150.188699566943
20
-11.170221232512
30
0
41
1
10
150.251520936441
20
-11.0650832954914
30
0
41
1
10
150.314342305939
20
-10.9368774528417
30
0
0
SPLINE
5
EE
100
AcDbEntity
8
1
62
256
6
ByLayer
370
13
48
1
60
0
100
AcDbSpline
70
4
71
3
72
68
73
64
40
0
40
0
40
0
40
0
40
0.0312500000000006
40
0.0312500000000006
40
0.0625000000000012
40
0.0625000000000012
40
0.0937500000000019
40
0.0937500000000019
40
0.125000000000002
40
0.125000000000002
40
0.156250000000003
40
0.156250000000003
40
0.187500000000004
40
0.187500000000004
40
0.218750000000004
40
0.218750000000004
40
0.250000000000005
40
0.250000000000005
40
0.281250000000006
40
0.281250000000006
40
0.312500000000006
40
0.312500000000006
40
0.343750000000007
40
0.343750000000007
40
0.375000000000007
40
0.375000000000007
40
0.437500000000008
40
0.437500000000008
40
0.453125000000009
40
0.453125000000009
40
0.460937500000009
40
0.460937500000009
40
0.468750000000009
40
0.468750000000009
40
0.500000000000008
40
0.500000000000008
40
0.562500000000007
40
0.562500000000007
40
0.593750000000007
40
0.593750000000007
40
0.625000000000006
40
0.625000000000006
40
0.656250000000006
40
0.656250000000006
40
0.687500000000005
40
0.687500000000005
40
0.718750000000005
40
0.718750000000005
40
0.750000000000004
40
0.750000000000004
40
0.781250000000004
40
0.781250000000004
40
0.812500000000003
40
0.812500000000003
40
0.843750000000003
40
0.843750000000003
40
0.875000000000002
40
0.875000000000002
40
0.906250000000002
40
0.906250000000002
40
0.937500000000001
40
0.937500000000001
40
1
40
1
40
1
40
1
41
1
10
139.4
20
-11.2291450374354
30
0
41
1
10
139.452647442766
20
-11.1560508586063
30
0
41
1
10
139.505294885532
20
-11.0673672064863
30
0
41
1
10
139.610589771064
20
-10.8576825542475
30
0
41
1
10
139.663237213831
20
-10.7366776229812
30
0
41
1
10
139.768532099363
20
-10.4619738602052
30
0
41
1
10
139.821179542129
20
-10.3082725024562
30
0
41
1
10
139.926474427661
20
-9.96866967649871
30
0
41
1
10
139.979121870427
20
-9.78276752102641
30
0
41
1
10
140.084416755959
20
-9.38017699396144
30
0
41
1
10
140.137064198725
20
-9.16349002685027
30
0
41
1
10
140.242359084257
20
-8.70165388903325
30
0
41
1
10
140.295006527024
20
-8.45650822025181
30
0
41
1
10
140.400301412556
20
-7.9409149749003
30
0
41
1
10
140.452948855322
20
-7.67047273387919
30
0
41
1
10
140.558243740854
20
-7.10814907378068
30
0
41
1
10
140.61089118362
20
-6.81627432161744
30
0
41
1
10
140.716186069152
20
-6.2154686039147
30
0
41
1
10
140.768833511918
20
-5.90654497578694
30
0
41
1
10
140.87412839745
20
-5.2763319553078
30
0
41
1
10
140.926775840216
20
-4.95504986096461
30
0
41
1
10
141.032070725749
20
-4.30489554456815
30
0
41
1
10
141.084718168515
20
-3.97602993450792
30
0
41
1
10
141.190013054047
20
-3.31535834162332
30
0
41
1
10
141.242660496813
20
-2.98355779069604
30
0
41
1
10
141.400602825111
20
-1.99025776732222
30
0
41
1
10
141.505897710643
20
-1.33114465429614
30
0
41
1
10
141.637516317559
20
-0.529190582051086
30
0
41
1
10
141.663840038942
20
-0.369875049995613
30
0
41
1
10
141.703325621016
20
-0.132786473833988
30
0
41
1
10
141.716487481708
20
-0.0541869144277882
30
0
41
1
10
141.742811203091
20
0.102849949370864
30
0
41
1
10
141.755973063782
20
0.181698872314229
30
0
41
1
10
141.82178236724
20
0.577490305803025
30
0
41
1
10
141.874429810006
20
0.899096517291781
30
0
41
1
10
142.032372138304
20
1.8742161272412
30
0
41
1
10
142.137667023836
20
2.53827471544835
30
0
41
1
10
142.295609352135
20
3.53191925712136
30
0
41
1
10
142.348256794901
20
3.86266093535738
30
0
41
1
10
142.453551680433
20
4.51867834222801
30
0
41
1
10
142.506199123199
20
4.84394793826351
30
0
41
1
10
142.611494008731
20
5.4842791016388
30
0
41
1
10
142.664141451497
20
5.79933360600805
30
0
41
1
10
142.769436337029
20
6.41447935482893
30
0
41
1
10
142.822083779795
20
6.71456319307399
30
0
41
1
10
142.927378665328
20
7.29521870739475
30
0
41
1
10
142.980026108094
20
7.57578332859183
30
0
41
1
10
143.085320993626
20
8.11327752443208
30
0
41
1
10
143.137968436392
20
8.37020109274766
30
0
41
1
10
143.243263321924
20
8.85691490577142
30
0
41
1
10
143.29591076469
20
9.08670077829152
30
0
41
1
10
143.401205650222
20
9.51642333637488
30
0
41
1
10
143.453853092988
20
9.71635766165218
30
0
41
1
10
143.559147978521
20
10.084545904159
30
0
41
1
10
143.611795421287
20
10.2527995884806
30
0
41
1
10
143.717090306819
20
10.5567190584445
30
0
41
1
10
143.769737749585
20
10.6923865906203
30
0
41
1
10
143.875032635117
20
10.9311264783031
30
0
41
1
10
143.927680077883
20
11.0342021968547
30
0
41
1
10
144.032974963415
20
11.2085731607331
30
0
41
1
10
144.085622406182
20
11.2798728890146
30
0
41
1
10
144.24356473448
20
11.4483768204938
30
0
41
1
10
144.348859620012
20
11.5
30
0
41
1
10
144.454154505544
20
11.5
30
0
0
SPLINE
5
EF
100
AcDbEntity
8
1
62
256
6
ByLayer
370
13
48
1
60
0
100
AcDbSpline
70
4
71
3
72
78
73
74
40
0
40
0
40
0
40
0
40
0.03125
40
0.03125
40
0.0625
40
0.0625
40
0.09375
40
0.09375
40
0.125
40
0.125
40
0.15625
40
0.15625
40
0.1875
40
0.1875
40
0.21875
40
0.21875
40
0.25
40
0.25
40
0.28125
40
0.28125
40
0.3125
40
0.3125
40
0.34375
40
0.34375
40
0.375
40
0.375
40
0.40625
40
0.40625
40
0.4140625
40
0.4140625
40
0.421875
40
0.421875
40
0.4375
40
0.4375
40
0.46875
40
0.46875
40
0.5
40
0.5
40
0.53125
40
0.53125
40
0.5625
40
0.5625
40
0.59375
40
0.59375
40
0.625
40
0.625
40
0.65625
40
0.65625
40
0.6875
40
0.6875
40
0.71875
40
0.71875
40
0.75
40
0.75
40
0.78125
40
0.78125
40
0.8125
40
0.8125
40
0.828125
40
0.828125
40
0.8359375
40
0.8359375
40
0.84375
40
0.84375
40
0.875
40
0.875
40
0.90625
40
0.90625
40
0.9375
40
0.9375
40
0.96875
40
0.96875
40
1
40
1
40
1
40
1
41
1
10
143.795141805301
20
11.5
30
0
41
1
10
143.863050143849
20
11.5
30
0
41
1
10
143.930958482397
20
11.4785929306576
30
0
41
1
10
144.066775159494
20
11.3877834054021
30
0
41
1
10
144.134683498043
20
11.3183625449163
30
0
41
1
10
144.270500175139
20
11.1275435735617
30
0
41
1
10
144.338408513687
20
11.0061284126301
30
0
41
1
10
144.474225190784
20
10.7091153807725
30
0
41
1
10
144.542133529332
20
10.5335049317774
30
0
41
1
10
144.677950206429
20
10.128129092246
30
0
41
1
10
144.745858544977
20
9.89835856115357
30
0
41
1
10
144.881675222074
20
9.38720031183922
30
0
41
1
10
144.949583560622
20
9.1058168310048
30
0
41
1
10
145.085400237719
20
8.49650009677899
30
0
41
1
10
145.153308576267
20
8.16858063936999
30
0
41
1
10
145.289125253364
20
7.47351726986511
30
0
41
1
10
145.357033591912
20
7.10639487717083
30
0
41
1
10
145.492850269009
20
6.34197009682254
30
0
41
1
10
145.560758607557
20
5.94469349592151
30
0
41
1
10
145.696575284654
20
5.12999966489548
30
0
41
1
10
145.764483623202
20
4.71260833760115
30
0
41
1
10
145.900300300299
20
3.86792767923339
30
0
41
1
10
145.968208638847
20
3.44066061088208
30
0
41
1
10
146.104025315943
20
2.585938085566
30
0
41
1
10
146.171933654492
20
2.15849873033696
30
0
41
1
10
146.307750331588
20
1.31202436091104
30
0
41
1
10
146.375658670137
20
0.89299833997697
30
0
41
1
10
146.460544093322
20
0.378904270356486
30
0
41
1
10
146.477521177959
20
0.276565944363597
30
0
41
1
10
146.511475347233
20
0.0729449050191704
30
0
41
1
10
146.52845243187
20
-0.0279976805381068
30
0
41
1
10
146.579383685781
20
-0.332958479578309
30
0
41
1
10
146.613337855056
20
-0.538407020665858
30
0
41
1
10
146.715200362878
20
-1.16001357360995
30
0
41
1
10
146.783108701427
20
-1.58148104636487
30
0
41
1
10
146.918925378523
20
-2.43112647726221
30
0
41
1
10
146.986833717071
20
-2.85929392449017
30
0
41
1
10
147.122650394168
20
-3.71348360430935
30
0
41
1
10
147.190558732716
20
-4.13948828931132
30
0
41
1
10
147.326375409813
20
-4.97948553667979
30
0
41
1
10
147.394283748361
20
-5.39345479874115
30
0
41
1
10
147.530100425458
20
-6.19912240222121
30
0
41
1
10
147.598008764006
20
-6.59079452173407
30
0
41
1
10
147.733825441103
20
-7.34197242341079
30
0
41
1
10
147.801733779651
20
-7.7014529867626
30
0
41
1
10
147.937550456748
20
-8.37950332744967
30
0
41
1
10
148.005458795296
20
-8.69805298475129
30
0
41
1
10
148.141275472393
20
-9.28734369640407
30
0
41
1
10
148.209183810941
20
-9.55807290420569
30
0
41
1
10
148.345000488038
20
-10.0471620196182
30
0
41
1
10
148.412908826586
20
-10.2655197706277
30
0
41
1
10
148.548725503683
20
-10.6478560344664
30
0
41
1
10
148.616633842231
20
-10.811841483058
30
0
41
1
10
148.752450519328
20
-11.0858981172623
30
0
41
1
10
148.820358857876
20
-11.1959831003162
30
0
41
1
10
148.956175534972
20
-11.3648577980424
30
0
41
1
10
149.024083873521
20
-11.4236651027713
30
0
41
1
10
149.125946381343
20
-11.4766220180677
30
0
41
1
10
149.159900550617
20
-11.4884099797576
30
0
41
1
10
149.210831804529
20
-11.4977787448194
30
0
41
1
10
149.227808889166
20
-11.4995166285975
30
0
41
1
10
149.26176305844
20
-11.5003080660664
30
0
41
1
10
149.278740143077
20
-11.4993710304306
30
0
41
1
10
149.363625566262
20
-11.487831402446
30
0
41
1
10
149.431533904811
20
-11.4565987223355
30
0
41
1
10
149.567350581907
20
-11.3451672977388
30
0
41
1
10
149.635258920456
20
-11.2649501952042
30
0
41
1
10
149.771075597552
20
-11.0519025173974
30
0
41
1
10
149.838983936101
20
-10.9190555761526
30
0
41
1
10
149.974800613197
20
-10.598984969996
30
0
41
1
10
150.042708951746
20
-10.4117500843109
30
0
41
1
10
150.178525628842
20
-9.98345067833543
30
0
41
1
10
150.24643396739
20
-9.74238290360609
30
0
41
1
10
150.314342305939
20
-9.47594270208558
30
0
0
SPLINE
5
F0
100
AcDbEntity
8
1
62
256
6
ByLayer
370
13
48
1
60
0
100
AcDbSpline
70
4
71
3
72
43
73
39
40
0
40
0
40
0
40
0
40
0.062500000000002
40
0.062500000000002
40
0.125000000000004
40
0.125000000000004
40
0.187500000000006
40
0.187500000000006
40
0.250000000000007
40
0.250000000000007
40
0.312500000000009
40
0.312500000000009
40
0.375000000000011
40
0.375000000000011
40
0.390625000000011
40
0.398437500000011
40
0.398437500000011
40
0.406250000000011
40
0.406250000000011
40
0.43750000000001
40
0.43750000000001
40
0.500000000000009
40
0.500000000000009
40
0.562500000000008
40
0.562500000000008
40
0.625000000000007
40
0.625000000000007
40
0.687500000000006
40
0.687500000000006
40
0.750000000000005
40
0.750000000000005
40
0.812500000000004
40
0.812500000000004
40
0.875000000000002
40
0.875000000000002
40
0.937500000000001
40
0.937500000000001
40
1
40
1
40
1
40
1
41
1
10
139.4
20
-10.0912268093362
30
0
41
1
10
139.495120947431
20
-9.77910841242436
30
0
41
1
10
139.590241894863
20
-9.41430118761016
30
0
41
1
10
139.780483789725
20
-8.59031975796609
30
0
41
1
10
139.875604737156
20
-8.13120853576592
30
0
41
1
10
140.065846632019
20
-7.1386350988252
30
0
41
1
10
140.16096757945
20
-6.60529360707918
30
0
41
1
10
140.351209474313
20
-5.49045993669364
30
0
41
1
10
140.446330421744
20
-4.90910887070868
30
0
41
1
10
140.636572316607
20
-3.72655438572016
30
0
41
1
10
140.731693264038
20
-3.1254709762483
30
0
41
1
10
140.921935158901
20
-1.92977745601482
30
0
41
1
10
141.017056106332
20
-1.33523970423912
30
0
41
1
10
141.135957290621
20
-0.609478713717181
30
0
41
1
10
141.171627645908
20
-0.393034636268027
30
0
41
1
10
141.207298001194
20
-0.17882296681725
30
0
41
1
10
141.231078238052
20
-0.0365423547925445
30
0
41
1
10
141.242968356481
20
0.0341956573279276
30
0
41
1
10
141.302418948626
20
0.389868115224459
30
0
41
1
10
141.349979422341
20
0.67864383124126
30
0
41
1
10
141.492660843488
20
1.55441932697701
30
0
41
1
10
141.58778179092
20
2.15104175553466
30
0
41
1
10
141.778023685782
20
3.34788523835562
30
0
41
1
10
141.873144633213
20
3.9480273684969
30
0
41
1
10
142.063386528076
20
5.12524129603247
30
0
41
1
10
142.158507475507
20
5.70218860431177
30
0
41
1
10
142.34874937037
20
6.80477382207434
30
0
41
1
10
142.443870317801
20
7.33027076430548
30
0
41
1
10
142.634112212664
20
8.30426066017415
30
0
41
1
10
142.729233160095
20
8.75263832744233
30
0
41
1
10
142.919475054957
20
9.55325040379824
30
0
41
1
10
143.014596002389
20
9.90543056206116
30
0
41
1
10
143.204837897251
20
10.5037263001875
30
0
41
1
10
143.299958844683
20
10.7498595429737
30
0
41
1
10
143.490200739545
20
11.1359210735314
30
0
41
1
10
143.585321686976
20
11.2759225642077
30
0
41
1
10
143.775563581839
20
11.4579132796987
30
0
41
1
10
143.87068452927
20
11.5
30
0
41
1
10
143.965805476701
20
11.5
30
0
0
SPLINE
5
F1
100
AcDbEntity
8
1
62
256
6
ByLayer
370
13
48
1
60
0
100
AcDbSpline
70
4
71
3
72
80
73
76
40
0
40
0
40
0
40
0
40
0.03125
40
0.03125
40
0.0625
40
0.0625
40
0.09375
40
0.09375
40
0.125
40
0.125
40
0.15625
40
0.15625
40
0.1875
40
0.1875
40
0.21875
40
0.21875
40
0.25
40
0.25
40
0.28125
40
0.28125
40
0.3125
40
0.3125
40
0.34375
40
0.34375
40
0.375
40
0.375
40
0.3828125
40
0.386718749999999
40
0.386718749999999
40
0.390624999999999
40
0.390624999999999
40
0.406249999999999
40
0.406249999999999
40
0.437499999999999
40
0.437499999999999
40
0.468749999999999
40
0.468749999999999
40
0.499999999999999
40
0.499999999999999
40
0.531249999999999
40
0.531249999999999
40
0.562499999999999
40
0.562499999999999
40
0.593749999999999
40
0.593749999999999
40
0.624999999999999
40
0.624999999999999
40
0.656249999999999
40
0.656249999999999
40
0.687499999999999
40
0.687499999999999
40
0.718749999999999
40
0.718749999999999
40
0.749999999999999
40
0.749999999999999
40
0.765624999999999
40
0.765624999999999
40
0.773437499999999
40
0.777343749999998
40
0.777343749999998
40
0.781249999999998
40
0.781249999999998
40
0.812499999999998
40
0.812499999999998
40
0.843749999999999
40
0.843749999999999
40
0.874999999999999
40
0.874999999999999
40
0.906249999999999
40
0.906249999999999
40
0.937499999999999
40
0.937499999999999
40
0.96875
40
0.96875
40
1
40
1
40
1
40
1
41
1
10
143.306792776458
20
11.5
30
0
41
1
10
143.379788084057
20
11.5
30
0
41
1
10
143.452783391656
20
11.4752579360249
30
0
41
1
10
143.598774006853
20
11.3699024702809
30
0
41
1
10
143.671769314452
20
11.2892626893851
30
0
41
1
10
143.817759929649
20
11.0673771705692
30
0
41
1
10
143.890755237248
20
10.926107668052
30
0
41
1
10
144.036745852446
20
10.5807004197948
30
0
41
1
10
144.109741160045
20
10.3765467149643
30
0
41
1
10
144.255731775242
20
9.90619741370216
30
0
41
1
10
144.328727082841
20
9.63999829571807
30
0
41
1
10
144.474717698038
20
9.04978200195359
30
0
41
1
10
144.547713005637
20
8.72577616466046
30
0
41
1
10
144.693703620835
20
8.02745700270359
30
0
41
1
10
144.766698928433
20
7.65316891680018
30
0
41
1
10
144.912689543631
20
6.86452660841985
30
0
41
1
10
144.98568485123
20
6.4502071534535
30
0
41
1
10
145.131675466427
20
5.5935542438194
30
0
41
1
10
145.204670774026
20
5.15125856211247
30
0
41
1
10
145.350661389223
20
4.2514014879884
30
0
41
1
10
145.423656696822
20
3.79387421360062
30
0
41
1
10
145.56964731202
20
2.87589497982236
30
0
41
1
10
145.642642619618
20
2.4154685480236
30
0
41
1
10
145.788633234816
20
1.5027131444744
30
0
41
1
10
145.861628542415
20
1.05039887875833
30
0
41
1
10
145.952872676913
20
0.495750534872911
30
0
41
1
10
145.980245917263
20
0.330154098360026
30
0
41
1
10
146.007619157612
20
0.165890259430995
30
0
41
1
10
146.025867984512
20
0.0566912027088051
30
0
41
1
10
146.034992397962
20
0.0023531427058288
30
0
41
1
10
146.080614465211
20
-0.270079191374094
30
0
41
1
10
146.11711211901
20
-0.490552703655595
30
0
41
1
10
146.226605080408
20
-1.15812904601671
30
0
41
1
10
146.299600388007
20
-1.61145235989253
30
0
41
1
10
146.445591003205
20
-2.52541283220057
30
0
41
1
10
146.518586310803
20
-2.98603440449727
30
0
41
1
10
146.664576926001
20
-3.90345872733079
30
0
41
1
10
146.7375722336
20
-4.36023514495466
30
0
41
1
10
146.883562848797
20
-5.25757527882649
30
0
41
1
10
146.956558156396
20
-5.69810437219442
30
0
41
1
10
147.102548771593
20
-6.55022150895107
30
0
41
1
10
147.175544079192
20
-6.96177176308152
30
0
41
1
10
147.32153469439
20
-7.74397683403515
30
0
41
1
10
147.394530001988
20
-8.11459742083474
30
0
41
1
10
147.540520617186
20
-8.80486992012322
30
0
41
1
10
147.613515924785
20
-9.12449758286024
30
0
41
1
10
147.759506539982
20
-9.70549298776714
30
0
41
1
10
147.832501847581
20
-9.96685059065507
30
0
41
1
10
147.978492462778
20
-10.4273255429818
30
0
41
1
10
148.051487770377
20
-10.6264475344804
30
0
41
1
10
148.197478385575
20
-10.961863445806
30
0
41
1
10
148.270473693174
20
-11.0981741357826
30
0
41
1
10
148.416464308371
20
-11.3104379425313
30
0
41
1
10
148.48945961597
20
-11.3864152194761
30
0
41
1
10
148.598952577368
20
-11.4587843893698
30
0
41
1
10
148.635450231168
20
-11.475991200643
30
0
41
1
10
148.690196711866
20
-11.492005267961
30
0
41
1
10
148.717569952216
20
-11.4975643497117
30
0
41
1
10
148.744943192565
20
-11.4995685624411
30
0
41
1
10
148.763192019465
20
-11.5001282434464
30
0
41
1
10
148.772316432915
20
-11.5000218350709
30
0
41
1
10
148.854436153964
20
-11.4955632854204
30
0
41
1
10
148.927431461562
20
-11.4665790628812
30
0
41
1
10
149.07342207676
20
-11.352288345997
30
0
41
1
10
149.146417384359
20
-11.2669555036963
30
0
41
1
10
149.292407999556
20
-11.0354029857733
30
0
41
1
10
149.365403307155
20
-10.8891599749609
30
0
41
1
10
149.511393922352
20
-10.5337518360353
30
0
41
1
10
149.584389229951
20
-10.3245715903206
30
0
41
1
10
149.730379845149
20
-9.8443801525448
30
0
41
1
10
149.803375152747
20
-9.57336657553967
30
0
41
1
10
149.949365767945
20
-8.97400468233175
30
0
41
1
10
150.022361075544
20
-8.6456688977365
30
0
41
1
10
150.168351690741
20
-7.93941711960406
30
0
41
1
10
150.24134699834
20
-7.56152732528577
30
0
41
1
10
150.314342305939
20
-7.16405916253098
30
0
0
SPLINE
5
F2
100
AcDbEntity
8
1
62
256
6
ByLayer
370
13
48
1
60
0
100
AcDbSpline
70
4
71
3
72
43
73
39
40
0
40
0
40
0
40
0
40
0.0624999999999977
40
0.0624999999999977
40
0.124999999999996
40
0.124999999999996
40
0.187499999999993
40
0.187499999999993
40
0.249999999999991
40
0.249999999999991
40
0.312499999999989
40
0.312499999999989
40
0.328124999999988
40
0.328124999999988
40
0.335937499999988
40
0.335937499999988
40
0.343749999999988
40
0.374999999999989
40
0.374999999999989
40
0.43749999999999
40
0.43749999999999
40
0.499999999999991
40
0.499999999999991
40
0.562499999999992
40
0.562499999999992
40
0.624999999999993
40
0.624999999999993
40
0.687499999999995
40
0.687499999999995
40
0.749999999999996
40
0.749999999999996
40
0.812499999999997
40
0.812499999999997
40
0.874999999999998
40
0.874999999999998
40
0.937499999999999
40
0.937499999999999
40
1
40
1
40
1
40
1
41
1
10
139.4
20
-8.05522345604584
30
0
41
1
10
139.48494700933
20
-7.63187574257924
30
0
41
1
10
139.569894018661
20
-7.17637866205257
30
0
41
1
10
139.739788037321
20
-6.21840475354335
30
0
41
1
10
139.824735046652
20
-5.71600671165868
30
0
41
1
10
139.994629065313
20
-4.68407260312554
30
0
41
1
10
140.079576074643
20
-4.15461354433296
30
0
41
1
10
140.249470093304
20
-3.08838653991015
30
0
41
1
10
140.334417102634
20
-2.55167739270911
30
0
41
1
10
140.504311121295
20
-1.48867205579003
30
0
41
1
10
140.589258130626
20
-0.962408315804311
30
0
41
1
10
140.695441892289
20
-0.319976113679388
30
0
41
1
10
140.716678644621
20
-0.192249999163494
30
0
41
1
10
140.74853377312
20
-0.0019380114560477
30
0
41
1
10
140.759152149286
20
0.0612776113373457
30
0
41
1
10
140.780388901619
20
0.188415727049744
30
0
41
1
10
140.83348078245
20
0.507305125024658
30
0
41
1
10
140.886572663282
20
0.831159745184806
30
0
41
1
10
141.013993177277
20
1.61553809210199
30
0
41
1
10
141.098940186608
20
2.14807034868019
30
0
41
1
10
141.268834205269
20
3.21666147255118
30
0
41
1
10
141.353781214599
20
3.75267660147247
30
0
41
1
10
141.52367523326
20
4.80947284975906
30
0
41
1
10
141.60862224259
20
5.33018610546026
30
0
41
1
10
141.778516261251
20
6.33628487085176
30
0
41
1
10
141.863463270581
20
6.82159030298055
30
0
41
1
10
142.033357289242
20
7.73772070073426
30
0
41
1
10
142.118304298572
20
8.16847194601189
30
0
41
1
10
142.288198317233
20
8.95966505985237
30
0
41
1
10
142.373145326564
20
9.32005807958262
30
0
41
1
10
142.543039345224
20
9.95993592464808
30
0
41
1
10
142.627986354555
20
10.2394076465257
30
0
41
1
10
142.797880373216
20
10.713035384752
30
0
41
1
10
142.882827382546
20
10.9072133060238
30
0
41
1
10
143.052721401207
20
11.2118912092684
30
0
41
1
10
143.137668410537
20
11.3224374995927
30
0
41
1
10
143.307562429198
20
11.4664639285356
30
0
41
1
10
143.392509438528
20
11.5
30
0
41
1
10
143.477456447859
20
11.5
30
0
0
SPLINE
5
F3
100
AcDbEntity
8
1
62
256
6
ByLayer
370
13
48
1
60
0
100
AcDbSpline
70
4
71
3
72
79
73
75
40
0
40
0
40
0
40
0
40
0.0312499999999998
40
0.0312499999999998
40
0.0624999999999997
40
0.0624999999999997
40
0.0937499999999995
40
0.0937499999999995
40
0.124999999999999
40
0.124999999999999
40
0.156249999999999
40
0.156249999999999
40
0.187499999999999
40
0.187499999999999
40
0.218749999999999
40
0.218749999999999
40
0.249999999999999
40
0.249999999999999
40
0.281249999999999
40
0.281249999999999
40
0.312499999999998
40
0.312499999999998
40
0.343749999999998
40
0.343749999999998
40
0.359374999999998
40
0.359374999999998
40
0.367187499999998
40
0.367187499999998
40
0.374999999999998
40
0.374999999999998
40
0.406249999999998
40
0.406249999999998
40
0.437499999999999
40
0.437499999999999
40
0.468749999999999
40
0.468749999999999
40
0.499999999999999
40
0.499999999999999
40
0.531249999999999
40
0.531249999999999
40
0.562499999999999
40
0.562499999999999
40
0.593749999999999
40
0.593749999999999
40
0.625
40
0.625
40
0.65625
40
0.65625
40
0.6875
40
0.6875
40
0.71875
40
0.71875
40
0.7265625
40
0.7265625
40
0.73046875
40
0.73046875
40
0.734375
40
0.75
40
0.75
40
0.78125
40
0.78125
40
0.8125
40
0.8125
40
0.84375
40
0.84375
40
0.875
40
0.875
40
0.90625
40
0.90625
40
0.9375
40
0.9375
40
0.96875
40
0.96875
40
1
40
1
40
1
40
1
41
1
10
142.818443747616
20
11.5
30
0
41
1
10
142.896526024265
20
11.5
30
0
41
1
10
142.974608300914
20
11.471679612282
30
0
41
1
10
143.130772854212
20
11.3506402029747
30
0
41
1
10
143.208855130862
20
11.2578843163178
30
0
41
1
10
143.36501968416
20
11.0024468278885
30
0
41
1
10
143.443101960809
20
10.8397330760841
30
0
41
1
10
143.599266514108
20
10.4422175624251
30
0
41
1
10
143.677348790757
20
10.207396667394
30
0
41
1
10
143.833513344055
20
9.66767092555884
30
0
41
1
10
143.911595620704
20
9.36276680633424
30
0
41
1
10
144.067760174003
20
8.68934471554405
30
0
41
1
10
144.145842450652
20
8.32084979995142
30
0
41
1
10
144.30200700395
20
7.53082960264365
30
0
41
1
10
144.3800892806
20
7.10934616932022
30
0
41
1
10
144.536253833898
20
6.22705257172692
30
0
41
1
10
144.614336110547
20
5.76629430867507
30
0
41
1
10
144.770500663846
20
4.82083079570671
30
0
41
1
10
144.848582940495
20
4.33617658054914
30
0
41
1
10
145.004747493793
20
3.35839030883184
30
0
41
1
10
145.082829770442
20
2.86529903726216
30
0
41
1
10
145.238994323741
20
1.88478643804976
30
0
41
1
10
145.31707660039
20
1.39739039247297
30
0
41
1
10
145.434200015364
20
0.679413385735927
30
0
41
1
10
145.473241153688
20
0.442253426113325
30
0
41
1
10
145.531802861175
20
0.0906700709269614
30
0
41
1
10
145.551323430338
20
-0.0253692045670277
30
0
41
1
10
145.590364568662
20
-0.259237361548912
30
0
41
1
10
145.609885137824
20
-0.376875756491216
30
0
41
1
10
145.707487983636
20
-0.968230435969218
30
0
41
1
10
145.785570260285
20
-1.45154399888037
30
0
41
1
10
145.941734813584
20
-2.42766398512444
30
0
41
1
10
146.019817090233
20
-2.92045002712123
30
0
41
1
10
146.175981643531
20
-3.9020068988047
30
0
41
1
10
146.25406392018
20
-4.39074121371908
30
0
41
1
10
146.410228473479
20
-5.34900991810414
30
0
41
1
10
146.488310750128
20
-5.81849548793178
30
0
41
1
10
146.644475303427
20
-6.7227051051226
30
0
41
1
10
146.722557580075
20
-7.15737637059746
30
0
41
1
10
146.878722133374
20
-7.97757918960326
30
0
41
1
10
146.956804410023
20
-8.36306483030805
30
0
41
1
10
147.112968963322
20
-9.07322497138455
30
0
41
1
10
147.191051239971
20
-9.3978701982717
30
0
41
1
10
147.347215793269
20
-9.97854769558353
30
0
41
1
10
147.425298069918
20
-10.2345726133872
30
0
41
1
10
147.581462623217
20
-10.6746416970718
30
0
41
1
10
147.659544899866
20
-10.8586996717598
30
0
41
1
10
147.815709453164
20
-11.1557956178157
30
0
41
1
10
147.893791729814
20
-11.2688627368419
30
0
41
1
10
148.049956283112
20
-11.428595642299
30
0
41
1
10
148.128038559761
20
-11.4752977299209
30
0
41
1
10
148.225641405573
20
-11.4967134392277
30
0
41
1
10
148.245161974735
20
-11.4991533804199
30
0
41
1
10
148.274442828478
20
-11.5001457491205
30
0
41
1
10
148.28420311306
20
-11.5000344322497
30
0
41
1
10
148.303723682222
20
-11.4989214337214
30
0
41
1
10
148.352525105128
20
-11.493906762755
30
0
41
1
10
148.401326528033
20
-11.4775163715701
30
0
41
1
10
148.518449943007
20
-11.4148640107522
30
0
41
1
10
148.596532219656
20
-11.3419259653186
30
0
41
1
10
148.752696772955
20
-11.1274580555911
30
0
41
1
10
148.830779049604
20
-10.9858937882853
30
0
41
1
10
148.986943602902
20
-10.6309124976026
30
0
41
1
10
149.065025879552
20
-10.4174716400555
30
0
41
1
10
149.22119043285
20
-9.91944726766278
30
0
41
1
10
149.299272709499
20
-9.63485808457406
30
0
41
1
10
149.455437262797
20
-8.99968818532508
30
0
41
1
10
149.533519539447
20
-8.64912399088723
30
0
41
1
10
149.689684092745
20
-7.89144414785633
30
0
41
1
10
149.767766369394
20
-7.48436549228356
30
0
41
1
10
149.923930922693
20
-6.6265702874457
30
0
41
1
10
150.002013199342
20
-6.17590377105972
30
0
41
1
10
150.15817775264
20
-5.24598093352876
30
0
41
1
10
150.236260029289
20
-4.76677701819835
30
0
41
1
10
150.314342305939
20
-4.28107981742326
30
0
0
SPLINE
5
F4
100
AcDbEntity
8
1
62
256
6
ByLayer
370
13
48
1
60
0
100
AcDbSpline
70
4
71
3
72
44
73
40
40
0
40
0
40
0
40
0
40
0.0625000000000001
40
0.0625000000000001
40
0.125
40
0.125
40
0.1875
40
0.1875
40
0.21875
40
0.21875
40
0.234375
40
0.234375
40
0.2421875
40
0.2421875
40
0.25
40
0.25
40
0.3125
40
0.3125
40
0.375
40
0.375
40
0.4375
40
0.4375
40
0.5
40
0.5
40
0.5625
40
0.5625
40
0.625
40
0.625
40
0.6875
40
0.6875
40
0.75
40
0.75
40
0.8125
40
0.8125
40
0.875
40
0.875
40
0.9375
40
0.9375
40
1
40
1
40
1
40
1
41
1
10
139.4
20
-5.329325873692
30
0
41
1
10
139.474773071229
20
-4.87721093712247
30
0
41
1
10
139.549546142459
20
-4.41397902240192
30
0
41
1
10
139.699092284918
20
-3.47880415244003
30
0
41
1
10
139.773865356147
20
-3.00689479473923
30
0
41
1
10
139.923411498607
20
-2.06692951017357
30
0
41
1
10
139.998184569836
20
-1.59889540601344
30
0
41
1
10
140.11034417668
20
-0.907743831235308
30
0
41
1
10
140.147730712295
20
-0.679159860511561
30
0
41
1
10
140.203810515717
20
-0.339819757405678
30
0
41
1
10
140.222503783525
20
-0.227294525133146
30
0
41
1
10
140.250543685236
20
-0.05948269193172
30
0
41
1
10
140.259890319139
20
-0.0038192795579164
30
0
41
1
10
140.278583586947
20
0.1078070836503
30
0
41
1
10
140.28793022085
20
0.163785682565219
30
0
41
1
10
140.372049925984
20
0.669013840740064
30
0
41
1
10
140.446822997213
20
1.12830740671569
30
0
41
1
10
140.596369139672
20
2.05819836894133
30
0
41
1
10
140.671142210902
20
2.528782476548
30
0
41
1
10
140.820688353361
20
3.46991249931463
30
0
41
1
10
140.89546142459
20
3.94043249047607
30
0
41
1
10
141.045007567049
20
4.86843998774771
30
0
41
1
10
141.119780638279
20
5.32589077055337
30
0
41
1
10
141.269326780738
20
6.21406351646186
30
0
41
1
10
141.344099851967
20
6.64474314439849
30
0
41
1
10
141.493645994426
20
7.46618439202371
30
0
41
1
10
141.568419065656
20
7.85690568455527
30
0
41
1
10
141.717965208115
20
8.58701929624945
30
0
41
1
10
141.792738279344
20
8.92638120524768
30
0
41
1
10
141.942284421803
20
9.54523412771709
30
0
41
1
10
142.017057493033
20
9.82471030706725
30
0
41
1
10
142.166603635492
20
10.3188163034843
30
0
41
1
10
142.241376706721
20
10.5334485193684
30
0
41
1
10
142.39092284918
20
10.8966463440405
30
0
41
1
10
142.46569592041
20
11.0452290723419
30
0
41
1
10
142.615242062869
20
11.2785568421336
30
0
41
1
10
142.690015134098
20
11.3633283813725
30
0
41
1
10
142.839561276557
20
11.4740350940114
30
0
41
1
10
142.914334347787
20
11.5
30
0
41
1
10
142.989107419016
20
11.5
30
0
0
SPLINE
5
F5
100
AcDbEntity
8
1
62
256
6
ByLayer
370
13
48
1
60
0
100
AcDbSpline
70
4
71
3
72
79
73
75
40
0
40
0
40
0
40
0
40
0.0312499999999986
40
0.0312499999999986
40
0.0624999999999972
40
0.0624999999999972
40
0.0937499999999958
40
0.0937499999999958
40
0.124999999999994
40
0.124999999999994
40
0.156249999999993
40
0.156249999999993
40
0.187499999999992
40
0.187499999999992
40
0.21874999999999
40
0.21874999999999
40
0.249999999999989
40
0.249999999999989
40
0.281249999999987
40
0.281249999999987
40
0.312499999999986
40
0.312499999999986
40
0.328124999999985
40
0.328124999999985
40
0.335937499999985
40
0.339843749999985
40
0.339843749999985
40
0.343749999999985
40
0.343749999999985
40
0.374999999999985
40
0.374999999999985
40
0.406249999999986
40
0.406249999999986
40
0.437499999999987
40
0.437499999999987
40
0.468749999999988
40
0.468749999999988
40
0.499999999999989
40
0.499999999999989
40
0.531249999999989
40
0.531249999999989
40
0.56249999999999
40
0.56249999999999
40
0.593749999999991
40
0.593749999999991
40
0.624999999999992
40
0.624999999999992
40
0.656249999999993
40
0.656249999999993
40
0.671874999999993
40
0.671874999999993
40
0.679687499999993
40
0.679687499999993
40
0.687499999999994
40
0.687499999999994
40
0.718749999999994
40
0.718749999999994
40
0.749999999999995
40
0.749999999999995
40
0.781249999999996
40
0.781249999999996
40
0.812499999999996
40
0.812499999999996
40
0.843749999999997
40
0.843749999999997
40
0.874999999999998
40
0.874999999999998
40
0.906249999999998
40
0.906249999999998
40
0.937499999999999
40
0.937499999999999
40
0.968749999999999
40
0.968749999999999
40
1
40
1
40
1
40
1
41
1
10
142.330094718773
20
11.5
30
0
41
1
10
142.413263964473
20
11.5
30
0
41
1
10
142.496433210172
20
11.4678573519568
30
0
41
1
10
142.662771701571
20
11.3299858533118
30
0
41
1
10
142.745940947271
20
11.2242066162331
30
0
41
1
10
142.91227943867
20
10.9327184560528
30
0
41
1
10
142.99544868437
20
10.7469672101585
30
0
41
1
10
143.161787175769
20
10.2936811104718
30
0
41
1
10
143.244956421469
20
10.0261248012551
30
0
41
1
10
143.411294912868
20
9.41287002824035
30
0
41
1
10
143.494464158568
20
9.06718054033414
30
0
41
1
10
143.660802649967
20
8.30701462625353
30
0
41
1
10
143.743971895667
20
7.89257908988299
30
0
41
1
10
143.910310387066
20
7.00923818317466
30
0
41
1
10
143.993479632766
20
6.54039719146843
30
0
41
1
10
144.159818124165
20
5.56590358605587
30
0
41
1
10
144.242987369865
20
5.06032333453231
30
0
41
1
10
144.409325861264
20
4.03123512335486
30
0
41
1
10
144.492495106964
20
3.50779104270546
30
0
41
1
10
144.658833598363
20
2.46097955409459
30
0
41
1
10
144.742002844063
20
1.93765602616324
30
0
41
1
10
144.866756712612
20
1.1643310247064
30
0
41
1
10
144.908341335462
20
0.908475566720199
30
0
41
1
10
144.970718269737
20
0.528776548394461
30
0
41
1
10
145.001906736874
20
0.339945434256123
30
0
41
1
10
145.033095204011
20
0.152843417771237
30
0
41
1
10
145.053887515436
20
0.0285136571499436
30
0
41
1
10
145.064283671149
20
-0.03335059082778
30
0
41
1
10
145.157849072561
20
-0.592929183792762
30
0
41
1
10
145.24101831826
20
-1.1034288632826
30
0
41
1
10
145.40735680966
20
-2.13821994008887
30
0
41
1
10
145.490526055359
20
-2.66248827023532
30
0
41
1
10
145.656864546759
20
-3.70899934379708
30
0
41
1
10
145.740033792458
20
-4.23119526275508
30
0
41
1
10
145.906372283858
20
-5.25537689643639
30
0
41
1
10
145.989541529557
20
-5.75729685257758
30
0
41
1
10
146.155880020956
20
-6.7220900642113
30
0
41
1
10
146.239049266656
20
-7.18489101443575
30
0
41
1
10
146.405387758055
20
-8.05408349195855
30
0
41
1
10
146.488557003755
20
-8.46041288260128
30
0
41
1
10
146.654895495155
20
-9.20285629293397
30
0
41
1
10
146.738064740854
20
-9.53893324488982
30
0
41
1
10
146.904403232253
20
-10.1321634485783
30
0
41
1
10
146.987572477953
20
-10.3893119161707
30
0
41
1
10
147.153910969352
20
-10.8217209174257
30
0
41
1
10
147.237080215052
20
-10.9970062391811
30
0
41
1
10
147.403418706451
20
-11.2681492481067
30
0
41
1
10
147.486587952151
20
-11.364051015684
30
0
41
1
10
147.6113418207
20
-11.4534381946931
30
0
41
1
10
147.65292644355
20
-11.4741858307942
30
0
41
1
10
147.715303377825
20
-11.4925824696375
30
0
41
1
10
147.73609568925
20
-11.4965951289842
30
0
41
1
10
147.7776803121
20
-11.5005355627383
30
0
41
1
10
147.798472623525
20
-11.5004840082568
30
0
41
1
10
147.902434180649
20
-11.4901019011727
30
0
41
1
10
147.985603426349
20
-11.4489916193316
30
0
41
1
10
148.151941917748
20
-11.2921684665563
30
0
41
1
10
148.235111163448
20
-11.1764055455543
30
0
41
1
10
148.401449654847
20
-10.8644342323624
30
0
41
1
10
148.484618900547
20
-10.6681854925161
30
0
41
1
10
148.650957391946
20
-10.1940506350276
30
0
41
1
10
148.734126637645
20
-9.91614655908069
30
0
41
1
10
148.900465129045
20
-9.28308270790123
30
0
41
1
10
148.983634374744
20
-8.92793612751231
30
0
41
1
10
149.149972866144
20
-8.15044143304362
30
0
41
1
10
149.233142111843
20
-7.72813788817911
30
0
41
1
10
149.399480603243
20
-6.83118047229775
30
0
41
1
10
149.482649848942
20
-6.35659295789284
30
0
41
1
10
149.648988340342
20
-5.3730061291933
30
0
41
1
10
149.732157586041
20
-4.86407895459092
30
0
41
1
10
149.898496077441
20
-3.83069579634468
30
0
41
1
10
149.98166532314
20
-3.30630161894334
30
0
41
1
10
150.148003814539
20
-2.25974319531281
30
0
41
1
10
150.231173060239
20
-1.73761982345243
30
0
41
1
10
150.314342305939
20
-1.22414144107665
30
0
0
SPLINE
5
F6
100
AcDbEntity
8
1
62
256
6
ByLayer
370
13
48
1
60
0
100
AcDbSpline
70
4
71
3
72
42
73
38
40
0
40
0
40
0
40
0
40
0.0624999999999998
40
0.0624999999999998
40
0.0937499999999998
40
0.0937499999999998
40
0.109375
40
0.109375
40
0.125
40
0.125
40
0.1875
40
0.1875
40
0.25
40
0.25
40
0.3125
40
0.3125
40
0.374999999999999
40
0.374999999999999
40
0.437499999999999
40
0.437499999999999
40
0.499999999999999
40
0.499999999999999
40
0.562499999999999
40
0.562499999999999
40
0.624999999999999
40
0.624999999999999
40
0.687499999999999
40
0.687499999999999
40
0.749999999999999
40
0.749999999999999
40
0.8125
40
0.8125
40
0.875
40
0.875
40
0.9375
40
0.9375
40
1
40
1
40
1
40
1
41
1
10
139.4
20
-2.28752007146645
30
0
41
1
10
139.464599133129
20
-1.88221073786497
30
0
41
1
10
139.529198266257
20
-1.47909989746984
30
0
41
1
10
139.62609696595
20
-0.882761330343328
30
0
41
1
10
139.658396532515
20
-0.685360216595058
30
0
41
1
10
139.706845882361
20
-0.391864256700757
30
0
41
1
10
139.722995665643
20
-0.294465901054849
30
0
41
1
10
139.755295232207
20
-0.100618198404163
30
0
41
1
10
139.771445015489
20
-0.0045018720916232
30
0
41
1
10
139.8521939319
20
0.478368063755084
30
0
41
1
10
139.916793065029
20
0.87253598872519
30
0
41
1
10
140.045991331286
20
1.67099973202511
30
0
41
1
10
140.110590464415
20
2.07529053535174
30
0
41
1
10
140.239788730672
20
2.88709033764266
30
0
41
1
10
140.304387863801
20
3.29458907190551
30
0
41
1
10
140.433586130058
20
4.10482963580824
30
0
41
1
10
140.498185263186
20
4.50755617285529
30
0
41
1
10
140.627383529444
20
5.29959704416643
30
0
41
1
10
140.691982662572
20
5.688892327205
30
0
41
1
10
140.82118092883
20
6.44525637271667
30
0
41
1
10
140.885780061958
20
6.81230458576175
30
0
41
1
10
141.014978328215
20
7.51580482481427
30
0
41
1
10
141.079577461344
20
7.85223767138979
30
0
41
1
10
141.208775727601
20
8.48718959143383
30
0
41
1
10
141.27337486073
20
8.78569369243203
30
0
41
1
10
141.402573126987
20
9.33904557290833
30
0
41
1
10
141.467172260116
20
9.59388469907668
30
0
41
1
10
141.596370526373
20
10.0561007444445
30
0
41
1
10
141.660969659502
20
10.2634762174878
30
0
41
1
10
141.790167925759
20
10.6290493806683
30
0
41
1
10
141.854767058887
20
10.7872523655963
30
0
41
1
10
141.983965325145
20
11.0547945148981
30
0
41
1
10
142.048564458273
20
11.1641441517408
30
0
41
1
10
142.177762724531
20
11.3360796809896
30
0
41
1
10
142.242361857659
20
11.3986790721358
30
0
41
1
10
142.371560123916
20
11.480632061288
30
0
41
1
10
142.436159257045
20
11.5
30
0
41
1
10
142.500758390174
20
11.5
30
0
0
SPLINE
5
F7
100
AcDbEntity
8
1
62
256
6
ByLayer
370
13
48
1
60
0
100
AcDbSpline
70
4
71
3
72
84
73
80
40
0
40
0
40
0
40
0
40
0.0312499999999998
40
0.0312499999999998
40
0.0624999999999996
40
0.0624999999999996
40
0.0937499999999993
40
0.0937499999999993
40
0.124999999999999
40
0.124999999999999
40
0.156249999999999
40
0.156249999999999
40
0.187499999999999
40
0.187499999999999
40
0.218749999999999
40
0.218749999999999
40
0.249999999999998
40
0.249999999999998
40
0.281249999999998
40
0.281249999999998
40
0.312499999999998
40
0.312499999999998
40
0.320312499999998
40
0.320312499999998
40
0.324218749999998
40
0.324218749999998
40
0.328124999999998
40
0.343749999999998
40
0.343749999999998
40
0.374999999999997
40
0.374999999999997
40
0.406249999999997
40
0.406249999999997
40
0.437499999999997
40
0.437499999999997
40
0.468749999999997
40
0.468749999999997
40
0.499999999999996
40
0.499999999999996
40
0.531249999999996
40
0.531249999999996
40
0.562499999999996
40
0.562499999999996
40
0.593749999999996
40
0.593749999999996
40
0.624999999999996
40
0.624999999999996
40
0.640624999999996
40
0.640624999999996
40
0.648437499999996
40
0.648437499999996
40
0.656249999999996
40
0.656249999999996
40
0.687499999999996
40
0.687499999999996
40
0.718749999999996
40
0.718749999999996
40
0.749999999999996
40
0.749999999999996
40
0.781249999999997
40
0.781249999999997
40
0.812499999999997
40
0.812499999999997
40
0.843749999999997
40
0.843749999999997
40
0.874999999999997
40
0.874999999999997
40
0.906249999999998
40
0.906249999999998
40
0.937499999999998
40
0.937499999999998
40
0.953124999999998
40
0.953124999999998
40
0.960937499999998
40
0.964843749999999
40
0.964843749999999
40
0.968749999999999
40
0.968749999999999
40
1
40
1
40
1
40
1
41
1
10
141.84174568993
20
11.5
30
0
41
1
10
141.93000190468
20
11.5
30
0
41
1
10
142.01825811943
20
11.4637904859287
30
0
41
1
10
142.194770548931
20
11.3079289820191
30
0
41
1
10
142.283026763681
20
11.1882094705474
30
0
41
1
10
142.459539193181
20
10.8581631068029
30
0
41
1
10
142.547795407931
20
10.6477819402948
30
0
41
1
10
142.724307837431
20
10.1351325874009
30
0
41
1
10
142.812564052181
20
9.83284239850536
30
0
41
1
10
142.989076481681
20
9.14219734753394
30
0
41
1
10
143.077332696431
20
8.75386539347093
30
0
41
1
10
143.253845125932
20
7.90408547390933
30
0
41
1
10
143.342101340682
20
7.44270387592653
30
0
41
1
10
143.518613770182
20
6.46553897604102
30
0
41
1
10
143.606869984932
20
5.94984879471568
30
0
41
1
10
143.783382414432
20
4.88607698166444
30
0
41
1
10
143.871638629182
20
4.33809017985169
30
0
41
1
10
144.048151058682
20
3.23211225029974
30
0
41
1
10
144.136407273433
20
2.67419516292887
30
0
41
1
10
144.312919702933
20
1.56850766051073
30
0
41
1
10
144.401175917683
20
1.02077862763005
30
0
41
1
10
144.51149618612
20
0.352552301042039
30
0
41
1
10
144.533560239808
20
0.219717723990499
30
0
41
1
10
144.566656320339
20
0.0218362444641116
30
0
41
1
10
144.577688347183
20
-0.0438095607015896
30
0
41
1
10
144.599752400871
20
-0.175831798547904
30
0
41
1
10
144.654912535089
20
-0.507018933346899
30
0
41
1
10
144.710072669308
20
-0.843579438238606
30
0
41
1
10
144.842456991433
20
-1.65893933191091
30
0
41
1
10
144.930713206183
20
-2.21279283052621
30
0
41
1
10
145.107225635684
20
-3.3233199238831
30
0
41
1
10
145.195481850434
20
-3.87993884299831
30
0
41
1
10
145.371994279934
20
-4.97477088209291
30
0
41
1
10
145.460250494684
20
-5.51289977384582
30
0
41
1
10
145.636762924184
20
-6.54819439611313
30
0
41
1
10
145.725019138934
20
-7.04526291025982
30
0
41
1
10
145.901531568434
20
-7.97734535803019
30
0
41
1
10
145.989787783184
20
-8.41227382778499
30
0
41
1
10
146.166300212685
20
-9.20329060158107
30
0
41
1
10
146.254556427435
20
-9.55932822001824
30
0
41
1
10
146.431068856935
20
-10.1822077341517
30
0
41
1
10
146.519325071685
20
-10.4490449034905
30
0
41
1
10
146.695837501185
20
-10.8904577275876
30
0
41
1
10
146.784093715935
20
-11.0650700096564
30
0
41
1
10
146.960606145435
20
-11.3257465099098
30
0
41
1
10
147.048862360185
20
-11.4118725062906
30
0
41
1
10
147.181246682311
20
-11.4813605502861
30
0
41
1
10
147.225374789686
20
-11.4946076862785
30
0
41
1
10
147.291566950748
20
-11.5006789895704
30
0
41
1
10
147.313631004436
20
-11.5004305959219
30
0
41
1
10
147.357759111811
20
-11.4953579693477
30
0
41
1
10
147.379823165498
20
-11.490512573671
30
0
41
1
10
147.490143433936
20
-11.4542825013319
30
0
41
1
10
147.578399648686
20
-11.3867465791035
30
0
41
1
10
147.754912078186
20
-11.1648594691823
30
0
41
1
10
147.843168292936
20
-11.0104435895347
30
0
41
1
10
148.019680722436
20
-10.6097191506694
30
0
41
1
10
148.107936937187
20
-10.3633667270804
30
0
41
1
10
148.284449366687
20
-9.78016348960907
30
0
41
1
10
148.372705581437
20
-9.44330729308965
30
0
41
1
10
148.549218010937
20
-8.68776409171184
30
0
41
1
10
148.637474225687
20
-8.26911797305647
30
0
41
1
10
148.813986655187
20
-7.36541973776937
30
0
41
1
10
148.902242869937
20
-6.88044706312402
30
0
41
1
10
149.078755299437
20
-5.86442726484162
30
0
41
1
10
149.167011514188
20
-5.33347700347926
30
0
41
1
10
149.343523943688
20
-4.24800456640008
30
0
41
1
10
149.431780158438
20
-3.69357133899666
30
0
41
1
10
149.608292587938
20
-2.58292265855985
30
0
41
1
10
149.696548802688
20
-2.02676924956148
30
0
41
1
10
149.828933124813
20
-1.20526359981306
30
0
41
1
10
149.873061232188
20
-0.933519618614042
30
0
41
1
10
149.939253393251
20
-0.530488926254918
30
0
41
1
10
149.972349473782
20
-0.33011655286299
30
0
41
1
10
150.005445554313
20
-0.131699307089519
30
0
41
1
10
150.027509608001
20
0.0001198197383872
30
0
41
1
10
150.038541634845
20
0.0658000288419487
30
0
41
1
10
150.137829876439
20
0.660352980302491
30
0
41
1
10
150.226086091189
20
1.20346794439072
30
0
41
1
10
150.314342305939
20
1.75367798989561
30
0
0
SPLINE
5
F8
100
AcDbEntity
8
1
62
256
6
ByLayer
370
13
48
1
60
0
100
AcDbSpline
70
4
71
3
72
38
73
34
40
0
40
0
40
0
40
0
40
0.0625
40
0.0625
40
0.125
40
0.125
40
0.1875
40
0.1875
40
0.25
40
0.25
40
0.3125
40
0.3125
40
0.375
40
0.375
40
0.4375
40
0.4375
40
0.5
40
0.5
40
0.5625
40
0.5625
40
0.625
40
0.625
40
0.6875
40
0.6875
40
0.75
40
0.75
40
0.8125
40
0.8125
40
0.875
40
0.875
40
0.9375
40
0.9375
40
1
40
1
40
1
40
1
41
1
10
139.4
20
0.700549776160585
30
0
41
1
10
139.454425195028
20
1.03226426323451
30
0
41
1
10
139.508850390055
20
1.36857752762398
30
0
41
1
10
139.617700780111
20
2.04669294366616
30
0
41
1
10
139.672125975139
20
2.38849217551589
30
0
41
1
10
139.780976365194
20
3.07324936434537
30
0
41
1
10
139.835401560222
20
3.41620250285246
30
0
41
1
10
139.944251950277
20
4.09843396093041
30
0
41
1
10
139.998677145305
20
4.43770568974369
30
0
41
1
10
140.10752753536
20
5.10740929444566
30
0
41
1
10
140.161952730388
20
5.43783320576586
30
0
41
1
10
140.270803120444
20
6.08456481138438
30
0
41
1
10
140.325228315471
20
6.40086382346976
30
0
41
1
10
140.434078705527
20
7.01421042975986
30
0
41
1
10
140.488503900554
20
7.31124946276648
30
0
41
1
10
140.59735429061
20
7.88134412518349
30
0
41
1
10
140.651779485638
20
8.15439220787852
30
0
41
1
10
140.760629875693
20
8.67242128878561
30
0
41
1
10
140.815055070721
20
8.91739654975913
30
0
41
1
10
140.923905460776
20
9.37604680723788
30
0
41
1
10
140.978330655804
20
9.58971843204796
30
0
41
1
10
141.08718104586
20
9.98351725939426
30
0
41
1
10
141.141606240887
20
10.163643682235
30
0
41
1
10
141.250456630943
20
10.4891597875274
30
0
41
1
10
141.30488182597
20
10.6345511602953
30
0
41
1
10
141.413732216026
20
10.8904422330724
30
0
41
1
10
141.468157411054
20
11.0009456757899
30
0
41
1
10
141.577007801109
20
11.187859977499
30
0
41
1
10
141.631432996137
20
11.264276022104
30
0
41
1
10
141.740283386192
20
11.3846322081683
30
0
41
1
10
141.79470858122
20
11.4285782997448
30
0
41
1
10
141.903558971275
20
11.4862591563827
30
0
41
1
10
141.957984166303
20
11.5
30
0
41
1
10
142.012409361331
20
11.5
30
0
0
SPLINE
5
F9
100
AcDbEntity
8
1
62
256
6
ByLayer
370
13
48
1
60
0
100
AcDbSpline
70
4
71
3
72
84
73
80
40
0
40
0
40
0
40
0
40
0.0312500000000007
40
0.0312500000000007
40
0.0625000000000015
40
0.0625000000000015
40
0.0937500000000022
40
0.0937500000000022
40
0.125000000000003
40
0.125000000000003
40
0.156250000000004
40
0.156250000000004
40
0.187500000000004
40
0.187500000000004
40
0.218750000000005
40
0.218750000000005
40
0.250000000000006
40
0.250000000000006
40
0.281250000000007
40
0.281250000000007
40
0.296875000000007
40
0.296875000000007
40
0.304687500000007
40
0.304687500000007
40
0.312500000000007
40
0.312500000000007
40
0.343750000000007
40
0.343750000000007
40
0.375000000000006
40
0.375000000000006
40
0.406250000000006
40
0.406250000000006
40
0.437500000000005
40
0.437500000000005
40
0.468750000000005
40
0.468750000000005
40
0.500000000000004
40
0.500000000000004
40
0.531250000000004
40
0.531250000000004
40
0.562500000000003
40
0.562500000000003
40
0.593750000000003
40
0.593750000000003
40
0.601562500000003
40
0.601562500000003
40
0.609375000000003
40
0.609375000000003
40
0.625000000000003
40
0.625000000000003
40
0.656250000000002
40
0.656250000000002
40
0.687500000000001
40
0.687500000000001
40
0.718750000000001
40
0.718750000000001
40
0.75
40
0.75
40
0.781249999999999
40
0.781249999999999
40
0.812499999999998
40
0.812499999999998
40
0.843749999999998
40
0.843749999999998
40
0.874999999999997
40
0.874999999999997
40
0.906249999999996
40
0.906249999999996
40
0.910156249999996
40
0.910156249999996
40
0.914062499999996
40
0.914062499999996
40
0.921874999999997
40
0.921874999999997
40
0.937499999999997
40
0.937499999999997
40
0.968749999999999
40
0.968749999999999
40
1
40
1
40
1
40
1
41
1
10
141.353396661088
20
11.5
30
0
41
1
10
141.446739844888
20
11.5
30
0
41
1
10
141.540083028689
20
11.4594782808448
30
0
41
1
10
141.72676939629
20
11.2844594711603
30
0
41
1
10
141.82011258009
20
11.1498734805508
30
0
41
1
10
142.006798947691
20
10.7787571599929
30
0
41
1
10
142.100142131492
20
10.5421587923662
30
0
41
1
10
142.286828499093
20
9.96664128854988
30
0
41
1
10
142.380171682893
20
9.62770262550146
30
0
41
1
10
142.566858050495
20
8.85613635100037
30
0
41
1
10
142.660201234295
20
8.42355323757417
30
0
41
1
10
142.846887601896
20
7.48200445171526
30
0
41
1
10
142.940230785697
20
6.97313966173195
30
0
41
1
10
143.126917153298
20
5.90277343019025
30
0
41
1
10
143.220260337098
20
5.34139968898083
30
0
41
1
10
143.406946704699
20
4.19264194635221
30
0
41
1
10
143.5002898885
20
3.60537514108591
30
0
41
1
10
143.686976256101
20
2.43052189549826
30
0
41
1
10
143.780319439901
20
1.84301439044992
30
0
41
1
10
143.920334215602
20
0.977804015346436
30
0
41
1
10
143.967005807502
20
0.692037408865048
30
0
41
1
10
144.037013195353
20
0.268982401231853
30
0
41
1
10
144.060348991303
20
0.128991676421236
30
0
41
1
10
144.107020583203
20
-0.149291129683462
30
0
41
1
10
144.130356379154
20
-0.28947596796948
30
0
41
1
10
144.247035358904
20
-0.995017862317525
30
0
41
1
10
144.340378542705
20
-1.5744496903086
30
0
41
1
10
144.527064910306
20
-2.74433580361548
30
0
41
1
10
144.620408094106
20
-3.33473427887071
30
0
41
1
10
144.807094461707
20
-4.50258854511094
30
0
41
1
10
144.900437645508
20
-5.079943426179
30
0
41
1
10
145.087124013109
20
-6.19514411840075
30
0
41
1
10
145.180467196909
20
-6.73286293120751
30
0
41
1
10
145.367153564511
20
-7.74313556455894
30
0
41
1
10
145.460496748311
20
-8.21557081210901
30
0
41
1
10
145.647183115912
20
-9.07435771877212
30
0
41
1
10
145.740526299713
20
-9.46063485371553
30
0
41
1
10
145.927212667314
20
-10.1339504401637
30
0
41
1
10
146.020555851114
20
-10.4209778366
30
0
41
1
10
146.207242218715
20
-10.8917391342661
30
0
41
1
10
146.300585402516
20
-11.0755204568317
30
0
41
1
10
146.487271770117
20
-11.3442477491234
30
0
41
1
10
146.580614953917
20
-11.4292760679798
30
0
41
1
10
146.697293933668
20
-11.4806157549289
30
0
41
1
10
146.720629729618
20
-11.4881484608979
30
0
41
1
10
146.767301321518
20
-11.4979541945789
30
0
41
1
10
146.790637117469
20
-11.5002278202149
30
0
41
1
10
146.860644505319
20
-11.4994905919625
30
0
41
1
10
146.907316097219
20
-11.4888754394283
30
0
41
1
10
147.04733087292
20
-11.4240697619632
30
0
41
1
10
147.140674056721
20
-11.3367485981946
30
0
41
1
10
147.327360424322
20
-11.0632392189095
30
0
41
1
10
147.420703608122
20
-10.876969158971
30
0
41
1
10
147.607389975723
20
-10.4012197100846
30
0
41
1
10
147.700733159524
20
-10.1116940921625
30
0
41
1
10
147.887419527125
20
-9.43359230182435
30
0
41
1
10
147.980762710925
20
-9.04502876655084
30
0
41
1
10
148.167449078526
20
-8.18209227699961
30
0
41
1
10
148.260792262327
20
-7.70779524203559
30
0
41
1
10
148.447478629928
20
-6.69438025998994
30
0
41
1
10
148.540821813729
20
-6.1553815463426
30
0
41
1
10
148.72750818133
20
-5.03827258628061
30
0
41
1
10
148.82085136513
20
-4.4602890719664
30
0
41
1
10
149.007537732731
20
-3.291805464101
30
0
41
1
10
149.100880916532
20
-2.70140532954448
30
0
41
1
10
149.287567284133
20
-1.53204583235816
30
0
41
1
10
149.380910467933
20
-0.95314111241899
30
0
41
1
10
149.485921549709
20
-0.31896645908634
30
0
41
1
10
149.497589447684
20
-0.248736355401036
30
0
41
1
10
149.520925243634
20
-0.108774060239057
30
0
41
1
10
149.532593141609
20
-0.0391610028663081
30
0
41
1
10
149.567596835534
20
0.169702809861263
30
0
41
1
10
149.590932631485
20
0.309983225000934
30
0
41
1
10
149.660940019335
20
0.733576706136006
30
0
41
1
10
149.707611611235
20
1.01965334332294
30
0
41
1
10
149.847626386936
20
1.88562042148806
30
0
41
1
10
149.940969570737
20
2.47339983427378
30
0
41
1
10
150.127655938338
20
3.64821164564972
30
0
41
1
10
150.220999122138
20
4.23516399183623
30
0
41
1
10
150.314342305939
20
4.80890353474899
30
0
0
SPLINE
5
FA
100
AcDbEntity
8
1
62
256
6
ByLayer
370
13
48
1
60
0
100
AcDbSpline
70
4
71
3
72
22
73
18
40
0
40
0
40
0
40
0
40
0.125
40
0.125
40
0.25
40
0.25
40
0.375
40
0.375
40
0.5
40
0.5
40
0.625
40
0.625
40
0.75
40
0.75
40
0.875
40
0.875
40
1
40
1
40
1
40
1
41
1
10
139.4
20
3.74805596982895
30
0
41
1
10
139.488502513854
20
4.3028091847535
30
0
41
1
10
139.577005027707
20
4.85277516159417
30
0
41
1
10
139.754010055415
20
5.92077118664469
30
0
41
1
10
139.842512569268
20
6.43870529960756
30
0
41
1
10
140.019517596976
20
7.42040616653969
30
0
41
1
10
140.108020110829
20
7.88407825393963
30
0
41
1
10
140.285025138537
20
8.73825769123718
30
0
41
1
10
140.37352765239
20
9.1286972208718
30
0
41
1
10
140.550532680098
20
9.82318175988954
30
0
41
1
10
140.639035193952
20
10.1272030093008
30
0
41
1
10
140.816040221659
20
10.6428163308059
30
0
41
1
10
140.904542735513
20
10.8544303666651
30
0
41
1
10
141.08154776322
20
11.1864073642428
30
0
41
1
10
141.170050277074
20
11.3068252660284
30
0
41
1
10
141.347055304781
20
11.4635873570537
30
0
41
1
10
141.435557818635
20
11.5
30
0
41
1
10
141.524060332488
20
11.5
30
0
0
SPLINE
5
FB
100
AcDbEntity
8
1
62
256
6
ByLayer
370
13
48
1
60
0
100
AcDbSpline
70
4
71
3
72
86
73
82
40
0
40
0
40
0
40
0
40
0.0312499999999995
40
0.0312499999999995
40
0.0624999999999991
40
0.0624999999999991
40
0.0937499999999986
40
0.0937499999999986
40
0.124999999999998
40
0.124999999999998
40
0.156249999999998
40
0.156249999999998
40
0.187499999999997
40
0.187499999999997
40
0.218749999999997
40
0.218749999999997
40
0.249999999999996
40
0.249999999999996
40
0.281249999999996
40
0.281249999999996
40
0.289062499999996
40
0.289062499999996
40
0.296874999999995
40
0.296874999999995
40
0.312499999999995
40
0.312499999999995
40
0.343749999999995
40
0.343749999999995
40
0.374999999999994
40
0.374999999999994
40
0.406249999999994
40
0.406249999999994
40
0.437499999999993
40
0.437499999999993
40
0.468749999999993
40
0.468749999999993
40
0.499999999999992
40
0.499999999999992
40
0.531249999999992
40
0.531249999999992
40
0.562499999999991
40
0.562499999999991
40
0.570312499999991
40
0.570312499999991
40
0.574218749999991
40
0.574218749999991
40
0.578124999999991
40
0.578124999999991
40
0.593749999999992
40
0.593749999999992
40
0.624999999999992
40
0.624999999999992
40
0.656249999999992
40
0.656249999999992
40
0.687499999999992
40
0.687499999999992
40
0.718749999999992
40
0.718749999999992
40
0.749999999999993
40
0.749999999999993
40
0.781249999999993
40
0.781249999999993
40
0.812499999999993
40
0.812499999999993
40
0.843749999999993
40
0.843749999999993
40
0.859374999999993
40
0.859374999999993
40
0.863281249999993
40
0.863281249999993
40
0.867187499999993
40
0.867187499999993
40
0.874999999999994
40
0.874999999999994
40
0.906249999999995
40
0.906249999999995
40
0.937499999999997
40
0.937499999999997
40
0.968749999999998
40
0.968749999999998
40
1
40
1
40
1
40
1
41
1
10
140.865047632245
20
11.5
30
0
41
1
10
140.963477785096
20
11.5
30
0
41
1
10
141.061907937947
20
11.4549199365626
30
0
41
1
10
141.258768243649
20
11.2595675345307
30
0
41
1
10
141.3571983965
20
11.1091799977375
30
0
41
1
10
141.554058702202
20
10.6944825003522
30
0
41
1
10
141.652488855053
20
10.4300892882501
30
0
41
1
10
141.849349160755
20
9.78830466576841
30
0
41
1
10
141.947779313606
20
9.41090083832736
30
0
41
1
10
142.144639619308
20
8.55524899396838
30
0
41
1
10
142.243069772159
20
8.07707692752405
30
0
41
1
10
142.439930077861
20
7.04235526877085
30
0
41
1
10
142.538360230712
20
6.48595117687998
30
0
41
1
10
142.735220536414
20
5.32411382678848
30
0
41
1
10
142.833650689265
20
4.71884748752998
30
0
41
1
10
143.030510994967
20
3.49062608427974
30
0
41
1
10
143.128941147817
20
2.86780768552938
30
0
41
1
10
143.325801453519
20
1.63307198022801
30
0
41
1
10
143.42423160637
20
1.02123068544546
30
0
41
1
10
143.547269297434
20
0.277341226764378
30
0
41
1
10
143.571876835647
20
0.129761027107037
30
0
41
1
10
143.621091912072
20
-0.163759571616879
30
0
41
1
10
143.645699450285
20
-0.311678172411774
30
0
41
1
10
143.719522064923
20
-0.758485337862737
30
0
41
1
10
143.768737141349
20
-1.06043924863607
30
0
41
1
10
143.916382370625
20
-1.97464774755412
30
0
41
1
10
144.014812523476
20
-2.59543238608404
30
0
41
1
10
144.211672829178
20
-3.83386451396836
30
0
41
1
10
144.310102982029
20
-4.45140253574283
30
0
41
1
10
144.506963287731
20
-5.65289584679201
30
0
41
1
10
144.605393440582
20
-6.23669319875074
30
0
41
1
10
144.802253746284
20
-7.33976943329137
30
0
41
1
10
144.900683899135
20
-7.85888558992408
30
0
41
1
10
145.097544204837
20
-8.80617415659952
30
0
41
1
10
145.195974357688
20
-9.23423257608295
30
0
41
1
10
145.39283466339
20
-9.98184416599887
30
0
41
1
10
145.491264816241
20
-10.3013673606271
30
0
41
1
10
145.688125121943
20
-10.8254765615481
30
0
41
1
10
145.786555274794
20
-11.0301158424166
30
0
41
1
10
145.983415580496
20
-11.3287667552092
30
0
41
1
10
146.081845733347
20
-11.4228834937346
30
0
41
1
10
146.20488342441
20
-11.4792210012533
30
0
41
1
10
146.229490962623
20
-11.4874383335808
30
0
41
1
10
146.266402269942
20
-11.4953738622338
30
0
41
1
10
146.278706039049
20
-11.4972874265635
30
0
41
1
10
146.303313577261
20
-11.4996835833715
30
0
41
1
10
146.315617346368
20
-11.5001668523162
30
0
41
1
10
146.3771361919
20
-11.4990811542494
30
0
41
1
10
146.426351268325
20
-11.486937729441
30
0
41
1
10
146.573996497602
20
-11.4136625362465
30
0
41
1
10
146.672426650453
20
-11.3154680366587
30
0
41
1
10
146.869286956155
20
-11.0083191549901
30
0
41
1
10
146.967717109005
20
-10.7992608964421
30
0
41
1
10
147.164577414708
20
-10.2663467152947
30
0
41
1
10
147.263007567558
20
-9.9424402895404
30
0
41
1
10
147.45986787326
20
-9.18653311158661
30
0
41
1
10
147.558298026111
20
-8.75456581108818
30
0
41
1
10
147.755158331813
20
-7.80033290622211
30
0
41
1
10
147.853588484664
20
-7.27818402960611
30
0
41
1
10
148.050448790366
20
-6.17018401587788
30
0
41
1
10
148.148878943217
20
-5.58449643731811
30
0
41
1
10
148.345739248919
20
-4.38044097271003
30
0
41
1
10
148.44416940177
20
-3.76222981764457
30
0
41
1
10
148.641029707472
20
-2.52356097230211
30
0
41
1
10
148.739459860323
20
-1.90321035743023
30
0
41
1
10
148.887105089599
20
-0.99030788027747
30
0
41
1
10
148.936320166025
20
-0.688897729442601
30
0
41
1
10
148.997839011557
20
-0.317351968599553
30
0
41
1
10
149.010142780663
20
-0.243302559322643
30
0
41
1
10
149.034750318876
20
-0.0957588660794215
30
0
41
1
10
149.047054087982
20
-0.0224402895424589
30
0
41
1
10
149.083965395302
20
0.197967093172195
30
0
41
1
10
149.108572933514
20
0.346053257835479
30
0
41
1
10
149.231610624578
20
1.09151216463567
30
0
41
1
10
149.330040777429
20
1.70424043547914
30
0
41
1
10
149.526901083131
20
2.93974797923741
30
0
41
1
10
149.625331235982
20
3.56244869677209
30
0
41
1
10
149.822191541684
20
4.78925210804513
30
0
41
1
10
149.920621694535
20
5.39321621650114
30
0
41
1
10
150.117482000237
20
6.55124597334131
30
0
41
1
10
150.215912153088
20
7.10514449969077
30
0
41
1
10
150.314342305939
20
7.61948582739001
30
0
0
SPLINE
5
FC
100
AcDbEntity
8
1
62
256
6
ByLayer
370
13
48
1
60
0
100
AcDbSpline
70
4
71
3
72
22
73
18
40
0
40
0
40
0
40
0
40
0.125
40
0.125
40
0.25
40
0.25
40
0.375
40
0.375
40
0.5
40
0.5
40
0.625
40
0.625
40
0.75
40
0.75
40
0.875
40
0.875
40
1
40
1
40
1
40
1
41
1
10
139.4
20
6.69087440355517
30
0
41
1
10
139.468154637652
20
7.07534471252487
30
0
41
1
10
139.536309275304
20
7.44475648805621
30
0
41
1
10
139.672618550608
20
8.14432608453711
30
0
41
1
10
139.74077318826
20
8.47446183510579
30
0
41
1
10
139.877082463563
20
9.08801017215279
30
0
41
1
10
139.945237101215
20
9.37140851309215
30
0
41
1
10
140.081546376519
20
9.88629060389911
30
0
41
1
10
140.149701014171
20
10.1177698578521
30
0
41
1
10
140.286010289475
20
10.526186843024
30
0
41
1
10
140.354164927127
20
10.7031296799922
30
0
41
1
10
140.49047420243
20
11.0023997071758
30
0
41
1
10
140.558628840082
20
11.1247396369189
30
0
41
1
10
140.694938115386
20
11.3170057684614
30
0
41
1
10
140.763092753038
20
11.3869493093612
30
0
41
1
10
140.899402028342
20
11.478437055097
30
0
41
1
10
140.967556665994
20
11.5
30
0
41
1
10
141.035711303646
20
11.5
30
0
0
SPLINE
5
FD
100
AcDbEntity
8
1
62
256
6
ByLayer
370
13
48
1
60
0
100
AcDbSpline
70
4
71
3
72
123
73
119
40
0
40
0
40
0
40
0
40
0.0312499999999987
40
0.0312499999999987
40
0.0624999999999974
40
0.0624999999999974
40
0.0781249999999968
40
0.0781249999999968
40
0.0937499999999963
40
0.0937499999999963
40
0.109374999999996
40
0.109374999999996
40
0.124999999999995
40
0.124999999999995
40
0.140624999999995
40
0.140624999999995
40
0.156249999999994
40
0.156249999999994
40
0.171874999999993
40
0.171874999999993
40
0.187499999999993
40
0.187499999999993
40
0.203124999999992
40
0.203124999999992
40
0.218749999999992
40
0.218749999999992
40
0.249999999999991
40
0.249999999999991
40
0.26562499999999
40
0.26562499999999
40
0.27343749999999
40
0.27343749999999
40
0.27734374999999
40
0.27734374999999
40
0.281249999999989
40
0.281249999999989
40
0.312499999999988
40
0.312499999999988
40
0.343749999999987
40
0.343749999999987
40
0.359374999999987
40
0.359374999999987
40
0.374999999999986
40
0.374999999999986
40
0.390624999999986
40
0.390624999999986
40
0.406249999999985
40
0.406249999999985
40
0.421874999999985
40
0.421874999999985
40
0.437499999999984
40
0.437499999999984
40
0.453124999999983
40
0.453124999999983
40
0.468749999999983
40
0.468749999999983
40
0.484374999999982
40
0.484374999999982
40
0.499999999999982
40
0.499999999999982
40
0.53124999999998
40
0.53124999999998
40
0.54687499999998
40
0.54687499999998
40
0.55078124999998
40
0.55078124999998
40
0.554687499999979
40
0.562499999999979
40
0.562499999999979
40
0.59374999999998
40
0.59374999999998
40
0.62499999999998
40
0.62499999999998
40
0.64062499999998
40
0.64062499999998
40
0.65624999999998
40
0.65624999999998
40
0.671874999999981
40
0.671874999999981
40
0.687499999999981
40
0.687499999999981
40
0.703124999999981
40
0.703124999999981
40
0.718749999999981
40
0.718749999999981
40
0.734374999999982
40
0.734374999999982
40
0.749999999999982
40
0.749999999999982
40
0.781249999999982
40
0.781249999999982
40
0.812499999999983
40
0.812499999999983
40
0.820312499999983
40
0.820312499999983
40
0.824218749999983
40
0.824218749999983
40
0.828124999999983
40
0.828124999999983
40
0.843749999999985
40
0.843749999999985
40
0.874999999999988
40
0.874999999999988
40
0.89062499999999
40
0.89062499999999
40
0.906249999999991
40
0.906249999999991
40
0.921874999999992
40
0.921874999999992
40
0.937499999999994
40
0.937499999999994
40
0.953124999999995
40
0.953124999999995
40
0.968749999999997
40
0.968749999999997
40
0.984374999999998
40
0.984374999999998
40
1
40
1
40
1
40
1
41
1
10
140.376698603402
20
11.5
30
0
41
1
10
140.480215725304
20
11.5
30
0
41
1
10
140.583732847205
20
11.4501145836231
30
0
41
1
10
140.790767091008
20
11.2332437279994
30
0
41
1
10
140.894284212909
20
11.0661111555631
30
0
41
1
10
141.049559895762
20
10.7205228011727
30
0
41
1
10
141.101318456712
20
10.5895905832581
30
0
41
1
10
141.204835578614
20
10.2962018463571
30
0
41
1
10
141.256594139564
20
10.1337435823401
30
0
41
1
10
141.360111261466
20
9.77808021886847
30
0
41
1
10
141.411869822417
20
9.58487513892854
30
0
41
1
10
141.515386944318
20
9.16935857216873
30
0
41
1
10
141.567145505269
20
8.9470490228577
30
0
41
1
10
141.67066262717
20
8.47579794679024
30
0
41
1
10
141.722421188121
20
8.22686020157767
30
0
41
1
10
141.825938310022
20
7.70557485737126
30
0
41
1
10
141.877696870973
20
7.4332325780733
30
0
41
1
10
141.981213992874
20
6.86897005660035
30
0
41
1
10
142.032972553825
20
6.57705617536632
30
0
41
1
10
142.136489675727
20
5.97791480456095
30
0
41
1
10
142.188248236677
20
5.67069410758634
30
0
41
1
10
142.291765358579
20
5.04543617474943
30
0
41
1
10
142.343523919529
20
4.72740553814737
30
0
41
1
10
142.447041041431
20
4.08505422183961
30
0
41
1
10
142.498799602382
20
3.76073940090296
30
0
41
1
10
142.654075285234
20
2.78491041086022
30
0
41
1
10
142.757592407135
20
2.13074654668682
30
0
41
1
10
142.912868089987
20
1.16702662828897
30
0
41
1
10
142.964626650938
20
0.848653923462621
30
0
41
1
10
143.042264492364
20
0.377706620040698
30
0
41
1
10
143.068143772839
20
0.221821900419968
30
0
41
1
10
143.106962693552
20
-0.0101087661231816
30
0
41
1
10
143.11990233379
20
-0.0871625073782809
30
0
41
1
10
143.145781614265
20
-0.242306089129045
30
0
41
1
10
143.158721254503
20
-0.320185298390527
30
0
41
1
10
143.275178016642
20
-1.02367835752199
30
0
41
1
10
143.378695138543
20
-1.66770464611133
30
0
41
1
10
143.585729382347
20
-2.96701435344369
30
0
41
1
10
143.689246504248
20
-3.62219693064046
30
0
41
1
10
143.8445221871
20
-4.58832358686303
30
0
41
1
10
143.896280748051
20
-4.90754452012311
30
0
41
1
10
143.999797869952
20
-5.53584232941185
30
0
41
1
10
144.051556430903
20
-5.84491268253251
30
0
41
1
10
144.155073552804
20
-6.44839610349806
30
0
41
1
10
144.206832113755
20
-6.74280236893085
30
0
41
1
10
144.310349235656
20
-7.31264614782873
30
0
41
1
10
144.362107796607
20
-7.58807719848028
30
0
41
1
10
144.465624918508
20
-8.11606228767053
30
0
41
1
10
144.517383479459
20
-8.36861082100853
30
0
41
1
10
144.620900601361
20
-8.84750770861783
30
0
41
1
10
144.672659162311
20
-9.07385203409868
30
0
41
1
10
144.776176284213
20
-9.49774732955896
30
0
41
1
10
144.827934845163
20
-9.69529608431728
30
0
41
1
10
144.931451967065
20
-10.0598318256667
30
0
41
1
10
144.983210528015
20
-10.2268185190069
30
0
41
1
10
145.086727649917
20
-10.5293243114532
30
0
41
1
10
145.138486210868
20
-10.6648449168464
30
0
41
1
10
145.242003332769
20
-10.9043564125967
30
0
41
1
10
145.29376189372
20
-11.008350295625
30
0
41
1
10
145.449037576572
20
-11.2741064585644
30
0
41
1
10
145.552554698473
20
-11.3893875202807
30
0
41
1
10
145.707830381326
20
-11.4793527576735
30
0
41
1
10
145.759588942276
20
-11.4955855187348
30
0
41
1
10
145.824287143465
20
-11.5001195096498
30
0
41
1
10
145.837226783702
20
-11.5002431912787
30
0
41
1
10
145.863106064178
20
-11.498933498906
30
0
41
1
10
145.901924984891
20
-11.4946172348527
30
0
41
1
10
145.940743905604
20
-11.48307304996
30
0
41
1
10
146.07014030798
20
-11.427806408301
30
0
41
1
10
146.173657429882
20
-11.3295807886961
30
0
41
1
10
146.380691673685
20
-11.0107408225028
30
0
41
1
10
146.484208795586
20
-10.7899923629537
30
0
41
1
10
146.639484478438
20
-10.363607351472
30
0
41
1
10
146.691243039389
20
-10.2056938627841
30
0
41
1
10
146.79476016129
20
-9.85895382232707
30
0
41
1
10
146.846518722241
20
-9.67012701964615
30
0
41
1
10
146.950035844143
20
-9.26307603275691
30
0
41
1
10
147.001794405093
20
-9.04485350679809
30
0
41
1
10
147.105311526995
20
-8.58136855720628
30
0
41
1
10
147.157070087945
20
-8.33610966136308
30
0
41
1
10
147.260587209847
20
-7.82167308196008
30
0
41
1
10
147.312345770797
20
-7.5525005219981
30
0
41
1
10
147.415862892699
20
-6.99399029132425
30
0
41
1
10
147.46762145365
20
-6.70465886668347
30
0
41
1
10
147.571138575551
20
-6.11004459265882
30
0
41
1
10
147.622897136502
20
-5.80476851274256
30
0
41
1
10
147.726414258403
20
-5.18274097174182
30
0
41
1
10
147.778172819354
20
-4.86599617463696
30
0
41
1
10
147.933448502206
20
-3.90535040184781
30
0
41
1
10
148.036965624107
20
-3.25120529016243
30
0
41
1
10
148.24399986791
20
-1.94947056811799
30
0
41
1
10
148.347516989812
20
-1.30199464553328
30
0
41
1
10
148.476913392189
20
-0.513976811690782
30
0
41
1
10
148.502792672664
20
-0.357419353810002
30
0
41
1
10
148.541611593377
20
-0.124409817846868
30
0
41
1
10
148.554551233615
20
-0.0471784459073774
30
0
41
1
10
148.58043051409
20
0.107238464466604
30
0
41
1
10
148.593370154327
20
0.184765861449904
30
0
41
1
10
148.658068355516
20
0.573897091312404
30
0
41
1
10
148.709826916467
20
0.890005379245423
30
0
41
1
10
148.865102599319
20
1.84835747998827
30
0
41
1
10
148.96861972122
20
2.50085825546708
30
0
41
1
10
149.123895404072
20
3.47785121295456
30
0
41
1
10
149.175653965023
20
3.80316063727378
30
0
41
1
10
149.279171086924
20
4.44879156919288
30
0
41
1
10
149.330929647875
20
4.76910751540578
30
0
41
1
10
149.434446769777
20
5.40025459726061
30
0
41
1
10
149.486205330727
20
5.7110792975966
30
0
41
1
10
149.589722452629
20
6.31871839637398
30
0
41
1
10
149.641481013579
20
6.61552599577337
30
0
41
1
10
149.744998135481
20
7.190777448446
30
0
41
1
10
149.796756696431
20
7.4692147502092
30
0
41
1
10
149.900273818333
20
8.00374691793337
30
0
41
1
10
149.952032379284
20
8.25983610424964
30
0
41
1
10
150.055549501185
20
8.74625397859654
30
0
41
1
10
150.107308062136
20
8.97657839776662
30
0
41
1
10
150.210825184037
20
9.40876050824667
30
0
41
1
10
150.262583744988
20
9.61061570890672
30
0
41
1
10
150.314342305939
20
9.79729166282954
30
0
0
SPLINE
5
FE
100
AcDbEntity
8
1
62
256
6
ByLayer
370
13
48
1
60
0
100
AcDbSpline
70
4
71
3
72
14
73
10
40
0
40
0
40
0
40
0
40
0.25
40
0.25
40
0.5
40
0.5
40
0.75
40
0.75
40
1
40
1
40
1
40
1
41
1
10
139.4
20
9.12800760787147
30
0
41
1
10
139.4956135229
20
9.53237069487199
30
0
41
1
10
139.591227045801
20
9.88825841940763
30
0
41
1
10
139.782454091601
20
10.4929382603282
30
0
41
1
10
139.878067614501
20
10.7417474130891
30
0
41
1
10
140.069294660302
20
11.1320041514934
30
0
41
1
10
140.164908183202
20
11.2735264017012
30
0
41
1
10
140.356135229003
20
11.4574743322868
30
0
41
1
10
140.451748751903
20
11.5
30
0
41
1
10
140.547362274803
20
11.5
30
0
0
SPLINE
5
FF
100
AcDbEntity
8
1
62
256
6
ByLayer
370
13
48
1
60
0
100
AcDbSpline
70
4
71
3
72
140
73
136
40
0
40
0
40
0
40
0
40
0.0156250000000001
40
0.0156250000000001
40
0.0312500000000002
40
0.0312500000000002
40
0.0468750000000004
40
0.0468750000000004
40
0.0625000000000005
40
0.0625000000000005
40
0.0781250000000007
40
0.0781250000000007
40
0.0937500000000008
40
0.0937500000000008
40
0.109375000000001
40
0.109375000000001
40
0.125000000000001
40
0.125000000000001
40
0.140625000000001
40
0.140625000000001
40
0.156250000000001
40
0.156250000000001
40
0.171875000000002
40
0.171875000000002
40
0.187500000000002
40
0.187500000000002
40
0.203125000000002
40
0.203125000000002
40
0.218750000000002
40
0.218750000000002
40
0.234375000000002
40
0.234375000000002
40
0.250000000000003
40
0.250000000000003
40
0.257812500000003
40
0.257812500000003
40
0.265625000000003
40
0.265625000000003
40
0.281250000000003
40
0.281250000000003
40
0.296875000000003
40
0.296875000000003
40
0.312500000000003
40
0.312500000000003
40
0.328125000000003
40
0.328125000000003
40
0.343750000000004
40
0.343750000000004
40
0.359375000000004
40
0.359375000000004
40
0.375000000000004
40
0.375000000000004
40
0.390625000000004
40
0.390625000000004
40
0.406250000000004
40
0.406250000000004
40
0.421875000000004
40
0.421875000000004
40
0.437500000000005
40
0.437500000000005
40
0.453125000000005
40
0.453125000000005
40
0.468750000000005
40
0.468750000000005
40
0.484375000000005
40
0.484375000000005
40
0.500000000000005
40
0.500000000000005
40
0.515625000000006
40
0.515625000000006
40
0.523437500000006
40
0.523437500000006
40
0.531250000000005
40
0.531250000000005
40
0.546875000000005
40
0.546875000000005
40
0.562500000000005
40
0.562500000000005
40
0.578125000000005
40
0.578125000000005
40
0.593750000000005
40
0.593750000000005
40
0.609375000000004
40
0.609375000000004
40
0.625000000000004
40
0.625000000000004
40
0.640625000000004
40
0.640625000000004
40
0.656250000000004
40
0.656250000000004
40
0.671875000000004
40
0.671875000000004
40
0.687500000000003
40
0.687500000000003
40
0.703125000000003
40
0.703125000000003
40
0.718750000000003
40
0.718750000000003
40
0.734375000000003
40
0.734375000000003
40
0.750000000000002
40
0.750000000000002
40
0.765625000000002
40
0.765625000000002
40
0.781250000000002
40
0.781250000000002
40
0.789062500000002
40
0.789062500000002
40
0.796875000000002
40
0.796875000000002
40
0.812500000000002
40
0.812500000000002
40
0.828125000000002
40
0.828125000000002
40
0.843750000000002
40
0.843750000000002
40
0.859375000000001
40
0.859375000000001
40
0.875000000000001
40
0.875000000000001
40
0.890625000000001
40
0.890625000000001
40
0.906250000000001
40
0.906250000000001
40
0.921875000000001
40
0.921875000000001
40
0.937500000000001
40
0.937500000000001
40
0.953125
40
0.953125
40
0.96875
40
0.96875
40
0.984375
40
0.984375
40
1
40
1
40
1
40
1
41
1
10
139.88834957456
20
11.5
30
0
41
1
10
139.942651620036
20
11.5
30
0
41
1
10
139.996953665512
20
11.4863213431627
30
0
41
1
10
140.105557756463
20
11.4289071983514
30
0
41
1
10
140.159859801939
20
11.3851657005167
30
0
41
1
10
140.268463892891
20
11.2653745400286
30
0
41
1
10
140.322765938367
20
11.1893189922105
30
0
41
1
10
140.431370029319
20
11.0032883889544
30
0
41
1
10
140.485672074795
20
10.8933081987584
30
0
41
1
10
140.594276165747
20
10.6386247908948
30
0
41
1
10
140.648578211223
20
10.4939178567293
30
0
41
1
10
140.757182302175
20
10.1699206354757
30
0
41
1
10
140.81148434765
20
9.9906286512819
30
0
41
1
10
140.920088438602
20
9.59862762651974
30
0
41
1
10
140.974390484078
20
9.38591932212475
30
0
41
1
10
141.08299457503
20
8.92929436641182
30
0
41
1
10
141.137296620506
20
8.68538100909007
30
0
41
1
10
141.245900711458
20
8.1695367841121
30
0
41
1
10
141.300202756934
20
7.89761155085728
30
0
41
1
10
141.408806847886
20
7.32978142484581
30
0
41
1
10
141.463108893362
20
7.03388396479613
30
0
41
1
10
141.571712984314
20
6.42279584274834
30
0
41
1
10
141.62601502979
20
6.10761363271325
30
0
41
1
10
141.734619120742
20
5.46304959331357
30
0
41
1
10
141.788921166217
20
5.13367635616217
30
0
41
1
10
141.897525257169
20
4.46597185064462
30
0
41
1
10
141.951827302645
20
4.12764848615953
30
0
41
1
10
142.060431393597
20
3.447182755694
30
0
41
1
10
142.114733439073
20
3.10504695324943
30
0
41
1
10
142.223337530025
20
2.42177347200433
30
0
41
1
10
142.277639575501
20
2.08064061623156
30
0
41
1
10
142.386243666453
20
1.40369614109915
30
0
41
1
10
142.440545711929
20
1.0678874717384
30
0
41
1
10
142.521998780142
20
0.570949566460001
30
0
41
1
10
142.54914980288
20
0.406427745328244
30
0
41
1
10
142.603451848356
20
0.0800334203814543
30
0
41
1
10
142.630602871094
20
-0.0811359323147371
30
0
41
1
10
142.712055939308
20
-0.570745387664459
30
0
41
1
10
142.766357984784
20
-0.902469614835695
30
0
41
1
10
142.874962075736
20
-1.57317674809457
30
0
41
1
10
142.929264121212
20
-1.91215761330937
30
0
41
1
10
143.037868212164
20
-2.59335229158307
30
0
41
1
10
143.09217025764
20
-2.93556221526839
30
0
41
1
10
143.200774348592
20
-3.61862985429332
30
0
41
1
10
143.255076394067
20
-3.95948184137842
30
0
41
1
10
143.363680485019
20
-4.63483356123581
30
0
41
1
10
143.417982530495
20
-4.96932599194699
30
0
41
1
10
143.526586621447
20
-5.62674042226334
30
0
41
1
10
143.580888666923
20
-5.94965407804699
30
0
41
1
10
143.689492757875
20
-6.57871167022785
30
0
41
1
10
143.743794803351
20
-6.88484697456053
30
0
41
1
10
143.852398894303
20
-7.47542522301976
30
0
41
1
10
143.906700939779
20
-7.75986011877956
30
0
41
1
10
144.015305030731
20
-8.30264522068413
30
0
41
1
10
144.069607076206
20
-8.56098880996575
30
0
41
1
10
144.178211167158
20
-9.04795247385633
30
0
41
1
10
144.232513212634
20
-9.27656803817814
30
0
41
1
10
144.341117303586
20
-9.70135964441144
30
0
41
1
10
144.395419349062
20
-9.89753366881789
30
0
41
1
10
144.504023440014
20
-10.2557481146739
30
0
41
1
10
144.55832548549
20
-10.4177890549612
30
0
41
1
10
144.666929576442
20
-10.7070874988753
30
0
41
1
10
144.721231621918
20
-10.8343477778073
30
0
41
1
10
144.82983571287
20
-11.0544285289057
30
0
41
1
10
144.884137758345
20
-11.1472535104376
30
0
41
1
10
144.992741849297
20
-11.2996892709834
30
0
41
1
10
145.047043894773
20
-11.3593056438976
30
0
41
1
10
145.155647985725
20
-11.4472776165302
30
0
41
1
10
145.209950031201
20
-11.4756392360167
30
0
41
1
10
145.291403099415
20
-11.4966144725578
30
0
41
1
10
145.318554122153
20
-11.5000154166162
30
0
41
1
10
145.372856167629
20
-11.4999844783151
30
0
41
1
10
145.400007190367
20
-11.4965517871407
30
0
41
1
10
145.481460258581
20
-11.4754790049373
30
0
41
1
10
145.535762304057
20
-11.4470492770322
30
0
41
1
10
145.644366395008
20
-11.358935973115
30
0
41
1
10
145.698668440484
20
-11.2992463776053
30
0
41
1
10
145.807272531436
20
-11.146660507591
30
0
41
1
10
145.861574576912
20
-11.0537586408807
30
0
41
1
10
145.970178667864
20
-10.8335222871985
30
0
41
1
10
146.02448071334
20
-10.7061832940781
30
0
41
1
10
146.133084804292
20
-10.4167277299811
30
0
41
1
10
146.187386849768
20
-10.2546083882891
30
0
41
1
10
146.29599094072
20
-9.89623977864485
30
0
41
1
10
146.350292986196
20
-9.69998999739184
30
0
41
1
10
146.458897077147
20
-9.27505188388949
30
0
41
1
10
146.513199122623
20
-9.04636557496937
30
0
41
1
10
146.621803213575
20
-8.55926765910567
30
0
41
1
10
146.676105259051
20
-8.30086056777952
30
0
41
1
10
146.784709350003
20
-7.7579576227952
30
0
41
1
10
146.839011395479
20
-7.47346839009455
30
0
41
1
10
146.947615486431
20
-6.8827921013897
30
0
41
1
10
147.001917531907
20
-6.57661309606939
30
0
41
1
10
147.110521622859
20
-5.9474796589902
30
0
41
1
10
147.164823668335
20
-5.62453385960831
30
0
41
1
10
147.273427759287
20
-4.96706703342392
30
0
41
1
10
147.327729804762
20
-4.63255434886733
30
0
41
1
10
147.436333895714
20
-3.95717377742741
30
0
41
1
10
147.49063594119
20
-3.61631318954619
30
0
41
1
10
147.599240032142
20
-2.93323927167091
30
0
41
1
10
147.653542077618
20
-2.59103166596495
30
0
41
1
10
147.76214616857
20
-1.90985142260735
30
0
41
1
10
147.816448214046
20
-1.57088267006628
30
0
41
1
10
147.925052304998
20
-0.900208172707806
30
0
41
1
10
147.979354350474
20
-0.56850446473328
30
0
41
1
10
148.060807418688
20
-0.0789309510824694
30
0
41
1
10
148.087958441426
20
0.0822384868695565
30
0
41
1
10
148.142260486901
20
0.408656765161538
30
0
41
1
10
148.169411509639
20
0.573189702853313
30
0
41
1
10
148.250864577853
20
1.07015808928799
30
0
41
1
10
148.305166623329
20
1.40598325005735
30
0
41
1
10
148.413770714281
20
2.08295158507451
30
0
41
1
10
148.468072759757
20
2.42409180511891
30
0
41
1
10
148.576676850709
20
3.10736962001005
30
0
41
1
10
148.630978896185
20
3.44950238764102
30
0
41
1
10
148.739582987137
20
4.1299507092186
30
0
41
1
10
148.793885032613
20
4.46825969604026
30
0
41
1
10
148.902489123565
20
5.13592360922047
30
0
41
1
10
148.956791169041
20
5.46527062931773
30
0
41
1
10
149.065395259992
20
6.10977043834848
30
0
41
1
10
149.119697305468
20
6.42491463440456
30
0
41
1
10
149.22830139642
20
7.03591555895807
30
0
41
1
10
149.282603441896
20
7.33176383681621
30
0
41
1
10
149.391207532848
20
7.89948563248964
30
0
41
1
10
149.445509578324
20
8.17135172085565
30
0
41
1
10
149.554113669276
20
8.68706940126583
30
0
41
1
10
149.608415714752
20
8.93091536370605
30
0
41
1
10
149.717019805703
20
9.38739937093999
30
0
41
1
10
149.771321851179
20
9.60003412741457
30
0
41
1
10
149.879925942131
20
9.99188421871537
30
0
41
1
10
149.934227987607
20
10.1710988231419
30
0
41
1
10
150.042832078559
20
10.4949398185042
30
0
41
1
10
150.097134124035
20
10.6395679116777
30
0
41
1
10
150.205738214987
20
10.8940944262825
30
0
41
1
10
150.260040260463
20
11.0039965681498
30
0
41
1
10
150.314342305939
20
11.0969352162707
30
0
0
SPLINE
5
100
100
AcDbEntity
8
1
62
256
6
ByLayer
370
13
48
1
60
0
100
AcDbSpline
70
4
71
3
72
8
73
4
40
0
40
0
40
0
40
0
40
1
40
1
40
1
40
1
41
1
10
150.143679180255
20
11.5
30
0
41
1
10
150.200566888816
20
11.5
30
0
41
1
10
150.257454597377
20
11.4849859325511
30
0
41
1
10
150.314342305939
20
11.4534112492932
30
0
0
SPLINE
5
101
100
AcDbEntity
8
1
62
256
6
ByLayer
370
13
48
1
60
0
100
AcDbSpline
70
4
71
3
72
14
73
10
40
0
40
0
40
0
40
0
40
0.25
40
0.25
40
0.5
40
0.5
40
0.75
40
0.75
40
1
40
1
40
1
40
1
41
1
10
139.4
20
10.7485325991174
30
0
41
1
10
139.454917770497
20
10.8789078781439
30
0
41
1
10
139.509835540993
20
10.9915172056748
30
0
41
1
10
139.619671081987
20
11.1819881665897
30
0
41
1
10
139.674588852484
20
11.2598551922592
30
0
41
1
10
139.784424393477
20
11.382485458162
30
0
41
1
10
139.839342163973
20
11.4272549138225
30
0
41
1
10
139.949177704967
20
11.4860090049348
30
0
41
1
10
140.004095475464
20
11.5
30
0
41
1
10
140.05901324596
20
11.5
30
0
0
SPLINE
5
102
100
AcDbEntity
8
1
62
256
6
ByLayer
370
13
48
1
60
0
100
AcDbSpline
70
4
71
3
72
134
73
130
40
0
40
0
40
0
40
0
40
0.015625
40
0.015625
40
0.0312500000000001
40
0.0312500000000001
40
0.0468750000000001
40
0.0468750000000001
40
0.0625000000000001
40
0.0625000000000001
40
0.0781250000000002
40
0.0781250000000002
40
0.0937500000000002
40
0.0937500000000002
40
0.109375
40
0.109375
40
0.125
40
0.125
40
0.140625
40
0.140625
40
0.15625
40
0.15625
40
0.171875
40
0.171875
40
0.1875
40
0.1875
40
0.203125
40
0.203125
40
0.21875
40
0.21875
40
0.234375000000001
40
0.234375000000001
40
0.250000000000001
40
0.250000000000001
40
0.265625000000001
40
0.265625000000001
40
0.281250000000001
40
0.281250000000001
40
0.296875000000001
40
0.296875000000001
40
0.312500000000001
40
0.312500000000001
40
0.328125000000001
40
0.328125000000001
40
0.343750000000001
40
0.343750000000001
40
0.359375000000001
40
0.359375000000001
40
0.375000000000001
40
0.375000000000001
40
0.390625000000001
40
0.390625000000001
40
0.406250000000001
40
0.406250000000001
40
0.421875000000001
40
0.421875000000001
40
0.437500000000001
40
0.437500000000001
40
0.453125000000001
40
0.453125000000001
40
0.468750000000001
40
0.468750000000001
40
0.484375000000001
40
0.484375000000001
40
0.500000000000001
40
0.500000000000001
40
0.515625000000001
40
0.515625000000001
40
0.531250000000001
40
0.531250000000001
40
0.546875000000001
40
0.546875000000001
40
0.562500000000001
40
0.562500000000001
40
0.578125000000001
40
0.578125000000001
40
0.593750000000001
40
0.593750000000001
40
0.609375000000001
40
0.609375000000001
40
0.625000000000001
40
0.625000000000001
40
0.640625000000001
40
0.640625000000001
40
0.656250000000001
40
0.656250000000001
40
0.671875000000001
40
0.671875000000001
40
0.687500000000001
40
0.687500000000001
40
0.703125000000001
40
0.703125000000001
40
0.718750000000001
40
0.718750000000001
40
0.734375000000001
40
0.734375000000001
40
0.750000000000001
40
0.750000000000001
40
0.765625000000001
40
0.765625000000001
40
0.781250000000001
40
0.781250000000001
40
0.796875000000001
40
0.796875000000001
40
0.812500000000001
40
0.812500000000001
40
0.828125000000001
40
0.828125000000001
40
0.843750000000001
40
0.843750000000001
40
0.859375000000001
40
0.859375000000001
40
0.875000000000001
40
0.875000000000001
40
0.890625000000001
40
0.890625000000001
40
0.906250000000001
40
0.906250000000001
40
0.921875000000001
40
0.921875000000001
40
0.9375
40
0.9375
40
0.953125
40
0.953125
40
0.96875
40
0.96875
40
0.984375
40
0.984375
40
1
40
1
40
1
40
1
41
1
10
139.400000545717
20
11.5
30
0
41
1
10
139.456846075718
20
11.5
30
0
41
1
10
139.513691605719
20
11.4850082174351
30
0
41
1
10
139.627382665722
20
11.4219546901192
30
0
41
1
10
139.684228195723
20
11.3738853845031
30
0
41
1
10
139.797919255725
20
11.2421381286023
30
0
41
1
10
139.854764785726
20
11.1584528365304
30
0
41
1
10
139.968455845729
20
10.9537232938996
30
0
41
1
10
140.02530137573
20
10.8326727920293
30
0
41
1
10
140.138992435732
20
10.5524583005353
30
0
41
1
10
140.195837965733
20
10.3932900651047
30
0
41
1
10
140.309529025736
20
10.0372423590153
30
0
41
1
10
140.366374555737
20
9.84036143828666
30
0
41
1
10
140.480065615739
20
9.41053570658551
30
0
41
1
10
140.53691114574
20
9.17759272722552
30
0
41
1
10
140.650602205743
20
8.67853111101059
30
0
41
1
10
140.707447735744
20
8.4124176295077
30
0
41
1
10
140.821138795746
20
7.85103901143725
30
0
41
1
10
140.877984325747
20
7.55578190084151
30
0
41
1
10
140.991675385749
20
6.94107583619402
30
0
41
1
10
141.048520915751
20
6.62163689277051
30
0
41
1
10
141.162211975753
20
5.9641884212605
30
0
41
1
10
141.219057505754
20
5.62618973438271
30
0
41
1
10
141.332748565756
20
4.93758704209984
30
0
41
1
10
141.389594095757
20
4.58699350766631
30
0
41
1
10
141.50328515576
20
3.87918608631014
30
0
41
1
10
141.560130685761
20
3.52198126782997
30
0
41
1
10
141.673821745763
20
2.80665906849182
30
0
41
1
10
141.730667275764
20
2.44854864352584
30
0
41
1
10
141.844358335767
20
1.73660305703922
30
0
41
1
10
141.901203865768
20
1.38277241412561
30
0
41
1
10
142.01489492577
20
0.683881230026742
30
0
41
1
10
142.071740455772
20
0.338822805474109
30
0
41
1
10
142.185431515774
20
-0.33882117912853
30
0
41
1
10
142.242277045775
20
-0.683879566618799
30
0
41
1
10
142.355968105777
20
-1.38277072285589
30
0
41
1
10
142.412813635778
20
-1.73660135512606
30
0
41
1
10
142.52650469578
20
-2.4485469281002
30
0
41
1
10
142.583350225782
20
-2.80665735020111
30
0
41
1
10
142.697041285784
20
-3.52197955257409
30
0
41
1
10
142.753886815785
20
-3.87918437695791
30
0
41
1
10
142.867577875788
20
-4.58699181954285
30
0
41
1
10
142.924423405789
20
-4.93758536930443
30
0
41
1
10
143.038114465791
20
-5.62618810188508
30
0
41
1
10
143.094959995792
20
-5.9641868137341
30
0
41
1
10
143.208651055794
20
-6.62163534454408
30
0
41
1
10
143.265496585795
20
-6.94107432229589
30
0
41
1
10
143.379187645798
20
-7.5557804641503
30
0
41
1
10
143.436033175799
20
-7.85103761762232
30
0
41
1
10
143.549724235801
20
-8.41241632870501
30
0
41
1
10
143.606569765803
20
-8.67852986033989
30
0
41
1
10
143.720260825805
20
-9.17759158240017
30
0
41
1
10
143.777106355806
20
-9.41053461746841
30
0
41
1
10
143.890797415808
20
-9.84036046423992
30
0
41
1
10
143.947642945809
20
-10.0372414443253
30
0
41
1
10
144.061334005812
20
-10.3932892707655
30
0
41
1
10
144.118179535813
20
-10.5524575671854
30
0
41
1
10
144.231870595815
20
-10.8326721803493
30
0
41
1
10
144.288716125816
20
-10.9537227428965
30
0
41
1
10
144.402407185819
20
-11.1584524048314
30
0
41
1
10
144.45925271582
20
-11.2421377555281
30
0
41
1
10
144.572943775822
20
-11.3738851251901
30
0
41
1
10
144.629789305823
20
-11.4219544859416
30
0
41
1
10
144.743480365826
20
-11.4850081189555
30
0
41
1
10
144.800325895827
20
-11.4999999520832
30
0
41
1
10
144.914016955829
20
-11.5000000479166
30
0
41
1
10
144.97086248583
20
-11.4850083159145
30
0
41
1
10
145.084553545833
20
-11.4219548942965
30
0
41
1
10
145.141399075834
20
-11.3738856438158
30
0
41
1
10
145.255090135836
20
-11.2421385016762
30
0
41
1
10
145.311935665837
20
-11.1584532682291
30
0
41
1
10
145.425626725839
20
-10.9537238449024
30
0
41
1
10
145.482472255841
20
-10.8326734037089
30
0
41
1
10
145.596163315843
20
-10.552459033885
30
0
41
1
10
145.653008845844
20
-10.3932908594437
30
0
41
1
10
145.766699905846
20
-10.0372432737052
30
0
41
1
10
145.823545435848
20
-9.84036241233312
30
0
41
1
10
145.93723649585
20
-9.41053679570229
30
0
41
1
10
145.994082025851
20
-9.17759387205061
30
0
41
1
10
146.107773085853
20
-8.67853236168105
30
0
41
1
10
146.164618615854
20
-8.41241893031017
30
0
41
1
10
146.278309675857
20
-7.85104040525198
30
0
41
1
10
146.335155205858
20
-7.55578333753252
30
0
41
1
10
146.44884626586
20
-6.94107735009194
30
0
41
1
10
146.505691795861
20
-6.6216384409968
30
0
41
1
10
146.619382855864
20
-5.96419002878676
30
0
41
1
10
146.676228385865
20
-5.62619136688022
30
0
41
1
10
146.789919445867
20
-4.93758871489518
30
0
41
1
10
146.846764975868
20
-4.58699519578971
30
0
41
1
10
146.960456035871
20
-3.87918779566235
30
0
41
1
10
147.017301565872
20
-3.52198298308585
30
0
41
1
10
147.130992625874
20
-2.80666078678254
30
0
41
1
10
147.187838155875
20
-2.44855035895151
30
0
41
1
10
147.301529215878
20
-1.73660475895244
30
0
41
1
10
147.358374745879
20
-1.38277410539538
30
0
41
1
10
147.472065805881
20
-0.68388289343477
30
0
41
1
10
147.528911335882
20
-0.338824451667449
30
0
41
1
10
147.642602395884
20
0.338819572630627
30
0
41
1
10
147.699447925886
20
0.683877903210941
30
0
41
1
10
147.813138985888
20
1.38276903158624
30
0
41
1
10
147.869984515889
20
1.73659965321292
30
0
41
1
10
147.983675575891
20
2.44854521267456
30
0
41
1
10
148.040521105893
20
2.80665563191042
30
0
41
1
10
148.154212165895
20
3.52197783731819
30
0
41
1
10
148.211057695896
20
3.87918266760562
30
0
41
1
10
148.324748755898
20
4.5869901314193
30
0
41
1
10
148.381594285899
20
4.93758369650891
30
0
41
1
10
148.495285345902
20
5.62618646938733
30
0
41
1
10
148.552130875903
20
5.96418520620759
30
0
41
1
10
148.665821935905
20
6.62163379631744
30
0
41
1
10
148.722667465907
20
6.94107280839759
30
0
41
1
10
148.836358525909
20
7.5557790274589
30
0
41
1
10
148.89320405591
20
7.85103622380717
30
0
41
1
10
149.006895115912
20
8.41241502790209
30
0
41
1
10
149.063740645913
20
8.67852860966894
30
0
41
1
10
149.177431705916
20
9.17759043757457
30
0
41
1
10
149.234277235917
20
9.4105335283511
30
0
41
1
10
149.347968295919
20
9.8403594901929
30
0
41
1
10
149.40481382592
20
10.0372405296349
30
0
41
1
10
149.518504885923
20
10.393288476426
30
0
41
1
10
149.575350415924
20
10.5524568338352
30
0
41
1
10
149.689041475926
20
10.8326715686691
30
0
41
1
10
149.745887005927
20
10.9537221918931
30
0
41
1
10
149.859578065929
20
11.1584519731321
30
0
41
1
10
149.916423595931
20
11.2421373824537
30
0
41
1
10
150.030114655933
20
11.3738848658769
30
0
41
1
10
150.086960185934
20
11.4219542817638
30
0
41
1
10
150.200651245936
20
11.4850080204756
30
0
41
1
10
150.257496775938
20
11.4999999041662
30
0
41
1
10
150.314342305939
20
11.4999999999996
30
0
0
SPLINE
5
103
100
AcDbEntity
8
1
62
256
6
ByLayer
370
13
48
1
60
0
100
AcDbSpline
70
4
71
3
72
14
73
10
40
0
40
0
40
0
40
0
40
0.25
40
0.25
40
0.5
40
0.5
40
0.75
40
0.75
40
1
40
1
40
1
40
1
41
1
10
149.655330151413
20
11.5
30
0
41
1
10
149.710247830956
20
11.5
30
0
41
1
10
149.7651655105
20
11.4860090513338
30
0
41
1
10
149.875000869588
20
11.4272551593426
30
0
41
1
10
149.929918549132
20
11.382485856457
30
0
41
1
10
150.039753908219
20
11.2598560125383
30
0
41
1
10
150.094671587763
20
11.1819892561277
30
0
41
1
10
150.204506946851
20
10.9915189551952
30
0
41
1
10
150.259424626395
20
10.8789100184263
30
0
41
1
10
150.314342305939
20
10.7485351901897
30
0
0
SPLINE
5
104
100
AcDbEntity
8
1
62
256
6
ByLayer
370
13
48
1
60
0
100
AcDbSpline
70
4
71
3
72
8
73
4
40
0
40
0
40
0
40
0
40
1
40
1
40
1
40
1
41
1
10
139.4
20
11.4534106435067
30
0
41
1
10
139.456888072372
20
11.4849857402605
30
0
41
1
10
139.513776144745
20
11.5
30
0
41
1
10
139.570664217118
20
11.5
30
0
0
SPLINE
5
105
100
AcDbEntity
8
1
62
256
6
ByLayer
370
13
48
1
60
0
100
AcDbSpline
70
4
71
3
72
140
73
136
40
0
40
0
40
0
40
0
40
0.0156249999999995
40
0.0156249999999995
40
0.0312499999999991
40
0.0312499999999991
40
0.0468749999999986
40
0.0468749999999986
40
0.0624999999999982
40
0.0624999999999982
40
0.0781249999999977
40
0.0781249999999977
40
0.0937499999999973
40
0.0937499999999973
40
0.109374999999997
40
0.109374999999997
40
0.124999999999996
40
0.124999999999996
40
0.140624999999996
40
0.140624999999996
40
0.156249999999996
40
0.156249999999996
40
0.171874999999995
40
0.171874999999995
40
0.187499999999995
40
0.187499999999995
40
0.203124999999994
40
0.203124999999994
40
0.210937499999994
40
0.210937499999994
40
0.218749999999994
40
0.218749999999994
40
0.234374999999994
40
0.234374999999994
40
0.249999999999994
40
0.249999999999994
40
0.265624999999994
40
0.265624999999994
40
0.281249999999994
40
0.281249999999994
40
0.296874999999994
40
0.296874999999994
40
0.312499999999994
40
0.312499999999994
40
0.328124999999994
40
0.328124999999994
40
0.343749999999994
40
0.343749999999994
40
0.359374999999994
40
0.359374999999994
40
0.374999999999994
40
0.374999999999994
40
0.390624999999994
40
0.390624999999994
40
0.406249999999994
40
0.406249999999994
40
0.421874999999994
40
0.421874999999994
40
0.437499999999993
40
0.437499999999993
40
0.453124999999993
40
0.453124999999993
40
0.468749999999993
40
0.468749999999993
40
0.476562499999993
40
0.476562499999993
40
0.484374999999993
40
0.484374999999993
40
0.499999999999993
40
0.499999999999993
40
0.515624999999993
40
0.515624999999993
40
0.531249999999993
40
0.531249999999993
40
0.546874999999993
40
0.546874999999993
40
0.562499999999993
40
0.562499999999993
40
0.578124999999993
40
0.578124999999993
40
0.593749999999993
40
0.593749999999993
40
0.609374999999993
40
0.609374999999993
40
0.624999999999993
40
0.624999999999993
40
0.640624999999993
40
0.640624999999993
40
0.656249999999993
40
0.656249999999993
40
0.671874999999993
40
0.671874999999993
40
0.687499999999993
40
0.687499999999993
40
0.703124999999993
40
0.703124999999993
40
0.718749999999993
40
0.718749999999993
40
0.734374999999993
40
0.734374999999993
40
0.742187499999993
40
0.742187499999993
40
0.749999999999993
40
0.749999999999993
40
0.765624999999994
40
0.765624999999994
40
0.781249999999994
40
0.781249999999994
40
0.796874999999994
40
0.796874999999994
40
0.812499999999995
40
0.812499999999995
40
0.828124999999995
40
0.828124999999995
40
0.843749999999996
40
0.843749999999996
40
0.859374999999996
40
0.859374999999996
40
0.874999999999997
40
0.874999999999997
40
0.890624999999997
40
0.890624999999997
40
0.906249999999997
40
0.906249999999997
40
0.921874999999998
40
0.921874999999998
40
0.937499999999998
40
0.937499999999998
40
0.953124999999999
40
0.953124999999999
40
0.968749999999999
40
0.968749999999999
40
0.984375
40
0.984375
40
1
40
1
40
1
40
1
41
1
10
139.4
20
11.0969370842721
30
0
41
1
10
139.45430205116
20
11.0039986532414
30
0
41
1
10
139.508604102321
20
10.8940967290353
30
0
41
1
10
139.617208204642
20
10.6395706447958
30
0
41
1
10
139.671510255802
20
10.4949427643128
30
0
41
1
10
139.780114358123
20
10.1711021829071
30
0
41
1
10
139.834416409284
20
9.99188777973083
30
0
41
1
10
139.943020511605
20
9.60003807313174
30
0
41
1
10
139.997322562765
20
9.3874035000926
30
0
41
1
10
140.105926665086
20
8.93091983612942
30
0
41
1
10
140.160228716247
20
8.68707403351044
30
0
41
1
10
140.268832818568
20
8.1713566443722
30
0
41
1
10
140.323134869728
20
7.89949068744667
30
0
41
1
10
140.431738972049
20
7.33176912291415
30
0
41
1
10
140.48604102321
20
7.03592094475158
30
0
41
1
10
140.594645125531
20
6.42492018611037
30
0
41
1
10
140.648947176691
20
6.10977605627193
30
0
41
1
10
140.757551279012
20
5.46527634614989
30
0
41
1
10
140.811853330173
20
5.13592935874985
30
0
41
1
10
140.920457432493
20
4.46826547897086
30
0
41
1
10
140.974759483654
20
4.12995649286336
30
0
41
1
10
141.083363585975
20
3.44950814358393
30
0
41
1
10
141.137665637136
20
3.10737534754932
30
0
41
1
10
141.246269739456
20
2.4240974505679
30
0
41
1
10
141.300571790617
20
2.08295717684959
30
0
41
1
10
141.409175892938
20
1.40598871364801
30
0
41
1
10
141.463477944098
20
1.07016347837981
30
0
41
1
10
141.544931020839
20
0.573194968074631
30
0
41
1
10
141.572082046419
20
0.408661987073003
30
0
41
1
10
141.62638409758
20
0.0822436186986693
30
0
41
1
10
141.65353512316
20
-0.0789258366560261
30
0
41
1
10
141.734988199901
20
-0.568499318439194
30
0
41
1
10
141.789290251061
20
-0.900203014243687
30
0
41
1
10
141.897894353382
20
-1.57087750782821
30
0
41
1
10
141.952196404543
20
-1.90984626877338
30
0
41
1
10
142.060800506864
20
-2.59102655135422
30
0
41
1
10
142.115102558024
20
-2.93323418788668
30
0
41
1
10
142.223706660345
20
-3.61630819085985
30
0
41
1
10
142.278008711506
20
-3.9571688330181
30
0
41
1
10
142.386612813827
20
-4.63254953646745
30
0
41
1
10
142.440914864987
20
-4.96706229875915
30
0
41
1
10
142.549518967308
20
-5.62452930273113
30
0
41
1
10
142.603821018469
20
-5.94747520216447
30
0
41
1
10
142.71242512079
20
-6.57660885935036
30
0
41
1
10
142.76672717195
20
-6.88278798472078
30
0
41
1
10
142.875331274271
20
-7.47346453013321
30
0
41
1
10
142.929633325432
20
-7.75795389948252
30
0
41
1
10
143.038237427753
20
-8.30085713010371
30
0
41
1
10
143.092539478913
20
-8.55926437040662
30
0
41
1
10
143.201143581234
20
-9.04636259173213
30
0
41
1
10
143.255445632394
20
-9.27504905712482
30
0
41
1
10
143.364049734715
20
-9.69998748605028
30
0
41
1
10
143.418351785876
20
-9.89623742624198
30
0
41
1
10
143.526955888197
20
-10.2546063513832
30
0
41
1
10
143.581257939357
20
-10.4167258496237
30
0
41
1
10
143.689862041678
20
-10.7061817200794
30
0
41
1
10
143.744164092839
20
-10.8335208630033
30
0
41
1
10
143.85276819516
20
-11.0537575059455
30
0
41
1
10
143.90707024632
20
-11.1466595121091
30
0
41
1
10
144.015674348641
20
-11.2992456479702
30
0
41
1
10
144.069976399802
20
-11.3589353698736
30
0
41
1
10
144.178580502123
20
-11.4470489117472
30
0
41
1
10
144.232882553283
20
-11.4754787512177
30
0
41
1
10
144.314335630024
20
-11.4965516889895
30
0
41
1
10
144.341486655604
20
-11.4999844300635
30
0
41
1
10
144.395788706765
20
-11.5000154642158
30
0
41
1
10
144.422939732345
20
-11.4966145686034
30
0
41
1
10
144.504392809086
20
-11.4756394786865
30
0
41
1
10
144.558694860246
20
-11.4472779586322
30
0
41
1
10
144.667298962567
20
-11.359306185883
30
0
41
1
10
144.721601013728
20
-11.2996899134164
30
0
41
1
10
144.830205116048
20
-11.1472543520584
30
0
41
1
10
144.884507167209
20
-11.0544294692611
30
0
41
1
10
144.99311126953
20
-10.8343489109541
30
0
41
1
10
145.047413320691
20
-10.707088726072
30
0
41
1
10
145.156017423011
20
-10.4177904625504
30
0
41
1
10
145.210319474172
20
-10.255749608598
30
0
41
1
10
145.318923576493
20
-9.89753532483468
30
0
41
1
10
145.373225627653
20
-9.7013613761786
30
0
41
1
10
145.481829729974
20
-9.2765699083885
30
0
41
1
10
145.536131781135
20
-9.04795440675332
30
0
41
1
10
145.644735883456
20
-8.56099085329632
30
0
41
1
10
145.699037934616
20
-8.30264731175757
30
0
41
1
10
145.807642036937
20
-7.7598622892726
30
0
41
1
10
145.861944088098
20
-7.4754274251882
30
0
41
1
10
145.970548190419
20
-6.8848492237247
30
0
41
1
10
146.024850241579
20
-6.5787139347139
30
0
41
1
10
146.1334543439
20
-5.9496563573652
30
0
41
1
10
146.187756395061
20
-5.62674270109591
30
0
41
1
10
146.296360497382
20
-4.96932825528344
30
0
41
1
10
146.350662548542
20
-4.63483580956776
30
0
41
1
10
146.459266650863
20
-3.9594840470514
30
0
41
1
10
146.513568702024
20
-3.61863203231866
30
0
41
1
10
146.622172804345
20
-2.93556432761656
30
0
41
1
10
146.676474855505
20
-2.59335436590843
30
0
41
1
10
146.785078957826
20
-1.91215960366301
30
0
41
1
10
146.839381008986
20
-1.57317869250514
30
0
41
1
10
146.947985111308
20
-0.902471461888297
30
0
41
1
10
147.002287162468
20
-0.570747183306594
30
0
41
1
10
147.083740239209
20
-0.0811376484608388
30
0
41
1
10
147.110891264789
20
0.0800317211089805
30
0
41
1
10
147.165193315949
20
0.406426061943989
30
0
41
1
10
147.19234434153
20
0.57094789195358
30
0
41
1
10
147.27379741827
20
1.06788582669429
30
0
41
1
10
147.328099469431
20
1.40369451948007
30
0
41
1
10
147.436703571752
20
2.08063904891543
30
0
41
1
10
147.491005622912
20
2.42177193556739
30
0
41
1
10
147.599609725233
20
3.10504548551987
30
0
41
1
10
147.653911776394
20
3.44718132579271
30
0
41
1
10
147.762515878715
20
4.12764713794076
30
0
41
1
10
147.816817929875
20
4.46597054627878
30
0
41
1
10
147.925422032196
20
5.13367514420167
30
0
41
1
10
147.979724083357
20
5.46304842990267
30
0
41
1
10
148.088328185678
20
6.10761256943206
30
0
41
1
10
148.142630236838
20
6.42279483104312
30
0
41
1
10
148.251234339159
20
7.03388305736755
30
0
41
1
10
148.30553639032
20
7.32978057011283
30
0
41
1
10
148.414140492641
20
7.8976108006371
30
0
41
1
10
148.468442543801
20
8.16953608570384
30
0
41
1
10
148.577046646122
20
8.68538041148346
30
0
41
1
10
148.631348697283
20
8.92929381779021
30
0
41
1
10
148.739952799603
20
9.38591886691881
30
0
41
1
10
148.794254850764
20
9.59862721574089
30
0
41
1
10
148.902858953085
20
9.99062832340877
30
0
41
1
10
148.957161004245
20
10.1699203460792
30
0
41
1
10
149.065765106566
20
10.4939176373661
30
0
41
1
10
149.120067157727
20
10.638624603088
30
0
41
1
10
149.228671260048
20
10.89330806663
30
0
41
1
10
149.282973311208
20
11.0032882809492
30
0
41
1
10
149.391577413529
20
11.1893189249459
30
0
41
1
10
149.44587946469
20
11.2653744893835
30
0
41
1
10
149.554483567011
20
11.3851656759205
30
0
41
1
10
149.608785618171
20
11.4289071831876
30
0
41
1
10
149.717389720492
20
11.4863213402954
30
0
41
1
10
149.771691771653
20
11.5
30
0
41
1
10
149.825993822813
20
11.5
30
0
0
SPLINE
5
106
100
AcDbEntity
8
1
62
256
6
ByLayer
370
13
48
1
60
0
100
AcDbSpline
70
4
71
3
72
14
73
10
40
0
40
0
40
0
40
0
40
0.25
40
0.25
40
0.5
40
0.5
40
0.75
40
0.75
40
1
40
1
40
1
40
1
41
1
10
149.16698112257
20
11.5
30
0
41
1
10
149.262594554517
20
11.5
30
0
41
1
10
149.358207986465
20
11.4574744135506
30
0
41
1
10
149.549434850359
20
11.2735268453812
30
0
41
1
10
149.645048282307
20
11.1320048767904
30
0
41
1
10
149.836275146202
20
10.7417489151933
30
0
41
1
10
149.931888578149
20
10.4929402578937
30
0
41
1
10
150.123115442044
20
9.88826159868256
30
0
41
1
10
150.218728873991
20
9.53237456027463
30
0
41
1
10
150.314342305939
20
9.12801222369873
30
0
0
SPLINE
5
107
100
AcDbEntity
8
1
62
256
6
ByLayer
370
13
48
1
60
0
100
AcDbSpline
70
4
71
3
72
8
73
4
40
0
40
0
40
0
40
0
40
1
40
1
40
1
40
1
41
1
10
150.314342305939
20
-9.27641407522455
30
0
41
1
10
151.709561537292
20
-6.17479285455605
30
0
41
1
10
153.104780768646
20
-3.08262777049905
30
0
41
1
10
154.5
20
0
30
0
0
SPLINE
5
108
100
AcDbEntity
8
1
62
256
6
ByLayer
370
13
48
1
60
0
100
AcDbSpline
70
4
71
3
72
8
73
4
40
0
40
0
40
0
40
0
40
1
40
1
40
1
40
1
41
1
10
150.314342305939
20
-10.489013382971
30
0
41
1
10
151.709561537292
20
-6.98609722270294
30
0
41
1
10
153.104780768646
20
-3.48972882018484
30
0
41
1
10
154.5
20
0
30
0
0
SPLINE
5
109
100
AcDbEntity
8
1
62
256
6
ByLayer
370
13
48
1
60
0
100
AcDbSpline
70
4
71
3
72
8
73
4
40
0
40
0
40
0
40
0
40
1
40
1
40
1
40
1
41
1
10
150.314342305939
20
-4.67902242386981
30
0
41
1
10
151.709561537292
20
-3.13400517510146
30
0
41
1
10
153.104780768646
20
-1.57431732849878
30
0
41
1
10
154.5
20
2.558E-13
30
0
0
SPLINE
5
10A
100
AcDbEntity
8
1
62
256
6
ByLayer
370
13
48
1
60
0
100
AcDbSpline
70
4
71
3
72
8
73
4
40
0
40
0
40
0
40
0
40
1
40
1
40
1
40
1
41
1
10
150.314342305939
20
-2.38751409346923
30
0
41
1
10
151.709561537292
20
-1.60737148966183
30
0
41
1
10
153.104780768646
20
-0.8115264412518
30
0
41
1
10
154.5
20
1.421E-13
30
0
0
SPLINE
5
10B
100
AcDbEntity
8
1
62
256
6
ByLayer
370
13
48
1
60
0
100
AcDbSpline
70
4
71
3
72
8
73
4
40
0
40
0
40
0
40
0
40
1
40
1
40
1
40
1
41
1
10
150.314342305939
20
10.5455470239665
30
0
41
1
10
151.709561537292
20
7.03676468541295
30
0
41
1
10
153.104780768646
20
3.52155153292469
30
0
41
1
10
154.5
20
0
30
0
0
SPLINE
5
10C
100
AcDbEntity
8
1
62
256
6
ByLayer
370
13
48
1
60
0
100
AcDbSpline
70
4
71
3
72
8
73
4
40
0
40
0
40
0
40
0
40
1
40
1
40
1
40
1
41
1
10
150.314342305939
20
9.35834317344859
30
0
41
1
10
151.709561537292
20
6.24822063058531
30
0
41
1
10
153.104780768646
20
3.12874555297179
30
0
41
1
10
154.5
20
0
30
0
0
SPLINE
5
10D
100
AcDbEntity
8
1
62
256
6
ByLayer
370
13
48
1
60
0
100
AcDbSpline
70
4
71
3
72
8
73
4
40
0
40
0
40
0
40
0
40
1
40
1
40
1
40
1
41
1
10
150.314342305939
20
11.25753648879
30
0
41
1
10
151.709561537292
20
7.50174693473971
30
0
41
1
10
153.104780768646
20
3.74920190992714
30
0
41
1
10
154.5
20
6.253E-13
30
0
0
SPLINE
5
10E
100
AcDbEntity
8
1
62
256
6
ByLayer
370
13
48
1
60
0
100
AcDbSpline
70
4
71
3
72
8
73
4
40
0
40
0
40
0
40
0
40
1
40
1
40
1
40
1
41
1
10
150.314342305939
20
-8.51336209003941
30
0
41
1
10
151.709561537292
20
-5.66478789836597
30
0
41
1
10
153.104780768646
20
-2.82697570791814
30
0
41
1
10
154.5
20
0
30
0
0
SPLINE
5
10F
100
AcDbEntity
8
1
62
256
6
ByLayer
370
13
48
1
60
0
100
AcDbSpline
70
4
71
3
72
8
73
4
40
0
40
0
40
0
40
0
40
1
40
1
40
1
40
1
41
1
10
150.314342305939
20
-6.71564395598767
30
0
41
1
10
151.709561537292
20
-4.46407100868197
30
0
41
1
10
153.104780768646
20
-2.22550345203513
30
0
41
1
10
154.5
20
0
30
0
0
SPLINE
5
110
100
AcDbEntity
8
1
62
256
6
ByLayer
370
13
48
1
60
0
100
AcDbSpline
70
4
71
3
72
8
73
4
40
0
40
0
40
0
40
0
40
1
40
1
40
1
40
1
41
1
10
150.314342305939
20
-5.75374141618218
30
0
41
1
10
151.709561537292
20
-3.84971999158597
30
0
41
1
10
153.104780768646
20
-1.93178934498491
30
0
41
1
10
154.5
20
3.126E-13
30
0
0
SPLINE
5
111
100
AcDbEntity
8
1
62
256
6
ByLayer
370
13
48
1
60
0
100
AcDbSpline
70
4
71
3
72
8
73
4
40
0
40
0
40
0
40
0
40
1
40
1
40
1
40
1
41
1
10
150.314342305939
20
-7.70210846832777
30
0
41
1
10
151.709561537292
20
-5.14665381825213
30
0
41
1
10
153.104780768646
20
-2.57926180424104
30
0
41
1
10
154.5
20
0
30
0
0
SPLINE
5
112
100
AcDbEntity
8
1
62
256
6
ByLayer
370
13
48
1
60
0
100
AcDbSpline
70
4
71
3
72
8
73
4
40
0
40
0
40
0
40
0
40
1
40
1
40
1
40
1
41
1
10
150.314342305939
20
-9.93738894899769
30
0
41
1
10
151.709561537292
20
-6.61685075566115
30
0
41
1
10
153.104780768646
20
-3.30435877955441
30
0
41
1
10
154.5
20
0
30
0
0
SPLINE
5
113
100
AcDbEntity
8
1
62
256
6
ByLayer
370
13
48
1
60
0
100
AcDbSpline
70
4
71
3
72
8
73
4
40
0
40
0
40
0
40
0
40
1
40
1
40
1
40
1
41
1
10
150.314342305939
20
9.97675671331774
30
0
41
1
10
151.709561537292
20
6.64319098515108
30
0
41
1
10
153.104780768646
20
3.31757630570834
30
0
41
1
10
154.5
20
5.4E-13
30
0
0
SPLINE
5
114
100
AcDbEntity
8
1
62
256
6
ByLayer
370
13
48
1
60
0
100
AcDbSpline
70
4
71
3
72
8
73
4
40
0
40
0
40
0
40
0
40
1
40
1
40
1
40
1
41
1
10
150.314342305939
20
11.4476540155185
30
0
41
1
10
151.709561537292
20
7.63329850493739
30
0
41
1
10
153.104780768646
20
3.81738040204641
30
0
41
1
10
154.5
20
0
30
0
0
SPLINE
5
115
100
AcDbEntity
8
1
62
256
6
ByLayer
370
13
48
1
60
0
100
AcDbSpline
70
4
71
3
72
8
73
4
40
0
40
0
40
0
40
0
40
1
40
1
40
1
40
1
41
1
10
150.314342305939
20
-3.49465700281724
30
0
41
1
10
151.709561537292
20
-2.31448509450379
30
0
41
1
10
153.104780768646
20
-1.14958926730665
30
0
41
1
10
154.5
20
0
30
0
0
SPLINE
5
116
100
AcDbEntity
8
1
62
256
6
ByLayer
370
13
48
1
60
0
100
AcDbSpline
70
4
71
3
72
8
73
4
40
0
40
0
40
0
40
0
40
1
40
1
40
1
40
1
41
1
10
150.314342305939
20
-3.55281574575693
30
0
41
1
10
151.709561537292
20
-2.38380395117235
30
0
41
1
10
153.104780768646
20
-1.19952161731413
30
0
41
1
10
154.5
20
-1.99E-13
30
0
0
SPLINE
5
117
100
AcDbEntity
8
1
62
256
6
ByLayer
370
13
48
1
60
0
100
AcDbSpline
70
4
71
3
72
8
73
4
40
0
40
0
40
0
40
0
40
1
40
1
40
1
40
1
41
1
10
150.314342305939
20
-9.9679980769865
30
0
41
1
10
151.709561537292
20
-6.65333348634888
30
0
41
1
10
153.104780768646
20
-3.33063833125902
30
0
41
1
10
154.5
20
0
30
0
0
SPLINE
5
118
100
AcDbEntity
8
1
62
256
6
ByLayer
370
13
48
1
60
0
100
AcDbSpline
70
4
71
3
72
8
73
4
40
0
40
0
40
0
40
0
40
1
40
1
40
1
40
1
41
1
10
150.314342305939
20
10.9680481377746
30
0
41
1
10
151.709561537292
20
7.31685558086104
30
0
41
1
10
153.104780768646
20
3.66080749469094
30
0
41
1
10
154.5
20
-5.68E-14
30
0
0
SPLINE
5
119
100
AcDbEntity
8
1
62
256
6
ByLayer
370
13
48
1
60
0
100
AcDbSpline
70
4
71
3
72
8
73
4
40
0
40
0
40
0
40
0
40
1
40
1
40
1
40
1
41
1
10
150.314342305939
20
7.71515919745303
30
0
41
1
10
151.709561537292
20
5.13154107343783
30
0
41
1
10
153.104780768646
20
2.55979884781087
30
0
41
1
10
154.5
20
-3.979E-13
30
0
0
SPLINE
5
11A
100
AcDbEntity
8
1
62
256
6
ByLayer
370
13
48
1
60
0
100
AcDbSpline
70
4
71
3
72
8
73
4
40
0
40
0
40
0
40
0
40
1
40
1
40
1
40
1
41
1
10
150.314342305939
20
10.0070033348984
30
0
41
1
10
151.709561537292
20
6.67924164787328
30
0
41
1
10
153.104780768646
20
3.34354462653113
30
0
41
1
10
154.5
20
8.53E-14
30
0
0
SPLINE
5
11B
100
AcDbEntity
8
1
62
256
6
ByLayer
370
13
48
1
60
0
100
AcDbSpline
70
4
71
3
72
8
73
4
40
0
40
0
40
0
40
0
40
1
40
1
40
1
40
1
41
1
10
150.314342305939
20
0.0698906568475479
30
0
41
1
10
151.709561537292
20
0.062638496075067
30
0
41
1
10
153.104780768646
20
0.0393413595321022
30
0
41
1
10
154.5
20
0
30
0
0
SPLINE
5
11C
100
AcDbEntity
8
1
62
256
6
ByLayer
370
13
48
1
60
0
100
AcDbSpline
70
4
71
3
72
8
73
4
40
0
40
0
40
0
40
0
40
1
40
1
40
1
40
1
41
1
10
150.314342305939
20
10.9495261108201
30
0
41
1
10
151.709561537292
20
7.29477935178863
30
0
41
1
10
153.104780768646
20
3.64490535709251
30
0
41
1
10
154.5
20
-5.684E-13
30
0
0
SPLINE
5
11D
100
AcDbEntity
8
1
62
256
6
ByLayer
370
13
48
1
60
0
100
AcDbSpline
70
4
71
3
72
8
73
4
40
0
40
0
40
0
40
0
40
1
40
1
40
1
40
1
41
1
10
150.314342305939
20
-11.2539310092381
30
0
41
1
10
151.709561537292
20
-7.50592208019435
30
0
41
1
10
153.104780768646
20
-3.75457887321696
30
0
41
1
10
154.5
20
0
30
0
0
SPLINE
5
11E
100
AcDbEntity
8
1
62
256
6
ByLayer
370
13
48
1
60
0
100
AcDbSpline
70
4
71
3
72
8
73
4
40
0
40
0
40
0
40
0
40
1
40
1
40
1
40
1
41
1
10
150.314342305939
20
11.4416696015719
30
0
41
1
10
151.709561537292
20
7.62616573844915
30
0
41
1
10
153.104780768646
20
3.81224246685889
30
0
41
1
10
154.5
20
-5.969E-13
30
0
0
SPLINE
5
11F
100
AcDbEntity
8
1
62
256
6
ByLayer
370
13
48
1
60
0
100
AcDbSpline
70
4
71
3
72
8
73
4
40
0
40
0
40
0
40
0
40
1
40
1
40
1
40
1
41
1
10
150.314342305939
20
4.69508222496165
30
0
41
1
10
151.709561537292
20
3.11540792483677
30
0
41
1
10
153.104780768646
20
1.55036684987533
30
0
41
1
10
154.5
20
-2.558E-13
30
0
0
SPLINE
5
120
100
AcDbEntity
8
1
62
256
6
ByLayer
370
13
48
1
60
0
100
AcDbSpline
70
4
71
3
72
8
73
4
40
0
40
0
40
0
40
0
40
1
40
1
40
1
40
1
41
1
10
150.314342305939
20
-5.70075979106105
30
0
41
1
10
151.709561537292
20
-3.78657169277159
30
0
41
1
10
153.104780768646
20
-1.88630182383557
30
0
41
1
10
154.5
20
0
30
0
0
SPLINE
5
121
100
AcDbEntity
8
1
62
256
6
ByLayer
370
13
48
1
60
0
100
AcDbSpline
70
4
71
3
72
8
73
4
40
0
40
0
40
0
40
0
40
1
40
1
40
1
40
1
41
1
10
150.314342305939
20
3.62756734650739
30
0
41
1
10
151.709561537292
20
2.43360407860106
30
0
41
1
10
153.104780768646
20
1.22440432632169
30
0
41
1
10
154.5
20
0
30
0
0
SPLINE
5
122
100
AcDbEntity
8
1
62
256
6
ByLayer
370
13
48
1
60
0
100
AcDbSpline
70
4
71
3
72
8
73
4
40
0
40
0
40
0
40
0
40
1
40
1
40
1
40
1
41
1
10
150.314342305939
20
-7.65662957232217
30
0
41
1
10
151.709561537292
20
-5.09244795144156
30
0
41
1
10
153.104780768646
20
-2.54021577197625
30
0
41
1
10
154.5
20
0
30
0
0
SPLINE
5
123
100
AcDbEntity
8
1
62
256
6
ByLayer
370
13
48
1
60
0
100
AcDbSpline
70
4
71
3
72
8
73
4
40
0
40
0
40
0
40
0
40
1
40
1
40
1
40
1
41
1
10
150.314342305939
20
-11.4334868391715
30
0
41
1
10
151.709561537292
20
-7.6206013768801
30
0
41
1
10
153.104780768646
20
-3.80940571696891
30
0
41
1
10
154.5
20
0
30
0
0
SPLINE
5
124
100
AcDbEntity
8
1
62
256
6
ByLayer
370
13
48
1
60
0
100
AcDbSpline
70
4
71
3
72
8
73
4
40
0
40
0
40
0
40
0
40
1
40
1
40
1
40
1
41
1
10
150.314342305939
20
-8.55431681244357
30
0
41
1
10
151.709561537292
20
-5.7136014453709
30
0
41
1
10
153.104780768646
20
-2.86213749839325
30
0
41
1
10
154.5
20
0
30
0
0
SPLINE
5
125
100
AcDbEntity
8
1
62
256
6
ByLayer
370
13
48
1
60
0
100
AcDbSpline
70
4
71
3
72
8
73
4
40
0
40
0
40
0
40
0
40
1
40
1
40
1
40
1
41
1
10
150.314342305939
20
1.21343040693989
30
0
41
1
10
151.709561537292
20
0.792998152575052
30
0
41
1
10
153.104780768646
20
0.388517853693827
30
0
41
1
10
154.5
20
-5.68E-14
30
0
0
SPLINE
5
126
100
AcDbEntity
8
1
62
256
6
ByLayer
370
13
48
1
60
0
100
AcDbSpline
70
4
71
3
72
8
73
4
40
0
40
0
40
0
40
0
40
1
40
1
40
1
40
1
41
1
10
150.314342305939
20
-6.76514657851499
30
0
41
1
10
151.709561537292
20
-4.52307271714821
30
0
41
1
10
153.104780768646
20
-2.2680040658617
30
0
41
1
10
154.5
20
0
30
0
0
SPLINE
5
127
100
AcDbEntity
8
1
62
256
6
ByLayer
370
13
48
1
60
0
100
AcDbSpline
70
4
71
3
72
8
73
4
40
0
40
0
40
0
40
0
40
1
40
1
40
1
40
1
41
1
10
150.314342305939
20
9.32270199065707
30
0
41
1
10
151.709561537292
20
6.20574024128234
30
0
41
1
10
153.104780768646
20
3.09814571666334
30
0
41
1
10
154.5
20
-4.832E-13
30
0
0
SPLINE
5
128
100
AcDbEntity
8
1
62
256
6
ByLayer
370
13
48
1
60
0
100
AcDbSpline
70
4
71
3
72
8
73
4
40
0
40
0
40
0
40
0
40
1
40
1
40
1
40
1
41
1
10
150.314342305939
20
11.2698574990745
30
0
41
1
10
151.709561537292
20
7.51643223058275
30
0
41
1
10
153.104780768646
20
3.7597801474692
30
0
41
1
10
154.5
20
0
30
0
0
SPLINE
5
129
100
AcDbEntity
8
1
62
256
6
ByLayer
370
13
48
1
60
0
100
AcDbSpline
70
4
71
3
72
8
73
4
40
0
40
0
40
0
40
0
40
1
40
1
40
1
40
1
41
1
10
150.314342305939
20
-2.32771420400246
30
0
41
1
10
151.709561537292
20
-1.53609656594077
30
0
41
1
10
153.104780768646
20
-0.760185080343291
30
0
41
1
10
154.5
20
0
30
0
0
SPLINE
5
12A
100
AcDbEntity
8
1
62
256
6
ByLayer
370
13
48
1
60
0
100
AcDbSpline
70
4
71
3
72
8
73
4
40
0
40
0
40
0
40
0
40
1
40
1
40
1
40
1
41
1
10
150.314342305939
20
10.5210277956302
30
0
41
1
10
151.709561537293
20
7.00754044862919
30
0
41
1
10
153.104780768647
20
3.50050048145079
30
0
41
1
10
154.500000000001
20
-1.7053E-12
30
0
0
SPLINE
5
12B
100
AcDbEntity
8
1
62
256
6
ByLayer
370
13
48
1
60
0
100
AcDbSpline
70
4
71
3
72
8
73
4
40
0
40
0
40
0
40
0
40
1
40
1
40
1
40
1
41
1
10
150.314342305939
20
-10.5139149324546
30
0
41
1
10
151.709561537293
20
-7.01577714445182
30
0
41
1
10
153.104780768646
20
-3.51110811453799
30
0
41
1
10
154.5
20
5.684E-13
30
0
0
SPLINE
5
12C
100
AcDbEntity
8
1
62
256
6
ByLayer
370
13
48
1
60
0
100
AcDbSpline
70
4
71
3
72
8
73
4
40
0
40
0
40
0
40
0
40
1
40
1
40
1
40
1
41
1
10
150.314342305939
20
-4.62314480282211
30
0
41
1
10
151.709561537292
20
-3.06740516608147
30
0
41
1
10
153.104780768646
20
-1.52634344201687
30
0
41
1
10
154.5
20
0
30
0
0
SPLINE
5
12D
100
AcDbEntity
8
1
62
256
6
ByLayer
370
13
48
1
60
0
100
AcDbSpline
70
4
71
3
72
8
73
4
40
0
40
0
40
0
40
0
40
1
40
1
40
1
40
1
41
1
10
150.314342305939
20
6.77936043265547
30
0
41
1
10
151.709561537292
20
4.50661307352271
30
0
41
1
10
153.104780768646
20
2.24680650508276
30
0
41
1
10
154.5
20
-3.695E-13
30
0
0
SPLINE
5
12E
100
AcDbEntity
8
1
62
256
6
ByLayer
370
13
48
1
60
0
100
AcDbSpline
70
4
71
3
72
8
73
4
40
0
40
0
40
0
40
0
40
1
40
1
40
1
40
1
41
1
10
150.314342305939
20
-9.31239396068602
30
0
41
1
10
151.709561537292
20
-6.21767694037339
30
0
41
1
10
153.104780768646
20
-3.11351840092331
30
0
41
1
10
154.5
20
0
30
0
0
SPLINE
5
12F
100
AcDbEntity
8
1
62
256
6
ByLayer
370
13
48
1
60
0
100
AcDbSpline
70
4
71
3
72
8
73
4
40
0
40
0
40
0
40
0
40
1
40
1
40
1
40
1
41
1
10
150.314342305939
20
1.27416961690838
30
0
41
1
10
151.709561537292
20
0.865392643534705
30
0
41
1
10
153.104780768646
20
0.440665670823762
30
0
41
1
10
154.5
20
0
30
0
0
SPLINE
5
130
100
AcDbEntity
8
1
62
256
6
ByLayer
370
13
48
1
60
0
100
AcDbSpline
70
4
71
3
72
8
73
4
40
0
40
0
40
0
40
0
40
1
40
1
40
1
40
1
41
1
10
150.314342305939
20
8.56606080710276
30
0
41
1
10
151.709561537292
20
5.70000189911721
30
0
41
1
10
153.104780768646
20
2.8446233155324
30
0
41
1
10
154.5
20
-4.547E-13
30
0
0
SPLINE
5
131
100
AcDbEntity
8
1
62
256
6
ByLayer
370
13
48
1
60
0
100
AcDbSpline
70
4
71
3
72
8
73
4
40
0
40
0
40
0
40
0
40
1
40
1
40
1
40
1
41
1
10
150.314342305939
20
-11.4398871374462
30
0
41
1
10
151.709561537292
20
-7.62822983197239
30
0
41
1
10
153.104780768646
20
-3.81490071079872
30
0
41
1
10
154.5
20
0
30
0
0
SPLINE
5
132
100
AcDbEntity
8
1
62
256
6
ByLayer
370
13
48
1
60
0
100
AcDbSpline
70
4
71
3
72
8
73
4
40
0
40
0
40
0
40
0
40
1
40
1
40
1
40
1
41
1
10
150.314342305939
20
-1.13515737586442
30
0
41
1
10
151.709561537292
20
-0.74080492168784
30
0
41
1
10
153.104780768646
20
-0.362415861751231
30
0
41
1
10
154.5
20
0
30
0
0
SPLINE
5
133
100
AcDbEntity
8
1
62
256
6
ByLayer
370
13
48
1
60
0
100
AcDbSpline
70
4
71
3
72
8
73
4
40
0
40
0
40
0
40
0
40
1
40
1
40
1
40
1
41
1
10
150.314342305939
20
3.56953805609419
30
0
41
1
10
151.709561537292
20
2.36443951517654
30
0
41
1
10
153.104780768646
20
1.17458311813959
30
0
41
1
10
154.5
20
-1.99E-13
30
0
0
SPLINE
5
134
100
AcDbEntity
8
1
62
256
6
ByLayer
370
13
48
1
60
0
100
AcDbSpline
70
4
71
3
72
8
73
4
40
0
40
0
40
0
40
0
40
1
40
1
40
1
40
1
41
1
10
150.314342305939
20
-1.19594037741419
30
0
41
1
10
151.709561537292
20
-0.813251607419659
30
0
41
1
10
153.104780768646
20
-0.414601276264534
30
0
41
1
10
154.5
20
5.68E-14
30
0
0
SPLINE
5
135
100
AcDbEntity
8
1
62
256
6
ByLayer
370
13
48
1
60
0
100
AcDbSpline
70
4
71
3
72
8
73
4
40
0
40
0
40
0
40
0
40
1
40
1
40
1
40
1
41
1
10
150.314342305939
20
4.75078946672684
30
0
41
1
10
151.709561537292
20
3.18180486039887
30
0
41
1
10
153.104780768646
20
1.59819445675245
30
0
41
1
10
154.5
20
0
30
0
0
SPLINE
5
136
100
AcDbEntity
8
1
62
256
6
ByLayer
370
13
48
1
60
0
100
AcDbSpline
70
4
71
3
72
8
73
4
40
0
40
0
40
0
40
0
40
1
40
1
40
1
40
1
41
1
10
150.314342305939
20
-10.9441372903254
30
0
41
1
10
151.709561537292
20
-7.30101960612205
30
0
41
1
10
153.104780768646
20
-3.65294187194814
30
0
41
1
10
154.5
20
0
30
0
0
SPLINE
5
137
100
AcDbEntity
8
1
62
256
6
ByLayer
370
13
48
1
60
0
100
AcDbSpline
70
4
71
3
72
8
73
4
40
0
40
0
40
0
40
0
40
1
40
1
40
1
40
1
41
1
10
150.314342305939
20
-11.241200841192
30
0
41
1
10
151.709561537292
20
-7.49074911307807
30
0
41
1
10
153.104780768646
20
-3.74364935214413
30
0
41
1
10
154.5
20
0
30
0
0
SPLINE
5
138
100
AcDbEntity
8
1
62
256
6
ByLayer
370
13
48
1
60
0
100
AcDbSpline
70
4
71
3
72
8
73
4
40
0
40
0
40
0
40
0
40
1
40
1
40
1
40
1
41
1
10
150.314342305939
20
5.76896198692793
30
0
41
1
10
151.709561537292
20
3.8320945700934
30
0
41
1
10
153.104780768646
20
1.90909043656137
30
0
41
1
10
154.5
20
-3.126E-13
30
0
0
SPLINE
5
139
100
AcDbEntity
8
1
62
256
6
ByLayer
370
13
48
1
60
0
100
AcDbSpline
70
4
71
3
72
8
73
4
40
0
40
0
40
0
40
0
40
1
40
1
40
1
40
1
41
1
10
150.314342305939
20
0.0087933957661335
30
0
41
1
10
151.709561537292
20
-0.0101827526258944
30
0
41
1
10
153.104780768646
20
-0.0131138633735191
30
0
41
1
10
154.5
20
0
30
0
0
SPLINE
5
13A
100
AcDbEntity
8
1
62
256
6
ByLayer
370
13
48
1
60
0
100
AcDbSpline
70
4
71
3
72
8
73
4
40
0
40
0
40
0
40
0
40
1
40
1
40
1
40
1
41
1
10
150.314342305939
20
2.46442768992299
30
0
41
1
10
151.709561537292
20
1.65862406156756
30
0
41
1
10
153.104780768646
20
0.83714092315671
30
0
41
1
10
154.5
20
0
30
0
0
SPLINE
5
13B
100
AcDbEntity
8
1
62
256
6
ByLayer
370
13
48
1
60
0
100
AcDbSpline
70
4
71
3
72
8
73
4
40
0
40
0
40
0
40
0
40
1
40
1
40
1
40
1
41
1
10
150.314342305939
20
7.7603578765102
30
0
41
1
10
151.709561537292
20
5.18541295231324
30
0
41
1
10
153.104780768646
20
2.59860429903813
30
0
41
1
10
154.5
20
0
30
0
0
SPLINE
5
13C
100
AcDbEntity
8
1
62
256
6
ByLayer
370
13
48
1
60
0
100
AcDbSpline
70
4
71
3
72
8
73
4
40
0
40
0
40
0
40
0
40
1
40
1
40
1
40
1
41
1
10
150.314342305939
20
-11.4999594247219
30
0
41
1
10
151.709561537292
20
-7.66659699419503
30
0
41
1
10
153.104780768646
20
-3.83324360676321
30
0
41
1
10
154.5
20
0
30
0
0
SPLINE
5
13D
100
AcDbEntity
8
1
62
256
6
ByLayer
370
13
48
1
60
0
100
AcDbSpline
70
4
71
3
72
8
73
4
40
0
40
0
40
0
40
0
40
1
40
1
40
1
40
1
41
1
10
150.314342305939
20
2.40471490173877
30
0
41
1
10
151.709561537292
20
1.58745295304271
30
0
41
1
10
153.104780768646
20
0.785874343295518
30
0
41
1
10
154.5
20
-1.137E-13
30
0
0
SPLINE
5
13E
100
AcDbEntity
8
1
62
256
6
ByLayer
370
13
48
1
60
0
100
AcDbSpline
70
4
71
3
72
8
73
4
40
0
40
0
40
0
40
0
40
1
40
1
40
1
40
1
41
1
10
150.314342305939
20
5.82173418085409
30
0
41
1
10
151.709561537292
20
3.89499324984416
30
0
41
1
10
153.104780768646
20
1.95439814997835
30
0
41
1
10
154.5
20
0
30
0
0
SPLINE
5
13F
100
AcDbEntity
8
1
62
256
6
ByLayer
370
13
48
1
60
0
100
AcDbSpline
70
4
71
3
72
8
73
4
40
0
40
0
40
0
40
0
40
1
40
1
40
1
40
1
41
1
10
150.314342305939
20
-10.9252173345238
30
0
41
1
10
151.709561537292
20
-7.27846908941385
30
0
41
1
10
153.104780768646
20
-3.63669809143533
30
0
41
1
10
154.5
20
0
30
0
0
SPLINE
5
140
100
AcDbEntity
8
1
62
256
6
ByLayer
370
13
48
1
60
0
100
AcDbSpline
70
4
71
3
72
8
73
4
40
0
40
0
40
0
40
0
40
1
40
1
40
1
40
1
41
1
10
150.314342305939
20
8.60670435763933
30
0
41
1
10
151.709561537292
20
5.74844456331115
30
0
41
1
10
153.104780768646
20
2.87951794853836
30
0
41
1
10
154.5
20
0
30
0
0
SPLINE
5
141
100
AcDbEntity
8
1
62
256
6
ByLayer
370
13
48
1
60
0
100
AcDbSpline
70
4
71
3
72
8
73
4
40
0
40
0
40
0
40
0
40
1
40
1
40
1
40
1
41
1
10
150.314342305939
20
6.82861687664422
30
0
41
1
10
151.709561537292
20
4.56532136411315
30
0
41
1
10
153.104780768646
20
2.2890957616429
30
0
41
1
10
154.5
20
0
30
0
0
LINE
5
7D
100
AcDbEntity
8
80
62
256
6
ByLayer
370
18
48
1
60
0
100
AcDbLine
10
0
20
0
30
0
11
-5
21
0
31
0
39
0
210
0
220
0
230
1
0
LINE
5
7E
100
AcDbEntity
8
4
62
256
6
ByLayer
370
18
48
0.05
60
0
100
AcDbLine
10
-5
20
0
30
0
11
159.5
21
0
31
0
39
0
210
0
220
0
230
1
0
LINE
5
80
100
AcDbEntity
8
SK4
62
256
6
ByLayer
370
18
48
0.05
60
0
100
AcDbLine
10
-61
20
0
30
0
11
159.5
21
0
31
0
39
0
210
0
220
0
230
1
0
LINE
5
82
100
AcDbEntity
8
81
62
256
6
ByLayer
370
18
48
1
60
0
100
AcDbLine
10
154.5
20
0
30
0
11
159.5
21
0
31
0
39
0
210
0
220
0
230
1
0
LINE
5
83
100
AcDbEntity
8
1
62
256
6
ByLayer
370
18
48
1
60
0
100
AcDbLine
10
43.278237
20
-11.3
30
0
11
95.94558
21
-11.3
31
0
39
0
210
0
220
0
230
1
0
LINE
5
84
100
AcDbEntity
8
1
62
256
6
ByLayer
370
18
48
1
60
0
100
AcDbLine
10
95.94558
20
11.3
30
0
11
43.278237
21
11.3
31
0
39
0
210
0
220
0
230
1
0
LINE
5
85
100
AcDbEntity
8
1
62
256
6
ByLayer
370
18
48
1
60
0
100
AcDbLine
10
154.5
20
0
30
0
11
150.314342
21
11.5
31
0
39
0
210
0
220
0
230
1
0
LINE
5
86
100
AcDbEntity
8
1
62
256
6
ByLayer
370
18
48
1
60
0
100
AcDbLine
10
150.314342
20
-11.5
30
0
11
154.5
21
0
31
0
39
0
210
0
220
0
230
1
0
LINE
5
87
100
AcDbEntity
8
1
62
256
6
ByLayer
370
18
48
1
60
0
100
AcDbLine
10
4.053251
20
12.01361
30
0
11
0
21
12.5
31
0
39
0
210
0
220
0
230
1
0
LINE
5
88
100
AcDbEntity
8
1
62
256
6
ByLayer
370
18
48
1
60
0
100
AcDbLine
10
0
20
-12.5
30
0
11
4.053251
21
-12.01361
31
0
39
0
210
0
220
0
230
1
0
LINE
5
89
100
AcDbEntity
8
1
62
256
6
ByLayer
370
18
48
1
60
0
100
AcDbLine
10
154.5
20
0
30
0
11
150.314342
21
11.5
31
0
39
0
210
0
220
0
230
1
0
LINE
5
8A
100
AcDbEntity
8
1
62
256
6
ByLayer
370
18
48
1
60
0
100
AcDbLine
10
150.314342
20
-11.5
30
0
11
154.5
21
0
31
0
39
0
210
0
220
0
230
1
0
LINE
5
8B
100
AcDbEntity
8
1
62
256
6
ByLayer
370
18
48
1
60
0
100
AcDbLine
10
150.314342
20
11.5
30
0
11
139.4
21
11.5
31
0
39
0
210
0
220
0
230
1
0
LINE
5
8C
100
AcDbEntity
8
1
62
256
6
ByLayer
370
18
48
1
60
0
100
AcDbLine
10
139.4
20
-11.5
30
0
11
150.314342
21
-11.5
31
0
39
0
210
0
220
0
230
1
0
LINE
5
8D
100
AcDbEntity
8
SK1
62
256
6
ByLayer
370
18
48
1
60
0
100
AcDbLine
10
-56
20
-11.5
30
0
11
-55
21
-12.5
31
0
39
0
210
0
220
0
230
1
0
LINE
5
8F
100
AcDbEntity
8
SK1
62
256
6
ByLayer
370
18
48
1
60
0
100
AcDbLine
10
-55
20
12.5
30
0
11
-56
21
11.5
31
0
39
0
210
0
220
0
230
1
0
LINE
5
90
100
AcDbEntity
8
SK1
62
256
6
ByLayer
370
18
48
1
60
0
100
AcDbLine
10
-55
20
-12.5
30
0
11
0
21
-12.5
31
0
39
0
210
0
220
0
230
1
0
LINE
5
91
100
AcDbEntity
8
SK1
62
256
6
ByLayer
370
18
48
1
60
0
100
AcDbLine
10
0
20
12.5
30
0
11
-55
21
12.5
31
0
39
0
210
0
220
0
230
1
0
LINE
5
92
100
AcDbEntity
8
1
62
256
6
ByLayer
370
18
48
1
60
0
100
AcDbLine
10
0
20
12.5
30
0
11
0
21
-12.5
31
0
39
0
210
0
220
0
230
1
0
LINE
5
93
100
AcDbEntity
8
1
62
256
6
ByLayer
370
18
48
1
60
0
100
AcDbLine
10
150.314342
20
11.5
30
0
11
150.314342
21
11.134834
31
0
39
0
210
0
220
0
230
1
0
LINE
5
94
100
AcDbEntity
8
1
62
256
6
ByLayer
370
18
48
1
60
0
100
AcDbLine
10
150.314342
20
-11.5
30
0
11
150.314342
21
-1.643572
31
0
39
0
210
0
220
0
230
1
0
LINE
5
95
100
AcDbEntity
8
1
62
256
6
ByLayer
370
18
48
1
60
0
100
AcDbLine
10
10
20
-7.375422
30
0
11
10
21
10.418732
31
0
39
0
210
0
220
0
230
1
0
LINE
5
96
100
AcDbEntity
8
SK1
62
256
6
ByLayer
370
13
48
1
60
0
100
AcDbLine
10
-15.162813
20
-7.237775
30
0
11
-15.162813
21
7.237775
31
0
39
0
210
0
220
0
230
1
0
LINE
5
97
100
AcDbEntity
8
SK1
62
256
6
ByLayer
370
13
48
1
60
0
100
AcDbLine
10
-51.386002
20
5.000227
30
0
11
-51.386002
21
-5.000227
31
0
39
0
210
0
220
0
230
1
0
LINE
5
98
100
AcDbEntity
8
SK1
62
256
6
ByLayer
370
18
48
1
60
0
100
AcDbLine
10
-56
20
-11.5
30
0
11
-56
21
11.5
31
0
39
0
210
0
220
0
230
1
0
LINE
5
99
100
AcDbEntity
8
SK1
62
256
6
ByLayer
370
13
48
1
60
0
100
AcDbLine
10
-52.500329
20
-3.620591
30
0
11
-52.500329
21
3.620591
31
0
39
0
210
0
220
0
230
1
0
LINE
5
9A
100
AcDbEntity
8
SK1
62
256
6
ByLayer
370
18
48
1
60
0
100
AcDbLine
10
-55
20
-12.5
30
0
11
-55
21
12.5
31
0
39
0
210
0
220
0
230
1
0
LINE
5
9B
100
AcDbEntity
8
SK1
62
256
6
ByLayer
370
18
48
1
60
0
100
AcDbLine
10
0
20
12.5
30
0
11
0
21
-12.5
31
0
39
0
210
0
220
0
230
1
0
LINE
5
9C
100
AcDbEntity
8
SK1
62
256
6
ByLayer
370
13
48
1
60
0
100
AcDbLine
10
-14.015776
20
6.592429
30
0
11
-14.015776
21
-6.592429
31
0
39
0
210
0
220
0
230
1
0
LINE
5
9D
100
AcDbEntity
8
1
62
256
6
ByLayer
370
18
48
1
60
0
100
AcDbLine
10
150.314342
20
11.5
30
0
11
150.314342
21
-11.5
31
0
39
0
210
0
220
0
230
1
0
LINE
5
9E
100
AcDbEntity
8
1
62
256
6
ByLayer
370
18
48
1
60
0
100
AcDbLine
10
150.314342
20
11.5
30
0
11
150.314342
21
-11.5
31
0
39
0
210
0
220
0
230
1
0
LINE
5
9F
100
AcDbEntity
8
1
62
256
6
ByLayer
370
18
48
1
60
0
100
AcDbLine
10
150.314342
20
11.5
30
0
11
150.314342
21
-11.5
31
0
39
0
210
0
220
0
230
1
0
LINE
5
A0
100
AcDbEntity
8
1
62
256
6
ByLayer
370
18
48
1
60
0
100
AcDbLine
10
139.4
20
11.5
30
0
11
139.4
21
-11.5
31
0
39
0
210
0
220
0
230
1
0
LINE
5
A1
100
AcDbEntity
8
1
62
256
6
ByLayer
370
18
48
1
60
0
100
AcDbLine
10
139.4
20
11.5
30
0
11
139.4
21
-11.5
31
0
39
0
210
0
220
0
230
1
0
LINE
5
A2
100
AcDbEntity
8
1
62
256
6
ByLayer
370
18
48
1
60
0
100
AcDbLine
10
150.314342
20
11.5
30
0
11
150.314342
21
-11.5
31
0
39
0
210
0
220
0
230
1
0
LINE
5
A3
100
AcDbEntity
8
1
62
256
6
ByLayer
370
18
48
1
60
0
100
AcDbLine
10
139.4
20
11.5
30
0
11
139.4
21
-11.5
31
0
39
0
210
0
220
0
230
1
0
LINE
5
A4
100
AcDbEntity
8
1
62
256
6
ByLayer
370
18
48
1
60
0
100
AcDbLine
10
150.314342
20
11.5
30
0
11
150.314342
21
-11.5
31
0
39
0
210
0
220
0
230
1
0
LINE
5
A5
100
AcDbEntity
8
SK2
62
256
6
ByLayer
370
13
48
1
60
0
100
AcDbLine
10
-62.5
20
-12.5
30
0
11
-62.5
21
41.524569
31
0
39
0
210
0
220
0
230
1
0
LINE
5
A7
100
AcDbEntity
8
SK2
62
256
6
ByLayer
370
13
48
1
60
0
100
AcDbLine
10
-57.5875
20
12.5
30
0
11
-64.5
21
12.5
31
0
39
0
210
0
220
0
230
1
0
LINE
5
A8
100
AcDbEntity
8
SK2
62
256
6
ByLayer
370
13
48
1
60
0
100
AcDbLine
10
-57.5875
20
-12.5
30
0
11
-64.5
21
-12.5
31
0
39
0
210
0
220
0
230
1
0
LINE
5
A9
100
AcDbEntity
8
1
62
256
6
ByLayer
370
18
48
1
60
1
100
AcDbLine
10
-62.5
20
12.5
30
0
11
-62.039216
21
9.000002
31
0
39
0
210
0
220
0
230
1
0
LINE
5
AA
100
AcDbEntity
8
1
62
256
6
ByLayer
370
18
48
1
60
1
100
AcDbLine
10
-62.039216
20
9.000002
30
0
11
-62.960784
21
8.999998
31
0
39
0
210
0
220
0
230
1
0
LINE
5
AB
100
AcDbEntity
8
1
62
256
6
ByLayer
370
18
48
1
60
1
100
AcDbLine
10
-62.960784
20
8.999998
30
0
11
-62.5
21
12.5
31
0
39
0
210
0
220
0
230
1
0
LINE
5
AC
100
AcDbEntity
8
1
62
256
6
ByLayer
370
18
48
1
60
1
100
AcDbLine
10
-62.5
20
-12.5
30
0
11
-62.960784
21
-9.000002
31
0
39
0
210
0
220
0
230
1
0
LINE
5
AD
100
AcDbEntity
8
1
62
256
6
ByLayer
370
18
48
1
60
1
100
AcDbLine
10
-62.960784
20
-9.000002
30
0
11
-62.039216
21
-8.999998
31
0
39
0
210
0
220
0
230
1
0
LINE
5
AE
100
AcDbEntity
8
1
62
256
6
ByLayer
370
18
48
1
60
1
100
AcDbLine
10
-62.039216
20
-8.999998
30
0
11
-62.5
21
-12.5
31
0
39
0
210
0
220
0
230
1
0
LINE
5
AF
100
AcDbEntity
8
2
62
256
6
ByLayer
370
13
48
1
60
0
100
AcDbLine
10
162
20
-11.5
30
0
11
162
21
40.524569
31
0
39
0
210
0
220
0
230
1
0
LINE
5
B1
100
AcDbEntity
8
2
62
256
6
ByLayer
370
13
48
1
60
0
100
AcDbLine
10
151.901842
20
11.5
30
0
11
164
21
11.5
31
0
39
0
210
0
220
0
230
1
0
LINE
5
B2
100
AcDbEntity
8
2
62
256
6
ByLayer
370
13
48
1
60
0
100
AcDbLine
10
151.901842
20
-11.5
30
0
11
164
21
-11.5
31
0
39
0
210
0
220
0
230
1
0
LINE
5
B3
100
AcDbEntity
8
1
62
256
6
ByLayer
370
18
48
1
60
1
100
AcDbLine
10
162
20
11.5
30
0
11
162.460784
21
8.000002
31
0
39
0
210
0
220
0
230
1
0
LINE
5
B4
100
AcDbEntity
8
1
62
256
6
ByLayer
370
18
48
1
60
1
100
AcDbLine
10
162.460784
20
8.000002
30
0
11
161.539216
21
7.999998
31
0
39
0
210
0
220
0
230
1
0
LINE
5
B5
100
AcDbEntity
8
1
62
256
6
ByLayer
370
18
48
1
60
1
100
AcDbLine
10
161.539216
20
7.999998
30
0
11
162
21
11.5
31
0
39
0
210
0
220
0
230
1
0
LINE
5
B6
100
AcDbEntity
8
1
62
256
6
ByLayer
370
18
48
1
60
1
100
AcDbLine
10
162
20
-11.5
30
0
11
161.539216
21
-8.000002
31
0
39
0
210
0
220
0
230
1
0
LINE
5
B7
100
AcDbEntity
8
1
62
256
6
ByLayer
370
18
48
1
60
1
100
AcDbLine
10
161.539216
20
-8.000002
30
0
11
162.460784
21
-7.999998
31
0
39
0
210
0
220
0
230
1
0
LINE
5
B8
100
AcDbEntity
8
1
62
256
6
ByLayer
370
18
48
1
60
1
100
AcDbLine
10
162.460784
20
-7.999998
30
0
11
162
21
-11.5
31
0
39
0
210
0
220
0
230
1
0
LINE
5
B9
100
AcDbEntity
8
SK2
62
256
6
ByLayer
370
13
48
1
60
0
100
AcDbLine
10
155.042957
20
-1.491762
30
0
11
161.682423
21
-19.733545
31
0
39
0
210
0
220
0
230
1
0
LINE
5
BA
100
AcDbEntity
8
SK2
62
256
6
ByLayer
370
13
48
1
60
0
100
AcDbLine
10
155.042957
20
1.491762
30
0
11
161.682423
21
19.733545
31
0
39
0
210
0
220
0
230
1
0
LINE
5
BB
100
AcDbEntity
8
1
62
256
6
ByLayer
370
18
48
1
60
1
100
AcDbLine
10
160.998383
20
-17.85416
30
0
11
164.051575
21
-16.082064
31
0
39
0
210
0
220
0
230
1
0
LINE
5
BC
100
AcDbEntity
8
1
62
256
6
ByLayer
370
18
48
1
60
1
100
AcDbLine
10
164.051575
20
-16.082064
30
0
11
164.406196
21
-16.93267
31
0
39
0
210
0
220
0
230
1
0
LINE
5
BD
100
AcDbEntity
8
1
62
256
6
ByLayer
370
18
48
1
60
1
100
AcDbLine
10
164.406196
20
-16.93267
30
0
11
160.998383
21
-17.85416
31
0
39
0
210
0
220
0
230
1
0
LINE
5
BE
100
AcDbEntity
8
1
62
256
6
ByLayer
370
18
48
1
60
1
100
AcDbLine
10
160.998383
20
17.85416
30
0
11
164.406193
21
16.932671
31
0
39
0
210
0
220
0
230
1
0
LINE
5
BF
100
AcDbEntity
8
1
62
256
6
ByLayer
370
18
48
1
60
1
100
AcDbLine
10
164.406193
20
16.932671
30
0
11
164.051579
21
16.082063
31
0
39
0
210
0
220
0
230
1
0
LINE
5
C0
100
AcDbEntity
8
1
62
256
6
ByLayer
370
18
48
1
60
1
100
AcDbLine
10
164.051579
20
16.082063
30
0
11
160.998383
21
17.85416
31
0
39
0
210
0
220
0
230
1
0
LINE
5
146
100
AcDbEntity
8
1
62
256
6
ByLayer
370
18
48
1
60
1
100
AcDbLine
10
-62.5
20
12.5
30
0
11
-62.039216
21
9.000002
31
0
39
0
210
0
220
0
230
1
0
LINE
5
147
100
AcDbEntity
8
1
62
256
6
ByLayer
370
18
48
1
60
1
100
AcDbLine
10
-62.039216
20
9.000002
30
0
11
-62.960784
21
8.999998
31
0
39
0
210
0
220
0
230
1
0
LINE
5
148
100
AcDbEntity
8
1
62
256
6
ByLayer
370
18
48
1
60
1
100
AcDbLine
10
-62.960784
20
8.999998
30
0
11
-62.5
21
12.5
31
0
39
0
210
0
220
0
230
1
0
LINE
5
14A
100
AcDbEntity
8
1
62
256
6
ByLayer
370
18
48
1
60
1
100
AcDbLine
10
-62.5
20
-12.5
30
0
11
-62.960784
21
-9.000002
31
0
39
0
210
0
220
0
230
1
0
LINE
5
14B
100
AcDbEntity
8
1
62
256
6
ByLayer
370
18
48
1
60
1
100
AcDbLine
10
-62.960784
20
-9.000002
30
0
11
-62.039216
21
-8.999998
31
0
39
0
210
0
220
0
230
1
0
LINE
5
14C
100
AcDbEntity
8
1
62
256
6
ByLayer
370
18
48
1
60
1
100
AcDbLine
10
-62.039216
20
-8.999998
30
0
11
-62.5
21
-12.5
31
0
39
0
210
0
220
0
230
1
0
LINE
5
150
100
AcDbEntity
8
1
62
256
6
ByLayer
370
18
48
1
60
1
100
AcDbLine
10
162
20
11.5
30
0
11
162.460784
21
8.000002
31
0
39
0
210
0
220
0
230
1
0
LINE
5
151
100
AcDbEntity
8
1
62
256
6
ByLayer
370
18
48
1
60
1
100
AcDbLine
10
162.460784
20
8.000002
30
0
11
161.539216
21
7.999998
31
0
39
0
210
0
220
0
230
1
0
LINE
5
152
100
AcDbEntity
8
1
62
256
6
ByLayer
370
18
48
1
60
1
100
AcDbLine
10
161.539216
20
7.999998
30
0
11
162
21
11.5
31
0
39
0
210
0
220
0
230
1
0
LINE
5
154
100
AcDbEntity
8
1
62
256
6
ByLayer
370
18
48
1
60
1
100
AcDbLine
10
162
20
-11.5
30
0
11
161.539216
21
-8.000002
31
0
39
0
210
0
220
0
230
1
0
LINE
5
155
100
AcDbEntity
8
1
62
256
6
ByLayer
370
18
48
1
60
1
100
AcDbLine
10
161.539216
20
-8.000002
30
0
11
162.460784
21
-7.999998
31
0
39
0
210
0
220
0
230
1
0
LINE
5
156
100
AcDbEntity
8
1
62
256
6
ByLayer
370
18
48
1
60
1
100
AcDbLine
10
162.460784
20
-7.999998
30
0
11
162
21
-11.5
31
0
39
0
210
0
220
0
230
1
0
LINE
5
159
100
AcDbEntity
8
1
62
256
6
ByLayer
370
18
48
1
60
1
100
AcDbLine
10
160.998383
20
-17.85416
30
0
11
164.051575
21
-16.082064
31
0
39
0
210
0
220
0
230
1
0
LINE
5
15A
100
AcDbEntity
8
1
62
256
6
ByLayer
370
18
48
1
60
1
100
AcDbLine
10
164.051575
20
-16.082064
30
0
11
164.406196
21
-16.93267
31
0
39
0
210
0
220
0
230
1
0
LINE
5
15B
100
AcDbEntity
8
1
62
256
6
ByLayer
370
18
48
1
60
1
100
AcDbLine
10
164.406196
20
-16.93267
30
0
11
160.998383
21
-17.85416
31
0
39
0
210
0
220
0
230
1
0
LINE
5
15D
100
AcDbEntity
8
1
62
256
6
ByLayer
370
18
48
1
60
1
100
AcDbLine
10
160.998383
20
17.85416
30
0
11
164.406193
21
16.932671
31
0
39
0
210
0
220
0
230
1
0
LINE
5
15E
100
AcDbEntity
8
1
62
256
6
ByLayer
370
18
48
1
60
1
100
AcDbLine
10
164.406193
20
16.932671
30
0
11
164.051579
21
16.082063
31
0
39
0
210
0
220
0
230
1
0
LINE
5
15F
100
AcDbEntity
8
1
62
256
6
ByLayer
370
18
48
1
60
1
100
AcDbLine
10
164.051579
20
16.082063
30
0
11
160.998383
21
17.85416
31
0
39
0
210
0
220
0
230
1
0
MTEXT
5
142
100
AcDbEntity
8
SK2
62
256
6
ByLayer
370
18
48
1
60
0
100
AcDbMText
10
-63.841114
20
24.158438
30
0
210
0
220
0
230
1
1
%%c
40
3
41
0
44
1.084337
50
90
71
7
72
5
7
iso_b_vert
0
MTEXT
5
145
100
AcDbEntity
8
SK2
62
256
6
ByLayer
370
18
48
1
60
0
100
AcDbMText
10
-63.841114
20
30.135
30
0
210
0
220
0
230
1
1
\W0.7513;25.000
40
3
41
0
44
1.084337
50
90
71
7
72
5
7
iso_b_vert
0
MTEXT
5
14E
100
AcDbEntity
8
2
62
256
6
ByLayer
370
18
48
1
60
0
100
AcDbMText
10
160.658886
20
23.158438
30
0
210
0
220
0
230
1
1
%%c
40
3
41
0
44
1.084337
50
90
71
7
72
5
7
iso_b_vert
0
MTEXT
5
14F
100
AcDbEntity
8
2
62
256
6
ByLayer
370
18
48
1
60
0
100
AcDbMText
10
160.658886
20
29.135
30
0
210
0
220
0
230
1
1
\W0.7513;23.000
40
3
41
0
44
1.084337
50
90
71
7
72
5
7
iso_b_vert
0
MTEXT
5
158
100
AcDbEntity
8
SK2
62
256
6
ByLayer
370
18
48
1
60
0
100
AcDbMText
10
174.409114
20
3.734657
30
0
210
0
220
0
230
1
1
\W0.7071;140%%d
40
3
41
0
44
1.084337
50
270
71
7
72
5
7
iso_b_vert
0
MTEXT
5
161
100
AcDbEntity
8
SK6
62
256
6
ByLayer
370
18
48
1
60
0
100
AcDbMText
10
24.96286
20
-67.114886
30
0
210
0
220
0
230
1
1
\W0.7680;H85523.0
40
3
41
0
44
1.084337
50
0
71
7
72
5
7
iso_b_vert
0
HATCH
5
149
100
AcDbEntity
8
SK2
62
256
6
ByLayer
370
13
48
1
60
0
100
AcDbHatch
10
0
20
0
30
0
210
0
220
0
230
1
2
ANSI31
70
0
71
0
91
1
92
5
93
3
72
1
10
-62.5
20
12.5
11
-62.0392162584472
21
9.00000169255318
72
1
10
-62.0392162584472
20
9.00000169255318
11
-62.9607837415528
21
8.99999830744682
72
1
10
-62.9607837415528
20
8.99999830744682
11
-62.5
21
12.5
97
0
75
0
76
1
52
0
41
0.0062
77
0
78
1
53
45
43
0
44
0
45
-0.0139193969876572
46
0.0139193969876572
79
0
47
0
98
1
10
0
20
0
0
HATCH
5
14D
100
AcDbEntity
8
SK2
62
256
6
ByLayer
370
13
48
1
60
0
100
AcDbHatch
10
0
20
0
30
0
210
0
220
0
230
1
2
ANSI31
70
0
71
0
91
1
92
5
93
3
72
1
10
-62.5
20
-12.5
11
-62.9607837415528
21
-9.00000169255318
72
1
10
-62.9607837415528
20
-9.00000169255318
11
-62.0392162584472
21
-8.99999830744682
72
1
10
-62.0392162584472
20
-8.99999830744682
11
-62.5
21
-12.5
97
0
75
0
76
1
52
0
41
0.0062
77
0
78
1
53
45
43
0
44
0
45
-0.0139193969876572
46
0.0139193969876572
79
0
47
0
98
1
10
0
20
0
0
HATCH
5
153
100
AcDbEntity
8
2
62
256
6
ByLayer
370
13
48
1
60
0
100
AcDbHatch
10
0
20
0
30
0
210
0
220
0
230
1
2
ANSI31
70
0
71
0
91
1
92
5
93
3
72
1
10
162
20
11.5
11
162.460783741553
21
8.00000169255318
72
1
10
162.460783741553
20
8.00000169255318
11
161.539216258447
21
7.99999830744682
72
1
10
161.539216258447
20
7.99999830744682
11
162
21
11.5
97
0
75
0
76
1
52
0
41
0.0062
77
0
78
1
53
45
43
0
44
0
45
-0.0139193969876572
46
0.0139193969876572
79
0
47
0
98
1
10
0
20
0
0
HATCH
5
157
100
AcDbEntity
8
2
62
256
6
ByLayer
370
13
48
1
60
0
100
AcDbHatch
10
0
20
0
30
0
210
0
220
0
230
1
2
ANSI31
70
0
71
0
91
1
92
5
93
3
72
1
10
162
20
-11.5
11
161.539216258447
21
-8.00000169255318
72
1
10
161.539216258447
20
-8.00000169255318
11
162.460783741553
21
-7.99999830744682
72
1
10
162.460783741553
20
-7.99999830744682
11
162
21
-11.5
97
0
75
0
76
1
52
0
41
0.0062
77
0
78
1
53
45
43
0
44
0
45
-0.0139193969876572
46
0.0139193969876572
79
0
47
0
98
1
10
0
20
0
0
HATCH
5
15C
100
AcDbEntity
8
SK2
62
256
6
ByLayer
370
13
48
1
60
0
100
AcDbHatch
10
0
20
0
30
0
210
0
220
0
230
1
2
ANSI31
70
0
71
0
91
1
92
5
93
3
72
1
10
160.998382723188
20
-17.8541597949323
11
164.051575425693
21
-16.0820638240608
72
1
10
164.051575425693
20
-16.0820638240608
11
164.406195833975
21
-16.9326700737196
72
1
10
164.406195833975
20
-16.9326700737196
11
160.998382723188
21
-17.8541597949323
97
0
75
0
76
1
52
0
41
0.0062
77
0
78
1
53
45
43
0
44
0
45
-0.0139193969876572
46
0.0139193969876572
79
0
47
0
98
1
10
0
20
0
0
HATCH
5
160
100
AcDbEntity
8
SK2
62
256
6
ByLayer
370
13
48
1
60
0
100
AcDbHatch
10
0
20
0
30
0
210
0
220
0
230
1
2
ANSI31
70
0
71
0
91
1
92
5
93
3
72
1
10
160.998382723188
20
17.8541597949323
11
164.406192709519
21
16.9326713763016
72
1
10
164.406192709519
20
16.9326713763016
11
164.051578550149
21
16.0820625214788
72
1
10
164.051578550149
20
16.0820625214788
11
160.998382723188
21
17.8541597949323
97
0
75
0
76
1
52
0
41
0.0062
77
0
78
1
53
45
43
0
44
0
45
-0.0139193969876572
46
0.0139193969876572
79
0
47
0
98
1
10
0
20
0
0
DIMENSION
5
164
100
AcDbEntity
8
SK2
62
256
6
ByLayer
370
18
48
1
60
0
100
AcDbDimension
2
_U0
10
154.5
20
-45.952229
30
0
11
49.25
21
-45.952229
31
0
70
32
71
1
72
1
41
1
210
0
220
0
230
1
3
Standard
100
AcDbAlignedDimension
13
-56
23
-12.5
33
0
14
154.5
24
0
34
0
50
0
100
AcDbRotatedDimension
1001
ACAD
1000
DSTYLE
1002
{
1070
   371
1070
    13
1070
   372
1070
    13
1070
     3
1000

1070
   170
1070
     0
1070
   144
1040
1.0
1070
   277
1070
     2
1070
   284
1070
     8
1070
   278
1070
    46
1070
   146
1040
1.166667
1070
   345
1005
16
1070
   347
1005
16
1070
   346
1005
16
1070
   344
1005
0
1070
   343
1005
0
1070
   172
1070
     1
1070
    76
1070
     0
1070
    75
1070
     0
1070
   282
1070
     0
1070
   281
1070
     0
1070
    71
1070
     0
1070
    74
1070
     0
1070
   279
1070
     0
1070
   173
1070
     1
1070
   340
1005
143
1070
   271
1070
     2
1070
   272
1070
     3
1070
    77
1070
     1
1070
    73
1070
     1
1070
   171
1070
     3
1070
   274
1070
     4
1070
   177
1070
     2
1070
   176
1070
     2
1070
   178
1070
     2
1070
    78
1070
     8
1070
    48
1040
-0.1
1070
    41
1040
3.5
1070
   147
1040
1.5
1070
    42
1040
1.5875
1070
    44
1040
2.0
1070
   140
1040
3.0
1002
}
1001
ACAD_DSTYLE_DIM_LINETYPE
1070
   380
1005
16
1001
ACAD_DSTYLE_DIM_EXT1_LINETYPE
1070
   381
1005
16
1001
ACAD_DSTYLE_DIM_EXT2_LINETYPE
1070
   382
1005
16
0
DIMENSION
5
17D
100
AcDbEntity
8
SK2
62
256
6
ByLayer
370
18
48
1
60
0
100
AcDbDimension
2
_U1
10
3
20
-35.952229
30
0
11
78.75
21
-35.952229
31
0
70
32
71
1
72
1
41
1
210
0
220
0
230
1
3
Standard
100
AcDbAlignedDimension
13
154.5
23
0
33
0
14
3
24
-11.5
34
0
50
0
100
AcDbRotatedDimension
1001
ACAD
1000
DSTYLE
1002
{
1070
   371
1070
    13
1070
   372
1070
    13
1070
     3
1000

1070
   170
1070
     0
1070
   144
1040
1.0
1070
   277
1070
     2
1070
   284
1070
     8
1070
   278
1070
    46
1070
   146
1040
1.166667
1070
   345
1005
16
1070
   347
1005
16
1070
   346
1005
16
1070
   344
1005
0
1070
   343
1005
0
1070
   172
1070
     1
1070
    76
1070
     0
1070
    75
1070
     0
1070
   282
1070
     0
1070
   281
1070
     0
1070
    71
1070
     0
1070
    74
1070
     0
1070
   279
1070
     0
1070
   173
1070
     1
1070
   340
1005
143
1070
   271
1070
     2
1070
   272
1070
     3
1070
    77
1070
     1
1070
    73
1070
     1
1070
   171
1070
     3
1070
   274
1070
     4
1070
   177
1070
     2
1070
   176
1070
     2
1070
   178
1070
     2
1070
    78
1070
     8
1070
    48
1040
-0.1
1070
    41
1040
3.5
1070
   147
1040
1.5
1070
    42
1040
1.5875
1070
    44
1040
2.0
1070
   140
1040
3.0
1002
}
1001
ACAD_DSTYLE_DIM_LINETYPE
1070
   380
1005
16
1001
ACAD_DSTYLE_DIM_EXT1_LINETYPE
1070
   381
1005
16
1001
ACAD_DSTYLE_DIM_EXT2_LINETYPE
1070
   382
1005
16
0
DIMENSION
5
195
100
AcDbEntity
8
SK2
62
256
6
ByLayer
370
18
48
1
60
0
100
AcDbDimension
2
_U2
10
0
20
-35.952229
30
0
11
-28
21
-35.952229
31
0
70
32
71
1
72
1
41
1
210
0
220
0
230
1
3
Standard
100
AcDbAlignedDimension
13
-56
23
-12.5
33
0
14
0
24
-12.5
34
0
50
0
100
AcDbRotatedDimension
1001
ACAD
1000
DSTYLE
1002
{
1070
   371
1070
    13
1070
   372
1070
    13
1070
     3
1000

1070
   170
1070
     0
1070
   144
1040
1.0
1070
   277
1070
     2
1070
   284
1070
     8
1070
   278
1070
    46
1070
   146
1040
1.166667
1070
   345
1005
16
1070
   347
1005
16
1070
   346
1005
16
1070
   344
1005
0
1070
   343
1005
0
1070
   172
1070
     1
1070
    76
1070
     0
1070
    75
1070
     0
1070
   282
1070
     0
1070
   281
1070
     0
1070
    71
1070
     0
1070
    74
1070
     0
1070
   279
1070
     0
1070
   173
1070
     1
1070
   340
1005
143
1070
   271
1070
     2
1070
   272
1070
     3
1070
    77
1070
     1
1070
    73
1070
     1
1070
   171
1070
     3
1070
   274
1070
     4
1070
   177
1070
     2
1070
   176
1070
     2
1070
   178
1070
     2
1070
    78
1070
     8
1070
    48
1040
-0.1
1070
    41
1040
3.5
1070
   147
1040
1.5
1070
    42
1040
1.5875
1070
    44
1040
2.0
1070
   140
1040
3.0
1002
}
1001
ACAD_DSTYLE_DIM_LINETYPE
1070
   380
1005
16
1001
ACAD_DSTYLE_DIM_EXT1_LINETYPE
1070
   381
1005
16
1001
ACAD_DSTYLE_DIM_EXT2_LINETYPE
1070
   382
1005
16
0
DIMENSION
5
1AD
100
AcDbEntity
8
SK2
62
256
6
ByLayer
370
18
48
1
60
0
100
AcDbDimension
2
_U3
10
25
20
32.952229
30
0
11
89.75
21
32.952229
31
0
70
32
71
1
72
1
41
1
210
0
220
0
230
1
3
Standard
100
AcDbAlignedDimension
13
154.5
23
0
33
0
14
25
24
11.5
34
0
50
0
100
AcDbRotatedDimension
1001
ACAD
1000
DSTYLE
1002
{
1070
   371
1070
    13
1070
   372
1070
    13
1070
     3
1000

1070
   170
1070
     0
1070
   144
1040
1.0
1070
   277
1070
     2
1070
   284
1070
     8
1070
   278
1070
    46
1070
   146
1040
1.166667
1070
   345
1005
16
1070
   347
1005
16
1070
   346
1005
16
1070
   344
1005
0
1070
   343
1005
0
1070
   172
1070
     1
1070
    76
1070
     0
1070
    75
1070
     0
1070
   282
1070
     0
1070
   281
1070
     0
1070
    71
1070
     0
1070
    74
1070
     0
1070
   279
1070
     0
1070
   173
1070
     1
1070
   340
1005
143
1070
   271
1070
     2
1070
   272
1070
     3
1070
    77
1070
     1
1070
    73
1070
     1
1070
   171
1070
     3
1070
   274
1070
     4
1070
   177
1070
     2
1070
   176
1070
     2
1070
   178
1070
     2
1070
    78
1070
     8
1070
    48
1040
-0.1
1070
    41
1040
3.5
1070
   147
1040
1.5
1070
    42
1040
1.5875
1070
    44
1040
2.0
1070
   140
1040
3.0
1002
}
1001
ACAD_DSTYLE_DIM_LINETYPE
1070
   380
1005
16
1001
ACAD_DSTYLE_DIM_EXT1_LINETYPE
1070
   381
1005
16
1001
ACAD_DSTYLE_DIM_EXT2_LINETYPE
1070
   382
1005
16
0
ENDSEC
0
SECTION
2
OBJECTS
0
DICTIONARY
5
235
330
0
100
AcDbDictionary
280
0
281
1
3
ACAD_GROUP
350
236
3
ACAD_MLINESTYLE
350
237
0
DICTIONARY
5
236
330
0
100
AcDbDictionary
280
0
281
1
0
DICTIONARY
5
237
330
0
100
AcDbDictionary
280
0
281
1
3
Standard
350
18
0
MLINESTYLE
5
18
330
237
100
AcDbMlineStyle
2
Standard
70
0
3

62
256
51
90
52
90
71
2
49
-0.5
62
256
6
ByLayer
49
0.5
62
256
6
ByLayer
0
RASTERVARIABLES
5
223
330

100
AcDbRasterVariables
90
0
70
1
71
1
72
1
0
ENDSEC
0
EOF
