0
SECTION
2
HEADER
9
$ACADVER
1
AC1015
9
$DWGCODEPAGE
3
ANSI_1252
9
$HANDSEED
5
229
9
$ANGBASE
50
0
9
$ANGDIR
70
0
9
$ATTMODE
70
1
9
$AUNITS
70
0
9
$AUPREC
70
0
9
$CECOLOR
62
256
9
$CELTSCALE
40
1
9
$CELTYPE
6
ByLayer
9
$CELWEIGHT
370
18
9
$CLAYER
8
0
9
$CMLJUST
70
0
9
$CMLSCALE
40
1
9
$CMLSTYLE
2
Standard
9
$DIMSTYLE
2
Standard
9
$TEXTSIZE
40
0.2
9
$TEXTSTYLE
7
Standard
9
$LUNITS
70
2
9
$LUPREC
70
4
9
$EXTNAMES
290
1
9
$INSUNITS
70
4
9
$LTSCALE
40
1
9
$LWDISPLAY
290
1
9
$PDMODE
70
0
9
$PDSIZE
40
0
9
$PLINEGEN
70
0
0
ENDSEC
0
SECTION
2
CLASSES
0
CLASS
1
RASTERVARIABLES
2
AcDbRasterVariables
3
ISM
90
0
280
0
281
0
0
ENDSEC
0
SECTION
2
TABLES
0
TABLE
2
VPORT
5
21f
100
AcDbSymbolTable
0
VPORT
5
1
100
AcDbSymbolTableRecord
100
AcDbViewportTableRecord
2
*Active
70
0
10
0
20
0
11
1
21
1
12
-1
22
1
13
0
23
0
14
0.5
24
0.5
15
10
25
10
16
0
26
0
36
1
17
0
27
0
37
0
0
ENDTAB
0
TABLE
2
LTYPE
5
220
100
AcDbSymbolTable
0
LTYPE
5
14
100
AcDbSymbolTableRecord
100
AcDbLinetypeTableRecord
70
0
2
ByBlock
3

72
65
73
0
40
0
0
LTYPE
5
15
100
AcDbSymbolTableRecord
100
AcDbLinetypeTableRecord
70
0
2
ByLayer
3

72
65
73
0
40
0
0
LTYPE
5
16
100
AcDbSymbolTableRecord
100
AcDbLinetypeTableRecord
70
0
2
Continuous
3
Solid line
72
65
73
0
40
0
0
LTYPE
5
6E
100
AcDbSymbolTableRecord
100
AcDbLinetypeTableRecord
70
0
2
CENTER
3
____ _ ____ _ ____ _ ____
72
65
73
4
40
47.5
49
22
74
0
49
-8.5
74
0
49
8.5
74
0
49
-8.5
74
0
0
LTYPE
5
6F
100
AcDbSymbolTableRecord
100
AcDbLinetypeTableRecord
70
0
2
DASHED
3
__ __ __ __ __ __ __ __ __
72
65
73
2
40
25.72
49
12.86
74
0
49
-12.86
74
0
0
ENDTAB
0
TABLE
2
LAYER
5
221
100
AcDbSymbolTable
0
LAYER
5
10
100
AcDbSymbolTableRecord
100
AcDbLayerTableRecord
2
0
70
0
62
7
6
Continuous
290
1
370
-3
390
0
0
LAYER
5
71
100
AcDbSymbolTableRecord
100
AcDbLayerTableRecord
2
81
70
0
62
-3
6
Continuous
290
1
370
-3
390
0
0
LAYER
5
73
100
AcDbSymbolTableRecord
100
AcDbLayerTableRecord
2
80
70
0
62
-6
6
Continuous
290
1
370
-3
390
0
0
LAYER
5
75
100
AcDbSymbolTableRecord
100
AcDbLayerTableRecord
2
1
70
0
62
4
6
Continuous
290
1
370
-3
390
0
0
LAYER
5
82
100
AcDbSymbolTableRecord
100
AcDbLayerTableRecord
2
4
70
0
62
-2
6
CENTER
290
1
370
-3
390
0
0
LAYER
5
AF
100
AcDbSymbolTableRecord
100
AcDbLayerTableRecord
2
2
70
0
62
7
6
Continuous
290
1
370
-3
390
0
0
LAYER
5
14E
100
AcDbSymbolTableRecord
100
AcDbLayerTableRecord
2
Defpoints
70
0
62
7
6
Continuous
290
0
370
-3
390
0
0
LAYER
5
20b
100
AcDbSymbolTableRecord
100
AcDbLayerTableRecord
2
SK4
70
0
62
2
6
CENTER
290
1
370
-3
390
0
0
LAYER
5
20c
100
AcDbSymbolTableRecord
100
AcDbLayerTableRecord
2
SK1
70
0
62
4
6
Continuous
290
1
370
-3
390
0
0
LAYER
5
20d
100
AcDbSymbolTableRecord
100
AcDbLayerTableRecord
2
SK2
70
0
62
7
6
Continuous
290
1
370
-3
390
0
0
LAYER
5
20e
100
AcDbSymbolTableRecord
100
AcDbLayerTableRecord
2
SK6
70
0
62
5
6
Continuous
290
1
370
-3
390
0
0
ENDTAB
0
TABLE
2
STYLE
5
222
100
AcDbSymbolTable
0
STYLE
5
11
100
AcDbSymbolTableRecord
100
AcDbTextStyleTableRecord
2
Standard
3
txt
70
0
71
0
40
0
41
1
42
0
50
0
0
STYLE
5
12A
100
AcDbSymbolTableRecord
100
AcDbTextStyleTableRecord
2
iso_b_vert
3
simplex.shx
70
0
71
0
40
0
41
1
42
0
50
0
0
STYLE
5
12B
100
AcDbSymbolTableRecord
100
AcDbTextStyleTableRecord
2
DWGDirectTextStyle
3
simplex
70
0
71
0
40
0
41
1
42
0
50
0
0
ENDTAB
0
TABLE
2
DIMSTYLE
5
223
100
AcDbSymbolTable
100
AcDbDimStyleTable
0
DIMSTYLE
105
27
100
AcDbSymbolTableRecord
100
AcDbDimStyleTableRecord
2
Standard
70
0
3
<>
41
0.18
42
0.0625
44
0.18
140
0.18
147
0.09
73
0
74
0
77
1
271
2
275
0
278
52
280
0
340
11
0
ENDTAB
0
TABLE
2
VIEW
5
224
100
AcDbSymbolTable
0
ENDTAB
0
TABLE
2
UCS
5
225
100
AcDbSymbolTable
0
ENDTAB
0
TABLE
2
APPID
5
226
100
AcDbSymbolTable
0
APPID
5
12
100
AcDbSymbolTableRecord
100
AcDbRegAppTableRecord
2
ACAD
70
0
0
APPID
5
14A
100
AcDbSymbolTableRecord
100
AcDbRegAppTableRecord
2
ACAD_DSTYLE_DIMBREAK
70
0
0
APPID
5
1CA
100
AcDbSymbolTableRecord
100
AcDbRegAppTableRecord
2
ACAD_DSTYLE_DIM_LINETYPE
70
0
0
APPID
5
1CB
100
AcDbSymbolTableRecord
100
AcDbRegAppTableRecord
2
ACAD_DSTYLE_DIM_EXT1_LINETYPE
70
0
0
APPID
5
1CC
100
AcDbSymbolTableRecord
100
AcDbRegAppTableRecord
2
ACAD_DSTYLE_DIM_EXT2_LINETYPE
70
0
0
APPID
5
207
100
AcDbSymbolTableRecord
100
AcDbRegAppTableRecord
2
ACAD_MLEADERVER
70
0
0
ENDTAB
0
TABLE
2
BLOCK_RECORD
5
227
100
AcDbSymbolTable
0
BLOCK_RECORD
5
1F
100
AcDbSymbolTableRecord
100
AcDbBlockTableRecord
2
*Model_Space
340
0
70
0
0
BLOCK_RECORD
5
1B
100
AcDbSymbolTableRecord
100
AcDbBlockTableRecord
2
*Paper_Space
340
0
70
0
0
BLOCK_RECORD
5
23
100
AcDbSymbolTableRecord
100
AcDbBlockTableRecord
2
*Paper_Space0
340
0
70
0
0
BLOCK_RECORD
5
14F
100
AcDbSymbolTableRecord
100
AcDbBlockTableRecord
2
*D1
340
0
70
0
0
BLOCK_RECORD
5
15B
100
AcDbSymbolTableRecord
100
AcDbBlockTableRecord
2
_U0
340
0
70
0
0
BLOCK_RECORD
5
167
100
AcDbSymbolTableRecord
100
AcDbBlockTableRecord
2
*D3
340
0
70
0
0
BLOCK_RECORD
5
173
100
AcDbSymbolTableRecord
100
AcDbBlockTableRecord
2
_U1
340
0
70
0
0
BLOCK_RECORD
5
17F
100
AcDbSymbolTableRecord
100
AcDbBlockTableRecord
2
*D5
340
0
70
0
0
BLOCK_RECORD
5
18B
100
AcDbSymbolTableRecord
100
AcDbBlockTableRecord
2
_U2
340
0
70
0
0
BLOCK_RECORD
5
197
100
AcDbSymbolTableRecord
100
AcDbBlockTableRecord
2
*D7
340
0
70
0
0
BLOCK_RECORD
5
1A3
100
AcDbSymbolTableRecord
100
AcDbBlockTableRecord
2
_U3
340
0
70
0
0
ENDTAB
0
ENDSEC
0
SECTION
2
BLOCKS
0
BLOCK
5
20
100
AcDbEntity
8
0
100
AcDbBlockBegin
2
*Model_Space
70
0
10
0
20
0
30
0
3
*Model_Space
0
ENDBLK
5
21
100
AcDbEntity
8
0
100
AcDbBlockEnd
0
BLOCK
5
1C
100
AcDbEntity
8
0
100
AcDbBlockBegin
2
*Paper_Space
70
0
10
0
20
0
30
0
3
*Paper_Space
0
ENDBLK
5
1D
100
AcDbEntity
8
0
100
AcDbBlockEnd
0
BLOCK
5
24
100
AcDbEntity
8
0
100
AcDbBlockBegin
2
*Paper_Space0
70
0
10
0
20
0
30
0
3
*Paper_Space0
0
ENDBLK
5
25
100
AcDbEntity
8
0
100
AcDbBlockEnd
0
BLOCK
5
150
100
AcDbEntity
8
0
100
AcDbBlockBegin
2
*D1
70
1
10
0
20
0
30
0
3
*D1
0
LINE
5
152
100
AcDbEntity
8
0
62
256
6
ByLayer
370
-2
48
1
60
0
100
AcDbLine
10
-48
20
-11.1125
30
0
11
-48
21
-47.952229
31
0
39
0
210
0
220
0
230
1
0
LINE
5
153
100
AcDbEntity
8
0
62
256
6
ByLayer
370
-2
48
1
60
0
100
AcDbLine
10
128.5
20
-1.5875
30
0
11
128.5
21
-47.952229
31
0
39
0
210
0
220
0
230
1
0
LINE
5
154
100
AcDbEntity
8
0
62
256
6
ByLayer
370
-2
48
1
60
0
100
AcDbLine
10
-44.5
20
-45.952229
30
0
11
125
21
-45.952229
31
0
39
0
210
0
220
0
230
1
0
SOLID
5
155
100
AcDbEntity
8
0
62
256
6
ByLayer
370
-1
48
1
60
0
100
AcDbTrace
10
-44.5
20
-45.368896
30
0
11
-44.5
21
-46.535563
31
0
12
-48
22
-45.952229
32
0
13
-48
23
-45.952229
33
0
39
0
210
0
220
0
230
1
0
SOLID
5
156
100
AcDbEntity
8
0
62
256
6
ByLayer
370
-1
48
1
60
0
100
AcDbTrace
10
125
20
-46.535563
30
0
11
125
21
-45.368896
31
0
12
128.5
22
-45.952229
32
0
13
128.5
23
-45.952229
33
0
39
0
210
0
220
0
230
1
0
MTEXT
5
157
100
AcDbEntity
8
0
62
256
6
ByLayer
370
18
48
1
60
0
100
AcDbMText
10
40.25
20
-39.952229
30
0
210
0
220
0
230
1
1
\A1;176.5
40
3
41
0
44
1
50
0
71
5
72
5
7
iso_b_vert
0
POINT
5
158
100
AcDbEntity
8
Defpoints
62
0
6
ByLayer
370
-1
48
1
60
0
100
AcDbPoint
10
-48
20
-9.525
30
0
39
0
210
0
220
0
230
1
50
360
0
POINT
5
159
100
AcDbEntity
8
Defpoints
62
0
6
ByLayer
370
-1
48
1
60
0
100
AcDbPoint
10
128.5
20
0
30
0
39
0
210
0
220
0
230
1
50
360
0
POINT
5
15A
100
AcDbEntity
8
Defpoints
62
0
6
ByLayer
370
-1
48
1
60
0
100
AcDbPoint
10
128.5
20
-45.952229
30
0
39
0
210
0
220
0
230
1
50
360
0
ENDBLK
5
151
100
AcDbEntity
8
0
100
AcDbBlockEnd
0
BLOCK
5
162
100
AcDbEntity
8
0
100
AcDbBlockBegin
2
_U0
70
0
10
0
20
0
30
0
3
_U0
0
MTEXT
5
15C
100
AcDbEntity
8
SK2
62
256
6
ByLayer
370
18
48
1
60
0
100
AcDbMText
10
35.021658
20
-45.067115
30
0
210
0
220
0
230
1
1
\W0.7022;176.50
40
3
41
0
44
1.084337
50
0
71
7
72
5
7
iso_b_vert
0
LINE
5
15D
100
AcDbEntity
8
SK2
62
256
6
ByLayer
370
13
48
1
60
0
100
AcDbLine
10
-48
20
-11.1125
30
0
11
-48
21
-47.952229
31
0
39
0
210
0
220
0
230
1
0
LINE
5
15E
100
AcDbEntity
8
SK2
62
256
6
ByLayer
370
13
48
1
60
0
100
AcDbLine
10
128.5
20
-1.5875
30
0
11
128.5
21
-47.952229
31
0
39
0
210
0
220
0
230
1
0
LINE
5
15F
100
AcDbEntity
8
SK2
62
256
6
ByLayer
370
13
48
1
60
0
100
AcDbLine
10
-48
20
-45.952229
30
0
11
128.5
21
-45.952229
31
0
39
0
210
0
220
0
230
1
0
SOLID
5
160
100
AcDbEntity
8
SK2
62
256
6
ByLayer
370
18
48
1
60
0
100
AcDbTrace
10
-48
20
-45.952229
30
0
11
-44.500002
21
-45.491446
31
0
12
-44.499998
22
-46.413013
32
0
13
-44.499998
23
-46.413013
33
0
39
0
210
0
220
0
230
1
0
SOLID
5
161
100
AcDbEntity
8
SK2
62
256
6
ByLayer
370
18
48
1
60
0
100
AcDbTrace
10
128.5
20
-45.952229
30
0
11
125.000002
21
-46.413013
31
0
12
124.999998
22
-45.491446
32
0
13
124.999998
23
-45.491446
33
0
39
0
210
0
220
0
230
1
0
ENDBLK
5
163
100
AcDbEntity
8
0
100
AcDbBlockEnd
0
BLOCK
5
168
100
AcDbEntity
8
0
100
AcDbBlockBegin
2
*D3
70
1
10
0
20
0
30
0
3
*D3
0
LINE
5
16A
100
AcDbEntity
8
0
62
256
6
ByLayer
370
-2
48
1
60
0
100
AcDbLine
10
128.5
20
-1.5875
30
0
11
128.5
21
-37.952229
31
0
39
0
210
0
220
0
230
1
0
LINE
5
16B
100
AcDbEntity
8
0
62
256
6
ByLayer
370
-2
48
1
60
0
100
AcDbLine
10
3
20
-10.7155
30
0
11
3
21
-37.952229
31
0
39
0
210
0
220
0
230
1
0
LINE
5
16C
100
AcDbEntity
8
0
62
256
6
ByLayer
370
-2
48
1
60
0
100
AcDbLine
10
125
20
-35.952229
30
0
11
6.5
21
-35.952229
31
0
39
0
210
0
220
0
230
1
0
SOLID
5
16D
100
AcDbEntity
8
0
62
256
6
ByLayer
370
-1
48
1
60
0
100
AcDbTrace
10
125
20
-36.535563
30
0
11
125
21
-35.368896
31
0
12
128.5
22
-35.952229
32
0
13
128.5
23
-35.952229
33
0
39
0
210
0
220
0
230
1
0
SOLID
5
16E
100
AcDbEntity
8
0
62
256
6
ByLayer
370
-1
48
1
60
0
100
AcDbTrace
10
6.5
20
-35.368896
30
0
11
6.5
21
-36.535563
31
0
12
3
22
-35.952229
32
0
13
3
23
-35.952229
33
0
39
0
210
0
220
0
230
1
0
MTEXT
5
16F
100
AcDbEntity
8
0
62
256
6
ByLayer
370
18
48
1
60
0
100
AcDbMText
10
65.75
20
-29.952229
30
0
210
0
220
0
230
1
1
\A1;125.5
40
3
41
0
44
1
50
0
71
5
72
5
7
iso_b_vert
0
POINT
5
170
100
AcDbEntity
8
Defpoints
62
0
6
ByLayer
370
-1
48
1
60
0
100
AcDbPoint
10
128.5
20
0
30
0
39
0
210
0
220
0
230
1
50
360
0
POINT
5
171
100
AcDbEntity
8
Defpoints
62
0
6
ByLayer
370
-1
48
1
60
0
100
AcDbPoint
10
3
20
-9.128
30
0
39
0
210
0
220
0
230
1
50
360
0
POINT
5
172
100
AcDbEntity
8
Defpoints
62
0
6
ByLayer
370
-1
48
1
60
0
100
AcDbPoint
10
3
20
-35.952229
30
0
39
0
210
0
220
0
230
1
50
360
0
ENDBLK
5
169
100
AcDbEntity
8
0
100
AcDbBlockEnd
0
BLOCK
5
17A
100
AcDbEntity
8
0
100
AcDbBlockBegin
2
_U1
70
0
10
0
20
0
30
0
3
_U1
0
MTEXT
5
174
100
AcDbEntity
8
SK2
62
256
6
ByLayer
370
18
48
1
60
0
100
AcDbMText
10
60.521658
20
-35.067115
30
0
210
0
220
0
230
1
1
\W0.7022;125.50
40
3
41
0
44
1.084337
50
0
71
7
72
5
7
iso_b_vert
0
LINE
5
175
100
AcDbEntity
8
SK2
62
256
6
ByLayer
370
13
48
1
60
0
100
AcDbLine
10
128.5
20
-1.5875
30
0
11
128.5
21
-37.952229
31
0
39
0
210
0
220
0
230
1
0
LINE
5
176
100
AcDbEntity
8
SK2
62
256
6
ByLayer
370
13
48
1
60
0
100
AcDbLine
10
3
20
-10.7155
30
0
11
3
21
-37.952229
31
0
39
0
210
0
220
0
230
1
0
LINE
5
177
100
AcDbEntity
8
SK2
62
256
6
ByLayer
370
13
48
1
60
0
100
AcDbLine
10
128.5
20
-35.952229
30
0
11
3
21
-35.952229
31
0
39
0
210
0
220
0
230
1
0
SOLID
5
178
100
AcDbEntity
8
SK2
62
256
6
ByLayer
370
18
48
1
60
0
100
AcDbTrace
10
128.5
20
-35.952229
30
0
11
125.000002
21
-36.413013
31
0
12
124.999998
22
-35.491446
32
0
13
124.999998
23
-35.491446
33
0
39
0
210
0
220
0
230
1
0
SOLID
5
179
100
AcDbEntity
8
SK2
62
256
6
ByLayer
370
18
48
1
60
0
100
AcDbTrace
10
3
20
-35.952229
30
0
11
6.499998
21
-35.491446
31
0
12
6.500002
22
-36.413013
32
0
13
6.500002
23
-36.413013
33
0
39
0
210
0
220
0
230
1
0
ENDBLK
5
17B
100
AcDbEntity
8
0
100
AcDbBlockEnd
0
BLOCK
5
180
100
AcDbEntity
8
0
100
AcDbBlockBegin
2
*D5
70
1
10
0
20
0
30
0
3
*D5
0
LINE
5
182
100
AcDbEntity
8
0
62
256
6
ByLayer
370
-2
48
1
60
0
100
AcDbLine
10
-48
20
-11.1125
30
0
11
-48
21
-37.952229
31
0
39
0
210
0
220
0
230
1
0
LINE
5
183
100
AcDbEntity
8
0
62
256
6
ByLayer
370
-2
48
1
60
0
100
AcDbLine
10
0
20
-11.1125
30
0
11
0
21
-37.952229
31
0
39
0
210
0
220
0
230
1
0
LINE
5
184
100
AcDbEntity
8
0
62
256
6
ByLayer
370
-2
48
1
60
0
100
AcDbLine
10
-44.5
20
-35.952229
30
0
11
-3.5
21
-35.952229
31
0
39
0
210
0
220
0
230
1
0
SOLID
5
185
100
AcDbEntity
8
0
62
256
6
ByLayer
370
-1
48
1
60
0
100
AcDbTrace
10
-44.5
20
-35.368896
30
0
11
-44.5
21
-36.535563
31
0
12
-48
22
-35.952229
32
0
13
-48
23
-35.952229
33
0
39
0
210
0
220
0
230
1
0
SOLID
5
186
100
AcDbEntity
8
0
62
256
6
ByLayer
370
-1
48
1
60
0
100
AcDbTrace
10
-3.5
20
-36.535563
30
0
11
-3.5
21
-35.368896
31
0
12
0
22
-35.952229
32
0
13
0
23
-35.952229
33
0
39
0
210
0
220
0
230
1
0
MTEXT
5
187
100
AcDbEntity
8
0
62
256
6
ByLayer
370
18
48
1
60
0
100
AcDbMText
10
-24
20
-29.952229
30
0
210
0
220
0
230
1
1
\A1;48
40
3
41
0
44
1
50
0
71
5
72
5
7
iso_b_vert
0
POINT
5
188
100
AcDbEntity
8
Defpoints
62
0
6
ByLayer
370
-1
48
1
60
0
100
AcDbPoint
10
-48
20
-9.525
30
0
39
0
210
0
220
0
230
1
50
360
0
POINT
5
189
100
AcDbEntity
8
Defpoints
62
0
6
ByLayer
370
-1
48
1
60
0
100
AcDbPoint
10
0
20
-9.525
30
0
39
0
210
0
220
0
230
1
50
360
0
POINT
5
18A
100
AcDbEntity
8
Defpoints
62
0
6
ByLayer
370
-1
48
1
60
0
100
AcDbPoint
10
0
20
-35.952229
30
0
39
0
210
0
220
0
230
1
50
360
0
ENDBLK
5
181
100
AcDbEntity
8
0
100
AcDbBlockEnd
0
BLOCK
5
192
100
AcDbEntity
8
0
100
AcDbBlockBegin
2
_U2
70
0
10
0
20
0
30
0
3
_U2
0
MTEXT
5
18C
100
AcDbEntity
8
SK2
62
256
6
ByLayer
370
18
48
1
60
0
100
AcDbMText
10
-28.640313
20
-35.067115
30
0
210
0
220
0
230
1
1
\W0.7694;48.00
40
3
41
0
44
1.084337
50
0
71
7
72
5
7
iso_b_vert
0
LINE
5
18D
100
AcDbEntity
8
SK2
62
256
6
ByLayer
370
13
48
1
60
0
100
AcDbLine
10
-48
20
-11.1125
30
0
11
-48
21
-37.952229
31
0
39
0
210
0
220
0
230
1
0
LINE
5
18E
100
AcDbEntity
8
SK2
62
256
6
ByLayer
370
13
48
1
60
0
100
AcDbLine
10
0
20
-11.1125
30
0
11
0
21
-37.952229
31
0
39
0
210
0
220
0
230
1
0
LINE
5
18F
100
AcDbEntity
8
SK2
62
256
6
ByLayer
370
13
48
1
60
0
100
AcDbLine
10
-48
20
-35.952229
30
0
11
0
21
-35.952229
31
0
39
0
210
0
220
0
230
1
0
SOLID
5
190
100
AcDbEntity
8
SK2
62
256
6
ByLayer
370
18
48
1
60
0
100
AcDbTrace
10
-48
20
-35.952229
30
0
11
-44.500002
21
-35.491446
31
0
12
-44.499998
22
-36.413013
32
0
13
-44.499998
23
-36.413013
33
0
39
0
210
0
220
0
230
1
0
SOLID
5
191
100
AcDbEntity
8
SK2
62
256
6
ByLayer
370
18
48
1
60
0
100
AcDbTrace
10
0
20
-35.952229
30
0
11
-3.499998
21
-36.413013
31
0
12
-3.500002
22
-35.491446
32
0
13
-3.500002
23
-35.491446
33
0
39
0
210
0
220
0
230
1
0
ENDBLK
5
193
100
AcDbEntity
8
0
100
AcDbBlockEnd
0
BLOCK
5
198
100
AcDbEntity
8
0
100
AcDbBlockBegin
2
*D7
70
1
10
0
20
0
30
0
3
*D7
0
LINE
5
19A
100
AcDbEntity
8
0
62
256
6
ByLayer
370
-2
48
1
60
0
100
AcDbLine
10
128.5
20
1.5875
30
0
11
128.5
21
34.952229
31
0
39
0
210
0
220
0
230
1
0
LINE
5
19B
100
AcDbEntity
8
0
62
256
6
ByLayer
370
-2
48
1
60
0
100
AcDbLine
10
25
20
10.7155
30
0
11
25
21
34.952229
31
0
39
0
210
0
220
0
230
1
0
LINE
5
19C
100
AcDbEntity
8
0
62
256
6
ByLayer
370
-2
48
1
60
0
100
AcDbLine
10
125
20
32.952229
30
0
11
28.5
21
32.952229
31
0
39
0
210
0
220
0
230
1
0
SOLID
5
19D
100
AcDbEntity
8
0
62
256
6
ByLayer
370
-1
48
1
60
0
100
AcDbTrace
10
125
20
32.368896
30
0
11
125
21
33.535563
31
0
12
128.5
22
32.952229
32
0
13
128.5
23
32.952229
33
0
39
0
210
0
220
0
230
1
0
SOLID
5
19E
100
AcDbEntity
8
0
62
256
6
ByLayer
370
-1
48
1
60
0
100
AcDbTrace
10
28.5
20
33.535563
30
0
11
28.5
21
32.368896
31
0
12
25
22
32.952229
32
0
13
25
23
32.952229
33
0
39
0
210
0
220
0
230
1
0
MTEXT
5
19F
100
AcDbEntity
8
0
62
256
6
ByLayer
370
18
48
1
60
0
100
AcDbMText
10
76.75
20
38.952229
30
0
210
0
220
0
230
1
1
\A1;103.5
40
3
41
0
44
1
50
0
71
5
72
5
7
iso_b_vert
0
POINT
5
1A0
100
AcDbEntity
8
Defpoints
62
0
6
ByLayer
370
-1
48
1
60
0
100
AcDbPoint
10
128.5
20
0
30
0
39
0
210
0
220
0
230
1
50
360
0
POINT
5
1A1
100
AcDbEntity
8
Defpoints
62
0
6
ByLayer
370
-1
48
1
60
0
100
AcDbPoint
10
25
20
9.128
30
0
39
0
210
0
220
0
230
1
50
360
0
POINT
5
1A2
100
AcDbEntity
8
Defpoints
62
0
6
ByLayer
370
-1
48
1
60
0
100
AcDbPoint
10
25
20
32.952229
30
0
39
0
210
0
220
0
230
1
50
360
0
ENDBLK
5
199
100
AcDbEntity
8
0
100
AcDbBlockEnd
0
BLOCK
5
1AA
100
AcDbEntity
8
0
100
AcDbBlockBegin
2
_U3
70
0
10
0
20
0
30
0
3
_U3
0
MTEXT
5
1A4
100
AcDbEntity
8
SK2
62
256
6
ByLayer
370
18
48
1
60
0
100
AcDbMText
10
71.521658
20
33.837344
30
0
210
0
220
0
230
1
1
\W0.7022;103.50
40
3
41
0
44
1.084337
50
0
71
7
72
5
7
iso_b_vert
0
LINE
5
1A5
100
AcDbEntity
8
SK2
62
256
6
ByLayer
370
13
48
1
60
0
100
AcDbLine
10
128.5
20
1.5875
30
0
11
128.5
21
34.952229
31
0
39
0
210
0
220
0
230
1
0
LINE
5
1A6
100
AcDbEntity
8
SK2
62
256
6
ByLayer
370
13
48
1
60
0
100
AcDbLine
10
25
20
10.7155
30
0
11
25
21
34.952229
31
0
39
0
210
0
220
0
230
1
0
LINE
5
1A7
100
AcDbEntity
8
SK2
62
256
6
ByLayer
370
13
48
1
60
0
100
AcDbLine
10
128.5
20
32.952229
30
0
11
25
21
32.952229
31
0
39
0
210
0
220
0
230
1
0
SOLID
5
1A8
100
AcDbEntity
8
SK2
62
256
6
ByLayer
370
18
48
1
60
0
100
AcDbTrace
10
128.5
20
32.952229
30
0
11
125.000002
21
32.491446
31
0
12
124.999998
22
33.413013
32
0
13
124.999998
23
33.413013
33
0
39
0
210
0
220
0
230
1
0
SOLID
5
1A9
100
AcDbEntity
8
SK2
62
256
6
ByLayer
370
18
48
1
60
0
100
AcDbTrace
10
25
20
32.952229
30
0
11
28.499998
21
33.413013
31
0
12
28.500002
22
32.491446
32
0
13
28.500002
23
32.491446
33
0
39
0
210
0
220
0
230
1
0
ENDBLK
5
1AB
100
AcDbEntity
8
0
100
AcDbBlockEnd
0
ENDSEC
0
SECTION
2
ENTITIES
0
ARC
5
C0
100
AcDbEntity
8
SK2
62
256
6
ByLayer
370
13
48
1
60
0
100
AcDbCircle
39
0
10
128.5
20
0
30
0
40
19
210
0
220
0
230
1
100
AcDbArc
50
290
51
70
0
ELLIPSE
5
C1
100
AcDbEntity
8
SK1
62
256
6
ByLayer
370
18
48
1
60
0
100
AcDbEllipse
10
-32.117794
20
0
30
0
11
-1.74965632802376E-15
21
-9.52500000000022
31
0
210
0
220
0
230
1
40
0.932515
41
-1.99646903598621
42
-1.14512361760358
0
ELLIPSE
5
C2
100
AcDbEntity
8
SK1
62
256
6
ByLayer
370
18
48
1
60
0
100
AcDbEllipse
10
-15.214312
20
0
30
0
11
10.2143119629885
21
-1.15738337235711E-14
31
0
210
0
220
0
230
1
40
0.932515
41
-0.425672709191254
42
0.425672709191253
0
POINT
5
70
100
AcDbEntity
8
81
62
256
6
ByLayer
370
18
48
1
60
0
100
AcDbPoint
10
128.5
20
0
30
0
39
0
210
0
220
0
230
1
50
360
0
POINT
5
72
100
AcDbEntity
8
80
62
256
6
ByLayer
370
18
48
1
60
0
100
AcDbPoint
10
0
20
0
30
0
39
0
210
0
220
0
230
1
50
360
0
POINT
5
74
100
AcDbEntity
8
1
62
256
6
ByLayer
370
18
48
1
60
1
100
AcDbPoint
10
-48
20
-9.525
30
0
39
0
210
0
220
0
230
1
50
360
0
POINT
5
76
100
AcDbEntity
8
1
62
256
6
ByLayer
370
18
48
1
60
1
100
AcDbPoint
10
128.5
20
0
30
0
39
0
210
0
220
0
230
1
50
360
0
POINT
5
77
100
AcDbEntity
8
1
62
256
6
ByLayer
370
18
48
1
60
1
100
AcDbPoint
10
128.5
20
0
30
0
39
0
210
0
220
0
230
1
50
360
0
POINT
5
78
100
AcDbEntity
8
1
62
256
6
ByLayer
370
18
48
1
60
1
100
AcDbPoint
10
3
20
-9.128
30
0
39
0
210
0
220
0
230
1
50
360
0
POINT
5
79
100
AcDbEntity
8
1
62
256
6
ByLayer
370
18
48
1
60
1
100
AcDbPoint
10
-48
20
-9.525
30
0
39
0
210
0
220
0
230
1
50
360
0
POINT
5
7A
100
AcDbEntity
8
1
62
256
6
ByLayer
370
18
48
1
60
1
100
AcDbPoint
10
0
20
-9.525
30
0
39
0
210
0
220
0
230
1
50
360
0
POINT
5
7B
100
AcDbEntity
8
1
62
256
6
ByLayer
370
18
48
1
60
1
100
AcDbPoint
10
128.5
20
0
30
0
39
0
210
0
220
0
230
1
50
360
0
POINT
5
7C
100
AcDbEntity
8
1
62
256
6
ByLayer
370
18
48
1
60
1
100
AcDbPoint
10
25
20
9.128
30
0
39
0
210
0
220
0
230
1
50
360
0
SPLINE
5
C3
100
AcDbEntity
8
1
62
256
6
ByLayer
370
18
48
1
60
0
100
AcDbSpline
70
4
71
3
72
14
73
10
40
0
40
0
40
0
40
0
40
0.25
40
0.25
40
0.5
40
0.5
40
0.75
40
0.75
40
1
40
1
40
1
40
1
41
1
10
12.8171581984049
20
8.03751437852108
30
0
41
1
10
12.5782629644974
20
8.0703280396678
30
0
41
1
10
12.3406471740751
20
8.10313924700606
30
0
41
1
10
11.8675262290649
20
8.1678641108754
30
0
41
1
10
11.6320197447941
20
8.19977786769198
30
0
41
1
10
11.1627999226691
20
8.26201155727483
30
0
41
1
10
10.9290856936923
20
8.29233280300804
30
0
41
1
10
10.4633010508561
20
8.35086260647827
30
0
41
1
10
10.2312303520229
20
8.37907355374512
30
0
41
1
10
10
20
8.40602927073238
30
0
0
SPLINE
5
C4
100
AcDbEntity
8
1
62
256
6
ByLayer
370
18
48
1
60
0
100
AcDbSpline
70
4
71
3
72
22
73
18
40
0
40
0
40
0
40
0
40
0.249999999999996
40
0.249999999999996
40
0.312499999999999
40
0.312499999999999
40
0.375000000000002
40
0.375000000000002
40
0.500000000000008
40
0.500000000000008
40
0.750000000000012
40
0.750000000000012
40
0.87500000000001
40
0.87500000000001
40
0.937500000000005
40
0.937500000000005
40
1
40
1
40
1
40
1
41
1
10
125.177679701645
20
-1.30312270773632
30
0
41
1
10
124.378169042563
20
-1.01594841698463
30
0
41
1
10
123.579299605074
20
-0.727661940695043
30
0
41
1
10
122.581856114475
20
-0.364966170748375
30
0
41
1
10
122.382424674603
20
-0.292310033174033
30
0
41
1
10
121.98368353973
20
-0.146744376037162
30
0
41
1
10
121.78438877848
20
-0.0737935402305823
30
0
41
1
10
121.186535916321
20
0.145019386718786
30
0
41
1
10
120.787861291065
20
0.290432645918997
30
0
41
1
10
119.591465500718
20
0.725145991693267
30
0
41
1
10
118.793436375497
20
1.01309846830102
30
0
41
1
10
117.596069721572
20
1.44314286513421
30
0
41
1
10
117.196898509182
20
1.5861897956064
30
0
41
1
10
116.598116793228
20
1.80043847187483
30
0
41
1
10
116.398518498972
20
1.87180038738492
30
0
41
1
10
115.999317915494
20
2.01442781822786
30
0
41
1
10
115.799712737416
20
2.08568530340844
30
0
41
1
10
115.6
20
2.15660544494548
30
0
0
SPLINE
5
C5
100
AcDbEntity
8
1
62
256
6
ByLayer
370
18
48
1
60
0
100
AcDbSpline
70
4
71
3
72
86
73
82
40
0
40
0
40
0
40
0
40
0.0312500000000035
40
0.0312500000000035
40
0.0625000000000071
40
0.0625000000000071
40
0.0937500000000106
40
0.0937500000000106
40
0.125000000000014
40
0.125000000000014
40
0.140625000000016
40
0.140625000000016
40
0.148437500000017
40
0.148437500000017
40
0.156250000000018
40
0.187500000000018
40
0.187500000000018
40
0.250000000000018
40
0.250000000000018
40
0.281250000000019
40
0.281250000000019
40
0.296875000000019
40
0.296875000000019
40
0.312500000000019
40
0.312500000000019
40
0.343750000000021
40
0.343750000000021
40
0.375000000000022
40
0.375000000000022
40
0.406250000000023
40
0.406250000000023
40
0.437500000000024
40
0.437500000000024
40
0.445312500000024
40
0.445312500000024
40
0.453125000000024
40
0.468750000000024
40
0.468750000000024
40
0.500000000000025
40
0.500000000000025
40
0.531250000000025
40
0.531250000000025
40
0.539062500000025
40
0.539062500000025
40
0.546875000000026
40
0.562500000000025
40
0.562500000000025
40
0.593750000000025
40
0.593750000000025
40
0.625000000000024
40
0.625000000000024
40
0.632812500000024
40
0.632812500000024
40
0.640625000000024
40
0.656250000000024
40
0.656250000000024
40
0.687500000000025
40
0.687500000000025
40
0.718750000000025
40
0.718750000000025
40
0.726562500000025
40
0.726562500000025
40
0.734375000000026
40
0.734375000000026
40
0.750000000000026
40
0.750000000000026
40
0.781250000000024
40
0.781250000000024
40
0.812500000000023
40
0.843750000000022
40
0.843750000000022
40
0.851562500000021
40
0.851562500000021
40
0.859375000000021
40
0.875000000000019
40
0.875000000000019
40
0.906250000000014
40
0.937500000000009
40
0.968750000000005
40
0.968750000000005
40
1
40
1
40
1
40
1
41
1
10
125.177679701651
20
8.83815126674179
30
0
41
1
10
125.234704419501
20
8.69672132206284
30
0
41
1
10
125.291817416151
20
8.55316677129653
30
0
41
1
10
125.406317610184
20
8.2621415734607
30
0
41
1
10
125.46370483714
20
8.11466907419194
30
0
41
1
10
125.578820342268
20
7.81606003518135
30
0
41
1
10
125.636548664794
20
7.66492299761896
30
0
41
1
10
125.752383447668
20
7.35917450074692
30
0
41
1
10
125.81048983867
20
7.20456497247889
30
0
41
1
10
125.897937935075
20
6.97013186301064
30
0
41
1
10
125.927135157118
20
6.89156691473303
30
0
41
1
10
125.97100080265
20
6.77309392310494
30
0
41
1
10
125.985644262386
20
6.73347160711262
30
0
41
1
10
126.014902941562
20
6.65415687934308
30
0
41
1
10
126.087942744089
20
6.45579158270996
30
0
41
1
10
126.160455060992
20
6.25704005205674
30
0
41
1
10
126.333399778602
20
5.77928941373119
30
0
41
1
10
126.447307904172
20
5.45981540988532
30
0
41
1
10
126.614969286316
20
4.97879241332532
30
0
41
1
10
126.670310735895
20
4.81814463888955
30
0
41
1
10
126.752196638442
20
4.57660509845229
30
0
41
1
10
126.779302745018
20
4.49599671605429
30
0
41
1
10
126.833063070859
20
4.33456332350107
30
0
41
1
10
126.859728000358
20
4.25370343612738
30
0
41
1
10
126.938527809331
20
4.01192252957907
30
0
41
1
10
126.989608431044
20
3.85142397369199
30
0
41
1
10
127.087929865365
20
3.53154186615185
30
0
41
1
10
127.135177154606
20
3.37215936723297
30
0
41
1
10
127.224394984159
20
3.05417859916321
30
0
41
1
10
127.266373016776
20
2.89558106984316
30
0
41
1
10
127.34288794281
20
2.57873999243137
30
0
41
1
10
127.377428323103
20
2.42049514034136
30
0
41
1
10
127.414025373022
20
2.22257987022164
30
0
41
1
10
127.421020501278
20
2.18294911434455
30
0
41
1
10
127.434257206154
20
2.10387445770454
30
0
41
1
10
127.452962673912
20
1.98567527065691
30
0
41
1
10
127.468017776513
20
1.86872995936309
30
0
41
1
10
127.49276930223
20
1.63657484499186
30
0
41
1
10
127.502072779534
20
1.48411063931204
30
0
41
1
10
127.504533153396
20
1.18433123380973
30
0
41
1
10
127.497675277975
20
1.03701848243358
30
0
41
1
10
127.479067445573
20
0.856575969841572
30
0
41
1
10
127.474841254056
20
0.820616741216099
30
0
41
1
10
127.465453352275
20
0.749365919663717
30
0
41
1
10
127.449991497833
20
0.643621987707945
30
0
41
1
10
127.430628077832
20
0.541233709895437
30
0
41
1
10
127.387346603334
20
0.340824595801138
30
0
41
1
10
127.352444278229
20
0.213033683659262
30
0
41
1
10
127.27368058362
20
-0.0313632006176761
30
0
41
1
10
127.229825897091
20
-0.147972476447364
30
0
41
1
10
127.170860709738
20
-0.286844329552537
30
0
41
1
10
127.158844315245
20
-0.314303768844155
30
0
41
1
10
127.134493638794
20
-0.36836950780966
30
0
41
1
10
127.097511244298
20
-0.448147419825517
30
0
41
1
10
127.059300856903
20
-0.524040270968925
30
0
41
1
10
126.981538624559
20
-0.670799605367705
30
0
41
1
10
126.927926181103
20
-0.761951281643832
30
0
41
1
10
126.818196477734
20
-0.931316710428661
30
0
41
1
10
126.762071846624
20
-1.00952808277219
30
0
41
1
10
126.690686948978
20
-1.09921336709573
30
0
41
1
10
126.676347607544
20
-1.11674552975904
30
0
41
1
10
126.647549504116
20
-1.15099657943975
30
0
41
1
10
126.633091558926
20
-1.1677131092724
30
0
41
1
10
126.589738304528
20
-1.21642662627315
30
0
41
1
10
126.560800013297
20
-1.24706581787882
30
0
41
1
10
126.473922009082
20
-1.33359562088569
30
0
41
1
10
126.415923478931
20
-1.38410954082016
30
0
41
1
10
126.299872001174
20
-1.47114481735085
30
0
41
1
10
126.183763330381
20
-1.54418467647679
30
0
41
1
10
126.067507217032
20
-1.58925721548644
30
0
41
1
10
125.994740776228
20
-1.60849425238689
30
0
41
1
10
125.980186031395
20
-1.61189182784668
30
0
41
1
10
125.951197545112
20
-1.61776301928288
30
0
41
1
10
125.907846165342
20
-1.62519762639172
30
0
41
1
10
125.864874761704
20
-1.62856071001346
30
0
41
1
10
125.779401219377
20
-1.6299485014593
30
0
41
1
10
125.666687561205
20
-1.61758185705105
30
0
41
1
10
125.500779867853
20
-1.55712170224774
30
0
41
1
10
125.391894917997
20
-1.48880463694803
30
0
41
1
10
125.283674236092
20
-1.40616535891877
30
0
41
1
10
125.230336453971
20
-1.35801854314272
30
0
41
1
10
125.177679701651
20
-1.30312270773834
30
0
0
SPLINE
5
C6
100
AcDbEntity
8
1
62
256
6
ByLayer
370
18
48
1
60
0
100
AcDbSpline
70
4
71
3
72
18
73
14
40
0
40
0
40
0
40
0
40
0.0556906745810105
40
0.0556906745810105
40
0.150121607122906
40
0.150121607122906
40
0.244552539664801
40
0.244552539664801
40
0.433414404748604
40
0.433414404748604
40
0.622276269832406
40
0.622276269832406
40
1
40
1
40
1
40
1
41
1
10
118.840389961188
20
9.12685973029619
30
0
41
1
10
118.957988809301
20
9.12688613018457
30
0
41
1
10
119.075568243279
20
9.12661088152888
30
0
41
1
10
119.392463688987
20
9.12505245945306
30
0
41
1
10
119.591739640994
20
9.12320038825789
30
0
41
1
10
119.990172076868
20
9.11773340296796
30
0
41
1
10
120.189341870134
20
9.1141170470008
30
0
41
1
10
120.787100456186
20
9.10068627746318
30
0
41
1
10
121.185852761276
20
9.08829277337929
30
0
41
1
10
121.983652051687
20
9.05671149220834
30
0
41
1
10
122.382704293878
20
9.03752291808379
30
0
41
1
10
123.58018163807
20
8.96976105911111
30
0
41
1
10
124.378913880909
20
8.91103728971777
30
0
41
1
10
125.177679701645
20
8.83815126674273
30
0
0
SPLINE
5
C7
100
AcDbEntity
8
1
62
256
6
ByLayer
370
18
48
1
60
0
100
AcDbSpline
70
4
71
3
72
50
73
46
40
0
40
0
40
0
40
0
40
0.0650702754375173
40
0.0650702754375173
40
0.130140550875035
40
0.130140550875035
40
0.195210826312552
40
0.195210826312552
40
0.22774596403131
40
0.22774596403131
40
0.260281101750068
40
0.260281101750068
40
0.325351377187582
40
0.325351377187582
40
0.390421652625096
40
0.390421652625096
40
0.45549192806261
40
0.45549192806261
40
0.471759496921989
40
0.471759496921989
40
0.488027065781367
40
0.488027065781367
40
0.520562203500123
40
0.520562203500123
40
0.585632478937636
40
0.585632478937636
40
0.650702754375148
40
0.650702754375148
40
0.715773029812661
40
0.715773029812661
40
0.748308167531417
40
0.748308167531417
40
0.780843305250174
40
0.780843305250174
40
0.845913580687685
40
0.845913580687685
40
0.910983856125196
40
0.910983856125196
40
0.943518993843952
40
0.943518993843952
40
0.959786562703329
40
0.959786562703329
40
0.976054131562707
40
0.976054131562707
40
1
40
1
40
1
40
1
41
1
10
16.7479682766107
20
-5.08576154884946
30
0
41
1
10
17.2632430132432
20
-5.23208800493839
30
0
41
1
10
17.7785265130117
20
-5.37405932179928
30
0
41
1
10
18.8088782779009
20
-5.65011682250471
30
0
41
1
10
19.3239457166751
20
-5.78420381310974
30
0
41
1
10
20.3536471847736
20
-6.04505198296815
30
0
41
1
10
20.8682798230077
20
-6.1718157891807
30
0
41
1
10
21.6397440813101
20
-6.35672066425403
30
0
41
1
10
21.8968185557738
20
-6.41747947812854
30
0
41
1
10
22.4107855178361
20
-6.53725814838984
30
0
41
1
10
22.6676650022301
20
-6.59629749084138
30
0
41
1
10
23.438723092222
20
-6.76948058943762
30
0
41
1
10
23.9531585270413
20
-6.88002729537342
30
0
41
1
10
24.9824750434619
20
-7.09211077374601
30
0
41
1
10
25.497372741357
20
-7.19361554125919
30
0
41
1
10
26.527439287771
20
-7.38788534941355
30
0
41
1
10
27.0426014729824
20
-7.4806609448645
30
0
41
1
10
27.6866018027471
20
-7.59123196987014
30
0
41
1
10
27.8154044832729
20
-7.61307539561202
30
0
41
1
10
28.073012950162
20
-7.65621892776346
30
0
41
1
10
28.201826822175
20
-7.67752086014906
30
0
41
1
10
28.5883132546458
20
-7.74046155943
30
0
41
1
10
28.8459591055363
20
-7.78104891185225
30
0
41
1
10
29.6188925146484
20
-7.89872726113953
30
0
41
1
10
30.1341192488917
20
-7.97182078463928
30
0
41
1
10
31.1642022848468
20
-8.10779056666456
30
0
41
1
10
31.6790698551426
20
-8.17065304511391
30
0
41
1
10
32.7082319993423
20
-8.28633159526572
30
0
41
1
10
33.2225198128152
20
-8.33915221342187
30
0
41
1
10
33.9933919198707
20
-8.41076256368564
30
0
41
1
10
34.250295390831
20
-8.43332431046161
30
0
41
1
10
34.7643892151053
20
-8.47556585879096
30
0
41
1
10
35.021532297539
20
-8.49528455209776
30
0
41
1
10
35.7931733536099
20
-8.55033650381372
30
0
41
1
10
36.3078771868779
20
-8.58157573056332
30
0
41
1
10
37.3376368327224
20
-8.63331368932441
30
0
41
1
10
37.8526921767185
20
-8.65381349075125
30
0
41
1
10
38.6253746446814
20
-8.67645120280494
30
0
41
1
10
38.8829527321665
20
-8.68264263883876
30
0
41
1
10
39.2693315731352
20
-8.68987029713691
30
0
41
1
10
39.3981244508435
20
-8.69193635809077
30
0
41
1
10
39.6557220319535
20
-8.69537449164235
30
0
41
1
10
39.7845442218077
20
-8.69674580120261
30
0
41
1
10
40.1030212085374
20
-8.69926717501079
30
0
41
1
10
40.2926674159527
20
-8.70001010524601
30
0
41
1
10
40.4823078104107
20
-8.700002660634
30
0
0
SPLINE
5
C8
100
AcDbEntity
8
1
62
256
6
ByLayer
370
18
48
1
60
0
100
AcDbSpline
70
4
71
3
72
38
73
34
40
0
40
0
40
0
40
0
40
0.0784353811220916
40
0.0784353811220916
40
0.129633415504199
40
0.129633415504199
40
0.180831449886305
40
0.180831449886305
40
0.283227518650523
40
0.283227518650523
40
0.385623587414741
40
0.385623587414741
40
0.43682162179685
40
0.43682162179685
40
0.488019656178959
40
0.488019656178959
40
0.513618673370014
40
0.513618673370014
40
0.539217690561069
40
0.539217690561069
40
0.590415724943172
40
0.590415724943172
40
0.69281179370738
40
0.69281179370738
40
0.795207862471589
40
0.795207862471589
40
0.897603931235798
40
0.897603931235798
40
0.923202948426848
40
0.923202948426848
40
0.948801965617898
40
0.948801965617898
40
1
40
1
40
1
40
1
41
1
10
100.508376567736
20
6.37584728972016
30
0
41
1
10
100.903007937037
20
6.46864906481764
30
0
41
1
10
101.29752330821
20
6.55919658200554
30
0
41
1
10
101.949282541933
20
6.70523569304072
30
0
41
1
10
102.206621943761
20
6.76197845610889
30
0
41
1
10
102.721141085958
20
6.87360139979296
30
0
41
1
10
102.978329214719
20
6.92846089051503
30
0
41
1
10
103.750369057487
20
7.08898174803517
30
0
41
1
10
104.265503688953
20
7.19095123248891
30
0
41
1
10
105.296314902385
20
7.38554018656819
30
0
41
1
10
105.812008251806
20
7.47813002626486
30
0
41
1
10
106.58582271018
20
7.61017884486418
30
0
41
1
10
106.843772462554
20
7.65304899668959
30
0
41
1
10
107.359338338118
20
7.73646338875937
30
0
41
1
10
107.617000931021
20
7.77701531153946
30
0
41
1
10
108.003297336268
20
7.8361101252917
30
0
41
1
10
108.132029292243
20
7.85552017288458
30
0
41
1
10
108.389427381533
20
7.89375741537393
30
0
41
1
10
108.518095968868
20
7.91258107274544
30
0
41
1
10
108.904116459525
20
7.96803788565751
30
0
41
1
10
109.161521427732
20
8.00361365385012
30
0
41
1
10
109.933876621008
20
8.10626322244227
30
0
41
1
10
110.448934223505
20
8.16930520130947
30
0
41
1
10
111.479110083821
20
8.28502031430259
30
0
41
1
10
111.994238462733
20
8.33768326098479
30
0
41
1
10
113.024348880444
20
8.43274658868285
30
0
41
1
10
113.539316512809
20
8.47515485018738
30
0
41
1
10
114.182856328727
20
8.52162273110429
30
0
41
1
10
114.311563046712
20
8.53058379064157
30
0
41
1
10
114.569048821469
20
8.54779796860856
30
0
41
1
10
114.6978318948
20
8.55604941472558
30
0
41
1
10
115.084294257601
20
8.57974933857028
30
0
41
1
10
115.342085350146
20
8.59414492299263
30
0
41
1
10
115.6
20
8.60716347911119
30
0
0
SPLINE
5
C9
100
AcDbEntity
8
1
62
256
6
ByLayer
370
18
48
1
60
0
100
AcDbSpline
70
4
71
3
72
66
73
62
40
0
40
0
40
0
40
0
40
0.0474495843660461
40
0.0474495843660461
40
0.0948991687320921
40
0.0948991687320921
40
0.142348753098138
40
0.142348753098138
40
0.16607354528116
40
0.16607354528116
40
0.189798337464182
40
0.189798337464182
40
0.237247921830226
40
0.237247921830226
40
0.28469750619627
40
0.28469750619627
40
0.308422298379292
40
0.308422298379292
40
0.332147090562314
40
0.332147090562314
40
0.355871882745336
40
0.355871882745336
40
0.379596674928358
40
0.379596674928358
40
0.427046259294404
40
0.427046259294404
40
0.47449584366045
40
0.47449584366045
40
0.498220635843473
40
0.498220635843473
40
0.521945428026496
40
0.521945428026496
40
0.569395012392544
40
0.569395012392544
40
0.616844596758593
40
0.616844596758593
40
0.640569388941617
40
0.640569388941617
40
0.664294181124641
40
0.664294181124641
40
0.676156577216153
40
0.676156577216153
40
0.688018973307665
40
0.688018973307665
40
0.711743765490687
40
0.711743765490687
40
0.759193349856729
40
0.759193349856729
40
0.80664293422277
40
0.80664293422277
40
0.830367726405791
40
0.830367726405791
40
0.854092518588812
40
0.854092518588812
40
0.901542102954854
40
0.901542102954854
40
0.948991687320896
40
0.948991687320896
40
0.996441271686937
40
0.996441271686937
40
1
40
1
40
1
40
1
41
1
10
115.6
20
1.90988431776361
30
0
41
1
10
115.063904637576
20
2.09207390146713
30
0
41
1
10
114.527964197517
20
2.272025290789
30
0
41
1
10
113.456498955475
20
2.62786840028426
30
0
41
1
10
112.920970794548
20
2.80375038051952
30
0
41
1
10
111.850432715472
20
3.15175984309866
30
0
41
1
10
111.315428977475
20
3.32390448348755
30
0
41
1
10
110.51341720248
20
3.57953412794248
30
0
41
1
10
110.246196432231
20
3.66440066095368
30
0
41
1
10
109.711647871005
20
3.83254287131356
30
0
41
1
10
109.444305513212
20
3.91578273242567
30
0
41
1
10
108.642096663571
20
4.16308873537739
30
0
41
1
10
108.107051677462
20
4.32475274691149
30
0
41
1
10
107.036588815106
20
4.64198146592014
30
0
41
1
10
106.501167799994
20
4.79753881451407
30
0
41
1
10
105.697852895713
20
5.02650401029368
30
0
41
1
10
105.430051269917
20
5.1020977686176
30
0
41
1
10
104.894398999168
20
5.25184072004797
30
0
41
1
10
104.626578206023
20
5.32605914411863
30
0
41
1
10
104.090708453899
20
5.47261434688798
30
0
41
1
10
103.82259043434
20
5.54483207494141
30
0
41
1
10
103.286577067162
20
5.68700511420468
30
0
41
1
10
103.018615358201
20
5.75698698770017
30
0
41
1
10
102.214885411244
20
5.96369854545176
30
0
41
1
10
101.67926967312
20
6.09719380819874
30
0
41
1
10
100.608549165915
20
6.35583643646578
30
0
41
1
10
100.073448161784
20
6.48099217959503
30
0
41
1
10
99.2712887452742
20
6.66259658246423
30
0
41
1
10
99.0040044555023
20
6.72214460182653
30
0
41
1
10
98.4694972478035
20
6.83897950378235
30
0
41
1
10
98.2022036712686
20
6.89613855196404
30
0
41
1
10
97.4001018257585
20
7.06369822028105
30
0
41
1
10
96.8651245273571
20
7.17028202510727
30
0
41
1
10
95.7947954730932
20
7.37349746296098
30
0
41
1
10
95.2594400330952
20
7.47012367511749
30
0
41
1
10
94.4562149589213
20
7.60769240951097
30
0
41
1
10
94.1884426104122
20
7.65232063018465
30
0
41
1
10
93.6528491188556
20
7.73911478785982
30
0
41
1
10
93.3850389976128
20
7.7812949332461
30
0
41
1
10
92.9832549011338
20
7.84265099629906
30
0
41
1
10
92.8493076090226
20
7.86277366398915
30
0
41
1
10
92.5813191987648
20
7.90229074122817
30
0
41
1
10
92.4472695507992
20
7.92169287255922
30
0
41
1
10
92.0451940173689
20
7.97880512777925
30
0
41
1
10
91.7771878706778
20
8.01542971768845
30
0
41
1
10
90.9733239949392
20
8.1210274123051
30
0
41
1
10
90.4376188331217
20
8.18572887606479
30
0
41
1
10
89.3667138997384
20
8.30394113899359
30
0
41
1
10
88.8315150670163
20
8.3574539664794
30
0
41
1
10
88.0292057232816
20
8.42934332896658
30
0
41
1
10
87.7618534625626
20
8.45190949825189
30
0
41
1
10
87.2273083347629
20
8.49420953013527
30
0
41
1
10
86.9600712969125
20
8.51391038260118
30
0
41
1
10
86.1580746806265
20
8.5684550708865
30
0
41
1
10
85.6231635510818
20
8.59884114335935
30
0
41
1
10
84.5529650693323
20
8.64787724863032
30
0
41
1
10
84.0176738673474
20
8.66652588477533
30
0
41
1
10
82.9468256419247
20
8.69207900322371
30
0
41
1
10
82.4112759457929
20
8.69898502492589
30
0
41
1
10
81.8354794788276
20
8.699964696732
30
0
41
1
10
81.7953068636934
20
8.69999915197923
30
0
41
1
10
81.7551330004189
20
8.69999973998685
30
0
0
SPLINE
5
CA
100
AcDbEntity
8
1
62
256
6
ByLayer
370
18
48
1
60
0
100
AcDbSpline
70
4
71
3
72
20
73
16
40
0
40
0
40
0
40
0
40
0.09909910767408
40
0.09909910767408
40
0.279279286139264
40
0.279279286139264
40
0.369369375371856
40
0.369369375371856
40
0.459459464604447
40
0.459459464604447
40
0.639639643069632
40
0.639639643069632
40
0.819819821534816
40
0.819819821534816
40
1
40
1
40
1
40
1
41
1
10
21.7240711040175
20
-6.3782542410755
30
0
41
1
10
21.4298619649039
20
-6.44745082206276
30
0
41
1
10
21.1356952968662
20
-6.51530145455129
30
0
41
1
10
20.3068245194794
20
-6.70278340573526
30
0
41
1
10
19.772242771967
20
-6.81936889621645
30
0
41
1
10
18.970731065701
20
-6.98778105817181
30
0
41
1
10
18.7036443314174
20
-7.04287854244561
30
0
41
1
10
18.1694615278922
20
-7.15066733096717
30
0
41
1
10
17.9022987610672
20
-7.20324788031286
30
0
41
1
10
17.100537944452
20
-7.35698969688627
30
0
41
1
10
16.5657020876186
20
-7.45421539051293
30
0
41
1
10
15.4954869650727
20
-7.63839909628993
30
0
41
1
10
14.960106522246
20
-7.7253556804784
30
0
41
1
10
13.8889160971719
20
-7.88908719317425
30
0
41
1
10
13.3531066655388
20
-7.96586442806472
30
0
41
1
10
12.8171581984049
20
-8.03751437852054
30
0
0
SPLINE
5
CB
100
AcDbEntity
8
1
62
256
6
ByLayer
370
18
48
1
60
0
100
AcDbSpline
70
4
71
3
72
10
73
6
40
0
40
0
40
0
40
0
40
0.739337384090611
40
0.739337384090611
40
1
40
1
40
1
40
1
41
1
10
115.6
20
-9.05046589177985
30
0
41
1
10
116.399298418005
20
-9.08798755483684
30
0
41
1
10
117.198241305159
20
-9.11159648411976
30
0
41
1
10
118.277858850027
20
-9.12500860070202
30
0
41
1
10
118.559179980539
20
-9.12679660173325
30
0
41
1
10
118.84039009806
20
-9.12685973032691
30
0
0
SPLINE
5
CC
100
AcDbEntity
8
1
62
256
6
ByLayer
370
18
48
1
60
0
100
AcDbSpline
70
4
71
3
72
184
73
180
40
0
40
0
40
0
40
0
40
0.0045740240077436
40
0.0045740240077436
40
0.0128006849663572
40
0.0128006849663572
40
0.0292540068835841
40
0.0292540068835841
40
0.0457073288008109
40
0.0457073288008109
40
0.0621606507180377
40
0.0621606507180377
40
0.0662739811973444
40
0.0662739811973444
40
0.0703873116766511
40
0.0703873116766511
40
0.0786139726352645
40
0.0786139726352645
40
0.0950672945524914
40
0.0950672945524914
40
0.111520616469718
40
0.111520616469718
40
0.127973938386945
40
0.127973938386945
40
0.136200599345559
40
0.136200599345559
40
0.144427260304172
40
0.144427260304172
40
0.160880582221399
40
0.160880582221399
40
0.177333904138626
40
0.177333904138626
40
0.185560565097239
40
0.185560565097239
40
0.189673895576546
40
0.189673895576546
40
0.193787226055853
40
0.193787226055853
40
0.210240547973079
40
0.210240547973079
40
0.226693869890305
40
0.226693869890305
40
0.243147191807532
40
0.243147191807532
40
0.251373852766145
40
0.251373852766145
40
0.255487183245451
40
0.255487183245451
40
0.259600513724758
40
0.259600513724758
40
0.276053835641984
40
0.276053835641984
40
0.29250715755921
40
0.29250715755921
40
0.308960479476436
40
0.308960479476436
40
0.317187140435049
40
0.317187140435049
40
0.325413801393661
40
0.325413801393661
40
0.341867123310888
40
0.341867123310888
40
0.358320445228114
40
0.358320445228114
40
0.366547106186727
40
0.366547106186727
40
0.37477376714534
40
0.37477376714534
40
0.383000428103953
40
0.383000428103953
40
0.391227089062567
40
0.391227089062567
40
0.407680410979793
40
0.407680410979793
40
0.42413373289702
40
0.42413373289702
40
0.432360393855633
40
0.432360393855633
40
0.440587054814246
40
0.440587054814246
40
0.457040376731473
40
0.457040376731473
40
0.4734936986487
40
0.4734936986487
40
0.489947020565927
40
0.489947020565927
40
0.494060351045234
40
0.494060351045234
40
0.498173681524541
40
0.498173681524541
40
0.506400342483155
40
0.506400342483155
40
0.522853664400383
40
0.522853664400383
40
0.53930698631761
40
0.53930698631761
40
0.555760308234838
40
0.555760308234838
40
0.559873638714145
40
0.559873638714145
40
0.563986969193452
40
0.563986969193452
40
0.572213630152066
40
0.572213630152066
40
0.588666952069295
40
0.588666952069295
40
0.605120273986523
40
0.605120273986523
40
0.613346934945137
40
0.613346934945137
40
0.621573595903751
40
0.621573595903751
40
0.63802691782098
40
0.63802691782098
40
0.654480239738209
40
0.654480239738209
40
0.670933561655438
40
0.670933561655438
40
0.679160222614053
40
0.679160222614053
40
0.68327355309336
40
0.68327355309336
40
0.687386883572667
40
0.687386883572667
40
0.703840205489896
40
0.703840205489896
40
0.720293527407124
40
0.720293527407124
40
0.736746849324353
40
0.736746849324353
40
0.744973510282968
40
0.744973510282968
40
0.753200171241582
40
0.753200171241582
40
0.769653493158811
40
0.769653493158811
40
0.78610681507604
40
0.78610681507604
40
0.794333476034654
40
0.794333476034654
40
0.802560136993268
40
0.802560136993268
40
0.810786797951882
40
0.810786797951882
40
0.819013458910496
40
0.819013458910496
40
0.835466780827724
40
0.835466780827724
40
0.851920102744952
40
0.851920102744952
40
0.860146763703566
40
0.860146763703566
40
0.86837342466218
40
0.86837342466218
40
0.884826746579408
40
0.884826746579408
40
0.901280068496636
40
0.901280068496636
40
0.90950672945525
40
0.90950672945525
40
0.917733390413865
40
0.917733390413865
40
0.921846720893172
40
0.921846720893172
40
0.925960051372479
40
0.925960051372479
40
0.934186712331091
40
0.934186712331091
40
0.950640034248318
40
0.950640034248318
40
0.967093356165545
40
0.967093356165545
40
0.983546678082771
40
0.983546678082771
40
0.987660008562078
40
0.987660008562078
40
0.991773339041386
40
0.991773339041386
40
1
40
1
40
1
40
1
41
1
10
21.725070995862
20
6.37666588358971
30
0
41
1
10
21.8680082443865
20
6.41050307785775
30
0
41
1
10
22.0109192052718
20
6.44407033917921
30
0
41
1
10
22.410785517836
20
6.53725814838984
30
0
41
1
10
22.66766500223
20
6.59629749084138
30
0
41
1
10
23.4387230922219
20
6.76948058943759
30
0
41
1
10
23.9531585270412
20
6.88002729537342
30
0
41
1
10
24.9824750434618
20
7.09211077374601
30
0
41
1
10
25.497372741357
20
7.19361554125919
30
0
41
1
10
26.527439287771
20
7.38788534941355
30
0
41
1
10
27.0426014729823
20
7.4806609448645
30
0
41
1
10
27.6866018027471
20
7.59123196987014
30
0
41
1
10
27.8154044832728
20
7.61307539561204
30
0
41
1
10
28.073012950162
20
7.65621892776346
30
0
41
1
10
28.201826822175
20
7.67752086014906
30
0
41
1
10
28.5883132546458
20
7.74046155943003
30
0
41
1
10
28.8459591055362
20
7.78104891185225
30
0
41
1
10
29.6188925146484
20
7.89872726113956
30
0
41
1
10
30.1341192488917
20
7.97182078463928
30
0
41
1
10
31.1642022848468
20
8.10779056666456
30
0
41
1
10
31.6790698551425
20
8.17065304511388
30
0
41
1
10
32.7082319993422
20
8.28633159526572
30
0
41
1
10
33.2225198128151
20
8.33915221342184
30
0
41
1
10
33.9933919198706
20
8.41076256368564
30
0
41
1
10
34.250295390831
20
8.43332431046164
30
0
41
1
10
34.7643892151052
20
8.47556585879093
30
0
41
1
10
35.0215322975389
20
8.49528455209776
30
0
41
1
10
35.7931733536098
20
8.55033650381372
30
0
41
1
10
36.3078771868778
20
8.58157573056332
30
0
41
1
10
37.3376368327223
20
8.63331368932441
30
0
41
1
10
37.8526921767186
20
8.65381349075125
30
0
41
1
10
38.6253746446814
20
8.67645120280497
30
0
41
1
10
38.8829527321664
20
8.68264263883876
30
0
41
1
10
39.2693315731352
20
8.68987029713693
30
0
41
1
10
39.3981244508435
20
8.69193635809074
30
0
41
1
10
39.6557220319535
20
8.69537449164235
30
0
41
1
10
39.7845442218076
20
8.69674580120261
30
0
41
1
10
40.4287127709334
20
8.70184566642206
30
0
41
1
10
40.9440692497452
20
8.70032485207
30
0
41
1
10
41.9744745972807
20
8.68640670273609
30
0
41
1
10
42.4895361861823
20
8.67400536000324
30
0
41
1
10
43.5191791610139
20
8.63834302532254
30
0
41
1
10
44.0337541524382
20
8.61508028371139
30
0
41
1
10
44.8050900290547
20
8.57185129664063
30
0
41
1
10
45.0621045783799
20
8.5560447947006
30
0
41
1
10
45.4475166142585
20
8.53022968980096
30
0
41
1
10
45.5759766652867
20
8.52127758483221
30
0
41
1
10
45.8329528483661
20
8.50272645183767
30
0
41
1
10
45.9614669780697
20
8.49312683653724
30
0
41
1
10
46.6041513706013
20
8.44351343713575
30
0
41
1
10
47.1186496082789
20
8.39865788985648
30
0
41
1
10
48.1480463840779
20
8.29858684899358
30
0
41
1
10
48.6629601391377
20
8.24338145332064
30
0
41
1
10
49.69300297634
20
8.12238461377203
30
0
41
1
10
50.2081264195338
20
8.05658681370801
30
0
41
1
10
50.980838584579
20
7.9495866884908
30
0
41
1
10
51.2384246047924
20
7.91247647142166
30
0
41
1
10
51.7537991200741
20
7.83599875014926
30
0
41
1
10
52.0114884488693
20
7.79663740006694
30
0
41
1
10
52.7844904112703
20
7.67515098909016
30
0
41
1
10
53.2997250870428
20
7.58961345395204
30
0
41
1
10
54.3297837477547
20
7.40928069655791
30
0
41
1
10
54.8446131295724
20
7.31449358865234
30
0
41
1
10
55.6163849227808
20
7.1650712098575
30
0
41
1
10
55.8735634642832
20
7.11405493733253
30
0
41
1
10
56.3877407805138
20
7.00954309267524
30
0
41
1
10
56.6447162788165
20
6.95600594825865
30
0
41
1
10
57.1585890006559
20
6.84659888187147
30
0
41
1
10
57.4155781390159
20
6.79089213185765
30
0
41
1
10
57.9297759330696
20
6.67771140234743
30
0
41
1
10
58.1869601978708
20
6.62019440658412
30
0
41
1
10
58.9586965719324
20
6.44476300077483
30
0
41
1
10
59.4734373939682
20
6.3239833715007
30
0
41
1
10
60.5032212011976
20
6.07442039136691
30
0
41
1
10
61.0182595255124
20
5.94562805071828
30
0
41
1
10
61.790880982199
20
5.74597877852753
30
0
41
1
10
62.0484330584228
20
5.67835243988034
30
0
41
1
10
62.5635423010494
20
5.5408696068306
30
0
41
1
10
62.8211520421025
20
5.47098337947398
30
0
41
1
10
63.5942702997852
20
5.25968871354033
30
0
41
1
10
64.1096620783411
20
5.11632236272203
30
0
41
1
10
65.1400835444351
20
4.82394540985928
30
0
41
1
10
65.6551296267508
20
4.67497261609105
30
0
41
1
10
66.6846849134567
20
4.37096198076088
30
0
41
1
10
67.1991874572402
20
4.21590731764789
30
0
41
1
10
67.8418483027958
20
4.0179081891803
30
0
41
1
10
67.9703571690358
20
3.97809920449947
30
0
41
1
10
68.2273265100362
20
3.89805597198563
30
0
41
1
10
68.3557880321883
20
3.85782421501929
30
0
41
1
10
68.7412050914228
20
3.73676318131314
30
0
41
1
10
68.9982389537886
20
3.6556889162716
30
0
41
1
10
69.7696059178003
20
3.41138965557272
30
0
41
1
10
70.2841578731784
20
3.24696970167892
30
0
41
1
10
71.3136207916814
20
2.91440076456073
30
0
41
1
10
71.8285425981523
20
2.74628101977439
30
0
41
1
10
72.858545226286
20
2.40571979265948
30
0
41
1
10
73.3736170543594
20
2.23325208235553
30
0
41
1
10
74.0174682669377
20
2.01462709558578
30
0
41
1
10
74.1462441650791
20
1.97076425829422
30
0
41
1
10
74.4038786273867
20
1.88296939367987
30
0
41
1
10
74.5327544444742
20
1.83905223285532
30
0
41
1
10
74.9193392785708
20
1.70732218566488
30
0
41
1
10
75.1770545331488
20
1.61949908476134
30
0
41
1
10
75.9501048192892
20
1.35581090417273
30
0
41
1
10
76.465340172316
20
1.17971460005322
30
0
41
1
10
77.4953571504225
20
0.826355874970687
30
0
41
1
10
78.0101376242344
20
0.649090090077948
30
0
41
1
10
78.7817959995951
20
0.381816976858659
30
0
41
1
10
79.0389306535974
20
0.292498601556076
30
0
41
1
10
79.5530086589267
20
0.113344544755023
30
0
41
1
10
79.8099081586281
20
0.0233813744212341
30
0
41
1
10
80.5808105514473
20
-0.245855855043004
30
0
41
1
10
81.0951452402967
20
-0.424106248747222
30
0
41
1
10
82.1242355439845
20
-0.779229321784015
30
0
41
1
10
82.6390058777963
20
-0.95605915826286
30
0
41
1
10
83.6687947833966
20
-1.30884268190454
30
0
41
1
10
84.1838068739684
20
-1.48481518814813
30
0
41
1
10
84.9563555912072
20
-1.74856593105258
30
0
41
1
10
85.2138652190262
20
-1.83648208394686
30
0
41
1
10
85.600170266808
20
-1.96820817882187
30
0
41
1
10
85.7289539612617
20
-2.01206731515847
30
0
41
1
10
85.9866268155426
20
-2.09946974147479
30
0
41
1
10
86.1155155016747
20
-2.14302551150189
30
0
41
1
10
86.7598621897299
20
-2.36001234409028
30
0
41
1
10
87.2752753307599
20
-2.53119748581636
30
0
41
1
10
88.3056954128343
20
-2.86966196276515
30
0
41
1
10
88.8207170175747
20
-3.03689909178144
30
0
41
1
10
89.8501655085498
20
-3.36798251890392
30
0
41
1
10
90.3645868855843
20
-3.53184331888483
30
0
41
1
10
91.1356248596911
20
-3.77540452523081
30
0
41
1
10
91.3925060583651
20
-3.85630092691704
30
0
41
1
10
91.9065018390777
20
-4.01621560896746
30
0
41
1
10
92.1635957249752
20
-4.09529132095398
30
0
41
1
10
92.9350879104395
20
-4.33010167475129
30
0
41
1
10
93.449684688109
20
-4.48345359488223
30
0
41
1
10
94.4791967087551
20
-4.78438332537206
30
0
41
1
10
94.994116757008
20
-4.93194944516631
30
0
41
1
10
95.7665751493753
20
-5.14931593636649
30
0
41
1
10
96.0240745211881
20
-5.22110612097592
30
0
41
1
10
96.5390798540157
20
-5.36338548656929
30
0
41
1
10
96.7965602461754
20
-5.43393329592334
30
0
41
1
10
97.3116482322255
20
-5.573427415499
30
0
41
1
10
97.5694038331189
20
-5.64217902375947
30
0
41
1
10
98.0849416411827
20
-5.77739339778535
30
0
41
1
10
98.3427145032466
20
-5.8439077263231
30
0
41
1
10
99.115976302211
20
-6.04036307893833
30
0
41
1
10
99.631414629294
20
-6.16720859264544
30
0
41
1
10
100.661956937981
20
-6.41312360524225
30
0
41
1
10
101.177055916709
20
-6.53220356088175
30
0
41
1
10
101.949282541933
20
-6.70523569304072
30
0
41
1
10
102.20662194376
20
-6.76197845610889
30
0
41
1
10
102.721141085958
20
-6.87360139979299
30
0
41
1
10
102.978329214719
20
-6.928460890515
30
0
41
1
10
103.750369057486
20
-7.08898174803514
30
0
41
1
10
104.265503688952
20
-7.19095123248891
30
0
41
1
10
105.296314902385
20
-7.38554018656819
30
0
41
1
10
105.812008251805
20
-7.47813002626486
30
0
41
1
10
106.58582271018
20
-7.61017884486415
30
0
41
1
10
106.843772462554
20
-7.65304899668959
30
0
41
1
10
107.359338338118
20
-7.73646338875937
30
0
41
1
10
107.617000931021
20
-7.77701531153946
30
0
41
1
10
108.003297336268
20
-7.8361101252917
30
0
41
1
10
108.132029292242
20
-7.85552017288458
30
0
41
1
10
108.389427381533
20
-7.8937574153739
30
0
41
1
10
108.518095968868
20
-7.91258107274544
30
0
41
1
10
108.904116459525
20
-7.96803788565751
30
0
41
1
10
109.161521427732
20
-8.00361365385012
30
0
41
1
10
109.933876621008
20
-8.10626322244227
30
0
41
1
10
110.448934223504
20
-8.16930520130947
30
0
41
1
10
111.479110083821
20
-8.28502031430256
30
0
41
1
10
111.994238462733
20
-8.33768326098479
30
0
41
1
10
113.024348880444
20
-8.43274658868285
30
0
41
1
10
113.539316512809
20
-8.47515485018738
30
0
41
1
10
114.182856328726
20
-8.52162273110429
30
0
41
1
10
114.311563046712
20
-8.53058379064157
30
0
41
1
10
114.569048821469
20
-8.54779796860856
30
0
41
1
10
114.6978318948
20
-8.55604941472558
30
0
41
1
10
115.084294257601
20
-8.57974933857028
30
0
41
1
10
115.342085350146
20
-8.59414492299263
30
0
41
1
10
115.6
20
-8.60716347911119
30
0
0
SPLINE
5
CD
100
AcDbEntity
8
1
62
256
6
ByLayer
370
18
48
1
60
0
100
AcDbSpline
70
4
71
3
72
156
73
152
40
0
40
0
40
0
40
0
40
0.011061459907479
40
0.011061459907479
40
0.0202182982416664
40
0.0202182982416664
40
0.0293751365758539
40
0.0293751365758539
40
0.0476888132442298
40
0.0476888132442298
40
0.0660024899126056
40
0.0660024899126056
40
0.0751593282467936
40
0.0751593282467936
40
0.0843161665809815
40
0.0843161665809815
40
0.0888945857480754
40
0.0888945857480754
40
0.0934730049151694
40
0.0934730049151694
40
0.102629843249358
40
0.102629843249358
40
0.120943519917736
40
0.120943519917736
40
0.139257196586115
40
0.139257196586115
40
0.148414034920304
40
0.148414034920304
40
0.157570873254493
40
0.157570873254493
40
0.175884549922872
40
0.175884549922872
40
0.194198226591252
40
0.194198226591252
40
0.212511903259631
40
0.212511903259631
40
0.221668741593821
40
0.221668741593821
40
0.230825579928011
40
0.230825579928011
40
0.24913925659639
40
0.24913925659639
40
0.267452933264769
40
0.267452933264769
40
0.276609771598959
40
0.276609771598959
40
0.28576660993315
40
0.28576660993315
40
0.30408028660153
40
0.30408028660153
40
0.32239396326991
40
0.32239396326991
40
0.34070763993829
40
0.34070763993829
40
0.34986447827248
40
0.34986447827248
40
0.35902131660667
40
0.35902131660667
40
0.37733499327505
40
0.37733499327505
40
0.395648669943431
40
0.395648669943431
40
0.404805508277621
40
0.404805508277621
40
0.413962346611811
40
0.413962346611811
40
0.432276023280192
40
0.432276023280192
40
0.450589699948573
40
0.450589699948573
40
0.468903376616954
40
0.468903376616954
40
0.478060214951144
40
0.478060214951144
40
0.487217053285335
40
0.487217053285335
40
0.505530729953716
40
0.505530729953716
40
0.523844406622097
40
0.523844406622097
40
0.533001244956287
40
0.533001244956287
40
0.542158083290477
40
0.542158083290477
40
0.551314921624667
40
0.551314921624667
40
0.560471759958857
40
0.560471759958857
40
0.578785436627238
40
0.578785436627238
40
0.597099113295618
40
0.597099113295618
40
0.606255951629809
40
0.606255951629809
40
0.615412789963999
40
0.615412789963999
40
0.624569628298189
40
0.624569628298189
40
0.633726466632379
40
0.633726466632379
40
0.65204014330076
40
0.65204014330076
40
0.67035381996914
40
0.67035381996914
40
0.679510658303331
40
0.679510658303331
40
0.688667496637521
40
0.688667496637521
40
0.706981173305902
40
0.706981173305902
40
0.725294849974283
40
0.725294849974283
40
0.734451688308474
40
0.734451688308474
40
0.743608526642664
40
0.743608526642664
40
0.752765364976855
40
0.752765364976855
40
0.761922203311046
40
0.761922203311046
40
0.780235879979427
40
0.780235879979427
40
0.798549556647809
40
0.798549556647809
40
0.807706394981999
40
0.807706394981999
40
0.81686323331619
40
0.81686323331619
40
0.835176909984571
40
0.835176909984571
40
0.853490586652953
40
0.853490586652953
40
0.862647424987143
40
0.862647424987143
40
0.871804263321333
40
0.871804263321333
40
0.890117939989714
40
0.890117939989714
40
0.908431616658095
40
0.908431616658095
40
0.926745293326476
40
0.926745293326476
40
0.935902131660667
40
0.935902131660667
40
0.945058969994857
40
0.945058969994857
40
0.963372646663238
40
0.963372646663238
40
0.981686323331619
40
0.981686323331619
40
1
40
1
40
1
40
1
41
1
10
100.508027604545
20
-6.37819410801757
30
0
41
1
10
100.184800568916
20
-6.45431902349915
30
0
41
1
10
99.8616780524585
20
-6.52893574724266
30
0
41
1
10
99.2712887452743
20
-6.6625965824642
30
0
41
1
10
99.0040044555024
20
-6.7221446018265
30
0
41
1
10
98.4694972478035
20
-6.83897950378233
30
0
41
1
10
98.2022036712686
20
-6.89613855196401
30
0
41
1
10
97.4001018257586
20
-7.06369822028103
30
0
41
1
10
96.8651245273572
20
-7.17028202510724
30
0
41
1
10
95.7947954730932
20
-7.37349746296096
30
0
41
1
10
95.2594400330952
20
-7.47012367511749
30
0
41
1
10
94.4562149589213
20
-7.60769240951097
30
0
41
1
10
94.1884426104123
20
-7.65232063018462
30
0
41
1
10
93.6528491188557
20
-7.73911478785979
30
0
41
1
10
93.3850389976128
20
-7.78129493324607
30
0
41
1
10
92.9832549011339
20
-7.84265099629906
30
0
41
1
10
92.8493076090226
20
-7.86277366398912
30
0
41
1
10
92.5813191987648
20
-7.90229074122814
30
0
41
1
10
92.4472695507992
20
-7.92169287255919
30
0
41
1
10
92.0451940173689
20
-7.97880512777922
30
0
41
1
10
91.7771878706778
20
-8.01542971768845
30
0
41
1
10
90.9733239949393
20
-8.1210274123051
30
0
41
1
10
90.4376188331219
20
-8.18572887606479
30
0
41
1
10
89.3667138997384
20
-8.30394113899357
30
0
41
1
10
88.8315150670164
20
-8.3574539664794
30
0
41
1
10
88.0292057232818
20
-8.42934332896658
30
0
41
1
10
87.7618534625626
20
-8.45190949825187
30
0
41
1
10
87.2273083347629
20
-8.49420953013527
30
0
41
1
10
86.9600712969125
20
-8.51391038260118
30
0
41
1
10
86.1580746806266
20
-8.5684550708865
30
0
41
1
10
85.6231635510819
20
-8.59884114335935
30
0
41
1
10
84.5529650693324
20
-8.64787724863032
30
0
41
1
10
84.0176738673474
20
-8.66652588477533
30
0
41
1
10
82.9468256419247
20
-8.69207900322371
30
0
41
1
10
82.4112759457929
20
-8.69898502492589
30
0
41
1
10
81.6078391645525
20
-8.70035200858717
30
0
41
1
10
81.339997171151
20
-8.6993012725934
30
0
41
1
10
80.8039105243203
20
-8.69420293399457
30
0
41
1
10
80.5358174195916
20
-8.69015892148877
30
0
41
1
10
79.7318166768606
20
-8.67359765485762
30
0
41
1
10
79.1960201282939
20
-8.65665613235754
30
0
41
1
10
78.1249283091176
20
-8.61107719404768
30
0
41
1
10
77.5896315573455
20
-8.58244154736772
30
0
41
1
10
76.7871699297299
20
-8.53061177138051
30
0
41
1
10
76.5197628611377
20
-8.51185405262839
30
0
41
1
10
75.9851225879486
20
-8.47133920473735
30
0
41
1
10
75.7179102075004
20
-8.44956287126254
30
0
41
1
10
74.9160167478212
20
-8.38007217364574
30
0
41
1
10
74.3811706325305
20
-8.32816139323037
30
0
41
1
10
73.3110994479952
20
-8.21326210602606
30
0
41
1
10
72.775870928181
20
-8.15027639635449
30
0
41
1
10
71.7051397307225
20
-8.01311152513046
30
0
41
1
10
71.1696433855913
20
-7.9389260367843
30
0
41
1
10
70.3662879636437
20
-7.81897464069803
30
0
41
1
10
70.0985174496396
20
-7.77749575794465
30
0
41
1
10
69.5626557543362
20
-7.69199183436427
30
0
41
1
10
69.2945055457539
20
-7.64797339573647
30
0
41
1
10
68.4903659392502
20
-7.51228734208829
30
0
41
1
10
67.9544755211685
20
-7.4169580039275
30
0
41
1
10
66.8831938724893
20
-7.21653701680469
30
0
41
1
10
66.347799524735
20
-7.11145108593362
30
0
41
1
10
65.5451831707723
20
-6.9463070100073
30
0
41
1
10
65.2777241520894
20
-6.89000394593205
30
0
41
1
10
64.7429788332126
20
-6.774844500749
30
0
41
1
10
64.4757242324864
20
-6.71592778482241
30
0
41
1
10
63.6739262118525
20
-6.53585922246217
30
0
41
1
10
63.1391476755749
20
-6.4117833040292
30
0
41
1
10
62.0692004494967
20
-6.15553911876236
30
0
41
1
10
61.5340329123841
20
-6.02336856029285
30
0
41
1
10
60.463416922082
20
-5.75072196758723
30
0
41
1
10
59.9279724771855
20
-5.61023805625254
30
0
41
1
10
59.1246954558487
20
-5.39294877263504
30
0
41
1
10
58.8569394358897
20
-5.31937245823508
30
0
41
1
10
58.321275028393
20
-5.17027032002761
30
0
41
1
10
58.053253967173
20
-5.09489611010238
30
0
41
1
10
57.2489734474988
20
-4.86664320746542
30
0
41
1
10
56.7129869855424
20
-4.71166132285447
30
0
41
1
10
55.6415122369373
20
-4.39590532049519
30
0
41
1
10
55.1060202712654
20
-4.23514062242896
30
0
41
1
10
54.3032474815946
20
-3.98941185351217
30
0
41
1
10
54.035735522658
20
-3.90673418028086
30
0
41
1
10
53.5008836840319
20
-3.73979723614465
30
0
41
1
10
53.2335567786226
20
-3.65550346343471
30
0
41
1
10
52.6990243648744
20
-3.48545576154322
30
0
41
1
10
52.4317516512176
20
-3.39987976508337
30
0
41
1
10
51.8970482955709
20
-3.22802162258887
30
0
41
1
10
51.629639935954
20
-3.14168051004924
30
0
41
1
10
50.8272699157674
20
-2.88136748296355
30
0
41
1
10
50.2921615924196
20
-2.70611309526882
30
0
41
1
10
49.221658653393
20
-2.3519117520988
30
0
41
1
10
48.6862652345351
20
-2.17296195271368
30
0
41
1
10
47.8830636851731
20
-1.90142848439086
30
0
41
1
10
47.6153148179936
20
-1.81038805529815
30
0
41
1
10
47.0797690407758
20
-1.62728534474493
30
0
41
1
10
46.8119239800616
20
-1.53536144774859
30
0
41
1
10
46.2758472220634
20
-1.35148246766255
30
0
41
1
10
46.007689879582
20
-1.25945021138699
30
0
41
1
10
45.4716181965638
20
-1.07531536537317
30
0
41
1
10
45.2036386256628
20
-0.983190527702959
30
0
41
1
10
44.3998851910105
20
-0.706593040595948
30
0
41
1
10
43.8642944006597
20
-0.521903351604692
30
0
41
1
10
42.7937214454229
20
-0.151591562669211
30
0
41
1
10
42.2587470030148
20
0.0340530970141231
30
0
41
1
10
41.4568396006933
20
0.313493805921468
30
0
41
1
10
41.1896112763623
20
0.406749415513815
30
0
41
1
10
40.6549700118465
20
0.592511272959285
30
0
41
1
10
40.3875919389201
20
0.685119151563953
30
0
41
1
10
39.5853097484645
20
0.962197382798081
30
0
41
1
10
39.0502588219428
20
1.14592617080552
30
0
41
1
10
37.9798664172817
20
1.51170315695225
30
0
41
1
10
37.4445236803435
20
1.69374782751936
30
0
41
1
10
36.6413946762555
20
1.96584366687827
30
0
41
1
10
36.3736652391928
20
2.05637849353369
30
0
41
1
10
35.8381782013644
20
2.2371504850808
30
0
41
1
10
35.5704371658767
20
2.32743463117569
30
0
41
1
10
35.0345785963297
20
2.50670791604173
30
0
41
1
10
34.7664256232559
20
2.59579144840384
30
0
41
1
10
34.2302211595377
20
2.77272741181736
30
0
41
1
10
33.9621531229328
20
2.86058747190373
30
0
41
1
10
33.1580692546006
20
3.12240949818306
30
0
41
1
10
32.6221716558654
20
3.29461117248894
30
0
41
1
10
31.5508050981475
20
3.63464139762462
30
0
41
1
10
31.0153426902725
20
3.80248759171357
30
0
41
1
10
30.2125745683484
20
4.05118615882139
30
0
41
1
10
29.9450887279222
20
4.13365446483468
30
0
41
1
10
29.409956452782
20
4.29678362096382
30
0
41
1
10
29.1423101961373
20
4.37744769351562
30
0
41
1
10
28.3391543264694
20
4.6168190509371
30
0
41
1
10
27.8034307931858
20
4.77291657390876
30
0
41
1
10
26.731516536689
20
5.07844714617272
30
0
41
1
10
26.195322853311
20
5.22787365418958
30
0
41
1
10
25.3907792034166
20
5.44720466300259
30
0
41
1
10
25.1227435959825
20
5.519462066415
30
0
41
1
10
24.5870107074556
20
5.66227607866227
30
0
41
1
10
24.3193408294577
20
5.7329057197735
30
0
41
1
10
23.516501939608
20
5.94150544054094
30
0
41
1
10
22.9813425368823
20
6.07585130935144
30
0
41
1
10
21.9112597836198
20
6.33553570576663
30
0
41
1
10
21.3763351635281
20
6.46087121890386
30
0
41
1
10
20.3068245194794
20
6.70278340573526
30
0
41
1
10
19.772242771967
20
6.81936889621642
30
0
41
1
10
18.970731065701
20
6.98778105817178
30
0
41
1
10
18.7036443314174
20
7.04287854244558
30
0
41
1
10
18.1694615278922
20
7.1506673309672
30
0
41
1
10
17.9022987610672
20
7.20324788031283
30
0
41
1
10
17.1005379444521
20
7.35698969688627
30
0
41
1
10
16.5657020876186
20
7.4542153905129
30
0
41
1
10
15.4954869650727
20
7.63839909628993
30
0
41
1
10
14.960106522246
20
7.72535568047837
30
0
41
1
10
13.8889160971719
20
7.88908719317425
30
0
41
1
10
13.3531066655388
20
7.96586442806472
30
0
41
1
10
12.8171581984049
20
8.03751437852054
30
0
0
SPLINE
5
CE
100
AcDbEntity
8
1
62
256
6
ByLayer
370
18
48
1
60
0
100
AcDbSpline
70
4
71
3
72
22
73
18
40
0
40
0
40
0
40
0
40
0.0925589125271558
40
0.0925589125271558
40
0.222193353594705
40
0.222193353594705
40
0.351827794662254
40
0.351827794662254
40
0.481462235729803
40
0.481462235729803
40
0.611096676797352
40
0.611096676797352
40
0.740731117864901
40
0.740731117864901
40
0.87036555893245
40
0.87036555893245
40
1
40
1
40
1
40
1
41
1
10
5.88155292911091
20
9.03976242614235
30
0
41
1
10
6.00070037332321
20
9.02980070959183
30
0
41
1
10
6.12094391092009
20
9.01854767355718
30
0
41
1
10
6.41189798958305
20
8.988860828615
30
0
41
1
10
6.58353230972952
20
8.96935283323373
30
0
41
1
10
6.92995263669127
20
8.92665954085456
30
0
41
1
10
7.10473940317269
20
8.90347206885897
30
0
41
1
10
7.45695660861418
20
8.85391727483338
30
0
41
1
10
7.63438726597238
20
8.82754837829194
30
0
41
1
10
7.99147327198423
20
8.77198834898556
30
0
41
1
10
8.17112850840422
20
8.742795918643
30
0
41
1
10
8.53233289122059
20
8.68184858614654
30
0
41
1
10
8.71388175528801
20
8.65009249490433
30
0
41
1
10
9.07863734030641
20
8.58421650289571
30
0
41
1
10
9.26184375322521
20
8.55009545361972
30
0
41
1
10
9.62978252331388
20
8.47966198194288
30
0
41
1
10
9.81451467629043
20
8.44334845779042
30
0
41
1
10
10
20
8.40602927073238
30
0
0
SPLINE
5
CF
100
AcDbEntity
8
1
62
256
6
ByLayer
370
18
48
1
60
0
100
AcDbSpline
70
4
71
3
72
100
73
96
40
0
40
0
40
0
40
0
40
0.0624999999999948
40
0.0624999999999948
40
0.0937499999999927
40
0.0937499999999927
40
0.124999999999991
40
0.124999999999991
40
0.14062499999999
40
0.14062499999999
40
0.15624999999999
40
0.15624999999999
40
0.187499999999988
40
0.187499999999988
40
0.218749999999987
40
0.218749999999987
40
0.249999999999986
40
0.249999999999986
40
0.265624999999986
40
0.265624999999986
40
0.273437499999985
40
0.273437499999985
40
0.281249999999985
40
0.281249999999985
40
0.312499999999985
40
0.312499999999985
40
0.343749999999986
40
0.343749999999986
40
0.359374999999986
40
0.359374999999986
40
0.363281249999986
40
0.363281249999986
40
0.367187499999987
40
0.374999999999986
40
0.374999999999986
40
0.406249999999988
40
0.406249999999988
40
0.421874999999988
40
0.421874999999988
40
0.429687499999989
40
0.429687499999989
40
0.437499999999989
40
0.437499999999989
40
0.468749999999991
40
0.468749999999991
40
0.484374999999992
40
0.484374999999992
40
0.488281249999992
40
0.488281249999992
40
0.492187499999992
40
0.492187499999992
40
0.499999999999992
40
0.499999999999992
40
0.531249999999993
40
0.531249999999993
40
0.539062499999994
40
0.539062499999994
40
0.546874999999994
40
0.546874999999994
40
0.562499999999995
40
0.562499999999995
40
0.593749999999996
40
0.593749999999996
40
0.609374999999997
40
0.609374999999997
40
0.617187499999997
40
0.617187499999997
40
0.624999999999998
40
0.624999999999998
40
0.656250000000001
40
0.656250000000001
40
0.687500000000004
40
0.687500000000004
40
0.718750000000007
40
0.718750000000007
40
0.726562500000008
40
0.726562500000008
40
0.734375000000008
40
0.750000000000008
40
0.750000000000008
40
0.781250000000007
40
0.781250000000007
40
0.812500000000006
40
0.812500000000006
40
0.843750000000005
40
0.843750000000005
40
0.875000000000004
40
0.875000000000004
40
0.906250000000003
40
0.906250000000003
40
0.937500000000002
40
0.937500000000002
40
0.968750000000001
40
0.968750000000001
40
1
40
1
40
1
40
1
41
1
10
10
20
-4.21275105436615
30
0
41
1
10
9.58934435669994
20
-4.27018007368119
30
0
41
1
10
9.18382757257822
20
-4.3451819205103
30
0
41
1
10
8.58353053653886
20
-4.48445813454043
30
0
41
1
10
8.38476286201575
20
-4.53534804676545
30
0
41
1
10
7.98996673757898
20
-4.64618719288663
30
0
41
1
10
7.7939378586222
20
-4.70613527660984
30
0
41
1
10
7.50203167055662
20
-4.80300673318268
30
0
41
1
10
7.40508610364262
20
-4.83645615370955
30
0
41
1
10
7.21192629973461
20
-4.90570948448394
30
0
41
1
10
7.11568031986229
20
-4.94152559402534
30
0
41
1
10
6.82826856867237
20
-5.05249837132646
30
0
41
1
10
6.63993421593989
20
-5.13059049478457
30
0
41
1
10
6.27005645514947
20
-5.29485985666159
30
0
41
1
10
6.08851126403789
20
-5.38103594956598
30
0
41
1
10
5.73261447731284
20
-5.5614507582408
30
0
41
1
10
5.55825972376476
20
-5.65568744569077
30
0
41
1
10
5.30259865185263
20
-5.80319249049126
30
0
41
1
10
5.2183588915008
20
-5.85338726678296
30
0
41
1
10
5.09355403261074
20
-5.93024841703246
30
0
41
1
10
5.05221173603385
20
-5.95613042750404
30
0
41
1
10
4.97006239312958
20
-6.00842434771141
30
0
41
1
10
4.92926725063197
20
-6.03482999724386
30
0
41
1
10
4.72762970698656
20
-6.16755957266537
30
0
41
1
10
4.57301284723198
20
-6.27646538941949
30
0
41
1
10
4.27834755868943
20
-6.49933207362741
30
0
41
1
10
4.13828587664486
20
-6.61329133416385
30
0
41
1
10
3.94058736301267
20
-6.7878400667058
30
0
41
1
10
3.87676078643173
20
-6.84662590728527
30
0
41
1
10
3.79979777711685
20
-6.92085556767316
30
0
41
1
10
3.78453342871319
20
-6.93575192040694
30
0
41
1
10
3.75438811893167
20
-6.96552587055919
30
0
41
1
10
3.70972735365589
20
-7.01017498970739
30
0
41
1
10
3.66675214225472
20
-7.05477949785089
30
0
41
1
10
3.52732078091373
20
-7.20332115524005
30
0
41
1
10
3.42793163631441
20
-7.3217089183407
30
0
41
1
10
3.29921845136738
20
-7.49781615923655
30
0
41
1
10
3.2597216539707
20
-7.55627239364443
30
0
41
1
10
3.20600429493652
20
-7.64347843142878
30
0
41
1
10
3.18898893453812
20
-7.67253145231706
30
0
41
1
10
3.15719934640728
20
-7.72987568630464
30
0
41
1
10
3.14238752342948
20
-7.75822152516588
30
0
41
1
10
3.07374370703309
20
-7.89829088021068
30
0
41
1
10
3.03608437870724
20
-8.00504446365457
30
0
41
1
10
3.00634822787504
20
-8.15657237743568
30
0
41
1
10
3.00090932485162
20
-8.20564608785185
30
0
41
1
10
2.99991166653948
20
-8.26510822397657
30
0
41
1
10
3.00000252681792
20
-8.27690659398772
30
0
41
1
10
3.00077168909266
20
-8.30031284097515
30
0
41
1
10
3.00145172931102
20
-8.31193817237886
30
0
41
1
10
3.00436974177268
20
-8.34637583660282
30
0
41
1
10
3.00747957484225
20
-8.36873887665425
30
0
41
1
10
3.02869021498509
20
-8.47765961832741
30
0
41
1
10
3.06369711242036
20
-8.55556180720484
30
0
41
1
10
3.128296461904
20
-8.64240728424494
30
0
41
1
10
3.14226298448637
20
-8.65924813030153
30
0
41
1
10
3.1722636213882
20
-8.69189261543659
30
0
41
1
10
3.18831517434708
20
-8.70771173651488
30
0
41
1
10
3.23942951823383
20
-8.75354005555386
30
0
41
1
10
3.27709123454946
20
-8.78161921297934
30
0
41
1
10
3.39985143761231
20
-8.85921519370584
30
0
41
1
10
3.49467928748049
20
-8.90212287777487
30
0
41
1
10
3.6536443043112
20
-8.9555526366091
30
0
41
1
10
3.7094330957284
20
-8.97153131843697
30
0
41
1
10
3.79706533368398
20
-8.99297375354865
30
0
41
1
10
3.8269641171882
20
-8.99970593248005
30
0
41
1
10
3.88791245713617
20
-9.01233387010092
30
0
41
1
10
3.91887586802093
20
-9.01821306795452
30
0
41
1
10
4.07600973955618
20
-9.04557483316134
30
0
41
1
10
4.20909056893805
20
-9.06099844235473
30
0
41
1
10
4.48742860868137
20
-9.08169003881346
30
0
41
1
10
4.6327005247995
20
-9.08694345115831
30
0
41
1
10
4.93361951952568
20
-9.08920567012373
30
0
41
1
10
5.08927410413554
20
-9.08620704802473
30
0
41
1
10
5.28945348414891
20
-9.07818619714266
30
0
41
1
10
5.32980209824578
20
-9.07636563262903
30
0
41
1
10
5.41078289449007
20
-9.07232763853199
30
0
41
1
10
5.53274442613366
20
-9.06567329342175
30
0
41
1
10
5.65610540984474
20
-9.05733185070901
30
0
41
1
10
5.90452439859598
20
-9.03863709868475
30
0
41
1
10
6.07239486085675
20
-9.02350126667383
30
0
41
1
10
6.41189798958305
20
-8.98886082861503
30
0
41
1
10
6.58353230972952
20
-8.96935283323373
30
0
41
1
10
6.92995263669127
20
-8.92665954085456
30
0
41
1
10
7.10473940317266
20
-8.90347206885897
30
0
41
1
10
7.45695660861415
20
-8.85391727483341
30
0
41
1
10
7.63438726597235
20
-8.82754837829191
30
0
41
1
10
7.99147327198423
20
-8.77198834898553
30
0
41
1
10
8.17112850840422
20
-8.74279591864303
30
0
41
1
10
8.53233289122056
20
-8.68184858614657
30
0
41
1
10
8.71388175528801
20
-8.65009249490436
30
0
41
1
10
9.07863734030644
20
-8.58421650289574
30
0
41
1
10
9.26184375322521
20
-8.55009545361975
30
0
41
1
10
9.62978252331388
20
-8.47966198194291
30
0
41
1
10
9.8145146762904
20
-8.44334845779042
30
0
41
1
10
10
20
-8.4060292707324
30
0
0
SPLINE
5
D0
100
AcDbEntity
8
1
62
256
6
ByLayer
370
18
48
1
60
0
100
AcDbSpline
70
4
71
3
72
14
73
10
40
0
40
0
40
0
40
0
40
0.25
40
0.25
40
0.5
40
0.5
40
0.75
40
0.75
40
1
40
1
40
1
40
1
41
1
10
12.8171581984049
20
-8.03751437852108
30
0
41
1
10
12.5782629644974
20
-8.07032803966783
30
0
41
1
10
12.3406471740751
20
-8.10313924700606
30
0
41
1
10
11.8675262290649
20
-8.16786411087543
30
0
41
1
10
11.6320197447941
20
-8.19977786769198
30
0
41
1
10
11.1627999226691
20
-8.26201155727486
30
0
41
1
10
10.9290856936923
20
-8.29233280300804
30
0
41
1
10
10.4633010508561
20
-8.3508626064783
30
0
41
1
10
10.2312303520229
20
-8.37907355374514
30
0
41
1
10
10
20
-8.4060292707324
30
0
0
SPLINE
5
D1
100
AcDbEntity
8
1
62
256
6
ByLayer
370
18
48
1
60
0
100
AcDbSpline
70
4
71
4
72
10
73
5
40
0
40
0
40
0
40
0
40
0
40
1
40
1
40
1
40
1
40
1
41
0.99991138146241
10
13.6765862860538
20
-4.35948780930906
30
0
41
0.999163368515945
10
13.3917024248223
20
-5.07600875622227
30
0
41
0.994550249504478
10
13.1280899786808
20
-5.98049884721881
30
0
41
0.994786021709244
10
12.9337249521937
20
-7.00913129730571
30
0
41
0.996558128848092
10
12.8171581984049
20
-8.03751437852108
30
0
0
SPLINE
5
D2
100
AcDbEntity
8
1
62
256
6
ByLayer
370
18
48
1
60
0
100
AcDbSpline
70
4
71
3
72
23
73
19
40
0
40
0
40
0
40
0
40
0.124999999999999
40
0.124999999999999
40
0.249999999999997
40
0.249999999999997
40
0.374999999999995
40
0.374999999999995
40
0.499999999999994
40
0.499999999999994
40
0.562499999999995
40
0.593749999999995
40
0.593749999999995
40
0.624999999999995
40
0.624999999999995
40
0.749999999999997
40
0.749999999999997
40
1
40
1
40
1
40
1
41
1
10
10
20
-4.21275105436615
30
0
41
1
10
10.2876914456002
20
-4.18603773064518
30
0
41
1
10
10.5746488480763
20
-4.16920422965796
30
0
41
1
10
11.1472103821563
20
-4.15395674446856
30
0
41
1
10
11.432813952695
20
-4.15554838844216
30
0
41
1
10
12.002760546984
20
-4.17586957072007
30
0
41
1
10
12.2871031427132
20
-4.19460339484442
30
0
41
1
10
12.85461449114
20
-4.24782409490234
30
0
41
1
10
13.1377829091511
20
-4.28231399203943
30
0
41
1
10
13.5617241827306
20
-4.3446650674141
30
0
41
1
10
13.7734920908644
20
-4.37849173209199
30
0
41
1
10
13.9849702795514
20
-4.41604077693384
30
0
41
1
10
14.1258930699457
20
-4.4418703060031
30
0
41
1
10
14.1963348257561
20
-4.45518626735694
30
0
41
1
10
14.5477146514924
20
-4.52354525823733
30
0
41
1
10
14.8267049323674
20
-4.58402237500641
30
0
41
1
10
15.6582793169226
20
-4.77928967760062
30
0
41
1
10
16.2054888462583
20
-4.92781121395615
30
0
41
1
10
16.7479682766107
20
-5.0857615488494
30
0
0
SPLINE
5
D3
100
AcDbEntity
8
1
62
256
6
ByLayer
370
13
48
1
60
0
100
AcDbSpline
70
4
71
3
72
110
73
106
40
0
40
0
40
0
40
0
40
0.0312500000000008
40
0.0312500000000008
40
0.0625000000000016
40
0.0625000000000016
40
0.0937500000000024
40
0.0937500000000024
40
0.109375000000003
40
0.109375000000003
40
0.125000000000003
40
0.125000000000003
40
0.140625000000004
40
0.140625000000004
40
0.156250000000004
40
0.156250000000004
40
0.171875000000005
40
0.171875000000005
40
0.187500000000005
40
0.187500000000005
40
0.218750000000006
40
0.218750000000006
40
0.250000000000007
40
0.250000000000007
40
0.257812500000007
40
0.257812500000007
40
0.261718750000007
40
0.261718750000007
40
0.265625000000007
40
0.265625000000007
40
0.281250000000006
40
0.281250000000006
40
0.312500000000005
40
0.312500000000005
40
0.343750000000004
40
0.343750000000004
40
0.359375000000004
40
0.359375000000004
40
0.375000000000003
40
0.375000000000003
40
0.390625000000003
40
0.390625000000003
40
0.406250000000002
40
0.406250000000002
40
0.421875000000002
40
0.421875000000002
40
0.437500000000002
40
0.437500000000002
40
0.468750000000001
40
0.468750000000001
40
0.5
40
0.5
40
0.515625
40
0.515625
40
0.5234375
40
0.5234375
40
0.53125
40
0.53125
40
0.5625
40
0.5625
40
0.59375
40
0.59375
40
0.625
40
0.625
40
0.640625
40
0.640625
40
0.656250000000001
40
0.656250000000001
40
0.671875000000001
40
0.671875000000001
40
0.687500000000001
40
0.687500000000001
40
0.703125000000001
40
0.703125000000001
40
0.718750000000001
40
0.718750000000001
40
0.750000000000002
40
0.750000000000002
40
0.781250000000003
40
0.781250000000003
40
0.789062500000003
40
0.789062500000003
40
0.792968750000003
40
0.792968750000003
40
0.796875000000003
40
0.796875000000003
40
0.812500000000002
40
0.812500000000002
40
0.843750000000002
40
0.843750000000002
40
0.875000000000002
40
0.875000000000002
40
0.890625000000002
40
0.890625000000002
40
0.906250000000001
40
0.906250000000001
40
0.921875000000001
40
0.921875000000001
40
0.937500000000001
40
0.937500000000001
40
0.953125
40
0.953125
40
0.96875
40
0.96875
40
1
40
1
40
1
40
1
41
1
10
116.095114745256
20
9.12799999999999
30
0
41
1
10
116.189724796884
20
9.12800000000001
30
0
41
1
10
116.284334848513
20
9.08502902930249
30
0
41
1
10
116.473554951771
20
8.89772597709072
30
0
41
1
10
116.5681650034
20
8.75325177494173
30
0
41
1
10
116.757385106657
20
8.35506733623816
30
0
41
1
10
116.851995158286
20
8.10126693962727
30
0
41
1
10
116.993910235729
20
7.64138669406935
30
0
41
1
10
117.041215261543
20
7.4749958505619
30
0
41
1
10
117.135825313172
20
7.11769580992009
30
0
41
1
10
117.183130338987
20
6.92678903577792
30
0
41
1
10
117.277740390615
20
6.52289550554315
30
0
41
1
10
117.32504541643
20
6.30991296654852
30
0
41
1
10
117.419655468058
20
5.86496674702241
30
0
41
1
10
117.466960493873
20
5.63300868163799
30
0
41
1
10
117.561570545502
20
5.15372147161682
30
0
41
1
10
117.608875571316
20
4.9063987612505
30
0
41
1
10
117.703485622945
20
4.40032040976325
30
0
41
1
10
117.750790648759
20
4.14157136049087
30
0
41
1
10
117.892705726202
20
3.35427716612048
30
0
41
1
10
117.987315777831
20
2.81482011567741
30
0
41
1
10
118.176535881089
20
1.73779710590665
30
0
41
1
10
118.271145932718
20
1.20035331256446
30
0
41
1
10
118.389408497253
20
0.545724527624515
30
0
41
1
10
118.413061010161
20
0.415639195787378
30
0
41
1
10
118.448539779521
20
0.222011224341656
30
0
41
1
10
118.460366035975
20
0.157718317375668
30
0
41
1
10
118.484018548882
20
0.0296688307962825
30
0
41
1
10
118.495844805336
20
-0.0339558538871643
30
0
41
1
10
118.554976087604
20
-0.354139521178837
30
0
41
1
10
118.602281113418
20
-0.614591054806255
30
0
41
1
10
118.744196190861
20
-1.40502548488195
30
0
41
1
10
118.83880624249
20
-1.9443056822895
30
0
41
1
10
119.028026345748
20
-3.02124923075985
30
0
41
1
10
119.122636397376
20
-3.558779383717
30
0
41
1
10
119.26455147482
20
-4.34002975590576
30
0
41
1
10
119.311856500634
20
-4.59624357229853
30
0
41
1
10
119.406466552263
20
-5.0962246084305
30
0
41
1
10
119.453771578077
20
-5.33998521340803
30
0
41
1
10
119.548381629706
20
-5.81118628386585
30
0
41
1
10
119.59568665552
20
-6.03862046283572
30
0
41
1
10
119.690296707149
20
-6.47367094378694
30
0
41
1
10
119.737601732963
20
-6.6812819386364
30
0
41
1
10
119.832211784592
20
-7.07374051418176
30
0
41
1
10
119.879516810407
20
-7.25858430773371
30
0
41
1
10
119.974126862035
20
-7.60325351284629
30
0
41
1
10
120.02143188785
20
-7.76307699458766
30
0
41
1
10
120.163346965293
20
-8.20280353517015
30
0
41
1
10
120.257957016922
20
-8.44257352237526
30
0
41
1
10
120.447177120179
20
-8.81310177363457
30
0
41
1
10
120.541787171808
20
-8.94396031227487
30
0
41
1
10
120.683702249251
20
-9.06525736277638
30
0
41
1
10
120.731007275066
20
-9.09326830039706
30
0
41
1
10
120.801964813787
20
-9.11803797918716
30
0
41
1
10
120.825617326694
20
-9.12342321778166
30
0
41
1
10
120.872922352509
20
-9.12871374060819
30
0
41
1
10
120.896574865416
20
-9.12865469731659
30
0
41
1
10
121.014837429952
20
-9.11481500722402
30
0
41
1
10
121.109447481581
20
-9.05962572218482
30
0
41
1
10
121.298667584838
20
-8.8463524495094
30
0
41
1
10
121.393277636467
20
-8.68812948337654
30
0
41
1
10
121.582497739725
20
-8.26221446021862
30
0
41
1
10
121.677107791353
20
-7.99444329915639
30
0
41
1
10
121.819022868796
20
-7.51465987497943
30
0
41
1
10
121.866327894611
20
-7.34181160538409
30
0
41
1
10
121.96093794624
20
-6.97215060592043
30
0
41
1
10
122.008242972054
20
-6.77534078232253
30
0
41
1
10
122.102853023683
20
-6.36037556020457
30
0
41
1
10
122.150158049497
20
-6.14222478253433
30
0
41
1
10
122.244768101126
20
-5.68782300815136
30
0
41
1
10
122.29207312694
20
-5.45157789625205
30
0
41
1
10
122.386683178569
20
-4.96469973612417
30
0
41
1
10
122.433988204384
20
-4.71407322611799
30
0
41
1
10
122.528598256013
20
-4.20242264203512
30
0
41
1
10
122.575903281827
20
-3.94140509510004
30
0
41
1
10
122.71781835927
20
-3.14886094003927
30
0
41
1
10
122.812428410899
20
-2.60799651517999
30
0
41
1
10
123.001648514156
20
-1.53183341108246
30
0
41
1
10
123.096258565785
20
-0.996645612030534
30
0
41
1
10
123.214521130321
20
-0.346521589889363
30
0
41
1
10
123.238173643228
20
-0.217420836829433
30
0
41
1
10
123.273652412589
20
-0.0253826312548995
30
0
41
1
10
123.285478669043
20
0.0382436993460544
30
0
41
1
10
123.30913118195
20
0.166341110694759
30
0
41
1
10
123.320957438403
20
0.230657177856301
30
0
41
1
10
123.380088720671
20
0.553482023388
30
0
41
1
10
123.427393746486
20
0.815744480240312
30
0
41
1
10
123.569308823929
20
1.61050742361292
30
0
41
1
10
123.663918875558
20
2.15118858998488
30
0
41
1
10
123.853138978815
20
3.22708966624771
30
0
41
1
10
123.947749030444
20
3.76216570415579
30
0
41
1
10
124.089664107887
20
4.53657640828666
30
0
41
1
10
124.136969133701
20
4.78998916803994
30
0
41
1
10
124.23157918533
20
5.28335297802235
30
0
41
1
10
124.278884211145
20
5.5232974335662
30
0
41
1
10
124.373494262773
20
5.98592892872085
30
0
41
1
10
124.420799288588
20
6.20860987270788
30
0
41
1
10
124.515409340217
20
6.63334218933852
30
0
41
1
10
124.562714366031
20
6.83538859867173
30
0
41
1
10
124.65732441766
20
7.2160715178909
30
0
41
1
10
124.704629443474
20
7.39470469288617
30
0
41
1
10
124.799239495103
20
7.7264988744609
30
0
41
1
10
124.846544520917
20
7.87965844987005
30
0
41
1
10
124.988459598361
20
8.29902110016945
30
0
41
1
10
125.083069649989
20
8.52472805085006
30
0
41
1
10
125.177679701618
20
8.69622510212062
30
0
0
SPLINE
5
D4
100
AcDbEntity
8
1
62
256
6
ByLayer
370
13
48
1
60
0
100
AcDbSpline
70
4
71
3
72
118
73
114
40
0
40
0
40
0
40
0
40
0.0312499999999998
40
0.0312499999999998
40
0.0468749999999997
40
0.0468749999999997
40
0.0624999999999996
40
0.0624999999999996
40
0.0781249999999995
40
0.0781249999999995
40
0.0937499999999994
40
0.0937499999999994
40
0.109374999999999
40
0.109374999999999
40
0.124999999999999
40
0.124999999999999
40
0.140624999999999
40
0.140624999999999
40
0.156249999999999
40
0.156249999999999
40
0.171874999999999
40
0.171874999999999
40
0.187499999999999
40
0.187499999999999
40
0.203124999999999
40
0.203124999999999
40
0.218749999999999
40
0.218749999999999
40
0.249999999999998
40
0.249999999999998
40
0.281249999999998
40
0.281249999999998
40
0.296874999999998
40
0.296874999999998
40
0.312499999999998
40
0.312499999999998
40
0.328124999999998
40
0.328124999999998
40
0.343749999999998
40
0.343749999999998
40
0.359374999999998
40
0.359374999999998
40
0.374999999999998
40
0.374999999999998
40
0.390624999999998
40
0.390624999999998
40
0.406249999999998
40
0.406249999999998
40
0.421874999999998
40
0.421874999999998
40
0.437499999999998
40
0.437499999999998
40
0.453124999999998
40
0.453124999999998
40
0.468749999999998
40
0.468749999999998
40
0.499999999999998
40
0.499999999999998
40
0.531249999999998
40
0.531249999999998
40
0.546874999999998
40
0.546874999999998
40
0.562499999999998
40
0.562499999999998
40
0.578124999999998
40
0.578124999999998
40
0.593749999999998
40
0.593749999999998
40
0.609374999999998
40
0.609374999999998
40
0.624999999999998
40
0.624999999999998
40
0.640624999999998
40
0.640624999999998
40
0.656249999999998
40
0.656249999999998
40
0.671874999999998
40
0.671874999999998
40
0.687499999999998
40
0.687499999999998
40
0.703124999999998
40
0.703124999999998
40
0.718749999999998
40
0.718749999999998
40
0.749999999999998
40
0.749999999999998
40
0.781249999999999
40
0.781249999999999
40
0.796874999999999
40
0.796874999999999
40
0.812499999999999
40
0.812499999999999
40
0.828124999999999
40
0.828124999999999
40
0.843749999999999
40
0.843749999999999
40
0.859374999999999
40
0.859374999999999
40
0.874999999999999
40
0.874999999999999
40
0.890624999999999
40
0.890624999999999
40
0.90625
40
0.90625
40
0.921875
40
0.921875
40
0.9375
40
0.9375
40
0.953125
40
0.953125
40
0.96875
40
0.96875
40
1
40
1
40
1
40
1
41
1
10
115.600000478884
20
9.12799999999999
30
0
41
1
10
115.699767970787
20
9.12799999999999
30
0
41
1
10
115.799535462691
20
9.08018437092827
30
0
41
1
10
115.949186700546
20
8.92332494242453
30
0
41
1
10
115.999070446498
20
8.8569006514652
30
0
41
1
10
116.098837938401
20
8.69439880232309
30
0
41
1
10
116.148721684353
20
8.59831628222986
30
0
41
1
10
116.248489176256
20
8.37589907541621
30
0
41
1
10
116.298372922208
20
8.2495610186327
30
0
41
1
10
116.398140414112
20
7.96695202200803
30
0
41
1
10
116.448024160064
20
7.81067993118961
30
0
41
1
10
116.547791651967
20
7.46951042867065
30
0
41
1
10
116.597675397919
20
7.28461447079258
30
0
41
1
10
116.697442889822
20
6.88848973750476
30
0
41
1
10
116.747326635774
20
6.67726505409968
30
0
41
1
10
116.847094127677
20
6.23167687794776
30
0
41
1
10
116.896977873629
20
5.9973197557288
30
0
41
1
10
116.996745365533
20
5.50940349850251
30
0
41
1
10
117.046629111484
20
5.25585230932253
30
0
41
1
10
117.146396603388
20
4.73400973124052
30
0
41
1
10
117.19628034934
20
4.46572694743003
30
0
41
1
10
117.296047841243
20
3.91915604524237
30
0
41
1
10
117.345931587195
20
3.64087623808504
30
0
41
1
10
117.445699079098
20
3.07906179094252
30
0
41
1
10
117.49558282505
20
2.79553434893495
30
0
41
1
10
117.595350316954
20
2.22775512845161
30
0
41
1
10
117.645234062905
20
1.94350887113947
30
0
41
1
10
117.79488530076
20
1.09586026503732
30
0
41
1
10
117.894652792664
20
0.537873192529929
30
0
41
1
10
118.094187776471
20
-0.53787190163581
30
0
41
1
10
118.193955268374
20
-1.09585891952492
30
0
41
1
10
118.34360650623
20
-1.94350750953899
30
0
41
1
10
118.393490252181
20
-2.22775376457702
30
0
41
1
10
118.493257744085
20
-2.79553298746924
30
0
41
1
10
118.543141490037
20
-3.07906043416276
30
0
41
1
10
118.64290898194
20
-3.64087489815537
30
0
41
1
10
118.692792727892
20
-3.91915471747919
30
0
41
1
10
118.792560219795
20
-4.46572565165278
30
0
41
1
10
118.842443965747
20
-4.73400845528391
30
0
41
1
10
118.942211457651
20
-5.25585108043461
30
0
41
1
10
118.992095203602
20
-5.50940229686233
30
0
41
1
10
119.091862695506
20
-5.99731861537077
30
0
41
1
10
119.141746441457
20
-6.23167577162229
30
0
41
1
10
119.241513933361
20
-6.67726402160167
30
0
41
1
10
119.291397679313
20
-6.88848874479848
30
0
41
1
10
119.391165171216
20
-7.28461356209988
30
0
41
1
10
119.441048917168
20
-7.46950956419579
30
0
41
1
10
119.540816409071
20
-7.81067915805062
30
0
41
1
10
119.590700155023
20
-7.96695129598271
30
0
41
1
10
119.690467646927
20
-8.2495603881346
30
0
41
1
10
119.740351392878
20
-8.37589849332767
30
0
41
1
10
119.840118884782
20
-8.59831579671555
30
0
41
1
10
119.890002630734
20
-8.69439836497034
30
0
41
1
10
119.989770122637
20
-8.8569003088088
30
0
41
1
10
120.039653868589
20
-8.92332464630096
30
0
41
1
10
120.189305106444
20
-9.0801842102498
30
0
41
1
10
120.289072598348
20
-9.12799992393323
30
0
41
1
10
120.488607582155
20
-9.12800007606657
30
0
41
1
10
120.588375074058
20
-9.08018453160653
30
0
41
1
10
120.738026311913
20
-8.92332523854788
30
0
41
1
10
120.787910057865
20
-8.85690099412133
30
0
41
1
10
120.887677549768
20
-8.69439923967562
30
0
41
1
10
120.93756129572
20
-8.59831676774394
30
0
41
1
10
121.037328787624
20
-8.37589965750453
30
0
41
1
10
121.087212533575
20
-8.24956164913058
30
0
41
1
10
121.186980025479
20
-7.96695274803312
30
0
41
1
10
121.236863771431
20
-7.81068070432843
30
0
41
1
10
121.336631263334
20
-7.46951129314527
30
0
41
1
10
121.386515009286
20
-7.28461537948505
30
0
41
1
10
121.486282501189
20
-6.88849073021083
30
0
41
1
10
121.536166247141
20
-6.67726608659751
30
0
41
1
10
121.635933739045
20
-6.23167798427306
30
0
41
1
10
121.685817484996
20
-5.9973208960867
30
0
41
1
10
121.7855849769
20
-5.50940470014257
30
0
41
1
10
121.835468722852
20
-5.25585353821035
30
0
41
1
10
121.935236214755
20
-4.73401100719701
30
0
41
1
10
121.985119960707
20
-4.4657282432072
30
0
41
1
10
122.08488745261
20
-3.91915737300553
30
0
41
1
10
122.134771198562
20
-3.64087757801465
30
0
41
1
10
122.234538690465
20
-3.07906314772228
30
0
41
1
10
122.284422436417
20
-2.79553571040066
30
0
41
1
10
122.384189928321
20
-2.22775649232619
30
0
41
1
10
122.434073674272
20
-1.94351023273995
30
0
41
1
10
122.583724912128
20
-1.09586161054977
30
0
41
1
10
122.683492404031
20
-0.537874514931929
30
0
41
1
10
122.883027387838
20
0.537870642249459
30
0
41
1
10
122.982794879741
20
1.09585757401257
30
0
41
1
10
123.132446117597
20
1.94350614793853
30
0
41
1
10
123.182329863549
20
2.22775240070243
30
0
41
1
10
123.282097355452
20
2.79553162600348
30
0
41
1
10
123.331981101404
20
3.07905907738294
30
0
41
1
10
123.431748593307
20
3.64087355822568
30
0
41
1
10
123.481632339259
20
3.91915338971592
30
0
41
1
10
123.581399831163
20
4.46572435587541
30
0
41
1
10
123.631283577114
20
4.73400717932719
30
0
41
1
10
123.731051069018
20
5.25584985154657
30
0
41
1
10
123.780934814969
20
5.50940109522202
30
0
41
1
10
123.880702306873
20
5.99731747501258
30
0
41
1
10
123.930586052824
20
6.23167466529668
30
0
41
1
10
124.030353544728
20
6.6772629891035
30
0
41
1
10
124.08023729068
20
6.888487752092
30
0
41
1
10
124.180004782583
20
7.28461265340701
30
0
41
1
10
124.229888528535
20
7.46950869972073
30
0
41
1
10
124.329656020439
20
7.81067838491137
30
0
41
1
10
124.37953976639
20
7.96695056995713
30
0
41
1
10
124.479307258294
20
8.24955975763623
30
0
41
1
10
124.529191004246
20
8.37589791123889
30
0
41
1
10
124.628958496149
20
8.59831531120102
30
0
41
1
10
124.678842242101
20
8.69439792761739
30
0
41
1
10
124.778609734004
20
8.85689996615221
30
0
41
1
10
124.828493479956
20
8.92332435017715
30
0
41
1
10
124.978144717811
20
9.08018404957113
30
0
41
1
10
125.077912209715
20
9.12799984786628
30
0
41
1
10
125.177679701618
20
9.12799999999964
30
0
0
SPLINE
5
D5
100
AcDbEntity
8
1
62
256
6
ByLayer
370
13
48
1
60
0
100
AcDbSpline
70
4
71
3
72
109
73
105
40
0
40
0
40
0
40
0
40
0.0312500000000005
40
0.0312500000000005
40
0.0468750000000006
40
0.0468750000000006
40
0.0625000000000007
40
0.0625000000000007
40
0.0781250000000008
40
0.0781250000000008
40
0.0937500000000009
40
0.0937500000000009
40
0.109375000000001
40
0.109375000000001
40
0.125000000000001
40
0.125000000000001
40
0.156250000000001
40
0.156250000000001
40
0.187500000000001
40
0.187500000000001
40
0.203125000000001
40
0.203125000000001
40
0.207031250000001
40
0.207031250000001
40
0.210937500000001
40
0.210937500000001
40
0.218750000000001
40
0.218750000000001
40
0.250000000000001
40
0.250000000000001
40
0.281250000000001
40
0.281250000000001
40
0.296875
40
0.296875
40
0.3125
40
0.3125
40
0.328125
40
0.328125
40
0.343749999999999
40
0.343749999999999
40
0.359374999999999
40
0.359374999999999
40
0.374999999999999
40
0.374999999999999
40
0.406249999999998
40
0.406249999999998
40
0.437499999999997
40
0.437499999999997
40
0.468749999999997
40
0.468749999999997
40
0.476562499999997
40
0.476562499999997
40
0.484374999999997
40
0.484374999999997
40
0.499999999999997
40
0.499999999999997
40
0.531249999999997
40
0.531249999999997
40
0.562499999999998
40
0.562499999999998
40
0.578124999999998
40
0.578124999999998
40
0.593749999999999
40
0.593749999999999
40
0.609374999999999
40
0.609374999999999
40
0.624999999999999
40
0.624999999999999
40
0.640625
40
0.640625
40
0.65625
40
0.65625
40
0.687500000000001
40
0.687500000000001
40
0.718750000000002
40
0.718750000000002
40
0.734375000000002
40
0.734375000000002
40
0.738281250000002
40
0.738281250000002
40
0.742187500000002
40
0.750000000000003
40
0.750000000000003
40
0.781250000000002
40
0.781250000000002
40
0.812500000000002
40
0.812500000000002
40
0.828125000000002
40
0.828125000000002
40
0.843750000000001
40
0.843750000000001
40
0.859375000000001
40
0.859375000000001
40
0.875000000000001
40
0.875000000000001
40
0.890625000000001
40
0.890625000000001
40
0.906250000000001
40
0.906250000000001
40
0.9375
40
0.9375
40
0.96875
40
0.96875
40
1
40
1
40
1
40
1
41
1
10
115.6
20
8.69622683823854
30
0
41
1
10
115.694610061605
20
8.52473013138746
30
0
41
1
10
115.789220123211
20
8.29902352260572
30
0
41
1
10
115.931135215619
20
7.87966135132521
30
0
41
1
10
115.978440246422
20
7.72650192992688
30
0
41
1
10
116.073050308028
20
7.39470804024216
30
0
41
1
10
116.12035533883
20
7.21607500311433
30
0
41
1
10
116.214965400436
20
6.83539233927456
30
0
41
1
10
116.262270431239
20
6.63334604744364
30
0
41
1
10
116.356880492844
20
6.20861394217536
30
0
41
1
10
116.404185523647
20
5.98593309204225
30
0
41
1
10
116.498795585252
20
5.52330175884603
30
0
41
1
10
116.546100616055
20
5.28335737140489
30
0
41
1
10
116.640710677661
20
4.78999367107409
30
0
41
1
10
116.688015708463
20
4.53658095287221
30
0
41
1
10
116.829930800872
20
3.76217033429776
30
0
41
1
10
116.924540862477
20
3.22709430084959
30
0
41
1
10
117.113760985689
20
2.15119314524819
30
0
41
1
10
117.208371047294
20
1.6105118953864
30
0
41
1
10
117.350286139702
20
0.815748781436952
30
0
41
1
10
117.397591170505
20
0.553486260218563
30
0
41
1
10
117.456722459009
20
0.230661327119122
30
0
41
1
10
117.468548716709
20
0.166345242088369
30
0
41
1
10
117.492201232111
20
0.0382477943457786
30
0
41
1
10
117.504027489811
20
-0.0253785453072339
30
0
41
1
10
117.539506262913
20
-0.217416736819047
30
0
41
1
10
117.563158778315
20
-0.346517482254114
30
0
41
1
10
117.681421355322
20
-0.996641475653291
30
0
41
1
10
117.776031416927
20
-1.53182928204413
30
0
41
1
10
117.965251540138
20
-2.6079924734598
30
0
41
1
10
118.059861601744
20
-3.14885697846526
30
0
41
1
10
118.201776694152
20
-3.94140130922673
30
0
41
1
10
118.249081724955
20
-4.2024189238721
30
0
41
1
10
118.34369178656
20
-4.71406966046325
30
0
41
1
10
118.390996817363
20
-4.96469625526555
30
0
41
1
10
118.485606878968
20
-5.45157459997668
30
0
41
1
10
118.532911909771
20
-5.68781981165824
30
0
41
1
10
118.627521971377
20
-6.14222179770221
30
0
41
1
10
118.674827002179
20
-6.36037268724374
30
0
41
1
10
118.769437063785
20
-6.77533814169763
30
0
41
1
10
118.816742094588
20
-6.97214808575109
30
0
41
1
10
118.911352156193
20
-7.34180933086213
30
0
41
1
10
118.958657186996
20
-7.51465772563975
30
0
41
1
10
119.100572279404
20
-7.99444152658151
30
0
41
1
10
119.19518234101
20
-8.26221294019251
30
0
41
1
10
119.384402464221
20
-8.68812844334451
30
0
41
1
10
119.479012525827
20
-8.84635163678337
30
0
41
1
10
119.668232649038
20
-9.05962532045319
30
0
41
1
10
119.762842710643
20
-9.11481478919939
30
0
41
1
10
119.88110528765
20
-9.12865467739215
30
0
41
1
10
119.904757803051
20
-9.12871375824795
30
0
41
1
10
119.952062833854
20
-9.12342331227742
30
0
41
1
10
119.975715349255
20
-9.11803811249203
30
0
41
1
10
120.04667289546
20
-9.09326855096089
30
0
41
1
10
120.093977926262
20
-9.06525769263149
30
0
41
1
10
120.235893018671
20
-8.94396088049237
30
0
41
1
10
120.330503080276
20
-8.81310250148252
30
0
41
1
10
120.519723203487
20
-8.44257455279677
30
0
41
1
10
120.614333265093
20
-8.20280470836337
30
0
41
1
10
120.756248357501
20
-7.76307835551873
30
0
41
1
10
120.803553388304
20
-7.60325493196959
30
0
41
1
10
120.89816344991
20
-7.25858583261987
30
0
41
1
10
120.945468480712
20
-7.07374208663407
30
0
41
1
10
121.040078542318
20
-6.68128359423329
30
0
41
1
10
121.08738357312
20
-6.47367263495948
30
0
41
1
10
121.181993634726
20
-6.03862221240948
30
0
41
1
10
121.229298665529
20
-5.81118805626454
30
0
41
1
10
121.323908727134
20
-5.33998701859889
30
0
41
1
10
121.371213757937
20
-5.09622642359017
30
0
41
1
10
121.465823819543
20
-4.59624539506925
30
0
41
1
10
121.513128850345
20
-4.34003157632213
30
0
41
1
10
121.655043942753
20
-3.55878118021741
30
0
41
1
10
121.749654004359
20
-3.02125098871937
30
0
41
1
10
121.93887412757
20
-1.94430733128169
30
0
41
1
10
122.033484189176
20
-1.40502706360738
30
0
41
1
10
122.175399281584
20
-0.614592515955962
30
0
41
1
10
122.222704312387
20
-0.354140941107232
30
0
41
1
10
122.28183560089
20
-0.0339572208575021
30
0
41
1
10
122.293661858591
20
0.0296674707834086
30
0
41
1
10
122.317314373992
20
0.15771696328963
30
0
41
1
10
122.352793147094
20
0.350595185221863
30
0
41
1
10
122.388271920196
20
0.545723194077567
30
0
41
1
10
122.506534497203
20
1.20035201973494
30
0
41
1
10
122.601144558809
20
1.73779585773767
30
0
41
1
10
122.79036468202
20
2.8148189788042
30
0
41
1
10
122.884974743625
20
3.35427609588277
30
0
41
1
10
123.026889836034
20
4.14157040122868
30
0
41
1
10
123.074194866836
20
4.40031948928942
30
0
41
1
10
123.168804928442
20
4.90639792062643
30
0
41
1
10
123.216109959245
20
5.15372067205087
30
0
41
1
10
123.31072002085
20
5.63300796496063
30
0
41
1
10
123.358025051653
20
5.8649660721716
30
0
41
1
10
123.452635113258
20
6.30991237455549
30
0
41
1
10
123.499940144061
20
6.52289495457731
30
0
41
1
10
123.594550205667
20
6.92678856455771
30
0
41
1
10
123.64185523647
20
7.11769537741472
30
0
41
1
10
123.736465298075
20
7.47499549183468
30
0
41
1
10
123.783770328878
20
7.64138637040276
30
0
41
1
10
123.925685421286
20
8.10126671405126
30
0
41
1
10
124.020295482892
20
8.35506716641879
30
0
41
1
10
124.209515606103
20
8.75325169282678
30
0
41
1
10
124.304125667708
20
8.897725926953
30
0
41
1
10
124.493345790919
20
9.08502902018617
30
0
41
1
10
124.587955852525
20
9.12799999999999
30
0
41
1
10
124.68256591413
20
9.12799999999999
30
0
0
SPLINE
5
D6
100
AcDbEntity
8
1
62
256
6
ByLayer
370
13
48
1
60
0
100
AcDbSpline
70
4
71
3
72
87
73
83
40
0
40
0
40
0
40
0
40
0.0312499999999993
40
0.0312499999999993
40
0.0624999999999986
40
0.0624999999999986
40
0.0937499999999979
40
0.0937499999999979
40
0.124999999999997
40
0.124999999999997
40
0.156249999999996
40
0.156249999999996
40
0.160156249999996
40
0.160156249999996
40
0.164062499999996
40
0.164062499999996
40
0.171874999999996
40
0.171874999999996
40
0.187499999999996
40
0.187499999999996
40
0.218749999999995
40
0.218749999999995
40
0.249999999999995
40
0.249999999999995
40
0.281249999999994
40
0.281249999999994
40
0.312499999999993
40
0.312499999999993
40
0.343749999999993
40
0.343749999999993
40
0.374999999999992
40
0.374999999999992
40
0.406249999999991
40
0.406249999999991
40
0.43749999999999
40
0.43749999999999
40
0.44140624999999
40
0.44140624999999
40
0.44531249999999
40
0.44531249999999
40
0.45312499999999
40
0.45312499999999
40
0.468749999999991
40
0.468749999999991
40
0.499999999999991
40
0.499999999999991
40
0.531249999999992
40
0.531249999999992
40
0.562499999999992
40
0.562499999999992
40
0.593749999999993
40
0.593749999999993
40
0.624999999999993
40
0.624999999999993
40
0.656249999999994
40
0.656249999999994
40
0.687499999999994
40
0.687499999999994
40
0.718749999999995
40
0.718749999999995
40
0.722656249999995
40
0.722656249999995
40
0.726562499999995
40
0.734374999999995
40
0.734374999999995
40
0.749999999999995
40
0.749999999999995
40
0.781249999999996
40
0.781249999999996
40
0.812499999999997
40
0.812499999999997
40
0.843749999999997
40
0.843749999999997
40
0.874999999999998
40
0.874999999999998
40
0.906249999999998
40
0.906249999999998
40
0.937499999999999
40
0.937499999999999
40
0.968749999999999
40
0.968749999999999
40
1
40
1
40
1
40
1
41
1
10
115.6
20
7.30832738901927
30
0
41
1
10
115.689452621331
20
6.9715409600627
30
0
41
1
10
115.778905242662
20
6.59058601363228
30
0
41
1
10
115.957810485323
20
5.75872307221749
30
0
41
1
10
116.047263106654
20
5.30794545464286
30
0
41
1
10
116.226168349316
20
4.36178264587542
30
0
41
1
10
116.315620970647
20
3.86655544981602
30
0
41
1
10
116.494526213308
20
2.8591623903643
30
0
41
1
10
116.583978834639
20
2.34712897906806
30
0
41
1
10
116.762884077301
20
1.3315622460228
30
0
41
1
10
116.852336698631
20
0.828103040663819
30
0
41
1
10
116.952970897629
20
0.277748882372606
30
0
41
1
10
116.964152475295
20
0.216817072540067
30
0
41
1
10
116.986515630628
20
0.0954224008100368
30
0
41
1
10
116.997697208294
20
0.035068809071845
30
0
41
1
10
117.031241941293
20
-0.145986086771956
30
0
41
1
10
117.053605096626
20
-0.267671631832769
30
0
41
1
10
117.120694562624
20
-0.635299742829403
30
0
41
1
10
117.165420873289
20
-0.883826506271504
30
0
41
1
10
117.299599805285
20
-1.63626098063966
30
0
41
1
10
117.389052426616
20
-2.14718630057615
30
0
41
1
10
117.567957669278
20
-3.16465841945447
30
0
41
1
10
117.657410290609
20
-3.67109768468555
30
0
41
1
10
117.83631553327
20
-4.65254659182204
30
0
41
1
10
117.925768154601
20
-5.1274042419912
30
0
41
1
10
118.104673397263
20
-6.01865638281981
30
0
41
1
10
118.194126018594
20
-6.43490076118388
30
0
41
1
10
118.373031261255
20
-7.18664137981079
30
0
41
1
10
118.462483882586
20
-7.52204248376756
30
0
41
1
10
118.641389125248
20
-8.09843487186899
30
0
41
1
10
118.730841746579
20
-8.33941583878052
30
0
41
1
10
118.90974698924
20
-8.72359225039284
30
0
41
1
10
118.999199610571
20
-8.86685365387382
30
0
41
1
10
119.178104853233
20
-9.06159845834449
30
0
41
1
10
119.267557474564
20
-9.11318784273402
30
0
41
1
10
119.368191673561
20
-9.12672029025441
30
0
41
1
10
119.379373251227
20
-9.12760873171152
30
0
41
1
10
119.40173640656
20
-9.12818415771306
30
0
41
1
10
119.412917984226
20
-9.12787522137864
30
0
41
1
10
119.446462717225
20
-9.12512745393781
30
0
41
1
10
119.468825872558
20
-9.12086207209205
30
0
41
1
10
119.535915338556
20
-9.10042879279388
30
0
41
1
10
119.580641649221
20
-9.07661417890617
30
0
41
1
10
119.714820581218
20
-8.9721933184795
30
0
41
1
10
119.804273202548
20
-8.85837446567174
30
0
41
1
10
119.98317844521
20
-8.53407834274708
30
0
41
1
10
120.072631066541
20
-8.32351817008475
30
0
41
1
10
120.251536309203
20
-7.80586763074092
30
0
41
1
10
120.340988930533
20
-7.49876130467362
30
0
41
1
10
120.519894173195
20
-6.79837226934788
30
0
41
1
10
120.609346794526
20
-6.40515985617324
30
0
41
1
10
120.788252037188
20
-5.55236508910474
30
0
41
1
10
120.877704658518
20
-5.09292094777041
30
0
41
1
10
121.05660990118
20
-4.13368513645648
30
0
41
1
10
121.146062522511
20
-3.63405073488477
30
0
41
1
10
121.324967765172
20
-2.62203439354113
30
0
41
1
10
121.414420386503
20
-2.10977724784999
30
0
41
1
10
121.593325629165
20
-1.09727568274431
30
0
41
1
10
121.682778250496
20
-0.597095396675599
30
0
41
1
10
121.783412449493
20
-0.0518407567071222
30
0
41
1
10
121.794594027159
20
0.0083432755040747
30
0
41
1
10
121.816957182492
20
0.129280488782484
30
0
41
1
10
121.850501915491
20
0.311411247474553
30
0
41
1
10
121.88404664849
20
0.495580831576746
30
0
41
1
10
121.951136114488
20
0.866238965296304
30
0
41
1
10
121.995862425154
20
1.11644873606613
30
0
41
1
10
122.13004135715
20
1.87273372876584
30
0
41
1
10
122.219493978481
20
2.38461529232768
30
0
41
1
10
122.398399221142
20
3.3999834638098
30
0
41
1
10
122.487851842473
20
3.9033536242973
30
0
41
1
10
122.666757085135
20
4.87435432838677
30
0
41
1
10
122.756209706465
20
5.34182962493068
30
0
41
1
10
122.935114949127
20
6.21443529403021
30
0
41
1
10
123.024567570458
20
6.61942085471904
30
0
41
1
10
123.20347281312
20
7.34588883031827
30
0
41
1
10
123.29292543445
20
7.66728822578244
30
0
41
1
10
123.471830677112
20
8.21447460290108
30
0
41
1
10
123.561283298443
20
8.44026459141978
30
0
41
1
10
123.740188541105
20
8.79442928532151
30
0
41
1
10
123.829641162435
20
8.92287890972835
30
0
41
1
10
124.008546405097
20
9.08961006937759
30
0
41
1
10
124.097999026428
20
9.12799999999999
30
0
41
1
10
124.187451647759
20
9.12799999999999
30
0
0
SPLINE
5
D7
100
AcDbEntity
8
1
62
256
6
ByLayer
370
13
48
1
60
0
100
AcDbSpline
70
4
71
3
72
8
73
4
40
0
40
0
40
0
40
0
40
1
40
1
40
1
40
1
41
1
10
125.007171539947
20
9.12799999999999
30
0
41
1
10
125.064007593837
20
9.12799999999999
30
0
41
1
10
125.120843647728
20
9.11254623951993
30
0
41
1
10
125.177679701618
20
9.07984668914202
30
0
0
SPLINE
5
D8
100
AcDbEntity
8
1
62
256
6
ByLayer
370
13
48
1
60
0
100
AcDbSpline
70
4
71
3
72
85
73
81
40
0
40
0
40
0
40
0
40
0.0312500000000017
40
0.0312500000000017
40
0.0625000000000034
40
0.0625000000000034
40
0.0937500000000052
40
0.0937500000000052
40
0.109375000000006
40
0.109375000000006
40
0.113281250000006
40
0.113281250000006
40
0.117187500000007
40
0.125000000000007
40
0.125000000000007
40
0.156250000000009
40
0.156250000000009
40
0.18750000000001
40
0.18750000000001
40
0.218750000000011
40
0.218750000000011
40
0.250000000000013
40
0.250000000000013
40
0.281250000000014
40
0.281250000000014
40
0.312500000000016
40
0.312500000000016
40
0.343750000000017
40
0.343750000000017
40
0.375000000000018
40
0.375000000000018
40
0.40625000000002
40
0.40625000000002
40
0.41015625000002
40
0.41015625000002
40
0.41406250000002
40
0.421875000000019
40
0.421875000000019
40
0.437500000000019
40
0.437500000000019
40
0.468750000000018
40
0.468750000000018
40
0.500000000000017
40
0.500000000000017
40
0.531250000000016
40
0.531250000000016
40
0.562500000000015
40
0.562500000000015
40
0.593750000000014
40
0.593750000000014
40
0.625000000000013
40
0.625000000000013
40
0.656250000000012
40
0.656250000000012
40
0.687500000000011
40
0.687500000000011
40
0.70312500000001
40
0.70312500000001
40
0.70703125000001
40
0.70703125000001
40
0.71093750000001
40
0.718750000000009
40
0.718750000000009
40
0.750000000000008
40
0.750000000000008
40
0.781250000000007
40
0.781250000000007
40
0.812500000000006
40
0.812500000000006
40
0.843750000000005
40
0.843750000000005
40
0.875000000000004
40
0.875000000000004
40
0.906250000000003
40
0.906250000000003
40
0.937500000000002
40
0.937500000000002
40
0.968750000000001
40
0.968750000000001
40
1
40
1
40
1
40
1
41
1
10
115.6
20
5.05323310576478
30
0
41
1
10
115.684295181056
20
4.61419676157445
30
0
41
1
10
115.768590362112
20
4.15362843402383
30
0
41
1
10
115.937180724224
20
3.21227597105559
30
0
41
1
10
116.021475905281
20
2.73159723431158
30
0
41
1
10
116.190066267393
20
1.77204432330228
30
0
41
1
10
116.274361448449
20
1.29323807710733
30
0
41
1
10
116.400804220033
20
0.590088234502815
30
0
41
1
10
116.442951810561
20
0.358179395308525
30
0
41
1
10
116.495636298721
20
0.0725132612259358
30
0
41
1
10
116.506173196353
20
0.0157255338700679
30
0
41
1
10
116.527246991617
20
-0.0980994916802729
30
0
41
1
10
116.558857684513
20
-0.269486874202471
30
0
41
1
10
116.590468377409
20
-0.442710981087174
30
0
41
1
10
116.69583735373
20
-1.0236564347604
30
0
41
1
10
116.780132534785
20
-1.49990579559653
30
0
41
1
10
116.948722896898
20
-2.45814257687803
30
0
41
1
10
117.033018077954
20
-2.94007052880565
30
0
41
1
10
117.201608440066
20
-3.88826503468371
30
0
41
1
10
117.285903621122
20
-4.35443185552765
30
0
41
1
10
117.454493983235
20
-5.24800427771603
30
0
41
1
10
117.538789164291
20
-5.6752922703082
30
0
41
1
10
117.707379526403
20
-6.46967187812777
30
0
41
1
10
117.791674707459
20
-6.83666324469837
30
0
41
1
10
117.960265069571
20
-7.49408881081641
30
0
41
1
10
118.044560250627
20
-7.78447169941686
30
0
41
1
10
118.213150612739
20
-8.27977647947202
30
0
41
1
10
118.297445793796
20
-8.48470775691234
30
0
41
1
10
118.466036155908
20
-8.80831313313934
30
0
41
1
10
118.550331336964
20
-8.92704528752472
30
0
41
1
10
118.718921699076
20
-9.08448624914342
30
0
41
1
10
118.803216880132
20
-9.12327574619908
30
0
41
1
10
118.89804895882
20
-9.12813104953224
30
0
41
1
10
118.908585856452
20
-9.12813705835379
30
0
41
1
10
118.929659651716
20
-9.12708255481442
30
0
41
1
10
118.961270344612
20
-9.12389186371408
30
0
41
1
10
118.992881037508
20
-9.11576492696085
30
0
41
1
10
119.056102423301
20
-9.09265289322877
30
0
41
1
10
119.098250013829
20
-9.06809284330578
30
0
41
1
10
119.224692785413
20
-8.9649876801013
30
0
41
1
10
119.308987966469
20
-8.85683155672055
30
0
41
1
10
119.477578328581
20
-8.55482499911142
30
0
41
1
10
119.561873509637
20
-8.36091208519173
30
0
41
1
10
119.73046387175
20
-7.88711733659352
30
0
41
1
10
119.814759052806
20
-7.60721887039526
30
0
41
1
10
119.983349414918
20
-6.96920798577253
30
0
41
1
10
120.067644595974
20
-6.61113933345209
30
0
41
1
10
120.236234958086
20
-5.83220252126853
30
0
41
1
10
120.320530139142
20
-5.41142988058863
30
0
41
1
10
120.489120501255
20
-4.52801176906911
30
0
41
1
10
120.573415682311
20
-4.06548376901762
30
0
41
1
10
120.742006044423
20
-3.12166923075009
30
0
41
1
10
120.826301225479
20
-2.64048630213603
30
0
41
1
10
120.994891587591
20
-1.68121263173359
30
0
41
1
10
121.079186768647
20
-1.20318701769145
30
0
41
1
10
121.205629540231
20
-0.501950626068918
30
0
41
1
10
121.24777713076
20
-0.270802642992749
30
0
41
1
10
121.30046161892
20
0.0137846049855739
30
0
41
1
10
121.310998516552
20
0.0705648070957068
30
0
41
1
10
121.332072311816
20
0.184821678192179
30
0
41
1
10
121.363683004712
20
0.356837678087714
30
0
41
1
10
121.395293697608
20
0.530629987343104
30
0
41
1
10
121.500662673928
20
1.11332218545712
30
0
41
1
10
121.584957854984
20
1.59049509161139
30
0
41
1
10
121.753548217096
20
2.54932938747871
30
0
41
1
10
121.837843398152
20
3.0309284709156
30
0
41
1
10
122.006433760265
20
3.97702345553267
30
0
41
1
10
122.090728941321
20
4.44141763719963
30
0
41
1
10
122.259319303433
20
5.33000266970666
30
0
41
1
10
122.343614484489
20
5.75407590664531
30
0
41
1
10
122.512204846601
20
6.54080924672724
30
0
41
1
10
122.596500027657
20
6.90337140166443
30
0
41
1
10
122.76509038977
20
7.55113851897832
30
0
41
1
10
122.849385570826
20
7.83629592192477
30
0
41
1
10
123.017975932938
20
8.32086268411354
30
0
41
1
10
123.102271113994
20
8.52028508068483
30
0
41
1
10
123.270861476106
20
8.83307765254
30
0
41
1
10
123.355156657162
20
8.94650815087576
30
0
41
1
10
123.523747019275
20
9.09392873064786
30
0
41
1
10
123.608042200331
20
9.12799999999999
30
0
41
1
10
123.692337381387
20
9.12799999999999
30
0
0
SPLINE
5
D9
100
AcDbEntity
8
1
62
256
6
ByLayer
370
13
48
1
60
0
100
AcDbSpline
70
4
71
3
72
14
73
10
40
0
40
0
40
0
40
0
40
0.25
40
0.25
40
0.5
40
0.5
40
0.75
40
0.75
40
1
40
1
40
1
40
1
41
1
10
124.512057273575
20
9.12799999999999
30
0
41
1
10
124.567525809245
20
9.12799999999999
30
0
41
1
10
124.622994344915
20
9.11328218601562
30
0
41
1
10
124.733931416256
20
9.05107208365416
30
0
41
1
10
124.789399951926
20
9.00356958497966
30
0
41
1
10
124.900337023267
20
8.87314467074788
30
0
41
1
10
124.955805558937
20
8.79021258458869
30
0
41
1
10
125.066742630278
20
8.58729884656952
30
0
41
1
10
125.122211165948
20
8.46730954791531
30
0
41
1
10
125.177679701618
20
8.32862139323487
30
0
0
SPLINE
5
DA
100
AcDbEntity
8
1
62
256
6
ByLayer
370
13
48
1
60
0
100
AcDbSpline
70
4
71
3
72
85
73
81
40
0
40
0
40
0
40
0
40
0.0312500000000002
40
0.0312500000000002
40
0.0468750000000005
40
0.0468750000000005
40
0.0546875000000006
40
0.0546875000000006
40
0.0625000000000008
40
0.0625000000000008
40
0.0937500000000003
40
0.0937500000000003
40
0.125
40
0.125
40
0.156249999999999
40
0.156249999999999
40
0.187499999999999
40
0.187499999999999
40
0.218749999999998
40
0.218749999999998
40
0.249999999999998
40
0.249999999999998
40
0.281249999999997
40
0.281249999999997
40
0.312499999999997
40
0.312499999999997
40
0.343749999999996
40
0.343749999999996
40
0.359374999999996
40
0.359374999999996
40
0.367187499999996
40
0.367187499999996
40
0.371093749999996
40
0.371093749999996
40
0.374999999999996
40
0.374999999999996
40
0.406249999999996
40
0.406249999999996
40
0.437499999999996
40
0.437499999999996
40
0.468749999999996
40
0.468749999999996
40
0.499999999999997
40
0.499999999999997
40
0.531249999999997
40
0.531249999999997
40
0.562499999999997
40
0.562499999999997
40
0.593749999999997
40
0.593749999999997
40
0.624999999999997
40
0.624999999999997
40
0.656249999999998
40
0.656249999999998
40
0.671874999999998
40
0.671874999999998
40
0.679687499999998
40
0.683593749999998
40
0.683593749999998
40
0.687499999999998
40
0.687499999999998
40
0.718749999999998
40
0.718749999999998
40
0.749999999999998
40
0.749999999999998
40
0.781249999999998
40
0.781249999999998
40
0.812499999999999
40
0.812499999999999
40
0.843749999999999
40
0.843749999999999
40
0.874999999999999
40
0.874999999999999
40
0.906249999999999
40
0.906249999999999
40
0.9375
40
0.9375
40
0.96875
40
0.96875
40
1
40
1
40
1
40
1
41
1
10
115.6
20
2.31247881116255
30
0
41
1
10
115.679137740781
20
1.86201138947854
30
0
41
1
10
115.758275481563
20
1.41199843337057
30
0
41
1
10
115.876982092735
20
0.749124542323472
30
0
41
1
10
115.916550963126
20
0.530163944675962
30
0
41
1
10
115.975904268712
20
0.205886108059929
30
0
41
1
10
115.995688703907
20
0.0985611591543716
30
0
41
1
10
116.035257574298
20
-0.114843616259492
30
0
41
1
10
116.055042009493
20
-0.222319006303593
30
0
41
1
10
116.15396418547
20
-0.763132559436116
30
0
41
1
10
116.233101926251
20
-1.20693438602999
30
0
41
1
10
116.391377407814
20
-2.10335887568141
30
0
41
1
10
116.470515148595
20
-2.55594560766173
30
0
41
1
10
116.628790630158
20
-3.45296006404652
30
0
41
1
10
116.70792837094
20
-3.89732234205124
30
0
41
1
10
116.866203852503
20
-4.75895231247054
30
0
41
1
10
116.945341593284
20
-5.17613599418866
30
0
41
1
10
117.103617074847
20
-5.96481367460802
30
0
41
1
10
117.182754815628
20
-6.3362259744124
30
0
41
1
10
117.341030297191
20
-7.0176796782508
30
0
41
1
10
117.420168037972
20
-7.32766462404351
30
0
41
1
10
117.578443519535
20
-7.87565415583381
30
0
41
1
10
117.657581260317
20
-8.11364211185909
30
0
41
1
10
117.815856741879
20
-8.5132404171749
30
0
41
1
10
117.894994482661
20
-8.67487402693513
30
0
41
1
10
118.053269964224
20
-8.9234650778528
30
0
41
1
10
118.132407705005
20
-9.01047302863179
30
0
41
1
10
118.251114316177
20
-9.08995466487863
30
0
41
1
10
118.290683186568
20
-9.10797683664958
30
0
41
1
10
118.350036492154
20
-9.12315835005168
30
0
41
1
10
118.369820927349
20
-9.12624494256701
30
0
41
1
10
118.399497580142
20
-9.12803157932956
30
0
41
1
10
118.40938979774
20
-9.12815505142609
30
0
41
1
10
118.429174232935
20
-9.12746570982796
30
0
41
1
10
118.439066450533
20
-9.12664990107686
30
0
41
1
10
118.528096408912
20
-9.11497748431768
30
0
41
1
10
118.607234149693
20
-9.07369774921594
30
0
41
1
10
118.765509631256
20
-8.9204938982237
30
0
41
1
10
118.844647372038
20
-8.80851106688417
30
0
41
1
10
119.002922853601
20
-8.50874309819429
30
0
41
1
10
119.082060594382
20
-8.32091484013387
30
0
41
1
10
119.240336075945
20
-7.8696874425074
30
0
41
1
10
119.319473816726
20
-7.60627777059389
30
0
41
1
10
119.477749298289
20
-7.01037520446067
30
0
41
1
10
119.55688703907
20
-6.67791333471567
30
0
41
1
10
119.715162520633
20
-5.9563656194519
30
0
41
1
10
119.794300261415
20
-5.56734711852005
30
0
41
1
10
119.952575742977
20
-4.7496061924561
30
0
41
1
10
120.031713483759
20
-4.32096895277633
30
0
41
1
10
120.189988965322
20
-3.4430022207824
30
0
41
1
10
120.269126706103
20
-2.99375234983262
30
0
41
1
10
120.427402187666
20
-2.09310146733841
30
0
41
1
10
120.506539928447
20
-1.64175643807752
30
0
41
1
10
120.625246539619
20
-0.975107085043277
30
0
41
1
10
120.66481541001
20
-0.754593422916429
30
0
41
1
10
120.724168715596
20
-0.427608204848724
30
0
41
1
10
120.753845368389
20
-0.265059023431604
30
0
41
1
10
120.783522021182
20
-0.104129087999837
30
0
41
1
10
120.803306456377
20
0.0027769082265081
30
0
41
1
10
120.813198673975
20
0.0560530282439231
30
0
41
1
10
120.902228632354
20
0.538375727521299
30
0
41
1
10
120.981366373136
20
0.979212375509547
30
0
41
1
10
121.139641854699
20
1.87228814127772
30
0
41
1
10
121.21877959548
20
2.32449660677196
30
0
41
1
10
121.377055077043
20
3.22384876861633
30
0
41
1
10
121.456192817824
20
3.67093162026845
30
0
41
1
10
121.614468299387
20
4.54128531946356
30
0
41
1
10
121.693606040168
20
4.96447405634734
30
0
41
1
10
121.851881521731
20
5.76820328602389
30
0
41
1
10
121.931019262513
20
6.14865998241635
30
0
41
1
10
122.089294744076
20
6.85057257864779
30
0
41
1
10
122.168432484857
20
7.17196632444771
30
0
41
1
10
122.32670796642
20
7.74416233435019
30
0
41
1
10
122.405845707201
20
7.99494073345221
30
0
41
1
10
122.564121188764
20
8.42042079450189
30
0
41
1
10
122.643258929545
20
8.59513952147358
30
0
41
1
10
122.801534411108
20
8.86921805767577
30
0
41
1
10
122.880672151889
20
8.96862494806354
30
0
41
1
10
123.038947633452
20
9.09798612182576
30
0
41
1
10
123.118085374234
20
9.12800000000001
30
0
41
1
10
123.197223115015
20
9.12799999999999
30
0
0
SPLINE
5
DB
100
AcDbEntity
8
1
62
256
6
ByLayer
370
13
48
1
60
0
100
AcDbSpline
70
4
71
3
72
18
73
14
40
0
40
0
40
0
40
0
40
0.25
40
0.25
40
0.499999999999999
40
0.499999999999999
40
0.624999999999999
40
0.624999999999999
40
0.749999999999999
40
0.749999999999999
40
0.875
40
0.875
40
1
40
1
40
1
40
1
41
1
10
124.016943007203
20
9.12799999999999
30
0
41
1
10
124.113671065071
20
9.12799999999999
30
0
41
1
10
124.210399122939
20
9.08307144582926
30
0
41
1
10
124.403855238675
20
8.88695250560602
30
0
41
1
10
124.500583296543
20
8.73560404280255
30
0
41
1
10
124.645675383345
20
8.42283517182335
30
0
41
1
10
124.694039412279
20
8.30437145979391
30
0
41
1
10
124.790767470146
20
8.03920682569398
30
0
41
1
10
124.83913149908
20
7.8925045991765
30
0
41
1
10
124.935859556948
20
7.57190216579329
30
0
41
1
10
124.984223585882
20
7.39800278430866
30
0
41
1
10
125.08095164375
20
7.02492136322869
30
0
41
1
10
125.129315672684
20
6.82574236240299
30
0
41
1
10
125.177679701618
20
6.6152887771683
30
0
0
SPLINE
5
DC
100
AcDbEntity
8
1
62
256
6
ByLayer
370
13
48
1
60
0
100
AcDbSpline
70
4
71
3
72
81
73
77
40
0
40
0
40
0
40
0
40
0.0312500000000015
40
0.0312500000000015
40
0.0625000000000031
40
0.0625000000000031
40
0.0937500000000046
40
0.0937500000000046
40
0.125000000000006
40
0.125000000000006
40
0.156250000000008
40
0.156250000000008
40
0.187500000000009
40
0.187500000000009
40
0.218750000000011
40
0.218750000000011
40
0.250000000000012
40
0.250000000000012
40
0.281250000000014
40
0.281250000000014
40
0.312500000000015
40
0.312500000000015
40
0.320312500000016
40
0.324218750000016
40
0.324218750000016
40
0.328125000000015
40
0.328125000000015
40
0.343750000000015
40
0.343750000000015
40
0.375000000000013
40
0.375000000000013
40
0.406250000000012
40
0.406250000000012
40
0.43750000000001
40
0.43750000000001
40
0.468750000000009
40
0.468750000000009
40
0.500000000000007
40
0.500000000000007
40
0.531250000000006
40
0.531250000000006
40
0.562500000000004
40
0.562500000000004
40
0.593750000000003
40
0.593750000000003
40
0.625000000000001
40
0.625000000000001
40
0.65625
40
0.65625
40
0.66015625
40
0.66015625
40
0.664062499999999
40
0.664062499999999
40
0.671874999999999
40
0.671874999999999
40
0.687499999999999
40
0.687499999999999
40
0.718749999999999
40
0.718749999999999
40
0.749999999999999
40
0.749999999999999
40
0.781249999999999
40
0.781249999999999
40
0.8125
40
0.8125
40
0.84375
40
0.84375
40
0.875
40
0.875
40
0.90625
40
0.90625
40
0.9375
40
0.9375
40
0.96875
40
0.96875
40
1
40
1
40
1
40
1
41
1
10
115.6
20
-0.441633540610951
30
0
41
1
10
115.673980300507
20
-0.847804038211734
30
0
41
1
10
115.747960601013
20
-1.26326504240359
30
0
41
1
10
115.895921202027
20
-2.10158566712477
30
0
41
1
10
115.969901502534
20
-2.52441918852614
30
0
41
1
10
116.117862103547
20
-3.36364400663771
30
0
41
1
10
116.191842404054
20
-3.77998937583286
30
0
41
1
10
116.339803005067
20
-4.59083726279931
30
0
41
1
10
116.413783305574
20
-4.9852805365407
30
0
41
1
10
116.561743906587
20
-5.73697370035521
30
0
41
1
10
116.635724207094
20
-6.09416362886944
30
0
41
1
10
116.783684808107
20
-6.75789122371626
30
0
41
1
10
116.857665108614
20
-7.06438288499268
30
0
41
1
10
117.005625709627
20
-7.61679235874112
30
0
41
1
10
117.079606010134
20
-7.86268907789059
30
0
41
1
10
117.227566611147
20
-8.28856708385695
30
0
41
1
10
117.301546911654
20
-8.468555119505
30
0
41
1
10
117.449507512667
20
-8.76207210833562
30
0
41
1
10
117.523487813174
20
-8.87563020650518
30
0
41
1
10
117.671448414188
20
-9.03997530781365
30
0
41
1
10
117.745428714694
20
-9.09080339990228
30
0
41
1
10
117.837904090328
20
-9.119371027889
30
0
41
1
10
117.865646703018
20
-9.12532752889186
30
0
41
1
10
117.893389315708
20
-9.12750525976
30
0
41
1
10
117.911884390834
20
-9.1281338519166
30
0
41
1
10
117.921131928398
20
-9.12803892486585
30
0
41
1
10
117.967369616214
20
-9.1255039682882
30
0
41
1
10
118.004359766468
20
-9.11685478487561
30
0
41
1
10
118.115330217228
20
-9.06954081211165
30
0
41
1
10
118.189310517734
20
-9.00942176384663
30
0
41
1
10
118.337271118748
20
-8.82568804336205
30
0
41
1
10
118.411251419255
20
-8.70203337793399
30
0
41
1
10
118.559212020268
20
-8.38810349373659
30
0
41
1
10
118.633192320775
20
-8.19780197275858
30
0
41
1
10
118.781152921788
20
-7.75179507257914
30
0
41
1
10
118.855133222295
20
-7.49608706770573
30
0
41
1
10
119.003093823308
20
-6.92529476838956
30
0
41
1
10
119.077074123815
20
-6.61023582730294
30
0
41
1
10
119.225034724828
20
-5.93124822850237
30
0
41
1
10
119.299015025335
20
-5.56736860083274
30
0
41
1
10
119.446975626348
20
-4.80458407041223
30
0
41
1
10
119.520955926855
20
-4.40573998859097
30
0
41
1
10
119.668916527869
20
-3.58850951698403
30
0
41
1
10
119.742896828375
20
-3.17018101736278
30
0
41
1
10
119.890857429389
20
-2.32926562412157
30
0
41
1
10
119.964837729896
20
-1.90672184725358
30
0
41
1
10
120.112798330909
20
-1.07090466535735
30
0
41
1
10
120.186778631416
20
-0.657654169258848
30
0
41
1
10
120.270006469486
20
-0.204019333279746
30
0
41
1
10
120.279254007049
20
-0.153770063877033
30
0
41
1
10
120.297749082176
20
-0.0535982792222001
30
0
41
1
10
120.306996619739
20
-0.0037879189021623
30
0
41
1
10
120.334739232429
20
0.146090393393194
30
0
41
1
10
120.353234307556
20
0.246676206133174
30
0
41
1
10
120.408719532936
20
0.550222762675361
30
0
41
1
10
120.445709683189
20
0.754978633793428
30
0
41
1
10
120.556680133949
20
1.37450785010347
30
0
41
1
10
120.630660434456
20
1.794626030568
30
0
41
1
10
120.778621035469
20
2.63668161918889
30
0
41
1
10
120.852601335976
20
3.05858420296653
30
0
41
1
10
121.000561936989
20
3.88954094850894
30
0
41
1
10
121.074542237496
20
4.29854235129602
30
0
41
1
10
121.222502838509
20
5.08809868767571
30
0
41
1
10
121.296483139016
20
5.46859229146489
30
0
41
1
10
121.444443740029
20
6.18635870596623
30
0
41
1
10
121.518424040536
20
6.52357574964131
30
0
41
1
10
121.66638464155
20
7.14265228168824
30
0
41
1
10
121.740364942056
20
7.42447536701914
30
0
41
1
10
121.88832554307
20
7.92469757055633
30
0
41
1
10
121.962305843576
20
8.14308753846001
30
0
41
1
10
122.11026644459
20
8.51315358198909
30
0
41
1
10
122.184246745097
20
8.66484693748222
30
0
41
1
10
122.33220734611
20
8.90287289477263
30
0
41
1
10
122.406187646617
20
8.98924109050552
30
0
41
1
10
122.55414824763
20
9.10178326082485
30
0
41
1
10
122.628128548137
20
9.12799999999999
30
0
41
1
10
122.702108848643
20
9.12799999999999
30
0
0
SPLINE
5
DD
100
AcDbEntity
8
1
62
256
6
ByLayer
370
13
48
1
60
0
100
AcDbSpline
70
4
71
3
72
22
73
18
40
0
40
0
40
0
40
0
40
0.125
40
0.125
40
0.25
40
0.25
40
0.375
40
0.375
40
0.5
40
0.5
40
0.625
40
0.625
40
0.75
40
0.75
40
0.875
40
0.875
40
1
40
1
40
1
40
1
41
1
10
123.521828740832
20
9.12799999999999
30
0
41
1
10
123.590822530864
20
9.12799999999999
30
0
41
1
10
123.659816320897
20
9.10520796438362
30
0
41
1
10
123.797803900963
20
9.00775861761102
30
0
41
1
10
123.866797690995
20
8.93307102733368
30
0
41
1
10
124.004785271061
20
8.72737534379547
30
0
41
1
10
124.073779061094
20
8.59634094260241
30
0
41
1
10
124.211766641159
20
8.27625272533177
30
0
41
1
10
124.280760431192
20
8.08718348377022
30
0
41
1
10
124.418748011258
20
7.65273585855257
30
0
41
1
10
124.48774180129
20
7.40735857574768
30
0
41
1
10
124.625729381356
20
6.8656485617814
30
0
41
1
10
124.694723171389
20
6.56933538265446
30
0
41
1
10
124.832710751454
20
5.93444373526918
30
0
41
1
10
124.901704541487
20
5.59590015238578
30
0
41
1
10
125.039692121553
20
4.88774070186886
30
0
41
1
10
125.108685911585
20
4.51816764296819
30
0
41
1
10
125.177679701618
20
4.13930771358997
30
0
0
SPLINE
5
DE
100
AcDbEntity
8
1
62
256
6
ByLayer
370
13
48
1
60
0
100
AcDbSpline
70
4
71
3
72
80
73
76
40
0
40
0
40
0
40
0
40
0.0312500000000005
40
0.0312500000000005
40
0.062500000000001
40
0.062500000000001
40
0.0937500000000015
40
0.0937500000000015
40
0.125000000000002
40
0.125000000000002
40
0.156250000000002
40
0.156250000000002
40
0.187500000000003
40
0.187500000000003
40
0.218750000000004
40
0.218750000000004
40
0.250000000000004
40
0.250000000000004
40
0.265625000000004
40
0.265625000000004
40
0.273437500000004
40
0.273437500000004
40
0.277343750000005
40
0.277343750000005
40
0.281250000000005
40
0.281250000000005
40
0.312500000000004
40
0.312500000000004
40
0.343750000000004
40
0.343750000000004
40
0.375000000000004
40
0.375000000000004
40
0.406250000000004
40
0.406250000000004
40
0.437500000000003
40
0.437500000000003
40
0.468750000000003
40
0.468750000000003
40
0.500000000000003
40
0.500000000000003
40
0.531250000000003
40
0.531250000000003
40
0.562500000000002
40
0.562500000000002
40
0.593750000000002
40
0.593750000000002
40
0.625000000000002
40
0.625000000000002
40
0.632812500000002
40
0.632812500000002
40
0.640625000000002
40
0.640625000000002
40
0.656250000000002
40
0.656250000000002
40
0.687500000000002
40
0.687500000000002
40
0.718750000000002
40
0.718750000000002
40
0.750000000000002
40
0.750000000000002
40
0.781250000000002
40
0.781250000000002
40
0.812500000000002
40
0.812500000000002
40
0.843750000000001
40
0.843750000000001
40
0.875000000000001
40
0.875000000000001
40
0.906250000000001
40
0.906250000000001
40
0.937500000000001
40
0.937500000000001
40
0.96875
40
0.96875
40
1
40
1
40
1
40
1
41
1
10
115.6
20
-3.23399957844183
30
0
41
1
10
115.668822860232
20
-3.62257052661013
30
0
41
1
10
115.737645720464
20
-4.00680862357089
30
0
41
1
10
115.875291440928
20
-4.75419044396844
30
0
41
1
10
115.94411430116
20
-5.11729207081925
30
0
41
1
10
116.081760021624
20
-5.8101600482043
30
0
41
1
10
116.150582881856
20
-6.13988502614592
30
0
41
1
10
116.28822860232
20
-6.75530164876912
30
0
41
1
10
116.357051462552
20
-7.0409615008393
30
0
41
1
10
116.494697183016
20
-7.56022380348216
30
0
41
1
10
116.563520043248
20
-7.79381061114938
30
0
41
1
10
116.701165763712
20
-8.20431021517638
30
0
41
1
10
116.769988623944
20
-8.38122554973859
30
0
41
1
10
116.907634344408
20
-8.67737265895235
30
0
41
1
10
116.97645720464
20
-8.79662235600085
30
0
41
1
10
117.114102925104
20
-8.97971387676836
30
0
41
1
10
117.182925785336
20
-9.04358300320132
30
0
41
1
10
117.286160075684
20
-9.10147379783595
30
0
41
1
10
117.3205715058
20
-9.11446935121023
30
0
41
1
10
117.372188650974
20
-9.12508929460108
30
0
41
1
10
117.389394366032
20
-9.12715111495697
30
0
41
1
10
117.415202938619
20
-9.12810469783543
30
0
41
1
10
117.423805796148
20
-9.12806789813575
30
0
41
1
10
117.441011511206
20
-9.12728289691867
30
0
41
1
10
117.449614368735
20
-9.12653321210576
30
0
41
1
10
117.527040086496
20
-9.11651232835018
30
0
41
1
10
117.595862946728
20
-9.08426327606665
30
0
41
1
10
117.733508667192
20
-8.96713724191679
30
0
41
1
10
117.802331527424
20
-8.88223059609481
30
0
41
1
10
117.939977247888
20
-8.65582383910612
30
0
41
1
10
118.00880010812
20
-8.51429925032613
30
0
41
1
10
118.146445828584
20
-8.17356523269967
30
0
41
1
10
118.215268688816
20
-7.97434326303866
30
0
41
1
10
118.35291440928
20
-7.52057834006109
30
0
41
1
10
118.421737269512
20
-7.26603981828455
30
0
41
1
10
118.559382989976
20
-6.70759911336071
30
0
41
1
10
118.628205850208
20
-6.40371936084046
30
0
41
1
10
118.765851570672
20
-5.75574327612003
30
0
41
1
10
118.834674430904
20
-5.41168342583916
30
0
41
1
10
118.972320151368
20
-4.69478029150892
30
0
41
1
10
119.0411430116
20
-4.32197973611375
30
0
41
1
10
119.178788732064
20
-3.56009336541894
30
0
41
1
10
119.247611592296
20
-3.17104762000386
30
0
41
1
10
119.38525731276
20
-2.38895797639313
30
0
41
1
10
119.454080172992
20
-1.99594445654952
30
0
41
1
10
119.591725893456
20
-1.21691414695783
30
0
41
1
10
119.660548753688
20
-0.830914665392015
30
0
41
1
10
119.746577328978
20
-0.35839948152099
30
0
41
1
10
119.763783044036
20
-0.264390179096893
30
0
41
1
10
119.798194474152
20
-0.0774764287183984
30
0
41
1
10
119.81540018921
20
0.0150482168729127
30
0
41
1
10
119.867017334384
20
0.294668956639328
30
0
41
1
10
119.9014287645
20
0.483347108443951
30
0
41
1
10
120.004663054848
20
1.0547356079976
30
0
41
1
10
120.07348591508
20
1.44286677786906
30
0
41
1
10
120.211131635544
20
2.2241731265888
30
0
41
1
10
120.279954495776
20
2.61732838350017
30
0
41
1
10
120.41760021624
20
3.39739363281751
30
0
41
1
10
120.486423076472
20
3.78427097721234
30
0
41
1
10
120.624068796936
20
4.53937592638505
30
0
41
1
10
120.692891657168
20
4.90756230179827
30
0
41
1
10
120.830537377632
20
5.61289385711419
30
0
41
1
10
120.899360237864
20
5.9499968131303
30
0
41
1
10
121.037005958328
20
6.5820670234699
30
0
41
1
10
121.10582881856
20
6.87700000018037
30
0
41
1
10
121.243474539024
20
7.41611482791919
30
0
41
1
10
121.312297399256
20
7.66027758453706
30
0
41
1
10
121.44994311972
20
8.09254120630246
30
0
41
1
10
121.518765979952
20
8.28064116346354
30
0
41
1
10
121.656411700416
20
8.59908000383973
30
0
41
1
10
121.725234560648
20
8.72943422737444
30
0
41
1
10
121.862880281112
20
8.93406563572992
30
0
41
1
10
121.931703141344
20
9.00836884211125
30
0
41
1
10
122.069348861808
20
9.10532106974517
30
0
41
1
10
122.13817172204
20
9.12799999999999
30
0
41
1
10
122.206994582272
20
9.12799999999999
30
0
0
SPLINE
5
DF
100
AcDbEntity
8
1
62
256
6
ByLayer
370
13
48
1
60
0
100
AcDbSpline
70
4
71
3
72
22
73
18
40
0
40
0
40
0
40
0
40
0.125
40
0.125
40
0.25
40
0.25
40
0.375
40
0.375
40
0.5
40
0.5
40
0.625
40
0.625
40
0.75
40
0.75
40
0.875
40
0.875
40
1
40
1
40
1
40
1
41
1
10
123.02671447446
20
9.12799999999999
30
0
41
1
10
123.116338025591
20
9.12800000000001
30
0
41
1
10
123.205961576723
20
9.08946245297236
30
0
41
1
10
123.385208678986
20
8.92206975451614
30
0
41
1
10
123.474832230118
20
8.79310519950803
30
0
41
1
10
123.654079332381
20
8.43752392830476
30
0
41
1
10
123.743702883513
20
8.21083179339843
30
0
41
1
10
123.922949985776
20
7.66151141441273
30
0
41
1
10
124.012573536907
20
7.33888062906152
30
0
41
1
10
124.191820639171
20
6.60975655928851
30
0
41
1
10
124.281444190302
20
6.20334770454059
30
0
41
1
10
124.460691292565
20
5.32788907602375
30
0
41
1
10
124.550314843697
20
4.85898586123739
30
0
41
1
10
124.72956194596
20
3.8853102895132
30
0
41
1
10
124.819185497092
20
3.38069445787821
30
0
41
1
10
124.998432599355
20
2.36315528022288
30
0
41
1
10
125.088056150486
20
1.8503487385201
30
0
41
1
10
125.177679701618
20
1.3454267570452
30
0
0
SPLINE
5
E0
100
AcDbEntity
8
1
62
256
6
ByLayer
370
13
48
1
60
0
100
AcDbSpline
70
4
71
3
72
78
73
74
40
0
40
0
40
0
40
0
40
0.031250000000001
40
0.031250000000001
40
0.0625000000000021
40
0.0625000000000021
40
0.0937500000000031
40
0.0937500000000031
40
0.125000000000004
40
0.125000000000004
40
0.156250000000005
40
0.156250000000005
40
0.187500000000006
40
0.187500000000006
40
0.203125000000007
40
0.203125000000007
40
0.210937500000007
40
0.210937500000007
40
0.218750000000007
40
0.218750000000007
40
0.250000000000007
40
0.250000000000007
40
0.281250000000007
40
0.281250000000007
40
0.312500000000006
40
0.312500000000006
40
0.343750000000006
40
0.343750000000006
40
0.375000000000006
40
0.375000000000006
40
0.406250000000006
40
0.406250000000006
40
0.437500000000005
40
0.437500000000005
40
0.468750000000005
40
0.468750000000005
40
0.500000000000005
40
0.500000000000005
40
0.531250000000004
40
0.531250000000004
40
0.562500000000004
40
0.562500000000004
40
0.593750000000004
40
0.593750000000004
40
0.601562500000004
40
0.601562500000004
40
0.609375000000004
40
0.609375000000004
40
0.625000000000004
40
0.625000000000004
40
0.656250000000003
40
0.656250000000003
40
0.687500000000003
40
0.687500000000003
40
0.718750000000003
40
0.718750000000003
40
0.750000000000002
40
0.750000000000002
40
0.781250000000002
40
0.781250000000002
40
0.812500000000002
40
0.812500000000002
40
0.843750000000002
40
0.843750000000002
40
0.875000000000001
40
0.875000000000001
40
0.906250000000001
40
0.906250000000001
40
0.937500000000001
40
0.937500000000001
40
0.96875
40
0.96875
40
1
40
1
40
1
40
1
41
1
10
115.6
20
-5.86912115172038
30
0
41
1
10
115.663665419957
20
-6.17652076096621
30
0
41
1
10
115.727330839915
20
-6.46770715993822
30
0
41
1
10
115.854661679829
20
-7.00991638281653
30
0
41
1
10
115.918327099786
20
-7.2609208204986
30
0
41
1
10
116.045657939701
20
-7.71714812667244
30
0
41
1
10
116.109323359658
20
-7.922363457752
30
0
41
1
10
116.236654199573
20
-8.28396457411517
30
0
41
1
10
116.30031961953
20
-8.44035411712341
30
0
41
1
10
116.427650459445
20
-8.70388151155677
30
0
41
1
10
116.491315879402
20
-8.81103235971634
30
0
41
1
10
116.618646719317
20
-8.97802471256648
30
0
41
1
10
116.682312139274
20
-9.03788483716963
30
0
41
1
10
116.77781026921
20
-9.09505624937492
30
0
41
1
10
116.809642979188
20
-9.1086897284824
30
0
41
1
10
116.857392044156
20
-9.12145479265723
30
0
41
1
10
116.873308399146
20
-9.12442951622864
30
0
41
1
10
116.905141109125
20
-9.12789936282991
30
0
41
1
10
116.921057464114
20
-9.1283996187843
30
0
41
1
10
117.00063923906
20
-9.12485081471897
30
0
41
1
10
117.064304659018
20
-9.10241332367812
30
0
41
1
10
117.191635498932
20
-9.01343598712796
30
0
41
1
10
117.25530091889
20
-8.94687585001543
30
0
41
1
10
117.382631758804
20
-8.76606866650229
30
0
41
1
10
117.446297178761
20
-8.65180356994733
30
0
41
1
10
117.573628018676
20
-8.37395039271379
30
0
41
1
10
117.637293438633
20
-8.21035046146363
30
0
41
1
10
117.764624278548
20
-7.83460405722224
30
0
41
1
10
117.828289698505
20
-7.62245539844869
30
0
41
1
10
117.95562053842
20
-7.15302340912842
30
0
41
1
10
118.019285958377
20
-6.89574929259936
30
0
41
1
10
118.146616798292
20
-6.34201276460101
30
0
41
1
10
118.210282218249
20
-6.04557012117027
30
0
41
1
10
118.337613058164
20
-5.42153670715189
30
0
41
1
10
118.401278478121
20
-5.0939728518062
30
0
41
1
10
118.528609318035
20
-4.41711531604219
30
0
41
1
10
118.592274737993
20
-4.06785070804148
30
0
41
1
10
118.719605577907
20
-3.3575280504422
30
0
41
1
10
118.783270997865
20
-2.99649617947696
30
0
41
1
10
118.910601837779
20
-2.27224572667927
30
0
41
1
10
118.974267257736
20
-1.90904670740298
30
0
41
1
10
119.101598097651
20
-1.18904016298973
30
0
41
1
10
119.165263517608
20
-0.832243912595573
30
0
41
1
10
119.244845292555
20
-0.394669915811903
30
0
41
1
10
119.260761647544
20
-0.307572168925049
30
0
41
1
10
119.292594357523
20
-0.1343047270326
30
0
41
1
10
119.308510712512
20
-0.0483635141831655
30
0
41
1
10
119.35625977748
20
0.209500164591248
30
0
41
1
10
119.388092487459
20
0.383393670090953
30
0
41
1
10
119.483590617395
20
0.909916835730229
30
0
41
1
10
119.547256037352
20
1.26743932091594
30
0
41
1
10
119.674586877267
20
1.98832019046168
30
0
41
1
10
119.738252297224
20
2.35166668463313
30
0
41
1
10
119.865583137139
20
3.0755399513057
30
0
41
1
10
119.929248557096
20
3.43604659592725
30
0
41
1
10
120.05657939701
20
4.14459613458811
30
0
41
1
10
120.120244816968
20
4.49261249074681
30
0
41
1
10
120.247575656882
20
5.16625826712516
30
0
41
1
10
120.31124107684
20
5.49185859301613
30
0
41
1
10
120.438571916754
20
6.11132121534348
30
0
41
1
10
120.502237336712
20
6.405156960027
30
0
41
1
10
120.629568176626
20
6.95316655074706
30
0
41
1
10
120.693233596583
20
7.20732131080891
30
0
41
1
10
120.820564436498
20
7.67017505504498
30
0
41
1
10
120.884229856455
20
7.87886566180177
30
0
41
1
10
121.01156069637
20
8.24754956599747
30
0
41
1
10
121.075226116327
20
8.40754584045521
30
0
41
1
10
121.202556956242
20
8.67823278147358
30
0
41
1
10
121.266222376199
20
8.78893588140878
30
0
41
1
10
121.393553216114
20
8.96282078004666
30
0
41
1
10
121.457218636071
20
9.02602092452628
30
0
41
1
10
121.584549475985
20
9.10860037903726
30
0
41
1
10
121.648214895943
20
9.12800000000001
30
0
41
1
10
121.7118803159
20
9.12799999999999
30
0
0
SPLINE
5
E1
100
AcDbEntity
8
1
62
256
6
ByLayer
370
13
48
1
60
0
100
AcDbSpline
70
4
71
3
72
42
73
38
40
0
40
0
40
0
40
0
40
0.0625
40
0.0625
40
0.125
40
0.125
40
0.1875
40
0.1875
40
0.25
40
0.25
40
0.3125
40
0.3125
40
0.375
40
0.375
40
0.4375
40
0.4375
40
0.5
40
0.5
40
0.5625
40
0.5625
40
0.625
40
0.625
40
0.6875
40
0.6875
40
0.75
40
0.75
40
0.8125
40
0.8125
40
0.875
40
0.875
40
0.890625
40
0.890625
40
0.906249999999999
40
0.906249999999999
40
0.9375
40
0.9375
40
1
40
1
40
1
40
1
41
1
10
122.531600208088
20
9.12799999999999
30
0
41
1
10
122.586726864203
20
9.12800000000001
30
0
41
1
10
122.641853520319
20
9.11346335182694
30
0
41
1
10
122.752106832549
20
9.05203748232879
30
0
41
1
10
122.807233488664
20
9.00513836160161
30
0
41
1
10
122.917486800894
20
8.87638301861776
30
0
41
1
10
122.97261345701
20
8.79451740438466
30
0
41
1
10
123.08286676924
20
8.5942120371121
30
0
41
1
10
123.137993425355
20
8.47576481935494
30
0
41
1
10
123.248246737586
20
8.20192524262183
30
0
41
1
10
123.303373393701
20
8.04652876825043
30
0
41
1
10
123.413626705932
20
7.69984480134707
30
0
41
1
10
123.468753362047
20
7.50855762609484
30
0
41
1
10
123.579006674277
20
7.09263219464609
30
0
41
1
10
123.634133330392
20
6.86799910778623
30
0
41
1
10
123.744386642623
20
6.38932616239876
30
0
41
1
10
123.799513298738
20
6.13529589275353
30
0
41
1
10
123.909766610968
20
5.60295334735955
30
0
41
1
10
123.964893267084
20
5.32465383416769
30
0
41
1
10
124.075146579314
20
4.74973720147003
30
0
41
1
10
124.130273235429
20
4.45313423030464
30
0
41
1
10
124.24052654766
20
3.84800374565225
30
0
41
1
10
124.295653203775
20
3.53948985273357
30
0
41
1
10
124.405906516005
20
2.91693534866744
30
0
41
1
10
124.46103317212
20
2.60290620950181
30
0
41
1
10
124.571286484351
20
1.9753415317584
30
0
41
1
10
124.626413140466
20
1.6618142777204
30
0
41
1
10
124.736666452696
20
1.040596409388
30
0
41
1
10
124.791793108812
20
0.732910530300558
30
0
41
1
10
124.860701428956
20
0.354744624761793
30
0
41
1
10
124.874483092985
20
0.279431231639364
30
0
41
1
10
124.902046421042
20
0.129504441983045
30
0
41
1
10
124.915828085071
20
0.055004549661021
30
0
41
1
10
124.957173077157
20
-0.168092195675598
30
0
41
1
10
124.984736405215
20
-0.318319385193291
30
0
41
1
10
125.067426389388
20
-0.772778831873495
30
0
41
1
10
125.122553045503
20
-1.08081779363135
30
0
41
1
10
125.177679701618
20
-1.39167254129265
30
0
0
SPLINE
5
E2
100
AcDbEntity
8
1
62
256
6
ByLayer
370
13
48
1
60
0
100
AcDbSpline
70
4
71
3
72
78
73
74
40
0
40
0
40
0
40
0
40
0.0312500000000021
40
0.0312500000000021
40
0.0625000000000041
40
0.0625000000000041
40
0.0937500000000061
40
0.0937500000000061
40
0.125000000000008
40
0.125000000000008
40
0.140625000000009
40
0.140625000000009
40
0.148437500000009
40
0.148437500000009
40
0.156250000000009
40
0.156250000000009
40
0.187500000000009
40
0.187500000000009
40
0.218750000000009
40
0.218750000000009
40
0.250000000000008
40
0.250000000000008
40
0.281250000000008
40
0.281250000000008
40
0.312500000000007
40
0.312500000000007
40
0.343750000000007
40
0.343750000000007
40
0.375000000000007
40
0.375000000000007
40
0.406250000000007
40
0.406250000000007
40
0.437500000000006
40
0.437500000000006
40
0.468750000000006
40
0.468750000000006
40
0.500000000000006
40
0.500000000000006
40
0.531250000000005
40
0.531250000000005
40
0.562500000000005
40
0.562500000000005
40
0.570312500000005
40
0.570312500000005
40
0.578125000000005
40
0.578125000000005
40
0.593750000000005
40
0.593750000000005
40
0.625000000000005
40
0.625000000000005
40
0.656250000000004
40
0.656250000000004
40
0.687500000000004
40
0.687500000000004
40
0.718750000000004
40
0.718750000000004
40
0.750000000000003
40
0.750000000000003
40
0.781250000000003
40
0.781250000000003
40
0.812500000000002
40
0.812500000000002
40
0.843750000000002
40
0.843750000000002
40
0.875000000000002
40
0.875000000000002
40
0.906250000000001
40
0.906250000000001
40
0.937500000000001
40
0.937500000000001
40
0.96875
40
0.96875
40
1
40
1
40
1
40
1
41
1
10
115.6
20
-7.86995740954373
30
0
41
1
10
115.658507979683
20
-8.05416728961097
30
0
41
1
10
115.717015959365
20
-8.21816030614679
30
0
41
1
10
115.83403191873
20
-8.50448526122096
30
0
41
1
10
115.892539898413
20
-8.62682302564798
30
0
41
1
10
116.009555857778
20
-8.8304114877204
30
0
41
1
10
116.068063837461
20
-8.91167263077676
30
0
41
1
10
116.185079796826
20
-9.03523280895249
30
0
41
1
10
116.243587776508
20
-9.07754473554826
30
0
41
1
10
116.331349746032
20
-9.11427894461531
30
0
41
1
10
116.360603735874
20
-9.1220761230822
30
0
41
1
10
116.404484720635
20
-9.12746895975536
30
0
41
1
10
116.419111715556
20
-9.12821743236907
30
0
41
1
10
116.448365705397
20
-9.12767483452276
30
0
41
1
10
116.462992700318
20
-9.12637719805585
30
0
41
1
10
116.536127674921
20
-9.11459614006546
30
0
41
1
10
116.594635654604
20
-9.08820321080418
30
0
41
1
10
116.711651613969
20
-8.99779751864207
30
0
41
1
10
116.770159593652
20
-8.93377147778295
30
0
41
1
10
116.887175553017
20
-8.76540650544109
30
0
41
1
10
116.9456835327
20
-8.66105579302533
30
0
41
1
10
117.062699492065
20
-8.41074860541605
30
0
41
1
10
117.121207471747
20
-8.26478405142521
30
0
41
1
10
117.238223431112
20
-7.93166303471156
30
0
41
1
10
117.296731410795
20
-7.74450416196748
30
0
41
1
10
117.41374737016
20
-7.33127955249455
30
0
41
1
10
117.472255349843
20
-7.10521821323854
30
0
41
1
10
117.589271309208
20
-6.61831844867675
30
0
41
1
10
117.647779288891
20
-6.35749109221663
30
0
41
1
10
117.764795248256
20
-5.80679990956134
30
0
41
1
10
117.823303227938
20
-5.51695231809714
30
0
41
1
10
117.940319187304
20
-4.91515546286251
30
0
41
1
10
117.998827166986
20
-4.60322506313145
30
0
41
1
10
118.115843126351
20
-3.96485449392122
30
0
41
1
10
118.174351106034
20
-3.63843291021271
30
0
41
1
10
118.291367065399
20
-2.97875591179093
30
0
41
1
10
118.349875045082
20
-2.64551625445384
30
0
41
1
10
118.466891004447
20
-1.97943864197043
30
0
41
1
10
118.525398984129
20
-1.6466119566075
30
0
41
1
10
118.642414943495
20
-0.987744530793378
30
0
41
1
10
118.700922923177
20
-0.661709996489691
30
0
41
1
10
118.77405789778
20
-0.261701519969819
30
0
41
1
10
118.788684892701
20
-0.182073643799725
30
0
41
1
10
118.817938882542
20
-0.023635852972717
30
0
41
1
10
118.832565877463
20
0.0550297964681477
30
0
41
1
10
118.876446862225
20
0.293009573823213
30
0
41
1
10
118.905700852066
20
0.453282999386346
30
0
41
1
10
118.99346282159
20
0.938083724982619
30
0
41
1
10
119.051970801273
20
1.26662719401668
30
0
41
1
10
119.168986760638
20
1.92881244529667
30
0
41
1
10
119.22749474032
20
2.26244658958655
30
0
41
1
10
119.344510699686
20
2.92816452604882
30
0
41
1
10
119.403018679368
20
3.26023567254481
30
0
41
1
10
119.520034638733
20
3.91542810441186
30
0
41
1
10
119.578542618416
20
4.23853261789094
30
0
41
1
10
119.695558577781
20
4.86808722456888
30
0
41
1
10
119.754066557464
20
5.17451836646117
30
0
41
1
10
119.871082516829
20
5.76326103158956
30
0
41
1
10
119.929590496511
20
6.04555414211001
30
0
41
1
10
120.046606455877
20
6.57936646211647
30
0
41
1
10
120.105114435559
20
6.83087067638184
30
0
41
1
10
120.222130394924
20
7.29777396997815
30
0
41
1
10
120.280638374607
20
7.51316377319279
30
0
41
1
10
120.397654333972
20
7.90420220251883
30
0
41
1
10
120.456162313655
20
8.07984840537497
30
0
41
1
10
120.57317827302
20
8.38963738938492
30
0
41
1
10
120.631686252702
20
8.52378434743892
30
0
41
1
10
120.748702212068
20
8.75065781801845
30
0
41
1
10
120.80721019175
20
8.84339367847068
30
0
41
1
10
120.924226151115
20
8.98916380715181
30
0
41
1
10
120.982734130798
20
9.04221050008746
30
0
41
1
10
121.099750090163
20
9.11162193171765
30
0
41
1
10
121.158258069846
20
9.12799999999999
30
0
41
1
10
121.216766049528
20
9.12799999999999
30
0
0
SPLINE
5
E3
100
AcDbEntity
8
1
62
256
6
ByLayer
370
13
48
1
60
0
100
AcDbSpline
70
4
71
3
72
42
73
38
40
0
40
0
40
0
40
0
40
0.0624999999999999
40
0.0624999999999999
40
0.125
40
0.125
40
0.1875
40
0.1875
40
0.25
40
0.25
40
0.3125
40
0.3125
40
0.374999999999999
40
0.374999999999999
40
0.437499999999999
40
0.437499999999999
40
0.499999999999999
40
0.499999999999999
40
0.562499999999999
40
0.562499999999999
40
0.624999999999999
40
0.624999999999999
40
0.6875
40
0.6875
40
0.75
40
0.75
40
0.765625
40
0.765625
40
0.78125
40
0.78125
40
0.8125
40
0.8125
40
0.875
40
0.875
40
0.9375
40
0.9375
40
1
40
1
40
1
40
1
41
1
10
122.036485941716
20
9.12799999999999
30
0
41
1
10
122.101927478381
20
9.12800000000001
30
0
41
1
10
122.167369015046
20
9.10750018638063
30
0
41
1
10
122.298252088375
20
9.02010768816109
30
0
41
1
10
122.36369362504
20
8.95319171343613
30
0
41
1
10
122.494576698369
20
8.76901640090807
30
0
41
1
10
122.560018235033
20
8.65173628124637
30
0
41
1
10
122.690901308363
20
8.36504651139643
30
0
41
1
10
122.756342845027
20
8.19562337414513
30
0
41
1
10
122.887225918356
20
7.80555855141597
30
0
41
1
10
122.952667455021
20
7.58491484855918
30
0
41
1
10
123.08355052835
20
7.09626441796814
30
0
41
1
10
123.148992065015
20
6.82826913115943
30
0
41
1
10
123.279875138344
20
6.25157913823983
30
0
41
1
10
123.345316675009
20
5.94290808564497
30
0
41
1
10
123.476199748338
20
5.29380364341378
30
0
41
1
10
123.541641285003
20
4.95340175163909
30
0
41
1
10
123.672524358332
20
4.25119938053723
30
0
41
1
10
123.737965894997
20
3.88943209506365
30
0
41
1
10
123.868848968326
20
3.15529428018698
30
0
41
1
10
123.93429050499
20
2.78295267799351
30
0
41
1
10
124.06517357832
20
2.03793926004826
30
0
41
1
10
124.130615114984
20
1.66528800474859
30
0
41
1
10
124.261498188313
20
0.928650016171247
30
0
41
1
10
124.326939724978
20
0.564673976988786
30
0
41
1
10
124.408741645809
20
0.119646894859301
30
0
41
1
10
124.425102029975
20
0.0314426175687572
30
0
41
1
10
124.457822798307
20
-0.145414870558739
30
0
41
1
10
124.474183182473
20
-0.23436348692303
30
0
41
1
10
124.523264334972
20
-0.502622700051234
30
0
41
1
10
124.555985103304
20
-0.683350357198975
30
0
41
1
10
124.654147408301
20
-1.22989328893982
30
0
41
1
10
124.719588944966
20
-1.60012144694912
30
0
41
1
10
124.850472018295
20
-2.34399631238722
30
0
41
1
10
124.91591355496
20
-2.71762629661856
30
0
41
1
10
125.046796628289
20
-3.45847653451324
30
0
41
1
10
125.112238164953
20
-3.82567079502323
30
0
41
1
10
125.177679701618
20
-4.18431836954608
30
0
0
SPLINE
5
E4
100
AcDbEntity
8
1
62
256
6
ByLayer
370
13
48
1
60
0
100
AcDbSpline
70
4
71
3
72
76
73
72
40
0
40
0
40
0
40
0
40
0.0312500000000029
40
0.0312500000000029
40
0.0625000000000058
40
0.0625000000000058
40
0.0703125000000062
40
0.0703125000000062
40
0.0781250000000067
40
0.093750000000007
40
0.093750000000007
40
0.125000000000007
40
0.125000000000007
40
0.156250000000007
40
0.156250000000007
40
0.187500000000008
40
0.187500000000008
40
0.218750000000008
40
0.218750000000008
40
0.250000000000008
40
0.250000000000008
40
0.281250000000008
40
0.281250000000008
40
0.312500000000009
40
0.312500000000009
40
0.343750000000009
40
0.343750000000009
40
0.375000000000009
40
0.375000000000009
40
0.406250000000009
40
0.406250000000009
40
0.43750000000001
40
0.43750000000001
40
0.46875000000001
40
0.46875000000001
40
0.50000000000001
40
0.50000000000001
40
0.531250000000011
40
0.531250000000011
40
0.539062500000011
40
0.539062500000011
40
0.546875000000011
40
0.562500000000011
40
0.562500000000011
40
0.59375000000001
40
0.59375000000001
40
0.625000000000009
40
0.625000000000009
40
0.656250000000008
40
0.656250000000008
40
0.687500000000008
40
0.687500000000008
40
0.718750000000007
40
0.718750000000007
40
0.750000000000006
40
0.750000000000006
40
0.781250000000005
40
0.781250000000005
40
0.812500000000005
40
0.812500000000005
40
0.843750000000004
40
0.843750000000004
40
0.875000000000003
40
0.875000000000003
40
0.906250000000002
40
0.906250000000002
40
0.937500000000002
40
0.937500000000002
40
0.968750000000001
40
0.968750000000001
40
1
40
1
40
1
40
1
41
1
10
115.6
20
-8.93835628335154
30
0
41
1
10
115.653350539408
20
-9.00107883157034
30
0
41
1
10
115.706701078816
20
-9.0474204862208
30
0
41
1
10
115.813402157632
20
-9.10966339389356
30
0
41
1
10
115.866752697039
20
-9.12557305810049
30
0
41
1
10
115.933440871299
20
-9.1282843078975
30
0
41
1
10
115.946778506151
20
-9.12797631252633
30
0
41
1
10
115.973453775855
20
-9.12563399704408
30
0
41
1
10
116.013466680411
20
-9.11952122491735
30
0
41
1
10
116.053479584967
20
-9.10539047462109
30
0
41
1
10
116.133505394079
20
-9.06589410018233
30
0
41
1
10
116.186855933487
20
-9.02456046573542
30
0
41
1
10
116.293557012303
20
-8.90945092239048
30
0
41
1
10
116.34690755171
20
-8.83566690570217
30
0
41
1
10
116.453608630526
20
-8.65403389719876
30
0
41
1
10
116.506959169934
20
-8.5461781905027
30
0
41
1
10
116.61366024875
20
-8.29583684256127
30
0
41
1
10
116.667010788157
20
-8.15334703040662
30
0
41
1
10
116.773711866973
20
-7.83439795701321
30
0
41
1
10
116.827062406381
20
-7.6579380109346
30
0
41
1
10
116.933763485197
20
-7.2730107748491
30
0
41
1
10
116.987114024605
20
-7.0645467659082
30
0
41
1
10
117.093815103421
20
-6.61883749690537
30
0
41
1
10
117.147165642828
20
-6.38159932834324
30
0
41
1
10
117.253866721644
20
-5.88267496392118
30
0
41
1
10
117.307217261052
20
-5.62099885849287
30
0
41
1
10
117.413918339868
20
-5.07837748948356
30
0
41
1
10
117.467268879276
20
-4.79744400196489
30
0
41
1
10
117.573969958091
20
-4.2219989004351
30
0
41
1
10
117.627320497499
20
-3.92749921911775
30
0
41
1
10
117.734021576315
20
-3.33076327902978
30
0
41
1
10
117.787372115723
20
-3.028537690365
30
0
41
1
10
117.894073194539
20
-2.42199767000506
30
0
41
1
10
117.947423733947
20
-2.11769160033731
30
0
41
1
10
118.054124812763
20
-1.51215541721061
30
0
41
1
10
118.10747535217
20
-1.21093082118284
30
0
41
1
10
118.214176430986
20
-0.616029659971417
30
0
41
1
10
118.267526970394
20
-0.322355734037274
30
0
41
1
10
118.334215144654
20
0.037733342722106
30
0
41
1
10
118.347552779506
20
0.109713315664209
30
0
41
1
10
118.37422804921
20
0.254674890234639
30
0
41
1
10
118.414240953766
20
0.473107956479652
30
0
41
1
10
118.454253858321
20
0.694274166879495
30
0
41
1
10
118.534279667433
20
1.13953957712349
30
0
41
1
10
118.587630206841
20
1.4403177968683
30
0
41
1
10
118.694331285657
20
2.04534333933617
30
0
41
1
10
118.747681825065
20
2.34958537799039
30
0
41
1
10
118.854382903881
20
2.95642796687645
30
0
41
1
10
118.907733443289
20
3.25902036833963
30
0
41
1
10
119.014434522104
20
3.85694940041603
30
0
41
1
10
119.067785061512
20
4.15227551220749
30
0
41
1
10
119.174486140328
20
4.72983646158997
30
0
41
1
10
119.227836679736
20
5.01205941839859
30
0
41
1
10
119.334537758552
20
5.55769773469049
30
0
41
1
10
119.38788829796
20
5.82110124922042
30
0
41
1
10
119.494589376775
20
6.32386515566503
30
0
41
1
10
119.547939916183
20
6.5632152704199
30
0
41
1
10
119.654640994999
20
7.01345543591248
30
0
41
1
10
119.707991534407
20
7.22433811935352
30
0
41
1
10
119.814692613223
20
7.61431462697581
30
0
41
1
10
119.86804315263
20
7.79340485288293
30
0
41
1
10
119.974744231446
20
8.11772305837661
30
0
41
1
10
120.028094770854
20
8.26295141784422
30
0
41
1
10
120.13479584967
20
8.51877635453152
30
0
41
1
10
120.188146389078
20
8.62937685570893
30
0
41
1
10
120.294847467894
20
8.81641358442644
30
0
41
1
10
120.348198007301
20
8.89285636585151
30
0
41
1
10
120.454899086117
20
9.01312113114429
30
0
41
1
10
120.508249625525
20
9.05695115471872
30
0
41
1
10
120.614950704341
20
9.11438638762544
30
0
41
1
10
120.668301243749
20
9.12800000000001
30
0
41
1
10
120.721651783157
20
9.12799999999999
30
0
0
SPLINE
5
E5
100
AcDbEntity
8
1
62
256
6
ByLayer
370
13
48
1
60
0
100
AcDbSpline
70
4
71
3
72
43
73
39
40
0
40
0
40
0
40
0
40
0.0625
40
0.0625
40
0.125
40
0.125
40
0.1875
40
0.1875
40
0.25
40
0.25
40
0.3125
40
0.3125
40
0.375
40
0.375
40
0.4375
40
0.4375
40
0.5
40
0.5
40
0.5625
40
0.5625
40
0.625
40
0.625
40
0.65625
40
0.65625
40
0.6640625
40
0.6640625
40
0.671875
40
0.6875
40
0.6875
40
0.75
40
0.75
40
0.8125
40
0.8125
40
0.875
40
0.875
40
0.9375
40
0.9375
40
1
40
1
40
1
40
1
41
1
10
121.541371675345
20
9.12799999999999
30
0
41
1
10
121.617128092559
20
9.12799999999999
30
0
41
1
10
121.692884509773
20
9.10050492474585
30
0
41
1
10
121.844397344201
20
8.98230996996273
30
0
41
1
10
121.920153761415
20
8.89156201701942
30
0
41
1
10
122.071666595843
20
8.64142067180174
30
0
41
1
10
122.147423013057
20
8.48198794200988
30
0
41
1
10
122.298935847485
20
8.09326070885692
30
0
41
1
10
122.374692264699
20
7.86394868303941
30
0
41
1
10
122.526205099127
20
7.3393734128706
30
0
41
1
10
122.601961516341
20
7.04412353612773
30
0
41
1
10
122.753474350769
20
6.39680058292171
30
0
41
1
10
122.829230767983
20
6.04477173530432
30
0
41
1
10
122.980743602411
20
5.29736174305782
30
0
41
1
10
123.056500019625
20
4.90204529434047
30
0
41
1
10
123.208012854053
20
4.08419077168938
30
0
41
1
10
123.283769271267
20
3.66172111738729
30
0
41
1
10
123.435282105695
20
2.80628615077185
30
0
41
1
10
123.511038522909
20
2.37337692992739
30
0
41
1
10
123.662551357337
20
1.51245817989383
30
0
41
1
10
123.738307774552
20
1.08448286352927
30
0
41
1
10
123.851942400372
20
0.455705243104802
30
0
41
1
10
123.88982060898
20
0.248285973040737
30
0
41
1
10
123.937168369738
20
-0.0074798861651857
30
0
41
1
10
123.94663792189
20
-0.0584951126826923
30
0
41
1
10
123.965577026194
20
-0.16109900507513
30
0
41
1
10
123.993985682649
20
-0.315517487345829
30
0
41
1
10
124.022394339104
20
-0.471390364135488
30
0
41
1
10
124.117089860622
20
-0.993795756910345
30
0
41
1
10
124.192846277836
20
-1.42089901933508
30
0
41
1
10
124.344359112264
20
-2.2810752315676
30
0
41
1
10
124.420115529478
20
-2.71411566814098
30
0
41
1
10
124.571628363906
20
-3.57097093285202
30
0
41
1
10
124.64738478112
20
-3.99473101001374
30
0
41
1
10
124.798897615548
20
-4.81636178818428
30
0
41
1
10
124.874654032762
20
-5.21416446820069
30
0
41
1
10
125.02616686719
20
-5.96763289215656
30
0
41
1
10
125.101923284404
20
-6.32323308719813
30
0
41
1
10
125.177679701618
20
-6.65088370480885
30
0
0
SPLINE
5
E6
100
AcDbEntity
8
1
62
256
6
ByLayer
370
13
48
1
60
0
100
AcDbSpline
70
4
71
3
72
62
73
58
40
0
40
0
40
0
40
0
40
0.0625000000000004
40
0.0625000000000004
40
0.0937500000000006
40
0.0937500000000006
40
0.125000000000001
40
0.125000000000001
40
0.156250000000001
40
0.156250000000001
40
0.187500000000001
40
0.187500000000001
40
0.218750000000001
40
0.218750000000001
40
0.250000000000001
40
0.250000000000001
40
0.281250000000002
40
0.281250000000002
40
0.312500000000002
40
0.312500000000002
40
0.343750000000002
40
0.343750000000002
40
0.375000000000002
40
0.375000000000002
40
0.437500000000002
40
0.437500000000002
40
0.468750000000002
40
0.468750000000002
40
0.476562500000002
40
0.476562500000002
40
0.484375000000002
40
0.484375000000002
40
0.500000000000002
40
0.500000000000002
40
0.562500000000002
40
0.562500000000002
40
0.625000000000002
40
0.625000000000002
40
0.656250000000002
40
0.656250000000002
40
0.687500000000002
40
0.687500000000002
40
0.718750000000001
40
0.718750000000001
40
0.750000000000001
40
0.750000000000001
40
0.781250000000001
40
0.781250000000001
40
0.812500000000001
40
0.812500000000001
40
0.843750000000001
40
0.843750000000001
40
0.875000000000001
40
0.875000000000001
40
0.9375
40
0.9375
40
1
40
1
40
1
40
1
41
1
10
115.6
20
-9.08444830019462
30
0
41
1
10
115.696386198266
20
-9.03179848689695
30
0
41
1
10
115.792772396533
20
-8.92950611615879
30
0
41
1
10
115.937351693932
20
-8.69257719026166
30
0
41
1
10
115.985544793065
20
-8.59975195302658
30
0
41
1
10
116.081930991332
20
-8.38587218167208
30
0
41
1
10
116.130124090465
20
-8.26481478161702
30
0
41
1
10
116.226510288731
20
-7.99472934530138
30
0
41
1
10
116.274703387865
20
-7.84570023387349
30
0
41
1
10
116.371089586131
20
-7.52078938493486
30
0
41
1
10
116.419282685264
20
-7.34490867897247
30
0
41
1
10
116.51566888353
20
-6.96827366489157
30
0
41
1
10
116.563861982663
20
-6.76752254728862
30
0
41
1
10
116.66024818093
20
-6.3439233354174
30
0
41
1
10
116.708441280063
20
-6.12108034389345
30
0
41
1
10
116.804827478329
20
-5.65674595999596
30
0
41
1
10
116.853020577463
20
-5.41526106524003
30
0
41
1
10
116.949406775729
20
-4.91758714660986
30
0
41
1
10
116.997599874862
20
-4.66140531568516
30
0
41
1
10
117.093986073128
20
-4.13856928271929
30
0
41
1
10
117.142179172262
20
-3.87192221311167
30
0
41
1
10
117.238565370528
20
-3.3324571240482
30
0
41
1
10
117.286758469661
20
-3.05964549406536
30
0
41
1
10
117.431337767061
20
-2.23820275146781
30
0
41
1
10
117.527723965327
20
-1.68680044226454
30
0
41
1
10
117.672303262727
20
-0.87582061028624
30
0
41
1
10
117.72049636186
20
-0.608127465812913
30
0
41
1
10
117.780737735776
20
-0.278604010908509
30
0
41
1
10
117.792786010559
20
-0.212952617921758
30
0
41
1
10
117.816882560126
20
-0.0821959978805467
30
0
41
1
10
117.828930834909
20
-0.0172688280661362
30
0
41
1
10
117.865075659259
20
0.178016458235248
30
0
41
1
10
117.889172208826
20
0.309338717757129
30
0
41
1
10
118.009654956659
20
0.970819405010815
30
0
41
1
10
118.106041154925
20
1.51591423092265
30
0
41
1
10
118.298813551458
20
2.61224205412387
30
0
41
1
10
118.395199749724
20
3.16335373637804
30
0
41
1
10
118.539779047124
20
3.97018437945297
30
0
41
1
10
118.587972146257
20
4.23578050681732
30
0
41
1
10
118.684358344523
20
4.7559879091331
30
0
41
1
10
118.732551443656
20
5.01059200493185
30
0
41
1
10
118.828937641923
20
5.5046070280209
30
0
41
1
10
118.877130741056
20
5.74401080680437
30
0
41
1
10
118.973516939322
20
6.2037293567752
30
0
41
1
10
119.021710038455
20
6.42403776628058
30
0
41
1
10
119.118096236722
20
6.84218781747092
30
0
41
1
10
119.166289335855
20
7.04002456781888
30
0
41
1
10
119.262675534121
20
7.4105429502516
30
0
41
1
10
119.310868633255
20
7.58322164922041
30
0
41
1
10
119.407254831521
20
7.90154402326553
30
0
41
1
10
119.455447930654
20
8.04718693372925
30
0
41
1
10
119.55183412892
20
8.31042227003323
30
0
41
1
10
119.600027228054
20
8.42801601210726
30
0
41
1
10
119.744606525453
20
8.73848165205942
30
0
41
1
10
119.840992723719
20
8.88870895732018
30
0
41
1
10
120.033765120252
20
9.08339042455927
30
0
41
1
10
120.130151318519
20
9.12799999999999
30
0
41
1
10
120.226537516785
20
9.12799999999999
30
0
0
SPLINE
5
E7
100
AcDbEntity
8
1
62
256
6
ByLayer
370
13
48
1
60
0
100
AcDbSpline
70
4
71
3
72
44
73
40
40
0
40
0
40
0
40
0
40
0.0624999999999991
40
0.0624999999999991
40
0.124999999999998
40
0.124999999999998
40
0.187499999999997
40
0.187499999999997
40
0.249999999999996
40
0.249999999999996
40
0.312499999999995
40
0.312499999999995
40
0.374999999999995
40
0.374999999999995
40
0.437499999999994
40
0.437499999999994
40
0.499999999999993
40
0.499999999999993
40
0.562499999999992
40
0.562499999999992
40
0.578124999999992
40
0.578124999999992
40
0.585937499999992
40
0.585937499999992
40
0.593749999999992
40
0.593749999999992
40
0.624999999999993
40
0.624999999999993
40
0.687499999999995
40
0.687499999999995
40
0.749999999999996
40
0.749999999999996
40
0.812499999999997
40
0.812499999999997
40
0.874999999999998
40
0.874999999999998
40
0.937499999999999
40
0.937499999999999
40
1
40
1
40
1
40
1
41
1
10
121.046257408973
20
9.12799999999999
30
0
41
1
10
121.132328706736
20
9.12800000000001
30
0
41
1
10
121.2184000045
20
9.09247102172972
30
0
41
1
10
121.390542600027
20
8.93854204811325
30
0
41
1
10
121.47661389779
20
8.82005217371287
30
0
41
1
10
121.648756493317
20
8.49331158917838
30
0
41
1
10
121.73482779108
20
8.2849956535872
30
0
41
1
10
121.906970386607
20
7.77925498741484
30
0
41
1
10
121.993041684371
20
7.48181986867834
30
0
41
1
10
122.165184279898
20
6.80727809492899
30
0
41
1
10
122.251255577661
20
6.43022973684569
30
0
41
1
10
122.423398173188
20
5.61399437090145
30
0
41
1
10
122.509469470951
20
5.17492017238985
30
0
41
1
10
122.681612066478
20
4.25761202208992
30
0
41
1
10
122.767683364242
20
3.77950835191447
30
0
41
1
10
122.939825959769
20
2.80876289825378
30
0
41
1
10
123.025897257532
20
2.31622866267782
30
0
41
1
10
123.198039853059
20
1.33917151518173
30
0
41
1
10
123.284111150822
20
0.854709329481892
30
0
41
1
10
123.391700273027
20
0.265314050443152
30
0
41
1
10
123.413218097468
20
0.148230827963459
30
0
41
1
10
123.445494834129
20
-0.0260330642505835
30
0
41
1
10
123.456253746349
20
-0.0840618161997213
30
0
41
1
10
123.47777157079
20
-0.200799740162466
30
0
41
1
10
123.488530483011
20
-0.259386850908356
30
0
41
1
10
123.542325044113
20
-0.553343019971635
30
0
41
1
10
123.585360692994
20
-0.791787735971155
30
0
41
1
10
123.71446763964
20
-1.51393407023079
30
0
41
1
10
123.800538937403
20
-2.00459355324068
30
0
41
1
10
123.97268153293
20
-2.98431063905761
30
0
41
1
10
124.058752830693
20
-3.47328474063667
30
0
41
1
10
124.23089542622
20
-4.42581179556919
30
0
41
1
10
124.316966723984
20
-4.88924260113907
30
0
41
1
10
124.489109319511
20
-5.76632316614734
30
0
41
1
10
124.575180617274
20
-6.17984524515396
30
0
41
1
10
124.747323212801
20
-6.9361007202462
30
0
41
1
10
124.833394510564
20
-7.27874249197137
30
0
41
1
10
125.005537106091
20
-7.87903004738251
30
0
41
1
10
125.091608403855
20
-8.13664874545094
30
0
41
1
10
125.177679701618
20
-8.34900008230869
30
0
0
SPLINE
5
E8
100
AcDbEntity
8
1
62
256
6
ByLayer
370
13
48
1
60
0
100
AcDbSpline
70
4
71
3
72
44
73
40
40
0
40
0
40
0
40
0
40
0.0625
40
0.0625
40
0.125
40
0.125
40
0.1875
40
0.1875
40
0.25
40
0.25
40
0.3125
40
0.3125
40
0.375
40
0.375
40
0.40625
40
0.40625
40
0.414062499999999
40
0.414062499999999
40
0.421874999999999
40
0.421874999999999
40
0.437499999999999
40
0.437499999999999
40
0.499999999999999
40
0.499999999999999
40
0.562499999999999
40
0.562499999999999
40
0.624999999999999
40
0.624999999999999
40
0.6875
40
0.6875
40
0.75
40
0.75
40
0.8125
40
0.8125
40
0.875
40
0.875
40
0.9375
40
0.9375
40
1
40
1
40
1
40
1
41
1
10
115.6
20
-8.34900244527
30
0
41
1
10
115.686071317717
20
-8.13665139229175
30
0
41
1
10
115.772142635434
20
-7.87903295489917
30
0
41
1
10
115.944285270868
20
-7.27874584673287
30
0
41
1
10
116.030356588585
20
-6.93610426136487
30
0
41
1
10
116.202499224018
20
-6.17984906743544
30
0
41
1
10
116.288570541735
20
-5.76632708316416
30
0
41
1
10
116.460713177169
20
-4.88924661396791
30
0
41
1
10
116.546784494886
20
-4.42581580957474
30
0
41
1
10
116.71892713032
20
-3.47328867614368
30
0
41
1
10
116.804998448037
20
-2.98431449509991
30
0
41
1
10
116.977141083471
20
-2.00459719226214
30
0
41
1
10
117.063212401188
20
-1.51393757191605
30
0
41
1
10
117.192319377763
20
-0.791791007481095
30
0
41
1
10
117.235355036622
20
-0.553346210730325
30
0
41
1
10
117.289149610195
20
-0.25938993756705
30
0
41
1
10
117.299908524909
20
-0.200802805842528
30
0
41
1
10
117.321426354339
20
-0.0840648396493577
30
0
41
1
10
117.332185269053
20
-0.0260360594512008
30
0
41
1
10
117.364462013197
20
0.148227849838747
30
0
41
1
10
117.385979842626
20
0.265311085031186
30
0
41
1
10
117.493568989773
20
0.85470643436696
30
0
41
1
10
117.57964030749
20
1.3391686981218
30
0
41
1
10
117.751782942923
20
2.31622604358171
30
0
41
1
10
117.83785426064
20
2.80876039909109
30
0
41
1
10
118.009996896074
20
3.77950612516787
30
0
41
1
10
118.096068213791
20
4.25760994776437
30
0
41
1
10
118.268210849225
20
5.17491841892195
30
0
41
1
10
118.354282166942
20
5.61399278572569
30
0
41
1
10
118.526424802376
20
6.43022848366184
30
0
41
1
10
118.612496120093
20
6.80727700527049
30
0
41
1
10
118.784638755527
20
7.48181908182696
30
0
41
1
10
118.870710073244
20
7.77925433971626
30
0
41
1
10
119.042852708678
20
8.28499524609461
30
0
41
1
10
119.128924026395
20
8.49331128270484
30
0
41
1
10
119.301066661828
20
8.82005202570605
30
0
41
1
10
119.387137979545
20
8.93854195760997
30
0
41
1
10
119.559280614979
20
9.09247100517911
30
0
41
1
10
119.645351932696
20
9.12799999999999
30
0
41
1
10
119.731423250413
20
9.12799999999999
30
0
0
SPLINE
5
E9
100
AcDbEntity
8
1
62
256
6
ByLayer
370
13
48
1
60
0
100
AcDbSpline
70
4
71
3
72
62
73
58
40
0
40
0
40
0
40
0
40
0.0624999999999985
40
0.0624999999999985
40
0.124999999999997
40
0.124999999999997
40
0.156249999999996
40
0.156249999999996
40
0.187499999999995
40
0.187499999999995
40
0.218749999999995
40
0.218749999999995
40
0.249999999999994
40
0.249999999999994
40
0.281249999999993
40
0.281249999999993
40
0.312499999999992
40
0.312499999999992
40
0.343749999999991
40
0.343749999999991
40
0.374999999999991
40
0.374999999999991
40
0.437499999999988
40
0.437499999999988
40
0.499999999999986
40
0.499999999999986
40
0.515624999999986
40
0.515624999999986
40
0.523437499999986
40
0.523437499999986
40
0.531249999999986
40
0.531249999999986
40
0.562499999999987
40
0.562499999999987
40
0.624999999999989
40
0.624999999999989
40
0.65624999999999
40
0.65624999999999
40
0.687499999999991
40
0.687499999999991
40
0.718749999999992
40
0.718749999999992
40
0.749999999999993
40
0.749999999999993
40
0.781249999999994
40
0.781249999999994
40
0.812499999999995
40
0.812499999999995
40
0.843749999999996
40
0.843749999999996
40
0.874999999999997
40
0.874999999999997
40
0.906249999999998
40
0.906249999999998
40
0.937499999999999
40
0.937499999999999
40
1
40
1
40
1
40
1
41
1
10
120.551143142601
20
9.12799999999999
30
0
41
1
10
120.647529320914
20
9.12799999999999
30
0
41
1
10
120.743915499227
20
9.0833904431434
30
0
41
1
10
120.936687855853
20
8.88870905964265
30
0
41
1
10
121.033074034165
20
8.73848181969055
30
0
41
1
10
121.177653301635
20
8.42801631392007
30
0
41
1
10
121.225846390791
20
8.31042262253106
30
0
41
1
10
121.322232569104
20
8.0471873986408
30
0
41
1
10
121.37042565826
20
7.90154454990508
30
0
41
1
10
121.466811836573
20
7.58322230874236
30
0
41
1
10
121.51500492573
20
7.41054368092443
30
0
41
1
10
121.611391104042
20
7.0400254479149
30
0
41
1
10
121.659584193199
20
6.84218877583317
30
0
41
1
10
121.755970371512
20
6.42403888544959
30
0
41
1
10
121.804163460668
20
6.20373055847676
30
0
41
1
10
121.900549638981
20
5.74401217466996
30
0
41
1
10
121.948742728138
20
5.50460847950924
30
0
41
1
10
122.045128906451
20
5.01059362151585
30
0
41
1
10
122.093321995607
20
4.75598960718176
30
0
41
1
10
122.18970817392
20
4.23578236258234
30
0
41
1
10
122.237901263076
20
3.97018631146307
30
0
41
1
10
122.382480530545
20
3.16335588532848
30
0
41
1
10
122.478866708858
20
2.61224433162607
30
0
41
1
10
122.671639065484
20
1.51591671952914
30
0
41
1
10
122.768025243797
20
0.970821976188688
30
0
41
1
10
122.888507966688
20
0.309341361455125
30
0
41
1
10
122.912604511266
20
0.178019114926911
30
0
41
1
10
122.948749328133
20
-0.0172661541182606
30
0
41
1
10
122.960797600422
20
-0.082193298580421
30
0
41
1
10
122.984894145001
20
-0.212949876407293
30
0
41
1
10
122.99694241729
20
-0.278601248440481
30
0
41
1
10
123.057183778735
20
-0.608124599484171
30
0
41
1
10
123.105376867892
20
-0.875817663758255
30
0
41
1
10
123.249956135361
20
-1.68679726948133
30
0
41
1
10
123.346342313674
20
-2.23819944702404
30
0
41
1
10
123.490921581143
20
-3.05964204472994
30
0
41
1
10
123.5391146703
20
-3.33245363518296
30
0
41
1
10
123.635500848612
20
-3.87191866626372
30
0
41
1
10
123.683693937769
20
-4.13856571742954
30
0
41
1
10
123.780080116082
20
-4.66140173743133
30
0
41
1
10
123.828273205238
20
-4.91758357384307
30
0
41
1
10
123.924659383551
20
-5.41525752917494
30
0
41
1
10
123.972852472708
20
-5.65674245515146
30
0
41
1
10
124.06923865102
20
-6.12107692775723
30
0
41
1
10
124.117431740177
20
-6.34391997677025
30
0
41
1
10
124.21381791849
20
-6.76751932904338
30
0
41
1
10
124.262011007646
20
-6.96827052955561
30
0
41
1
10
124.358397185959
20
-7.34490573268309
30
0
41
1
10
124.406590275115
20
-7.52078654477484
30
0
41
1
10
124.502976453428
20
-7.84569762582595
30
0
41
1
10
124.551169542585
20
-7.99472686322588
30
0
41
1
10
124.647555720897
20
-8.26481256707794
30
0
41
1
10
124.695748810054
20
-8.38587010868477
30
0
41
1
10
124.792134988367
20
-8.5997501739497
30
0
41
1
10
124.840328077523
20
-8.69257556353108
30
0
41
1
10
124.984907344992
20
-8.9295049552851
30
0
41
1
10
125.081293523305
20
-9.03179764807675
30
0
41
1
10
125.177679701618
20
-9.08444777702366
30
0
0
SPLINE
5
EA
100
AcDbEntity
8
1
62
256
6
ByLayer
370
13
48
1
60
0
100
AcDbSpline
70
4
71
3
72
43
73
39
40
0
40
0
40
0
40
0
40
0.0625000000000009
40
0.0625000000000009
40
0.125000000000002
40
0.125000000000002
40
0.187500000000003
40
0.187500000000003
40
0.250000000000004
40
0.250000000000004
40
0.312500000000005
40
0.312500000000005
40
0.328125000000005
40
0.335937500000005
40
0.335937500000005
40
0.343750000000005
40
0.343750000000005
40
0.375000000000005
40
0.375000000000005
40
0.437500000000005
40
0.437500000000005
40
0.500000000000004
40
0.500000000000004
40
0.562500000000004
40
0.562500000000004
40
0.625000000000003
40
0.625000000000003
40
0.687500000000003
40
0.687500000000003
40
0.750000000000002
40
0.750000000000002
40
0.812500000000002
40
0.812500000000002
40
0.875000000000001
40
0.875000000000001
40
0.937500000000001
40
0.937500000000001
40
1
40
1
40
1
40
1
41
1
10
115.6
20
-6.65088784720575
30
0
41
1
10
115.675756437167
20
-6.32323737760191
30
0
41
1
10
115.751512874335
20
-5.96763729072529
30
0
41
1
10
115.90302574867
20
-5.21416900015942
30
0
41
1
10
115.978782185838
20
-4.81636634540902
30
0
41
1
10
116.130295060173
20
-3.99473554198721
30
0
41
1
10
116.20605149734
20
-3.57097541442013
30
0
41
1
10
116.357564371675
20
-2.71411998837692
30
0
41
1
10
116.433320808843
20
-2.28107944101416
30
0
41
1
10
116.584833683178
20
-1.42090296612056
30
0
41
1
10
116.660590120345
20
-0.993799551942431
30
0
41
1
10
116.755285666805
20
-0.471393956061206
30
0
41
1
10
116.783694330743
20
-0.315521017327427
30
0
41
1
10
116.81210299468
20
-0.161102471910596
30
0
41
1
10
116.831042103972
20
-0.0584985371873472
30
0
41
1
10
116.840511658618
20
-0.007483287158891
30
0
41
1
10
116.887859431848
20
0.248282600728203
30
0
41
1
10
116.925737650432
20
0.455701898425389
30
0
41
1
10
117.039372306183
20
1.08447961605634
30
0
41
1
10
117.11512874335
20
1.51245501646088
30
0
41
1
10
117.266641617685
20
2.3733739709059
30
0
41
1
10
117.342398054853
20
2.80628331213333
30
0
41
1
10
117.493910929188
20
3.6617185485089
30
0
41
1
10
117.569667366356
20
4.08418835215346
30
0
41
1
10
117.721180240691
20
4.90204319016365
30
0
41
1
10
117.796936677858
20
5.29735980481715
30
0
41
1
10
117.948449552193
20
6.04477013005607
30
0
41
1
10
118.024205989361
20
6.39679914462502
30
0
41
1
10
118.175718863696
20
7.04412241694615
30
0
41
1
10
118.251475300864
20
7.33937244575878
30
0
41
1
10
118.402988175199
20
7.86394799213514
30
0
41
1
10
118.478744612366
20
8.09326014203842
30
0
41
1
10
118.630257486701
20
8.48198758734571
30
0
41
1
10
118.706013923869
20
8.64142040520716
30
0
41
1
10
118.857526798204
20
8.89156188830523
30
0
41
1
10
118.933283235371
20
8.98230989110272
30
0
41
1
10
119.084796109706
20
9.1005049102117
30
0
41
1
10
119.160552546874
20
9.12799999999999
30
0
41
1
10
119.236308984041
20
9.12799999999999
30
0
0
SPLINE
5
EB
100
AcDbEntity
8
1
62
256
6
ByLayer
370
13
48
1
60
0
100
AcDbSpline
70
4
71
3
72
78
73
74
40
0
40
0
40
0
40
0
40
0.0312500000000002
40
0.0312500000000002
40
0.0625000000000004
40
0.0625000000000004
40
0.0937500000000006
40
0.0937500000000006
40
0.125000000000001
40
0.125000000000001
40
0.156250000000001
40
0.156250000000001
40
0.187500000000001
40
0.187500000000001
40
0.218750000000001
40
0.218750000000001
40
0.250000000000002
40
0.250000000000002
40
0.281250000000002
40
0.281250000000002
40
0.312500000000002
40
0.312500000000002
40
0.343750000000002
40
0.343750000000002
40
0.375000000000002
40
0.375000000000002
40
0.406250000000002
40
0.406250000000002
40
0.437500000000003
40
0.437500000000003
40
0.453125000000003
40
0.453125000000003
40
0.460937500000003
40
0.460937500000003
40
0.468750000000003
40
0.468750000000003
40
0.500000000000003
40
0.500000000000003
40
0.531250000000003
40
0.531250000000003
40
0.562500000000003
40
0.562500000000003
40
0.593750000000003
40
0.593750000000003
40
0.625000000000003
40
0.625000000000003
40
0.656250000000003
40
0.656250000000003
40
0.687500000000003
40
0.687500000000003
40
0.718750000000003
40
0.718750000000003
40
0.750000000000003
40
0.750000000000003
40
0.781250000000003
40
0.781250000000003
40
0.812500000000003
40
0.812500000000003
40
0.843750000000003
40
0.843750000000003
40
0.875000000000003
40
0.875000000000003
40
0.906250000000003
40
0.906250000000003
40
0.921875000000003
40
0.921875000000003
40
0.929687500000003
40
0.929687500000003
40
0.937500000000003
40
0.937500000000003
40
0.968750000000002
40
0.968750000000002
40
1
40
1
40
1
40
1
41
1
10
120.05602887623
20
9.12799999999999
30
0
41
1
10
120.109379405661
20
9.12800000000001
30
0
41
1
10
120.162729935092
20
9.11438639272484
30
0
41
1
10
120.269430993954
20
9.05695118184113
30
0
41
1
10
120.322781523385
20
9.01312117519822
30
0
41
1
10
120.429482582247
20
8.89285645673732
30
0
41
1
10
120.482833111679
20
8.81641370521979
30
0
41
1
10
120.589534170541
20
8.62937704970463
30
0
41
1
10
120.642884699972
20
8.51877659182702
30
0
41
1
10
120.749585758834
20
8.26295175463127
30
0
41
1
10
120.802936288265
20
8.11772345135674
30
0
41
1
10
120.909637347128
20
7.79340536963338
30
0
41
1
10
120.962987876559
20
7.61431521130021
30
0
41
1
10
121.069688935421
20
7.22433884771607
30
0
41
1
10
121.123039464852
20
7.01345624073136
30
0
41
1
10
121.229740523714
20
6.56321623372921
30
0
41
1
10
121.283091053145
20
6.32386620099703
30
0
41
1
10
121.389792112008
20
5.82110246033758
30
0
41
1
10
121.443142641439
20
5.55769902955714
30
0
41
1
10
121.549843700301
20
5.01206087851449
30
0
41
1
10
121.603194229732
20
4.72983800319329
30
0
41
1
10
121.709895288595
20
4.15227721078546
30
0
41
1
10
121.763245818026
20
3.85695117447142
30
0
41
1
10
121.869946876888
20
3.25902228417766
30
0
41
1
10
121.923297406319
20
2.95642994901385
30
0
41
1
10
122.029998465181
20
2.3495874811986
30
0
41
1
10
122.083348994613
20
2.04534549731426
30
0
41
1
10
122.190050053475
20
1.44032005142941
30
0
41
1
10
122.243400582906
20
1.13954187349992
30
0
41
1
10
122.323426377053
20
0.694276515875515
30
0
41
1
10
122.350101641768
20
0.54683239147181
30
0
41
1
10
122.390114538842
20
0.327488570065753
30
0
41
1
10
122.403452171199
20
0.254677283059976
30
0
41
1
10
122.430127435915
20
0.109715721017807
30
0
41
1
10
122.443465068273
20
0.0377357456138441
30
0
41
1
10
122.510153230062
20
-0.32235322476518
30
0
41
1
10
122.563503759493
20
-0.616027068017331
30
0
41
1
10
122.670204818355
20
-1.21092807319795
30
0
41
1
10
122.723555347786
20
-1.51215259588764
30
0
41
1
10
122.830256406648
20
-2.11768864654684
30
0
41
1
10
122.883606936079
20
-2.42199465709967
30
0
41
1
10
122.990307994942
20
-3.02853457830724
30
0
41
1
10
123.043658524373
20
-3.3307601269513
30
0
41
1
10
123.150359583235
20
-3.92749601046091
30
0
41
1
10
123.203710112666
20
-4.2219956752372
30
0
41
1
10
123.310411171529
20
-4.79744077053965
30
0
41
1
10
123.36376170096
20
-5.07837426838543
30
0
41
1
10
123.470462759822
20
-5.6209956868405
30
0
41
1
10
123.523813289253
20
-5.88267183139479
30
0
41
1
10
123.630514348115
20
-6.38159630302127
30
0
41
1
10
123.683864877546
20
-6.61883453966138
30
0
41
1
10
123.790565936409
20
-7.06454397204939
30
0
41
1
10
123.84391646584
20
-7.27300807628905
30
0
41
1
10
123.950617524702
20
-7.65793552672923
30
0
41
1
10
124.003968054133
20
-7.83439559184893
30
0
41
1
10
124.110669112995
20
-8.15334492221888
30
0
41
1
10
124.164019642427
20
-8.2958348722905
30
0
41
1
10
124.270720701289
20
-8.54617650921941
30
0
41
1
10
124.32407123072
20
-8.65403236696721
30
0
41
1
10
124.430772289582
20
-8.8356656846812
30
0
41
1
10
124.484122819013
20
-8.90944985951214
30
0
41
1
10
124.590823877876
20
-9.02455972043438
30
0
41
1
10
124.644174407307
20
-9.06589351430415
30
0
41
1
10
124.724200201453
20
-9.10539012497887
30
0
41
1
10
124.750875466169
20
-9.11481070344485
30
0
41
1
10
124.790888363242
20
-9.12359607876115
30
0
41
1
10
124.8042259956
20
-9.12563388050805
30
0
41
1
10
124.830901260316
20
-9.12797627268603
30
0
41
1
10
124.844238892674
20
-9.12828430581146
30
0
41
1
10
124.910927054462
20
-9.12557324896321
30
0
41
1
10
124.964277583894
20
-9.10966375319848
30
0
41
1
10
125.070978642756
20
-9.0474212094008
30
0
41
1
10
125.124329172187
20
-9.00107975019142
30
0
41
1
10
125.177679701618
20
-8.9383574093674
30
0
0
SPLINE
5
EC
100
AcDbEntity
8
1
62
256
6
ByLayer
370
13
48
1
60
0
100
AcDbSpline
70
4
71
3
72
42
73
38
40
0
40
0
40
0
40
0
40
0.0624999999999986
40
0.0624999999999986
40
0.124999999999997
40
0.124999999999997
40
0.187499999999996
40
0.187499999999996
40
0.218749999999995
40
0.218749999999995
40
0.234374999999994
40
0.234374999999994
40
0.249999999999994
40
0.249999999999994
40
0.312499999999994
40
0.312499999999994
40
0.374999999999995
40
0.374999999999995
40
0.437499999999995
40
0.437499999999995
40
0.499999999999996
40
0.499999999999996
40
0.562499999999996
40
0.562499999999996
40
0.624999999999996
40
0.624999999999996
40
0.687499999999997
40
0.687499999999997
40
0.749999999999997
40
0.749999999999997
40
0.812499999999998
40
0.812499999999998
40
0.874999999999999
40
0.874999999999999
40
0.937499999999999
40
0.937499999999999
40
1
40
1
40
1
40
1
41
1
10
115.6
20
-4.18432361852294
30
0
41
1
10
115.665441556618
20
-3.82567601817391
30
0
41
1
10
115.730883113236
20
-3.45848170022074
30
0
41
1
10
115.861766226472
20
-2.71763129593711
30
0
41
1
10
115.927207783091
20
-2.34400120283686
30
0
41
1
10
116.058090896327
20
-1.60012608259117
30
0
41
1
10
116.123532452945
20
-1.22989777871104
30
0
41
1
10
116.221694787872
20
-0.683354611432407
30
0
41
1
10
116.254415566181
20
-0.502626872979562
30
0
41
1
10
116.303496733645
20
-0.23436753499206
30
0
41
1
10
116.319857122799
20
-0.145418876523536
30
0
41
1
10
116.352577901108
20
0.031438696578391
30
0
41
1
10
116.368938290263
20
0.119642974220142
30
0
41
1
10
116.450740236036
20
0.564670119999164
30
0
41
1
10
116.516181792654
20
0.928646226499438
30
0
41
1
10
116.64706490589
20
1.66528438245115
30
0
41
1
10
116.712506462508
20
2.0379357378238
30
0
41
1
10
116.843389575744
20
2.78294938545233
30
0
41
1
10
116.908831132362
20
3.15529111725394
30
0
41
1
10
117.039714245599
20
3.88942921424032
30
0
41
1
10
117.105155802217
20
4.25119665218995
30
0
41
1
10
117.236038915453
20
4.95339934145349
30
0
41
1
10
117.301480472071
20
5.293801398867
30
0
41
1
10
117.432363585307
20
5.94290617396251
30
0
41
1
10
117.497805141925
20
6.25157739372449
30
0
41
1
10
117.628688255162
20
6.82826771062494
30
0
41
1
10
117.69412981178
20
7.09626315419223
30
0
41
1
10
117.825012925016
20
7.58491387745005
30
0
41
1
10
117.890454481634
20
7.80555771617722
30
0
41
1
10
118.02133759487
20
8.19562278218771
30
0
41
1
10
118.086779151489
20
8.36504602683721
30
0
41
1
10
118.217662264725
20
8.65173597908529
30
0
41
1
10
118.283103821343
20
8.7690161737585
30
0
41
1
10
118.413986934579
20
8.95319160364897
30
0
41
1
10
118.479428491197
20
9.02010762075344
30
0
41
1
10
118.610311604434
20
9.10750017384888
30
0
41
1
10
118.675753161052
20
9.12800000000001
30
0
41
1
10
118.74119471767
20
9.12799999999999
30
0
0
SPLINE
5
ED
100
AcDbEntity
8
1
62
256
6
ByLayer
370
13
48
1
60
0
100
AcDbSpline
70
4
71
3
72
78
73
74
40
0
40
0
40
0
40
0
40
0.03125
40
0.03125
40
0.0625
40
0.0625
40
0.09375
40
0.09375
40
0.125
40
0.125
40
0.15625
40
0.15625
40
0.1875
40
0.1875
40
0.21875
40
0.21875
40
0.25
40
0.25
40
0.28125
40
0.28125
40
0.312499999999999
40
0.312499999999999
40
0.343749999999999
40
0.343749999999999
40
0.374999999999999
40
0.374999999999999
40
0.406249999999999
40
0.406249999999999
40
0.421874999999999
40
0.421874999999999
40
0.429687499999999
40
0.429687499999999
40
0.437499999999999
40
0.437499999999999
40
0.468749999999999
40
0.468749999999999
40
0.499999999999999
40
0.499999999999999
40
0.531249999999999
40
0.531249999999999
40
0.562499999999999
40
0.562499999999999
40
0.593749999999999
40
0.593749999999999
40
0.624999999999999
40
0.624999999999999
40
0.656249999999999
40
0.656249999999999
40
0.687499999999998
40
0.687499999999998
40
0.718749999999998
40
0.718749999999998
40
0.749999999999998
40
0.749999999999998
40
0.781249999999998
40
0.781249999999998
40
0.812499999999998
40
0.812499999999998
40
0.843749999999998
40
0.843749999999998
40
0.851562499999998
40
0.851562499999998
40
0.859374999999998
40
0.859374999999998
40
0.874999999999998
40
0.874999999999998
40
0.906249999999999
40
0.906249999999999
40
0.937499999999999
40
0.937499999999999
40
0.96875
40
0.96875
40
1
40
1
40
1
40
1
41
1
10
119.560914609858
20
9.12799999999999
30
0
41
1
10
119.619422579564
20
9.12800000000001
30
0
41
1
10
119.67793054927
20
9.11162193731377
30
0
41
1
10
119.794946488681
20
9.04221052999932
30
0
41
1
10
119.853454458387
20
8.98916385579463
30
0
41
1
10
119.970470397799
20
8.84339377896774
30
0
41
1
10
120.028978367504
20
8.75065795164875
30
0
41
1
10
120.145994306916
20
8.52378456198568
30
0
41
1
10
120.204502276622
20
8.38963765172076
30
0
41
1
10
120.321518216033
20
8.07984877693971
30
0
41
1
10
120.380026185739
20
7.90420263552284
30
0
41
1
10
120.497042125151
20
7.5131643403837
30
0
41
1
10
120.555550094857
20
7.29777460990869
30
0
41
1
10
120.672566034269
20
6.83087146954099
30
0
41
1
10
120.731074003974
20
6.57936733575005
30
0
41
1
10
120.848089943386
20
6.04555518000956
30
0
41
1
10
120.906597913092
20
5.76326215326228
30
0
41
1
10
121.023613852504
20
5.17451965419838
30
0
41
1
10
121.08212182221
20
4.86808859457901
30
0
41
1
10
121.199137761621
20
4.23853414636622
30
0
41
1
10
121.257645731327
20
3.91542970906468
30
0
41
1
10
121.374661670739
20
3.26023741958383
30
0
41
1
10
121.433169640445
20
2.92816633928788
30
0
41
1
10
121.550185579856
20
2.2624485224371
30
0
41
1
10
121.608693549562
20
1.92881443155679
30
0
41
1
10
121.725709488974
20
1.26662927271377
30
0
41
1
10
121.78421745868
20
0.938085842711018
30
0
41
1
10
121.871979413238
20
0.453285164572748
30
0
41
1
10
121.901233398091
20
0.293011752989656
30
0
41
1
10
121.945114375371
20
0.0550319938800214
30
0
41
1
10
121.959741367797
20
-0.0236336452687169
30
0
41
1
10
121.98899535265
20
-0.182071393743911
30
0
41
1
10
122.003622345076
20
-0.261699248917012
30
0
41
1
10
122.076757307209
20
-0.661707621550448
30
0
41
1
10
122.135265276915
20
-0.987742076238135
30
0
41
1
10
122.252281216326
20
-1.6466093554254
30
0
41
1
10
122.310789186032
20
-1.97943597379563
30
0
41
1
10
122.427805125444
20
-2.64551347082713
30
0
41
1
10
122.48631309515
20
-2.97875307972811
30
0
41
1
10
122.603329034561
20
-3.6384300053991
30
0
41
1
10
122.661837004267
20
-3.96485156481748
30
0
41
1
10
122.778852943679
20
-4.6032221140859
30
0
41
1
10
122.837360913385
20
-4.91515251818629
30
0
41
1
10
122.954376852796
20
-5.51694941354222
30
0
41
1
10
123.012884822502
20
-5.80679704077068
30
0
41
1
10
123.129900761914
20
-6.35748832679229
30
0
41
1
10
123.18840873162
20
-6.61831575085455
30
0
41
1
10
123.305424671031
20
-7.10521568042847
30
0
41
1
10
123.363932640737
20
-7.33127711708192
30
0
41
1
10
123.480948580149
20
-7.74450194683104
30
0
41
1
10
123.539456549855
20
-7.93166094243142
30
0
41
1
10
123.656472489266
20
-8.26478222425382
30
0
41
1
10
123.714980458972
20
-8.41074692046985
30
0
41
1
10
123.831996398384
20
-8.66105440484759
30
0
41
1
10
123.89050436809
20
-8.7654052717802
30
0
41
1
10
124.007520307501
20
-8.93377055822876
30
0
41
1
10
124.066028277207
20
-8.99779675865665
30
0
41
1
10
124.183044216619
20
-9.08820276834484
30
0
41
1
10
124.241552186325
20
-9.11459585555011
30
0
41
1
10
124.314687148457
20
-9.12637710646246
30
0
41
1
10
124.329314140883
20
-9.12767478129146
30
0
41
1
10
124.358568125736
20
-9.12821745534305
30
0
41
1
10
124.373195118163
20
-9.12746902121003
30
0
41
1
10
124.417076095442
20
-9.12207630363213
30
0
41
1
10
124.446330080295
20
-9.11427920839955
30
0
41
1
10
124.534092034854
20
-9.07754526031093
30
0
41
1
10
124.59260000456
20
-9.03523352281837
30
0
41
1
10
124.709615943972
20
-8.9116737499472
30
0
41
1
10
124.768123913677
20
-8.83041282309654
30
0
41
1
10
124.885139853089
20
-8.62682481469022
30
0
41
1
10
124.943647822795
20
-8.50448728771423
30
0
41
1
10
125.060663762207
20
-8.21816282028004
30
0
41
1
10
125.119171731912
20
-8.05417005390865
30
0
41
1
10
125.177679701618
20
-7.8699604250335
30
0
0
SPLINE
5
EE
100
AcDbEntity
8
1
62
256
6
ByLayer
370
13
48
1
60
0
100
AcDbSpline
70
4
71
3
72
42
73
38
40
0
40
0
40
0
40
0
40
0.0625000000000011
40
0.0625000000000011
40
0.0937500000000011
40
0.0937500000000011
40
0.109375000000001
40
0.109375000000001
40
0.125
40
0.125
40
0.1875
40
0.1875
40
0.25
40
0.25
40
0.3125
40
0.3125
40
0.375
40
0.375
40
0.4375
40
0.4375
40
0.5
40
0.5
40
0.5625
40
0.5625
40
0.625
40
0.625
40
0.6875
40
0.6875
40
0.75
40
0.75
40
0.8125
40
0.8125
40
0.875
40
0.875
40
0.9375
40
0.9375
40
1
40
1
40
1
40
1
41
1
10
115.6
20
-1.39167794206881
30
0
41
1
10
115.655126676069
20
-1.08082304971884
30
0
41
1
10
115.710253352137
20
-0.772783930973134
30
0
41
1
10
115.79294336624
20
-0.318324237916556
30
0
41
1
10
115.820506704275
20
-0.168096964451735
30
0
41
1
10
115.861851711326
20
0.0549999086670425
30
0
41
1
10
115.875633380344
20
0.129499789447976
30
0
41
1
10
115.903196718378
20
0.279426604500344
30
0
41
1
10
115.916978387395
20
0.354740011178052
30
0
41
1
10
115.985886732481
20
0.732905988808767
30
0
41
1
10
116.04101340855
20
1.0405919394486
30
0
41
1
10
116.151266760687
20
1.66180997833933
30
0
41
1
10
116.206393436756
20
1.97533733139122
30
0
41
1
10
116.316646788893
20
2.60290223240946
30
0
41
1
10
116.371773464962
20
2.91693149583617
30
0
41
1
10
116.482026817099
20
3.53948626940445
30
0
41
1
10
116.537153493168
20
3.84800030755454
30
0
41
1
10
116.647406845305
20
4.45313109745888
30
0
41
1
10
116.702533521374
20
4.74973422862533
30
0
41
1
10
116.812786873512
20
5.32465118843851
30
0
41
1
10
116.86791354958
20
5.60295086871801
30
0
41
1
10
116.978166901718
20
6.13529374694718
30
0
41
1
10
117.033293577786
20
6.38932418231016
30
0
41
1
10
117.143546929924
20
6.86799744943113
30
0
41
1
10
117.198673605992
20
7.0926306922795
30
0
41
1
10
117.30892695813
20
7.50855641861006
30
0
41
1
10
117.364053634199
20
7.69984373273584
30
0
41
1
10
117.474306986336
20
8.04652795458907
30
0
41
1
10
117.529433662405
20
8.20192454502748
30
0
41
1
10
117.639687014542
20
8.47576432753004
30
0
41
1
10
117.694813690611
20
8.59421163499124
30
0
41
1
10
117.805067042748
20
8.79451715398739
30
0
41
1
10
117.860193718817
20
8.87638283025058
30
0
41
1
10
117.970447070954
20
9.00513827034507
30
0
41
1
10
118.025573747023
20
9.05203742616879
30
0
41
1
10
118.135827099161
20
9.11346334128629
30
0
41
1
10
118.190953775229
20
9.12799999999999
30
0
41
1
10
118.246080451298
20
9.12799999999999
30
0
0
SPLINE
5
EF
100
AcDbEntity
8
1
62
256
6
ByLayer
370
13
48
1
60
0
100
AcDbSpline
70
4
71
3
72
77
73
73
40
0
40
0
40
0
40
0
40
0.0312500000000004
40
0.0312500000000004
40
0.0625000000000007
40
0.0625000000000007
40
0.0937500000000011
40
0.0937500000000011
40
0.125000000000001
40
0.125000000000001
40
0.156250000000002
40
0.156250000000002
40
0.187500000000002
40
0.187500000000002
40
0.218750000000002
40
0.218750000000002
40
0.250000000000003
40
0.250000000000003
40
0.281250000000003
40
0.281250000000003
40
0.312500000000003
40
0.312500000000003
40
0.343750000000004
40
0.343750000000004
40
0.375000000000004
40
0.375000000000004
40
0.390625000000004
40
0.390625000000004
40
0.398437500000004
40
0.398437500000004
40
0.406250000000004
40
0.406250000000004
40
0.437500000000004
40
0.437500000000004
40
0.468750000000003
40
0.468750000000003
40
0.500000000000003
40
0.500000000000003
40
0.531250000000003
40
0.531250000000003
40
0.562500000000003
40
0.562500000000003
40
0.593750000000003
40
0.593750000000003
40
0.625000000000003
40
0.625000000000003
40
0.656250000000003
40
0.656250000000003
40
0.687500000000003
40
0.687500000000003
40
0.718750000000002
40
0.718750000000002
40
0.750000000000002
40
0.750000000000002
40
0.781250000000002
40
0.781250000000002
40
0.789062500000002
40
0.789062500000002
40
0.796875000000001
40
0.812500000000001
40
0.812500000000001
40
0.843750000000001
40
0.843750000000001
40
0.875000000000001
40
0.875000000000001
40
0.906250000000001
40
0.906250000000001
40
0.937500000000001
40
0.937500000000001
40
0.96875
40
0.96875
40
1
40
1
40
1
40
1
41
1
10
119.065800343486
20
9.12799999999999
30
0
41
1
10
119.129465753467
20
9.12799999999999
30
0
41
1
10
119.193131163447
20
9.10860038513135
30
0
41
1
10
119.320461983408
20
9.02602095725425
30
0
41
1
10
119.384127393389
20
8.96282083333028
30
0
41
1
10
119.51145821335
20
8.7889359916179
30
0
41
1
10
119.57512362333
20
8.67823292806565
30
0
41
1
10
119.702454443292
20
8.40754607562735
30
0
41
1
10
119.766119853272
20
8.24754985337276
30
0
41
1
10
119.893450673233
20
7.87886606772594
30
0
41
1
10
119.957116083214
20
7.67017552731048
30
0
41
1
10
120.084446903175
20
7.20732192652233
30
0
41
1
10
120.148112313155
20
6.95316724355155
30
0
41
1
10
120.275443133116
20
6.40515781299686
30
0
41
1
10
120.339108543097
20
6.11132215136379
30
0
41
1
10
120.466439363058
20
5.49185969553864
30
0
41
1
10
120.530104773039
20
5.16625945307302
30
0
41
1
10
120.657435593
20
4.49261383834192
30
0
41
1
10
120.72110100298
20
4.14459756038258
30
0
41
1
10
120.848431822941
20
3.43604816804856
30
0
41
1
10
120.912097232922
20
3.07554159154054
30
0
41
1
10
121.039428052883
20
2.3516684474555
30
0
41
1
10
121.103093462863
20
1.98832200775436
30
0
41
1
10
121.230424282824
20
1.2674412315117
30
0
41
1
10
121.294089692805
20
0.909918785163995
30
0
41
1
10
121.389587807776
20
0.38339566570923
30
0
41
1
10
121.421420512766
20
0.20950217360371
30
0
41
1
10
121.469169570252
20
-0.0483614880315031
30
0
41
1
10
121.485085922747
20
-0.134302670890378
30
0
41
1
10
121.516918627737
20
-0.307570070805752
30
0
41
1
10
121.532834980232
20
-0.394667796920544
30
0
41
1
10
121.612416742708
20
-0.832241691172129
30
0
41
1
10
121.676082152688
20
-1.18903786376714
30
0
41
1
10
121.803412972649
20
-1.90904426779491
30
0
41
1
10
121.86707838263
20
-2.27224322451221
30
0
41
1
10
121.994409202591
20
-2.99649357439836
30
0
41
1
10
122.058074612572
20
-3.3575254050447
30
0
41
1
10
122.185405432533
20
-4.06784801047334
30
0
41
1
10
122.249070842513
20
-4.41711260665542
30
0
41
1
10
122.376401662474
20
-5.09397015174505
30
0
41
1
10
122.440067072455
20
-5.42153402825903
30
0
41
1
10
122.567397892416
20
-6.0455675194163
30
0
41
1
10
122.631063302396
20
-6.34201021882515
30
0
41
1
10
122.758394122358
20
-6.8957468922674
30
0
41
1
10
122.822059532338
20
-7.15302109825024
30
0
41
1
10
122.949390352299
20
-7.6224532955587
30
0
41
1
10
123.01305576228
20
-7.83460207283807
30
0
41
1
10
123.140386582241
20
-8.21034873629955
30
0
41
1
10
123.204051992221
20
-8.37394880822637
30
0
41
1
10
123.331382812182
20
-8.65180228071091
30
0
41
1
10
123.395048222163
20
-8.766067531803
30
0
41
1
10
123.522379042124
20
-8.94687502969725
30
0
41
1
10
123.586044452105
20
-9.01343532662455
30
0
41
1
10
123.713375272066
20
-9.10241298026375
30
0
41
1
10
123.777040682046
20
-9.12485062856155
30
0
41
1
10
123.856622444522
20
-9.12839962361363
30
0
41
1
10
123.872538797017
20
-9.12789940569374
30
0
41
1
10
123.904371502007
20
-9.12442963811787
30
0
41
1
10
123.952120559493
20
-9.11550671159031
30
0
41
1
10
123.999869616978
20
-9.09505662391791
30
0
41
1
10
124.095367731949
20
-9.03788548570003
30
0
41
1
10
124.159033141929
20
-8.97802555987909
30
0
41
1
10
124.286363961891
20
-8.8110336320654
30
0
41
1
10
124.350029371871
20
-8.70388301015933
30
0
41
1
10
124.477360191832
20
-8.44035608740788
30
0
41
1
10
124.541025601813
20
-8.28396678980491
30
0
41
1
10
124.668356421774
20
-7.92236617191796
30
0
41
1
10
124.732021831754
20
-7.717151093864
30
0
41
1
10
124.859352651715
20
-7.26092428772159
30
0
41
1
10
124.923018061696
20
-7.00992009698524
30
0
41
1
10
125.050348881657
20
-6.46771134773542
30
0
41
1
10
125.114014291638
20
-6.17652517538463
30
0
41
1
10
125.177679701618
20
-5.86912577616826
30
0
0
SPLINE
5
F0
100
AcDbEntity
8
1
62
256
6
ByLayer
370
13
48
1
60
0
100
AcDbSpline
70
4
71
3
72
22
73
18
40
0
40
0
40
0
40
0
40
0.125
40
0.125
40
0.25
40
0.25
40
0.375
40
0.375
40
0.5
40
0.5
40
0.625
40
0.625
40
0.75
40
0.75
40
0.875
40
0.875
40
1
40
1
40
1
40
1
41
1
10
115.6
20
1.34542136116366
30
0
41
1
10
115.689623591039
20
1.85034351285813
30
0
41
1
10
115.779247182077
20
2.36315026990712
30
0
41
1
10
115.958494364154
20
3.38068995344449
30
0
41
1
10
116.048117955193
20
3.88530607553309
30
0
41
1
10
116.22736513727
20
4.85898227128086
30
0
41
1
10
116.316988728309
20
5.32788581933872
30
0
41
1
10
116.496235910386
20
6.20334511394594
30
0
41
1
10
116.585859501424
20
6.60975430110344
30
0
41
1
10
116.765106683502
20
7.33887899132972
30
0
41
1
10
116.85473027454
20
7.66151006439353
30
0
41
1
10
117.033977456617
20
8.21083094203652
30
0
41
1
10
117.123601047656
20
8.43752328777779
30
0
41
1
10
117.302848229733
20
8.79310489004914
30
0
41
1
10
117.392471820772
20
8.92206956540716
30
0
41
1
10
117.571719002849
20
9.08946241847468
30
0
41
1
10
117.661342593887
20
9.12799999999999
30
0
41
1
10
117.750966184926
20
9.12799999999999
30
0
0
SPLINE
5
F1
100
AcDbEntity
8
1
62
256
6
ByLayer
370
13
48
1
60
0
100
AcDbSpline
70
4
71
3
72
80
73
76
40
0
40
0
40
0
40
0
40
0.0312500000000004
40
0.0312500000000004
40
0.0625000000000007
40
0.0625000000000007
40
0.0937500000000011
40
0.0937500000000011
40
0.125000000000001
40
0.125000000000001
40
0.156250000000002
40
0.156250000000002
40
0.187500000000002
40
0.187500000000002
40
0.218750000000003
40
0.218750000000003
40
0.250000000000003
40
0.250000000000003
40
0.281250000000003
40
0.281250000000003
40
0.312500000000004
40
0.312500000000004
40
0.343750000000004
40
0.343750000000004
40
0.359375000000004
40
0.359375000000004
40
0.367187500000005
40
0.367187500000005
40
0.375000000000005
40
0.375000000000005
40
0.406250000000004
40
0.406250000000004
40
0.437500000000004
40
0.437500000000004
40
0.468750000000004
40
0.468750000000004
40
0.500000000000003
40
0.500000000000003
40
0.531250000000003
40
0.531250000000003
40
0.562500000000002
40
0.562500000000002
40
0.593750000000002
40
0.593750000000002
40
0.625000000000001
40
0.625000000000001
40
0.656250000000001
40
0.656250000000001
40
0.687500000000001
40
0.687500000000001
40
0.71875
40
0.71875
40
0.72265625
40
0.72265625
40
0.7265625
40
0.7265625
40
0.734375
40
0.734375
40
0.75
40
0.75
40
0.78125
40
0.78125
40
0.8125
40
0.8125
40
0.84375
40
0.84375
40
0.875
40
0.875
40
0.90625
40
0.90625
40
0.9375
40
0.9375
40
0.96875
40
0.96875
40
1
40
1
40
1
40
1
41
1
10
118.570686077114
20
9.12799999999999
30
0
41
1
10
118.63950892737
20
9.12799999999999
30
0
41
1
10
118.708331777625
20
9.10532107633856
30
0
41
1
10
118.845977478135
20
9.00836887768122
30
0
41
1
10
118.91480032839
20
8.93406569370458
30
0
41
1
10
119.052446028901
20
8.72943434738332
30
0
41
1
10
119.121268879156
20
8.59908016349476
30
0
41
1
10
119.258914579667
20
8.28064141926436
30
0
41
1
10
119.327737429922
20
8.0925415186079
30
0
41
1
10
119.465383130433
20
7.66027802417693
30
0
41
1
10
119.534205980688
20
7.41611533837781
30
0
41
1
10
119.671851681198
20
6.87700066199503
30
0
41
1
10
119.740674531454
20
6.58206776579536
30
0
41
1
10
119.878320231964
20
5.94999772008396
30
0
41
1
10
119.947143082219
20
5.61289484814998
30
0
41
1
10
120.08478878273
20
4.90756345794486
30
0
41
1
10
120.153611632985
20
4.53937716352632
30
0
41
1
10
120.291257333495
20
3.78427236716073
30
0
41
1
10
120.360080183751
20
3.39739509455467
30
0
41
1
10
120.497725884261
20
2.61732997493337
30
0
41
1
10
120.566548734517
20
2.2241747759204
30
0
41
1
10
120.704194435027
20
1.44286852634644
30
0
41
1
10
120.773017285282
20
1.05473739772742
30
0
41
1
10
120.876251560665
20
0.483348946970267
30
0
41
1
10
120.910662985793
20
0.294670809265597
30
0
41
1
10
120.962280123484
20
0.0150500874462125
30
0
41
1
10
120.979485836048
20
-0.0774745395540322
30
0
41
1
10
121.013897261176
20
-0.264388247792113
30
0
41
1
10
121.031102973739
20
-0.358397529369995
30
0
41
1
10
121.117131536559
20
-0.830912610415453
30
0
41
1
10
121.185954386814
20
-1.21691201418864
30
0
41
1
10
121.323600087324
20
-1.99594218503483
30
0
41
1
10
121.392422937579
20
-2.38895564396353
30
0
41
1
10
121.53006863809
20
-3.1710451907318
30
0
41
1
10
121.598891488345
20
-3.56009090026583
30
0
41
1
10
121.736537188856
20
-4.32197723123596
30
0
41
1
10
121.805360039111
20
-4.69477778283104
30
0
41
1
10
121.943005739621
20
-5.41168094615335
30
0
41
1
10
122.011828589877
20
-5.75574082925326
30
0
41
1
10
122.149474290387
20
-6.40371701715512
30
0
41
1
10
122.218297140642
20
-6.70759684003804
30
0
41
1
10
122.355942841153
20
-7.26603772013954
30
0
41
1
10
122.424765691408
20
-7.52057634670336
30
0
41
1
10
122.562411391919
20
-7.97434150699212
30
0
41
1
10
122.631234242174
20
-8.1735636091299
30
0
41
1
10
122.768879942684
20
-8.51429791027053
30
0
41
1
10
122.83770279294
20
-8.65582265003556
30
0
41
1
10
122.97534849345
20
-8.8822297174697
30
0
41
1
10
123.044171343705
20
-8.96713652270816
30
0
41
1
10
123.181817044216
20
-9.08426287466565
30
0
41
1
10
123.250639894471
20
-9.11651208531299
30
0
41
1
10
123.328065601008
20
-9.12653314225136
30
0
41
1
10
123.33666845729
20
-9.12728284623901
30
0
41
1
10
123.353874169854
20
-9.12806788565712
30
0
41
1
10
123.362477026136
20
-9.12810470427655
30
0
41
1
10
123.388285594982
20
-9.12715117920695
30
0
41
1
10
123.405491307545
20
-9.12508939852054
30
0
41
1
10
123.457108445237
20
-9.11446957750667
30
0
41
1
10
123.491519870364
20
-9.10147411021617
30
0
41
1
10
123.594754145747
20
-9.04358358688714
30
0
41
1
10
123.663576996003
20
-8.97971465887008
30
0
41
1
10
123.801222696513
20
-8.79662356450538
30
0
41
1
10
123.870045546768
20
-8.67737409544205
30
0
41
1
10
124.007691247279
20
-8.38122746180926
30
0
41
1
10
124.076514097534
20
-8.2043123748079
30
0
41
1
10
124.214159798045
20
-7.79381327159376
30
0
41
1
10
124.2829826483
20
-7.56022671711185
30
0
41
1
10
124.42062834881
20
-7.04096491019612
30
0
41
1
10
124.489451199066
20
-6.75530530058327
30
0
41
1
10
124.627096899576
20
-6.13988913581446
30
0
41
1
10
124.695919749831
20
-5.81016437319025
30
0
41
1
10
124.833565450342
20
-5.11729678543423
30
0
41
1
10
124.902388300597
20
-4.75419533284219
30
0
41
1
10
125.040034001108
20
-4.00681381054895
30
0
41
1
10
125.108856851363
20
-3.62257583741982
30
0
41
1
10
125.177679701618
20
-3.23400498595873
30
0
0
SPLINE
5
F2
100
AcDbEntity
8
1
62
256
6
ByLayer
370
13
48
1
60
0
100
AcDbSpline
70
4
71
3
72
22
73
18
40
0
40
0
40
0
40
0
40
0.125
40
0.125
40
0.25
40
0.25
40
0.375
40
0.375
40
0.5
40
0.5
40
0.625
40
0.625
40
0.75
40
0.75
40
0.875
40
0.875
40
1
40
1
40
1
40
1
41
1
10
115.6
20
4.13930245427693
30
0
41
1
10
115.66899382994
20
4.51816268854262
30
0
41
1
10
115.737987659879
20
4.88773607096144
30
0
41
1
10
115.875975319759
20
5.59589618149036
30
0
41
1
10
115.944969149699
20
5.93444010073065
30
0
41
1
10
116.082956809578
20
6.56933240704359
30
0
41
1
10
116.151950639518
20
6.86564590859862
30
0
41
1
10
116.289938299398
20
7.40735652893653
30
0
41
1
10
116.358932129337
20
7.6527340955773
30
0
41
1
10
116.496919789217
20
8.08718223125572
30
0
41
1
10
116.565913619157
20
8.2762516993966
30
0
41
1
10
116.703901279036
20
8.5963403022445
30
0
41
1
10
116.772895108976
20
8.72737486245529
30
0
41
1
10
116.910882768856
20
8.93307079480962
30
0
41
1
10
116.979876598795
20
9.00775847495254
30
0
41
1
10
117.117864258675
20
9.10520793794373
30
0
41
1
10
117.186858088615
20
9.12800000000001
30
0
41
1
10
117.255851918554
20
9.12799999999999
30
0
0
SPLINE
5
F3
100
AcDbEntity
8
1
62
256
6
ByLayer
370
13
48
1
60
0
100
AcDbSpline
70
4
71
3
72
81
73
77
40
0
40
0
40
0
40
0
40
0.0312500000000013
40
0.0312500000000013
40
0.0625000000000026
40
0.0625000000000026
40
0.093750000000004
40
0.093750000000004
40
0.125000000000005
40
0.125000000000005
40
0.156250000000007
40
0.156250000000007
40
0.187500000000008
40
0.187500000000008
40
0.218750000000009
40
0.218750000000009
40
0.250000000000011
40
0.250000000000011
40
0.281250000000012
40
0.281250000000012
40
0.312500000000013
40
0.312500000000013
40
0.328125000000014
40
0.328125000000014
40
0.335937500000014
40
0.335937500000014
40
0.339843750000014
40
0.339843750000014
40
0.343750000000015
40
0.343750000000015
40
0.375000000000016
40
0.375000000000016
40
0.406250000000017
40
0.406250000000017
40
0.437500000000018
40
0.437500000000018
40
0.468750000000019
40
0.468750000000019
40
0.50000000000002
40
0.50000000000002
40
0.531250000000021
40
0.531250000000021
40
0.562500000000022
40
0.562500000000022
40
0.593750000000023
40
0.593750000000023
40
0.625000000000024
40
0.625000000000024
40
0.656250000000025
40
0.656250000000025
40
0.671875000000025
40
0.671875000000025
40
0.675781250000025
40
0.675781250000025
40
0.679687500000025
40
0.687500000000025
40
0.687500000000025
40
0.718750000000022
40
0.718750000000022
40
0.75000000000002
40
0.75000000000002
40
0.781250000000017
40
0.781250000000017
40
0.812500000000015
40
0.812500000000015
40
0.843750000000012
40
0.843750000000012
40
0.87500000000001
40
0.87500000000001
40
0.906250000000007
40
0.906250000000007
40
0.937500000000005
40
0.937500000000005
40
0.968750000000002
40
0.968750000000002
40
1
40
1
40
1
40
1
41
1
10
118.075571810743
20
9.12799999999999
30
0
41
1
10
118.149552101273
20
9.12800000000001
30
0
41
1
10
118.223532391802
20
9.10178326791907
30
0
41
1
10
118.371492972862
20
8.98924112894255
30
0
41
1
10
118.445473263392
20
8.90287295748672
30
0
41
1
10
118.593433844452
20
8.66484706736469
30
0
41
1
10
118.667414134982
20
8.5131537547833
30
0
41
1
10
118.815374716042
20
8.14308781481918
30
0
41
1
10
118.889355006572
20
7.92469790757085
30
0
41
1
10
119.037315587632
20
7.42447583950519
30
0
41
1
10
119.111295878162
20
7.14265282896901
30
0
41
1
10
119.259256459222
20
6.52357645466103
30
0
41
1
10
119.333236749752
20
6.18635949388909
30
0
41
1
10
119.481197330812
20
5.46859324586472
30
0
41
1
10
119.555177621342
20
5.08809972560138
30
0
41
1
10
119.703138202402
20
4.29854354938877
30
0
41
1
10
119.777118492932
20
3.88954222320359
30
0
41
1
10
119.925079073991
20
3.05858561771663
30
0
41
1
10
119.999059364521
20
2.63668309737261
30
0
41
1
10
120.147019945581
20
1.79462761842208
30
0
41
1
10
120.221000236111
20
1.37450948419556
30
0
41
1
10
120.331970671906
20
0.754980323180007
30
0
41
1
10
120.368960817171
20
0.550224468168807
30
0
41
1
10
120.424446035069
20
0.246677932312281
30
0
41
1
10
120.442941107701
20
0.146092125889425
30
0
41
1
10
120.47068371665
20
-0.0037861777873047
30
0
41
1
10
120.479931252966
20
-0.0535965269046415
30
0
41
1
10
120.498426325599
20
-0.153768290384818
30
0
41
1
10
120.507673861915
20
-0.204017549256832
30
0
41
1
10
120.590901688761
20
-0.657652291042126
30
0
41
1
10
120.664881979291
20
-1.07090270750845
30
0
41
1
10
120.812842560351
20
-1.90671974733866
30
0
41
1
10
120.886822850881
20
-2.32926346182163
30
0
41
1
10
121.034783431941
20
-3.17017875693824
30
0
41
1
10
121.108763722471
20
-3.5885072208817
30
0
41
1
10
121.256724303531
20
-4.40573765591014
30
0
41
1
10
121.330704594061
20
-4.804581736888
30
0
41
1
10
121.47866517512
20
-5.5673663053546
30
0
41
1
10
121.55264546565
20
-5.93124597194566
30
0
41
1
10
121.70060604671
20
-6.61023368868518
30
0
41
1
10
121.77458633724
20
-6.92529270878183
30
0
41
1
10
121.9225469183
20
-7.49608520157506
30
0
41
1
10
121.99652720883
20
-7.75179332086984
30
0
41
1
10
122.14448778989
20
-8.19780047652438
30
0
41
1
10
122.21846808042
20
-8.38810213848856
30
0
41
1
10
122.36642866148
20
-8.70203232005198
30
0
41
1
10
122.44040895201
20
-8.825687141793
30
0
41
1
10
122.58836953307
20
-9.00942117874942
30
0
41
1
10
122.6623498236
20
-9.06954038712502
30
0
41
1
10
122.773320259395
20
-9.1168545953893
30
0
41
1
10
122.81031040466
20
-9.12550385654052
30
0
41
1
10
122.856548086241
20
-9.12803890870248
30
0
41
1
10
122.865795622557
20
-9.1281338546643
30
0
41
1
10
122.884290695189
20
-9.12750530100655
30
0
41
1
10
122.912033304138
20
-9.12532762879735
30
0
41
1
10
122.939775913087
20
-9.11937118918001
30
0
41
1
10
123.032251276249
20
-9.09080377180518
30
0
41
1
10
123.106231566779
20
-9.03997586758933
30
0
41
1
10
123.254192147839
20
-8.87563117597892
30
0
41
1
10
123.328172438369
20
-8.76207329964279
30
0
41
1
10
123.476133019429
20
-8.4685567781554
30
0
41
1
10
123.550113309959
20
-8.2885689879796
30
0
41
1
10
123.698073891019
20
-7.8626914812078
30
0
41
1
10
123.772054181549
20
-7.61679501569631
30
0
41
1
10
123.920014762609
20
-7.06438603873849
30
0
41
1
10
123.993995053139
20
-6.75789462050278
30
0
41
1
10
124.141955634199
20
-6.09416748224552
30
0
41
1
10
124.215935924729
20
-5.73697776717455
30
0
41
1
10
124.363896505789
20
-4.98528498488071
30
0
41
1
10
124.437876796319
20
-4.59084187915093
30
0
41
1
10
124.585837377378
20
-3.77999427278951
30
0
41
1
10
124.659817667908
20
-3.36364901617844
30
0
41
1
10
124.807778248968
20
-2.5244243647536
30
0
41
1
10
124.881758539498
20
-2.10159089749578
30
0
41
1
10
125.029719120558
20
-1.26327032598698
30
0
41
1
10
125.103699411088
20
-0.847809320933067
30
0
41
1
10
125.177679701618
20
-0.441638798998923
30
0
0
SPLINE
5
F4
100
AcDbEntity
8
1
62
256
6
ByLayer
370
13
48
1
60
0
100
AcDbSpline
70
4
71
3
72
18
73
14
40
0
40
0
40
0
40
0
40
0.125
40
0.125
40
0.250000000000001
40
0.250000000000001
40
0.375000000000001
40
0.375000000000001
40
0.500000000000002
40
0.500000000000002
40
0.750000000000001
40
0.750000000000001
40
1
40
1
40
1
40
1
41
1
10
115.6
20
6.61528460948884
30
0
41
1
10
115.648364068841
20
6.82573851681335
30
0
41
1
10
115.696728137682
20
7.02491783132353
30
0
41
1
10
115.793456275364
20
7.39799985149449
30
0
41
1
10
115.841820344205
20
7.57189951836068
30
0
41
1
10
115.938548481887
20
7.89250248486465
30
0
41
1
10
115.986912550727
20
8.03920495910694
30
0
41
1
10
116.083640688409
20
8.30437004441831
30
0
41
1
10
116.13200475725
20
8.4228339599315
30
0
41
1
10
116.277096963773
20
8.73560336965508
30
0
41
1
10
116.373825101455
20
8.88695209473772
30
0
41
1
10
116.567281376819
20
9.08307137122179
30
0
41
1
10
116.664009514501
20
9.12799999999999
30
0
41
1
10
116.760737652183
20
9.12799999999999
30
0
0
SPLINE
5
F5
100
AcDbEntity
8
1
62
256
6
ByLayer
370
13
48
1
60
0
100
AcDbSpline
70
4
71
3
72
85
73
81
40
0
40
0
40
0
40
0
40
0.0312499999999997
40
0.0312499999999997
40
0.0624999999999993
40
0.0624999999999993
40
0.093749999999999
40
0.093749999999999
40
0.124999999999999
40
0.124999999999999
40
0.156249999999998
40
0.156249999999998
40
0.187499999999998
40
0.187499999999998
40
0.218749999999998
40
0.218749999999998
40
0.249999999999997
40
0.249999999999997
40
0.281249999999997
40
0.281249999999997
40
0.312499999999997
40
0.312499999999997
40
0.316406249999997
40
0.316406249999997
40
0.320312499999997
40
0.328124999999997
40
0.328124999999997
40
0.343749999999997
40
0.343749999999997
40
0.374999999999997
40
0.374999999999997
40
0.406249999999996
40
0.406249999999996
40
0.437499999999996
40
0.437499999999996
40
0.468749999999996
40
0.468749999999996
40
0.499999999999996
40
0.499999999999996
40
0.531249999999995
40
0.531249999999995
40
0.562499999999995
40
0.562499999999995
40
0.593749999999995
40
0.593749999999995
40
0.624999999999994
40
0.624999999999994
40
0.628906249999994
40
0.628906249999994
40
0.632812499999994
40
0.632812499999994
40
0.640624999999994
40
0.640624999999994
40
0.656249999999995
40
0.656249999999995
40
0.687499999999995
40
0.687499999999995
40
0.718749999999996
40
0.718749999999996
40
0.749999999999997
40
0.749999999999997
40
0.781249999999998
40
0.781249999999998
40
0.812499999999998
40
0.812499999999998
40
0.843749999999999
40
0.843749999999999
40
0.875
40
0.875
40
0.906250000000001
40
0.906250000000001
40
0.937500000000002
40
0.937500000000002
40
0.945312500000001
40
0.945312500000001
40
0.953125000000001
40
0.953125000000001
40
0.968750000000001
40
0.968750000000001
40
1
40
1
40
1
40
1
41
1
10
117.580457544371
20
9.12799999999999
30
0
41
1
10
117.659595275176
20
9.12800000000001
30
0
41
1
10
117.73873300598
20
9.09798612942251
30
0
41
1
10
117.89700846759
20
8.96862498939177
30
0
41
1
10
117.976146198394
20
8.86921812517565
30
0
41
1
10
118.134421660003
20
8.59513966128912
30
0
41
1
10
118.213559390808
20
8.42042098048546
30
0
41
1
10
118.371834852418
20
7.994941030224
30
0
41
1
10
118.450972583222
20
7.74416269573868
30
0
41
1
10
118.609248044831
20
7.17196682868754
30
0
41
1
10
118.688385775636
20
6.85057316108595
30
0
41
1
10
118.846661237245
20
6.14866072731056
30
0
41
1
10
118.92579896805
20
5.76820411511676
30
0
41
1
10
119.084074429659
20
4.96447505109839
30
0
41
1
10
119.163212160464
20
4.54128639561395
30
0
41
1
10
119.321487622073
20
3.67093284831969
30
0
41
1
10
119.400625352878
20
3.22385006712895
30
0
41
1
10
119.558900814487
20
2.32449802937148
30
0
41
1
10
119.638038545292
20
1.87228961749255
30
0
41
1
10
119.796314006901
20
0.979213939182102
30
0
41
1
10
119.875451737706
20
0.538377325051755
30
0
41
1
10
119.964481684861
20
0.0560546527187569
30
0
41
1
10
119.974373901212
20
0.0027785351093428
30
0
41
1
10
119.994158333913
20
-0.1041274398643
30
0
41
1
10
120.023834982965
20
-0.265057343589802
30
0
41
1
10
120.053511632016
20
-0.427606493901095
30
0
41
1
10
120.11286493012
20
-0.754591650786267
30
0
41
1
10
120.152433795522
20
-0.975105273494648
30
0
41
1
10
120.271140391729
20
-1.64175451431987
30
0
41
1
10
120.350278122534
20
-2.09309947684551
30
0
41
1
10
120.508553584143
20
-2.99375025276308
30
0
41
1
10
120.587691314948
20
-3.44300008395069
30
0
41
1
10
120.745966776557
20
-4.32096677294544
30
0
41
1
10
120.825104507362
20
-4.74960400946475
30
0
41
1
10
120.983379968971
20
-5.56734497168506
30
0
41
1
10
121.062517699776
20
-5.95636351197646
30
0
41
1
10
121.220793161385
20
-6.67791134880179
30
0
41
1
10
121.29993089219
20
-7.01037330073655
30
0
41
1
10
121.458206353799
20
-7.60627606834882
30
0
41
1
10
121.537344084604
20
-7.86968585948742
30
0
41
1
10
121.695619546213
20
-8.32091352199697
30
0
41
1
10
121.774757277018
20
-8.50874192562509
30
0
41
1
10
121.933032738627
20
-8.80851019872756
30
0
41
1
10
122.012170469432
20
-8.92049318882903
30
0
41
1
10
122.170445931041
20
-9.07369735770411
30
0
41
1
10
122.249583661846
20
-9.11497725187422
30
0
41
1
10
122.338613609001
20
-9.12664984184042
30
0
41
1
10
122.348505825351
20
-9.12746566975895
30
0
41
1
10
122.368290258053
20
-9.12815504951931
30
0
41
1
10
122.378182474403
20
-9.12803159638986
30
0
41
1
10
122.407859123455
20
-9.12624501791029
30
0
41
1
10
122.427643556156
20
-9.12315846554947
30
0
41
1
10
122.48699685426
20
-9.10797707647288
30
0
41
1
10
122.526565719662
20
-9.08995499274715
30
0
41
1
10
122.645272315869
20
-9.01047363542568
30
0
41
1
10
122.724410046674
20
-8.92346589053238
30
0
41
1
10
122.882685508283
20
-8.67487528265534
30
0
41
1
10
122.961823239088
20
-8.51324191003042
30
0
41
1
10
123.120098700697
20
-8.11364409498873
30
0
41
1
10
123.199236431502
20
-7.8756563920148
30
0
41
1
10
123.357511893111
20
-7.3276673619109
30
0
41
1
10
123.436649623916
20
-7.01768266461443
30
0
41
1
10
123.594925085525
20
-6.33622943126812
30
0
41
1
10
123.67406281633
20
-5.96481735331488
30
0
41
1
10
123.832338277939
20
-5.17614007079766
30
0
41
1
10
123.911476008744
20
-4.75895656503238
30
0
41
1
10
124.069751470353
20
-3.89732688804105
30
0
41
1
10
124.148889201158
20
-3.45296472749044
30
0
41
1
10
124.307164662767
20
-2.55595044335442
30
0
41
1
10
124.386302393571
20
-2.10336376621959
30
0
41
1
10
124.544577855181
20
-1.20693932741324
30
0
41
1
10
124.623715585985
20
-0.763137496909678
30
0
41
1
10
124.722637749491
20
-0.22232390807909
30
0
41
1
10
124.742422182192
20
-0.114848509364748
30
0
41
1
10
124.781991047595
20
0.0985562862707638
30
0
41
1
10
124.801775480296
20
0.205881155453795
30
0
41
1
10
124.8611287784
20
0.530158887403189
30
0
41
1
10
124.900697643802
20
0.749119420067672
30
0
41
1
10
125.019404240009
20
1.41199313436678
30
0
41
1
10
125.098541970813
20
1.86200599699961
30
0
41
1
10
125.177679701618
20
2.31247335936101
30
0
0
SPLINE
5
F6
100
AcDbEntity
8
1
62
256
6
ByLayer
370
13
48
1
60
0
100
AcDbSpline
70
4
71
3
72
14
73
10
40
0
40
0
40
0
40
0
40
0.25
40
0.25
40
0.5
40
0.5
40
0.75
40
0.75
40
1
40
1
40
1
40
1
41
1
10
115.6
20
8.32861899852279
30
0
41
1
10
115.655468615484
20
8.46730756733686
30
0
41
1
10
115.710937230968
20
8.58729722719252
30
0
41
1
10
115.821874461937
20
8.79021157619988
30
0
41
1
10
115.877343077421
20
8.87314391218857
30
0
41
1
10
115.98828030839
20
9.00356921752311
30
0
41
1
10
116.043748923874
20
9.05107185753658
30
0
41
1
10
116.154686154843
20
9.11328214358957
30
0
41
1
10
116.210154770327
20
9.12800000000001
30
0
41
1
10
116.265623385811
20
9.12799999999999
30
0
0
SPLINE
5
F7
100
AcDbEntity
8
1
62
256
6
ByLayer
370
13
48
1
60
0
100
AcDbSpline
70
4
71
3
72
85
73
81
40
0
40
0
40
0
40
0
40
0.0312500000000004
40
0.0312500000000004
40
0.0625000000000008
40
0.0625000000000008
40
0.0937500000000011
40
0.0937500000000011
40
0.125000000000002
40
0.125000000000002
40
0.156250000000002
40
0.156250000000002
40
0.187500000000002
40
0.187500000000002
40
0.218750000000003
40
0.218750000000003
40
0.250000000000003
40
0.250000000000003
40
0.281250000000003
40
0.281250000000003
40
0.289062500000004
40
0.292968750000003
40
0.292968750000003
40
0.296875000000003
40
0.296875000000003
40
0.312500000000004
40
0.312500000000004
40
0.343750000000005
40
0.343750000000005
40
0.375000000000005
40
0.375000000000005
40
0.406250000000006
40
0.406250000000006
40
0.437500000000007
40
0.437500000000007
40
0.468750000000008
40
0.468750000000008
40
0.500000000000008
40
0.500000000000008
40
0.531250000000009
40
0.531250000000009
40
0.56250000000001
40
0.56250000000001
40
0.57812500000001
40
0.57812500000001
40
0.585937500000011
40
0.589843750000011
40
0.589843750000011
40
0.593750000000011
40
0.593750000000011
40
0.62500000000001
40
0.62500000000001
40
0.65625000000001
40
0.65625000000001
40
0.687500000000009
40
0.687500000000009
40
0.718750000000008
40
0.718750000000008
40
0.750000000000007
40
0.750000000000007
40
0.781250000000007
40
0.781250000000007
40
0.812500000000006
40
0.812500000000006
40
0.843750000000005
40
0.843750000000005
40
0.875000000000005
40
0.875000000000005
40
0.882812500000004
40
0.886718750000004
40
0.886718750000004
40
0.890625000000004
40
0.890625000000004
40
0.906250000000003
40
0.906250000000003
40
0.937500000000002
40
0.937500000000002
40
0.968750000000001
40
0.968750000000001
40
1
40
1
40
1
40
1
41
1
10
117.085343277999
20
9.12799999999999
30
0
41
1
10
117.169638449078
20
9.12800000000001
30
0
41
1
10
117.253933620158
20
9.09392873874899
30
0
41
1
10
117.422523962317
20
8.94650819511847
30
0
41
1
10
117.506819133396
20
8.83307772487007
30
0
41
1
10
117.675409475555
20
8.52028523047795
30
0
41
1
10
117.759704646634
20
8.32086288330947
30
0
41
1
10
117.928294988793
20
7.83629623888655
30
0
41
1
10
118.012590159872
20
7.55113890429036
30
0
41
1
10
118.181180502031
20
6.90337193634946
30
0
41
1
10
118.26547567311
20
6.54080986237872
30
0
41
1
10
118.434066015269
20
5.75407668770021
30
0
41
1
10
118.518361186348
20
5.33000353511872
30
0
41
1
10
118.686951528507
20
4.44141866481891
30
0
41
1
10
118.771246699586
20
3.97702456093205
30
0
41
1
10
118.939837041745
20
3.03092971699113
30
0
41
1
10
119.024132212824
20
2.54933069641575
30
0
41
1
10
119.192722554983
20
1.59049650626051
30
0
41
1
10
119.277017726063
20
1.11332364296237
30
0
41
1
10
119.382386689912
20
0.53063148500803
30
0
41
1
10
119.413997379067
20
0.356839186807207
30
0
41
1
10
119.445608068221
20
0.184823196486093
30
0
41
1
10
119.466681860991
20
0.070566331446031
30
0
41
1
10
119.477218757376
20
0.0137861302667091
30
0
41
1
10
119.529903239301
20
-0.27080106455287
30
0
41
1
10
119.57205082484
20
-0.501949006070504
30
0
41
1
10
119.698493581459
20
-1.20318527800171
30
0
41
1
10
119.782788752539
20
-1.68121081888094
30
0
41
1
10
119.951379094698
20
-2.64048436834165
30
0
41
1
10
120.035674265777
20
-3.12166724927326
30
0
41
1
10
120.204264607936
20
-4.0654817291109
30
0
41
1
10
120.288559779015
20
-4.52800971851732
30
0
41
1
10
120.457150121174
20
-5.41142785342177
30
0
41
1
10
120.541445292253
20
-5.83220052819553
30
0
41
1
10
120.710035634412
20
-6.61113745450237
30
0
41
1
10
120.794330805491
20
-6.96920618684311
30
0
41
1
10
120.96292114765
20
-7.60721727129618
30
0
41
1
10
121.047216318729
20
-7.88711585722319
30
0
41
1
10
121.215806660888
20
-8.36091087291604
30
0
41
1
10
121.300101831967
20
-8.55482393408511
30
0
41
1
10
121.468692174126
20
-8.85683079880374
30
0
41
1
10
121.552987345205
20
-8.96498708194105
30
0
41
1
10
121.679430101824
20
-9.0680924834229
30
0
41
1
10
121.721577687364
20
-9.09265261256027
30
0
41
1
10
121.784799065674
20
-9.11576476366236
30
0
41
1
10
121.816409754828
20
-9.12389175874026
30
0
41
1
10
121.848020443983
20
-9.12708250743705
30
0
41
1
10
121.869094236753
20
-9.12813704919319
30
0
41
1
10
121.879631133138
20
-9.12813105928069
30
0
41
1
10
121.974463200602
20
-9.12327593024673
30
0
41
1
10
122.058758371682
20
-9.08448661055562
30
0
41
1
10
122.22734871384
20
-8.92704604414595
30
0
41
1
10
122.31164388492
20
-8.8083141076319
30
0
41
1
10
122.480234227078
20
-8.48470919533636
30
0
41
1
10
122.564529398158
20
-8.2797781638989
30
0
41
1
10
122.733119740316
20
-7.78447388402429
30
0
41
1
10
122.817414911396
20
-7.49409124945541
30
0
41
1
10
122.986005253555
20
-6.83666617491667
30
0
41
1
10
123.070300424634
20
-6.46967504570296
30
0
41
1
10
123.238890766793
20
-5.67529587208048
30
0
41
1
10
123.323185937872
20
-5.24800807616919
30
0
41
1
10
123.491776280031
20
-4.3544359889755
30
0
41
1
10
123.57607145111
20
-3.8882693063799
30
0
41
1
10
123.744661793269
20
-2.94007501054088
30
0
41
1
10
123.828956964348
20
-2.4581471304441
30
0
41
1
10
123.997547306507
20
-1.49991042840571
30
0
41
1
10
124.081842477586
20
-1.02366107509039
30
0
41
1
10
124.187211441436
20
-0.44271559665637
30
0
41
1
10
124.21882213059
20
-0.2694914798019
30
0
41
1
10
124.250432819745
20
-0.0981040837186242
30
0
41
1
10
124.271506612515
20
0.0157209516444539
30
0
41
1
10
124.2820435089
20
0.0725086541225153
30
0
41
1
10
124.334727990825
20
0.358174697689492
30
0
41
1
10
124.376875576364
20
0.590083469196514
30
0
41
1
10
124.503318332983
20
1.29323312722457
30
0
41
1
10
124.587613504063
20
1.77203927511056
30
0
41
1
10
124.756203846221
20
2.73159206140062
30
0
41
1
10
124.840499017301
20
3.21227077193109
30
0
41
1
10
125.009089359459
20
4.15362327167378
30
0
41
1
10
125.093384530539
20
4.61419166237522
30
0
41
1
10
125.177679701618
20
5.05322811740115
30
0
0
SPLINE
5
F8
100
AcDbEntity
8
1
62
256
6
ByLayer
370
13
48
1
60
0
100
AcDbSpline
70
4
71
3
72
8
73
4
40
0
40
0
40
0
40
0
40
1
40
1
40
1
40
1
41
1
10
115.6
20
9.07984613810669
30
0
41
1
10
115.656836373146
20
9.1125460656001
30
0
41
1
10
115.713672746293
20
9.12799999999999
30
0
41
1
10
115.770509119439
20
9.12799999999999
30
0
0
SPLINE
5
F9
100
AcDbEntity
8
1
62
256
6
ByLayer
370
13
48
1
60
0
100
AcDbSpline
70
4
71
3
72
87
73
83
40
0
40
0
40
0
40
0
40
0.0312499999999998
40
0.0312499999999998
40
0.0624999999999997
40
0.0624999999999997
40
0.0937499999999995
40
0.0937499999999995
40
0.124999999999999
40
0.124999999999999
40
0.156249999999999
40
0.156249999999999
40
0.187499999999999
40
0.187499999999999
40
0.218749999999999
40
0.218749999999999
40
0.249999999999999
40
0.249999999999999
40
0.265624999999999
40
0.265624999999999
40
0.273437499999999
40
0.277343749999999
40
0.277343749999999
40
0.281249999999999
40
0.281249999999999
40
0.312499999999999
40
0.312499999999999
40
0.343749999999999
40
0.343749999999999
40
0.374999999999999
40
0.374999999999999
40
0.406249999999999
40
0.406249999999999
40
0.437499999999999
40
0.437499999999999
40
0.468749999999999
40
0.468749999999999
40
0.499999999999999
40
0.499999999999999
40
0.531249999999999
40
0.531249999999999
40
0.546875
40
0.546875
40
0.5546875
40
0.5546875
40
0.558593749999999
40
0.558593749999999
40
0.562499999999999
40
0.562499999999999
40
0.593749999999999
40
0.593749999999999
40
0.624999999999999
40
0.624999999999999
40
0.656249999999999
40
0.656249999999999
40
0.687499999999999
40
0.687499999999999
40
0.71875
40
0.71875
40
0.75
40
0.75
40
0.78125
40
0.78125
40
0.8125
40
0.8125
40
0.828125
40
0.828125
40
0.8359375
40
0.8359375
40
0.83984375
40
0.83984375
40
0.84375
40
0.84375
40
0.875
40
0.875
40
0.90625
40
0.90625
40
0.9375
40
0.9375
40
0.96875
40
0.96875
40
1
40
1
40
1
40
1
41
1
10
116.590229011627
20
9.12799999999999
30
0
41
1
10
116.679681622982
20
9.12799999999999
30
0
41
1
10
116.769134234335
20
9.08961007798518
30
0
41
1
10
116.948039457044
20
8.92287895690791
30
0
41
1
10
117.037492068398
20
8.79442936252403
30
0
41
1
10
117.216397291106
20
8.4402647512195
30
0
41
1
10
117.30584990246
20
8.21447481530419
30
0
41
1
10
117.484755125168
20
7.66728856263398
30
0
41
1
10
117.574207736522
20
7.34588923898798
30
0
41
1
10
117.75311295923
20
6.61942141833455
30
0
41
1
10
117.842565570584
20
6.21443594069152
30
0
41
1
10
118.021470793293
20
5.34183043810941
30
0
41
1
10
118.110923404647
20
4.87435522493553
30
0
41
1
10
118.289828627355
20
3.90335467709053
30
0
41
1
10
118.379281238709
20
3.39998458940286
30
0
41
1
10
118.558186461417
20
2.38461654488236
30
0
41
1
10
118.647639072771
20
1.87273503546115
30
0
41
1
10
118.781817989802
20
1.11645010710166
30
0
41
1
10
118.826544295479
20
0.866240355001764
30
0
41
1
10
118.893633753995
20
0.495582245059495
30
0
41
1
10
118.927178483252
20
0.31141267179197
30
0
41
1
10
118.96072321251
20
0.129281922366289
30
0
41
1
10
118.983086365349
20
0.0083447149199003
30
0
41
1
10
118.994267941768
20
-0.0518393077794599
30
0
41
1
10
119.094902129541
20
-0.59709385252151
30
0
41
1
10
119.184354740896
20
-1.09727405827775
30
0
41
1
10
119.363259963604
20
-2.10977548455412
30
0
41
1
10
119.452712574958
20
-2.62203257183586
30
0
41
1
10
119.631617797666
20
-3.63404883183713
30
0
41
1
10
119.72107040902
20
-4.13368321060855
30
0
41
1
10
119.899975631728
20
-5.09291902217151
30
0
41
1
10
119.989428243082
20
-5.55236318665419
30
0
41
1
10
120.16833346579
20
-6.40515804921088
30
0
41
1
10
120.257786077144
20
-6.79837053473426
30
0
41
1
10
120.436691299852
20
-7.49875975844984
30
0
41
1
10
120.526143911207
20
-7.80586620046651
30
0
41
1
10
120.705049133915
20
-8.32351700232229
30
0
41
1
10
120.794501745269
20
-8.53407732140118
30
0
41
1
10
120.973406967977
20
-8.85837375089972
30
0
41
1
10
121.062859579331
20
-8.97219276373286
30
0
41
1
10
121.197038496362
20
-9.07661386232394
30
0
41
1
10
121.241764802039
20
-9.1004285553054
30
0
41
1
10
121.308854260555
20
-9.12086195154626
30
0
41
1
10
121.331217413393
20
-9.12512737209198
30
0
41
1
10
121.364762142651
20
-9.12787519702457
30
0
41
1
10
121.37594371907
20
-9.12818415228571
30
0
41
1
10
121.398306871909
20
-9.1276087646703
30
0
41
1
10
121.409488448328
20
-9.1267203427735
30
0
41
1
10
121.510122636101
20
-9.11318807459
30
0
41
1
10
121.599575247455
20
-9.06159887340226
30
0
41
1
10
121.778480470164
20
-8.86685447686068
30
0
41
1
10
121.867933081518
20
-8.72359329812596
30
0
41
1
10
122.046838304226
20
-8.33941736190303
30
0
41
1
10
122.13629091558
20
-8.09843664553529
30
0
41
1
10
122.315196138288
20
-7.52204476009749
30
0
41
1
10
122.404648749642
20
-7.18664390805125
30
0
41
1
10
122.58355397235
20
-6.4349037665443
30
0
41
1
10
122.673006583704
20
-6.01865961315073
30
0
41
1
10
122.851911806412
20
-5.12740787042017
30
0
41
1
10
122.941364417766
20
-4.65255039321877
30
0
41
1
10
123.120269640475
20
-3.67110176455776
30
0
41
1
10
123.209722251828
20
-3.16466260481667
30
0
41
1
10
123.388627474537
20
-2.14719062619787
30
0
41
1
10
123.478080085891
20
-1.63626534113592
30
0
41
1
10
123.612259002922
20
-0.88383087177175
30
0
41
1
10
123.656985308599
20
-0.635304102186296
30
0
41
1
10
123.724074767114
20
-0.267675971467838
30
0
41
1
10
123.746437919953
20
-0.145990418084693
30
0
41
1
10
123.779982649211
20
0.0350644926936923
30
0
41
1
10
123.79116422563
20
0.0954180524034882
30
0
41
1
10
123.813527378469
20
0.216812688110821
30
0
41
1
10
123.824708954888
20
0.277744480249225
30
0
41
1
10
123.925343142661
20
0.828098482373633
30
0
41
1
10
124.014795754015
20
1.33155757084185
30
0
41
1
10
124.193700976723
20
2.34712413979798
30
0
41
1
10
124.283153588077
20
2.85915750413824
30
0
41
1
10
124.462058810786
20
3.86655056109927
30
0
41
1
10
124.55151142214
20
4.36177780184926
30
0
41
1
10
124.730416644848
20
5.30794080127524
30
0
41
1
10
124.819869256202
20
5.75871856490673
30
0
41
1
10
124.99877447891
20
6.59058189253162
30
0
41
1
10
125.088227090264
20
6.97153707899952
30
0
41
1
10
125.177679701618
20
7.30832378305007
30
0
0
SPLINE
5
FA
100
AcDbEntity
8
1
62
256
6
ByLayer
370
13
48
1
60
0
100
AcDbSpline
70
4
71
3
72
8
73
4
40
0
40
0
40
0
40
0
40
1
40
1
40
1
40
1
41
1
10
125.177679701618
20
-7.76813521709749
30
0
41
1
10
126.285119801079
20
-5.17344843393747
30
0
41
1
10
127.392559900539
20
-2.58405574748073
30
0
41
1
10
128.5
20
-1.421E-13
30
0
0
SPLINE
5
FB
100
AcDbEntity
8
1
62
256
6
ByLayer
370
13
48
1
60
0
100
AcDbSpline
70
4
71
3
72
8
73
4
40
0
40
0
40
0
40
0
40
1
40
1
40
1
40
1
41
1
10
125.177679701618
20
1.55007995948179
30
0
41
1
10
126.285119801079
20
1.04334853186839
30
0
41
1
10
127.392559900539
20
0.526652342135606
30
0
41
1
10
128.5
20
2.84E-14
30
0
0
SPLINE
5
FC
100
AcDbEntity
8
1
62
256
6
ByLayer
370
13
48
1
60
0
100
AcDbSpline
70
4
71
3
72
8
73
4
40
0
40
0
40
0
40
0
40
1
40
1
40
1
40
1
41
1
10
125.177679701618
20
-5.67524735699112
30
0
41
1
10
126.285119801079
20
-3.79141561774691
30
0
41
1
10
127.392559900539
20
-1.8996560438087
30
0
41
1
10
128.5
20
-8.53E-14
30
0
0
SPLINE
5
FD
100
AcDbEntity
8
1
62
256
6
ByLayer
370
13
48
1
60
0
100
AcDbSpline
70
4
71
3
72
8
73
4
40
0
40
0
40
0
40
0
40
1
40
1
40
1
40
1
41
1
10
125.177679701618
20
9.09915714002915
30
0
41
1
10
126.285119801079
20
6.0669077291962
30
0
41
1
10
127.392559900539
20
3.03383860859347
30
0
41
1
10
128.5
20
0
30
0
0
SPLINE
5
FE
100
AcDbEntity
8
1
62
256
6
ByLayer
370
13
48
1
60
0
100
AcDbSpline
70
4
71
3
72
8
73
4
40
0
40
0
40
0
40
0
40
1
40
1
40
1
40
1
41
1
10
125.177679701618
20
-6.24734990031467
30
0
41
1
10
126.285119801079
20
-4.15752975508778
30
0
41
1
10
127.392559900539
20
-2.07506830903947
30
0
41
1
10
128.5
20
-1.137E-13
30
0
0
SPLINE
5
FF
100
AcDbEntity
8
1
62
256
6
ByLayer
370
13
48
1
60
0
100
AcDbSpline
70
4
71
3
72
8
73
4
40
0
40
0
40
0
40
0
40
1
40
1
40
1
40
1
41
1
10
125.177679701618
20
2.28908885608448
30
0
41
1
10
126.285119801079
20
1.51627354823893
30
0
41
1
10
127.392559900539
20
0.753239736461268
30
0
41
1
10
128.5
20
2.84E-14
30
0
0
SPLINE
5
100
100
AcDbEntity
8
1
62
256
6
ByLayer
370
13
48
1
60
0
100
AcDbSpline
70
4
71
3
72
8
73
4
40
0
40
0
40
0
40
0
40
1
40
1
40
1
40
1
41
1
10
125.177679701618
20
7.89898737032112
30
0
41
1
10
126.285119801079
20
5.26092555525929
30
0
41
1
10
127.392559900539
20
2.62791524322881
30
0
41
1
10
128.5
20
1.421E-13
30
0
0
SPLINE
5
101
100
AcDbEntity
8
1
62
256
6
ByLayer
370
13
48
1
60
0
100
AcDbSpline
70
4
71
3
72
8
73
4
40
0
40
0
40
0
40
0
40
1
40
1
40
1
40
1
41
1
10
125.177679701618
20
-0.852082837649277
30
0
41
1
10
126.285119801079
20
-0.55799065137677
30
0
41
1
10
127.392559900539
20
-0.273961489821886
30
0
41
1
10
128.5
20
-2.84E-14
30
0
0
SPLINE
5
102
100
AcDbEntity
8
1
62
256
6
ByLayer
370
13
48
1
60
0
100
AcDbSpline
70
4
71
3
72
8
73
4
40
0
40
0
40
0
40
0
40
1
40
1
40
1
40
1
41
1
10
125.177679701618
20
4.51657407054049
30
0
41
1
10
126.285119801079
20
3.00226486401758
30
0
41
1
10
127.392559900539
20
1.49673188115602
30
0
41
1
10
128.5
20
8.53E-14
30
0
0
SPLINE
5
103
100
AcDbEntity
8
1
62
256
6
ByLayer
370
13
48
1
60
0
100
AcDbSpline
70
4
71
3
72
8
73
4
40
0
40
0
40
0
40
0
40
1
40
1
40
1
40
1
41
1
10
125.177679701618
20
-2.47667827474009
30
0
41
1
10
126.285119801079
20
-1.66084835548219
30
0
41
1
10
127.392559900539
20
-0.835284356489382
30
0
41
1
10
128.5
20
-5.68E-14
30
0
0
SPLINE
5
104
100
AcDbEntity
8
1
62
256
6
ByLayer
370
13
48
1
60
0
100
AcDbSpline
70
4
71
3
72
8
73
4
40
0
40
0
40
0
40
0
40
1
40
1
40
1
40
1
41
1
10
125.177679701618
20
3.43272269984368
30
0
41
1
10
126.285119801079
20
2.27911513471923
30
0
41
1
10
127.392559900539
20
1.13486793705033
30
0
41
1
10
128.5
20
5.68E-14
30
0
0
SPLINE
5
105
100
AcDbEntity
8
1
62
256
6
ByLayer
370
13
48
1
60
0
100
AcDbSpline
70
4
71
3
72
8
73
4
40
0
40
0
40
0
40
0
40
1
40
1
40
1
40
1
41
1
10
125.177679701618
20
-7.99458041777896
30
0
41
1
10
126.285119801079
20
-5.33459893464848
30
0
41
1
10
127.392559900539
20
-2.66972407931462
30
0
41
1
10
128.5
20
-1.421E-13
30
0
0
SPLINE
5
106
100
AcDbEntity
8
1
62
256
6
ByLayer
370
13
48
1
60
0
100
AcDbSpline
70
4
71
3
72
8
73
4
40
0
40
0
40
0
40
0
40
1
40
1
40
1
40
1
41
1
10
125.177679701618
20
8.11450620505374
30
0
41
1
10
126.285119801079
20
5.41430027031299
30
0
41
1
10
127.392559900539
20
2.70944993239303
30
0
41
1
10
128.5
20
-5.68E-14
30
0
0
SPLINE
5
107
100
AcDbEntity
8
1
62
256
6
ByLayer
370
13
48
1
60
0
100
AcDbSpline
70
4
71
3
72
8
73
4
40
0
40
0
40
0
40
0
40
1
40
1
40
1
40
1
41
1
10
125.177679701618
20
-1.29822589220785
30
0
41
1
10
126.285119801079
20
-0.875489880393275
30
0
41
1
10
127.392559900539
20
-0.442745509656646
30
0
41
1
10
128.5
20
-2.84E-14
30
0
0
SPLINE
5
108
100
AcDbEntity
8
1
62
256
6
ByLayer
370
13
48
1
60
0
100
AcDbSpline
70
4
71
3
72
8
73
4
40
0
40
0
40
0
40
0
40
1
40
1
40
1
40
1
41
1
10
125.177679701618
20
0.352064242730336
30
0
41
1
10
126.285119801079
20
0.244810686611231
30
0
41
1
10
127.392559900539
20
0.127455272782726
30
0
41
1
10
128.5
20
0
30
0
0
SPLINE
5
109
100
AcDbEntity
8
1
62
256
6
ByLayer
370
13
48
1
60
0
100
AcDbSpline
70
4
71
3
72
8
73
4
40
0
40
0
40
0
40
0
40
1
40
1
40
1
40
1
41
1
10
125.177679701618
20
-4.29325730118006
30
0
41
1
10
126.285119801079
20
-2.85325073974036
30
0
41
1
10
127.392559900539
20
-1.42215709107069
30
0
41
1
10
128.5
20
-8.53E-14
30
0
0
SPLINE
5
10A
100
AcDbEntity
8
1
62
256
6
ByLayer
370
13
48
1
60
0
100
AcDbSpline
70
4
71
3
72
8
73
4
40
0
40
0
40
0
40
0
40
1
40
1
40
1
40
1
41
1
10
125.177679701618
20
5.52176718908115
30
0
41
1
10
126.285119801079
20
3.67312874501056
30
0
41
1
10
127.392559900539
20
1.83252953876288
30
0
41
1
10
128.499999999999
20
8.527E-13
30
0
0
SPLINE
5
10B
100
AcDbEntity
8
1
62
256
6
ByLayer
370
13
48
1
60
0
100
AcDbSpline
70
4
71
3
72
8
73
4
40
0
40
0
40
0
40
0
40
1
40
1
40
1
40
1
41
1
10
125.177679701618
20
-4.68441337738287
30
0
41
1
10
126.285119801079
20
-3.13161829774793
30
0
41
1
10
127.392559900539
20
-1.57013853838834
30
0
41
1
10
128.5
20
-8.53E-14
30
0
0
SPLINE
5
10C
100
AcDbEntity
8
1
62
256
6
ByLayer
370
13
48
1
60
0
100
AcDbSpline
70
4
71
3
72
8
73
4
40
0
40
0
40
0
40
0
40
1
40
1
40
1
40
1
41
1
10
125.177679701618
20
4.90140473527578
30
0
41
1
10
126.285119801079
20
3.27613092134362
30
0
41
1
10
127.392559900539
20
1.64232031044125
30
0
41
1
10
128.5
20
8.53E-14
30
0
0
SPLINE
5
10D
100
AcDbEntity
8
1
62
256
6
ByLayer
370
13
48
1
60
0
100
AcDbSpline
70
4
71
3
72
8
73
4
40
0
40
0
40
0
40
0
40
1
40
1
40
1
40
1
41
1
10
125.177679701618
20
7.22782977836783
30
0
41
1
10
126.285119801079
20
4.81237938226118
30
0
41
1
10
127.392559900539
20
2.40308950427081
30
0
41
1
10
128.499999999999
20
1.1084E-12
30
0
0
SPLINE
5
10E
100
AcDbEntity
8
1
62
256
6
ByLayer
370
13
48
1
60
0
100
AcDbSpline
70
4
71
3
72
8
73
4
40
0
40
0
40
0
40
0
40
1
40
1
40
1
40
1
41
1
10
125.177679701618
20
-6.56724424665404
30
0
41
1
10
126.285119801079
20
-4.38518365957358
30
0
41
1
10
127.392559900539
20
-2.19609014978289
30
0
41
1
10
128.5
20
-1.137E-13
30
0
0
SPLINE
5
10F
100
AcDbEntity
8
1
62
256
6
ByLayer
370
13
48
1
60
0
100
AcDbSpline
70
4
71
3
72
8
73
4
40
0
40
0
40
0
40
0
40
1
40
1
40
1
40
1
41
1
10
125.177679701618
20
-9.07535546732231
30
0
41
1
10
126.285119801079
20
-6.05132108635974
30
0
41
1
10
127.392559900539
20
-3.02618589992852
30
0
41
1
10
128.5
20
-1.421E-13
30
0
0
SPLINE
5
110
100
AcDbEntity
8
1
62
256
6
ByLayer
370
13
48
1
60
0
100
AcDbSpline
70
4
71
3
72
8
73
4
40
0
40
0
40
0
40
0
40
1
40
1
40
1
40
1
41
1
10
125.177679701618
20
7.4933808293394
30
0
41
1
10
126.285119801079
20
5.00135969493522
30
0
41
1
10
127.392559900539
20
2.50355228946052
30
0
41
1
10
128.5
20
0
30
0
0
SPLINE
5
111
100
AcDbEntity
8
1
62
256
6
ByLayer
370
13
48
1
60
0
100
AcDbSpline
70
4
71
3
72
8
73
4
40
0
40
0
40
0
40
0
40
1
40
1
40
1
40
1
41
1
10
125.177679701618
20
-8.50506197152379
30
0
41
1
10
126.285119801079
20
-5.67371165635291
30
0
41
1
10
127.392559900539
20
-2.83867534622792
30
0
41
1
10
128.5
20
-1.421E-13
30
0
0
SPLINE
5
112
100
AcDbEntity
8
1
62
256
6
ByLayer
370
13
48
1
60
0
100
AcDbSpline
70
4
71
3
72
8
73
4
40
0
40
0
40
0
40
0
40
1
40
1
40
1
40
1
41
1
10
125.177679701618
20
2.72110030797174
30
0
41
1
10
126.285119801079
20
1.82371597393396
30
0
41
1
10
127.392559900539
20
0.91667751436475
30
0
41
1
10
128.5
20
-1.421E-13
30
0
0
SPLINE
5
113
100
AcDbEntity
8
1
62
256
6
ByLayer
370
13
48
1
60
0
100
AcDbSpline
70
4
71
3
72
8
73
4
40
0
40
0
40
0
40
0
40
1
40
1
40
1
40
1
41
1
10
125.177679701618
20
8.43258039881346
30
0
41
1
10
126.285119801079
20
5.61785024647992
30
0
41
1
10
127.39255990054
20
2.80697460780235
30
0
41
1
10
128.5
20
-9.948E-13
30
0
0
SPLINE
5
114
100
AcDbEntity
8
1
62
256
6
ByLayer
370
13
48
1
60
0
100
AcDbSpline
70
4
71
3
72
8
73
4
40
0
40
0
40
0
40
0
40
1
40
1
40
1
40
1
41
1
10
125.177679701618
20
-8.86742388885585
30
0
41
1
10
126.285119801079
20
-5.91401403305764
30
0
41
1
10
127.392559900539
20
-2.95818975288256
30
0
41
1
10
128.5
20
-1.421E-13
30
0
0
SPLINE
5
115
100
AcDbEntity
8
1
62
256
6
ByLayer
370
13
48
1
60
0
100
AcDbSpline
70
4
71
3
72
8
73
4
40
0
40
0
40
0
40
0
40
1
40
1
40
1
40
1
41
1
10
125.177679701618
20
9.0524592649752
30
0
41
1
10
126.285119801079
20
6.03367502687203
30
0
41
1
10
127.392559900539
20
3.01617195439278
30
0
41
1
10
128.499999999999
20
1.3927E-12
30
0
0
SPLINE
5
116
100
AcDbEntity
8
1
62
256
6
ByLayer
370
13
48
1
60
0
100
AcDbSpline
70
4
71
3
72
8
73
4
40
0
40
0
40
0
40
0
40
1
40
1
40
1
40
1
41
1
10
125.177679701618
20
-5.31659913234205
30
0
41
1
10
126.285119801079
20
-3.53618238336006
30
0
41
1
10
127.392559900539
20
-1.76397290710099
30
0
41
1
10
128.5
20
-8.53E-14
30
0
0
SPLINE
5
117
100
AcDbEntity
8
1
62
256
6
ByLayer
370
13
48
1
60
0
100
AcDbSpline
70
4
71
3
72
8
73
4
40
0
40
0
40
0
40
0
40
1
40
1
40
1
40
1
41
1
10
125.177679701618
20
-8.33168457756483
30
0
41
1
10
126.285119801079
20
-5.55032704160118
30
0
41
1
10
127.392559900539
20
-2.77308352942865
30
0
41
1
10
128.5
20
-1.421E-13
30
0
0
SPLINE
5
118
100
AcDbEntity
8
1
62
256
6
ByLayer
370
13
48
1
60
0
100
AcDbSpline
70
4
71
3
72
8
73
4
40
0
40
0
40
0
40
0
40
1
40
1
40
1
40
1
41
1
10
125.177679701618
20
-3.19514638396012
30
0
41
1
10
126.285119801079
20
-2.12062839855963
30
0
41
1
10
127.392559900539
20
-1.05557374342726
30
0
41
1
10
128.5
20
-5.68E-14
30
0
0
SPLINE
5
119
100
AcDbEntity
8
1
62
256
6
ByLayer
370
13
48
1
60
0
100
AcDbSpline
70
4
71
3
72
8
73
4
40
0
40
0
40
0
40
0
40
1
40
1
40
1
40
1
41
1
10
125.177679701618
20
8.5943136558916
30
0
41
1
10
126.285119801079
20
5.73294827143869
30
0
41
1
10
127.392559900539
20
2.86816123615389
30
0
41
1
10
128.5
20
-8.53E-14
30
0
0
SPLINE
5
11A
100
AcDbEntity
8
1
62
256
6
ByLayer
370
13
48
1
60
0
100
AcDbSpline
70
4
71
3
72
8
73
4
40
0
40
0
40
0
40
0
40
1
40
1
40
1
40
1
41
1
10
125.177679701618
20
8.81931609141859
30
0
41
1
10
126.285119801079
20
5.87693744530918
30
0
41
1
10
127.39255990054
20
2.93714919532039
30
0
41
1
10
128.5
20
-1.0516E-12
30
0
0
SPLINE
5
11B
100
AcDbEntity
8
1
62
256
6
ByLayer
370
13
48
1
60
0
100
AcDbSpline
70
4
71
3
72
8
73
4
40
0
40
0
40
0
40
0
40
1
40
1
40
1
40
1
41
1
10
125.177679701618
20
-0.0971642979168621
30
0
41
1
10
126.285119801079
20
-0.074884339121752
30
0
41
1
10
127.392559900539
20
-0.0424960424741414
30
0
41
1
10
128.5
20
0
30
0
0
SPLINE
5
11C
100
AcDbEntity
8
1
62
256
6
ByLayer
370
13
48
1
60
0
100
AcDbSpline
70
4
71
3
72
8
73
4
40
0
40
0
40
0
40
0
40
1
40
1
40
1
40
1
41
1
10
125.177679701618
20
5.87271779164206
30
0
41
1
10
126.285119801079
20
3.92288394033935
30
0
41
1
10
127.392559900539
20
1.96530052523951
30
0
41
1
10
128.5
20
1.137E-13
30
0
0
SPLINE
5
11D
100
AcDbEntity
8
1
62
256
6
ByLayer
370
13
48
1
60
0
100
AcDbSpline
70
4
71
3
72
8
73
4
40
0
40
0
40
0
40
0
40
1
40
1
40
1
40
1
41
1
10
125.177679701618
20
-9.01619524647796
30
0
41
1
10
126.285119801079
20
-6.009219513076
30
0
41
1
10
127.392559900539
20
-3.00380451398874
30
0
41
1
10
128.5
20
-1.421E-13
30
0
0
SPLINE
5
11E
100
AcDbEntity
8
1
62
256
6
ByLayer
370
13
48
1
60
0
100
AcDbSpline
70
4
71
3
72
8
73
4
40
0
40
0
40
0
40
0
40
1
40
1
40
1
40
1
41
1
10
125.177679701618
20
-7.06930014468424
30
0
41
1
10
126.285119801079
20
-4.70647179952206
30
0
41
1
10
127.392559900539
20
-2.35002542480254
30
0
41
1
10
128.5
20
-1.137E-13
30
0
0
SPLINE
5
11F
100
AcDbEntity
8
1
62
256
6
ByLayer
370
13
48
1
60
0
100
AcDbSpline
70
4
71
3
72
8
73
4
40
0
40
0
40
0
40
0
40
1
40
1
40
1
40
1
41
1
10
125.177679701618
20
-2.04139049645519
30
0
41
1
10
126.285119801079
20
-1.35107432091269
30
0
41
1
10
127.392559900539
20
-0.670607084808921
30
0
41
1
10
128.5
20
2.84E-14
30
0
0
SPLINE
5
120
100
AcDbEntity
8
1
62
256
6
ByLayer
370
13
48
1
60
0
100
AcDbSpline
70
4
71
3
72
8
73
4
40
0
40
0
40
0
40
0
40
1
40
1
40
1
40
1
41
1
10
125.177679701618
20
-8.75013375011272
30
0
41
1
10
126.285119801079
20
-5.83054410510138
30
0
41
1
10
127.392559900539
20
-2.91381676331841
30
0
41
1
10
128.5
20
-1.421E-13
30
0
0
SPLINE
5
121
100
AcDbEntity
8
1
62
256
6
ByLayer
370
13
48
1
60
0
100
AcDbSpline
70
4
71
3
72
8
73
4
40
0
40
0
40
0
40
0
40
1
40
1
40
1
40
1
41
1
10
125.177679701618
20
6.430796146662
30
0
41
1
10
126.285119801079
20
4.28002336910316
30
0
41
1
10
127.392559900539
20
2.13641283643801
30
0
41
1
10
128.499999999999
20
9.948E-13
30
0
0
SPLINE
5
122
100
AcDbEntity
8
1
62
256
6
ByLayer
370
13
48
1
60
0
100
AcDbSpline
70
4
71
3
72
8
73
4
40
0
40
0
40
0
40
0
40
1
40
1
40
1
40
1
41
1
10
125.177679701618
20
8.92444711044465
30
0
41
1
10
126.285119801079
20
5.9517542941777
30
0
41
1
10
127.392559900539
20
2.97692216907745
30
0
41
1
10
128.5
20
0
30
0
0
SPLINE
5
123
100
AcDbEntity
8
1
62
256
6
ByLayer
370
13
48
1
60
0
100
AcDbSpline
70
4
71
3
72
8
73
4
40
0
40
0
40
0
40
0
40
1
40
1
40
1
40
1
41
1
10
125.177679701618
20
1.1055894581159
30
0
41
1
10
126.285119801079
20
0.727025347977388
30
0
41
1
10
127.392559900539
20
0.358493513185238
30
0
41
1
10
128.5
20
2.84E-14
30
0
0
SPLINE
5
124
100
AcDbEntity
8
1
62
256
6
ByLayer
370
13
48
1
60
0
100
AcDbSpline
70
4
71
3
72
8
73
4
40
0
40
0
40
0
40
0
40
1
40
1
40
1
40
1
41
1
10
125.177679701618
20
-3.61199814550531
30
0
41
1
10
126.285119801079
20
-2.41728237882998
30
0
41
1
10
127.392559900539
20
-1.21327633516302
30
0
41
1
10
128.5
20
-5.68E-14
30
0
0
SPLINE
5
125
100
AcDbEntity
8
1
62
256
6
ByLayer
370
13
48
1
60
0
100
AcDbSpline
70
4
71
3
72
8
73
4
40
0
40
0
40
0
40
0
40
1
40
1
40
1
40
1
41
1
10
125.177679701618
20
-9.12523548112799
30
0
41
1
10
126.285119801079
20
-6.08324154963705
30
0
41
1
10
127.392559900539
20
-3.04147960262833
30
0
41
1
10
128.5
20
-1.421E-13
30
0
0
SPLINE
5
126
100
AcDbEntity
8
1
62
256
6
ByLayer
370
13
48
1
60
0
100
AcDbSpline
70
4
71
3
72
8
73
4
40
0
40
0
40
0
40
0
40
1
40
1
40
1
40
1
41
1
10
125.177679701618
20
3.84473142054423
30
0
41
1
10
126.285119801079
20
2.57232254842631
30
0
41
1
10
127.392559900539
20
1.29073831848132
30
0
41
1
10
128.5
20
5.68E-14
30
0
0
SPLINE
5
127
100
AcDbEntity
8
1
62
256
6
ByLayer
370
13
48
1
60
0
100
AcDbSpline
70
4
71
3
72
8
73
4
40
0
40
0
40
0
40
0
40
1
40
1
40
1
40
1
41
1
10
125.177679701618
20
6.74175471798543
30
0
41
1
10
126.285119801079
20
4.50131809876962
30
0
41
1
10
127.392559900539
20
2.25405411121181
30
0
41
1
10
128.5
20
0
30
0
0
SPLINE
5
128
100
AcDbEntity
8
1
62
256
6
ByLayer
370
13
48
1
60
0
100
AcDbSpline
70
4
71
3
72
8
73
4
40
0
40
0
40
0
40
0
40
1
40
1
40
1
40
1
41
1
10
125.177679701618
20
-7.34486950289383
30
0
41
1
10
126.285119801079
20
-4.90258167476978
30
0
41
1
10
127.392559900539
20
-2.45427831756115
30
0
41
1
10
128.5
20
-1.137E-13
30
0
0
LINE
5
7D
100
AcDbEntity
8
81
62
256
6
ByLayer
370
18
48
1
60
0
100
AcDbLine
10
128.5
20
0
30
0
11
133.5
21
0
31
0
39
0
210
0
220
0
230
1
0
LINE
5
7E
100
AcDbEntity
8
SK4
62
256
6
ByLayer
370
18
48
0.05
60
0
100
AcDbLine
10
-53
20
0
30
0
11
133.5
21
0
31
0
39
0
210
0
220
0
230
1
0
LINE
5
80
100
AcDbEntity
8
80
62
256
6
ByLayer
370
18
48
1
60
0
100
AcDbLine
10
0
20
0
30
0
11
-5
21
0
31
0
39
0
210
0
220
0
230
1
0
LINE
5
81
100
AcDbEntity
8
4
62
256
6
ByLayer
370
18
48
0.05
60
0
100
AcDbLine
10
-5
20
0
30
0
11
133.5
21
0
31
0
39
0
210
0
220
0
230
1
0
LINE
5
83
100
AcDbEntity
8
1
62
256
6
ByLayer
370
18
48
1
60
0
100
AcDbLine
10
40.482599
20
-8.7
30
0
11
81.75603
21
-8.7
31
0
39
0
210
0
220
0
230
1
0
LINE
5
84
100
AcDbEntity
8
1
62
256
6
ByLayer
370
18
48
1
60
0
100
AcDbLine
10
81.75603
20
8.7
30
0
11
40.482599
21
8.7
31
0
39
0
210
0
220
0
230
1
0
LINE
5
85
100
AcDbEntity
8
1
62
256
6
ByLayer
370
18
48
1
60
0
100
AcDbLine
10
128.5
20
0
30
0
11
125.17768
21
9.128
31
0
39
0
210
0
220
0
230
1
0
LINE
5
86
100
AcDbEntity
8
1
62
256
6
ByLayer
370
18
48
1
60
0
100
AcDbLine
10
125.17768
20
-9.128
30
0
11
128.5
21
0
31
0
39
0
210
0
220
0
230
1
0
LINE
5
87
100
AcDbEntity
8
1
62
256
6
ByLayer
370
18
48
1
60
0
100
AcDbLine
10
5.891973
20
9.038912
30
0
11
0
21
9.525
31
0
39
0
210
0
220
0
230
1
0
LINE
5
88
100
AcDbEntity
8
1
62
256
6
ByLayer
370
18
48
1
60
0
100
AcDbLine
10
0
20
-9.525
30
0
11
5.891973
21
-9.038912
31
0
39
0
210
0
220
0
230
1
0
LINE
5
89
100
AcDbEntity
8
1
62
256
6
ByLayer
370
18
48
1
60
0
100
AcDbLine
10
128.5
20
0
30
0
11
125.17768
21
9.128
31
0
39
0
210
0
220
0
230
1
0
LINE
5
8A
100
AcDbEntity
8
1
62
256
6
ByLayer
370
18
48
1
60
0
100
AcDbLine
10
125.17768
20
-9.128
30
0
11
128.5
21
0
31
0
39
0
210
0
220
0
230
1
0
LINE
5
8B
100
AcDbEntity
8
1
62
256
6
ByLayer
370
18
48
1
60
0
100
AcDbLine
10
115.6
20
-9.128
30
0
11
125.17768
21
-9.128
31
0
39
0
210
0
220
0
230
1
0
LINE
5
8C
100
AcDbEntity
8
SK1
62
256
6
ByLayer
370
18
48
1
60
0
100
AcDbLine
10
-48
20
-8.525
30
0
11
-47
21
-9.525
31
0
39
0
210
0
220
0
230
1
0
LINE
5
8E
100
AcDbEntity
8
SK1
62
256
6
ByLayer
370
18
48
1
60
0
100
AcDbLine
10
-47
20
9.525
30
0
11
-48
21
8.525
31
0
39
0
210
0
220
0
230
1
0
LINE
5
8F
100
AcDbEntity
8
SK1
62
256
6
ByLayer
370
18
48
1
60
0
100
AcDbLine
10
-47
20
-9.525
30
0
11
0
21
-9.525
31
0
39
0
210
0
220
0
230
1
0
LINE
5
90
100
AcDbEntity
8
SK1
62
256
6
ByLayer
370
18
48
1
60
0
100
AcDbLine
10
0
20
9.525
30
0
11
-47
21
9.525
31
0
39
0
210
0
220
0
230
1
0
LINE
5
91
100
AcDbEntity
8
1
62
256
6
ByLayer
370
18
48
1
60
0
100
AcDbLine
10
0
20
9.525
30
0
11
0
21
-9.525
31
0
39
0
210
0
220
0
230
1
0
LINE
5
92
100
AcDbEntity
8
1
62
256
6
ByLayer
370
18
48
1
60
0
100
AcDbLine
10
125.17768
20
9.128
30
0
11
125.17768
21
8.838151
31
0
39
0
210
0
220
0
230
1
0
LINE
5
93
100
AcDbEntity
8
1
62
256
6
ByLayer
370
18
48
1
60
0
100
AcDbLine
10
125.17768
20
-9.128
30
0
11
125.17768
21
-1.303123
31
0
39
0
210
0
220
0
230
1
0
LINE
5
94
100
AcDbEntity
8
1
62
256
6
ByLayer
370
18
48
1
60
0
100
AcDbLine
10
10
20
-4.212751
30
0
11
10
21
8.406029
31
0
39
0
210
0
220
0
230
1
0
LINE
5
95
100
AcDbEntity
8
SK1
62
256
6
ByLayer
370
18
48
1
60
0
100
AcDbLine
10
-48
20
-8.525
30
0
11
-48
21
8.525
31
0
39
0
210
0
220
0
230
1
0
LINE
5
96
100
AcDbEntity
8
SK1
62
256
6
ByLayer
370
18
48
1
60
0
100
AcDbLine
10
-40.207362
20
-3.933192
30
0
11
-40.207362
21
3.933192
31
0
39
0
210
0
220
0
230
1
0
LINE
5
97
100
AcDbEntity
8
SK1
62
256
6
ByLayer
370
18
48
1
60
0
100
AcDbLine
10
0
20
9.525
30
0
11
0
21
-9.525
31
0
39
0
210
0
220
0
230
1
0
LINE
5
98
100
AcDbEntity
8
SK1
62
256
6
ByLayer
370
18
48
1
60
0
100
AcDbLine
10
-47
20
-9.525
30
0
11
-47
21
9.525
31
0
39
0
210
0
220
0
230
1
0
LINE
5
99
100
AcDbEntity
8
SK1
62
256
6
ByLayer
370
18
48
1
60
0
100
AcDbLine
10
-5.911513
20
-3.933192
30
0
11
-40.207362
21
-3.933192
31
0
39
0
210
0
220
0
230
1
0
LINE
5
9A
100
AcDbEntity
8
SK1
62
256
6
ByLayer
370
18
48
1
60
0
100
AcDbLine
10
-40.207362
20
3.933192
30
0
11
-5.911513
21
3.933192
31
0
39
0
210
0
220
0
230
1
0
LINE
5
9B
100
AcDbEntity
8
SK1
62
256
6
ByLayer
370
18
48
1
60
0
100
AcDbLine
10
-5.911513
20
-3.933192
30
0
11
-5.911513
21
3.933192
31
0
39
0
210
0
220
0
230
1
0
LINE
5
9C
100
AcDbEntity
8
1
62
256
6
ByLayer
370
18
48
1
60
0
100
AcDbLine
10
125.17768
20
9.128
30
0
11
125.17768
21
-9.128
31
0
39
0
210
0
220
0
230
1
0
LINE
5
9D
100
AcDbEntity
8
1
62
256
6
ByLayer
370
18
48
1
60
0
100
AcDbLine
10
125.17768
20
9.128
30
0
11
125.17768
21
-9.128
31
0
39
0
210
0
220
0
230
1
0
LINE
5
9E
100
AcDbEntity
8
1
62
256
6
ByLayer
370
18
48
1
60
0
100
AcDbLine
10
125.17768
20
9.128
30
0
11
125.17768
21
-9.128
31
0
39
0
210
0
220
0
230
1
0
LINE
5
9F
100
AcDbEntity
8
1
62
256
6
ByLayer
370
18
48
1
60
0
100
AcDbLine
10
115.6
20
9.128
30
0
11
115.6
21
-9.128
31
0
39
0
210
0
220
0
230
1
0
LINE
5
A0
100
AcDbEntity
8
1
62
256
6
ByLayer
370
18
48
1
60
0
100
AcDbLine
10
115.6
20
9.128
30
0
11
115.6
21
-9.128
31
0
39
0
210
0
220
0
230
1
0
LINE
5
A1
100
AcDbEntity
8
1
62
256
6
ByLayer
370
18
48
1
60
0
100
AcDbLine
10
125.17768
20
9.128
30
0
11
125.17768
21
-9.128
31
0
39
0
210
0
220
0
230
1
0
LINE
5
A2
100
AcDbEntity
8
1
62
256
6
ByLayer
370
18
48
1
60
0
100
AcDbLine
10
115.6
20
9.128
30
0
11
115.6
21
-9.128
31
0
39
0
210
0
220
0
230
1
0
LINE
5
A3
100
AcDbEntity
8
1
62
256
6
ByLayer
370
18
48
1
60
0
100
AcDbLine
10
125.17768
20
9.128
30
0
11
125.17768
21
-9.128
31
0
39
0
210
0
220
0
230
1
0
LINE
5
A4
100
AcDbEntity
8
SK2
62
256
6
ByLayer
370
13
48
1
60
0
100
AcDbLine
10
-54.5
20
-9.525
30
0
11
-54.5
21
37.799683
31
0
39
0
210
0
220
0
230
1
0
LINE
5
A6
100
AcDbEntity
8
SK2
62
256
6
ByLayer
370
13
48
1
60
0
100
AcDbLine
10
-49.5875
20
9.525
30
0
11
-56.5
21
9.525
31
0
39
0
210
0
220
0
230
1
0
LINE
5
A7
100
AcDbEntity
8
SK2
62
256
6
ByLayer
370
13
48
1
60
0
100
AcDbLine
10
-49.5875
20
-9.525
30
0
11
-56.5
21
-9.525
31
0
39
0
210
0
220
0
230
1
0
LINE
5
A8
100
AcDbEntity
8
1
62
256
6
ByLayer
370
18
48
1
60
1
100
AcDbLine
10
-54.5
20
9.525
30
0
11
-54.039216
21
6.025002
31
0
39
0
210
0
220
0
230
1
0
LINE
5
A9
100
AcDbEntity
8
1
62
256
6
ByLayer
370
18
48
1
60
1
100
AcDbLine
10
-54.039216
20
6.025002
30
0
11
-54.960784
21
6.024998
31
0
39
0
210
0
220
0
230
1
0
LINE
5
AA
100
AcDbEntity
8
1
62
256
6
ByLayer
370
18
48
1
60
1
100
AcDbLine
10
-54.960784
20
6.024998
30
0
11
-54.5
21
9.525
31
0
39
0
210
0
220
0
230
1
0
LINE
5
AB
100
AcDbEntity
8
1
62
256
6
ByLayer
370
18
48
1
60
1
100
AcDbLine
10
-54.5
20
-9.525
30
0
11
-54.960784
21
-6.025002
31
0
39
0
210
0
220
0
230
1
0
LINE
5
AC
100
AcDbEntity
8
1
62
256
6
ByLayer
370
18
48
1
60
1
100
AcDbLine
10
-54.960784
20
-6.025002
30
0
11
-54.039216
21
-6.024998
31
0
39
0
210
0
220
0
230
1
0
LINE
5
AD
100
AcDbEntity
8
1
62
256
6
ByLayer
370
18
48
1
60
1
100
AcDbLine
10
-54.039216
20
-6.024998
30
0
11
-54.5
21
-9.525
31
0
39
0
210
0
220
0
230
1
0
LINE
5
AE
100
AcDbEntity
8
2
62
256
6
ByLayer
370
13
48
1
60
0
100
AcDbLine
10
136
20
-9.128
30
0
11
136
21
37.402683
31
0
39
0
210
0
220
0
230
1
0
LINE
5
B0
100
AcDbEntity
8
2
62
256
6
ByLayer
370
13
48
1
60
0
100
AcDbLine
10
126.76518
20
9.128
30
0
11
138
21
9.128
31
0
39
0
210
0
220
0
230
1
0
LINE
5
B1
100
AcDbEntity
8
2
62
256
6
ByLayer
370
13
48
1
60
0
100
AcDbLine
10
126.76518
20
-9.128
30
0
11
138
21
-9.128
31
0
39
0
210
0
220
0
230
1
0
LINE
5
B2
100
AcDbEntity
8
1
62
256
6
ByLayer
370
18
48
1
60
1
100
AcDbLine
10
136
20
9.128
30
0
11
136.460784
21
5.628002
31
0
39
0
210
0
220
0
230
1
0
LINE
5
B3
100
AcDbEntity
8
1
62
256
6
ByLayer
370
18
48
1
60
1
100
AcDbLine
10
136.460784
20
5.628002
30
0
11
135.539216
21
5.627998
31
0
39
0
210
0
220
0
230
1
0
LINE
5
B4
100
AcDbEntity
8
1
62
256
6
ByLayer
370
18
48
1
60
1
100
AcDbLine
10
135.539216
20
5.627998
30
0
11
136
21
9.128
31
0
39
0
210
0
220
0
230
1
0
LINE
5
B5
100
AcDbEntity
8
1
62
256
6
ByLayer
370
18
48
1
60
1
100
AcDbLine
10
136
20
-9.128
30
0
11
135.539216
21
-5.628002
31
0
39
0
210
0
220
0
230
1
0
LINE
5
B6
100
AcDbEntity
8
1
62
256
6
ByLayer
370
18
48
1
60
1
100
AcDbLine
10
135.539216
20
-5.628002
30
0
11
136.460784
21
-5.627998
31
0
39
0
210
0
220
0
230
1
0
LINE
5
B7
100
AcDbEntity
8
1
62
256
6
ByLayer
370
18
48
1
60
1
100
AcDbLine
10
136.460784
20
-5.627998
30
0
11
136
21
-9.128
31
0
39
0
210
0
220
0
230
1
0
LINE
5
B8
100
AcDbEntity
8
SK2
62
256
6
ByLayer
370
13
48
1
60
0
100
AcDbLine
10
129.042957
20
-1.491762
30
0
11
135.682423
21
-19.733545
31
0
39
0
210
0
220
0
230
1
0
LINE
5
B9
100
AcDbEntity
8
SK2
62
256
6
ByLayer
370
13
48
1
60
0
100
AcDbLine
10
129.042957
20
1.491762
30
0
11
135.682423
21
19.733545
31
0
39
0
210
0
220
0
230
1
0
LINE
5
BA
100
AcDbEntity
8
1
62
256
6
ByLayer
370
18
48
1
60
1
100
AcDbLine
10
134.998383
20
-17.85416
30
0
11
138.051575
21
-16.082064
31
0
39
0
210
0
220
0
230
1
0
LINE
5
BB
100
AcDbEntity
8
1
62
256
6
ByLayer
370
18
48
1
60
1
100
AcDbLine
10
138.051575
20
-16.082064
30
0
11
138.406196
21
-16.93267
31
0
39
0
210
0
220
0
230
1
0
LINE
5
BC
100
AcDbEntity
8
1
62
256
6
ByLayer
370
18
48
1
60
1
100
AcDbLine
10
138.406196
20
-16.93267
30
0
11
134.998383
21
-17.85416
31
0
39
0
210
0
220
0
230
1
0
LINE
5
BD
100
AcDbEntity
8
1
62
256
6
ByLayer
370
18
48
1
60
1
100
AcDbLine
10
134.998383
20
17.85416
30
0
11
138.406193
21
16.932671
31
0
39
0
210
0
220
0
230
1
0
LINE
5
BE
100
AcDbEntity
8
1
62
256
6
ByLayer
370
18
48
1
60
1
100
AcDbLine
10
138.406193
20
16.932671
30
0
11
138.051579
21
16.082063
31
0
39
0
210
0
220
0
230
1
0
LINE
5
BF
100
AcDbEntity
8
1
62
256
6
ByLayer
370
18
48
1
60
1
100
AcDbLine
10
138.051579
20
16.082063
30
0
11
134.998383
21
17.85416
31
0
39
0
210
0
220
0
230
1
0
LINE
5
12D
100
AcDbEntity
8
1
62
256
6
ByLayer
370
18
48
1
60
1
100
AcDbLine
10
-54.5
20
9.525
30
0
11
-54.039216
21
6.025002
31
0
39
0
210
0
220
0
230
1
0
LINE
5
12E
100
AcDbEntity
8
1
62
256
6
ByLayer
370
18
48
1
60
1
100
AcDbLine
10
-54.039216
20
6.025002
30
0
11
-54.960784
21
6.024998
31
0
39
0
210
0
220
0
230
1
0
LINE
5
12F
100
AcDbEntity
8
1
62
256
6
ByLayer
370
18
48
1
60
1
100
AcDbLine
10
-54.960784
20
6.024998
30
0
11
-54.5
21
9.525
31
0
39
0
210
0
220
0
230
1
0
LINE
5
131
100
AcDbEntity
8
1
62
256
6
ByLayer
370
18
48
1
60
1
100
AcDbLine
10
-54.5
20
-9.525
30
0
11
-54.960784
21
-6.025002
31
0
39
0
210
0
220
0
230
1
0
LINE
5
132
100
AcDbEntity
8
1
62
256
6
ByLayer
370
18
48
1
60
1
100
AcDbLine
10
-54.960784
20
-6.025002
30
0
11
-54.039216
21
-6.024998
31
0
39
0
210
0
220
0
230
1
0
LINE
5
133
100
AcDbEntity
8
1
62
256
6
ByLayer
370
18
48
1
60
1
100
AcDbLine
10
-54.039216
20
-6.024998
30
0
11
-54.5
21
-9.525
31
0
39
0
210
0
220
0
230
1
0
LINE
5
137
100
AcDbEntity
8
1
62
256
6
ByLayer
370
18
48
1
60
1
100
AcDbLine
10
136
20
9.128
30
0
11
136.460784
21
5.628002
31
0
39
0
210
0
220
0
230
1
0
LINE
5
138
100
AcDbEntity
8
1
62
256
6
ByLayer
370
18
48
1
60
1
100
AcDbLine
10
136.460784
20
5.628002
30
0
11
135.539216
21
5.627998
31
0
39
0
210
0
220
0
230
1
0
LINE
5
139
100
AcDbEntity
8
1
62
256
6
ByLayer
370
18
48
1
60
1
100
AcDbLine
10
135.539216
20
5.627998
30
0
11
136
21
9.128
31
0
39
0
210
0
220
0
230
1
0
LINE
5
13B
100
AcDbEntity
8
1
62
256
6
ByLayer
370
18
48
1
60
1
100
AcDbLine
10
136
20
-9.128
30
0
11
135.539216
21
-5.628002
31
0
39
0
210
0
220
0
230
1
0
LINE
5
13C
100
AcDbEntity
8
1
62
256
6
ByLayer
370
18
48
1
60
1
100
AcDbLine
10
135.539216
20
-5.628002
30
0
11
136.460784
21
-5.627998
31
0
39
0
210
0
220
0
230
1
0
LINE
5
13D
100
AcDbEntity
8
1
62
256
6
ByLayer
370
18
48
1
60
1
100
AcDbLine
10
136.460784
20
-5.627998
30
0
11
136
21
-9.128
31
0
39
0
210
0
220
0
230
1
0
LINE
5
140
100
AcDbEntity
8
1
62
256
6
ByLayer
370
18
48
1
60
1
100
AcDbLine
10
134.998383
20
-17.85416
30
0
11
138.051575
21
-16.082064
31
0
39
0
210
0
220
0
230
1
0
LINE
5
141
100
AcDbEntity
8
1
62
256
6
ByLayer
370
18
48
1
60
1
100
AcDbLine
10
138.051575
20
-16.082064
30
0
11
138.406196
21
-16.93267
31
0
39
0
210
0
220
0
230
1
0
LINE
5
142
100
AcDbEntity
8
1
62
256
6
ByLayer
370
18
48
1
60
1
100
AcDbLine
10
138.406196
20
-16.93267
30
0
11
134.998383
21
-17.85416
31
0
39
0
210
0
220
0
230
1
0
LINE
5
144
100
AcDbEntity
8
1
62
256
6
ByLayer
370
18
48
1
60
1
100
AcDbLine
10
134.998383
20
17.85416
30
0
11
138.406193
21
16.932671
31
0
39
0
210
0
220
0
230
1
0
LINE
5
145
100
AcDbEntity
8
1
62
256
6
ByLayer
370
18
48
1
60
1
100
AcDbLine
10
138.406193
20
16.932671
30
0
11
138.051579
21
16.082063
31
0
39
0
210
0
220
0
230
1
0
LINE
5
146
100
AcDbEntity
8
1
62
256
6
ByLayer
370
18
48
1
60
1
100
AcDbLine
10
138.051579
20
16.082063
30
0
11
134.998383
21
17.85416
31
0
39
0
210
0
220
0
230
1
0
MTEXT
5
129
100
AcDbEntity
8
SK2
62
256
6
ByLayer
370
18
48
1
60
0
100
AcDbMText
10
-55.841114
20
21.183438
30
0
210
0
220
0
230
1
1
%%c
40
3
41
0
44
1.084337
50
90
71
7
72
5
7
iso_b_vert
0
MTEXT
5
12C
100
AcDbEntity
8
SK2
62
256
6
ByLayer
370
18
48
1
60
0
100
AcDbMText
10
-55.841114
20
27.16
30
0
210
0
220
0
230
1
1
\W0.7022;19.050
40
3
41
0
44
1.084337
50
90
71
7
72
5
7
iso_b_vert
0
MTEXT
5
135
100
AcDbEntity
8
2
62
256
6
ByLayer
370
18
48
1
60
0
100
AcDbMText
10
134.658886
20
20.786438
30
0
210
0
220
0
230
1
1
%%c
40
3
41
0
44
1.084337
50
90
71
7
72
5
7
iso_b_vert
0
MTEXT
5
136
100
AcDbEntity
8
2
62
256
6
ByLayer
370
18
48
1
60
0
100
AcDbMText
10
134.658886
20
26.763
30
0
210
0
220
0
230
1
1
\W0.7022;18.256
40
3
41
0
44
1.084337
50
90
71
7
72
5
7
iso_b_vert
0
MTEXT
5
13F
100
AcDbEntity
8
SK2
62
256
6
ByLayer
370
18
48
1
60
0
100
AcDbMText
10
148.409114
20
3.734657
30
0
210
0
220
0
230
1
1
\W0.7071;140%%d
40
3
41
0
44
1.084337
50
270
71
7
72
5
7
iso_b_vert
0
MTEXT
5
148
100
AcDbEntity
8
SK6
62
256
6
ByLayer
370
18
48
1
60
0
100
AcDbMText
10
12.023489
20
-67.114886
30
0
210
0
220
0
230
1
1
\W0.7833;H85523/32
40
3
41
0
44
1.084337
50
0
71
7
72
5
7
iso_b_vert
0
HATCH
5
130
100
AcDbEntity
8
SK2
62
256
6
ByLayer
370
13
48
1
60
0
100
AcDbHatch
10
0
20
0
30
0
210
0
220
0
230
1
2
ANSI31
70
0
71
0
91
1
92
5
93
3
72
1
10
-54.5
20
9.52500000000001
11
-54.0392162584472
21
6.02500169255319
72
1
10
-54.0392162584472
20
6.02500169255319
11
-54.9607837415528
21
6.02499830744682
72
1
10
-54.9607837415528
20
6.02499830744682
11
-54.5
21
9.52500000000001
97
0
75
0
76
1
52
0
41
0.0062
77
0
78
1
53
45
43
0
44
0
45
-0.0139193969876572
46
0.0139193969876572
79
0
47
0
98
1
10
0
20
0
0
HATCH
5
134
100
AcDbEntity
8
SK2
62
256
6
ByLayer
370
13
48
1
60
0
100
AcDbHatch
10
0
20
0
30
0
210
0
220
0
230
1
2
ANSI31
70
0
71
0
91
1
92
5
93
3
72
1
10
-54.5
20
-9.52499999999998
11
-54.9607837415528
21
-6.02500169255316
72
1
10
-54.9607837415528
20
-6.02500169255316
11
-54.0392162584472
21
-6.02499830744679
72
1
10
-54.0392162584472
20
-6.02499830744679
11
-54.5
21
-9.52499999999998
97
0
75
0
76
1
52
0
41
0.0062
77
0
78
1
53
45
43
0
44
0
45
-0.0139193969876572
46
0.0139193969876572
79
0
47
0
98
1
10
0
20
0
0
HATCH
5
13A
100
AcDbEntity
8
2
62
256
6
ByLayer
370
13
48
1
60
0
100
AcDbHatch
10
0
20
0
30
0
210
0
220
0
230
1
2
ANSI31
70
0
71
0
91
1
92
5
93
3
72
1
10
136
20
9.12800000000001
11
136.460783741553
21
5.6280016925532
72
1
10
136.460783741553
20
5.6280016925532
11
135.539216258447
21
5.62799830744683
72
1
10
135.539216258447
20
5.62799830744683
11
136
21
9.12800000000001
97
0
75
0
76
1
52
0
41
0.0062
77
0
78
1
53
45
43
0
44
0
45
-0.0139193969876572
46
0.0139193969876572
79
0
47
0
98
1
10
0
20
0
0
HATCH
5
13E
100
AcDbEntity
8
2
62
256
6
ByLayer
370
13
48
1
60
0
100
AcDbHatch
10
0
20
0
30
0
210
0
220
0
230
1
2
ANSI31
70
0
71
0
91
1
92
5
93
3
72
1
10
136
20
-9.12799999999999
11
135.539216258447
21
-5.62800169255317
72
1
10
135.539216258447
20
-5.62800169255317
11
136.460783741553
21
-5.6279983074468
72
1
10
136.460783741553
20
-5.6279983074468
11
136
21
-9.12799999999999
97
0
75
0
76
1
52
0
41
0.0062
77
0
78
1
53
45
43
0
44
0
45
-0.0139193969876572
46
0.0139193969876572
79
0
47
0
98
1
10
0
20
0
0
HATCH
5
143
100
AcDbEntity
8
SK2
62
256
6
ByLayer
370
13
48
1
60
0
100
AcDbHatch
10
0
20
0
30
0
210
0
220
0
230
1
2
ANSI31
70
0
71
0
91
1
92
5
93
3
72
1
10
134.998382723188
20
-17.8541597949323
11
138.051575425693
21
-16.0820638240608
72
1
10
138.051575425693
20
-16.0820638240608
11
138.406195833975
21
-16.9326700737196
72
1
10
138.406195833975
20
-16.9326700737196
11
134.998382723188
21
-17.8541597949323
97
0
75
0
76
1
52
0
41
0.0062
77
0
78
1
53
45
43
0
44
0
45
-0.0139193969876572
46
0.0139193969876572
79
0
47
0
98
1
10
0
20
0
0
HATCH
5
147
100
AcDbEntity
8
SK2
62
256
6
ByLayer
370
13
48
1
60
0
100
AcDbHatch
10
0
20
0
30
0
210
0
220
0
230
1
2
ANSI31
70
0
71
0
91
1
92
5
93
3
72
1
10
134.998382723188
20
17.8541597949323
11
138.406192709519
21
16.9326713763017
72
1
10
138.406192709519
20
16.9326713763017
11
138.051578550149
21
16.0820625214788
72
1
10
138.051578550149
20
16.0820625214788
11
134.998382723188
21
17.8541597949323
97
0
75
0
76
1
52
0
41
0.0062
77
0
78
1
53
45
43
0
44
0
45
-0.0139193969876572
46
0.0139193969876572
79
0
47
0
98
1
10
0
20
0
0
DIMENSION
5
14B
100
AcDbEntity
8
SK2
62
256
6
ByLayer
370
18
48
1
60
0
100
AcDbDimension
2
_U0
10
128.5
20
-45.952229
30
0
11
40.25
21
-45.952229
31
0
70
32
71
1
72
1
41
1
210
0
220
0
230
1
3
Standard
100
AcDbAlignedDimension
13
-48
23
-9.525
33
0
14
128.5
24
0
34
0
50
0
100
AcDbRotatedDimension
1001
ACAD
1000
DSTYLE
1002
{
1070
   371
1070
    13
1070
   372
1070
    13
1070
     3
1000

1070
   170
1070
     0
1070
   144
1040
1.0
1070
   277
1070
     2
1070
   284
1070
     8
1070
   278
1070
    46
1070
   146
1040
1.166667
1070
   345
1005
16
1070
   347
1005
16
1070
   346
1005
16
1070
   344
1005
0
1070
   343
1005
0
1070
   172
1070
     1
1070
    76
1070
     0
1070
    75
1070
     0
1070
   282
1070
     0
1070
   281
1070
     0
1070
    71
1070
     0
1070
    74
1070
     0
1070
   279
1070
     0
1070
   173
1070
     1
1070
   340
1005
12A
1070
   271
1070
     2
1070
   272
1070
     3
1070
    77
1070
     1
1070
    73
1070
     1
1070
   171
1070
     3
1070
   274
1070
     4
1070
   177
1070
     2
1070
   176
1070
     2
1070
   178
1070
     2
1070
    78
1070
     8
1070
    48
1040
-0.1
1070
    41
1040
3.5
1070
   147
1040
1.5
1070
    42
1040
1.5875
1070
    44
1040
2.0
1070
   140
1040
3.0
1002
}
1001
ACAD_DSTYLE_DIM_LINETYPE
1070
   380
1005
16
1001
ACAD_DSTYLE_DIM_EXT1_LINETYPE
1070
   381
1005
16
1001
ACAD_DSTYLE_DIM_EXT2_LINETYPE
1070
   382
1005
16
0
DIMENSION
5
164
100
AcDbEntity
8
SK2
62
256
6
ByLayer
370
18
48
1
60
0
100
AcDbDimension
2
_U1
10
3
20
-35.952229
30
0
11
65.75
21
-35.952229
31
0
70
32
71
1
72
1
41
1
210
0
220
0
230
1
3
Standard
100
AcDbAlignedDimension
13
128.5
23
0
33
0
14
3
24
-9.128
34
0
50
0
100
AcDbRotatedDimension
1001
ACAD
1000
DSTYLE
1002
{
1070
   371
1070
    13
1070
   372
1070
    13
1070
     3
1000

1070
   170
1070
     0
1070
   144
1040
1.0
1070
   277
1070
     2
1070
   284
1070
     8
1070
   278
1070
    46
1070
   146
1040
1.166667
1070
   345
1005
16
1070
   347
1005
16
1070
   346
1005
16
1070
   344
1005
0
1070
   343
1005
0
1070
   172
1070
     1
1070
    76
1070
     0
1070
    75
1070
     0
1070
   282
1070
     0
1070
   281
1070
     0
1070
    71
1070
     0
1070
    74
1070
     0
1070
   279
1070
     0
1070
   173
1070
     1
1070
   340
1005
12A
1070
   271
1070
     2
1070
   272
1070
     3
1070
    77
1070
     1
1070
    73
1070
     1
1070
   171
1070
     3
1070
   274
1070
     4
1070
   177
1070
     2
1070
   176
1070
     2
1070
   178
1070
     2
1070
    78
1070
     8
1070
    48
1040
-0.1
1070
    41
1040
3.5
1070
   147
1040
1.5
1070
    42
1040
1.5875
1070
    44
1040
2.0
1070
   140
1040
3.0
1002
}
1001
ACAD_DSTYLE_DIM_LINETYPE
1070
   380
1005
16
1001
ACAD_DSTYLE_DIM_EXT1_LINETYPE
1070
   381
1005
16
1001
ACAD_DSTYLE_DIM_EXT2_LINETYPE
1070
   382
1005
16
0
DIMENSION
5
17C
100
AcDbEntity
8
SK2
62
256
6
ByLayer
370
18
48
1
60
0
100
AcDbDimension
2
_U2
10
0
20
-35.952229
30
0
11
-24
21
-35.952229
31
0
70
32
71
1
72
1
41
1
210
0
220
0
230
1
3
Standard
100
AcDbAlignedDimension
13
-48
23
-9.525
33
0
14
0
24
-9.525
34
0
50
0
100
AcDbRotatedDimension
1001
ACAD
1000
DSTYLE
1002
{
1070
   371
1070
    13
1070
   372
1070
    13
1070
     3
1000

1070
   170
1070
     0
1070
   144
1040
1.0
1070
   277
1070
     2
1070
   284
1070
     8
1070
   278
1070
    46
1070
   146
1040
1.166667
1070
   345
1005
16
1070
   347
1005
16
1070
   346
1005
16
1070
   344
1005
0
1070
   343
1005
0
1070
   172
1070
     1
1070
    76
1070
     0
1070
    75
1070
     0
1070
   282
1070
     0
1070
   281
1070
     0
1070
    71
1070
     0
1070
    74
1070
     0
1070
   279
1070
     0
1070
   173
1070
     1
1070
   340
1005
12A
1070
   271
1070
     2
1070
   272
1070
     3
1070
    77
1070
     1
1070
    73
1070
     1
1070
   171
1070
     3
1070
   274
1070
     4
1070
   177
1070
     2
1070
   176
1070
     2
1070
   178
1070
     2
1070
    78
1070
     8
1070
    48
1040
-0.1
1070
    41
1040
3.5
1070
   147
1040
1.5
1070
    42
1040
1.5875
1070
    44
1040
2.0
1070
   140
1040
3.0
1002
}
1001
ACAD_DSTYLE_DIM_LINETYPE
1070
   380
1005
16
1001
ACAD_DSTYLE_DIM_EXT1_LINETYPE
1070
   381
1005
16
1001
ACAD_DSTYLE_DIM_EXT2_LINETYPE
1070
   382
1005
16
0
DIMENSION
5
194
100
AcDbEntity
8
SK2
62
256
6
ByLayer
370
18
48
1
60
0
100
AcDbDimension
2
_U3
10
25
20
32.952229
30
0
11
76.75
21
32.952229
31
0
70
32
71
1
72
1
41
1
210
0
220
0
230
1
3
Standard
100
AcDbAlignedDimension
13
128.5
23
0
33
0
14
25
24
9.128
34
0
50
0
100
AcDbRotatedDimension
1001
ACAD
1000
DSTYLE
1002
{
1070
   371
1070
    13
1070
   372
1070
    13
1070
     3
1000

1070
   170
1070
     0
1070
   144
1040
1.0
1070
   277
1070
     2
1070
   284
1070
     8
1070
   278
1070
    46
1070
   146
1040
1.166667
1070
   345
1005
16
1070
   347
1005
16
1070
   346
1005
16
1070
   344
1005
0
1070
   343
1005
0
1070
   172
1070
     1
1070
    76
1070
     0
1070
    75
1070
     0
1070
   282
1070
     0
1070
   281
1070
     0
1070
    71
1070
     0
1070
    74
1070
     0
1070
   279
1070
     0
1070
   173
1070
     1
1070
   340
1005
12A
1070
   271
1070
     2
1070
   272
1070
     3
1070
    77
1070
     1
1070
    73
1070
     1
1070
   171
1070
     3
1070
   274
1070
     4
1070
   177
1070
     2
1070
   176
1070
     2
1070
   178
1070
     2
1070
    78
1070
     8
1070
    48
1040
-0.1
1070
    41
1040
3.5
1070
   147
1040
1.5
1070
    42
1040
1.5875
1070
    44
1040
2.0
1070
   140
1040
3.0
1002
}
1001
ACAD_DSTYLE_DIM_LINETYPE
1070
   380
1005
16
1001
ACAD_DSTYLE_DIM_EXT1_LINETYPE
1070
   381
1005
16
1001
ACAD_DSTYLE_DIM_EXT2_LINETYPE
1070
   382
1005
16
0
ENDSEC
0
SECTION
2
OBJECTS
0
DICTIONARY
5
21c
330
0
100
AcDbDictionary
280
0
281
1
3
ACAD_GROUP
350
21d
3
ACAD_MLINESTYLE
350
21e
0
DICTIONARY
5
21d
330
0
100
AcDbDictionary
280
0
281
1
0
DICTIONARY
5
21e
330
0
100
AcDbDictionary
280
0
281
1
3
Standard
350
18
0
MLINESTYLE
5
18
330
21e
100
AcDbMlineStyle
2
Standard
70
0
3

62
256
51
90
52
90
71
2
49
-0.5
62
256
6
ByLayer
49
0.5
62
256
6
ByLayer
0
RASTERVARIABLES
5
20a
330

100
AcDbRasterVariables
90
0
70
1
71
1
72
1
0
ENDSEC
0
EOF
