0
SECTION
2
HEADER
9
$ACADVER
1
AC1015
9
$DWGCODEPAGE
3
ANSI_1252
9
$HANDSEED
5
242
9
$ANGBASE
50
0
9
$ANGDIR
70
0
9
$ATTMODE
70
1
9
$AUNITS
70
0
9
$AUPREC
70
0
9
$CECOLOR
62
256
9
$CELTSCALE
40
1
9
$CELTYPE
6
ByLayer
9
$CELWEIGHT
370
18
9
$CLAYER
8
0
9
$CMLJUST
70
0
9
$CMLSCALE
40
1
9
$CMLSTYLE
2
Standard
9
$DIMSTYLE
2
Standard
9
$TEXTSIZE
40
0.2
9
$TEXTSTYLE
7
Standard
9
$LUNITS
70
2
9
$LUPREC
70
4
9
$EXTNAMES
290
1
9
$INSUNITS
70
4
9
$LTSCALE
40
1
9
$LWDISPLAY
290
1
9
$PDMODE
70
0
9
$PDSIZE
40
0
9
$PLINEGEN
70
0
0
ENDSEC
0
SECTION
2
CLASSES
0
CLASS
1
RASTERVARIABLES
2
AcDbRasterVariables
3
ISM
90
0
280
0
281
0
0
ENDSEC
0
SECTION
2
TABLES
0
TABLE
2
VPORT
5
238
100
AcDbSymbolTable
0
VPORT
5
1
100
AcDbSymbolTableRecord
100
AcDbViewportTableRecord
2
*Active
70
0
10
0
20
0
11
1
21
1
12
-1
22
1
13
0
23
0
14
0.5
24
0.5
15
10
25
10
16
0
26
0
36
1
17
0
27
0
37
0
0
ENDTAB
0
TABLE
2
LTYPE
5
239
100
AcDbSymbolTable
0
LTYPE
5
14
100
AcDbSymbolTableRecord
100
AcDbLinetypeTableRecord
70
0
2
ByBlock
3

72
65
73
0
40
0
0
LTYPE
5
15
100
AcDbSymbolTableRecord
100
AcDbLinetypeTableRecord
70
0
2
ByLayer
3

72
65
73
0
40
0
0
LTYPE
5
16
100
AcDbSymbolTableRecord
100
AcDbLinetypeTableRecord
70
0
2
Continuous
3
Solid line
72
65
73
0
40
0
0
LTYPE
5
6E
100
AcDbSymbolTableRecord
100
AcDbLinetypeTableRecord
70
0
2
CENTER
3
____ _ ____ _ ____ _ ____
72
65
73
4
40
47.5
49
22
74
0
49
-8.5
74
0
49
8.5
74
0
49
-8.5
74
0
0
LTYPE
5
6F
100
AcDbSymbolTableRecord
100
AcDbLinetypeTableRecord
70
0
2
DASHED
3
__ __ __ __ __ __ __ __ __
72
65
73
2
40
25.72
49
12.86
74
0
49
-12.86
74
0
0
ENDTAB
0
TABLE
2
LAYER
5
23a
100
AcDbSymbolTable
0
LAYER
5
10
100
AcDbSymbolTableRecord
100
AcDbLayerTableRecord
2
0
70
0
62
7
6
Continuous
290
1
370
-3
390
0
0
LAYER
5
71
100
AcDbSymbolTableRecord
100
AcDbLayerTableRecord
2
80
70
0
62
-6
6
Continuous
290
1
370
-3
390
0
0
LAYER
5
73
100
AcDbSymbolTableRecord
100
AcDbLayerTableRecord
2
81
70
0
62
-3
6
Continuous
290
1
370
-3
390
0
0
LAYER
5
75
100
AcDbSymbolTableRecord
100
AcDbLayerTableRecord
2
1
70
0
62
4
6
Continuous
290
1
370
-3
390
0
0
LAYER
5
7F
100
AcDbSymbolTableRecord
100
AcDbLayerTableRecord
2
4
70
0
62
-2
6
CENTER
290
1
370
-3
390
0
0
LAYER
5
B0
100
AcDbSymbolTableRecord
100
AcDbLayerTableRecord
2
2
70
0
62
7
6
Continuous
290
1
370
-3
390
0
0
LAYER
5
167
100
AcDbSymbolTableRecord
100
AcDbLayerTableRecord
2
Defpoints
70
0
62
7
6
Continuous
290
0
370
-3
390
0
0
LAYER
5
224
100
AcDbSymbolTableRecord
100
AcDbLayerTableRecord
2
SK4
70
0
62
2
6
CENTER
290
1
370
-3
390
0
0
LAYER
5
225
100
AcDbSymbolTableRecord
100
AcDbLayerTableRecord
2
SK1
70
0
62
4
6
Continuous
290
1
370
-3
390
0
0
LAYER
5
226
100
AcDbSymbolTableRecord
100
AcDbLayerTableRecord
2
SK2
70
0
62
7
6
Continuous
290
1
370
-3
390
0
0
LAYER
5
227
100
AcDbSymbolTableRecord
100
AcDbLayerTableRecord
2
SK6
70
0
62
5
6
Continuous
290
1
370
-3
390
0
0
ENDTAB
0
TABLE
2
STYLE
5
23b
100
AcDbSymbolTable
0
STYLE
5
11
100
AcDbSymbolTableRecord
100
AcDbTextStyleTableRecord
2
Standard
3
txt
70
0
71
0
40
0
41
1
42
0
50
0
0
STYLE
5
143
100
AcDbSymbolTableRecord
100
AcDbTextStyleTableRecord
2
iso_b_vert
3
simplex.shx
70
0
71
0
40
0
41
1
42
0
50
0
0
STYLE
5
144
100
AcDbSymbolTableRecord
100
AcDbTextStyleTableRecord
2
DWGDirectTextStyle
3
simplex
70
0
71
0
40
0
41
1
42
0
50
0
0
ENDTAB
0
TABLE
2
DIMSTYLE
5
23c
100
AcDbSymbolTable
100
AcDbDimStyleTable
0
DIMSTYLE
105
27
100
AcDbSymbolTableRecord
100
AcDbDimStyleTableRecord
2
Standard
70
0
3
<>
41
0.18
42
0.0625
44
0.18
140
0.18
147
0.09
73
0
74
0
77
1
271
2
275
0
278
52
280
0
340
11
0
ENDTAB
0
TABLE
2
VIEW
5
23d
100
AcDbSymbolTable
0
ENDTAB
0
TABLE
2
UCS
5
23e
100
AcDbSymbolTable
0
ENDTAB
0
TABLE
2
APPID
5
23f
100
AcDbSymbolTable
0
APPID
5
12
100
AcDbSymbolTableRecord
100
AcDbRegAppTableRecord
2
ACAD
70
0
0
APPID
5
163
100
AcDbSymbolTableRecord
100
AcDbRegAppTableRecord
2
ACAD_DSTYLE_DIMBREAK
70
0
0
APPID
5
1E3
100
AcDbSymbolTableRecord
100
AcDbRegAppTableRecord
2
ACAD_DSTYLE_DIM_LINETYPE
70
0
0
APPID
5
1E4
100
AcDbSymbolTableRecord
100
AcDbRegAppTableRecord
2
ACAD_DSTYLE_DIM_EXT1_LINETYPE
70
0
0
APPID
5
1E5
100
AcDbSymbolTableRecord
100
AcDbRegAppTableRecord
2
ACAD_DSTYLE_DIM_EXT2_LINETYPE
70
0
0
APPID
5
220
100
AcDbSymbolTableRecord
100
AcDbRegAppTableRecord
2
ACAD_MLEADERVER
70
0
0
ENDTAB
0
TABLE
2
BLOCK_RECORD
5
240
100
AcDbSymbolTable
0
BLOCK_RECORD
5
1F
100
AcDbSymbolTableRecord
100
AcDbBlockTableRecord
2
*Model_Space
340
0
70
0
0
BLOCK_RECORD
5
1B
100
AcDbSymbolTableRecord
100
AcDbBlockTableRecord
2
*Paper_Space
340
0
70
0
0
BLOCK_RECORD
5
23
100
AcDbSymbolTableRecord
100
AcDbBlockTableRecord
2
*Paper_Space0
340
0
70
0
0
BLOCK_RECORD
5
168
100
AcDbSymbolTableRecord
100
AcDbBlockTableRecord
2
*D1
340
0
70
0
0
BLOCK_RECORD
5
174
100
AcDbSymbolTableRecord
100
AcDbBlockTableRecord
2
_U0
340
0
70
0
0
BLOCK_RECORD
5
180
100
AcDbSymbolTableRecord
100
AcDbBlockTableRecord
2
*D3
340
0
70
0
0
BLOCK_RECORD
5
18C
100
AcDbSymbolTableRecord
100
AcDbBlockTableRecord
2
_U1
340
0
70
0
0
BLOCK_RECORD
5
198
100
AcDbSymbolTableRecord
100
AcDbBlockTableRecord
2
*D5
340
0
70
0
0
BLOCK_RECORD
5
1A4
100
AcDbSymbolTableRecord
100
AcDbBlockTableRecord
2
_U2
340
0
70
0
0
BLOCK_RECORD
5
1B0
100
AcDbSymbolTableRecord
100
AcDbBlockTableRecord
2
*D7
340
0
70
0
0
BLOCK_RECORD
5
1BC
100
AcDbSymbolTableRecord
100
AcDbBlockTableRecord
2
_U3
340
0
70
0
0
ENDTAB
0
ENDSEC
0
SECTION
2
BLOCKS
0
BLOCK
5
20
100
AcDbEntity
8
0
100
AcDbBlockBegin
2
*Model_Space
70
0
10
0
20
0
30
0
3
*Model_Space
0
ENDBLK
5
21
100
AcDbEntity
8
0
100
AcDbBlockEnd
0
BLOCK
5
1C
100
AcDbEntity
8
0
100
AcDbBlockBegin
2
*Paper_Space
70
0
10
0
20
0
30
0
3
*Paper_Space
0
ENDBLK
5
1D
100
AcDbEntity
8
0
100
AcDbBlockEnd
0
BLOCK
5
24
100
AcDbEntity
8
0
100
AcDbBlockBegin
2
*Paper_Space0
70
0
10
0
20
0
30
0
3
*Paper_Space0
0
ENDBLK
5
25
100
AcDbEntity
8
0
100
AcDbBlockEnd
0
BLOCK
5
169
100
AcDbEntity
8
0
100
AcDbBlockBegin
2
*D1
70
1
10
0
20
0
30
0
3
*D1
0
LINE
5
16B
100
AcDbEntity
8
0
62
256
6
ByLayer
370
-2
48
1
60
0
100
AcDbLine
10
-56
20
-14.0875
30
0
11
-56
21
-47.952229
31
0
39
0
210
0
220
0
230
1
0
LINE
5
16C
100
AcDbEntity
8
0
62
256
6
ByLayer
370
-2
48
1
60
0
100
AcDbLine
10
145.1
20
-1.5875
30
0
11
145.1
21
-47.952229
31
0
39
0
210
0
220
0
230
1
0
LINE
5
16D
100
AcDbEntity
8
0
62
256
6
ByLayer
370
-2
48
1
60
0
100
AcDbLine
10
-52.5
20
-45.952229
30
0
11
141.6
21
-45.952229
31
0
39
0
210
0
220
0
230
1
0
SOLID
5
16E
100
AcDbEntity
8
0
62
256
6
ByLayer
370
-1
48
1
60
0
100
AcDbTrace
10
-52.5
20
-45.368896
30
0
11
-52.5
21
-46.535563
31
0
12
-56
22
-45.952229
32
0
13
-56
23
-45.952229
33
0
39
0
210
0
220
0
230
1
0
SOLID
5
16F
100
AcDbEntity
8
0
62
256
6
ByLayer
370
-1
48
1
60
0
100
AcDbTrace
10
141.6
20
-46.535563
30
0
11
141.6
21
-45.368896
31
0
12
145.1
22
-45.952229
32
0
13
145.1
23
-45.952229
33
0
39
0
210
0
220
0
230
1
0
MTEXT
5
170
100
AcDbEntity
8
0
62
256
6
ByLayer
370
18
48
1
60
0
100
AcDbMText
10
44.55
20
-39.952229
30
0
210
0
220
0
230
1
1
\A1;201.1
40
3
41
0
44
1
50
0
71
5
72
5
7
iso_b_vert
0
POINT
5
171
100
AcDbEntity
8
Defpoints
62
0
6
ByLayer
370
-1
48
1
60
0
100
AcDbPoint
10
-56
20
-12.5
30
0
39
0
210
0
220
0
230
1
50
360
0
POINT
5
172
100
AcDbEntity
8
Defpoints
62
0
6
ByLayer
370
-1
48
1
60
0
100
AcDbPoint
10
145.1
20
0
30
0
39
0
210
0
220
0
230
1
50
360
0
POINT
5
173
100
AcDbEntity
8
Defpoints
62
0
6
ByLayer
370
-1
48
1
60
0
100
AcDbPoint
10
145.1
20
-45.952229
30
0
39
0
210
0
220
0
230
1
50
360
0
ENDBLK
5
16A
100
AcDbEntity
8
0
100
AcDbBlockEnd
0
BLOCK
5
17B
100
AcDbEntity
8
0
100
AcDbBlockBegin
2
_U0
70
0
10
0
20
0
30
0
3
_U0
0
MTEXT
5
175
100
AcDbEntity
8
SK2
62
256
6
ByLayer
370
18
48
1
60
0
100
AcDbMText
10
39.696601
20
-45.067115
30
0
210
0
220
0
230
1
1
\W0.6532;201.10
40
3
41
0
44
1.084337
50
0
71
7
72
5
7
iso_b_vert
0
LINE
5
176
100
AcDbEntity
8
SK2
62
256
6
ByLayer
370
13
48
1
60
0
100
AcDbLine
10
-56
20
-14.0875
30
0
11
-56
21
-47.952229
31
0
39
0
210
0
220
0
230
1
0
LINE
5
177
100
AcDbEntity
8
SK2
62
256
6
ByLayer
370
13
48
1
60
0
100
AcDbLine
10
145.1
20
-1.5875
30
0
11
145.1
21
-47.952229
31
0
39
0
210
0
220
0
230
1
0
LINE
5
178
100
AcDbEntity
8
SK2
62
256
6
ByLayer
370
13
48
1
60
0
100
AcDbLine
10
-56
20
-45.952229
30
0
11
145.1
21
-45.952229
31
0
39
0
210
0
220
0
230
1
0
SOLID
5
179
100
AcDbEntity
8
SK2
62
256
6
ByLayer
370
18
48
1
60
0
100
AcDbTrace
10
-56
20
-45.952229
30
0
11
-52.500002
21
-45.491446
31
0
12
-52.499998
22
-46.413013
32
0
13
-52.499998
23
-46.413013
33
0
39
0
210
0
220
0
230
1
0
SOLID
5
17A
100
AcDbEntity
8
SK2
62
256
6
ByLayer
370
18
48
1
60
0
100
AcDbTrace
10
145.1
20
-45.952229
30
0
11
141.600002
21
-46.413013
31
0
12
141.599998
22
-45.491446
32
0
13
141.599998
23
-45.491446
33
0
39
0
210
0
220
0
230
1
0
ENDBLK
5
17C
100
AcDbEntity
8
0
100
AcDbBlockEnd
0
BLOCK
5
181
100
AcDbEntity
8
0
100
AcDbBlockBegin
2
*D3
70
1
10
0
20
0
30
0
3
*D3
0
LINE
5
183
100
AcDbEntity
8
0
62
256
6
ByLayer
370
-2
48
1
60
0
100
AcDbLine
10
145.1
20
-1.5875
30
0
11
145.1
21
-37.952229
31
0
39
0
210
0
220
0
230
1
0
LINE
5
184
100
AcDbEntity
8
0
62
256
6
ByLayer
370
-2
48
1
60
0
100
AcDbLine
10
3
20
-12.5875
30
0
11
3
21
-37.952229
31
0
39
0
210
0
220
0
230
1
0
LINE
5
185
100
AcDbEntity
8
0
62
256
6
ByLayer
370
-2
48
1
60
0
100
AcDbLine
10
141.6
20
-35.952229
30
0
11
6.5
21
-35.952229
31
0
39
0
210
0
220
0
230
1
0
SOLID
5
186
100
AcDbEntity
8
0
62
256
6
ByLayer
370
-1
48
1
60
0
100
AcDbTrace
10
141.6
20
-36.535563
30
0
11
141.6
21
-35.368896
31
0
12
145.1
22
-35.952229
32
0
13
145.1
23
-35.952229
33
0
39
0
210
0
220
0
230
1
0
SOLID
5
187
100
AcDbEntity
8
0
62
256
6
ByLayer
370
-1
48
1
60
0
100
AcDbTrace
10
6.5
20
-35.368896
30
0
11
6.5
21
-36.535563
31
0
12
3
22
-35.952229
32
0
13
3
23
-35.952229
33
0
39
0
210
0
220
0
230
1
0
MTEXT
5
188
100
AcDbEntity
8
0
62
256
6
ByLayer
370
18
48
1
60
0
100
AcDbMText
10
74.05
20
-29.952229
30
0
210
0
220
0
230
1
1
\A1;142.1
40
3
41
0
44
1
50
0
71
5
72
5
7
iso_b_vert
0
POINT
5
189
100
AcDbEntity
8
Defpoints
62
0
6
ByLayer
370
-1
48
1
60
0
100
AcDbPoint
10
145.1
20
0
30
0
39
0
210
0
220
0
230
1
50
360
0
POINT
5
18A
100
AcDbEntity
8
Defpoints
62
0
6
ByLayer
370
-1
48
1
60
0
100
AcDbPoint
10
3
20
-11
30
0
39
0
210
0
220
0
230
1
50
360
0
POINT
5
18B
100
AcDbEntity
8
Defpoints
62
0
6
ByLayer
370
-1
48
1
60
0
100
AcDbPoint
10
3
20
-35.952229
30
0
39
0
210
0
220
0
230
1
50
360
0
ENDBLK
5
182
100
AcDbEntity
8
0
100
AcDbBlockEnd
0
BLOCK
5
193
100
AcDbEntity
8
0
100
AcDbBlockBegin
2
_U1
70
0
10
0
20
0
30
0
3
_U1
0
MTEXT
5
18D
100
AcDbEntity
8
SK2
62
256
6
ByLayer
370
18
48
1
60
0
100
AcDbMText
10
69.038658
20
-35.067115
30
0
210
0
220
0
230
1
1
\W0.6746;142.10
40
3
41
0
44
1.084337
50
0
71
7
72
5
7
iso_b_vert
0
LINE
5
18E
100
AcDbEntity
8
SK2
62
256
6
ByLayer
370
13
48
1
60
0
100
AcDbLine
10
145.1
20
-1.5875
30
0
11
145.1
21
-37.952229
31
0
39
0
210
0
220
0
230
1
0
LINE
5
18F
100
AcDbEntity
8
SK2
62
256
6
ByLayer
370
13
48
1
60
0
100
AcDbLine
10
3
20
-12.5875
30
0
11
3
21
-37.952229
31
0
39
0
210
0
220
0
230
1
0
LINE
5
190
100
AcDbEntity
8
SK2
62
256
6
ByLayer
370
13
48
1
60
0
100
AcDbLine
10
145.1
20
-35.952229
30
0
11
3
21
-35.952229
31
0
39
0
210
0
220
0
230
1
0
SOLID
5
191
100
AcDbEntity
8
SK2
62
256
6
ByLayer
370
18
48
1
60
0
100
AcDbTrace
10
145.1
20
-35.952229
30
0
11
141.600002
21
-36.413013
31
0
12
141.599998
22
-35.491446
32
0
13
141.599998
23
-35.491446
33
0
39
0
210
0
220
0
230
1
0
SOLID
5
192
100
AcDbEntity
8
SK2
62
256
6
ByLayer
370
18
48
1
60
0
100
AcDbTrace
10
3
20
-35.952229
30
0
11
6.499998
21
-35.491446
31
0
12
6.500002
22
-36.413013
32
0
13
6.500002
23
-36.413013
33
0
39
0
210
0
220
0
230
1
0
ENDBLK
5
194
100
AcDbEntity
8
0
100
AcDbBlockEnd
0
BLOCK
5
199
100
AcDbEntity
8
0
100
AcDbBlockBegin
2
*D5
70
1
10
0
20
0
30
0
3
*D5
0
LINE
5
19B
100
AcDbEntity
8
0
62
256
6
ByLayer
370
-2
48
1
60
0
100
AcDbLine
10
-56
20
-14.0875
30
0
11
-56
21
-37.952229
31
0
39
0
210
0
220
0
230
1
0
LINE
5
19C
100
AcDbEntity
8
0
62
256
6
ByLayer
370
-2
48
1
60
0
100
AcDbLine
10
0
20
-14.0875
30
0
11
0
21
-37.952229
31
0
39
0
210
0
220
0
230
1
0
LINE
5
19D
100
AcDbEntity
8
0
62
256
6
ByLayer
370
-2
48
1
60
0
100
AcDbLine
10
-52.5
20
-35.952229
30
0
11
-3.5
21
-35.952229
31
0
39
0
210
0
220
0
230
1
0
SOLID
5
19E
100
AcDbEntity
8
0
62
256
6
ByLayer
370
-1
48
1
60
0
100
AcDbTrace
10
-52.5
20
-35.368896
30
0
11
-52.5
21
-36.535563
31
0
12
-56
22
-35.952229
32
0
13
-56
23
-35.952229
33
0
39
0
210
0
220
0
230
1
0
SOLID
5
19F
100
AcDbEntity
8
0
62
256
6
ByLayer
370
-1
48
1
60
0
100
AcDbTrace
10
-3.5
20
-36.535563
30
0
11
-3.5
21
-35.368896
31
0
12
0
22
-35.952229
32
0
13
0
23
-35.952229
33
0
39
0
210
0
220
0
230
1
0
MTEXT
5
1A0
100
AcDbEntity
8
0
62
256
6
ByLayer
370
18
48
1
60
0
100
AcDbMText
10
-28
20
-29.952229
30
0
210
0
220
0
230
1
1
\A1;56
40
3
41
0
44
1
50
0
71
5
72
5
7
iso_b_vert
0
POINT
5
1A1
100
AcDbEntity
8
Defpoints
62
0
6
ByLayer
370
-1
48
1
60
0
100
AcDbPoint
10
-56
20
-12.5
30
0
39
0
210
0
220
0
230
1
50
360
0
POINT
5
1A2
100
AcDbEntity
8
Defpoints
62
0
6
ByLayer
370
-1
48
1
60
0
100
AcDbPoint
10
0
20
-12.5
30
0
39
0
210
0
220
0
230
1
50
360
0
POINT
5
1A3
100
AcDbEntity
8
Defpoints
62
0
6
ByLayer
370
-1
48
1
60
0
100
AcDbPoint
10
0
20
-35.952229
30
0
39
0
210
0
220
0
230
1
50
360
0
ENDBLK
5
19A
100
AcDbEntity
8
0
100
AcDbBlockEnd
0
BLOCK
5
1AB
100
AcDbEntity
8
0
100
AcDbBlockBegin
2
_U2
70
0
10
0
20
0
30
0
3
_U2
0
MTEXT
5
1A5
100
AcDbEntity
8
SK2
62
256
6
ByLayer
370
18
48
1
60
0
100
AcDbMText
10
-32.48237
20
-35.067115
30
0
210
0
220
0
230
1
1
\W0.7468;56.00
40
3
41
0
44
1.084337
50
0
71
7
72
5
7
iso_b_vert
0
LINE
5
1A6
100
AcDbEntity
8
SK2
62
256
6
ByLayer
370
13
48
1
60
0
100
AcDbLine
10
-56
20
-14.0875
30
0
11
-56
21
-37.952229
31
0
39
0
210
0
220
0
230
1
0
LINE
5
1A7
100
AcDbEntity
8
SK2
62
256
6
ByLayer
370
13
48
1
60
0
100
AcDbLine
10
0
20
-14.0875
30
0
11
0
21
-37.952229
31
0
39
0
210
0
220
0
230
1
0
LINE
5
1A8
100
AcDbEntity
8
SK2
62
256
6
ByLayer
370
13
48
1
60
0
100
AcDbLine
10
-56
20
-35.952229
30
0
11
0
21
-35.952229
31
0
39
0
210
0
220
0
230
1
0
SOLID
5
1A9
100
AcDbEntity
8
SK2
62
256
6
ByLayer
370
18
48
1
60
0
100
AcDbTrace
10
-56
20
-35.952229
30
0
11
-52.500002
21
-35.491446
31
0
12
-52.499998
22
-36.413013
32
0
13
-52.499998
23
-36.413013
33
0
39
0
210
0
220
0
230
1
0
SOLID
5
1AA
100
AcDbEntity
8
SK2
62
256
6
ByLayer
370
18
48
1
60
0
100
AcDbTrace
10
0
20
-35.952229
30
0
11
-3.499998
21
-36.413013
31
0
12
-3.500002
22
-35.491446
32
0
13
-3.500002
23
-35.491446
33
0
39
0
210
0
220
0
230
1
0
ENDBLK
5
1AC
100
AcDbEntity
8
0
100
AcDbBlockEnd
0
BLOCK
5
1B1
100
AcDbEntity
8
0
100
AcDbBlockBegin
2
*D7
70
1
10
0
20
0
30
0
3
*D7
0
LINE
5
1B3
100
AcDbEntity
8
0
62
256
6
ByLayer
370
-2
48
1
60
0
100
AcDbLine
10
145.1
20
1.5875
30
0
11
145.1
21
34.952229
31
0
39
0
210
0
220
0
230
1
0
LINE
5
1B4
100
AcDbEntity
8
0
62
256
6
ByLayer
370
-2
48
1
60
0
100
AcDbLine
10
20
20
12.5875
30
0
11
20
21
34.952229
31
0
39
0
210
0
220
0
230
1
0
LINE
5
1B5
100
AcDbEntity
8
0
62
256
6
ByLayer
370
-2
48
1
60
0
100
AcDbLine
10
141.6
20
32.952229
30
0
11
23.5
21
32.952229
31
0
39
0
210
0
220
0
230
1
0
SOLID
5
1B6
100
AcDbEntity
8
0
62
256
6
ByLayer
370
-1
48
1
60
0
100
AcDbTrace
10
141.6
20
32.368896
30
0
11
141.6
21
33.535563
31
0
12
145.1
22
32.952229
32
0
13
145.1
23
32.952229
33
0
39
0
210
0
220
0
230
1
0
SOLID
5
1B7
100
AcDbEntity
8
0
62
256
6
ByLayer
370
-1
48
1
60
0
100
AcDbTrace
10
23.5
20
33.535563
30
0
11
23.5
21
32.368896
31
0
12
20
22
32.952229
32
0
13
20
23
32.952229
33
0
39
0
210
0
220
0
230
1
0
MTEXT
5
1B8
100
AcDbEntity
8
0
62
256
6
ByLayer
370
18
48
1
60
0
100
AcDbMText
10
82.55
20
38.952229
30
0
210
0
220
0
230
1
1
\A1;125.1
40
3
41
0
44
1
50
0
71
5
72
5
7
iso_b_vert
0
POINT
5
1B9
100
AcDbEntity
8
Defpoints
62
0
6
ByLayer
370
-1
48
1
60
0
100
AcDbPoint
10
145.1
20
0
30
0
39
0
210
0
220
0
230
1
50
360
0
POINT
5
1BA
100
AcDbEntity
8
Defpoints
62
0
6
ByLayer
370
-1
48
1
60
0
100
AcDbPoint
10
20
20
11
30
0
39
0
210
0
220
0
230
1
50
360
0
POINT
5
1BB
100
AcDbEntity
8
Defpoints
62
0
6
ByLayer
370
-1
48
1
60
0
100
AcDbPoint
10
20
20
32.952229
30
0
39
0
210
0
220
0
230
1
50
360
0
ENDBLK
5
1B2
100
AcDbEntity
8
0
100
AcDbBlockEnd
0
BLOCK
5
1C3
100
AcDbEntity
8
0
100
AcDbBlockBegin
2
_U3
70
0
10
0
20
0
30
0
3
_U3
0
MTEXT
5
1BD
100
AcDbEntity
8
SK2
62
256
6
ByLayer
370
18
48
1
60
0
100
AcDbMText
10
77.696601
20
33.837344
30
0
210
0
220
0
230
1
1
\W0.6532;125.10
40
3
41
0
44
1.084337
50
0
71
7
72
5
7
iso_b_vert
0
LINE
5
1BE
100
AcDbEntity
8
SK2
62
256
6
ByLayer
370
13
48
1
60
0
100
AcDbLine
10
145.1
20
1.5875
30
0
11
145.1
21
34.952229
31
0
39
0
210
0
220
0
230
1
0
LINE
5
1BF
100
AcDbEntity
8
SK2
62
256
6
ByLayer
370
13
48
1
60
0
100
AcDbLine
10
20
20
12.5875
30
0
11
20
21
34.952229
31
0
39
0
210
0
220
0
230
1
0
LINE
5
1C0
100
AcDbEntity
8
SK2
62
256
6
ByLayer
370
13
48
1
60
0
100
AcDbLine
10
145.1
20
32.952229
30
0
11
20
21
32.952229
31
0
39
0
210
0
220
0
230
1
0
SOLID
5
1C1
100
AcDbEntity
8
SK2
62
256
6
ByLayer
370
18
48
1
60
0
100
AcDbTrace
10
145.1
20
32.952229
30
0
11
141.600002
21
32.491446
31
0
12
141.599998
22
33.413013
32
0
13
141.599998
23
33.413013
33
0
39
0
210
0
220
0
230
1
0
SOLID
5
1C2
100
AcDbEntity
8
SK2
62
256
6
ByLayer
370
18
48
1
60
0
100
AcDbTrace
10
20
20
32.952229
30
0
11
23.499998
21
33.413013
31
0
12
23.500002
22
32.491446
32
0
13
23.500002
23
32.491446
33
0
39
0
210
0
220
0
230
1
0
ENDBLK
5
1C4
100
AcDbEntity
8
0
100
AcDbBlockEnd
0
ENDSEC
0
SECTION
2
ENTITIES
0
ARC
5
C1
100
AcDbEntity
8
SK2
62
256
6
ByLayer
370
13
48
1
60
0
100
AcDbCircle
39
0
10
145.1
20
0
30
0
40
19
210
0
220
0
230
1
100
AcDbArc
50
290
51
70
0
ELLIPSE
5
C2
100
AcDbEntity
8
SK1
62
256
6
ByLayer
370
18
48
1
60
0
100
AcDbEllipse
10
-41.343561
20
0
30
0
11
-2.29613691341699E-15
21
-12.5000000000002
31
0
210
0
220
0
230
1
40
0.932515
41
-1.86465462472194
42
-1.27693802886786
0
ELLIPSE
5
C3
100
AcDbEntity
8
SK1
62
256
6
ByLayer
370
18
48
1
60
0
100
AcDbEllipse
10
276.680659
20
0
30
0
11
357.953166043254
21
-4.05596621644435E-13
31
0
210
0
220
0
230
1
40
0.034921
41
2.52406396812455
42
2.73005601344533
0
ELLIPSE
5
C4
100
AcDbEntity
8
SK1
62
256
6
ByLayer
370
18
48
1
60
0
100
AcDbEllipse
10
276.680659
20
0
30
0
11
357.953166032003
21
-4.05596621631686E-13
31
0
210
0
220
0
230
1
40
0.034921
41
-2.73005601344242
42
-2.52406396811705
0
ELLIPSE
5
C5
100
AcDbEntity
8
SK1
62
256
6
ByLayer
370
18
48
1
60
0
100
AcDbEllipse
10
-25.404609
20
0
30
0
11
13.4046088753088
21
-1.51887581674114E-14
31
0
210
0
220
0
230
1
40
0.932515
41
-0.555530755442636
42
0.555530755442635
0
POINT
5
70
100
AcDbEntity
8
80
62
256
6
ByLayer
370
18
48
1
60
0
100
AcDbPoint
10
0
20
0
30
0
39
0
210
0
220
0
230
1
50
360
0
POINT
5
72
100
AcDbEntity
8
81
62
256
6
ByLayer
370
18
48
1
60
0
100
AcDbPoint
10
145.1
20
0
30
0
39
0
210
0
220
0
230
1
50
360
0
POINT
5
74
100
AcDbEntity
8
1
62
256
6
ByLayer
370
18
48
1
60
1
100
AcDbPoint
10
-56
20
-12.5
30
0
39
0
210
0
220
0
230
1
50
360
0
POINT
5
76
100
AcDbEntity
8
1
62
256
6
ByLayer
370
18
48
1
60
1
100
AcDbPoint
10
145.1
20
0
30
0
39
0
210
0
220
0
230
1
50
360
0
POINT
5
77
100
AcDbEntity
8
1
62
256
6
ByLayer
370
18
48
1
60
1
100
AcDbPoint
10
145.1
20
0
30
0
39
0
210
0
220
0
230
1
50
360
0
POINT
5
78
100
AcDbEntity
8
1
62
256
6
ByLayer
370
18
48
1
60
1
100
AcDbPoint
10
3
20
-11
30
0
39
0
210
0
220
0
230
1
50
360
0
POINT
5
79
100
AcDbEntity
8
1
62
256
6
ByLayer
370
18
48
1
60
1
100
AcDbPoint
10
-56
20
-12.5
30
0
39
0
210
0
220
0
230
1
50
360
0
POINT
5
7A
100
AcDbEntity
8
1
62
256
6
ByLayer
370
18
48
1
60
1
100
AcDbPoint
10
0
20
-12.5
30
0
39
0
210
0
220
0
230
1
50
360
0
POINT
5
7B
100
AcDbEntity
8
1
62
256
6
ByLayer
370
18
48
1
60
1
100
AcDbPoint
10
145.1
20
0
30
0
39
0
210
0
220
0
230
1
50
360
0
POINT
5
7C
100
AcDbEntity
8
1
62
256
6
ByLayer
370
18
48
1
60
1
100
AcDbPoint
10
20
20
11
30
0
39
0
210
0
220
0
230
1
50
360
0
SPLINE
5
C6
100
AcDbEntity
8
1
62
256
6
ByLayer
370
18
48
1
60
0
100
AcDbSpline
70
4
71
3
72
27
73
23
40
0
40
0
40
0
40
0
40
0.125000000000001
40
0.125000000000001
40
0.250000000000001
40
0.250000000000001
40
0.375000000000002
40
0.375000000000002
40
0.406250000000002
40
0.421875
40
0.421875
40
0.437499999999997
40
0.437499999999997
40
0.499999999999998
40
0.499999999999998
40
0.624999999999998
40
0.624999999999998
40
0.749999999999999
40
0.749999999999999
40
0.874999999999999
40
0.874999999999999
40
1
40
1
40
1
40
1
41
1
10
10
20
-7.78615053225167
30
0
41
1
10
10.3548452283293
20
-7.73019251552017
30
0
41
1
10
10.7109051120334
20
-7.68591096957436
30
0
41
1
10
11.4252768395165
20
-7.62022756941712
30
0
41
1
10
11.7835899491642
20
-7.59883251991846
30
0
41
1
10
12.5023506334572
20
-7.57829197672876
30
0
41
1
10
12.862799231814
20
-7.57915363573417
30
0
41
1
10
13.3146350545644
20
-7.59350662977096
30
0
41
1
10
13.4502814556738
20
-7.59880638336548
30
0
41
1
10
13.5860696460734
20
-7.60557289950802
30
0
41
1
10
13.6766264214637
20
-7.61040689466353
30
0
41
1
10
13.7219400165001
20
-7.61298668108543
30
0
41
1
10
13.9481716695452
20
-7.62665941148887
30
0
41
1
10
14.1283095473377
20
-7.64008421591535
30
0
41
1
10
14.6663341719839
20
-7.68724066384223
30
0
41
1
10
15.0218312204903
20
-7.72786296400272
30
0
41
1
10
15.7272605245278
20
-7.82420436416135
30
0
41
1
10
16.0771916882444
20
-7.87992066718184
30
0
41
1
10
16.7723276393465
20
-8.0029346989796
30
0
41
1
10
17.1175337419835
20
-8.07022351156081
30
0
41
1
10
17.8040939284661
20
-8.21279269958077
30
0
41
1
10
18.1454519729449
20
-8.28805929618406
30
0
41
1
10
18.4852995561673
20
-8.36566404075069
30
0
0
SPLINE
5
C7
100
AcDbEntity
8
1
62
256
6
ByLayer
370
18
48
1
60
0
100
AcDbSpline
70
4
71
3
72
14
73
10
40
0
40
0
40
0
40
0
40
0.25
40
0.25
40
0.5
40
0.5
40
0.75
40
0.75
40
1
40
1
40
1
40
1
41
1
10
13.6984473050943
20
8.51492477249499
30
0
41
1
10
13.3827250735975
20
8.5849499380916
30
0
41
1
10
13.0693030036559
20
8.65663444084558
30
0
41
1
10
12.4461703427713
20
8.80129548383601
30
0
41
1
10
12.1364555289206
20
8.87427066932375
30
0
41
1
10
11.5202849710329
20
9.02020257738715
30
0
41
1
10
11.2138280353782
20
9.09316425758203
30
0
41
1
10
10.6042552231621
20
9.23843622150494
30
0
41
1
10
10.3011411463913
20
9.31075630060934
30
0
41
1
10
10
20
9.38265817528466
30
0
0
SPLINE
5
C8
100
AcDbEntity
8
1
62
256
6
ByLayer
370
18
48
1
60
0
100
AcDbSpline
70
4
71
3
72
14
73
10
40
0
40
0
40
0
40
0
40
0.25
40
0.25
40
0.5
40
0.5
40
0.75
40
0.75
40
1
40
1
40
1
40
1
41
1
10
13.6984473050943
20
-8.51492477249499
30
0
41
1
10
13.3827250735975
20
-8.58494993809163
30
0
41
1
10
13.0693030036559
20
-8.65663444084561
30
0
41
1
10
12.4461703427713
20
-8.80129548383604
30
0
41
1
10
12.1364555289205
20
-8.87427066932375
30
0
41
1
10
11.5202849710329
20
-9.02020257738718
30
0
41
1
10
11.2138280353782
20
-9.09316425758203
30
0
41
1
10
10.604255223162
20
-9.23843622150494
30
0
41
1
10
10.3011411463913
20
-9.31075630060934
30
0
41
1
10
10
20
-9.38265817528469
30
0
0
SPLINE
5
C9
100
AcDbEntity
8
1
62
256
6
ByLayer
370
18
48
1
60
0
100
AcDbSpline
70
4
71
3
72
12
73
8
40
0
40
0
40
0
40
0
40
0.0543178385693929
40
0.0543178385693929
40
0.527158919284697
40
0.527158919284697
40
1
40
1
40
1
40
1
41
1
10
16.304884372672
20
7.92046265161449
30
0
41
1
10
16.3448744133235
20
7.92737280549591
30
0
41
1
10
16.3848326313149
20
7.93436203608698
30
0
41
1
10
16.7723276393465
20
8.0029346989796
30
0
41
1
10
17.1175337419835
20
8.07022351156081
30
0
41
1
10
17.8040939284662
20
8.21279269958077
30
0
41
1
10
18.1454519729449
20
8.28805929618414
30
0
41
1
10
18.4852995561674
20
8.36566404075074
30
0
0
SPLINE
5
CA
100
AcDbEntity
8
1
62
256
6
ByLayer
370
18
48
1
60
0
100
AcDbSpline
70
4
71
3
72
22
73
18
40
0
40
0
40
0
40
0
40
0.0624999999999992
40
0.0624999999999992
40
0.124999999999998
40
0.124999999999998
40
0.249999999999997
40
0.249999999999997
40
0.499999999999993
40
0.499999999999993
40
0.624999999999988
40
0.624999999999988
40
0.687499999999989
40
0.687499999999989
40
0.74999999999999
40
0.74999999999999
40
1
40
1
40
1
40
1
41
1
10
141.096327423069
20
-1.56978507119118
30
0
41
1
10
140.867010453305
20
-1.48696478063158
30
0
41
1
10
140.637799657899
20
-1.40388732969163
30
0
41
1
10
140.179527824903
20
-1.23739256336191
30
0
41
1
10
139.950416625095
20
-1.1541146103126
30
0
41
1
10
139.263056763436
20
-0.904466903762483
30
0
41
1
10
138.804823980743
20
-0.738166117114588
30
0
41
1
10
137.430220704176
20
-0.239446319275174
30
0
41
1
10
136.51393482091
20
0.0927626264360129
30
0
41
1
10
135.140019799316
20
0.591609045572511
30
0
41
1
10
134.682137487368
20
0.757989952967421
30
0
41
1
10
133.995497099259
20
1.0078416914445
30
0
41
1
10
133.766671914089
20
1.09123954845458
30
0
41
1
10
133.308922101986
20
1.25768618493402
30
0
41
1
10
133.079979586638
20
1.34068579886204
30
0
41
1
10
131.934943848865
20
1.75460775633348
30
0
41
1
10
131.017885294306
20
2.08231495724925
30
0
41
1
10
130.1
20
2.40715533020057
30
0
0
SPLINE
5
CB
100
AcDbEntity
8
1
62
256
6
ByLayer
370
18
48
1
60
0
100
AcDbSpline
70
4
71
3
72
92
73
88
40
0
40
0
40
0
40
0
40
0.0312500000000034
40
0.0312500000000034
40
0.0625000000000067
40
0.0625000000000067
40
0.0937500000000101
40
0.0937500000000101
40
0.125000000000013
40
0.125000000000013
40
0.140625000000015
40
0.140625000000015
40
0.148437500000015
40
0.148437500000015
40
0.156250000000015
40
0.187500000000016
40
0.187500000000016
40
0.218750000000017
40
0.218750000000017
40
0.250000000000018
40
0.250000000000018
40
0.281250000000018
40
0.281250000000018
40
0.296875000000018
40
0.296875000000018
40
0.312500000000018
40
0.312500000000018
40
0.343750000000017
40
0.343750000000017
40
0.375000000000016
40
0.375000000000016
40
0.406250000000015
40
0.406250000000015
40
0.437500000000015
40
0.437500000000015
40
0.445312500000015
40
0.445312500000015
40
0.453125000000015
40
0.468750000000015
40
0.468750000000015
40
0.500000000000016
40
0.500000000000016
40
0.531250000000017
40
0.531250000000017
40
0.539062500000017
40
0.539062500000017
40
0.546875000000017
40
0.562500000000016
40
0.562500000000016
40
0.593750000000015
40
0.593750000000015
40
0.625000000000014
40
0.625000000000014
40
0.632812500000013
40
0.632812500000013
40
0.640625000000013
40
0.656250000000012
40
0.656250000000012
40
0.687500000000009
40
0.687500000000009
40
0.718750000000007
40
0.718750000000007
40
0.726562500000006
40
0.726562500000006
40
0.734375000000006
40
0.734375000000006
40
0.750000000000006
40
0.750000000000006
40
0.781250000000007
40
0.781250000000007
40
0.812500000000007
40
0.812500000000007
40
0.843750000000008
40
0.843750000000008
40
0.851562500000008
40
0.851562500000008
40
0.859375000000007
40
0.875000000000007
40
0.875000000000007
40
0.906250000000005
40
0.937500000000004
40
0.968750000000003
40
0.968750000000003
40
0.976562500000002
40
0.976562500000002
40
0.984375000000002
40
1
40
1
40
1
40
1
41
1
10
141.096327423072
20
10.650737734525
30
0
41
1
10
141.16502880907
20
10.4804018948978
30
0
41
1
10
141.233838524882
20
10.3075081862478
30
0
41
1
10
141.371791457511
20
9.95700807893061
30
0
41
1
10
141.440934553291
20
9.77940078302581
30
0
41
1
10
141.579636283503
20
9.41976405611521
30
0
41
1
10
141.649194968817
20
9.23773412053757
30
0
41
1
10
141.788776738964
20
8.8694535109519
30
0
41
1
10
141.858800066445
20
8.68320260942016
30
0
41
1
10
141.964191920711
20
8.40075275461288
30
0
41
1
10
141.99938170086
20
8.30608995825526
30
0
41
1
10
142.052252878601
20
8.16333268410281
30
0
41
1
10
142.069903233398
20
8.1155865245056
30
0
41
1
10
142.105169318536
20
8.02001039944673
30
0
41
1
10
142.193204949801
20
7.78097520427374
30
0
41
1
10
142.280601420722
20
7.54147312121128
30
0
41
1
10
142.41956058633
20
7.15766817626647
30
0
41
1
10
142.488603433922
20
6.96546517795261
30
0
41
1
10
142.6256569783
20
6.58041321380463
30
0
41
1
10
142.693669244096
20
6.38756479667265
30
0
41
1
10
142.828368919983
20
6.00112514790743
30
0
41
1
10
142.895059043863
20
5.8075348901464
30
0
41
1
10
142.993732507358
20
5.51646376465948
30
0
41
1
10
143.02639491431
20
5.41932509475396
30
0
41
1
10
143.091173354066
20
5.22478616164915
30
0
41
1
10
143.123302262974
20
5.12734389573347
30
0
41
1
10
143.218239809757
20
4.83599730469436
30
0
41
1
10
143.279771041864
20
4.64261303631486
30
0
41
1
10
143.398187192549
20
4.25721675004775
30
0
41
1
10
143.455079769566
20
4.06520603303289
30
0
41
1
10
143.562489917381
20
3.68215383917658
30
0
41
1
10
143.613017309714
20
3.49111204701543
30
0
41
1
10
143.705120387983
20
3.10946239125425
30
0
41
1
10
143.746701377319
20
2.91885256319696
30
0
41
1
10
143.79076907961
20
2.68047021050435
30
0
41
1
10
143.799188977707
20
2.63276030792648
30
0
41
1
10
143.815144409158
20
2.53743554744216
30
0
41
1
10
143.837693039819
20
2.39494854716841
30
0
41
1
10
143.855845438019
20
2.25398210714687
30
0
41
1
10
143.885697533895
20
1.97415693572677
30
0
41
1
10
143.896931780788
20
1.79040760183725
30
0
41
1
10
143.89996618473
20
1.42917134694116
30
0
41
1
10
143.891748745127
20
1.25168746490121
30
0
41
1
10
143.869405993233
20
1.03432696885409
30
0
41
1
10
143.864334953626
20
0.991044383157885
30
0
41
1
10
143.853042034821
20
0.905100110920557
30
0
41
1
10
143.834438001848
20
0.777555931901816
30
0
41
1
10
143.811128630139
20
0.654077715714976
30
0
41
1
10
143.759019522416
20
0.412410760414644
30
0
41
1
10
143.716989744642
20
0.258342308228521
30
0
41
1
10
143.622143062629
20
-0.0362634005570897
30
0
41
1
10
143.569334148931
20
-0.176804676767205
30
0
41
1
10
143.498336864064
20
-0.344156196724555
30
0
41
1
10
143.483875806136
20
-0.377230684412069
30
0
41
1
10
143.454525907463
20
-0.442449884291392
30
0
41
1
10
143.409951573287
20
-0.538680719017066
30
0
41
1
10
143.363899691343
20
-0.630212218489618
30
0
41
1
10
143.270184010718
20
-0.807198718787703
30
0
41
1
10
143.205579023967
20
-0.917104625364345
30
0
41
1
10
143.073368443619
20
-1.12129189660047
30
0
41
1
10
143.005753894985
20
-1.21557031009604
30
0
41
1
10
142.919767823096
20
-1.32367146789758
30
0
41
1
10
142.902496120223
20
-1.34480321216102
30
0
41
1
10
142.867810178611
20
-1.38608576411468
30
0
41
1
10
142.850380596697
20
-1.40625291975618
30
0
41
1
10
142.798101944414
20
-1.46503662587023
30
0
41
1
10
142.763208834335
20
-1.50200553007707
30
0
41
1
10
142.658462105882
20
-1.60640228442665
30
0
41
1
10
142.588546288625
20
-1.66733362591037
30
0
41
1
10
142.448672439223
20
-1.77230683901863
30
0
41
1
10
142.378712221179
20
-1.81634694988352
30
0
41
1
10
142.238728104473
20
-1.88756439285882
30
0
41
1
10
142.16870320597
20
-1.91474172664459
30
0
41
1
10
142.081059265319
20
-1.93795076260952
30
0
41
1
10
142.063509492094
20
-1.9420556004064
30
0
41
1
10
142.028548165111
20
-1.9491504626011
30
0
41
1
10
141.976267225581
20
-1.9581352208875
30
0
41
1
10
141.924452244306
20
-1.9622030121709
30
0
41
1
10
141.821397999344
20
-1.96389479639558
30
0
41
1
10
141.685527248857
20
-1.94898897362796
30
0
41
1
10
141.485608049095
20
-1.87608812643808
30
0
41
1
10
141.354449504006
20
-1.79373179229896
30
0
41
1
10
141.27299082065
20
-1.73148017202763
30
0
41
1
10
141.256732017087
20
-1.7184946513832
30
0
41
1
10
141.224351135374
20
-1.69151426026104
30
0
41
1
10
141.175953193286
20
-1.6495054948943
30
0
41
1
10
141.12805487819
20
-1.60289732277815
30
0
41
1
10
141.096327423072
20
-1.56978507119169
30
0
0
SPLINE
5
CC
100
AcDbEntity
8
1
62
256
6
ByLayer
370
18
48
1
60
0
100
AcDbSpline
70
4
71
3
72
16
73
12
40
0
40
0
40
0
40
0
40
0.279944217896407
40
0.279944217896407
40
0.639972108948213
40
0.639972108948213
40
0.729979081711162
40
0.729979081711162
40
0.819986054474111
40
0.819986054474111
40
1
40
1
40
1
40
1
41
1
10
133.460899036701
20
10.9986318312059
30
0
41
1
10
134.17329700354
20
10.9987586620069
30
0
41
1
10
134.885824330719
20
10.9897267726546
30
0
41
1
10
136.514524547661
20
10.9483809754856
30
0
41
1
10
137.430631002462
20
10.9101356153265
30
0
41
1
10
138.575143338764
20
10.8429187667484
30
0
41
1
10
138.804011651699
20
10.8284962799566
30
0
41
1
10
139.262007238752
20
10.7978540701869
30
0
41
1
10
139.491102730842
20
10.7816218680621
30
0
41
1
10
140.178647465542
20
10.7302010973085
30
0
41
1
10
140.637350070723
20
10.6922887633475
30
0
41
1
10
141.096327423068
20
10.6507377345253
30
0
0
SPLINE
5
CD
100
AcDbEntity
8
1
62
256
6
ByLayer
370
18
48
1
60
0
100
AcDbSpline
70
4
71
3
72
40
73
36
40
0
40
0
40
0
40
0
40
0.0857118348240469
40
0.0857118348240469
40
0.171423669648094
40
0.171423669648094
40
0.257135504472141
40
0.257135504472141
40
0.299991421884165
40
0.299991421884165
40
0.321419380590177
40
0.321419380590177
40
0.342847339296189
40
0.342847339296189
40
0.428559174120233
40
0.428559174120233
40
0.514271008944276
40
0.514271008944276
40
0.599982843768319
40
0.599982843768319
40
0.642838761180341
40
0.642838761180341
40
0.664266719886352
40
0.664266719886352
40
0.685694678592363
40
0.685694678592363
40
0.771406513416404
40
0.771406513416404
40
0.857118348240446
40
0.857118348240446
40
0.942830183064487
40
0.942830183064487
40
0.985686100476507
40
0.985686100476507
40
1
40
1
40
1
40
1
41
1
10
18.4852995561675
20
-8.36566404075077
30
0
41
1
10
19.0670957320452
20
-8.49514448871611
30
0
41
1
10
19.6488794777934
20
-8.61905074660353
30
0
41
1
10
20.8121904641406
20
-8.85644381294651
30
0
41
1
10
21.3937168990139
20
-8.9699306814702
30
0
41
1
10
22.5563013757892
20
-9.18692329956855
30
0
41
1
10
23.1373581162355
20
-9.2904308130768
30
0
41
1
10
24.0084308067152
20
-9.43836366284617
30
0
41
1
10
24.2987037193348
20
-9.48645028144844
30
0
41
1
10
24.7339720404122
20
-9.55673990728445
30
0
41
1
10
24.8790368583503
20
-9.57986436552639
30
0
41
1
10
25.1691223863613
20
-9.62549128022235
30
0
41
1
10
25.3141481699281
20
-9.64798676600449
30
0
41
1
10
26.0394439646332
20
-9.75856764547137
30
0
41
1
10
26.6200912354315
20
-9.84113632175016
30
0
41
1
10
27.7818742231454
20
-9.99509900800223
30
0
41
1
10
28.3630191142207
20
-10.0664799122567
30
0
41
1
10
29.5256135891146
20
-10.1982618681931
30
0
41
1
10
30.1070575572555
20
-10.2586681727089
30
0
41
1
10
30.9793010110768
20
-10.3410340027392
30
0
41
1
10
31.2700628963954
20
-10.3671125690871
30
0
41
1
10
31.7062153145647
20
-10.4041431075981
30
0
41
1
10
31.8515949237629
20
-10.4161422484252
30
0
41
1
10
32.1424403021223
20
-10.439385705106
30
0
41
1
10
32.2879270283799
20
-10.4506262681908
30
0
41
1
10
33.0154620576323
20
-10.5049246445639
30
0
41
1
10
33.597417651999
20
-10.5422636181069
30
0
41
1
10
34.7609044784822
20
-10.6051665928893
30
0
41
1
10
35.3424465964653
20
-10.6307230030475
30
0
41
1
10
36.5049226657383
20
-10.6701576241988
30
0
41
1
10
37.0858500623682
20
-10.6840369388784
30
0
41
1
10
37.9566354602684
20
-10.6959888043315
30
0
41
1
10
38.2467763150473
20
-10.6984932248538
30
0
41
1
10
38.6337457314112
20
-10.6998319193047
30
0
41
1
10
38.7306405711406
20
-10.6999993744351
30
0
41
1
10
38.8275438671898
20
-10.6999999229504
30
0
0
SPLINE
5
CE
100
AcDbEntity
8
1
62
256
6
ByLayer
370
18
48
1
60
0
100
AcDbSpline
70
4
71
3
72
38
73
34
40
0
40
0
40
0
40
0
40
0.0226193670778991
40
0.0226193670778991
40
0.0458903345284283
40
0.0458903345284283
40
0.0691613019789568
40
0.0691613019789568
40
0.16224517178107
40
0.16224517178107
40
0.255329041583182
40
0.255329041583182
40
0.348412911385296
40
0.348412911385296
40
0.371683878835822
40
0.371683878835822
40
0.394954846286349
40
0.394954846286349
40
0.441496781187401
40
0.441496781187401
40
0.534580650989503
40
0.534580650989503
40
0.627664520791603
40
0.627664520791603
40
0.720748390593705
40
0.720748390593705
40
0.767290325494755
40
0.767290325494755
40
0.813832260395806
40
0.813832260395806
40
0.906916130197903
40
0.906916130197903
40
1
40
1
40
1
40
1
41
1
10
111.355458762328
20
7.88734572270081
30
0
41
1
10
111.496702501993
20
7.92129943093477
30
0
41
1
10
111.637917549143
20
7.95502642704559
30
0
41
1
10
111.924358351796
20
8.0229868384304
30
0
41
1
10
112.069591567163
20
8.05718905614441
30
0
41
1
10
112.360112797345
20
8.12489408149108
30
0
41
1
10
112.505392203778
20
8.15841346052059
30
0
41
1
10
113.231869150705
20
8.32438246043012
30
0
41
1
10
113.813297926693
20
8.45197326813374
30
0
41
1
10
114.976369971229
20
8.6974433576039
30
0
41
1
10
115.55802401982
20
8.81530282372293
30
0
41
1
10
116.721354708956
20
9.04160179410093
30
0
41
1
10
117.30302502733
20
9.15005050775446
30
0
41
1
10
118.030014154902
20
9.27977249076446
30
0
41
1
10
118.17540727902
20
9.30542413438098
30
0
41
1
10
118.466182178105
20
9.35614007492475
30
0
41
1
10
118.61155919941
20
9.38121045682468
30
0
41
1
10
119.047813196699
20
9.45534364075621
30
0
41
1
10
119.338885050027
20
9.50331649819782
30
0
41
1
10
120.212056821947
20
9.64292068466955
30
0
41
1
10
120.794134295137
20
9.73026585041183
30
0
41
1
10
121.957979945853
20
9.89397994850933
30
0
41
1
10
122.539756057297
20
9.97033907034404
30
0
41
1
10
123.702794196485
20
10.1122647697558
30
0
41
1
10
124.284051657402
20
10.1778343426144
30
0
41
1
10
125.155424812988
20
10.2680299112386
30
0
41
1
10
125.445772706541
20
10.2967462388893
30
0
41
1
10
126.026797363925
20
10.3510576572459
30
0
41
1
10
126.317420933261
20
10.3767002866791
30
0
41
1
10
127.189558351567
20
10.4491892146127
30
0
41
1
10
127.771331272467
20
10.4916084805878
30
0
41
1
10
128.935355703532
20
10.5648591175607
30
0
41
1
10
129.517610615593
20
10.5956890284052
30
0
41
1
10
130.1
20
10.6207118758174
30
0
0
SPLINE
5
CF
100
AcDbEntity
8
1
62
256
6
ByLayer
370
18
48
1
60
0
100
AcDbSpline
70
4
71
4
72
10
73
5
40
0
40
0
40
0
40
0
40
0
40
1
40
1
40
1
40
1
40
1
41
0.995755825501016
10
13.8171414170693
20
-7.61449103846446
30
0
41
0.99593404999773
10
13.7823342893337
20
-7.83465953764808
30
0
41
0.996195614706304
10
13.7508878824095
20
-8.05875484035632
30
0
41
0.996529392017815
10
13.7229143989615
20
-8.28584792832323
30
0
41
0.996907709499566
10
13.6984473050944
20
-8.51492477249499
30
0
0
SPLINE
5
D0
100
AcDbEntity
8
1
62
256
6
ByLayer
370
18
48
1
60
0
100
AcDbSpline
70
4
71
3
72
80
73
76
40
0
40
0
40
0
40
0
40
0.0442164837243289
40
0.0442164837243289
40
0.0663247255864925
40
0.0663247255864925
40
0.0773788465175734
40
0.0773788465175734
40
0.0884329674486543
40
0.132649451172978
40
0.132649451172978
40
0.176865934897301
40
0.176865934897301
40
0.221082418621625
40
0.221082418621625
40
0.232136539552705
40
0.232136539552705
40
0.243190660483785
40
0.243190660483785
40
0.265298902345947
40
0.265298902345947
40
0.30951538607027
40
0.30951538607027
40
0.331623627932431
40
0.331623627932431
40
0.353731869794592
40
0.353731869794592
40
0.375840111656753
40
0.375840111656753
40
0.397948353518914
40
0.397948353518914
40
0.420056595381074
40
0.420056595381074
40
0.442164837243235
40
0.442164837243235
40
0.486381320967557
40
0.486381320967557
40
0.530597804691879
40
0.530597804691879
40
0.55270604655404
40
0.55270604655404
40
0.56376016748512
40
0.56376016748512
40
0.574814288416201
40
0.619030772140522
40
0.619030772140522
40
0.663247255864844
40
0.663247255864844
40
0.685355497727004
40
0.685355497727004
40
0.707463739589164
40
0.707463739589164
40
0.718517860520243
40
0.718517860520243
40
0.729571981451322
40
0.729571981451322
40
0.751680223313482
40
0.751680223313482
40
0.7958967070378
40
0.7958967070378
40
0.840113190762118
40
0.840113190762118
40
0.862221432624277
40
0.862221432624277
40
0.884329674486436
40
0.884329674486436
40
0.906437916348596
40
0.906437916348596
40
0.928546158210755
40
0.928546158210755
40
0.972762641935073
40
0.972762641935073
40
0.994870883797232
40
0.994870883797232
40
1
40
1
40
1
40
1
41
1
10
130.1
20
2.23425202899318
30
0
41
1
10
129.492582537224
20
2.4439489143349
30
0
41
1
10
128.885646833959
20
2.6522098001997
30
0
41
1
10
127.976072613105
20
2.96272500009198
30
0
41
1
10
127.673019368646
20
3.06591641464539
30
0
41
1
10
127.21866075704
20
3.22026249878056
30
0
41
1
10
127.067249568059
20
3.27165058287429
30
0
41
1
10
126.764428251782
20
3.37407982475978
30
0
41
1
10
126.007359838878
20
3.6292374849121
30
0
41
1
10
125.250227480855
20
3.87988652514949
30
0
41
1
10
124.038832807428
20
4.27550474377793
30
0
41
1
10
123.433142943441
20
4.47060091792514
30
0
41
1
10
122.221888091619
20
4.85565678776325
30
0
41
1
10
121.61632582118
20
5.04562385454179
30
0
41
1
10
120.859540338244
20
5.28004613983128
30
0
41
1
10
120.708192869547
20
5.32678163641748
30
0
41
1
10
120.405510866931
20
5.41993688889588
30
0
41
1
10
120.254170657083
20
5.46634238540028
30
0
41
1
10
119.800036306001
20
5.60475725520044
30
0
41
1
10
119.497156247758
20
5.69603441609274
30
0
41
1
10
118.58816346196
20
5.96693185465068
30
0
41
1
10
117.981699702276
20
6.14362473302501
30
0
41
1
10
117.071379259562
20
6.40301838037385
30
0
41
1
10
116.767834910489
20
6.48854112681786
30
0
41
1
10
116.160550836264
20
6.65772988958582
30
0
41
1
10
115.856843968794
20
6.74138618106994
30
0
41
1
10
115.24985921434
20
6.90670710966145
30
0
41
1
10
114.946507995137
20
6.9883930409807
30
0
41
1
10
114.340105320216
20
7.14983891998543
30
0
41
1
10
114.037069778801
20
7.2296322376541
30
0
41
1
10
113.431242372879
20
7.38715019391663
30
0
41
1
10
113.128351262206
20
7.46466627162911
30
0
41
1
10
112.522546237483
20
7.61710048190946
30
0
41
1
10
112.21964432348
20
7.69204395027643
30
0
41
1
10
111.310959604598
20
7.91312480541555
30
0
41
1
10
110.705196756648
20
8.0555156401372
30
0
41
1
10
109.493826892712
20
8.33055937287907
30
0
41
1
10
108.888218792889
20
8.46321111127651
30
0
41
1
10
107.980026928567
20
8.65499765937531
30
0
41
1
10
107.677332862624
20
8.71772629495473
30
0
41
1
10
107.223359417722
20
8.81001965137006
30
0
41
1
10
107.072051665019
20
8.84049252408249
30
0
41
1
10
106.769390950071
20
8.90072658407624
30
0
41
1
10
106.012595705237
20
9.04948446407636
30
0
41
1
10
105.255093602501
20
9.189182025126
30
0
41
1
10
104.042293683421
20
9.40138331740772
30
0
41
1
10
103.435494391926
20
9.50182521289145
30
0
41
1
10
102.524776115621
20
9.64408373239795
30
0
41
1
10
102.221051990633
20
9.69011067724458
30
0
41
1
10
101.614006059392
20
9.7792824444179
30
0
41
1
10
101.310635754747
20
9.82243516356604
30
0
41
1
10
100.85582282944
20
9.88501304504018
30
0
41
1
10
100.704260003172
20
9.90551483537521
30
0
41
1
10
100.40121303148
20
9.94579474595176
30
0
41
1
10
100.249724034934
20
9.96556709038344
30
0
41
1
10
99.7952419752348
20
10.0236591287551
30
0
41
1
10
99.4922602617003
20
10.0607839395742
30
0
41
1
10
98.5833494049019
20
10.1674183859486
30
0
41
1
10
97.9774556292167
20
10.2321955650146
30
0
41
1
10
96.7658590943984
20
10.3493545114162
30
0
41
1
10
96.1601545183389
20
10.4017354334334
30
0
41
1
10
95.251832177564
20
10.4710399773946
30
0
41
1
10
94.9490980050232
20
10.4925958523527
30
0
41
1
10
94.3437261301949
20
10.5326008609104
30
0
41
1
10
94.041102313765
20
10.5510560969202
30
0
41
1
10
93.4359038349539
20
10.5848019323919
30
0
41
1
10
93.1332297099714
20
10.6000479277427
30
0
41
1
10
92.5276478591911
20
10.6272804692799
30
0
41
1
10
92.2247547455824
20
10.6392736892128
30
0
41
1
10
91.3157901198142
20
10.6704229675796
30
0
41
1
10
90.7094326858927
20
10.6847548676049
30
0
41
1
10
89.7994025045945
20
10.6966379848518
30
0
41
1
10
89.4959766447744
20
10.6989949840786
30
0
41
1
10
89.1220637480391
20
10.6999141637151
30
0
41
1
10
89.0516440822354
20
10.7000005188754
30
0
41
1
10
88.9812197922493
20
10.6999999837238
30
0
0
SPLINE
5
D1
100
AcDbEntity
8
1
62
256
6
ByLayer
370
18
48
1
60
0
100
AcDbSpline
70
4
71
3
72
10
73
6
40
0
40
0
40
0
40
0
40
0.301675928164052
40
0.301675928164052
40
1
40
1
40
1
40
1
41
1
10
16.3052411070677
20
-7.92462398956761
30
0
41
1
10
16.0431391788706
20
-7.98681263292661
30
0
41
1
10
15.7810209574573
20
-8.04814083796506
30
0
41
1
10
14.9121097220817
20
-8.24860500373907
30
0
41
1
10
14.3052678548277
20
-8.38402587944941
30
0
41
1
10
13.6984473050944
20
-8.51492477249485
30
0
0
SPLINE
5
D2
100
AcDbEntity
8
1
62
256
6
ByLayer
370
18
48
1
60
0
100
AcDbSpline
70
4
71
3
72
14
73
10
40
0
40
0
40
0
40
0
40
0.409018873737827
40
0.409018873737827
40
0.61352831060674
40
0.61352831060674
40
0.818037747475654
40
0.818037747475654
40
1
40
1
40
1
40
1
41
1
10
130.1
20
-10.9297140161205
30
0
41
1
10
130.558883434558
20
-10.9483570199729
30
0
41
1
10
131.017422453574
20
-10.963262688435
30
0
41
1
10
131.704655670586
20
-10.9799456973932
30
0
41
1
10
131.933605443195
20
-10.9845628717381
30
0
41
1
10
132.391532491682
20
-10.9918613994205
30
0
41
1
10
132.620529369261
20
-10.994543685394
30
0
41
1
10
133.053318151162
20
-10.9978097526272
30
0
41
1
10
133.257103386754
20
-10.9985955491469
30
0
41
1
10
133.460899208697
20
-10.9986318312365
30
0
0
SPLINE
5
D3
100
AcDbEntity
8
1
62
256
6
ByLayer
370
18
48
1
60
0
100
AcDbSpline
70
4
71
3
72
192
73
188
40
0
40
0
40
0
40
0
40
0.0156250000000002
40
0.0156250000000002
40
0.0312500000000004
40
0.0312500000000004
40
0.0468750000000006
40
0.0468750000000006
40
0.0546875000000008
40
0.0546875000000008
40
0.058593750000001
40
0.058593750000001
40
0.0625000000000011
40
0.0625000000000011
40
0.0781250000000006
40
0.0781250000000006
40
0.09375
40
0.09375
40
0.109375
40
0.109375
40
0.117187499999999
40
0.117187499999999
40
0.121093749999999
40
0.121093749999999
40
0.124999999999999
40
0.124999999999999
40
0.140624999999998
40
0.140624999999998
40
0.156249999999997
40
0.156249999999997
40
0.171874999999997
40
0.171874999999997
40
0.179687499999996
40
0.179687499999996
40
0.187499999999996
40
0.187499999999996
40
0.203124999999995
40
0.203124999999995
40
0.218749999999994
40
0.218749999999994
40
0.234374999999993
40
0.234374999999993
40
0.238281249999993
40
0.238281249999993
40
0.242187499999993
40
0.242187499999993
40
0.249999999999993
40
0.249999999999993
40
0.265624999999993
40
0.265624999999993
40
0.281249999999993
40
0.281249999999993
40
0.296874999999992
40
0.296874999999992
40
0.300781249999993
40
0.300781249999993
40
0.304687499999993
40
0.312499999999993
40
0.312499999999993
40
0.328124999999994
40
0.328124999999994
40
0.343749999999996
40
0.343749999999996
40
0.351562499999996
40
0.351562499999996
40
0.359374999999997
40
0.359374999999997
40
0.367187499999997
40
0.367187499999997
40
0.374999999999998
40
0.374999999999998
40
0.390624999999999
40
0.390624999999999
40
0.406250000000001
40
0.406250000000001
40
0.414062500000002
40
0.414062500000002
40
0.421875000000003
40
0.421875000000003
40
0.437500000000004
40
0.437500000000004
40
0.453125000000006
40
0.453125000000006
40
0.468750000000007
40
0.468750000000007
40
0.476562500000008
40
0.476562500000008
40
0.480468750000008
40
0.480468750000008
40
0.484375000000009
40
0.49218750000001
40
0.49218750000001
40
0.500000000000012
40
0.500000000000012
40
0.515625000000015
40
0.515625000000015
40
0.531250000000018
40
0.531250000000018
40
0.535156250000018
40
0.535156250000018
40
0.539062500000018
40
0.539062500000018
40
0.546875000000018
40
0.546875000000018
40
0.562500000000019
40
0.562500000000019
40
0.57812500000002
40
0.57812500000002
40
0.593750000000021
40
0.593750000000021
40
0.601562500000021
40
0.601562500000021
40
0.609375000000021
40
0.609375000000021
40
0.617187500000022
40
0.617187500000022
40
0.625000000000022
40
0.625000000000022
40
0.640625000000024
40
0.640625000000024
40
0.656250000000025
40
0.656250000000025
40
0.660156250000025
40
0.660156250000025
40
0.664062500000025
40
0.671875000000026
40
0.671875000000026
40
0.687500000000026
40
0.687500000000026
40
0.703125000000026
40
0.703125000000026
40
0.710937500000026
40
0.714843750000026
40
0.714843750000026
40
0.718750000000026
40
0.718750000000026
40
0.734375000000024
40
0.734375000000024
40
0.742187500000023
40
0.742187500000023
40
0.750000000000022
40
0.750000000000022
40
0.765625000000021
40
0.765625000000021
40
0.77343750000002
40
0.77343750000002
40
0.781250000000019
40
0.781250000000019
40
0.796875000000018
40
0.796875000000018
40
0.804687500000018
40
0.804687500000018
40
0.812500000000017
40
0.812500000000017
40
0.828125000000017
40
0.828125000000017
40
0.835937500000018
40
0.835937500000018
40
0.839843750000018
40
0.839843750000018
40
0.843750000000018
40
0.843750000000018
40
0.859375000000018
40
0.859375000000018
40
0.875000000000017
40
0.875000000000017
40
0.890625000000017
40
0.890625000000017
40
0.894531250000016
40
0.894531250000016
40
0.898437500000016
40
0.898437500000016
40
0.906250000000015
40
0.906250000000015
40
0.921875000000013
40
0.921875000000013
40
0.937500000000011
40
0.937500000000011
40
0.953125000000009
40
0.953125000000009
40
0.960937500000008
40
0.960937500000008
40
0.968750000000006
40
0.968750000000006
40
0.984375000000003
40
0.984375000000003
40
1
40
1
40
1
40
1
41
1
10
18.4852995561675
20
8.36566404075077
30
0
41
1
10
19.0670957320453
20
8.49514448871614
30
0
41
1
10
19.6488794777934
20
8.61905074660353
30
0
41
1
10
20.8121904641405
20
8.85644381294651
30
0
41
1
10
21.3937168990139
20
8.96993068147023
30
0
41
1
10
22.5563013757892
20
9.18692329956855
30
0
41
1
10
23.1373581162354
20
9.2904308130768
30
0
41
1
10
24.0084308067151
20
9.43836366284617
30
0
41
1
10
24.2987037193348
20
9.48645028144847
30
0
41
1
10
24.7339720404122
20
9.55673990728445
30
0
41
1
10
24.8790368583502
20
9.57986436552639
30
0
41
1
10
25.1691223863613
20
9.62549128022232
30
0
41
1
10
25.3141481699281
20
9.64798676600449
30
0
41
1
10
26.0394439646331
20
9.75856764547137
30
0
41
1
10
26.6200912354315
20
9.84113632175018
30
0
41
1
10
27.7818742231454
20
9.99509900800226
30
0
41
1
10
28.3630191142207
20
10.0664799122567
30
0
41
1
10
29.5256135891146
20
10.1982618681931
30
0
41
1
10
30.1070575572555
20
10.2586681727089
30
0
41
1
10
30.9793010110768
20
10.3410340027392
30
0
41
1
10
31.2700628963954
20
10.3671125690871
30
0
41
1
10
31.7062153145647
20
10.4041431075981
30
0
41
1
10
31.8515949237629
20
10.4161422484252
30
0
41
1
10
32.1424403021223
20
10.439385705106
30
0
41
1
10
32.2879270283799
20
10.4506262681908
30
0
41
1
10
33.0154620576323
20
10.5049246445639
30
0
41
1
10
33.597417651999
20
10.5422636181069
30
0
41
1
10
34.7609044784823
20
10.6051665928893
30
0
41
1
10
35.3424465964653
20
10.6307230030475
30
0
41
1
10
36.5049226657383
20
10.6701576241988
30
0
41
1
10
37.0858500623681
20
10.6840369388784
30
0
41
1
10
37.9566354602684
20
10.6959888043315
30
0
41
1
10
38.2467763150474
20
10.6984932248538
30
0
41
1
10
38.8269401230711
20
10.7005002621998
30
0
41
1
10
39.1170877102728
20
10.7000003197778
30
0
41
1
10
39.9878184188338
20
10.6940556514834
30
0
41
1
10
40.5686149414291
20
10.6841761400679
30
0
41
1
10
41.7305638814675
20
10.6527226403403
30
0
41
1
10
42.3117259911921
20
10.6311495002538
30
0
41
1
10
43.474211538439
20
10.5761953294712
30
0
41
1
10
44.0555293519051
20
10.5428110024119
30
0
41
1
10
44.7821739465564
20
10.4934812619775
30
0
41
1
10
44.9275008145841
20
10.4832336046923
30
0
41
1
10
45.2181628455656
20
10.4619760806352
30
0
41
1
10
45.3635058864697
20
10.4509703285897
30
0
41
1
10
45.7997086591834
20
10.4169104029837
30
0
41
1
10
46.090757653801
20
10.3927900151868
30
0
41
1
10
46.9640716631437
20
10.3162399789072
30
0
41
1
10
47.5461159399709
20
10.259657601204
30
0
41
1
10
48.7096589684326
20
10.1353927743583
30
0
41
1
10
49.2911636991749
20
10.0677152208861
30
0
41
1
10
50.4534185092881
20
9.92102804157605
30
0
41
1
10
51.0341652950383
20
9.84201343577632
30
0
41
1
10
51.7595243012102
20
9.73590936783293
30
0
41
1
10
51.9045634111547
20
9.71431597953452
30
0
41
1
10
52.1946807526907
20
9.67050822627587
30
0
41
1
10
52.6299239728118
20
9.6038771619117
30
0
41
1
10
53.0653430538119
20
9.53448304170311
30
0
41
1
10
53.9363506221135
20
9.39197485063389
30
0
41
1
10
54.5172431914272
20
9.29200895934977
30
0
41
1
10
55.6792634595987
20
9.08195485312712
30
0
41
1
10
56.2603922318174
20
8.97186861251015
30
0
41
1
10
57.1321007714685
20
8.79881752426729
30
0
41
1
10
57.4226732551988
20
8.73981225814194
30
0
41
1
10
58.0038066033133
20
8.61909758825391
30
0
41
1
10
58.2943416687498
20
8.55734244763704
30
0
41
1
10
58.8755121068789
20
8.43128354345458
30
0
41
1
10
59.1662687167624
20
8.36719495745913
30
0
41
1
10
59.7481479987138
20
8.23697630056205
30
0
41
1
10
60.0393238885123
20
8.17081147205482
30
0
41
1
10
60.9128117390416
20
7.96922325706305
30
0
41
1
10
61.4948975212558
20
7.8307623292913
30
0
41
1
10
62.6583988110887
20
7.54539665023535
30
0
41
1
10
63.2398106975168
20
7.39848473732877
30
0
41
1
10
64.1112605328391
20
7.17139499940095
30
0
41
1
10
64.4016333631307
20
7.09457871487206
30
0
41
1
10
64.9821389758173
20
6.93864614997491
30
0
41
1
10
65.2722183274252
20
6.85940998383796
30
0
41
1
10
66.1427431054938
20
6.61965124477231
30
0
41
1
10
66.7233956349598
20
6.45692789380533
30
0
41
1
10
67.8849840409186
20
6.12514213100496
30
0
41
1
10
68.4659298953673
20
5.95610067815309
30
0
41
1
10
69.6279216914783
20
5.6112570161952
30
0
41
1
10
70.208961609542
20
5.43544028366193
30
0
41
1
10
71.0804451602969
20
5.16618583523083
30
0
41
1
10
71.3709280108825
20
5.07551421671548
30
0
41
1
10
71.8066231296836
20
4.93807747096798
30
0
41
1
10
71.951849037354
20
4.89202408466645
30
0
41
1
10
72.2423961144459
20
4.79970898853711
30
0
41
1
10
72.678353960537
20
4.66091049054464
30
0
41
1
10
73.1146964640059
20
4.52108056492966
30
0
41
1
10
73.6967839599604
20
4.33362502413152
30
0
41
1
10
73.9880459322658
20
4.23936466629164
30
0
41
1
10
74.861626772096
20
3.95515451554345
30
0
41
1
10
75.443710640156
20
3.7637965301715
30
0
41
1
10
76.6070661777287
20
3.37676238479048
30
0
41
1
10
77.1883313626165
20
3.18106841019275
30
0
41
1
10
77.9142820950954
20
2.93339503233153
30
0
41
1
10
78.0594409212793
20
2.88370805575536
30
0
41
1
10
78.3496936291446
20
2.78402231213403
30
0
41
1
10
78.4947801570309
20
2.73400315467222
30
0
41
1
10
78.9300370762683
20
2.58373897669401
30
0
41
1
10
79.2202710003637
20
2.48347084844332
30
0
41
1
10
80.091149815618
20
2.18237246778625
30
0
41
1
10
80.671938596278
20
1.98115779739271
30
0
41
1
10
81.8336700964021
20
1.57709043038039
30
0
41
1
10
82.414621794519
20
1.37426278564331
30
0
41
1
10
83.5764803807713
20
0.966399010761052
30
0
41
1
10
84.1573820684233
20
0.761347885589231
30
0
41
1
10
85.0285767199983
20
0.451724755054983
30
0
41
1
10
85.3189008143286
20
0.348037104063025
30
0
41
1
10
85.8999493247422
20
0.141278630961835
30
0
41
1
10
86.1906436478973
20
0.0381225101521352
30
0
41
1
10
86.7723268773116
20
-0.167868842268888
30
0
41
1
10
87.0633148295414
20
-0.27070686782929
30
0
41
1
10
87.6455499535879
20
-0.4761616044363
30
0
41
1
10
87.9368659252846
20
-0.578800005716403
30
0
41
1
10
88.8104666400459
20
-0.88623752256774
30
0
41
1
10
89.39249860892
20
-1.09058715920605
30
0
41
1
10
90.5556048057903
20
-1.49869747601369
30
0
41
1
10
91.1366739348289
20
-1.70247210884813
30
0
41
1
10
91.862316134064
20
-1.95705060107326
30
0
41
1
10
92.0074138118076
20
-2.0079478281487
30
0
41
1
10
92.2976522712398
20
-2.10941153120137
30
0
41
1
10
92.7330569464634
20
-2.26116111599828
30
0
41
1
10
93.1685773740087
20
-2.4116518347769
30
0
41
1
10
94.0397087224765
20
-2.71114745240513
30
0
41
1
10
94.6205804846292
20
-2.90884067386406
30
0
41
1
10
95.7823569920086
20
-3.30086941655262
30
0
41
1
10
96.3632614706727
20
-3.49520579402881
30
0
41
1
10
97.2344794736478
20
-3.78460902831958
30
0
41
1
10
97.6700546807747
20
-3.92878204085611
30
0
41
1
10
98.1055589759223
20
-4.07220506710286
30
0
41
1
10
98.395877466791
20
-4.16765727557859
30
0
41
1
10
98.5410208441317
20
-4.21532022364229
30
0
41
1
10
99.2668788018324
20
-4.45273531610022
30
0
41
1
10
99.8482274843767
20
-4.63923917436739
30
0
41
1
10
100.721006773193
20
-4.91452655065467
30
0
41
1
10
101.012059618388
20
-5.00554254981938
30
0
41
1
10
101.594392419948
20
-5.18615030221099
30
0
41
1
10
101.885716372483
20
-5.2757546400731
30
0
41
1
10
102.759412696202
20
-5.54234492907909
30
0
41
1
10
103.341644414825
20
-5.717166938199
30
0
41
1
10
104.214484331623
20
-5.97536801164318
30
0
41
1
10
104.505347357741
20
-6.06075945581807
30
0
41
1
10
105.0868874822
20
-6.23021388914609
30
0
41
1
10
105.377524207012
20
-6.31436579957904
30
0
41
1
10
106.249876594038
20
-6.5631667497322
30
0
41
1
10
106.83185868328
20
-6.7245853402996
30
0
41
1
10
107.705211235667
20
-6.96068070940015
30
0
41
1
10
107.996394481821
20
-7.03836670180871
30
0
41
1
10
108.578867162972
20
-7.19177212261738
30
0
41
1
10
108.870183687197
20
-7.26749709057623
30
0
41
1
10
109.74373244796
20
-7.49166911774449
30
0
41
1
10
110.32571559466
20
-7.63716928741198
30
0
41
1
10
111.197968782275
20
-7.84970266052363
30
0
41
1
10
111.488596355493
20
-7.91959875872828
30
0
41
1
10
111.924358351796
20
-8.02298683843046
30
0
41
1
10
112.069591567163
20
-8.05718905614444
30
0
41
1
10
112.360112797345
20
-8.12489408149108
30
0
41
1
10
112.505392203778
20
-8.15841346052065
30
0
41
1
10
113.231869150705
20
-8.32438246043012
30
0
41
1
10
113.813297926693
20
-8.45197326813374
30
0
41
1
10
114.976369971229
20
-8.69744335760396
30
0
41
1
10
115.55802401982
20
-8.81530282372296
30
0
41
1
10
116.721354708956
20
-9.04160179410096
30
0
41
1
10
117.30302502733
20
-9.15005050775449
30
0
41
1
10
118.030014154902
20
-9.27977249076446
30
0
41
1
10
118.17540727902
20
-9.30542413438101
30
0
41
1
10
118.466182178105
20
-9.35614007492475
30
0
41
1
10
118.611559199411
20
-9.3812104568247
30
0
41
1
10
119.047813196699
20
-9.45534364075624
30
0
41
1
10
119.338885050027
20
-9.50331649819785
30
0
41
1
10
120.212056821947
20
-9.64292068466955
30
0
41
1
10
120.794134295137
20
-9.73026585041183
30
0
41
1
10
121.957979945853
20
-9.89397994850933
30
0
41
1
10
122.539756057297
20
-9.97033907034404
30
0
41
1
10
123.702794196485
20
-10.1122647697558
30
0
41
1
10
124.284051657402
20
-10.1778343426144
30
0
41
1
10
125.155424812988
20
-10.2680299112386
30
0
41
1
10
125.445772706541
20
-10.2967462388893
30
0
41
1
10
126.026797363925
20
-10.3510576572459
30
0
41
1
10
126.317420933261
20
-10.3767002866791
30
0
41
1
10
127.189558351567
20
-10.4491892146128
30
0
41
1
10
127.771331272467
20
-10.4916084805878
30
0
41
1
10
128.935355703532
20
-10.5648591175607
30
0
41
1
10
129.517610615593
20
-10.5956890284052
30
0
41
1
10
130.1
20
-10.6207118758174
30
0
0
SPLINE
5
D4
100
AcDbEntity
8
1
62
256
6
ByLayer
370
18
48
1
60
0
100
AcDbSpline
70
4
71
4
72
10
73
5
40
0
40
0
40
0
40
0
40
0
40
1
40
1
40
1
40
1
40
1
41
0.996907709499566
10
18.4852995561675
20
8.36566404075076
30
0
41
0.996503121618732
10
18.4591327753525
20
8.12230545550261
30
0
41
0.996149474424181
10
18.4289557169323
20
7.88146751590203
30
0
41
0.995880614646011
10
18.3948096208822
20
7.64438954742437
30
0
41
0.995708747483197
10
18.3568386137285
20
7.41219175646788
30
0
0
SPLINE
5
D5
100
AcDbEntity
8
1
62
256
6
ByLayer
370
18
48
1
60
0
100
AcDbSpline
70
4
71
3
72
175
73
171
40
0
40
0
40
0
40
0
40
0.0128883261367276
40
0.0128883261367276
40
0.0315130747001843
40
0.0315130747001843
40
0.0408254489819127
40
0.0408254489819127
40
0.0454816361227773
40
0.0454816361227773
40
0.0501378232636418
40
0.0687625718271001
40
0.0687625718271001
40
0.0873873203905583
40
0.0873873203905583
40
0.0966996946722871
40
0.0966996946722871
40
0.106012068954016
40
0.106012068954016
40
0.11066825609488
40
0.11066825609488
40
0.115324443235744
40
0.115324443235744
40
0.124636817517473
40
0.124636817517473
40
0.143261566080929
40
0.143261566080929
40
0.161886314644386
40
0.161886314644386
40
0.171198688926114
40
0.171198688926114
40
0.180511063207842
40
0.180511063207842
40
0.18982343748957
40
0.18982343748957
40
0.199135811771298
40
0.199135811771298
40
0.217760560334754
40
0.217760560334754
40
0.227072934616482
40
0.227072934616482
40
0.23638530889821
40
0.23638530889821
40
0.245697683179938
40
0.245697683179938
40
0.250353870320802
40
0.250353870320802
40
0.255010057461666
40
0.255010057461666
40
0.273634806025121
40
0.273634806025121
40
0.292259554588576
40
0.292259554588576
40
0.310884303152032
40
0.310884303152032
40
0.315540490292896
40
0.315540490292896
40
0.32019667743376
40
0.32019667743376
40
0.32950905171549
40
0.32950905171549
40
0.348133800278949
40
0.348133800278949
40
0.366758548842408
40
0.366758548842408
40
0.376070923124137
40
0.376070923124137
40
0.385383297405866
40
0.385383297405866
40
0.394695671687595
40
0.394695671687595
40
0.404008045969324
40
0.404008045969324
40
0.422632794532783
40
0.422632794532783
40
0.441257543096242
40
0.441257543096242
40
0.450569917377972
40
0.450569917377972
40
0.455226104518836
40
0.455226104518836
40
0.459882291659701
40
0.459882291659701
40
0.47850704022316
40
0.47850704022316
40
0.497131788786618
40
0.497131788786618
40
0.515756537350077
40
0.515756537350077
40
0.520412724490942
40
0.520412724490942
40
0.525068911631806
40
0.525068911631806
40
0.534381285913536
40
0.534381285913536
40
0.553006034476994
40
0.553006034476994
40
0.571630783040453
40
0.571630783040453
40
0.580943157322182
40
0.580943157322182
40
0.590255531603911
40
0.590255531603911
40
0.59956790588564
40
0.59956790588564
40
0.60888028016737
40
0.60888028016737
40
0.627505028730827
40
0.627505028730827
40
0.646129777294285
40
0.646129777294285
40
0.655442151576014
40
0.655442151576014
40
0.660098338716879
40
0.660098338716879
40
0.664754525857743
40
0.664754525857743
40
0.683379274421201
40
0.683379274421201
40
0.702004022984658
40
0.702004022984658
40
0.720628771548115
40
0.720628771548115
40
0.72528495868898
40
0.72528495868898
40
0.729941145829845
40
0.729941145829845
40
0.739253520111574
40
0.739253520111574
40
0.757878268675032
40
0.757878268675032
40
0.77650301723849
40
0.77650301723849
40
0.785815391520219
40
0.785815391520219
40
0.795127765801949
40
0.795127765801949
40
0.799783952942813
40
0.799783952942813
40
0.804440140083678
40
0.804440140083678
40
0.813752514365407
40
0.813752514365407
40
0.832377262928866
40
0.832377262928866
40
0.851002011492325
40
0.851002011492325
40
0.860314385774055
40
0.860314385774055
40
0.869626760055785
40
0.869626760055785
40
0.888251508619244
40
0.888251508619244
40
0.897563882900973
40
0.897563882900973
40
0.906876257182702
40
0.906876257182702
40
0.925501005746161
40
0.925501005746161
40
0.930157192887026
40
0.930157192887026
40
0.934813380027891
40
0.934813380027891
40
0.944125754309621
40
0.944125754309621
40
0.962750502873081
40
0.962750502873081
40
0.98137525143654
40
0.98137525143654
40
1
40
1
40
1
40
1
41
1
10
111.357008805741
20
-7.90050515970376
30
0
41
1
10
110.937817090192
20
-8.00037566781126
30
0
41
1
10
110.518645801856
20
-8.09787237401349
30
0
41
1
10
109.493826892712
20
-8.33055937287901
30
0
41
1
10
108.888218792889
20
-8.46321111127648
30
0
41
1
10
107.980026928567
20
-8.65499765937531
30
0
41
1
10
107.677332862624
20
-8.7177262949547
30
0
41
1
10
107.223359417722
20
-8.81001965137
30
0
41
1
10
107.072051665019
20
-8.84049252408244
30
0
41
1
10
106.769390950072
20
-8.90072658407624
30
0
41
1
10
106.012595705237
20
-9.04948446407636
30
0
41
1
10
105.255093602501
20
-9.18918202512597
30
0
41
1
10
104.042293683421
20
-9.40138331740769
30
0
41
1
10
103.435494391926
20
-9.50182521289142
30
0
41
1
10
102.524776115621
20
-9.64408373239792
30
0
41
1
10
102.221051990633
20
-9.69011067724458
30
0
41
1
10
101.614006059392
20
-9.77928244441787
30
0
41
1
10
101.310635754747
20
-9.82243516356601
30
0
41
1
10
100.85582282944
20
-9.88501304504018
30
0
41
1
10
100.704260003172
20
-9.90551483537519
30
0
41
1
10
100.401213031481
20
-9.94579474595176
30
0
41
1
10
100.249724034934
20
-9.96556709038342
30
0
41
1
10
99.7952419752349
20
-10.0236591287551
30
0
41
1
10
99.4922602617003
20
-10.0607839395742
30
0
41
1
10
98.5833494049019
20
-10.1674183859486
30
0
41
1
10
97.9774556292168
20
-10.2321955650146
30
0
41
1
10
96.7658590943984
20
-10.3493545114162
30
0
41
1
10
96.1601545183389
20
-10.4017354334334
30
0
41
1
10
95.2518321775642
20
-10.4710399773946
30
0
41
1
10
94.9490980050233
20
-10.4925958523527
30
0
41
1
10
94.3437261301948
20
-10.5326008609104
30
0
41
1
10
94.041102313765
20
-10.5510560969202
30
0
41
1
10
93.435903834954
20
-10.5848019323919
30
0
41
1
10
93.1332297099716
20
-10.6000479277427
30
0
41
1
10
92.5276478591912
20
-10.6272804692798
30
0
41
1
10
92.2247547455825
20
-10.6392736892128
30
0
41
1
10
91.3157901198143
20
-10.6704229675796
30
0
41
1
10
90.7094326858929
20
-10.6847548676049
30
0
41
1
10
89.7994025045946
20
-10.6966379848518
30
0
41
1
10
89.4959766447744
20
-10.6989949840786
30
0
41
1
10
88.8889752802003
20
-10.700487158589
30
0
41
1
10
88.585336158859
20
-10.6996217512961
30
0
41
1
10
87.9782338495062
20
-10.6946434279279
30
0
41
1
10
87.6748469347837
20
-10.6905319194512
30
0
41
1
10
87.220027036461
20
-10.6819096347699
30
0
41
1
10
87.0684695361403
20
-10.6786248110741
30
0
41
1
10
86.7653777286731
20
-10.6712459395064
30
0
41
1
10
86.6138362978747
20
-10.667153837859
30
0
41
1
10
85.8561485793941
20
-10.6446936020817
30
0
41
1
10
85.2500653419419
20
-10.6203336751813
30
0
41
1
10
84.0381276666529
20
-10.5590129920617
30
0
41
1
10
83.4322722044973
20
-10.522052668634
30
0
41
1
10
82.2208968191146
20
-10.4355023526159
30
0
41
1
10
81.6153794488475
20
-10.3859117773161
30
0
41
1
10
80.8587835100987
20
-10.3158617880702
30
0
41
1
10
80.7074800123638
20
-10.3014476277858
30
0
41
1
10
80.4049023008135
20
-10.2718079194085
30
0
41
1
10
80.2536245205226
20
-10.2565846069772
30
0
41
1
10
79.7997000691078
20
-10.2098059732263
30
0
41
1
10
79.4969864980224
20
-10.1771246850993
30
0
41
1
10
78.5885721472592
20
-10.074622786538
30
0
41
1
10
77.9825992175332
20
-10.0003491807717
30
0
41
1
10
76.7700306391572
20
-9.83991693380585
30
0
41
1
10
76.1634332177299
20
-9.75376090566147
30
0
41
1
10
75.2531563987469
20
-9.61544235051954
30
0
41
1
10
74.9496681023061
20
-9.56781941480531
30
0
41
1
10
74.3425807081955
20
-9.46948946970048
30
0
41
1
10
74.0391623441977
20
-9.41879190354879
30
0
41
1
10
73.4326991705886
20
-9.31442695628093
30
0
41
1
10
73.1295274663101
20
-9.26089105177792
30
0
41
1
10
72.5232071335357
20
-9.15128016723685
30
0
41
1
10
72.2200745206631
20
-9.09518279904259
30
0
41
1
10
71.3107777056082
20
-8.9230219645614
30
0
41
1
10
70.7047134386756
20
-8.80309643971822
30
0
41
1
10
69.4929518265908
20
-8.55285458098086
30
0
41
1
10
68.8872532425124
20
-8.42254109260173
30
0
41
1
10
67.979084612911
20
-8.21903811497208
30
0
41
1
10
67.6764248365518
20
-8.14986380046562
30
0
41
1
10
67.2225430053002
20
-8.04404935428045
30
0
41
1
10
67.0712730687105
20
-8.00842394443234
30
0
41
1
10
66.7687095420789
20
-7.9365986679839
30
0
41
1
10
66.6174070843479
20
-7.90041603009141
30
0
41
1
10
65.8607830640874
20
-7.71817704145752
30
0
41
1
10
65.2551375563183
20
-7.56812826313924
30
0
41
1
10
64.0432604175732
20
-7.25943118106133
30
0
41
1
10
63.4370277770561
20
-7.10078507178949
30
0
41
1
10
62.2240819470034
20
-6.77465004867432
30
0
41
1
10
61.617371254576
20
-6.6071564888237
30
0
41
1
10
60.8587646774466
20
-6.39196601634086
30
0
41
1
10
60.7070181098788
20
-6.34863117340359
30
0
41
1
10
60.4035889739004
20
-6.26139877084421
30
0
41
1
10
60.251905169389
20
-6.2175071130915
30
0
41
1
10
59.7968180131025
20
-6.08530270990505
30
0
41
1
10
59.4934008131513
20
-5.99641114531013
30
0
41
1
10
58.5830883073123
20
-5.72745859254013
30
0
41
1
10
57.9761333193143
20
-5.54512016035497
30
0
41
1
10
56.7621650701378
20
-5.17419253350533
30
0
41
1
10
56.1551499978066
20
-4.9856080767953
30
0
41
1
10
55.2446748760829
20
-4.69779383655916
30
0
41
1
10
54.9411919372691
20
-4.60102980072259
30
0
41
1
10
54.3342599437184
20
-4.40579438095617
30
0
41
1
10
54.030810250899
20
-4.30728738257528
30
0
41
1
10
53.4239594456089
20
-4.10866389974473
30
0
41
1
10
53.1205505550973
20
-4.00883559036981
30
0
41
1
10
52.5136618010895
20
-3.80842924226505
30
0
41
1
10
52.2101992020509
20
-3.70780604472196
30
0
41
1
10
51.2997766575982
20
-3.40463532325452
30
0
41
1
10
50.6927810396508
20
-3.2007910169022
30
0
41
1
10
49.478799015663
20
-2.78938329062299
30
0
41
1
10
48.8718113827032
20
-2.58182351742138
30
0
41
1
10
47.9614401859734
20
-2.26738412589475
30
0
41
1
10
47.6580013410816
20
-2.16205426976515
30
0
41
1
10
47.2028830745203
20
-2.00324140005162
30
0
41
1
10
47.0511896670284
20
-1.95015045261553
30
0
41
1
10
46.7477547399219
20
-1.84386670881955
30
0
41
1
10
46.5960350250089
20
-1.79070829112183
30
0
41
1
10
45.8375189520786
20
-1.52488815324699
30
0
41
1
10
45.2308759361348
20
-1.31208171683303
30
0
41
1
10
44.0180201525934
20
-0.885896040337002
30
0
41
1
10
43.4118063840293
20
-0.672519671954916
30
0
41
1
10
42.1999145450067
20
-0.244890258261279
30
0
41
1
10
41.5942389632767
20
-0.0306300532602677
30
0
41
1
10
40.8375716352408
20
0.23800144211387
30
0
41
1
10
40.686260032178
20
0.291769462071784
30
0
41
1
10
40.3836795221662
20
0.399385777807822
30
0
41
1
10
40.2324077184648
20
0.453225794089718
30
0
41
1
10
39.7785213444913
20
0.614481921545661
30
0
41
1
10
39.475858483834
20
0.721698772344496
30
0
41
1
10
38.5676715958255
20
1.04253991202356
30
0
41
1
10
37.9619506559841
20
1.25535908159344
30
0
41
1
10
36.7500859796942
20
1.67914614921094
30
0
41
1
10
36.1439404673271
20
1.89010905110897
30
0
41
1
10
35.2344930443008
20
2.20541053990016
30
0
41
1
10
34.9313065071883
20
2.31032271848306
30
0
41
1
10
34.3248738818749
20
2.51981189167506
30
0
41
1
10
34.0216389619592
20
2.62442031745866
30
0
41
1
10
33.5667150721981
20
2.7810043514676
30
0
41
1
10
33.4150453932587
20
2.83309791088107
30
0
41
1
10
33.1116031068021
20
2.93695304057096
30
0
41
1
10
32.9598328372785
20
2.98873308448472
30
0
41
1
10
32.5045825813896
20
3.1435680621874
30
0
41
1
10
32.2010989117709
20
3.24613980695284
30
0
41
1
10
31.2907162598296
20
3.5519708577223
30
0
41
1
10
30.683884609909
20
3.75334598902305
30
0
41
1
10
29.4705028726568
20
4.15138174959176
30
0
41
1
10
28.8639515060469
20
4.34803943826128
30
0
41
1
10
27.9544400597617
20
4.63972774941465
30
0
41
1
10
27.6513220638804
20
4.73640640882522
30
0
41
1
10
27.0452085554313
20
4.92869253590672
30
0
41
1
10
26.7422131640316
20
5.02429770202519
30
0
41
1
10
25.8327938014963
20
5.30795240975857
30
0
41
1
10
25.2261211701832
20
5.49331493909108
30
0
41
1
10
24.3156037580757
20
5.76599977075117
30
0
41
1
10
24.0120130491727
20
5.85600045911403
30
0
41
1
10
23.4046750194227
20
6.03424609529458
30
0
41
1
10
23.1009447754555
20
6.12248525923781
30
0
41
1
10
22.1901832709306
20
6.38443025133873
30
0
41
1
10
21.5833717533964
20
6.55543363393684
30
0
41
1
10
20.8254018358267
20
6.76479459827601
30
0
41
1
10
20.6738355504027
20
6.80644776197309
30
0
41
1
10
20.3707576728668
20
6.88931142673621
30
0
41
1
10
20.2192433607178
20
6.93051557274686
30
0
41
1
10
19.7646473334997
20
7.05317075950347
30
0
41
1
10
19.4615348956835
20
7.13371472482629
30
0
41
1
10
18.5520697630508
20
7.37173976188814
30
0
41
1
10
17.9455911030825
20
7.52562228445092
30
0
41
1
10
16.7323936289092
20
7.82406750063069
30
0
41
1
10
16.1256729859847
20
7.96862709873807
30
0
41
1
10
14.9121097220817
20
8.24860500373904
30
0
41
1
10
14.3052678548277
20
8.38402587944938
30
0
41
1
10
13.6984473050945
20
8.51492477249482
30
0
0
SPLINE
5
D6
100
AcDbEntity
8
1
62
256
6
ByLayer
370
18
48
1
60
0
100
AcDbSpline
70
4
71
3
72
100
73
96
40
0
40
0
40
0
40
0
40
0.062500000000009
40
0.062500000000009
40
0.0937500000000126
40
0.0937500000000126
40
0.125000000000016
40
0.125000000000016
40
0.15625000000002
40
0.15625000000002
40
0.171875000000022
40
0.171875000000022
40
0.179687500000022
40
0.179687500000022
40
0.187500000000023
40
0.187500000000023
40
0.218750000000023
40
0.218750000000023
40
0.250000000000024
40
0.250000000000024
40
0.281250000000025
40
0.281250000000025
40
0.289062500000025
40
0.289062500000025
40
0.296875000000026
40
0.312500000000027
40
0.312500000000027
40
0.343750000000028
40
0.343750000000028
40
0.37500000000003
40
0.37500000000003
40
0.38281250000003
40
0.38281250000003
40
0.39062500000003
40
0.40625000000003
40
0.40625000000003
40
0.43750000000003
40
0.43750000000003
40
0.44531250000003
40
0.44531250000003
40
0.449218750000029
40
0.449218750000029
40
0.453125000000029
40
0.468750000000028
40
0.468750000000028
40
0.500000000000027
40
0.500000000000027
40
0.515625000000026
40
0.515625000000026
40
0.523437500000026
40
0.523437500000026
40
0.531250000000026
40
0.531250000000026
40
0.562500000000024
40
0.562500000000024
40
0.578125000000024
40
0.578125000000024
40
0.582031250000024
40
0.582031250000024
40
0.585937500000024
40
0.585937500000024
40
0.593750000000024
40
0.593750000000024
40
0.625000000000023
40
0.625000000000023
40
0.656250000000023
40
0.656250000000023
40
0.671875000000023
40
0.671875000000023
40
0.679687500000022
40
0.679687500000022
40
0.687500000000022
40
0.687500000000022
40
0.71875000000002
40
0.71875000000002
40
0.750000000000019
40
0.750000000000019
40
0.781250000000017
40
0.781250000000017
40
0.796875000000016
40
0.804687500000016
40
0.804687500000016
40
0.812500000000016
40
0.812500000000016
40
0.843750000000013
40
0.843750000000013
40
0.87500000000001
40
0.87500000000001
40
0.906250000000008
40
0.906250000000008
40
0.937500000000005
40
0.937500000000005
40
0.968750000000003
40
0.968750000000003
40
1
40
1
40
1
40
1
41
1
10
10
20
-7.78615053225167
30
0
41
1
10
9.56739369441161
20
-7.91534613354199
30
0
41
1
10
9.14346855293144
20
-8.05738197024772
30
0
41
1
10
8.52070856542838
20
-8.28825750256593
30
0
41
1
10
8.31531331958885
20
-8.36818587436517
30
0
41
1
10
7.90897897255508
20
-8.53374423807608
30
0
41
1
10
7.70803932029281
20
-8.61937408298331
30
0
41
1
10
7.31074230775718
20
-8.79610421892002
30
0
41
1
10
7.11438409509853
20
-8.88720434745127
30
0
41
1
10
6.82343364144941
20
-9.02779281977686
30
0
41
1
10
6.72704862313529
20
-9.07531213019567
30
0
41
1
10
6.5833948363711
20
-9.14755644121374
30
0
41
1
10
6.53572096296111
20
-9.17177063090986
30
0
41
1
10
6.44102031709849
20
-9.2203426323851
30
0
41
1
10
6.39396008223522
20
-9.24471723588726
30
0
41
1
10
6.16011811467962
20
-9.36700805200337
30
0
41
1
10
5.9777058815543
20
-9.46617865489037
30
0
41
1
10
5.62255117777374
20
-9.66653726773708
30
0
41
1
10
5.44980585318001
20
-9.76772630598933
30
0
41
1
10
5.11457786597873
20
-9.97142378511842
30
0
41
1
10
4.95209003525497
20
-10.0739339028697
30
0
41
1
10
4.75599260075504
20
-10.2024099194514
30
0
41
1
10
4.71708553882817
20
-10.2281481046011
30
0
41
1
10
4.64018180897435
20
-10.2795193324285
30
0
41
1
10
4.5263584807945
20
-10.356305630039
30
0
41
1
10
4.41717215965835
20
-10.4322033957569
30
0
41
1
10
4.20513784477282
20
-10.5825971666312
30
0
41
1
10
4.07220831542548
20
-10.6809984724596
30
0
41
1
10
3.82453531082479
20
-10.8727745678713
30
0
41
1
10
3.70977675199697
20
-10.9661559775935
30
0
41
1
10
3.57911242188169
20
-11.0787279320752
30
0
41
1
10
3.55369806231244
20
-11.1009686981582
30
0
41
1
10
3.50451577993584
20
-11.1447120456573
30
0
41
1
10
3.43312042950802
20
-11.2092991085129
30
0
41
1
10
3.36890783455871
20
-11.2707176345534
30
0
41
1
10
3.25028752173955
20
-11.3890745042383
30
0
41
1
10
3.18423286855906
20
-11.4620227270273
30
0
41
1
10
3.11932793547254
20
-11.5447007457325
30
0
41
1
10
3.10723384667199
20
-11.5608096428447
30
0
41
1
10
3.09046120768502
20
-11.5843084908792
30
0
41
1
10
3.08509396349493
20
-11.5920377245524
30
0
41
1
10
3.07486595906835
20
-11.6072048678066
30
0
41
1
10
3.05053814584539
20
-11.6444269945812
30
0
41
1
10
3.03238048784101
20
-11.6781804632679
30
0
41
1
10
3.00049435988902
20
-11.7525546533584
30
0
41
1
10
2.99478450109419
20
-11.7933062124798
30
0
41
1
10
3.00970385341705
20
-11.8410314270247
30
0
41
1
10
3.0186015331779
20
-11.8547026072652
30
0
41
1
10
3.03795234357474
20
-11.8718009403395
30
0
41
1
10
3.04541914974581
20
-11.8769354308973
30
0
41
1
10
3.06221419176529
20
-11.8859839572837
30
0
41
1
10
3.0715531670788
20
-11.8899115066667
30
0
41
1
10
3.12283932585572
20
-11.9066523038371
30
0
41
1
10
3.17850851966722
20
-11.9108006900666
30
0
41
1
10
3.28243091194264
20
-11.9044744598594
30
0
41
1
10
3.32048518051258
20
-11.9002690465336
30
0
41
1
10
3.37222514448999
20
-11.892496106413
30
0
41
1
10
3.3827818879941
20
-11.8908156396706
30
0
41
1
10
3.40431106486034
20
-11.8872052965893
30
0
41
1
10
3.41529400270289
20
-11.8852734269354
30
0
41
1
10
3.44876338176783
20
-11.8791259315429
30
0
41
1
10
3.47177587564795
20
-11.8745584264347
30
0
41
1
10
3.59020261892857
20
-11.8494909121691
30
0
41
1
10
3.69566621935911
20
-11.8223331221403
30
0
41
1
10
3.92541014002495
20
-11.7561957480656
30
0
41
1
10
4.04970582072164
20
-11.7172059169952
30
0
41
1
10
4.24892920184257
20
-11.6511583145101
30
0
41
1
10
4.31747191856039
20
-11.6278780478689
30
0
41
1
10
4.42335436559651
20
-11.5911963372818
30
0
41
1
10
4.45906228982676
20
-11.5787091709557
30
0
41
1
10
4.5311558343148
20
-11.5532854961004
30
0
41
1
10
4.56756051088138
20
-11.5403423850804
30
0
41
1
10
4.75130317626116
20
-11.4745372740753
30
0
41
1
10
4.90378239019066
20
-11.4184247653948
30
0
41
1
10
5.21821399142618
20
-11.3006528387691
30
0
41
1
10
5.38017209890543
20
-11.2389885942587
30
0
41
1
10
5.71239278951583
20
-11.1111204393582
30
0
41
1
10
5.88265854937777
20
-11.0449137977599
30
0
41
1
10
6.14354496653274
20
-10.9427608158811
30
0
41
1
10
6.27536184289397
20
-10.890970884734
30
0
41
1
10
6.409112361674
20
-10.8381951852439
30
0
41
1
10
6.49869568269884
20
-10.802800392317
30
0
41
1
10
6.54368804344619
20
-10.7850004624706
30
0
41
1
10
6.76917257650274
20
-10.6956853059574
30
0
41
1
10
6.95161534639178
20
-10.6230772457971
30
0
41
1
10
7.31998008517689
20
-10.4759045818676
30
0
41
1
10
7.50590245595004
20
-10.4013383933914
30
0
41
1
10
7.88068786416747
20
-10.2504700767784
30
0
41
1
10
8.06955074294206
20
-10.1741665517595
30
0
41
1
10
8.44976604798296
20
-10.0199572337022
30
0
41
1
10
8.64111796023346
20
-9.9420500586503
30
0
41
1
10
9.02595850502072
20
-9.78472131776581
30
0
41
1
10
9.21944647022212
20
-9.70529833940159
30
0
41
1
10
9.60832311431525
20
-9.54502192127327
30
0
41
1
10
9.80371118584702
20
-9.46416709439239
30
0
41
1
10
10
20
-9.38265817528466
30
0
0
SPLINE
5
D7
100
AcDbEntity
8
1
62
256
6
ByLayer
370
18
48
1
60
0
100
AcDbSpline
70
4
71
3
72
43
73
39
40
0
40
0
40
0
40
0
40
0.0022214236863961
40
0.0022214236863961
40
0.0210474345602374
40
0.0210474345602374
40
0.096351478055602
40
0.096351478055602
40
0.171655521550967
40
0.171655521550967
40
0.209307543298649
40
0.209307543298649
40
0.228133554172491
40
0.228133554172491
40
0.246959565046333
40
0.246959565046333
40
0.3222636085417
40
0.3222636085417
40
0.397567652037068
40
0.397567652037068
40
0.472871695532435
40
0.472871695532435
40
0.510523717280119
40
0.529349728153962
40
0.529349728153962
40
0.548175739027804
40
0.548175739027804
40
0.62347978252317
40
0.62347978252317
40
0.698783826018536
40
0.698783826018536
40
0.774087869513902
40
0.774087869513902
40
0.849391913009268
40
0.849391913009268
40
0.924695956504634
40
0.924695956504634
40
1
40
1
40
1
40
1
41
1
10
3.41858143247467
20
11.8846553194935
30
0
41
1
10
3.42119438557842
20
11.8841849152733
30
0
41
1
10
3.42381759194683
20
11.8837078548493
30
0
41
1
10
3.44876338176783
20
11.8791259315429
30
0
41
1
10
3.47177587564792
20
11.8745584264347
30
0
41
1
10
3.59020261892857
20
11.8494909121691
30
0
41
1
10
3.69566621935914
20
11.8223331221403
30
0
41
1
10
3.92541014002495
20
11.7561957480657
30
0
41
1
10
4.04970582072161
20
11.7172059169953
30
0
41
1
10
4.24892920184257
20
11.6511583145101
30
0
41
1
10
4.31747191856039
20
11.6278780478689
30
0
41
1
10
4.42335436559651
20
11.5911963372818
30
0
41
1
10
4.45906228982673
20
11.5787091709557
30
0
41
1
10
4.53115583431475
20
11.5532854961004
30
0
41
1
10
4.56756051088135
20
11.5403423850804
30
0
41
1
10
4.7513031762611
20
11.4745372740753
30
0
41
1
10
4.90378239019063
20
11.4184247653947
30
0
41
1
10
5.21821399142615
20
11.3006528387691
30
0
41
1
10
5.3801720989054
20
11.2389885942587
30
0
41
1
10
5.71239278951577
20
11.1111204393582
30
0
41
1
10
5.88265854937777
20
11.0449137977599
30
0
41
1
10
6.14354496653277
20
10.9427608158811
30
0
41
1
10
6.275361842894
20
10.890970884734
30
0
41
1
10
6.40911236167398
20
10.8381951852439
30
0
41
1
10
6.49869568269878
20
10.802800392317
30
0
41
1
10
6.54368804344622
20
10.7850004624705
30
0
41
1
10
6.76917257650274
20
10.6956853059573
30
0
41
1
10
6.95161534639175
20
10.6230772457972
30
0
41
1
10
7.31998008517684
20
10.4759045818676
30
0
41
1
10
7.50590245595004
20
10.4013383933914
30
0
41
1
10
7.88068786416747
20
10.2504700767784
30
0
41
1
10
8.06955074294206
20
10.1741665517595
30
0
41
1
10
8.44976604798296
20
10.0199572337022
30
0
41
1
10
8.64111796023346
20
9.94205005865027
30
0
41
1
10
9.0259585050207
20
9.78472131776579
30
0
41
1
10
9.21944647022212
20
9.70529833940157
30
0
41
1
10
9.60832311431523
20
9.54502192127325
30
0
41
1
10
9.80371118584702
20
9.46416709439237
30
0
41
1
10
10
20
9.3826581752846
30
0
0
SPLINE
5
D8
100
AcDbEntity
8
SK1
62
256
6
ByLayer
370
18
48
1
60
0
100
AcDbSpline
70
4
71
3
72
34
73
30
40
0
40
0
40
0
40
0
40
0.125000000000001
40
0.125000000000001
40
0.250000000000002
40
0.250000000000002
40
0.375000000000003
40
0.375000000000003
40
0.437500000000004
40
0.437500000000004
40
0.500000000000005
40
0.500000000000005
40
0.625000000000005
40
0.625000000000005
40
0.656250000000005
40
0.656250000000005
40
0.687500000000005
40
0.687500000000005
40
0.750000000000005
40
0.750000000000005
40
0.812500000000005
40
0.812500000000005
40
0.843750000000004
40
0.843750000000004
40
0.875000000000004
40
0.875000000000004
40
0.937500000000002
40
0.937500000000002
40
1
40
1
40
1
40
1
41
1
10
-52.5003287739481
20
-3.62059097355461
30
0
41
1
10
-52.4791023107682
20
-3.69580949914169
30
0
41
1
10
-52.456173666836
20
-3.7701328086529
30
0
41
1
10
-52.4062202513365
20
-3.91675156331095
30
0
41
1
10
-52.3792000011183
20
-3.98904864238443
30
0
41
1
10
-52.3201140822394
20
-4.13128549106548
30
0
41
1
10
-52.2880578558644
20
-4.20122868864783
30
0
41
1
10
-52.2351342019209
20
-4.30400502578081
30
0
41
1
10
-52.2166821098451
20
-4.33790583931534
30
0
41
1
10
-52.1779019271959
20
-4.40490146665846
30
0
41
1
10
-52.1575385793023
20
-4.43805147836142
30
0
41
1
10
-52.093380094742
20
-4.53574061166557
30
0
41
1
10
-52.0468993353633
20
-4.59806703723407
30
0
41
1
10
-51.9825062567773
20
-4.67139689881651
30
0
41
1
10
-51.9693089720826
20
-4.68583123022111
30
0
41
1
10
-51.9422155209832
20
-4.71419608571787
30
0
41
1
10
-51.9282893124732
20
-4.72815494045494
30
0
41
1
10
-51.8855899983214
20
-4.7689776324583
30
0
41
1
10
-51.8559681934235
20
-4.79473829352929
30
0
41
1
10
-51.7940523105194
20
-4.84293492664423
30
0
41
1
10
-51.7617609635258
20
-4.86537421079322
30
0
41
1
10
-51.710934585781
20
-4.89608972183805
30
0
41
1
10
-51.6935927882519
20
-4.9058359097269
30
0
41
1
10
-51.6580214478988
20
-4.92423937407065
30
0
41
1
10
-51.6397301965266
20
-4.93292309713041
30
0
41
1
10
-51.583780125377
20
-4.9569645106269
30
0
41
1
10
-51.5455987975117
20
-4.97010157811332
30
0
41
1
10
-51.4673083175319
20
-4.99008231274206
30
0
41
1
10
-51.4272005227822
20
-4.99693051090844
30
0
41
1
10
-51.3860020460814
20
-5.00022676868039
30
0
0
SPLINE
5
D9
100
AcDbEntity
8
SK1
62
256
6
ByLayer
370
18
48
1
60
0
100
AcDbSpline
70
4
71
3
72
34
73
30
40
0
40
0
40
0
40
0
40
0.0625000000000001
40
0.0625000000000001
40
0.125
40
0.125
40
0.1875
40
0.1875
40
0.25
40
0.25
40
0.28125
40
0.28125
40
0.312499999999999
40
0.312499999999999
40
0.374999999999998
40
0.374999999999998
40
0.499999999999995
40
0.499999999999995
40
0.531249999999995
40
0.531249999999995
40
0.562499999999995
40
0.562499999999995
40
0.624999999999996
40
0.624999999999996
40
0.749999999999997
40
0.749999999999997
40
0.874999999999999
40
0.874999999999999
40
1
40
1
40
1
40
1
41
1
10
-51.3860020460814
20
5.00022676868039
30
0
41
1
10
-51.4271597094618
20
4.99693377635015
30
0
41
1
10
-51.4672462826171
20
4.9900941818546
30
0
41
1
10
-51.5455242136708
20
4.97012456894885
30
0
41
1
10
-51.5837142752675
20
4.95699014998107
30
0
41
1
10
-51.658355568598
20
4.92492253812571
30
0
41
1
10
-51.6938849422845
20
4.90639169663621
30
0
41
1
10
-51.7618166387264
20
4.86534206803361
30
0
41
1
10
-51.7942559781117
20
4.84279931421437
30
0
41
1
10
-51.8409760500773
20
4.80639681369991
30
0
41
1
10
-51.8562248159031
20
4.79382938651
30
0
41
1
10
-51.8861176712827
20
4.76788296468004
30
0
41
1
10
-51.9007110618413
20
4.75454548912128
30
0
41
1
10
-51.9432559764382
20
4.71379512925466
30
0
41
1
10
-51.9701014783725
20
4.68554212638855
30
0
41
1
10
-52.0468805903312
20
4.59805033156974
30
0
41
1
10
-52.0930959781036
20
4.5361050376323
30
0
41
1
10
-52.146279276313
20
4.45521167958731
30
0
41
1
10
-52.1566830990006
20
4.43885754119347
30
0
41
1
10
-52.1770537162702
20
4.4058167491863
30
0
41
1
10
-52.1870311208954
20
4.38911114781021
30
0
41
1
10
-52.216231523151
20
4.33872068618709
30
0
41
1
10
-52.2347469485042
20
4.30473232112985
30
0
41
1
10
-52.2878314108395
20
4.20171722667834
30
0
41
1
10
-52.3199565384222
20
4.13164670884206
30
0
41
1
10
-52.3791390929746
20
3.98921323503123
30
0
41
1
10
-52.4061866509714
20
3.91684682729945
30
0
41
1
10
-52.4561716481468
20
3.77014208810513
30
0
41
1
10
-52.4791043925606
20
3.69580212206003
30
0
41
1
10
-52.5003287739482
20
3.62059097355464
30
0
0
SPLINE
5
DA
100
AcDbEntity
8
SK1
62
256
6
ByLayer
370
18
48
1
60
0
100
AcDbSpline
70
4
71
3
72
32
73
28
40
0
40
0
40
0
40
0
40
0.124999999999982
40
0.124999999999982
40
0.249999999999963
40
0.249999999999963
40
0.374999999999945
40
0.374999999999945
40
0.406249999999941
40
0.406249999999941
40
0.437499999999938
40
0.499999999999932
40
0.499999999999932
40
0.624999999999931
40
0.624999999999931
40
0.656249999999931
40
0.656249999999931
40
0.68749999999993
40
0.68749999999993
40
0.749999999999941
40
0.749999999999941
40
0.874999999999977
40
0.874999999999977
40
0.906249999999979
40
0.906249999999979
40
0.937499999999981
40
1
40
1
40
1
40
1
41
1
10
-14.0157764695459
20
6.59242894057729
30
0
41
1
10
-14.0458287908144
20
6.6375753796253
30
0
41
1
10
-14.0777095790596
20
6.68135165141678
30
0
41
1
10
-14.1456160664484
20
6.76590887596987
30
0
41
1
10
-14.1816386907667
20
6.80669170869109
30
0
41
1
10
-14.2584995514322
20
6.88489663469755
30
0
41
1
10
-14.2993317458756
20
6.92232243783545
30
0
41
1
10
-14.35399779722
20
6.96665617585003
30
0
41
1
10
-14.3651284778382
20
6.97541075031074
30
0
41
1
10
-14.3876400333972
20
6.9925614515505
30
0
41
1
10
-14.4218166346372
20
7.01777898878851
30
0
41
1
10
-14.4572545898122
20
7.04143848131534
30
0
41
1
10
-14.529923003083
20
7.08656817107874
30
0
41
1
10
-14.5807455844468
20
7.11375097789289
30
0
41
1
10
-14.6477689594914
20
7.14354340177493
30
0
41
1
10
-14.6613494138678
20
7.1492913738704
30
0
41
1
10
-14.6888796972728
20
7.1603468035685
30
0
41
1
10
-14.7028224503024
20
7.16564964334611
30
0
41
1
10
-14.7448319317882
20
7.18073146134719
30
0
41
1
10
-14.7732044950192
20
7.1897362156873
30
0
41
1
10
-14.8594560991353
20
7.21351895535656
30
0
41
1
10
-14.9184624466539
20
7.22508541231923
30
0
41
1
10
-14.9943023139084
20
7.23365556703433
30
0
41
1
10
-15.0096045403259
20
7.23507501753883
30
0
41
1
10
-15.0401948935638
20
7.23728819114979
30
0
41
1
10
-15.0861089470591
20
7.23967813447453
30
0
41
1
10
-15.1321084232236
20
7.23928527151031
30
0
41
1
10
-15.1628130403698
20
7.23777548279986
30
0
0
SPLINE
5
DB
100
AcDbEntity
8
SK1
62
256
6
ByLayer
370
18
48
1
60
0
100
AcDbSpline
70
4
71
3
72
24
73
20
40
0
40
0
40
0
40
0
40
0.124999999999998
40
0.124999999999998
40
0.249999999999995
40
0.249999999999995
40
0.374999999999993
40
0.374999999999993
40
0.49999999999999
40
0.49999999999999
40
0.624999999999988
40
0.624999999999988
40
0.749999999999985
40
0.749999999999985
40
0.812499999999989
40
0.812499999999989
40
0.874999999999992
40
0.874999999999992
40
1
40
1
40
1
40
1
41
1
10
-15.1628130403698
20
-7.23777548279986
30
0
41
1
10
-15.1013368482927
20
-7.2407983526281
30
0
41
1
10
-15.0406973758297
20
-7.23880609117487
30
0
41
1
10
-14.920978556398
20
-7.22545942224767
30
0
41
1
10
-14.8618998887329
20
-7.21410077871741
30
0
41
1
10
-14.7452745335612
20
-7.18212437688828
30
0
41
1
10
-14.6895699451789
20
-7.16201960319464
30
0
41
1
10
-14.5827589175342
20
-7.11474711952985
30
0
41
1
10
-14.5316211412475
20
-7.08755690757022
30
0
41
1
10
-14.4334554488588
20
-7.02672282100497
30
0
41
1
10
-14.38751619038
20
-6.99376703919228
30
0
41
1
10
-14.3007925764321
20
-6.92357765523022
30
0
41
1
10
-14.2600161652162
20
-6.88633798514746
30
0
41
1
10
-14.2021759714482
20
-6.82763631844753
30
0
41
1
10
-14.1834523029509
20
-6.80759363972547
30
0
41
1
10
-14.1470479748901
20
-6.76660288333122
30
0
41
1
10
-14.1293429656042
20
-6.74562348347595
30
0
41
1
10
-14.0779142754528
20
-6.68164973874727
30
0
41
1
10
-14.0458764161971
20
-6.63764692539442
30
0
41
1
10
-14.0157764695459
20
-6.59242894057729
30
0
0
SPLINE
5
DC
100
AcDbEntity
8
1
62
256
6
ByLayer
370
13
48
1
60
0
100
AcDbSpline
70
4
71
3
72
84
73
80
40
0
40
0
40
0
40
0
40
0.0312500000000006
40
0.0312500000000006
40
0.0625000000000013
40
0.0625000000000013
40
0.0937500000000019
40
0.0937500000000019
40
0.125000000000003
40
0.125000000000003
40
0.156250000000003
40
0.156250000000003
40
0.187500000000004
40
0.187500000000004
40
0.218750000000004
40
0.218750000000004
40
0.250000000000005
40
0.250000000000005
40
0.281250000000006
40
0.281250000000006
40
0.296875000000006
40
0.296875000000006
40
0.304687500000006
40
0.304687500000006
40
0.312500000000006
40
0.312500000000006
40
0.343750000000005
40
0.343750000000005
40
0.375000000000005
40
0.375000000000005
40
0.406250000000005
40
0.406250000000005
40
0.437500000000004
40
0.437500000000004
40
0.468750000000004
40
0.468750000000004
40
0.500000000000003
40
0.500000000000003
40
0.531250000000003
40
0.531250000000003
40
0.562500000000003
40
0.562500000000003
40
0.593750000000002
40
0.593750000000002
40
0.601562500000002
40
0.601562500000002
40
0.609375000000002
40
0.609375000000002
40
0.625000000000002
40
0.625000000000002
40
0.656250000000002
40
0.656250000000002
40
0.687500000000003
40
0.687500000000003
40
0.718750000000003
40
0.718750000000003
40
0.750000000000003
40
0.750000000000003
40
0.781250000000003
40
0.781250000000003
40
0.812500000000003
40
0.812500000000003
40
0.843750000000004
40
0.843750000000004
40
0.875000000000004
40
0.875000000000004
40
0.906250000000004
40
0.906250000000004
40
0.910156250000004
40
0.910156250000004
40
0.914062500000003
40
0.914062500000003
40
0.921875000000003
40
0.921875000000003
40
0.937500000000002
40
0.937500000000002
40
0.968750000000001
40
0.968750000000001
40
1
40
1
40
1
40
1
41
1
10
132.067061545375
20
11
30
0
41
1
10
132.161116398268
20
11
30
0
41
1
10
132.25517125116
20
10.9612313993721
30
0
41
1
10
132.443280956946
20
10.7937833937248
30
0
41
1
10
132.537335809838
20
10.6650189073306
30
0
41
1
10
132.725445515624
20
10.3099550958711
30
0
41
1
10
132.819500368516
20
10.0835906628114
30
0
41
1
10
133.007610074302
20
9.53296903324076
30
0
41
1
10
133.101664927194
20
9.20869316768093
30
0
41
1
10
133.28977463298
20
8.4705113775168
30
0
41
1
10
133.383829485872
20
8.05664806750551
30
0
41
1
10
133.571939191658
20
7.15585464828857
30
0
41
1
10
133.66599404455
20
6.66902111265281
30
0
41
1
10
133.854103750336
20
5.64501117024003
30
0
41
1
10
133.948158603228
20
5.10795698450917
30
0
41
1
10
134.136268309014
20
4.0089836688532
30
0
41
1
10
134.230323161906
20
3.44717668160581
30
0
41
1
10
134.418432867692
20
2.32327754980949
30
0
41
1
10
134.512487720584
20
1.76126091127287
30
0
41
1
10
134.653569999923
20
0.933606208595847
30
0
41
1
10
134.70059742637
20
0.660246357648703
30
0
41
1
10
134.771138566039
20
0.255562477878215
30
0
41
1
10
134.794652279262
20
0.121667539391069
30
0
41
1
10
134.841679705709
20
-0.144563118373185
30
0
41
1
10
134.865193418932
20
-0.278676263422909
30
0
41
1
10
134.982761985048
20
-0.953657222157261
30
0
41
1
10
135.07681683794
20
-1.50798281882473
30
0
41
1
10
135.264926543726
20
-2.62715411053674
30
0
41
1
10
135.358981396619
20
-3.191946335766
30
0
41
1
10
135.547091102404
20
-4.30911508090077
30
0
41
1
10
135.641145955297
20
-4.86139497471169
30
0
41
1
10
135.829255661082
20
-5.92811788532711
30
0
41
1
10
135.923310513975
20
-6.44243934338613
30
0
41
1
10
136.11142021976
20
-7.40870081351179
30
0
41
1
10
136.205475072653
20
-7.86052738632057
30
0
41
1
10
136.393584778438
20
-8.68179328936131
30
0
41
1
10
136.487639631331
20
-9.05116138840251
30
0
41
1
10
136.675749337116
20
-9.69493747361838
30
0
41
1
10
136.769804190009
20
-9.96933499056195
30
0
41
1
10
136.957913895794
20
-10.4193061422747
30
0
41
1
10
137.051968748687
20
-10.5949252501764
30
0
41
1
10
137.240078454472
20
-10.851619663254
30
0
41
1
10
137.334133307365
20
-10.9327738200558
30
0
41
1
10
137.451701873481
20
-10.9816647928905
30
0
41
1
10
137.475215586704
20
-10.9888269233975
30
0
41
1
10
137.52224301315
20
-10.9981208531816
30
0
41
1
10
137.545756726373
20
-11.0002534094671
30
0
41
1
10
137.616297866043
20
-10.9994216674342
30
0
41
1
10
137.663325292489
20
-10.9891777008408
30
0
41
1
10
137.804407571828
20
-10.9269011633609
30
0
41
1
10
137.898462424721
20
-10.8431606855298
30
0
41
1
10
138.086572130506
20
-10.5810721025871
30
0
41
1
10
138.180626983399
20
-10.4026457155411
30
0
41
1
10
138.368736689184
20
-9.94704802657716
30
0
41
1
10
138.462791542077
20
-9.66983259727036
30
0
41
1
10
138.650901247862
20
-9.02065795818652
30
0
41
1
10
138.744956100755
20
-8.64871100302929
30
0
41
1
10
138.93306580654
20
-7.82276493173651
30
0
41
1
10
139.027120659433
20
-7.36883862089479
30
0
41
1
10
139.215230365218
20
-6.39903344170455
30
0
41
1
10
139.309285218111
20
-5.88326875727594
30
0
41
1
10
139.497394923896
20
-4.81439441239735
30
0
41
1
10
139.591449776789
20
-4.26140600953281
30
0
41
1
10
139.779559482574
20
-3.14352855131904
30
0
41
1
10
139.873614335467
20
-2.57873504853734
30
0
41
1
10
140.061724041252
20
-1.46015889214237
30
0
41
1
10
140.155778894145
20
-0.906428391013264
30
0
41
1
10
140.261590603649
20
-0.299863157223456
30
0
41
1
10
140.273347460261
20
-0.232691039747323
30
0
41
1
10
140.296861173484
20
-0.0988239138801816
30
0
41
1
10
140.308618030095
20
-0.0322565460693056
30
0
41
1
10
140.34388859993
20
0.167587406979692
30
0
41
1
10
140.367402313153
20
0.301808245162533
30
0
41
1
10
140.437943452823
20
0.707099141532183
30
0
41
1
10
140.484970879269
20
0.980808424698779
30
0
41
1
10
140.626053158608
20
1.8093157544991
30
0
41
1
10
140.720108011501
20
2.37163836469443
30
0
41
1
10
140.908217717286
20
3.49548907199664
30
0
41
1
10
141.002272570179
20
4.05694040275577
30
0
41
1
10
141.096327423072
20
4.60570489713606
30
0
0
SPLINE
5
DD
100
AcDbEntity
8
1
62
256
6
ByLayer
370
13
48
1
60
0
100
AcDbSpline
70
4
71
3
72
22
73
18
40
0
40
0
40
0
40
0
40
0.125
40
0.125
40
0.25
40
0.25
40
0.375
40
0.375
40
0.5
40
0.5
40
0.625
40
0.625
40
0.75
40
0.75
40
0.875
40
0.875
40
1
40
1
40
1
40
1
41
1
10
130.1
20
3.5580881713974
30
0
41
1
10
130.189356395536
20
4.09000142516675
30
0
41
1
10
130.278712791073
20
4.61749354900869
30
0
41
1
10
130.457425582146
20
5.64212711597318
30
0
41
1
10
130.546781977682
20
6.13917598958267
30
0
41
1
10
130.725494768755
20
7.08149912840133
30
0
41
1
10
130.814851164292
20
7.52668170737914
30
0
41
1
10
130.993563955365
20
8.34693259211784
30
0
41
1
10
131.082920350901
20
8.72193495379301
30
0
41
1
10
131.261633141974
20
9.38902812954427
30
0
41
1
10
131.35098953751
20
9.68109558412144
30
0
41
1
10
131.529702328583
20
10.1764564254826
30
0
41
1
10
131.61905872412
20
10.3797707882478
30
0
41
1
10
131.797771515192
20
10.6987248819364
30
0
41
1
10
131.887127910729
20
10.8144176229666
30
0
41
1
10
132.065840701802
20
10.9650221003968
30
0
41
1
10
132.155197097338
20
11
30
0
41
1
10
132.244553492875
20
11
30
0
0
SPLINE
5
DE
100
AcDbEntity
8
1
62
256
6
ByLayer
370
13
48
1
60
0
100
AcDbSpline
70
4
71
3
72
86
73
82
40
0
40
0
40
0
40
0
40
0.0312499999999993
40
0.0312499999999993
40
0.0624999999999986
40
0.0624999999999986
40
0.0937499999999979
40
0.0937499999999979
40
0.124999999999997
40
0.124999999999997
40
0.156249999999997
40
0.156249999999997
40
0.187499999999996
40
0.187499999999996
40
0.218749999999995
40
0.218749999999995
40
0.249999999999994
40
0.249999999999994
40
0.281249999999994
40
0.281249999999994
40
0.289062499999994
40
0.289062499999994
40
0.296874999999993
40
0.296874999999993
40
0.312499999999993
40
0.312499999999993
40
0.343749999999992
40
0.343749999999992
40
0.374999999999991
40
0.374999999999991
40
0.40624999999999
40
0.40624999999999
40
0.437499999999989
40
0.437499999999989
40
0.468749999999988
40
0.468749999999988
40
0.499999999999987
40
0.499999999999987
40
0.531249999999986
40
0.531249999999986
40
0.562499999999985
40
0.562499999999985
40
0.570312499999985
40
0.570312499999985
40
0.574218749999985
40
0.574218749999985
40
0.578124999999985
40
0.578124999999985
40
0.593749999999986
40
0.593749999999986
40
0.624999999999987
40
0.624999999999987
40
0.656249999999988
40
0.656249999999988
40
0.687499999999989
40
0.687499999999989
40
0.71874999999999
40
0.71874999999999
40
0.749999999999991
40
0.749999999999991
40
0.781249999999992
40
0.781249999999992
40
0.812499999999993
40
0.812499999999993
40
0.843749999999995
40
0.843749999999995
40
0.859374999999995
40
0.859374999999995
40
0.863281249999995
40
0.863281249999995
40
0.867187499999995
40
0.867187499999995
40
0.874999999999996
40
0.874999999999996
40
0.906249999999997
40
0.906249999999997
40
0.937499999999998
40
0.937499999999998
40
0.968749999999999
40
0.968749999999999
40
1
40
1
40
1
40
1
41
1
10
131.575296296485
20
11
30
0
41
1
10
131.674473704054
20
11
30
0
41
1
10
131.773651111623
20
10.9568730553714
30
0
41
1
10
131.97200592676
20
10.7699834684565
30
0
41
1
10
132.071183334328
20
10.6261105939514
30
0
41
1
10
132.269538149466
20
10.2293774966014
30
0
41
1
10
132.368715557034
20
9.976437618598
30
0
41
1
10
132.567070372171
20
9.36245679645853
30
0
41
1
10
132.66624777974
20
9.00140398993423
30
0
41
1
10
132.864602594877
20
8.18282862823878
30
0
41
1
10
132.963780002446
20
7.72537877599592
30
0
41
1
10
133.162134817583
20
6.73550736440484
30
0
41
1
10
133.261312225152
20
6.20322505275314
30
0
41
1
10
133.459667040289
20
5.09176968000526
30
0
41
1
10
133.558844447857
20
4.51275634066289
30
0
41
1
10
133.757199262995
20
3.33782363824861
30
0
41
1
10
133.856376670563
20
2.74203502337809
30
0
41
1
10
134.0547314857
20
1.56090241849714
30
0
41
1
10
134.153908893269
20
0.97563112421156
30
0
41
1
10
134.27788065273
20
0.264056270191418
30
0
41
1
10
134.302675004622
20
0.122898990867896
30
0
41
1
10
134.352263708406
20
-0.157895158774778
30
0
41
1
10
134.377058060299
20
-0.299399973518973
30
0
41
1
10
134.451441115975
20
-0.726832291387836
30
0
41
1
10
134.501029819759
20
-1.01569104612923
30
0
41
1
10
134.649795931112
20
-1.89024601160776
30
0
41
1
10
134.748973338681
20
-2.48409623155425
30
0
41
1
10
134.947328153818
20
-3.66877152867318
30
0
41
1
10
135.046505561387
20
-4.25949180470846
30
0
41
1
10
135.244860376524
20
-5.408775955072
30
0
41
1
10
135.344037784093
20
-5.96718867155471
30
0
41
1
10
135.54239259923
20
-7.02226180091813
30
0
41
1
10
135.641570006798
20
-7.51876652386787
30
0
41
1
10
135.839924821935
20
-8.42474837267645
30
0
41
1
10
135.939102229504
20
-8.834116497254
30
0
41
1
10
136.137457044641
20
-9.54903465198501
30
0
41
1
10
136.23663445221
20
-9.85455610083329
30
0
41
1
10
136.434989267347
20
-10.3556405212921
30
0
41
1
10
136.534166674916
20
-10.5512545576685
30
0
41
1
10
136.732521490053
20
-10.8366595298078
30
0
41
1
10
136.831698897622
20
-10.9265510820115
30
0
41
1
10
136.955670657082
20
-10.9802765779751
30
0
41
1
10
136.980465008975
20
-10.988104311603
30
0
41
1
10
137.017656536813
20
-10.9956467246415
30
0
41
1
10
137.030053712759
20
-10.997461124946
30
0
41
1
10
137.054848064651
20
-10.99972131768
30
0
41
1
10
137.067245240597
20
-11.0001678485864
30
0
41
1
10
137.129231120327
20
-10.9990500743829
30
0
41
1
10
137.178819824112
20
-10.9873664821139
30
0
41
1
10
137.327585935465
20
-10.9170589606961
30
0
41
1
10
137.426763343033
20
-10.8229697144247
30
0
41
1
10
137.62511815817
20
-10.5288168497963
30
0
41
1
10
137.724295565739
20
-10.3286538819061
30
0
41
1
10
137.922650380876
20
-9.81850563102211
30
0
41
1
10
138.021827788445
20
-9.50847213731774
30
0
41
1
10
138.220182603582
20
-8.78501477448842
30
0
41
1
10
138.319360011151
20
-8.37162306587618
30
0
41
1
10
138.517714826288
20
-7.4584933521528
30
0
41
1
10
138.616892233857
20
-6.95886716633078
30
0
41
1
10
138.815247048994
20
-5.89872651110761
30
0
41
1
10
138.914424456562
20
-5.33836858801351
30
0
41
1
10
139.1127792717
20
-4.18644823178673
30
0
41
1
10
139.211956679268
20
-3.5950357134013
30
0
41
1
10
139.410311494405
20
-2.41011808078457
30
0
41
1
10
139.509488901974
20
-1.81671530405725
30
0
41
1
10
139.658255013327
20
-0.943505658130562
30
0
41
1
10
139.707843717111
20
-0.655206935644003
30
0
41
1
10
139.769829596842
20
-0.299830545142726
30
0
41
1
10
139.782226772788
20
-0.229004061592349
30
0
41
1
10
139.80702112468
20
-0.0878827515342664
30
0
41
1
10
139.819418300626
20
-0.0177614712675052
30
0
41
1
10
139.856609828464
20
0.193108733905831
30
0
41
1
10
139.881404180356
20
0.334785905558846
30
0
41
1
10
140.005375939817
20
1.0479756350538
30
0
41
1
10
140.104553347386
20
1.63415926766652
30
0
41
1
10
140.302908162523
20
2.81608468644282
30
0
41
1
10
140.402085570091
20
3.41175115771225
30
0
41
1
10
140.600440385229
20
4.58522197224255
30
0
41
1
10
140.699617792797
20
5.16289359135089
30
0
41
1
10
140.897972607934
20
6.27042699772392
30
0
41
1
10
140.997150015503
20
6.80012885625237
30
0
41
1
10
141.096327423072
20
7.29195516933521
30
0
0
SPLINE
5
DF
100
AcDbEntity
8
1
62
256
6
ByLayer
370
13
48
1
60
0
100
AcDbSpline
70
4
71
3
72
22
73
18
40
0
40
0
40
0
40
0
40
0.125
40
0.125
40
0.25
40
0.25
40
0.375
40
0.375
40
0.5
40
0.5
40
0.625
40
0.625
40
0.75
40
0.75
40
0.875
40
0.875
40
1
40
1
40
1
40
1
41
1
10
130.1
20
6.37429009256633
30
0
41
1
10
130.168866176833
20
6.74378006070452
30
0
41
1
10
130.237732353665
20
7.09889185969709
30
0
41
1
10
130.375464707331
20
7.77151459890484
30
0
41
1
10
130.444330884164
20
8.08900399815781
30
0
41
1
10
130.582063237829
20
8.67913774594231
30
0
41
1
10
130.650929414662
20
8.95176811559764
30
0
41
1
10
130.788661768327
20
9.44713644658523
30
0
41
1
10
130.85752794516
20
9.66986990321556
30
0
41
1
10
130.995260298825
20
10.06287672718
30
0
41
1
10
131.064126475658
20
10.2331549489071
30
0
41
1
10
131.201858829323
20
10.5211556791675
30
0
41
1
10
131.270725006156
20
10.6388904978883
30
0
41
1
10
131.408457359822
20
10.8239145744211
30
0
41
1
10
131.477323536654
20
10.8912206422771
30
0
41
1
10
131.61505589032
20
10.9792542617006
30
0
41
1
10
131.683922067152
20
11
30
0
41
1
10
131.752788243985
20
11
30
0
0
SPLINE
5
E0
100
AcDbEntity
8
1
62
256
6
ByLayer
370
13
48
1
60
0
100
AcDbSpline
70
4
71
3
72
117
73
113
40
0
40
0
40
0
40
0
40
0.0312499999999997
40
0.0312499999999997
40
0.0624999999999995
40
0.0624999999999995
40
0.0781249999999994
40
0.0781249999999994
40
0.0937499999999993
40
0.0937499999999993
40
0.109374999999999
40
0.109374999999999
40
0.124999999999999
40
0.124999999999999
40
0.140624999999999
40
0.140624999999999
40
0.156249999999999
40
0.156249999999999
40
0.171874999999999
40
0.171874999999999
40
0.187499999999998
40
0.187499999999998
40
0.218749999999998
40
0.218749999999998
40
0.249999999999998
40
0.249999999999998
40
0.265624999999998
40
0.265624999999998
40
0.273437499999997
40
0.273437499999997
40
0.277343749999997
40
0.277343749999997
40
0.281249999999997
40
0.281249999999997
40
0.312499999999998
40
0.312499999999998
40
0.343749999999998
40
0.343749999999998
40
0.359374999999999
40
0.359374999999999
40
0.374999999999999
40
0.374999999999999
40
0.390624999999999
40
0.390624999999999
40
0.406249999999999
40
0.406249999999999
40
0.421875
40
0.421875
40
0.4375
40
0.4375
40
0.453125
40
0.453125
40
0.46875
40
0.46875
40
0.500000000000001
40
0.500000000000001
40
0.531250000000001
40
0.531250000000001
40
0.546875000000002
40
0.546875000000002
40
0.550781250000001
40
0.550781250000001
40
0.554687500000001
40
0.562500000000001
40
0.562500000000001
40
0.593750000000001
40
0.593750000000001
40
0.625
40
0.625
40
0.640625
40
0.640625
40
0.656249999999999
40
0.656249999999999
40
0.671874999999999
40
0.671874999999999
40
0.687499999999999
40
0.687499999999999
40
0.703124999999999
40
0.703124999999999
40
0.718749999999999
40
0.718749999999999
40
0.734374999999998
40
0.734374999999998
40
0.749999999999998
40
0.749999999999998
40
0.781249999999998
40
0.781249999999998
40
0.812499999999997
40
0.812499999999997
40
0.820312499999997
40
0.820312499999997
40
0.824218749999997
40
0.824218749999997
40
0.828124999999997
40
0.828124999999997
40
0.843749999999997
40
0.843749999999997
40
0.874999999999998
40
0.874999999999998
40
0.906249999999998
40
0.906249999999998
40
0.921874999999998
40
0.921874999999998
40
0.937499999999999
40
0.937499999999999
40
0.953124999999999
40
0.953124999999999
40
0.968749999999999
40
0.968749999999999
40
0.984375
40
0.984375
40
1
40
1
40
1
40
1
41
1
10
131.083531047596
20
11
30
0
41
1
10
131.18783100984
20
11
30
0
41
1
10
131.292130972085
20
10.9522786829587
30
0
41
1
10
131.500730896574
20
10.7448153180496
30
0
41
1
10
131.605030858819
20
10.5849324997751
30
0
41
1
10
131.761480802185
20
10.2543349245477
30
0
41
1
10
131.813630783307
20
10.1290822484081
30
0
41
1
10
131.917930745552
20
9.84842025783948
30
0
41
1
10
131.970080726674
20
9.69300927422287
30
0
41
1
10
132.074380688919
20
9.35277467092448
30
0
41
1
10
132.126530670041
20
9.16795107045687
30
0
41
1
10
132.230830632286
20
8.77046084467631
30
0
41
1
10
132.282980613408
20
8.55779607374689
30
0
41
1
10
132.387280575653
20
8.10699099936872
30
0
41
1
10
132.439430556775
20
7.86885431462426
30
0
41
1
10
132.543730519019
20
7.37018819101928
30
0
41
1
10
132.595880500142
20
7.10966384241314
30
0
41
1
10
132.700180462386
20
6.56988847322924
30
0
41
1
10
132.752330443508
20
6.29064353891923
30
0
41
1
10
132.856630405753
20
5.71750673243554
30
0
41
1
10
132.908780386875
20
5.42362135922161
30
0
41
1
10
133.065230330242
20
4.5264482339376
30
0
41
1
10
133.169530292487
20
3.90773875640937
30
0
41
1
10
133.378130216976
20
2.66313531737711
30
0
41
1
10
133.48243017922
20
2.03738482245055
30
0
41
1
10
133.638880122587
20
1.11553250683363
30
0
41
1
10
133.691030103709
20
0.810992576216478
30
0
41
1
10
133.769255075392
20
0.360509331605556
30
0
41
1
10
133.795330065954
20
0.21139863128613
30
0
41
1
10
133.834442551795
20
-0.0104528771726677
30
0
41
1
10
133.847480047076
20
-0.0841629007707354
30
0
41
1
10
133.873555037637
20
-0.2325727865842
30
0
41
1
10
133.886592532918
20
-0.307071742450404
30
0
41
1
10
134.003929990443
20
-0.980029923687823
30
0
41
1
10
134.108229952687
20
-1.59609817693337
30
0
41
1
10
134.316829877177
20
-2.83898892236405
30
0
41
1
10
134.421129839421
20
-3.46571489031058
30
0
41
1
10
134.577579782788
20
-4.38986460000453
30
0
41
1
10
134.62972976391
20
-4.69521325217039
30
0
41
1
10
134.734029726155
20
-5.29620153197203
30
0
41
1
10
134.786179707277
20
-5.59183491810924
30
0
41
1
10
134.890479669522
20
-6.1690751246787
30
0
41
1
10
134.942629650644
20
-6.45067543684618
30
0
41
1
10
135.046929612888
20
-6.99572521912722
30
0
41
1
10
135.099079594011
20
-7.25916850665726
30
0
41
1
10
135.203379556255
20
-7.76416595135848
30
0
41
1
10
135.255529537377
20
-8.00571484291726
30
0
41
1
10
135.359829499622
20
-8.46374518232707
30
0
41
1
10
135.411979480744
20
-8.68022277777021
30
0
41
1
10
135.516279442989
20
-9.08563076206966
30
0
41
1
10
135.568429424111
20
-9.27455903405937
30
0
41
1
10
135.672729386356
20
-9.62317776206589
30
0
41
1
10
135.724879367478
20
-9.78286794016131
30
0
41
1
10
135.881329310845
20
-10.2167837284407
30
0
41
1
10
135.985629273089
20
-10.4454883380272
30
0
41
1
10
136.194229197578
20
-10.7842511565418
30
0
41
1
10
136.298529159823
20
-10.8944311163881
30
0
41
1
10
136.454979103189
20
-10.9803541242366
30
0
41
1
10
136.507129084312
20
-10.9958379707729
30
0
41
1
10
136.572316560715
20
-11.0001219757609
30
0
41
1
10
136.585354055995
20
-11.0002298436776
30
0
41
1
10
136.611429046556
20
-10.9989557298142
30
0
41
1
10
136.650541532398
20
-10.9947944648102
30
0
41
1
10
136.68965401824
20
-10.983717688505
30
0
41
1
10
136.820028971046
20
-10.9307348619873
30
0
41
1
10
136.92432893329
20
-10.8366715111418
30
0
41
1
10
137.132928857779
20
-10.5314560224319
30
0
41
1
10
137.237228820024
20
-10.3201756101386
30
0
41
1
10
137.393678763391
20
-9.91212645175875
30
0
41
1
10
137.445828744513
20
-9.76100992568092
30
0
41
1
10
137.550128706757
20
-9.42920701274755
30
0
41
1
10
137.60227868788
20
-9.24852038948782
30
0
41
1
10
137.706578650124
20
-8.85902900624498
30
0
41
1
10
137.758728631246
20
-8.65022583671615
30
0
41
1
10
137.863028593491
20
-8.20675834895462
30
0
41
1
10
137.915178574613
20
-7.97209740964522
30
0
41
1
10
138.019478536858
20
-7.47990172277389
30
0
41
1
10
138.07162851798
20
-7.22237188021666
30
0
41
1
10
138.175928480225
20
-6.68803058635942
30
0
41
1
10
138.228078461347
20
-6.41122511287557
30
0
41
1
10
138.332378423591
20
-5.84236444608661
30
0
41
1
10
138.384528404714
20
-5.55031573000608
30
0
41
1
10
138.488828366958
20
-4.9552510162203
30
0
41
1
10
138.54097834808
20
-4.65224139343971
30
0
41
1
10
138.697428291447
20
-3.73326841006224
30
0
41
1
10
138.801728253692
20
-3.10752110926714
30
0
41
1
10
139.010328178181
20
-1.86233563994026
30
0
41
1
10
139.114628140426
20
-1.24300613746274
30
0
41
1
10
139.245003093231
20
-0.489264349487485
30
0
41
1
10
139.271078083792
20
-0.339517622434243
30
0
41
1
10
139.310190569634
20
-0.116646174821909
30
0
41
1
10
139.323228064915
20
-0.0427831179118243
30
0
41
1
10
139.349303055476
20
0.104940411234821
30
0
41
1
10
139.362340550756
20
0.179107082613427
30
0
41
1
10
139.427528027159
20
0.551368806786911
30
0
41
1
10
139.479678008281
20
0.853769738955066
30
0
41
1
10
139.636127951648
20
1.77055229552593
30
0
41
1
10
139.740427913893
20
2.39473333421066
30
0
41
1
10
139.949027838382
20
3.64080809198612
30
0
41
1
10
140.053327800626
20
4.26256960851586
30
0
41
1
10
140.209777743993
20
5.16809443958292
30
0
41
1
10
140.261927725115
20
5.46538687334535
30
0
41
1
10
140.36622768736
20
6.04655651753336
30
0
41
1
10
140.418377668482
20
6.33042722270099
30
0
41
1
10
140.522677630727
20
6.88058940377064
30
0
41
1
10
140.574827611849
20
7.14687461307403
30
0
41
1
10
140.679127574094
20
7.65806090019609
30
0
41
1
10
140.731277555216
20
7.90295654736781
30
0
41
1
10
140.83557751746
20
8.36809567124709
30
0
41
1
10
140.887727498583
20
8.58833506853787
30
0
41
1
10
140.992027460827
20
9.00157505888836
30
0
41
1
10
141.04417744195
20
9.19457327472364
30
0
41
1
10
141.096327423072
20
9.37304849018
30
0
0
SPLINE
5
E1
100
AcDbEntity
8
1
62
256
6
ByLayer
370
13
48
1
60
0
100
AcDbSpline
70
4
71
3
72
14
73
10
40
0
40
0
40
0
40
0
40
0.25
40
0.25
40
0.5
40
0.5
40
0.75
40
0.75
40
1
40
1
40
1
40
1
41
1
10
130.1
20
8.71085122568516
30
0
41
1
10
130.196751916258
20
9.10092938530525
30
0
41
1
10
130.293503832516
20
9.44435869426599
30
0
41
1
10
130.487007665032
20
10.0279417115817
30
0
41
1
10
130.58375958129
20
10.2681111700845
30
0
41
1
10
130.777263413806
20
10.6448152876015
30
0
41
1
10
130.874015330064
20
10.7814225580193
30
0
41
1
10
131.06751916258
20
10.9589660668547
30
0
41
1
10
131.164271078837
20
11
30
0
41
1
10
131.261022995095
20
11
30
0
0
SPLINE
5
E2
100
AcDbEntity
8
1
62
256
6
ByLayer
370
13
48
1
60
0
100
AcDbSpline
70
4
71
3
72
134
73
130
40
0
40
0
40
0
40
0
40
0.0312499999999999
40
0.0312499999999999
40
0.0468749999999999
40
0.0468749999999999
40
0.0624999999999999
40
0.0624999999999999
40
0.0781249999999998
40
0.0781249999999998
40
0.0937499999999998
40
0.0937499999999998
40
0.109375
40
0.109375
40
0.125
40
0.125
40
0.140625
40
0.140625
40
0.15625
40
0.15625
40
0.171875
40
0.171875
40
0.1875
40
0.1875
40
0.203125
40
0.203125
40
0.21875
40
0.21875
40
0.234374999999999
40
0.234374999999999
40
0.249999999999999
40
0.249999999999999
40
0.257812499999999
40
0.257812499999999
40
0.265624999999999
40
0.265624999999999
40
0.281249999999999
40
0.281249999999999
40
0.296874999999999
40
0.296874999999999
40
0.312499999999999
40
0.312499999999999
40
0.328124999999999
40
0.328124999999999
40
0.343749999999999
40
0.343749999999999
40
0.359374999999999
40
0.359374999999999
40
0.374999999999999
40
0.374999999999999
40
0.390624999999999
40
0.390624999999999
40
0.406249999999999
40
0.406249999999999
40
0.421874999999999
40
0.421874999999999
40
0.437499999999999
40
0.437499999999999
40
0.453124999999999
40
0.453124999999999
40
0.468749999999999
40
0.468749999999999
40
0.484374999999999
40
0.484374999999999
40
0.499999999999998
40
0.499999999999998
40
0.515624999999998
40
0.515624999999998
40
0.523437499999998
40
0.523437499999998
40
0.531249999999998
40
0.531249999999998
40
0.562499999999998
40
0.562499999999998
40
0.578124999999998
40
0.578124999999998
40
0.593749999999998
40
0.593749999999998
40
0.609374999999998
40
0.609374999999998
40
0.624999999999998
40
0.624999999999998
40
0.640624999999998
40
0.640624999999998
40
0.656249999999998
40
0.656249999999998
40
0.671874999999998
40
0.671874999999998
40
0.687499999999998
40
0.687499999999998
40
0.703124999999998
40
0.703124999999998
40
0.718749999999998
40
0.718749999999998
40
0.734374999999998
40
0.734374999999998
40
0.749999999999998
40
0.749999999999998
40
0.781249999999997
40
0.781249999999997
40
0.789062499999997
40
0.789062499999997
40
0.796874999999998
40
0.796874999999998
40
0.812499999999998
40
0.812499999999998
40
0.828124999999998
40
0.828124999999998
40
0.843749999999998
40
0.843749999999998
40
0.859374999999998
40
0.859374999999998
40
0.874999999999998
40
0.874999999999998
40
0.890624999999999
40
0.890624999999999
40
0.906249999999999
40
0.906249999999999
40
0.921874999999999
40
0.921874999999999
40
0.937499999999999
40
0.937499999999999
40
0.953124999999999
40
0.953124999999999
40
0.96875
40
0.96875
40
0.984375
40
0.984375
40
1
40
1
40
1
40
1
41
1
10
130.591765798706
20
11
30
0
41
1
10
130.701188315626
20
11
30
0
41
1
10
130.810610832547
20
10.9474473830871
30
0
41
1
10
130.974744607928
20
10.7755645406325
30
0
41
1
10
131.029455866388
20
10.702812111137
30
0
41
1
10
131.138878383308
20
10.5248608606911
30
0
41
1
10
131.193589641769
20
10.4196571277201
30
0
41
1
10
131.303012158689
20
10.1760347013616
30
0
41
1
10
131.357723417149
20
10.0376124527975
30
0
41
1
10
131.46714593407
20
9.72768670913536
30
0
41
1
10
131.52185719253
20
9.556181590785
30
0
41
1
10
131.631279709451
20
9.18120590786774
30
0
41
1
10
131.685990967911
20
8.97773604790277
30
0
41
1
10
131.795413484831
20
8.54094386540729
30
0
41
1
10
131.850124743292
20
8.30762469443633
30
0
41
1
10
131.959547260212
20
7.81418637385218
30
0
41
1
10
132.014258518672
20
7.55407261470106
30
0
41
1
10
132.123681035593
20
7.01090783589331
30
0
41
1
10
132.178392294053
20
6.72786392693106
30
0
41
1
10
132.287814810973
20
6.14332198641142
30
0
41
1
10
132.342526069434
20
5.84183204044263
30
0
41
1
10
132.451948586354
20
5.22527056675128
30
0
41
1
10
132.506659844814
20
4.91020725857754
30
0
41
1
10
132.616082361735
20
4.27151312002357
30
0
41
1
10
132.670793620195
20
3.94788985049337
30
0
41
1
10
132.780216137116
20
3.29699167443371
30
0
41
1
10
132.834927395576
20
2.96972304634824
30
0
41
1
10
132.944349912496
20
2.31614204111551
30
0
41
1
10
132.999061170957
20
1.9898342772579
30
0
41
1
10
133.108483687877
20
1.34231026284954
30
0
41
1
10
133.163194946337
20
1.02109683373629
30
0
41
1
10
133.245261834028
20
0.545758463887239
30
0
41
1
10
133.272617463258
20
0.388387818712232
30
0
41
1
10
133.327328721718
20
0.0761810674945025
30
0
41
1
10
133.354684350948
20
-0.077984627461035
30
0
41
1
10
133.436751238638
20
-0.54632414803541
30
0
41
1
10
133.491462497099
20
-0.863636856566814
30
0
41
1
10
133.600885014019
20
-1.50520415968859
30
0
41
1
10
133.655596272479
20
-1.82945680116936
30
0
41
1
10
133.7650187894
20
-2.48105273328196
30
0
41
1
10
133.81973004786
20
-2.80839230237558
30
0
41
1
10
133.929152564781
20
-3.46177574996813
30
0
41
1
10
133.983863823241
20
-3.78781414780579
30
0
41
1
10
134.093286340161
20
-4.43381210290647
30
0
41
1
10
134.147997598621
20
-4.75376467410121
30
0
41
1
10
134.257420115542
20
-5.38259926486202
30
0
41
1
10
134.312131374002
20
-5.69147330207434
30
0
41
1
10
134.421553890923
20
-6.29317730965613
30
0
41
1
10
134.476265149383
20
-6.58599902235286
30
0
41
1
10
134.585687666304
20
-7.15088964770553
30
0
41
1
10
134.640398924764
20
-7.42295086156642
30
0
41
1
10
134.749821441684
20
-7.94211919282208
30
0
41
1
10
134.804532700144
20
-8.18921998132399
30
0
41
1
10
134.913955217065
20
-8.65498709247211
30
0
41
1
10
134.968666475525
20
-8.8736491018195
30
0
41
1
10
135.078088992445
20
-9.27994114607606
30
0
41
1
10
135.132800250906
20
-9.46756925256094
30
0
41
1
10
135.242222767826
20
-9.81017360967081
30
0
41
1
10
135.296934026286
20
-9.96515035820622
30
0
41
1
10
135.406356543207
20
-10.2418310486236
30
0
41
1
10
135.461067801667
20
-10.3635376468121
30
0
41
1
10
135.570490318588
20
-10.5740073907263
30
0
41
1
10
135.625201577048
20
-10.6627748512526
30
0
41
1
10
135.734624093968
20
-10.8085392889452
30
0
41
1
10
135.789335352429
20
-10.8655416179717
30
0
41
1
10
135.898757869349
20
-10.9496448890249
30
0
41
1
10
135.953469127809
20
-10.9767515898677
30
0
41
1
10
136.0355360155
20
-10.9967827061086
30
0
41
1
10
136.06289164473
20
-11.0000251601255
30
0
41
1
10
136.11760290319
20
-10.9999745459164
30
0
41
1
10
136.14495853242
20
-10.9966801587714
30
0
41
1
10
136.281736678571
20
-10.963029005922
30
0
41
1
10
136.391159195491
20
-10.8808197582083
30
0
41
1
10
136.555292970872
20
-10.6618047536983
30
0
41
1
10
136.610004229332
20
-10.5729115160934
30
0
41
1
10
136.719426746253
20
-10.3621872208761
30
0
41
1
10
136.774138004713
20
-10.240351853727
30
0
41
1
10
136.883560521633
20
-9.96341412997313
30
0
41
1
10
136.938271780094
20
-9.80830912457145
30
0
41
1
10
137.047694297014
20
-9.46545257152891
30
0
41
1
10
137.102405555474
20
-9.2777005350367
30
0
41
1
10
137.211828072395
20
-8.87116882158307
30
0
41
1
10
137.266539330855
20
-8.65239108257458
30
0
41
1
10
137.375961847776
20
-8.18640435240837
30
0
41
1
10
137.430673106236
20
-7.93919968326995
30
0
41
1
10
137.540095623156
20
-7.41983857820361
30
0
41
1
10
137.594806881617
20
-7.14768847786684
30
0
41
1
10
137.704229398537
20
-6.58263747603618
30
0
41
1
10
137.758940656997
20
-6.28974427712782
30
0
41
1
10
137.868363173918
20
-5.68791620410207
30
0
41
1
10
137.923074432378
20
-5.37898958816783
30
0
41
1
10
138.032496949298
20
-4.75006929351801
30
0
41
1
10
138.087208207759
20
-4.43008359457752
30
0
41
1
10
138.196630724679
20
-3.78403845246919
30
0
41
1
10
138.251341983139
20
-3.45798599036422
30
0
41
1
10
138.36076450006
20
-2.80459228271749
30
0
41
1
10
138.41547575852
20
-2.47725651134726
30
0
41
1
10
138.579609533901
20
-1.49989805106054
30
0
41
1
10
138.689032050821
20
-0.85484548805448
30
0
41
1
10
138.825810196972
20
-0.0743776268181193
30
0
41
1
10
138.853165826202
20
0.0797883066567806
30
0
41
1
10
138.907877084662
20
0.392034238642225
30
0
41
1
10
138.935232713892
20
0.549423066976829
30
0
41
1
10
139.017299601583
20
1.0248112931715
30
0
41
1
10
139.072010860043
20
1.34605169470459
30
0
41
1
10
139.181433376963
20
1.99361472834477
30
0
41
1
10
139.236144635424
20
2.31993453213548
30
0
41
1
10
139.345567152344
20
2.97352261091149
30
0
41
1
10
139.400278410804
20
3.30078626575562
30
0
41
1
10
139.509700927725
20
3.95165594435406
30
0
41
1
10
139.564412186185
20
4.2752556837932
30
0
41
1
10
139.673834703106
20
4.91388339728763
30
0
41
1
10
139.728545961566
20
5.22890380660004
30
0
41
1
10
139.837968478486
20
5.84536018485014
30
0
41
1
10
139.892679736946
20
6.14678793315406
30
0
41
1
10
140.002102253867
20
6.73118720646914
30
0
41
1
10
140.056813512327
20
7.01415064805937
30
0
41
1
10
140.166236029248
20
7.55713818980578
30
0
41
1
10
140.220947287708
20
7.81715518459913
30
0
41
1
10
140.330369804628
20
8.31038647403102
30
0
41
1
10
140.385081063089
20
8.54359538605769
30
0
41
1
10
140.494503580009
20
8.98015697768381
30
0
41
1
10
140.549214838469
20
9.18350651501223
30
0
41
1
10
140.65863735539
20
9.55823527709265
30
0
41
1
10
140.71334861385
20
9.7296138066886
30
0
41
1
10
140.822771130771
20
10.0392839765834
30
0
41
1
10
140.877482389231
20
10.1775772485299
30
0
41
1
10
140.986904906151
20
10.4209430144513
30
0
41
1
10
141.041616164611
20
10.5260190700442
30
0
41
1
10
141.096327423072
20
10.6148693008381
30
0
0
SPLINE
5
E3
100
AcDbEntity
8
1
62
256
6
ByLayer
370
13
48
1
60
0
100
AcDbSpline
70
4
71
3
72
8
73
4
40
0
40
0
40
0
40
0
40
1
40
1
40
1
40
1
41
1
10
140.918836025388
20
11
30
0
41
1
10
140.977999824616
20
11
30
0
41
1
10
141.037163623844
20
10.9846959683824
30
0
41
1
10
141.096327423072
20
10.9524648183306
30
0
0
SPLINE
5
E4
100
AcDbEntity
8
1
62
256
6
ByLayer
370
13
48
1
60
0
100
AcDbSpline
70
4
71
3
72
14
73
10
40
0
40
0
40
0
40
0
40
0.25
40
0.25
40
0.5
40
0.5
40
0.75
40
0.75
40
1
40
1
40
1
40
1
41
1
10
130.1
20
10.2692209552281
30
0
41
1
10
130.15577147885
20
10.3960124877206
30
0
41
1
10
130.211542957701
20
10.5055331365777
30
0
41
1
10
130.323085915402
20
10.6907754255769
30
0
41
1
10
130.378857394252
20
10.7665024034916
30
0
41
1
10
130.490400351953
20
10.8857527634152
30
0
41
1
10
130.546171830804
20
10.9292823234134
30
0
41
1
10
130.657714788505
20
10.9864027765364
30
0
41
1
10
130.713486267355
20
11
30
0
41
1
10
130.769257746206
20
11
30
0
0
SPLINE
5
E5
100
AcDbEntity
8
1
62
256
6
ByLayer
370
13
48
1
60
0
100
AcDbSpline
70
4
71
3
72
134
73
130
40
0
40
0
40
0
40
0
40
0.015625
40
0.015625
40
0.03125
40
0.03125
40
0.046875
40
0.046875
40
0.0625
40
0.0625
40
0.078125
40
0.078125
40
0.09375
40
0.09375
40
0.109375
40
0.109375
40
0.125
40
0.125
40
0.140625
40
0.140625
40
0.15625
40
0.15625
40
0.171875
40
0.171875
40
0.1875
40
0.1875
40
0.203125
40
0.203125
40
0.21875
40
0.21875
40
0.234375
40
0.234375
40
0.25
40
0.25
40
0.265625
40
0.265625
40
0.28125
40
0.28125
40
0.296875
40
0.296875
40
0.3125
40
0.3125
40
0.328125
40
0.328125
40
0.34375
40
0.34375
40
0.359374999999999
40
0.359374999999999
40
0.374999999999999
40
0.374999999999999
40
0.390624999999999
40
0.390624999999999
40
0.406249999999999
40
0.406249999999999
40
0.421874999999999
40
0.421874999999999
40
0.437499999999999
40
0.437499999999999
40
0.453124999999999
40
0.453124999999999
40
0.468749999999999
40
0.468749999999999
40
0.484374999999999
40
0.484374999999999
40
0.499999999999999
40
0.499999999999999
40
0.515624999999999
40
0.515624999999999
40
0.531249999999999
40
0.531249999999999
40
0.546874999999999
40
0.546874999999999
40
0.562499999999999
40
0.562499999999999
40
0.578124999999999
40
0.578124999999999
40
0.593749999999999
40
0.593749999999999
40
0.609374999999999
40
0.609374999999999
40
0.624999999999999
40
0.624999999999999
40
0.640624999999999
40
0.640624999999999
40
0.656249999999999
40
0.656249999999999
40
0.671874999999999
40
0.671874999999999
40
0.687499999999999
40
0.687499999999999
40
0.703124999999999
40
0.703124999999999
40
0.718749999999999
40
0.718749999999999
40
0.734374999999999
40
0.734374999999999
40
0.749999999999999
40
0.749999999999999
40
0.765624999999999
40
0.765624999999999
40
0.781249999999999
40
0.781249999999999
40
0.796874999999999
40
0.796874999999999
40
0.812499999999999
40
0.812499999999999
40
0.828124999999999
40
0.828124999999999
40
0.843749999999999
40
0.843749999999999
40
0.859374999999999
40
0.859374999999999
40
0.874999999999999
40
0.874999999999999
40
0.890624999999999
40
0.890624999999999
40
0.906249999999999
40
0.906249999999999
40
0.921875
40
0.921875
40
0.9375
40
0.9375
40
0.953125
40
0.953125
40
0.96875
40
0.96875
40
0.984375
40
0.984375
40
1
40
1
40
1
40
1
41
1
10
130.100000549816
20
11
30
0
41
1
10
130.157273085614
20
11
30
0
41
1
10
130.214545621413
20
10.9856600340683
30
0
41
1
10
130.329090693009
20
10.9253479644618
30
0
41
1
10
130.386363228807
20
10.8793686286551
30
0
41
1
10
130.500908300404
20
10.7533495143153
30
0
41
1
10
130.558180836202
20
10.673302713203
30
0
41
1
10
130.672725907798
20
10.4774744550344
30
0
41
1
10
130.729998443597
20
10.3616870184628
30
0
41
1
10
130.844543515193
20
10.0936557657294
30
0
41
1
10
130.901816050991
20
9.94140788836106
30
0
41
1
10
131.016361122588
20
9.60084051731906
30
0
41
1
10
131.073633658386
20
9.41251963662202
30
0
41
1
10
131.188178729982
20
9.00138198021222
30
0
41
1
10
131.245451265781
20
8.77856695647657
30
0
41
1
10
131.359996337377
20
8.30120367140142
30
0
41
1
10
131.417268873175
20
8.04666034126825
30
0
41
1
10
131.531813944771
20
7.50968948920084
30
0
41
1
10
131.58908648057
20
7.22726964428318
30
0
41
1
10
131.703631552166
20
6.63928993027252
30
0
41
1
10
131.760904087964
20
6.33373963656311
30
0
41
1
10
131.875449159561
20
5.70487588120571
30
0
41
1
10
131.932721695359
20
5.38157278940955
30
0
41
1
10
132.047266766955
20
4.72290934461725
30
0
41
1
10
132.104539302754
20
4.38755900733298
30
0
41
1
10
132.21908437435
20
3.71052582168798
30
0
41
1
10
132.276356910148
20
3.36885164748955
30
0
41
1
10
132.390901981744
20
2.68463041334002
30
0
41
1
10
132.448174517543
20
2.34209000685081
30
0
41
1
10
132.562719589139
20
1.6610985762984
30
0
41
1
10
132.619992124938
20
1.32265187438102
30
0
41
1
10
132.734537196534
20
0.654147263503859
30
0
41
1
10
132.791809732332
20
0.324091379149138
30
0
41
1
10
132.906354803929
20
-0.324089823514242
30
0
41
1
10
132.963627339726
20
-0.654145672417997
30
0
41
1
10
133.078172411323
20
-1.32265025664478
30
0
41
1
10
133.135444947121
20
-1.66109694838144
30
0
41
1
10
133.249990018718
20
-2.34208836600888
30
0
41
1
10
133.307262554516
20
-2.68462876975758
30
0
41
1
10
133.421807626112
20
-3.36885000680999
30
0
41
1
10
133.479080161911
20
-3.71052418665539
30
0
41
1
10
133.593625233507
20
-4.3875573926062
30
0
41
1
10
133.650897769305
20
-4.72290774455206
30
0
41
1
10
133.765442840902
20
-5.38157122789005
30
0
41
1
10
133.8227153767
20
-5.70487434357176
30
0
41
1
10
133.937260448296
20
-6.33373815565082
30
0
41
1
10
133.994532984094
20
-6.63928848219606
30
0
41
1
10
134.109078055691
20
-7.22726827005681
30
0
41
1
10
134.166350591489
20
-7.50968815598657
30
0
41
1
10
134.280895663085
20
-8.0466590970222
30
0
41
1
10
134.338168198883
20
-8.30120247510771
30
0
41
1
10
134.45271327048
20
-8.77856586142624
30
0
41
1
10
134.509985806278
20
-9.00138093844805
30
0
41
1
10
134.624530877875
20
-9.41251870492513
30
0
41
1
10
134.681803413673
20
-9.60083964239809
30
0
41
1
10
134.796348485269
20
-9.94140712855832
30
0
41
1
10
134.853621021068
20
-10.0936550642643
30
0
41
1
10
134.968166092664
20
-10.3616864333776
30
0
41
1
10
135.025438628462
20
-10.4774739279879
30
0
41
1
10
135.139983700059
20
-10.6733023002735
30
0
41
1
10
135.197256235857
20
-10.7533491574617
30
0
41
1
10
135.311801307453
20
-10.8793683806167
30
0
41
1
10
135.369073843251
20
-10.9253477691615
30
0
41
1
10
135.483618914848
20
-10.9856599398704
30
0
41
1
10
135.540891450646
20
-10.9999999541665
30
0
41
1
10
135.655436522242
20
-11.0000000458332
30
0
41
1
10
135.712709058041
20
-10.985660128266
30
0
41
1
10
135.827254129637
20
-10.9253481597618
30
0
41
1
10
135.884526665435
20
-10.8793688766933
30
0
41
1
10
135.999071737032
20
-10.7533498711686
30
0
41
1
10
136.05634427283
20
-10.6733031261322
30
0
41
1
10
136.170889344426
20
-10.4774749820806
30
0
41
1
10
136.228161880224
20
-10.3616876035477
30
0
41
1
10
136.342706951821
20
-10.0936564671943
30
0
41
1
10
136.399979487619
20
-9.9414086481635
30
0
41
1
10
136.514524559215
20
-9.60084139223974
30
0
41
1
10
136.571797095014
20
-9.41252056831866
30
0
41
1
10
136.68634216661
20
-9.00138302197612
30
0
41
1
10
136.743614702408
20
-8.77856805152666
30
0
41
1
10
136.858159774005
20
-8.30120486769491
30
0
41
1
10
136.915432309803
20
-8.04666158551407
30
0
41
1
10
137.029977381399
20
-7.50969082241494
30
0
41
1
10
137.087249917198
20
-7.22727101850938
30
0
41
1
10
137.201794988794
20
-6.63929137834884
30
0
41
1
10
137.259067524592
20
-6.33374111747523
30
0
41
1
10
137.373612596189
20
-5.70487741883952
30
0
41
1
10
137.430885131987
20
-5.3815743509289
30
0
41
1
10
137.545430203583
20
-4.72291094468235
30
0
41
1
10
137.602702739381
20
-4.38756062205974
30
0
41
1
10
137.717247810978
20
-3.71052745672054
30
0
41
1
10
137.774520346776
20
-3.36885328816908
30
0
41
1
10
137.889065418372
20
-2.68463205692245
30
0
41
1
10
137.946337954171
20
-2.34209164769277
30
0
41
1
10
138.060883025767
20
-1.66110020421539
30
0
41
1
10
138.118155561565
20
-1.32265349211735
30
0
41
1
10
138.232700633162
20
-0.654148854589778
30
0
41
1
10
138.28997316896
20
-0.324092953768883
30
0
41
1
10
138.404518240556
20
0.324088286864082
30
0
41
1
10
138.461790776354
20
0.65414408133222
30
0
41
1
10
138.576335847951
20
1.32264863890856
30
0
41
1
10
138.633608383749
20
1.66109532046451
30
0
41
1
10
138.748153455345
20
2.34208672516695
30
0
41
1
10
138.805425991143
20
2.68462712617514
30
0
41
1
10
138.91997106274
20
3.36884836613041
30
0
41
1
10
138.977243598538
20
3.71052255162277
30
0
41
1
10
139.091788670134
20
4.38755577787933
30
0
41
1
10
139.149061205933
20
4.72290614448679
30
0
41
1
10
139.263606277529
20
5.38156966637047
30
0
41
1
10
139.320878813327
20
5.7048728059377
30
0
41
1
10
139.435423884924
20
6.33373667473842
30
0
41
1
10
139.492696420722
20
6.63928703411943
30
0
41
1
10
139.607241492319
20
7.22726689583024
30
0
41
1
10
139.664514028117
20
7.50968682277207
30
0
41
1
10
139.779059099713
20
8.04665785277592
30
0
41
1
10
139.836331635511
20
8.30120127881378
30
0
41
1
10
139.950876707108
20
8.77856476637567
30
0
41
1
10
140.008149242906
20
9.00137989668363
30
0
41
1
10
140.122694314502
20
9.41251777322799
30
0
41
1
10
140.179966850301
20
9.60083876747686
30
0
41
1
10
140.294511921897
20
9.94140636875534
30
0
41
1
10
140.351784457695
20
10.0936543627988
30
0
41
1
10
140.466329529292
20
10.3616858482922
30
0
41
1
10
140.52360206509
20
10.4774734009412
30
0
41
1
10
140.638147136686
20
10.6733018873438
30
0
41
1
10
140.695419672484
20
10.7533488006079
30
0
41
1
10
140.809964744081
20
10.8793681325779
30
0
41
1
10
140.867237279879
20
10.925347573861
30
0
41
1
10
140.981782351475
20
10.9856598456723
30
0
41
1
10
141.039054887273
20
10.9999999083329
30
0
41
1
10
141.096327423072
20
10.9999999999996
30
0
0
SPLINE
5
E6
100
AcDbEntity
8
1
62
256
6
ByLayer
370
13
48
1
60
0
100
AcDbSpline
70
4
71
3
72
14
73
10
40
0
40
0
40
0
40
0
40
0.25
40
0.25
40
0.5
40
0.5
40
0.75
40
0.75
40
1
40
1
40
1
40
1
41
1
10
140.427070776499
20
11
30
0
41
1
10
140.482842163713
20
11
30
0
41
1
10
140.538613550927
20
10.9864028212738
30
0
41
1
10
140.650156325356
20
10.9292825602333
30
0
41
1
10
140.705927712571
20
10.8857531476325
30
0
41
1
10
140.817470486999
20
10.7665031948885
30
0
41
1
10
140.873241874214
20
10.690776476805
30
0
41
1
10
140.984784648643
20
10.5055348246301
30
0
41
1
10
141.040556035857
20
10.3960145528038
30
0
41
1
10
141.096327423072
20
10.2692234551438
30
0
0
SPLINE
5
E7
100
AcDbEntity
8
1
62
256
6
ByLayer
370
13
48
1
60
0
100
AcDbSpline
70
4
71
3
72
8
73
4
40
0
40
0
40
0
40
0
40
1
40
1
40
1
40
1
41
1
10
130.1
20
10.9524642192727
30
0
41
1
10
130.159164165772
20
10.9846957784841
30
0
41
1
10
130.218328331544
20
11
30
0
41
1
10
130.277492497316
20
11
30
0
0
SPLINE
5
E8
100
AcDbEntity
8
1
62
256
6
ByLayer
370
13
48
1
60
0
100
AcDbSpline
70
4
71
3
72
134
73
130
40
0
40
0
40
0
40
0
40
0.0156250000000001
40
0.0156250000000001
40
0.0312500000000003
40
0.0312500000000003
40
0.0468750000000004
40
0.0468750000000004
40
0.0625000000000005
40
0.0625000000000005
40
0.0781250000000006
40
0.0781250000000006
40
0.0937500000000007
40
0.0937500000000007
40
0.109375000000001
40
0.109375000000001
40
0.125000000000001
40
0.125000000000001
40
0.140625000000001
40
0.140625000000001
40
0.156250000000001
40
0.156250000000001
40
0.171875000000001
40
0.171875000000001
40
0.187500000000001
40
0.187500000000001
40
0.203125000000001
40
0.203125000000001
40
0.210937500000002
40
0.210937500000002
40
0.218750000000002
40
0.218750000000002
40
0.250000000000002
40
0.250000000000002
40
0.265625000000002
40
0.265625000000002
40
0.281250000000002
40
0.281250000000002
40
0.296875000000002
40
0.296875000000002
40
0.312500000000002
40
0.312500000000002
40
0.328125000000002
40
0.328125000000002
40
0.343750000000002
40
0.343750000000002
40
0.359375000000003
40
0.359375000000003
40
0.375000000000003
40
0.375000000000003
40
0.390625000000003
40
0.390625000000003
40
0.406250000000003
40
0.406250000000003
40
0.421875000000003
40
0.421875000000003
40
0.437500000000003
40
0.437500000000003
40
0.468750000000003
40
0.468750000000003
40
0.476562500000003
40
0.476562500000003
40
0.484375000000003
40
0.484375000000003
40
0.500000000000003
40
0.500000000000003
40
0.515625000000003
40
0.515625000000003
40
0.531250000000003
40
0.531250000000003
40
0.546875000000003
40
0.546875000000003
40
0.562500000000003
40
0.562500000000003
40
0.578125000000003
40
0.578125000000003
40
0.593750000000002
40
0.593750000000002
40
0.609375000000002
40
0.609375000000002
40
0.625000000000002
40
0.625000000000002
40
0.640625000000002
40
0.640625000000002
40
0.656250000000002
40
0.656250000000002
40
0.671875000000002
40
0.671875000000002
40
0.687500000000002
40
0.687500000000002
40
0.703125000000002
40
0.703125000000002
40
0.718750000000002
40
0.718750000000002
40
0.734375000000002
40
0.734375000000002
40
0.742187500000002
40
0.742187500000002
40
0.750000000000002
40
0.750000000000002
40
0.765625000000002
40
0.765625000000002
40
0.781250000000001
40
0.781250000000001
40
0.796875000000001
40
0.796875000000001
40
0.812500000000001
40
0.812500000000001
40
0.828125000000001
40
0.828125000000001
40
0.843750000000001
40
0.843750000000001
40
0.859375000000001
40
0.859375000000001
40
0.875000000000001
40
0.875000000000001
40
0.890625000000001
40
0.890625000000001
40
0.906250000000001
40
0.906250000000001
40
0.921875000000001
40
0.921875000000001
40
0.937500000000001
40
0.937500000000001
40
0.953125
40
0.953125
40
0.96875
40
0.96875
40
1
40
1
40
1
40
1
41
1
10
130.1
20
10.6148710866223
30
0
41
1
10
130.154711264188
20
10.5260210634782
30
0
41
1
10
130.209422528375
20
10.4209452160858
30
0
41
1
10
130.31884505675
20
10.1775798618326
30
0
41
1
10
130.373556320937
20
10.0392867933411
30
0
41
1
10
130.482978849312
20
9.72961701943714
30
0
41
1
10
130.5376901135
20
9.55823868236229
30
0
41
1
10
130.647112641875
20
9.18351028830713
30
0
41
1
10
130.701823906062
20
8.9801609264677
30
0
41
1
10
130.811246434437
20
8.54359966325231
30
0
41
1
10
130.865957698625
20
8.31039090413398
30
0
41
1
10
130.975380227
20
7.81715989338656
30
0
41
1
10
131.030091491188
20
7.55714302435968
30
0
41
1
10
131.139514019562
20
7.01415570378876
30
0
41
1
10
131.19422528375
20
6.73119235760291
30
0
41
1
10
131.303647812125
20
6.14679324307377
30
0
41
1
10
131.358359076312
20
5.84536555815231
30
0
41
1
10
131.467781604687
20
5.22890927459639
30
0
41
1
10
131.522492868875
20
4.91388889660163
30
0
41
1
10
131.63191539725
20
4.27526121513668
30
0
41
1
10
131.686626661437
20
3.95166147641911
30
0
41
1
10
131.796049189812
20
3.30079177139521
30
0
41
1
10
131.850760454
20
2.97352808941594
30
0
41
1
10
131.960182982375
20
2.31993993218015
30
0
41
1
10
132.014894246562
20
1.993620077077
30
0
41
1
10
132.124316774937
20
1.34605692087533
30
0
41
1
10
132.179028039125
20
1.02481644810433
30
0
41
1
10
132.261094935406
20
0.549428103453238
30
0
41
1
10
132.2884505675
20
0.392039233700501
30
0
41
1
10
132.343161831687
20
0.0797932155654451
30
0
41
1
10
132.370517463781
20
-0.074372734959212
30
0
41
1
10
132.50729562425
20
-0.854840545340096
30
0
41
1
10
132.616718152625
20
-1.49989310264965
30
0
41
1
10
132.780851945187
20
-2.47725161913928
30
0
41
1
10
132.835563209375
20
-2.80458741997052
30
0
41
1
10
132.94498573775
20
-3.45798120896484
30
0
41
1
10
132.999697001937
20
-3.78403372296171
30
0
41
1
10
133.109119530312
20
-4.4300789912906
30
0
41
1
10
133.163830794499
20
-4.75006476456227
30
0
41
1
10
133.273253322874
20
-5.3789852292239
30
0
41
1
10
133.327964587062
20
-5.68791194083772
30
0
41
1
10
133.437387115437
20
-6.28974022436012
30
0
41
1
10
133.492098379625
20
-6.58263353808061
30
0
41
1
10
133.601520907999
20
-7.14768478542499
30
0
41
1
10
133.656232172187
20
-7.41983501645498
30
0
41
1
10
133.765654700562
20
-7.93919639471548
30
0
41
1
10
133.820365964749
20
-8.18640120634399
30
0
41
1
10
133.929788493124
20
-8.65238822867695
30
0
41
1
10
133.984499757312
20
-8.87116611735024
30
0
41
1
10
134.093922285687
20
-9.27769813250839
30
0
41
1
10
134.148633549874
20
-9.46545032102901
30
0
41
1
10
134.258056078249
20
-9.80830717585539
30
0
41
1
10
134.312767342437
20
-9.9634123310033
30
0
41
1
10
134.422189870812
20
-10.2403503478076
30
0
41
1
10
134.476901134999
20
-10.3621858582546
30
0
41
1
10
134.586323663374
20
-10.5729104301727
30
0
41
1
10
134.641034927562
20
-10.6618038011776
30
0
41
1
10
134.805168720124
20
-10.8808191871523
30
0
41
1
10
134.914591248499
20
-10.9630286637667
30
0
41
1
10
135.051369408968
20
-10.9966800646544
30
0
41
1
10
135.078725041062
20
-10.9999744995355
30
0
41
1
10
135.133436305249
20
-11.0000252054405
30
0
41
1
10
135.160791937343
20
-10.9967827977542
30
0
41
1
10
135.242858833624
20
-10.9767518217587
30
0
41
1
10
135.297570097812
20
-10.9496452160232
30
0
41
1
10
135.406992626187
20
-10.8655421361614
30
0
41
1
10
135.461703890374
20
-10.8085399032156
30
0
41
1
10
135.571126418749
20
-10.6627756560527
30
0
41
1
10
135.625837682937
20
-10.5740082899705
30
0
41
1
10
135.735260211312
20
-10.3635387304719
30
0
41
1
10
135.789971475499
20
-10.2418322222484
30
0
41
1
10
135.899394003874
20
-9.96515170439065
30
0
41
1
10
135.954105268062
20
-9.81017503844248
30
0
41
1
10
136.063527796437
20
-9.46757083639136
30
0
41
1
10
136.118239060624
20
-9.27994280237087
30
0
41
1
10
136.227661588999
20
-8.87365089055439
30
0
41
1
10
136.282372853187
20
-8.65498894117673
30
0
41
1
10
136.391795381562
20
-8.18922193567849
30
0
41
1
10
136.446506645749
20
-7.94212119285288
30
0
41
1
10
136.555929174124
20
-7.42295293758212
30
0
41
1
10
136.610640438311
20
-7.15089175402863
30
0
41
1
10
136.720062966686
20
-6.58600117364634
30
0
41
1
10
136.774774230874
20
-6.2931794756141
30
0
41
1
10
136.884196759249
20
-5.6914754822362
30
0
41
1
10
136.938908023437
20
-5.38260144456726
30
0
41
1
10
137.048330551811
20
-4.75376683899867
30
0
41
1
10
137.103041815999
20
-4.43381425345854
30
0
41
1
10
137.212464344374
20
-3.78781625756577
30
0
41
1
10
137.267175608562
20
-3.46177783328795
30
0
41
1
10
137.376598136936
20
-2.80839432288329
30
0
41
1
10
137.431309401124
20
-2.48105471742409
30
0
41
1
10
137.540731929499
20
-1.82945870499762
30
0
41
1
10
137.595443193686
20
-1.50520601957413
30
0
41
1
10
137.704865722061
20
-0.863638623331894
30
0
41
1
10
137.759576986249
20
-0.546325865626983
30
0
41
1
10
137.84164388253
20
-0.0779862690147866
30
0
41
1
10
137.868999514624
20
0.0761794421256354
30
0
41
1
10
137.923710778811
20
0.388386208537923
30
0
41
1
10
137.951066410905
20
0.545756862203376
30
0
41
1
10
138.033133307186
20
1.0210952602296
30
0
41
1
10
138.087844571374
20
1.34230871174671
30
0
41
1
10
138.197267099749
20
1.98983277809188
30
0
41
1
10
138.251978363936
20
2.31614057148374
30
0
41
1
10
138.361400892311
20
2.96972164243209
30
0
41
1
10
138.416112156499
20
3.29699030669912
30
0
41
1
10
138.525534684874
20
3.9478885608863
30
0
41
1
10
138.580245949061
20
4.27151187236126
30
0
41
1
10
138.689668477436
20
4.91020609930038
30
0
41
1
10
138.744379741624
20
5.22526945391184
30
0
41
1
10
138.853802269999
20
5.84183102337789
30
0
41
1
10
138.908513534186
20
6.14332101867976
30
0
41
1
10
139.017936062561
20
6.72786305894172
30
0
41
1
10
139.072647326749
20
7.01090701830847
30
0
41
1
10
139.182069855124
20
7.55407189708535
30
0
41
1
10
139.236781119311
20
7.81418570579609
30
0
41
1
10
139.346203647686
20
8.30762412280023
30
0
41
1
10
139.400914911874
20
8.54094334062708
30
0
41
1
10
139.510337440249
20
8.97773561247811
30
0
41
1
10
139.565048704436
20
9.18120551493936
30
0
41
1
10
139.674471232811
20
9.55618127715937
30
0
41
1
10
139.729182496999
20
9.7276864323143
30
0
41
1
10
139.838605025374
20
10.0376122429664
30
0
41
1
10
139.893316289561
20
10.1760345217156
30
0
41
1
10
140.002738817936
20
10.419657001333
30
0
41
1
10
140.057450082124
20
10.5248607573791
30
0
41
1
10
140.166872610499
20
10.7028120467952
30
0
41
1
10
140.221583874686
20
10.7755644921881
30
0
41
1
10
140.385717667249
20
10.9474473720182
30
0
41
1
10
140.495140195623
20
11
30
0
41
1
10
140.604562723998
20
11
30
0
0
SPLINE
5
E9
100
AcDbEntity
8
1
62
256
6
ByLayer
370
13
48
1
60
0
100
AcDbSpline
70
4
71
3
72
14
73
10
40
0
40
0
40
0
40
0
40
0.25
40
0.25
40
0.5
40
0.5
40
0.75
40
0.75
40
1
40
1
40
1
40
1
41
1
10
139.935305527609
20
11
30
0
41
1
10
140.032057352231
20
11
30
0
41
1
10
140.128809176853
20
10.958966144931
30
0
41
1
10
140.322312826096
20
10.7814229844098
30
0
41
1
10
140.419064650718
20
10.6448159846816
30
0
41
1
10
140.612568299962
20
10.2681126137162
30
0
41
1
10
140.709320124584
20
10.0279436313366
30
0
41
1
10
140.902823773828
20
9.4443617490378
30
0
41
1
10
140.99957559845
20
9.10093309884795
30
0
41
1
10
141.096327423072
20
8.71085565911173
30
0
0
SPLINE
5
EA
100
AcDbEntity
8
1
62
256
6
ByLayer
370
13
48
1
60
0
100
AcDbSpline
70
4
71
3
72
118
73
114
40
0
40
0
40
0
40
0
40
0.015625
40
0.015625
40
0.0312499999999999
40
0.0312499999999999
40
0.0468749999999999
40
0.0468749999999999
40
0.0625
40
0.0625
40
0.078125
40
0.078125
40
0.09375
40
0.09375
40
0.125
40
0.125
40
0.156250000000001
40
0.156250000000001
40
0.171875000000001
40
0.171875000000001
40
0.175781250000001
40
0.175781250000001
40
0.1796875
40
0.1796875
40
0.1875
40
0.1875
40
0.21875
40
0.21875
40
0.249999999999999
40
0.249999999999999
40
0.265624999999999
40
0.265624999999999
40
0.281249999999999
40
0.281249999999999
40
0.296874999999998
40
0.296874999999998
40
0.312499999999998
40
0.312499999999998
40
0.328124999999998
40
0.328124999999998
40
0.343749999999997
40
0.343749999999997
40
0.359374999999997
40
0.359374999999997
40
0.374999999999997
40
0.374999999999997
40
0.406249999999996
40
0.406249999999996
40
0.437499999999996
40
0.437499999999996
40
0.445312499999995
40
0.445312499999995
40
0.449218749999995
40
0.449218749999995
40
0.453124999999995
40
0.453124999999995
40
0.468749999999995
40
0.468749999999995
40
0.499999999999996
40
0.499999999999996
40
0.531249999999996
40
0.531249999999996
40
0.546874999999996
40
0.546874999999996
40
0.562499999999997
40
0.562499999999997
40
0.578124999999997
40
0.578124999999997
40
0.593749999999997
40
0.593749999999997
40
0.609374999999997
40
0.609374999999997
40
0.624999999999997
40
0.624999999999997
40
0.640624999999997
40
0.640624999999997
40
0.656249999999997
40
0.656249999999997
40
0.687499999999997
40
0.687499999999997
40
0.718749999999997
40
0.718749999999997
40
0.722656249999998
40
0.722656249999998
40
0.726562499999998
40
0.726562499999998
40
0.734374999999998
40
0.734374999999998
40
0.749999999999998
40
0.749999999999998
40
0.781249999999998
40
0.781249999999998
40
0.812499999999998
40
0.812499999999998
40
0.828124999999998
40
0.828124999999998
40
0.843749999999998
40
0.843749999999998
40
0.859374999999998
40
0.859374999999998
40
0.874999999999999
40
0.874999999999999
40
0.890624999999999
40
0.890624999999999
40
0.906249999999999
40
0.906249999999999
40
0.921874999999999
40
0.921874999999999
40
0.937499999999999
40
0.937499999999999
40
0.96875
40
0.96875
40
1
40
1
40
1
40
1
41
1
10
130.1
20
9.37305225350022
30
0
41
1
10
130.15214998685
20
9.19457722212226
30
0
41
1
10
130.204299973699
20
9.00157918225463
30
0
41
1
10
130.308599947398
20
8.58833952258269
30
0
41
1
10
130.360749934248
20
8.36810027999164
30
0
41
1
10
130.465049907947
20
7.90296144003051
30
0
41
1
10
130.517199894796
20
7.65806592206889
30
0
41
1
10
130.621499868495
20
7.1468798647962
30
0
41
1
10
130.673649855345
20
6.88059475612761
30
0
41
1
10
130.777949829044
20
6.33043274599905
30
0
41
1
10
130.830099815893
20
6.04656211113758
30
0
41
1
10
130.934399789592
20
5.46539257687823
30
0
41
1
10
130.986549776442
20
5.16810018274225
30
0
41
1
10
131.142999736991
20
4.26257542601152
30
0
41
1
10
131.24729971069
20
3.64081389921225
30
0
41
1
10
131.455899658088
20
2.39473902216139
30
0
41
1
10
131.560199631787
20
1.77055787478989
30
0
41
1
10
131.716649592335
20
0.853775104692971
30
0
41
1
10
131.768799579185
20
0.551374092979046
30
0
41
1
10
131.833987062747
20
0.179112261431584
30
0
41
1
10
131.847024559459
20
0.104945568180881
30
0
41
1
10
131.873099552884
20
-0.0427780054429547
30
0
41
1
10
131.886137049596
20
-0.116641040056152
30
0
41
1
10
131.925249539733
20
-0.33951247186468
30
0
41
1
10
131.951324533158
20
-0.489259190434296
30
0
41
1
10
132.081699500282
20
-1.24300094694504
30
0
41
1
10
132.185999473981
20
-1.86233045963715
30
0
41
1
10
132.394599421379
20
-3.10751603334435
30
0
41
1
10
132.498899395078
20
-3.73326342847696
30
0
41
1
10
132.655349355627
20
-4.65223661769448
30
0
41
1
10
132.707499342476
20
-4.95524631970119
30
0
41
1
10
132.811799316175
20
-5.55031121194344
30
0
41
1
10
132.863949303025
20
-5.84236002725282
30
0
41
1
10
132.968249276724
20
-6.41122091031863
30
0
41
1
10
133.020399263573
20
-6.68802650084589
30
0
41
1
10
133.124699237272
20
-7.22236804354739
30
0
41
1
10
133.176849224122
20
-7.47989801789822
30
0
41
1
10
133.281149197821
20
-7.97209397935444
30
0
41
1
10
133.333299184671
20
-8.20675506144602
30
0
41
1
10
133.43759915837
20
-8.65022284155992
30
0
41
1
10
133.489749145219
20
-8.85902616064917
30
0
41
1
10
133.594049118918
20
-9.24851784543046
30
0
41
1
10
133.646199105768
20
-9.42920462065877
30
0
41
1
10
133.750499079467
20
-9.76100783570877
30
0
41
1
10
133.802649066316
20
-9.91212451192672
30
0
41
1
10
133.959099026865
20
-10.3201741122309
30
0
41
1
10
134.063399000564
20
-10.5314548074316
30
0
41
1
10
134.271998947962
20
-10.8366708155234
30
0
41
1
10
134.376298921661
20
-10.9307344028267
30
0
41
1
10
134.506673888785
20
-10.9837174890836
30
0
41
1
10
134.53274888221
20
-10.9911020568058
30
0
41
1
10
134.571861372347
20
-10.9975684639428
30
0
41
1
10
134.584898869059
20
-10.9989556769189
30
0
41
1
10
134.610973862484
20
-11.0002298373829
30
0
41
1
10
134.624011359196
20
-11.0001219922269
30
0
41
1
10
134.689198842758
20
-10.9958381025085
30
0
41
1
10
134.741348829608
20
-10.9803543500589
30
0
41
1
10
134.897798790156
20
-10.8944316272444
30
0
41
1
10
135.002098763855
20
-10.7842518612415
30
0
41
1
10
135.210698711253
20
-10.4454894191118
30
0
41
1
10
135.314998684953
20
-10.2167849919132
30
0
41
1
10
135.471448645501
20
-9.78286945284626
30
0
41
1
10
135.523598632351
20
-9.62317935375941
30
0
41
1
10
135.62789860605
20
-9.27456077326994
30
0
41
1
10
135.680048592899
20
-9.08563256978312
30
0
41
1
10
135.784348566598
20
-8.68022470998932
30
0
41
1
10
135.836498553448
20
-8.46374717054451
30
0
41
1
10
135.940798527147
20
-8.00571692917308
30
0
41
1
10
135.992948513996
20
-7.76416807965165
30
0
41
1
10
136.097248487695
20
-7.25917070425939
30
0
41
1
10
136.149398474545
20
-6.99572744400035
30
0
41
1
10
136.253698448244
20
-6.45067770138718
30
0
41
1
10
136.305848435093
20
-6.16907740161818
30
0
41
1
10
136.410148408793
20
-5.59183720554478
30
0
41
1
10
136.462298395642
20
-5.29620381750863
30
0
41
1
10
136.566598369341
20
-4.69521552078402
30
0
41
1
10
136.618748356191
20
-4.3898668535989
30
0
41
1
10
136.775198316739
20
-3.4657170816368
30
0
41
1
10
136.879498290438
20
-2.83899104916787
30
0
41
1
10
137.088098237836
20
-1.59610014505961
30
0
41
1
10
137.192398211536
20
-0.980031797805282
30
0
41
1
10
137.309735681947
20
-0.307073503650798
30
0
41
1
10
137.322773178659
20
-0.232574535137474
30
0
41
1
10
137.348848172084
20
-0.084164623857788
30
0
41
1
10
137.361885668796
20
-0.0104545861534859
30
0
41
1
10
137.400998158934
20
0.211396932736363
30
0
41
1
10
137.427073152358
20
0.360507640855872
30
0
41
1
10
137.505298132633
20
0.810990911438921
30
0
41
1
10
137.557448119482
20
1.11553086280952
30
0
41
1
10
137.713898080031
20
2.03738325096214
30
0
41
1
10
137.81819805373
20
2.66313380812207
30
0
41
1
10
138.026798001128
20
3.90773739526338
30
0
41
1
10
138.131097974827
20
4.52644695864782
30
0
41
1
10
138.287547935375
20
5.42362022332625
30
0
41
1
10
138.339697922225
20
5.71750564473271
30
0
41
1
10
138.443997895924
20
6.29064254948798
30
0
41
1
10
138.496147882774
20
6.56988753387341
30
0
41
1
10
138.600447856473
20
7.1096630033806
30
0
41
1
10
138.652597843322
20
7.37018740223056
30
0
41
1
10
138.756897817021
20
7.86885362476116
30
0
41
1
10
138.809047803871
20
8.1069903581834
30
0
41
1
10
138.91334777757
20
8.55779552672459
30
0
41
1
10
138.965497764419
20
8.77046034313577
30
0
41
1
10
139.069797738118
20
9.16795065527458
30
0
41
1
10
139.121947724968
20
9.35277429661625
30
0
41
1
10
139.226247698667
20
9.69300897595213
30
0
41
1
10
139.278397685516
20
9.84841999473096
30
0
41
1
10
139.382697659215
20
10.1290820491705
30
0
41
1
10
139.434847646065
20
10.2543347540189
30
0
41
1
10
139.591297606614
20
10.5849324051471
30
0
41
1
10
139.695597580313
20
10.744815260235
30
0
41
1
10
139.904197527711
20
10.9522786724207
30
0
41
1
10
140.00849750141
20
11
30
0
41
1
10
140.112797475109
20
11
30
0
0
SPLINE
5
EB
100
AcDbEntity
8
1
62
256
6
ByLayer
370
13
48
1
60
0
100
AcDbSpline
70
4
71
3
72
22
73
18
40
0
40
0
40
0
40
0
40
0.125
40
0.125
40
0.25
40
0.25
40
0.375
40
0.375
40
0.5
40
0.5
40
0.625
40
0.625
40
0.75
40
0.75
40
0.875
40
0.875
40
1
40
1
40
1
40
1
41
1
10
139.443540278719
20
11
30
0
41
1
10
139.512406409734
20
11
30
0
41
1
10
139.581272540749
20
10.9792542893611
30
0
41
1
10
139.719004802778
20
10.8912207903281
30
0
41
1
10
139.787870933793
20
10.8239148152625
30
0
41
1
10
139.925603195822
20
10.6388909956478
30
0
41
1
10
139.994469326837
20
10.5211563411065
30
0
41
1
10
140.132201588866
20
10.2331560114808
30
0
41
1
10
140.201067719881
20
10.0628780262374
30
0
41
1
10
140.33879998191
20
9.66987174185971
30
0
41
1
10
140.407666112925
20
9.4471385883254
30
0
41
1
10
140.545398374954
20
8.95177091753112
30
0
41
1
10
140.614264505969
20
8.67914090492562
30
0
41
1
10
140.751996767998
20
8.08900790647024
30
0
41
1
10
140.820862899013
20
7.77151889941482
30
0
41
1
10
140.958595161042
20
7.09889695687824
30
0
41
1
10
141.027461292057
20
6.74378556225989
30
0
41
1
10
141.096327423072
20
6.37429599246079
30
0
0
SPLINE
5
EC
100
AcDbEntity
8
1
62
256
6
ByLayer
370
13
48
1
60
0
100
AcDbSpline
70
4
71
3
72
85
73
81
40
0
40
0
40
0
40
0
40
0.0312499999999994
40
0.0312499999999994
40
0.0624999999999988
40
0.0624999999999988
40
0.0937499999999982
40
0.0937499999999982
40
0.124999999999998
40
0.124999999999998
40
0.132812499999998
40
0.132812499999998
40
0.136718749999998
40
0.136718749999998
40
0.140624999999998
40
0.140624999999998
40
0.156249999999998
40
0.156249999999998
40
0.187499999999998
40
0.187499999999998
40
0.218749999999998
40
0.218749999999998
40
0.249999999999998
40
0.249999999999998
40
0.281249999999998
40
0.281249999999998
40
0.312499999999998
40
0.312499999999998
40
0.343749999999998
40
0.343749999999998
40
0.374999999999998
40
0.374999999999998
40
0.406249999999999
40
0.406249999999999
40
0.421874999999999
40
0.421874999999999
40
0.425781249999999
40
0.425781249999999
40
0.429687499999999
40
0.437499999999999
40
0.437499999999999
40
0.468749999999999
40
0.468749999999999
40
0.499999999999999
40
0.499999999999999
40
0.531249999999999
40
0.531249999999999
40
0.562499999999999
40
0.562499999999999
40
0.593749999999999
40
0.593749999999999
40
0.624999999999999
40
0.624999999999999
40
0.656249999999999
40
0.656249999999999
40
0.687499999999999
40
0.687499999999999
40
0.703124999999999
40
0.703124999999999
40
0.710937499999999
40
0.710937499999999
40
0.718749999999999
40
0.718749999999999
40
0.749999999999999
40
0.749999999999999
40
0.781249999999999
40
0.781249999999999
40
0.8125
40
0.8125
40
0.84375
40
0.84375
40
0.875
40
0.875
40
0.90625
40
0.90625
40
0.9375
40
0.9375
40
0.96875
40
0.96875
40
1
40
1
40
1
40
1
41
1
10
130.1
20
7.29196062247391
30
0
41
1
10
130.199177419023
20
6.80013453103507
30
0
41
1
10
130.298354838046
20
6.270432838582
30
0
41
1
10
130.496709676093
20
5.16289964655948
30
0
41
1
10
130.595887095116
20
4.58522807583202
30
0
41
1
10
130.794241933162
20
3.41175725183692
30
0
41
1
10
130.893419352185
20
2.81609072296064
30
0
41
1
10
131.091774190231
20
1.63416510722584
30
0
41
1
10
131.190951609254
20
1.04798133551588
30
0
41
1
10
131.314923383033
20
0.334791399518934
30
0
41
1
10
131.339717737789
20
0.193114184936064
30
0
41
1
10
131.376909269923
20
-0.0177560867393822
30
0
41
1
10
131.389306447301
20
-0.0878773538917699
30
0
41
1
10
131.414100802056
20
-0.228998653115497
30
0
41
1
10
131.426497979434
20
-0.299825131733939
30
0
41
1
10
131.488483866323
20
-0.655201500081574
30
0
41
1
10
131.538072575835
20
-0.943500212878178
30
0
41
1
10
131.68683870437
20
-1.81670985662615
30
0
41
1
10
131.786016123393
20
-2.41011266806004
30
0
41
1
10
131.984370961439
20
-3.59503045165292
30
0
41
1
10
132.083548380462
20
-4.18644308642786
30
0
41
1
10
132.281903218508
20
-5.33836375528219
30
0
41
1
10
132.381080637532
20
-5.89872187461714
30
0
41
1
10
132.579435475578
20
-6.95886298706188
30
0
41
1
10
132.678612894601
20
-7.45848943372084
30
0
41
1
10
132.876967732647
20
-8.37161970742588
30
0
41
1
10
132.97614515167
20
-8.78501171494054
30
0
41
1
10
133.174499989717
20
-9.50846968218067
30
0
41
1
10
133.27367740874
20
-9.81850348115597
30
0
41
1
10
133.472032246786
20
-10.3286523198331
30
0
41
1
10
133.571209665809
20
-10.5288155701049
30
0
41
1
10
133.769564503855
20
-10.822968955721
30
0
41
1
10
133.868741922879
20
-10.9170584405833
30
0
41
1
10
134.017508051413
20
-10.9873662793192
30
0
41
1
10
134.067096760925
20
-10.9990499706834
30
0
41
1
10
134.129082647814
20
-11.0001678601806
30
0
41
1
10
134.141479825192
20
-10.9997213521347
30
0
41
1
10
134.166274179948
20
-10.9974612056092
30
0
41
1
10
134.203465712081
20
-10.9920183287151
30
0
41
1
10
134.240657244215
20
-10.9802767987647
30
0
41
1
10
134.364629017994
20
-10.9265515391375
30
0
41
1
10
134.463806437017
20
-10.8366601805307
30
0
41
1
10
134.662161275063
20
-10.5512555880515
30
0
41
1
10
134.761338694087
20
-10.3556417376224
30
0
41
1
10
134.959693532133
20
-9.85455766239676
30
0
41
1
10
135.058870951156
20
-9.54903637267955
30
0
41
1
10
135.257225789202
20
-8.83411849218896
30
0
41
1
10
135.356403208225
20
-8.42475048258811
30
0
41
1
10
135.554758046271
20
-7.51876880868818
30
0
41
1
10
135.653935465294
20
-7.0222641456221
30
0
41
1
10
135.852290303341
20
-5.96719107922684
30
0
41
1
10
135.951467722364
20
-5.4087783658853
30
0
41
1
10
136.14982256041
20
-4.25949417241699
30
0
41
1
10
136.248999979433
20
-3.66877385026288
30
0
41
1
10
136.447354817479
20
-2.48409842516406
30
0
41
1
10
136.546532236503
20
-1.8902481234918
30
0
41
1
10
136.695298365037
20
-1.01569302039246
30
0
41
1
10
136.744887074549
20
-0.726834217274643
30
0
41
1
10
136.819270138816
20
-0.299401824457675
30
0
41
1
10
136.844064493572
20
-0.157896984332467
30
0
41
1
10
136.893653203083
20
0.122897216655843
30
0
41
1
10
136.918447557839
20
0.264054486768913
30
0
41
1
10
137.042419331618
20
0.975629382091427
30
0
41
1
10
137.141596750641
20
1.56090072259582
30
0
41
1
10
137.339951588688
20
2.7420334453179
30
0
41
1
10
137.439129007711
20
3.33782213182701
30
0
41
1
10
137.637483845757
20
4.51275499740532
30
0
41
1
10
137.73666126478
20
5.09176842823695
30
0
41
1
10
137.935016102826
20
6.20322399390309
30
0
41
1
10
138.034193521849
20
6.7355064068964
30
0
41
1
10
138.232548359896
20
7.72537801862438
30
0
41
1
10
138.331725778919
20
8.18282796955583
30
0
41
1
10
138.530080616965
20
9.00140351411952
30
0
41
1
10
138.629258035988
20
9.36245640474397
30
0
41
1
10
138.827612874034
20
9.97643737210635
30
0
41
1
10
138.926790293057
20
10.229377311211
30
0
41
1
10
139.125145131104
20
10.6261105044173
30
0
41
1
10
139.224322550127
20
10.7699834137112
30
0
41
1
10
139.422677388173
20
10.9568730453622
30
0
41
1
10
139.521854807196
20
11
30
0
41
1
10
139.621032226219
20
11
30
0
0
SPLINE
5
ED
100
AcDbEntity
8
1
62
256
6
ByLayer
370
13
48
1
60
0
100
AcDbSpline
70
4
71
3
72
22
73
18
40
0
40
0
40
0
40
0
40
0.125
40
0.125
40
0.25
40
0.25
40
0.375
40
0.375
40
0.5
40
0.5
40
0.625
40
0.625
40
0.75
40
0.75
40
0.875
40
0.875
40
1
40
1
40
1
40
1
41
1
10
138.95177502983
20
11
30
0
41
1
10
139.041131379548
20
11
30
0
41
1
10
139.130487729266
20
10.9650221363999
30
0
41
1
10
139.309200428703
20
10.8144178186336
30
0
41
1
10
139.398556778422
20
10.6987252014311
30
0
41
1
10
139.577269477859
20
10.3797714500267
30
0
41
1
10
139.666625827577
20
10.1764573058293
30
0
41
1
10
139.845338527014
20
9.68109698976744
30
0
41
1
10
139.934694876732
20
9.38902984191338
30
0
41
1
10
140.113407576169
20
8.72193734609542
30
0
41
1
10
140.202763925888
20
8.34693535747596
30
0
41
1
10
140.381476625324
20
7.5266852508484
30
0
41
1
10
140.470832975043
20
7.08150307666469
30
0
41
1
10
140.64954567448
20
6.13918073859148
30
0
41
1
10
140.738902024198
20
5.64213226065723
30
0
41
1
10
140.917614723635
20
4.61749943745119
30
0
41
1
10
141.006971073353
20
4.09000766149731
30
0
41
1
10
141.096327423072
20
3.5580947171986
30
0
0
SPLINE
5
EE
100
AcDbEntity
8
1
62
256
6
ByLayer
370
13
48
1
60
0
100
AcDbSpline
70
4
71
3
72
84
73
80
40
0
40
0
40
0
40
0
40
0.0312500000000015
40
0.0312500000000015
40
0.062500000000003
40
0.062500000000003
40
0.0781250000000036
40
0.0781250000000036
40
0.0859375000000041
40
0.0859375000000041
40
0.0898437500000041
40
0.0898437500000041
40
0.0937500000000042
40
0.0937500000000042
40
0.125000000000003
40
0.125000000000003
40
0.156250000000003
40
0.156250000000003
40
0.187500000000002
40
0.187500000000002
40
0.218750000000001
40
0.218750000000001
40
0.250000000000001
40
0.250000000000001
40
0.28125
40
0.28125
40
0.312499999999999
40
0.312499999999999
40
0.343749999999999
40
0.343749999999999
40
0.374999999999998
40
0.374999999999998
40
0.390624999999998
40
0.390624999999998
40
0.398437499999998
40
0.398437499999998
40
0.406249999999998
40
0.406249999999998
40
0.437499999999998
40
0.437499999999998
40
0.468749999999998
40
0.468749999999998
40
0.499999999999998
40
0.499999999999998
40
0.531249999999997
40
0.531249999999997
40
0.562499999999997
40
0.562499999999997
40
0.593749999999997
40
0.593749999999997
40
0.624999999999997
40
0.624999999999997
40
0.656249999999997
40
0.656249999999997
40
0.687499999999997
40
0.687499999999997
40
0.695312499999997
40
0.695312499999997
40
0.703124999999997
40
0.703124999999997
40
0.718749999999997
40
0.718749999999997
40
0.749999999999997
40
0.749999999999997
40
0.781249999999997
40
0.781249999999997
40
0.812499999999998
40
0.812499999999998
40
0.843749999999998
40
0.843749999999998
40
0.874999999999999
40
0.874999999999999
40
0.906249999999999
40
0.906249999999999
40
0.937499999999999
40
0.937499999999999
40
0.96875
40
0.96875
40
1
40
1
40
1
40
1
41
1
10
130.1
20
4.60571131295967
30
0
41
1
10
130.194054864347
20
4.05694685131817
30
0
41
1
10
130.288109728694
20
3.49549550039316
30
0
41
1
10
130.476219457389
20
2.37164466507815
30
0
41
1
10
130.570274321736
20
1.80932194724798
30
0
41
1
10
130.711356618257
20
0.980814409333419
30
0
41
1
10
130.75838405043
20
0.707105049051705
30
0
41
1
10
130.828925198691
20
0.301814027860388
30
0
41
1
10
130.852438914778
20
0.167593146545357
30
0
41
1
10
130.887709488908
20
-0.032250873186797
30
0
41
1
10
130.899466346951
20
-0.0988182213445157
30
0
41
1
10
130.922980063038
20
-0.232685336444405
30
0
41
1
10
130.934736921081
20
-0.299857448997557
30
0
41
1
10
131.040548643472
20
-0.906422642756581
30
0
41
1
10
131.134603507819
20
-1.46015313892605
30
0
41
1
10
131.322713236513
20
-2.57872935874971
30
0
41
1
10
131.416768100861
20
-3.14352293004464
30
0
41
1
10
131.604877829555
20
-4.2614006033736
30
0
41
1
10
131.698932693902
20
-4.8143891529061
30
0
41
1
10
131.887042422596
20
-5.88326386324965
30
0
41
1
10
131.981097286944
20
-6.39902876643663
30
0
41
1
10
132.169207015638
20
-7.3688344380528
30
0
41
1
10
132.263261879985
20
-7.82276102241548
30
0
41
1
10
132.451371608679
20
-8.64870766999996
30
0
41
1
10
132.545426473027
20
-9.02065492772422
30
0
41
1
10
132.733536201721
20
-9.66983017259099
30
0
41
1
10
132.827591066068
20
-9.94704590493157
30
0
41
1
10
133.015700794763
20
-10.402644175165
30
0
41
1
10
133.10975565911
20
-10.5810708403466
30
0
41
1
10
133.297865387804
20
-10.843159936899
30
0
41
1
10
133.391920252151
20
-10.9269006501996
30
0
41
1
10
133.533002548672
20
-10.9891775023579
30
0
41
1
10
133.580029980846
20
-10.999421567494
30
0
41
1
10
133.650571129106
20
-11.0002534475848
30
0
41
1
10
133.674084845193
20
-10.9981209373153
30
0
41
1
10
133.721112277367
20
-10.9888271007233
30
0
41
1
10
133.744625993453
20
-10.9816650171756
30
0
41
1
10
133.862194573887
20
-10.9327742804712
30
0
41
1
10
133.956249438234
20
-10.8516203169814
30
0
41
1
10
134.144359166929
20
-10.5949262845757
30
0
41
1
10
134.238414031276
20
-10.4193073639435
30
0
41
1
10
134.42652375997
20
-9.96933656368759
30
0
41
1
10
134.520578624318
20
-9.69493921080755
30
0
41
1
10
134.708688353012
20
-9.05116341453353
30
0
41
1
10
134.802743217359
20
-8.681795440256
30
0
41
1
10
134.990852946054
20
-7.86052973624382
30
0
41
1
10
135.084907810401
20
-7.40870323764233
30
0
41
1
10
135.273017539095
20
-6.44244186166964
30
0
41
1
10
135.367072403442
20
-5.92812042357983
30
0
41
1
10
135.555182132137
20
-4.86139750299841
30
0
41
1
10
135.649236996484
20
-4.30911757934177
30
0
41
1
10
135.837346725178
20
-3.19194873529915
30
0
41
1
10
135.931401589525
20
-2.6271564411206
30
0
41
1
10
136.11951131822
20
-1.5079849860987
30
0
41
1
10
136.213566182567
20
-0.95365929516467
30
0
41
1
10
136.331134763001
20
-0.278678211255851
30
0
41
1
10
136.354648479088
20
-0.14456504080033
30
0
41
1
10
136.401675911261
20
0.121665668326301
30
0
41
1
10
136.425189627348
20
0.255560596864058
30
0
41
1
10
136.495730775609
20
0.660244501234189
30
0
41
1
10
136.542758207782
20
0.933604371671663
30
0
41
1
10
136.683840504303
20
1.76125914212344
30
0
41
1
10
136.77789536865
20
2.32327583837491
30
0
41
1
10
136.966005097344
20
3.44717510805234
30
0
41
1
10
137.060059961692
20
4.00898217546302
30
0
41
1
10
137.248169690386
20
5.10795566728234
30
0
41
1
10
137.342224554733
20
5.64500994896738
30
0
41
1
10
137.530334283427
20
6.66902008915511
30
0
41
1
10
137.624389147775
20
7.15585372653206
30
0
41
1
10
137.812498876469
20
8.05664734370964
30
0
41
1
10
137.906553740816
20
8.470510749856
30
0
41
1
10
138.09466346951
20
9.2086927165445
30
0
41
1
10
138.188718333858
20
9.53296866243772
30
0
41
1
10
138.376828062552
20
10.0835904300953
30
0
41
1
10
138.470882926899
20
10.309954920899
30
0
41
1
10
138.658992655594
20
10.6650188228531
30
0
41
1
10
138.753047519941
20
10.793783342029
30
0
41
1
10
138.941157248635
20
10.9612313898897
30
0
41
1
10
139.035212112982
20
11
30
0
41
1
10
139.12926697733
20
11
30
0
0
SPLINE
5
EF
100
AcDbEntity
8
1
62
256
6
ByLayer
370
13
48
1
60
0
100
AcDbSpline
70
4
71
3
72
36
73
32
40
0
40
0
40
0
40
0
40
0.125
40
0.125
40
0.1875
40
0.1875
40
0.25
40
0.25
40
0.3125
40
0.3125
40
0.375
40
0.375
40
0.4375
40
0.4375
40
0.5
40
0.5
40
0.5625
40
0.5625
40
0.625
40
0.625
40
0.6875
40
0.6875
40
0.75
40
0.75
40
0.8125
40
0.8125
40
0.875
40
0.875
40
0.9375
40
0.9375
40
1
40
1
40
1
40
1
41
1
10
138.46000978094
20
11
30
0
41
1
10
138.569856349362
20
11
30
0
41
1
10
138.679702917784
20
10.9470367939834
30
0
41
1
10
138.844472770418
20
10.7737673403624
30
0
41
1
10
138.899396054629
20
10.7004251172508
30
0
41
1
10
139.009242623051
20
10.5210280955523
30
0
41
1
10
139.064165907262
20
10.4149683016241
30
0
41
1
10
139.174012475684
20
10.1693701420818
30
0
41
1
10
139.228935759895
20
10.0298281784679
30
0
41
1
10
139.338782328317
20
9.71741771439824
30
0
41
1
10
139.393705612528
20
9.5445476020692
30
0
41
1
10
139.50355218095
20
9.16663122953503
30
0
41
1
10
139.558475465162
20
8.96158574560553
30
0
41
1
10
139.668322033584
20
8.52148123864052
30
0
41
1
10
139.723245317795
20
8.28642549487972
30
0
41
1
10
139.833091886217
20
7.78941459553874
30
0
41
1
10
139.888015170428
20
7.52746499927286
30
0
41
1
10
139.99786173885
20
6.98059825838899
30
0
41
1
10
140.052785023061
20
6.69568841147276
30
0
41
1
10
140.162631591483
20
6.10745552118675
30
0
41
1
10
140.217554875695
20
5.80414074237464
30
0
41
1
10
140.327401444117
20
5.18403821962053
30
0
41
1
10
140.382324728328
20
4.86725884244512
30
0
41
1
10
140.49217129675
20
4.22530036913244
30
0
41
1
10
140.547094580961
20
3.90012893284037
30
0
41
1
10
140.656941149383
20
3.2463491603435
30
0
41
1
10
140.711864433594
20
2.91774714663322
30
0
41
1
10
140.821711002016
20
2.26174662596606
30
0
41
1
10
140.876634286227
20
1.93435272427254
30
0
41
1
10
140.98648085465
20
1.28492127265821
30
0
41
1
10
141.041404138861
20
0.962886494216576
30
0
41
1
10
141.096327423072
20
0.645307098169013
30
0
0
SPLINE
5
F0
100
AcDbEntity
8
1
62
256
6
ByLayer
370
13
48
1
60
0
100
AcDbSpline
70
4
71
3
72
85
73
81
40
0
40
0
40
0
40
0
40
0.0312499999999983
40
0.0312499999999983
40
0.0351562499999982
40
0.0351562499999982
40
0.0390624999999981
40
0.0468749999999981
40
0.0468749999999981
40
0.062499999999998
40
0.062499999999998
40
0.093749999999998
40
0.093749999999998
40
0.124999999999998
40
0.124999999999998
40
0.156249999999998
40
0.156249999999998
40
0.187499999999998
40
0.187499999999998
40
0.218749999999998
40
0.218749999999998
40
0.249999999999998
40
0.249999999999998
40
0.281249999999998
40
0.281249999999998
40
0.312499999999998
40
0.312499999999998
40
0.343749999999998
40
0.343749999999998
40
0.351562499999998
40
0.351562499999998
40
0.359374999999998
40
0.359374999999998
40
0.374999999999997
40
0.374999999999997
40
0.406249999999997
40
0.406249999999997
40
0.437499999999996
40
0.437499999999996
40
0.468749999999996
40
0.468749999999996
40
0.499999999999995
40
0.499999999999995
40
0.531249999999994
40
0.531249999999994
40
0.562499999999994
40
0.562499999999994
40
0.593749999999993
40
0.593749999999993
40
0.624999999999992
40
0.624999999999992
40
0.656249999999992
40
0.656249999999992
40
0.671874999999991
40
0.671874999999991
40
0.675781249999991
40
0.675781249999991
40
0.679687499999991
40
0.679687499999991
40
0.687499999999992
40
0.687499999999992
40
0.718749999999992
40
0.718749999999992
40
0.749999999999993
40
0.749999999999993
40
0.781249999999994
40
0.781249999999994
40
0.812499999999995
40
0.812499999999995
40
0.843749999999996
40
0.843749999999996
40
0.874999999999997
40
0.874999999999997
40
0.906249999999997
40
0.906249999999997
40
0.937499999999998
40
0.937499999999998
40
0.968749999999999
40
0.968749999999999
40
1
40
1
40
1
40
1
41
1
10
130.1
20
1.68489876115848
30
0
41
1
10
130.188932309671
20
1.15847080854374
30
0
41
1
10
130.277864619342
20
0.63879223046095
30
0
41
1
10
130.377913467723
20
0.0698631973933459
30
0
41
1
10
130.389030006432
20
0.0070113773037122
30
0
41
1
10
130.411263083849
20
-0.119063018168816
30
0
41
1
10
130.444612699976
20
-0.308834703226353
30
0
41
1
10
130.477962316103
20
-0.500481067614402
30
0
41
1
10
130.544661548356
20
-0.885966774756184
30
0
41
1
10
130.589127703192
20
-1.14588976514022
30
0
41
1
10
130.722526167699
20
-1.93168783845911
30
0
41
1
10
130.81145847737
20
-2.46370518215267
30
0
41
1
10
130.989323096712
20
-3.52623756988578
30
0
41
1
10
131.078255406384
20
-4.05669335711667
30
0
41
1
10
131.256120025726
20
-5.0953108105486
30
0
41
1
10
131.345052335397
20
-5.60338740923072
30
0
41
1
10
131.52291695474
20
-6.5757254264274
30
0
41
1
10
131.611849264411
20
-7.03989410896705
30
0
41
1
10
131.789713883754
20
-7.90491333101923
30
0
41
1
10
131.878646193425
20
-8.30568771786486
30
0
41
1
10
132.056510812767
20
-9.0290621854831
30
0
41
1
10
132.145443122439
20
-9.35162296938898
30
0
41
1
10
132.323307741781
20
-9.9101621149459
30
0
41
1
10
132.412240051453
20
-10.1461454770971
30
0
41
1
10
132.590104670795
20
-10.5300982720229
30
0
41
1
10
132.679036980466
20
-10.6781095932066
30
0
41
1
10
132.856901599809
20
-10.8909189171887
30
0
41
1
10
132.94583390948
20
-10.9557788105754
30
0
41
1
10
133.056999296569
20
-10.9907239185743
30
0
41
1
10
133.079232373987
20
-10.9954149594234
30
0
41
1
10
133.123698528822
20
-11.00037615506
30
0
41
1
10
133.14593160624
20
-11.0006658886075
30
0
41
1
10
133.212630838494
20
-10.9950175307912
30
0
41
1
10
133.257096993329
20
-10.9824541307832
30
0
41
1
10
133.390495457836
20
-10.9163136412116
30
0
41
1
10
133.479427767507
20
-10.8341539264792
30
0
41
1
10
133.65729238685
20
-10.5852473968769
30
0
41
1
10
133.746224696521
20
-10.4184414053378
30
0
41
1
10
133.924089315864
20
-9.99662464363362
30
0
41
1
10
134.013021625535
20
-9.74157872513825
30
0
41
1
10
134.190886244877
20
-9.14611886085819
30
0
41
1
10
134.279818554549
20
-8.80570932829815
30
0
41
1
10
134.457683173891
20
-8.0493273959768
30
0
41
1
10
134.546615483563
20
-7.63340341651315
30
0
41
1
10
134.724480102905
20
-6.74197669032955
30
0
41
1
10
134.813412412576
20
-6.26655569969344
30
0
41
1
10
134.991277031919
20
-5.2762896810857
30
0
41
1
10
135.08020934159
20
-4.76153771356451
30
0
41
1
10
135.258073960932
20
-3.71422072408728
30
0
41
1
10
135.347006270604
20
-3.18173637026322
30
0
41
1
10
135.524870889946
20
-2.11932768833313
30
0
41
1
10
135.613803199617
20
-1.58945575448391
30
0
41
1
10
135.747201664124
20
-0.809383907400985
30
0
41
1
10
135.79166781896
20
-0.551785517112876
30
0
41
1
10
135.847250512505
20
-0.233898021054927
30
0
41
1
10
135.858367051213
20
-0.170525359427671
30
0
41
1
10
135.880600128631
20
-0.0442139104236219
30
0
41
1
10
135.89171666734
20
0.0185889943332427
30
0
41
1
10
135.925066283467
20
0.207879025783996
30
0
41
1
10
135.947299360885
20
0.334947077473061
30
0
41
1
10
136.058464747974
20
0.974168729006493
30
0
41
1
10
136.147397057645
20
1.49813590854339
30
0
41
1
10
136.325261676988
20
2.55588122027407
30
0
41
1
10
136.414193986659
20
3.08961978399668
30
0
41
1
10
136.592058606001
20
4.14769091340193
30
0
41
1
10
136.680990915672
20
4.67195263833423
30
0
41
1
10
136.858855535015
20
5.68968773263114
30
0
41
1
10
136.947787844686
20
6.1830703391245
30
0
41
1
10
137.125652464029
20
7.11797962372435
30
0
41
1
10
137.2145847737
20
7.55941715199023
30
0
41
1
10
137.392449393043
20
8.37247286473388
30
0
41
1
10
137.481381702714
20
8.74402749415898
30
0
41
1
10
137.659246322056
20
9.4048387984046
30
0
41
1
10
137.748178631727
20
9.69407351848653
30
0
41
1
10
137.92604325107
20
10.184583718076
30
0
41
1
10
138.014975560741
20
10.3858802416692
30
0
41
1
10
138.192840180084
20
10.7016744225714
30
0
41
1
10
138.281772489755
20
10.816224064232
30
0
41
1
10
138.459637109098
20
10.9653545365026
30
0
41
1
10
138.548569418769
20
11
30
0
41
1
10
138.63750172844
20
11
30
0
0
SPLINE
5
F1
100
AcDbEntity
8
1
62
256
6
ByLayer
370
13
48
1
60
0
100
AcDbSpline
70
4
71
3
72
41
73
37
40
0
40
0
40
0
40
0
40
0.0624999999999998
40
0.0624999999999998
40
0.125
40
0.125
40
0.187499999999999
40
0.187499999999999
40
0.249999999999999
40
0.249999999999999
40
0.312499999999999
40
0.312499999999999
40
0.374999999999999
40
0.374999999999999
40
0.437499999999999
40
0.437499999999999
40
0.499999999999998
40
0.499999999999998
40
0.562499999999998
40
0.562499999999998
40
0.624999999999998
40
0.624999999999998
40
0.687499999999998
40
0.687499999999998
40
0.749999999999998
40
0.749999999999998
40
0.812499999999998
40
0.812499999999998
40
0.874999999999998
40
0.874999999999998
40
0.890624999999998
40
0.890624999999998
40
0.906249999999998
40
0.937499999999999
40
0.937499999999999
40
1
40
1
40
1
40
1
41
1
10
137.96824453205
20
11
30
0
41
1
10
138.033412925613
20
11
30
0
41
1
10
138.098581319176
20
10.9814262032608
30
0
41
1
10
138.228918106302
20
10.90282850524
30
0
41
1
10
138.294086499865
20
10.8427907980373
30
0
41
1
10
138.424423286991
20
10.6778878145974
30
0
41
1
10
138.489591680554
20
10.5730095479592
30
0
41
1
10
138.61992846768
20
10.316408029813
30
0
41
1
10
138.685096861243
20
10.1646747120971
30
0
41
1
10
138.815433648369
20
9.81406000644273
30
0
41
1
10
138.880602041932
20
9.61517355170625
30
0
41
1
10
139.010938829057
20
9.17189861469302
30
0
41
1
10
139.07610722262
20
8.92751156938738
30
0
41
1
10
139.206444009746
20
8.39689010164059
30
0
41
1
10
139.271612403309
20
8.11066406183588
30
0
41
1
10
139.401949190435
20
7.50188106901243
30
0
41
1
10
139.467117583998
20
7.17933857710142
30
0
41
1
10
139.597454371124
20
6.50495363802918
30
0
41
1
10
139.662622764687
20
6.15312968300012
30
0
41
1
10
139.792959551813
20
5.4282240324294
30
0
41
1
10
139.858127945376
20
5.055162118195
30
0
41
1
10
139.988464732502
20
4.29624887591152
30
0
41
1
10
140.053633126065
20
3.91041585378324
30
0
41
1
10
140.183969913191
20
3.1342730502322
30
0
41
1
10
140.249138306754
20
2.74397792836524
30
0
41
1
10
140.379475093879
20
1.96656574830743
30
0
41
1
10
140.444643487442
20
1.57945849293867
30
0
41
1
10
140.574980274568
20
0.815048357732621
30
0
41
1
10
140.640148668131
20
0.437750224400219
30
0
41
1
10
140.721609160085
20
-0.0243824199286564
30
0
41
1
10
140.737901258476
20
-0.116528331592633
30
0
41
1
10
140.770485455257
20
-0.302320492774129
30
0
41
1
10
140.819361750429
20
-0.582364228197008
30
0
41
1
10
140.868238045601
20
-0.866128296458527
30
0
41
1
10
140.965990635946
20
-1.43757972286747
30
0
41
1
10
141.031159029509
20
-1.82381495259824
30
0
41
1
10
141.096327423072
20
-2.21208606285836
30
0
0
SPLINE
5
F2
100
AcDbEntity
8
1
62
256
6
ByLayer
370
13
48
1
60
0
100
AcDbSpline
70
4
71
3
72
79
73
75
40
0
40
0
40
0
40
0
40
0.0312499999999997
40
0.0312499999999997
40
0.0624999999999995
40
0.0624999999999995
40
0.0937499999999992
40
0.0937499999999992
40
0.124999999999999
40
0.124999999999999
40
0.156249999999999
40
0.156249999999999
40
0.187499999999998
40
0.187499999999998
40
0.218749999999998
40
0.218749999999998
40
0.249999999999998
40
0.249999999999998
40
0.281249999999998
40
0.281249999999998
40
0.312499999999997
40
0.312499999999997
40
0.320312499999997
40
0.320312499999997
40
0.328124999999997
40
0.328124999999997
40
0.343749999999997
40
0.343749999999997
40
0.374999999999997
40
0.374999999999997
40
0.406249999999997
40
0.406249999999997
40
0.437499999999997
40
0.437499999999997
40
0.468749999999997
40
0.468749999999997
40
0.499999999999997
40
0.499999999999997
40
0.531249999999997
40
0.531249999999997
40
0.562499999999997
40
0.562499999999997
40
0.593749999999997
40
0.593749999999997
40
0.624999999999997
40
0.624999999999997
40
0.656249999999997
40
0.656249999999997
40
0.660156249999997
40
0.660156249999997
40
0.664062499999997
40
0.671874999999997
40
0.671874999999997
40
0.687499999999997
40
0.687499999999997
40
0.718749999999997
40
0.718749999999997
40
0.749999999999998
40
0.749999999999998
40
0.781249999999998
40
0.781249999999998
40
0.812499999999998
40
0.812499999999998
40
0.843749999999999
40
0.843749999999999
40
0.874999999999999
40
0.874999999999999
40
0.906249999999999
40
0.906249999999999
40
0.937499999999999
40
0.937499999999999
40
0.96875
40
0.96875
40
1
40
1
40
1
40
1
41
1
10
130.1
20
-1.16204616422766
30
0
41
1
10
130.183809754995
20
-1.65319356908395
30
0
41
1
10
130.267619509991
20
-2.15265170876231
30
0
41
1
10
130.435239019981
20
-3.153872533048
30
0
41
1
10
130.519048774977
20
-3.65559621570446
30
0
41
1
10
130.686668284967
20
-4.64440315932953
30
0
41
1
10
130.770478039963
20
-5.13142733719272
30
0
41
1
10
130.938097549953
20
-6.07278377904441
30
0
41
1
10
131.021907304949
20
-6.52704699010033
30
0
41
1
10
131.189526814939
20
-7.38569182373499
30
0
41
1
10
131.273336569934
20
-7.79000984304295
30
0
41
1
10
131.440956079925
20
-8.53448910875869
30
0
41
1
10
131.52476583492
20
-8.87460754731271
30
0
41
1
10
131.692385344911
20
-9.48097941602171
30
0
41
1
10
131.776195099906
20
-9.74722005880182
30
0
41
1
10
131.943814609897
20
-10.2015565518558
30
0
41
1
10
132.027624364892
20
-10.3896694699988
30
0
41
1
10
132.195243874883
20
-10.6888252189114
30
0
41
1
10
132.279053629878
20
-10.7999066088187
30
0
41
1
10
132.446673139869
20
-10.9505557063281
30
0
41
1
10
132.530482894864
20
-10.9901713186712
30
0
41
1
10
132.635245088608
20
-11.0004278514987
30
0
41
1
10
132.656197527357
20
-11.0005396701336
30
0
41
1
10
132.698102404855
20
-10.996897749231
30
0
41
1
10
132.719054843604
20
-10.9931236503063
30
0
41
1
10
132.78191215985
20
-10.975720362823
30
0
41
1
10
132.823817037348
20
-10.9560054127817
30
0
41
1
10
132.949531669841
20
-10.8708986328059
30
0
41
1
10
133.033341424836
20
-10.7794321328737
30
0
41
1
10
133.200960934827
20
-10.5205981549077
30
0
41
1
10
133.284770689822
20
-10.3531884273173
30
0
41
1
10
133.452390199813
20
-9.94005897525295
30
0
41
1
10
133.536199954808
20
-9.69431543171515
30
0
41
1
10
133.703819464799
20
-9.12727961798149
30
0
41
1
10
133.787629219794
20
-8.80599182282239
30
0
41
1
10
133.955248729785
20
-8.09612248902295
30
0
41
1
10
134.03905848478
20
-7.70757634686893
30
0
41
1
10
134.206677994771
20
-6.87634217151006
30
0
41
1
10
134.290487749766
20
-6.43371357569183
30
0
41
1
10
134.458107259756
20
-5.51090498427388
30
0
41
1
10
134.541917014752
20
-5.03079421079164
30
0
41
1
10
134.709536524742
20
-4.05106044957236
30
0
41
1
10
134.793346279738
20
-3.5515004552577
30
0
41
1
10
134.960965789728
20
-2.55031219172003
30
0
41
1
10
135.044775544724
20
-2.04872880627889
30
0
41
1
10
135.212395054714
20
-1.05868417362373
30
0
41
1
10
135.29620480971
20
-0.570245062554193
30
0
41
1
10
135.390490784079
20
-0.0348376085368614
30
0
41
1
10
135.400967003454
20
0.024348832568478
30
0
41
1
10
135.421919442203
20
0.143282638444703
30
0
41
1
10
135.453348100326
20
0.322265016928384
30
0
41
1
10
135.484776758449
20
0.502903434771468
30
0
41
1
10
135.547634074696
20
0.866131353550827
30
0
41
1
10
135.589538952193
20
1.11089150237413
30
0
41
1
10
135.715253584686
20
1.85069157085016
30
0
41
1
10
135.799063339681
20
2.35134244700677
30
0
41
1
10
135.966682849672
20
3.3528290430406
30
0
41
1
10
136.050492604668
20
3.85362278892777
30
0
41
1
10
136.218112114658
20
4.83820488322215
30
0
41
1
10
136.301921869653
20
5.32193209491442
30
0
41
1
10
136.469541379644
20
6.25432412889299
30
0
41
1
10
136.553351134639
20
6.70291967115915
30
0
41
1
10
136.72097064463
20
7.54813037211326
30
0
41
1
10
136.804780399625
20
7.94468387576825
30
0
41
1
10
136.972399909616
20
8.67205894507691
30
0
41
1
10
137.056209664611
20
9.00284133571478
30
0
41
1
10
137.223829174602
20
9.58965509135231
30
0
41
1
10
137.307638929597
20
9.84567783895554
30
0
41
1
10
137.475258439588
20
10.2794253107428
30
0
41
1
10
137.559068194583
20
10.4571705622486
30
0
41
1
10
137.726687704574
20
10.7360951121834
30
0
41
1
10
137.810497459569
20
10.8373149259144
30
0
41
1
10
137.97811696956
20
10.9692432495285
30
0
41
1
10
138.061926724555
20
11
30
0
41
1
10
138.14573647955
20
11
30
0
0
SPLINE
5
F3
100
AcDbEntity
8
1
62
256
6
ByLayer
370
13
48
1
60
0
100
AcDbSpline
70
4
71
3
72
42
73
38
40
0
40
0
40
0
40
0
40
0.0625
40
0.0625
40
0.125
40
0.125
40
0.1875
40
0.1875
40
0.25
40
0.25
40
0.3125
40
0.3125
40
0.375
40
0.375
40
0.4375
40
0.4375
40
0.500000000000001
40
0.500000000000001
40
0.562500000000001
40
0.562500000000001
40
0.625000000000001
40
0.625000000000001
40
0.687500000000001
40
0.687500000000001
40
0.750000000000001
40
0.750000000000001
40
0.765625000000001
40
0.765625000000001
40
0.78125
40
0.78125
40
0.8125
40
0.8125
40
0.875
40
0.875
40
0.9375
40
0.9375
40
1
40
1
40
1
40
1
41
1
10
137.476479283161
20
11
30
0
41
1
10
137.551892786076
20
11
30
0
41
1
10
137.62730628899
20
10.975111916673
30
0
41
1
10
137.77813329482
20
10.8689904046159
30
0
41
1
10
137.853546797735
20
10.7877283879265
30
0
41
1
10
138.004373803565
20
10.5640573609369
30
0
41
1
10
138.079787306479
20
10.4216228854217
30
0
41
1
10
138.230614312309
20
10.0734580542311
30
0
41
1
10
138.306027815224
20
9.86771127541491
30
0
41
1
10
138.456854821053
20
9.39407726203922
30
0
41
1
10
138.532268323968
20
9.12618778796258
30
0
41
1
10
138.683095329798
20
8.53302627848885
30
0
41
1
10
138.758508832713
20
8.20776859256208
30
0
41
1
10
138.909335838542
20
7.5080551846697
30
0
41
1
10
138.984749341457
20
7.13362878268154
30
0
41
1
10
139.135576347287
20
6.34652361659784
30
0
41
1
10
139.210989850202
20
5.93388367052549
30
0
41
1
10
139.361816856031
20
5.08301176168985
30
0
41
1
10
139.437230358946
20
4.64482048797265
30
0
41
1
10
139.588057364775
20
3.75599776345862
30
0
41
1
10
139.66347086769
20
3.30540154354804
30
0
41
1
10
139.81429787352
20
2.40424638153641
30
0
41
1
10
139.889711376435
20
1.9537122424735
30
0
41
1
10
140.040538382264
20
1.06356733204302
30
0
41
1
10
140.115951885179
20
0.623969200326712
30
0
41
1
10
140.210218763823
20
0.0867544784605911
30
0
41
1
10
140.229072139551
20
-0.0196663567337794
30
0
41
1
10
140.266778891009
20
-0.234038282888548
30
0
41
1
10
140.285632266738
20
-0.341844976033286
30
0
41
1
10
140.342192393924
20
-0.666946501607782
30
0
41
1
10
140.379899145381
20
-0.885927283367494
30
0
41
1
10
140.493019399753
20
-1.54799878854556
30
0
41
1
10
140.568432902668
20
-1.99628265857811
30
0
41
1
10
140.719259908498
20
-2.89642177019974
30
0
41
1
10
140.794673411413
20
-3.34825585011961
30
0
41
1
10
140.945500417242
20
-4.24343988766651
30
0
41
1
10
141.020913920157
20
-4.68675738604702
30
0
41
1
10
141.096327423072
20
-5.11930881284175
30
0
0
SPLINE
5
F4
100
AcDbEntity
8
1
62
256
6
ByLayer
370
13
48
1
60
0
100
AcDbSpline
70
4
71
3
72
80
73
76
40
0
40
0
40
0
40
0
40
0.0312500000000001
40
0.0312500000000001
40
0.0625000000000002
40
0.0625000000000002
40
0.0937500000000003
40
0.0937500000000003
40
0.125000000000001
40
0.125000000000001
40
0.156250000000001
40
0.156250000000001
40
0.187500000000001
40
0.187500000000001
40
0.218750000000001
40
0.218750000000001
40
0.250000000000001
40
0.250000000000001
40
0.265625000000001
40
0.265625000000001
40
0.269531250000001
40
0.269531250000001
40
0.273437500000001
40
0.273437500000001
40
0.281250000000001
40
0.281250000000001
40
0.3125
40
0.3125
40
0.343749999999999
40
0.343749999999999
40
0.374999999999998
40
0.374999999999998
40
0.406249999999997
40
0.406249999999997
40
0.437499999999996
40
0.437499999999996
40
0.468749999999996
40
0.468749999999996
40
0.499999999999995
40
0.499999999999995
40
0.531249999999994
40
0.531249999999994
40
0.562499999999993
40
0.562499999999993
40
0.593749999999992
40
0.593749999999992
40
0.624999999999991
40
0.624999999999991
40
0.632812499999991
40
0.632812499999991
40
0.640624999999991
40
0.640624999999991
40
0.656249999999992
40
0.656249999999992
40
0.687499999999992
40
0.687499999999992
40
0.718749999999993
40
0.718749999999993
40
0.749999999999994
40
0.749999999999994
40
0.781249999999995
40
0.781249999999995
40
0.812499999999995
40
0.812499999999995
40
0.843749999999996
40
0.843749999999996
40
0.874999999999997
40
0.874999999999997
40
0.906249999999998
40
0.906249999999998
40
0.937499999999999
40
0.937499999999999
40
0.968749999999999
40
0.968749999999999
40
1
40
1
40
1
40
1
41
1
10
130.1
20
-4.08451671529704
30
0
41
1
10
130.178687200319
20
-4.5492980528696
30
0
41
1
10
130.257374400639
20
-5.00792049936206
30
0
41
1
10
130.414748801278
20
-5.89801427254369
30
0
41
1
10
130.493436001597
20
-6.32943543536428
30
0
41
1
10
130.650810402235
20
-7.15070907342306
30
0
41
1
10
130.729497602555
20
-7.5405135822657
30
0
41
1
10
130.886872003194
20
-8.26614935285002
30
0
41
1
10
130.965559203513
20
-8.60194507480753
30
0
41
1
10
131.122933604152
20
-9.21046273185229
30
0
41
1
10
131.201620804471
20
-9.48316870486809
30
0
41
1
10
131.35899520511
20
-9.96050617193771
30
0
41
1
10
131.43768240543
20
-10.1651429669459
30
0
41
1
10
131.595056806068
20
-10.5056020213641
30
0
41
1
10
131.673744006388
20
-10.6414470193775
30
0
41
1
10
131.831118407026
20
-10.8474031113726
30
0
41
1
10
131.909805607346
20
-10.9175471152633
30
0
41
1
10
132.027836407825
20
-10.9779900561624
30
0
41
1
10
132.067180007984
20
-10.9906953382386
30
0
41
1
10
132.116359508184
20
-10.9978609750769
30
0
41
1
10
132.126195408224
20
-10.9988585478563
30
0
41
1
10
132.145867208304
20
-10.9999981677644
30
0
41
1
10
132.155703108344
20
-11.0001413776133
30
0
41
1
10
132.185210808464
20
-10.9993028678915
30
0
41
1
10
132.204882608543
20
-10.9970434017211
30
0
41
1
10
132.303241608943
20
-10.9769331760085
30
0
41
1
10
132.381928809262
20
-10.9325689764313
30
0
41
1
10
132.539303209901
20
-10.7803961753133
30
0
41
1
10
132.61799041022
20
-10.6725527956067
30
0
41
1
10
132.775364810859
20
-10.3889717181846
30
0
41
1
10
132.854052011178
20
-10.2132060542573
30
0
41
1
10
133.011426411817
20
-9.79281279837252
30
0
41
1
10
133.090113612136
20
-9.5481718980887
30
0
41
1
10
133.247488012775
20
-8.99319171285029
30
0
41
1
10
133.326175213095
20
-8.68285937316963
30
0
41
1
10
133.483549613733
20
-8.00390450391228
30
0
41
1
10
133.562236814053
20
-7.63530992606485
30
0
41
1
10
133.719611214692
20
-6.85095726079601
30
0
41
1
10
133.798298415011
20
-6.4352430944202
30
0
41
1
10
133.95567281565
20
-5.57039342217072
30
0
41
1
10
134.034360015969
20
-5.12130845738173
30
0
41
1
10
134.191734416608
20
-4.20461884681262
30
0
41
1
10
134.270421616927
20
-3.73706098197999
30
0
41
1
10
134.427796017566
20
-2.79798734735837
30
0
41
1
10
134.506483217885
20
-2.32650659261907
30
0
41
1
10
134.663857618524
20
-1.39255451387078
30
0
41
1
10
134.742544818843
20
-0.930102755796298
30
0
41
1
10
134.840903819243
20
-0.36425906756989
30
0
41
1
10
134.860575619323
20
-0.251694850465924
30
0
41
1
10
134.899919219482
20
-0.0279129844426222
30
0
41
1
10
134.919591019562
20
0.0830990704305634
30
0
41
1
10
134.978606419802
20
0.419432145410497
30
0
41
1
10
135.017950019961
20
0.646308895074753
30
0
41
1
10
135.13598082044
20
1.33316630805413
30
0
41
1
10
135.21466802076
20
1.79945256026207
30
0
41
1
10
135.372042421399
20
2.73752877080437
30
0
41
1
10
135.450729621718
20
3.20929455499524
30
0
41
1
10
135.608104022357
20
4.14482140478941
30
0
41
1
10
135.686791222676
20
4.60854344072857
30
0
41
1
10
135.844165623315
20
5.51319674672456
30
0
41
1
10
135.922852823634
20
5.95407915496307
30
0
41
1
10
136.080227224273
20
6.79833202114398
30
0
41
1
10
136.158914424592
20
7.20165276936459
30
0
41
1
10
136.316288825231
20
7.95764248626207
30
0
41
1
10
136.394976025551
20
8.31027135914709
30
0
41
1
10
136.552350426189
20
8.95470632896891
30
0
41
1
10
136.631037626509
20
9.24649032248738
30
0
41
1
10
136.788412027147
20
9.76299520019003
30
0
41
1
10
136.867099227467
20
9.98771536782772
30
0
41
1
10
137.024473628106
20
10.3681328254144
30
0
41
1
10
137.103160828425
20
10.5238484265349
30
0
41
1
10
137.260535229064
20
10.768299416493
30
0
41
1
10
137.339222429383
20
10.8570655893549
30
0
41
1
10
137.496596830022
20
10.9728982295337
30
0
41
1
10
137.575284030341
20
11
30
0
41
1
10
137.653971230661
20
11
30
0
0
SPLINE
5
F5
100
AcDbEntity
8
1
62
256
6
ByLayer
370
13
48
1
60
0
100
AcDbSpline
70
4
71
3
72
44
73
40
40
0
40
0
40
0
40
0
40
0.0625
40
0.0625
40
0.125
40
0.125
40
0.1875
40
0.1875
40
0.25
40
0.25
40
0.3125
40
0.3125
40
0.375
40
0.375
40
0.4375
40
0.4375
40
0.5
40
0.5
40
0.5625
40
0.5625
40
0.625
40
0.625
40
0.65625
40
0.65625
40
0.6640625
40
0.6640625
40
0.671875
40
0.671875
40
0.6875
40
0.6875
40
0.75
40
0.75
40
0.8125
40
0.8125
40
0.875
40
0.875
40
0.9375
40
0.9375
40
1
40
1
40
1
40
1
41
1
10
136.984714034271
20
11
30
0
41
1
10
137.070372646538
20
11
30
0
41
1
10
137.156031258804
20
10.9678667078883
30
0
41
1
10
137.327348483338
20
10.8298577858331
30
0
41
1
10
137.413007095604
20
10.7239284278093
30
0
41
1
10
137.584324320138
20
10.4319733545397
30
0
41
1
10
137.669982932405
20
10.2459031833508
30
0
41
1
10
137.841300156938
20
9.79206050793289
30
0
41
1
10
137.926958769205
20
9.52426703854962
30
0
41
1
10
138.098275993738
20
8.91115540458898
30
0
41
1
10
138.183934606005
20
8.56584995102224
30
0
41
1
10
138.355251830538
20
7.80783178507841
30
0
41
1
10
138.440910442805
20
7.39516613009377
30
0
41
1
10
138.612227667338
20
6.51757972494025
30
0
41
1
10
138.697886279605
20
6.05272987219212
30
0
41
1
10
138.869203504138
20
5.089142000962
30
0
41
1
10
138.954862116405
20
4.59048088537051
30
0
41
1
10
139.126179340938
20
3.57856228801686
30
0
41
1
10
139.211837953205
20
3.06536986760969
30
0
41
1
10
139.383155177738
20
2.04241024474345
30
0
41
1
10
139.468813790005
20
1.53268485828076
30
0
41
1
10
139.597301708405
20
0.781999635026182
30
0
41
1
10
139.640131014538
20
0.534061832377347
30
0
41
1
10
139.693667647205
20
0.227962024357822
30
0
41
1
10
139.704374973738
20
0.166932593110715
30
0
41
1
10
139.725789626805
20
0.0452763902124502
30
0
41
1
10
139.736496953338
20
-0.0152209545219932
30
0
41
1
10
139.768618932938
20
-0.197504929277812
30
0
41
1
10
139.790033586005
20
-0.319840327374692
30
0
41
1
10
139.897106851338
20
-0.935142664337121
30
0
41
1
10
139.982765463605
20
-1.43913207531065
30
0
41
1
10
140.154082688138
20
-2.45699196666033
30
0
41
1
10
140.239741300405
20
-2.97083100424808
30
0
41
1
10
140.411058524938
20
-3.99141536264341
30
0
41
1
10
140.496717137205
20
-4.49810394472044
30
0
41
1
10
140.668034361739
20
-5.48539333780849
30
0
41
1
10
140.753692974005
20
-5.96592004670327
30
0
41
1
10
140.925010198538
20
-6.88187485649016
30
0
41
1
10
141.010668810805
20
-7.31722737596246
30
0
41
1
10
141.096327423072
20
-7.72167326843589
30
0
0
SPLINE
5
F6
100
AcDbEntity
8
1
62
256
6
ByLayer
370
13
48
1
60
0
100
AcDbSpline
70
4
71
3
72
79
73
75
40
0
40
0
40
0
40
0
40
0.03125
40
0.03125
40
0.0625000000000001
40
0.0625000000000001
40
0.0937500000000002
40
0.0937500000000002
40
0.125
40
0.125
40
0.15625
40
0.15625
40
0.1875
40
0.1875
40
0.21875
40
0.21875
40
0.2265625
40
0.2265625
40
0.234375
40
0.234375
40
0.25
40
0.25
40
0.28125
40
0.28125
40
0.3125
40
0.3125
40
0.343750000000001
40
0.343750000000001
40
0.375000000000001
40
0.375000000000001
40
0.406250000000001
40
0.406250000000001
40
0.437500000000001
40
0.437500000000001
40
0.468750000000001
40
0.468750000000001
40
0.500000000000001
40
0.500000000000001
40
0.531250000000001
40
0.531250000000001
40
0.562500000000001
40
0.562500000000001
40
0.59375
40
0.59375
40
0.609375
40
0.609375
40
0.613281250000001
40
0.613281250000001
40
0.617187500000001
40
0.625000000000001
40
0.625000000000001
40
0.656250000000001
40
0.656250000000001
40
0.687500000000001
40
0.687500000000001
40
0.718750000000001
40
0.718750000000001
40
0.750000000000001
40
0.750000000000001
40
0.781250000000001
40
0.781250000000001
40
0.8125
40
0.8125
40
0.84375
40
0.84375
40
0.875
40
0.875
40
0.90625
40
0.90625
40
0.9375
40
0.9375
40
0.96875
40
0.96875
40
1
40
1
40
1
40
1
41
1
10
130.1
20
-6.84214184029793
30
0
41
1
10
130.173564645643
20
-7.22277810029814
30
0
41
1
10
130.247129291287
20
-7.58472668241984
30
0
41
1
10
130.394258582574
20
-8.26130073696154
30
0
41
1
10
130.467823228217
20
-8.57590101315975
30
0
41
1
10
130.614952519504
20
-9.15030328147193
30
0
41
1
10
130.688517165148
20
-9.41009314735715
30
0
41
1
10
130.835646456434
20
-9.87051410058643
30
0
41
1
10
130.909211102078
20
-10.0711473584846
30
0
41
1
10
131.056340393365
20
-10.4121600529695
30
0
41
1
10
131.129905039008
20
-10.5525538880167
30
0
41
1
10
131.277034330295
20
-10.7749987874533
30
0
41
1
10
131.350598975939
20
-10.8570721627407
30
0
41
1
10
131.497728267226
20
-10.9672244640374
30
0
41
1
10
131.571292912869
20
-10.9953286241842
30
0
41
1
10
131.663248719923
20
-11.0004954798974
30
0
41
1
10
131.681639881334
20
-11.0000491894357
30
0
41
1
10
131.718422204156
20
-10.9961517102759
30
0
41
1
10
131.736813365567
20
-10.9926922822778
30
0
41
1
10
131.791986849799
20
-10.9776323769288
30
0
41
1
10
131.828769172621
20
-10.9613475165601
30
0
41
1
10
131.939116141086
20
-10.8926492673888
30
0
41
1
10
132.01268078673
20
-10.8203289903305
30
0
41
1
10
132.159810078017
20
-10.6179923093805
30
0
41
1
10
132.23337472366
20
-10.4879527330798
30
0
41
1
10
132.380504014947
20
-10.1677811414173
30
0
41
1
10
132.45406866059
20
-9.97763300228021
30
0
41
1
10
132.601197951877
20
-9.53776450507735
30
0
41
1
10
132.674762597521
20
-9.28803962044631
30
0
41
1
10
132.821891888808
20
-8.73278064894041
30
0
41
1
10
132.895456534451
20
-8.42725619190747
30
0
41
1
10
133.042585825738
20
-7.76733460271603
30
0
41
1
10
133.116150471381
20
-7.41296063361054
30
0
41
1
10
133.263279762668
20
-6.66495232909821
30
0
41
1
10
133.336844408312
20
-6.27135074752127
30
0
41
1
10
133.483973699599
20
-5.45631834117941
30
0
41
1
10
133.557538345242
20
-5.03492371376362
30
0
41
1
10
133.704667636529
20
-4.17649570424408
30
0
41
1
10
133.778232282172
20
-3.73949551365425
30
0
41
1
10
133.925361573459
20
-2.86174098315806
30
0
41
1
10
133.998926219103
20
-2.42101190823689
30
0
41
1
10
134.14605551039
20
-1.54648443734337
30
0
41
1
10
134.219620156033
20
-1.11270101349561
30
0
41
1
10
134.329967124498
20
-0.473880008334305
30
0
41
1
10
134.36674944732
20
-0.262899887072933
30
0
41
1
10
134.412727350847
20
-0.0021948799731888
30
0
41
1
10
134.421922931553
20
0.0497868552030809
30
0
41
1
10
134.440314092963
20
0.154251173121025
30
0
41
1
10
134.46790083508
20
0.311393497151045
30
0
41
1
10
134.495487577196
20
0.469812959641359
30
0
41
1
10
134.58744338425
20
1.00042794669724
30
0
41
1
10
134.661008029894
20
1.43315969343692
30
0
41
1
10
134.808137321181
20
2.30643166921709
30
0
41
1
10
134.881701966824
20
2.74695784465055
30
0
41
1
10
135.028831258111
20
3.62529225987311
30
0
41
1
10
135.102395903755
20
4.06307607499446
30
0
41
1
10
135.249525195042
20
4.9241300009655
30
0
41
1
10
135.323089840685
20
5.34736744674748
30
0
41
1
10
135.470219131972
20
6.16713087640866
30
0
41
1
10
135.543783777615
20
6.56362067920711
30
0
41
1
10
135.690913068902
20
7.31834245121013
30
0
41
1
10
135.764477714546
20
7.67654110477301
30
0
41
1
10
135.911607005833
20
8.34485372659657
30
0
41
1
10
135.985171651476
20
8.65494349896935
30
0
41
1
10
136.132300942763
20
9.21981690925546
30
0
41
1
10
136.205865588406
20
9.47458966565443
30
0
41
1
10
136.352994879693
20
9.92475271241892
30
0
41
1
10
136.426559525337
20
10.1201463604853
30
0
41
1
10
136.573688816624
20
10.4507330975592
30
0
41
1
10
136.647253462267
20
10.5859414649803
30
0
41
1
10
136.794382753554
20
10.7983065475561
30
0
41
1
10
136.867947399197
20
10.8754860235988
30
0
41
1
10
137.015076690484
20
10.9763201157634
30
0
41
1
10
137.088641336128
20
11
30
0
41
1
10
137.162205981771
20
11
30
0
0
SPLINE
5
F7
100
AcDbEntity
8
1
62
256
6
ByLayer
370
13
48
1
60
0
100
AcDbSpline
70
4
71
3
72
43
73
39
40
0
40
0
40
0
40
0
40
0.0625
40
0.0625
40
0.125
40
0.125
40
0.1875
40
0.1875
40
0.25
40
0.25
40
0.3125
40
0.3125
40
0.375
40
0.375
40
0.4375
40
0.4375
40
0.5
40
0.5
40
0.5625
40
0.5625
40
0.59375
40
0.59375
40
0.6015625
40
0.6015625
40
0.609375
40
0.625
40
0.625
40
0.6875
40
0.6875
40
0.75
40
0.75
40
0.8125
40
0.8125
40
0.875
40
0.875
40
0.9375
40
0.9375
40
1
40
1
40
1
40
1
41
1
10
136.492948785381
20
11
30
0
41
1
10
136.588852507
20
11
30
0
41
1
10
136.684756228619
20
10.9596855222101
30
0
41
1
10
136.876563671856
20
10.7853505914125
30
0
41
1
10
136.972467393474
20
10.6512365567958
30
0
41
1
10
137.164274836711
20
10.2814097422724
30
0
41
1
10
137.26017855833
20
10.0456267506323
30
0
41
1
10
137.451986001567
20
9.47250579064524
30
0
41
1
10
137.547889723186
20
9.13515100692086
30
0
41
1
10
137.739697166423
20
8.36828230074872
30
0
41
1
10
137.835600888041
20
7.93882064992656
30
0
41
1
10
138.027408331278
20
7.0059928064542
30
0
41
1
10
138.123312052897
20
6.50273743663277
30
0
41
1
10
138.315119496134
20
5.44692089804295
30
0
41
1
10
138.411023217752
20
4.89449506103293
30
0
41
1
10
138.602830660989
20
3.76744050680571
30
0
41
1
10
138.698734382608
20
3.19293112363292
30
0
41
1
10
138.890541825845
20
2.0473440193027
30
0
41
1
10
138.986445547464
20
1.47634177092539
30
0
41
1
10
139.130301129892
20
0.638278076245513
30
0
41
1
10
139.178252990701
20
0.361954914249708
30
0
41
1
10
139.238192816712
20
0.0216410800441338
30
0
41
1
10
139.250180781915
20
-0.0460749769051461
30
0
41
1
10
139.274156712319
20
-0.182321674162608
30
0
41
1
10
139.310120607926
20
-0.38744673072506
30
0
41
1
10
139.346084503533
20
-0.594702393770632
30
0
41
1
10
139.465964155556
20
-1.28963561233451
30
0
41
1
10
139.561867877175
20
-1.85886228007038
30
0
41
1
10
139.753675320412
20
-3.0034744640169
30
0
41
1
10
139.849579042031
20
-3.57879011925465
30
0
41
1
10
140.041386485268
20
-4.71040744331083
30
0
41
1
10
140.137290206886
20
-5.26659360225858
30
0
41
1
10
140.329097650123
20
-6.33286552372417
30
0
41
1
10
140.425001371742
20
-6.84281581872736
30
0
41
1
10
140.616808814979
20
-7.79150048539151
30
0
41
1
10
140.712712536598
20
-8.23011937369441
30
0
41
1
10
140.904519979835
20
-9.01692145068046
30
0
41
1
10
141.000423701453
20
-9.3650448977516
30
0
41
1
10
141.096327423072
20
-9.66266458933359
30
0
0
SPLINE
5
F8
100
AcDbEntity
8
1
62
256
6
ByLayer
370
13
48
1
60
0
100
AcDbSpline
70
4
71
3
72
77
73
73
40
0
40
0
40
0
40
0
40
0.0312500000000006
40
0.0312500000000006
40
0.0625000000000011
40
0.0625000000000011
40
0.0937500000000017
40
0.0937500000000017
40
0.125000000000002
40
0.125000000000002
40
0.156250000000003
40
0.156250000000003
40
0.164062500000003
40
0.164062500000003
40
0.171875000000003
40
0.187500000000003
40
0.187500000000003
40
0.218750000000004
40
0.218750000000004
40
0.250000000000004
40
0.250000000000004
40
0.281250000000005
40
0.281250000000005
40
0.312500000000005
40
0.312500000000005
40
0.343750000000006
40
0.343750000000006
40
0.375000000000006
40
0.375000000000006
40
0.406250000000007
40
0.406250000000007
40
0.437500000000008
40
0.437500000000008
40
0.468750000000008
40
0.468750000000008
40
0.500000000000009
40
0.500000000000009
40
0.53125000000001
40
0.53125000000001
40
0.56250000000001
40
0.56250000000001
40
0.578125000000011
40
0.578125000000011
40
0.58593750000001
40
0.58593750000001
40
0.59375000000001
40
0.59375000000001
40
0.625000000000009
40
0.625000000000009
40
0.656250000000009
40
0.656250000000009
40
0.687500000000008
40
0.687500000000008
40
0.718750000000007
40
0.718750000000007
40
0.750000000000006
40
0.750000000000006
40
0.781250000000005
40
0.781250000000005
40
0.812500000000005
40
0.812500000000005
40
0.843750000000004
40
0.843750000000004
40
0.875000000000003
40
0.875000000000003
40
0.906250000000002
40
0.906250000000002
40
0.937500000000002
40
0.937500000000002
40
0.968750000000001
40
0.968750000000001
40
1
40
1
40
1
40
1
41
1
10
130.1
20
-9.05548051550034
30
0
41
1
10
130.168442090968
20
-9.3109589460424
30
0
41
1
10
130.236884181935
20
-9.54217442431107
30
0
41
1
10
130.37376836387
20
-9.95309297090358
30
0
41
1
10
130.442210454837
20
-10.1327990645712
30
0
41
1
10
130.579094636773
20
-10.4401348064372
30
0
41
1
10
130.64753672774
20
-10.5677751394561
30
0
41
1
10
130.784420909675
20
-10.7726370413455
30
0
41
1
10
130.852863000643
20
-10.849874257321
30
0
41
1
10
130.989747182578
20
-10.9574031311035
30
0
41
1
10
131.058189273545
20
-10.98771237423
30
0
41
1
10
131.143741887254
20
-10.9992445382296
30
0
41
1
10
131.160852409997
20
-11.0002366122552
30
0
41
1
10
131.19507345548
20
-10.9996691612742
30
0
41
1
10
131.246405023706
20
-10.9949694647332
30
0
41
1
10
131.297736591932
20
-10.9783477042869
30
0
41
1
10
131.400399728383
20
-10.9282802759171
30
0
41
1
10
131.46884181935
20
-10.8724268492715
30
0
41
1
10
131.605726001285
20
-10.7116840395736
30
0
41
1
10
131.674168092253
20
-10.6067777841411
30
0
41
1
10
131.811052274188
20
-10.3453987227012
30
0
41
1
10
131.879494365155
20
-10.1889126536708
30
0
41
1
10
132.01637854709
20
-9.82389737419092
30
0
41
1
10
132.084820638058
20
-9.61536145581587
30
0
41
1
10
132.221704819993
20
-9.14813456905006
30
0
41
1
10
132.29014691096
20
-8.88944559632813
30
0
41
1
10
132.427031092896
20
-8.32624322088643
30
0
41
1
10
132.495473183863
20
-8.02174110435794
30
0
41
1
10
132.632357365798
20
-7.37348683640903
30
0
41
1
10
132.700799456766
20
-7.02975391747719
30
0
41
1
10
132.8376836387
20
-6.31139132141135
30
0
41
1
10
132.906125729668
20
-5.9367857885164
30
0
41
1
10
133.043009911603
20
-5.16614632928673
30
0
41
1
10
133.111452002571
20
-4.77013753436592
30
0
41
1
10
133.248336184506
20
-3.96652022578556
30
0
41
1
10
133.316778275473
20
-3.55893406353576
30
0
41
1
10
133.453662457408
20
-2.74162471849331
30
0
41
1
10
133.522104548376
20
-2.33191838461946
30
0
41
1
10
133.658988730311
20
-1.51886808553721
30
0
41
1
10
133.727430821278
20
-1.11553422719942
30
0
41
1
10
133.83009395773
20
-0.520651474845295
30
0
41
1
10
133.864315003213
20
-0.32403195046308
30
0
41
1
10
133.915646571439
20
-0.0321723027719543
30
0
41
1
10
133.932757094181
20
0.064407262720465
30
0
41
1
10
133.966978139665
20
0.259205513698163
30
0
41
1
10
133.984088662406
20
0.357110647159942
30
0
41
1
10
134.069641276116
20
0.848940097362316
30
0
41
1
10
134.138083367083
20
1.24983609161401
30
0
41
1
10
134.274967549018
20
2.05972113082868
30
0
41
1
10
134.343409639986
20
2.46870158677589
30
0
41
1
10
134.480293821921
20
3.28654661432819
30
0
41
1
10
134.548735912888
20
3.69539578280191
30
0
41
1
10
134.685620094823
20
4.50369592517472
30
0
41
1
10
134.754062185791
20
4.90312558463191
30
0
41
1
10
134.890946367726
20
5.68278680988118
30
0
41
1
10
134.959388458694
20
6.06299356204516
30
0
41
1
10
135.096272640629
20
6.7945942382207
30
0
41
1
10
135.164714731596
20
7.14596344827149
30
0
41
1
10
135.301598913531
20
7.81121725017482
30
0
41
1
10
135.370041004499
20
8.12508120840408
30
0
41
1
10
135.506925186434
20
8.70829125262713
30
0
41
1
10
135.575367277401
20
8.97762410189239
30
0
41
1
10
135.712251459336
20
9.46689704514841
30
0
41
1
10
135.780693550304
20
9.68683306273766
30
0
41
1
10
135.917577732239
20
10.0748606127837
30
0
41
1
10
135.986019823206
20
10.242957059273
30
0
41
1
10
136.122904005141
20
10.5272618380855
30
0
41
1
10
136.191346096109
20
10.6434822163007
30
0
41
1
10
136.328230278044
20
10.8261363770299
30
0
41
1
10
136.396672369011
20
10.8925864944993
30
0
41
1
10
136.533556550946
20
10.9795094886065
30
0
41
1
10
136.601998641914
20
11
30
0
41
1
10
136.670440732881
20
11
30
0
0
SPLINE
5
F9
100
AcDbEntity
8
1
62
256
6
ByLayer
370
13
48
1
60
0
100
AcDbSpline
70
4
71
3
72
64
73
60
40
0
40
0
40
0
40
0
40
0.0625000000000004
40
0.0625000000000004
40
0.125000000000001
40
0.125000000000001
40
0.156250000000001
40
0.156250000000001
40
0.187500000000001
40
0.187500000000001
40
0.218750000000001
40
0.218750000000001
40
0.250000000000002
40
0.250000000000002
40
0.281250000000002
40
0.281250000000002
40
0.312500000000002
40
0.312500000000002
40
0.343750000000002
40
0.343750000000002
40
0.375000000000002
40
0.375000000000002
40
0.406250000000002
40
0.406250000000002
40
0.437500000000003
40
0.437500000000003
40
0.500000000000003
40
0.500000000000003
40
0.531250000000003
40
0.531250000000003
40
0.546875000000004
40
0.546875000000004
40
0.562500000000004
40
0.562500000000004
40
0.625000000000004
40
0.625000000000004
40
0.656250000000003
40
0.656250000000003
40
0.687500000000003
40
0.687500000000003
40
0.718750000000003
40
0.718750000000003
40
0.750000000000003
40
0.750000000000003
40
0.781250000000002
40
0.781250000000002
40
0.812500000000002
40
0.812500000000002
40
0.843750000000002
40
0.843750000000002
40
0.875000000000001
40
0.875000000000001
40
0.906250000000001
40
0.906250000000001
40
0.937500000000001
40
0.937500000000001
40
0.96875
40
0.96875
40
1
40
1
40
1
40
1
41
1
10
136.001183536492
20
11
30
0
41
1
10
136.107332367462
20
11
30
0
41
1
10
136.213481198433
20
10.9505623098751
30
0
41
1
10
136.425778860374
20
10.735393729141
30
0
41
1
10
136.531927691344
20
10.5695095852368
30
0
41
1
10
136.6911509378
20
10.2265444722934
30
0
41
1
10
136.744225353285
20
10.0966147297952
30
0
41
1
10
136.850374184255
20
9.80555170872097
30
0
41
1
10
136.90344859974
20
9.64441675980953
30
0
41
1
10
137.009597430711
20
9.29181199425889
30
0
41
1
10
137.062671846196
20
9.10034240823353
30
0
41
1
10
137.168820677166
20
8.68882239904275
30
0
41
1
10
137.221895092652
20
8.46877424868322
30
0
41
1
10
137.328043923622
20
8.00269927196632
30
0
41
1
10
137.381118339107
20
7.75667664860592
30
0
41
1
10
137.487267170078
20
7.24200518760625
30
0
41
1
10
137.540341585563
20
6.97336211920981
30
0
41
1
10
137.646490416533
20
6.41740129732855
30
0
41
1
10
137.699564832018
20
6.13009031604065
30
0
41
1
10
137.805713662989
20
5.54115378919889
30
0
41
1
10
137.858788078474
20
5.23953534881426
30
0
41
1
10
137.964936909445
20
4.62654178699165
30
0
41
1
10
138.01801132493
20
4.31517343695003
30
0
41
1
10
138.1241601559
20
3.68722500181803
30
0
41
1
10
138.177234571385
20
3.3706507914475
30
0
41
1
10
138.336457817841
20
2.41962094034625
30
0
41
1
10
138.442606648811
20
1.78411138347965
30
0
41
1
10
138.601829895267
20
0.851020804259207
30
0
41
1
10
138.654904310752
20
0.543294252588964
30
0
41
1
10
138.73451593398
20
0.0888683627585465
30
0
41
1
10
138.761053141723
20
-0.0607093720925036
30
0
41
1
10
138.814127557208
20
-0.36336250496791
30
0
41
1
10
138.840664764951
20
-0.515888928847517
30
0
41
1
10
138.973350803663
20
-1.28365029155978
30
0
41
1
10
139.079499634634
20
-1.91460362184492
30
0
41
1
10
139.23872288109
20
-2.86532676588695
30
0
41
1
10
139.291797296575
20
-3.18288183882834
30
0
41
1
10
139.397946127545
20
-3.8151325432967
30
0
41
1
10
139.45102054303
20
-4.1298229473947
30
0
41
1
10
139.557169374001
20
-4.75188832416117
30
0
41
1
10
139.610243789486
20
-5.05925694149551
30
0
41
1
10
139.716392620456
20
-5.66210360551787
30
0
41
1
10
139.769467035941
20
-5.95757464583951
30
0
41
1
10
139.875615866912
20
-6.53213433175858
30
0
41
1
10
139.928690282397
20
-6.81121594249927
30
0
41
1
10
140.034839113368
20
-7.34880141826412
30
0
41
1
10
140.087913528853
20
-7.60729890190004
30
0
41
1
10
140.194062359823
20
-8.10002116175741
30
0
41
1
10
140.247136775308
20
-8.33424084327652
30
0
41
1
10
140.353285606279
20
-8.77538744151221
30
0
41
1
10
140.406360021764
20
-8.98231102956626
30
0
41
1
10
140.512508852734
20
-9.36664831946416
30
0
41
1
10
140.56558326822
20
-9.54406070802463
30
0
41
1
10
140.67173209919
20
-9.86803177337725
30
0
41
1
10
140.724806514675
20
-10.0145911425377
30
0
41
1
10
140.830955345646
20
-10.2763946699434
30
0
41
1
10
140.884029761131
20
-10.3916412798035
30
0
41
1
10
140.990178592101
20
-10.5911917928648
30
0
41
1
10
141.043253007586
20
-10.6754994876561
30
0
41
1
10
141.096327423072
20
-10.7448913770932
30
0
0
SPLINE
5
FA
100
AcDbEntity
8
1
62
256
6
ByLayer
370
13
48
1
60
0
100
AcDbSpline
70
4
71
3
72
77
73
73
40
0
40
0
40
0
40
0
40
0.03125
40
0.03125
40
0.0625
40
0.0625
40
0.0937499999999999
40
0.0937499999999999
40
0.1015625
40
0.1015625
40
0.109375
40
0.125
40
0.125
40
0.15625
40
0.15625
40
0.1875
40
0.1875
40
0.21875
40
0.21875
40
0.25
40
0.25
40
0.28125
40
0.28125
40
0.3125
40
0.3125
40
0.34375
40
0.34375
40
0.375
40
0.375
40
0.40625
40
0.40625
40
0.4375
40
0.4375
40
0.46875
40
0.46875
40
0.5
40
0.5
40
0.53125
40
0.53125
40
0.546875
40
0.546875
40
0.5546875
40
0.5546875
40
0.5625
40
0.5625
40
0.59375
40
0.59375
40
0.625
40
0.625
40
0.65625
40
0.65625
40
0.6875
40
0.6875
40
0.71875
40
0.71875
40
0.75
40
0.75
40
0.781249999999999
40
0.781249999999999
40
0.8125
40
0.8125
40
0.84375
40
0.84375
40
0.875
40
0.875
40
0.90625
40
0.90625
40
0.9375
40
0.9375
40
0.96875
40
0.96875
40
1
40
1
40
1
40
1
41
1
10
130.1
20
-10.4564626936645
30
0
41
1
10
130.163319536292
20
-10.5797302386537
30
0
41
1
10
130.226639072583
20
-10.6809067067535
30
0
41
1
10
130.353278145166
20
-10.8409280715796
30
0
41
1
10
130.416597681458
20
-10.8997842262834
30
0
41
1
10
130.543236754041
20
-10.9782481342773
30
0
41
1
10
130.606556290333
20
-10.997867849731
30
0
41
1
10
130.685705710697
20
-11.0003267556523
30
0
41
1
10
130.70153559477
20
-10.9997258066322
30
0
41
1
10
130.733195362916
20
-10.9962895674501
30
0
41
1
10
130.780685015135
20
-10.9877766339299
30
0
41
1
10
130.828174667353
20
-10.968896095335
30
0
41
1
10
130.92315397179
20
-10.9165931625189
30
0
41
1
10
130.986473508082
20
-10.8623030843738
30
0
41
1
10
131.113112580665
20
-10.7117053741802
30
0
41
1
10
131.176432116957
20
-10.6153863227575
30
0
41
1
10
131.30307118954
20
-10.3787052712827
30
0
41
1
10
131.366390725832
20
-10.2383340826779
30
0
41
1
10
131.493029798415
20
-9.91301247479714
30
0
41
1
10
131.556349334707
20
-9.72805682669099
30
0
41
1
10
131.68298840729
20
-9.31474196687589
30
0
41
1
10
131.746307943581
20
-9.08638282865147
30
0
41
1
10
131.872947016164
20
-8.58923057850359
30
0
41
1
10
131.936266552456
20
-8.32044340036776
30
0
41
1
10
132.062905625039
20
-7.74710972150524
30
0
41
1
10
132.126225161331
20
-7.44257454856648
30
0
41
1
10
132.252864233914
20
-6.80386281310876
30
0
41
1
10
132.316183770205
20
-6.46970151251949
30
0
41
1
10
132.442822842789
20
-5.77889334381914
30
0
41
1
10
132.50614237908
20
-5.42226353345924
30
0
41
1
10
132.632781451663
20
-4.69421849172787
30
0
41
1
10
132.696100987955
20
-4.32281979565278
30
0
41
1
10
132.822740060538
20
-3.57296860224372
30
0
41
1
10
132.88605959683
20
-3.19453012993623
30
0
41
1
10
133.012698669413
20
-2.43789683920844
30
0
41
1
10
133.076018205704
20
-2.05971223892985
30
0
41
1
10
133.202657278287
20
-1.31008202879141
30
0
41
1
10
133.265976814579
20
-0.938642352070957
30
0
41
1
10
133.360956119016
20
-0.390624456928777
30
0
41
1
10
133.392615887162
20
-0.209466735449894
30
0
41
1
10
133.440105539381
20
0.059568294960286
30
0
41
1
10
133.455935423454
20
0.149331842032041
30
0
41
1
10
133.4875951916
20
0.330042795258322
30
0
41
1
10
133.503425075673
20
0.42082128961755
30
0
41
1
10
133.582574496037
20
0.876646863173931
30
0
41
1
10
133.645894032329
20
1.24753738935288
30
0
41
1
10
133.772533104912
20
1.99640323227476
30
0
41
1
10
133.835852641203
20
2.37437285428163
30
0
41
1
10
133.962491713787
20
3.1309634500326
30
0
41
1
10
134.025811250078
20
3.50957444044047
30
0
41
1
10
134.152450322661
20
4.26019429971814
30
0
41
1
10
134.215769858953
20
4.6321893299413
30
0
41
1
10
134.342408931536
20
5.36186357976374
30
0
41
1
10
134.405728467827
20
5.71952635728152
30
0
41
1
10
134.532367540411
20
6.41282209068572
30
0
41
1
10
134.595687076702
20
6.74843795772472
30
0
41
1
10
134.722326149285
20
7.39043669454745
30
0
41
1
10
134.785645685577
20
7.69680414122112
30
0
41
1
10
134.91228475816
20
8.27411051205027
30
0
41
1
10
134.975604294452
20
8.5450378413498
30
0
41
1
10
135.102243367035
20
9.04668939848895
30
0
41
1
10
135.165562903327
20
9.27740736825737
30
0
41
1
10
135.29220197591
20
9.69555941782497
30
0
41
1
10
135.355521512201
20
9.88299310188793
30
0
41
1
10
135.482160584784
20
10.2132904228546
30
0
41
1
10
135.545480121076
20
10.3561590215312
30
0
41
1
10
135.672119193659
20
10.5977632749204
30
0
41
1
10
135.735438729951
20
10.6965079405351
30
0
41
1
10
135.862077802534
20
10.851809409736
30
0
41
1
10
135.925397338825
20
10.9083775547303
30
0
41
1
10
136.052036411409
20
10.9824668720813
30
0
41
1
10
136.1153559477
20
11
30
0
41
1
10
136.178675483992
20
11
30
0
0
SPLINE
5
FB
100
AcDbEntity
8
1
62
256
6
ByLayer
370
13
48
1
60
0
100
AcDbSpline
70
4
71
3
72
74
73
70
40
0
40
0
40
0
40
0
40
0.0312499999999998
40
0.0312499999999998
40
0.0624999999999995
40
0.0624999999999995
40
0.0937499999999993
40
0.0937499999999993
40
0.124999999999999
40
0.124999999999999
40
0.156249999999999
40
0.156249999999999
40
0.187499999999999
40
0.187499999999999
40
0.218749999999998
40
0.218749999999998
40
0.249999999999998
40
0.249999999999998
40
0.281249999999998
40
0.281249999999998
40
0.312499999999998
40
0.312499999999998
40
0.343749999999998
40
0.343749999999998
40
0.374999999999997
40
0.374999999999997
40
0.406249999999997
40
0.406249999999997
40
0.437499999999997
40
0.437499999999997
40
0.468749999999997
40
0.468749999999997
40
0.484374999999997
40
0.484374999999997
40
0.499999999999997
40
0.499999999999997
40
0.531249999999997
40
0.531249999999997
40
0.562499999999998
40
0.562499999999998
40
0.593749999999998
40
0.593749999999998
40
0.624999999999998
40
0.624999999999998
40
0.656249999999998
40
0.656249999999998
40
0.687499999999998
40
0.687499999999998
40
0.718749999999999
40
0.718749999999999
40
0.749999999999999
40
0.749999999999999
40
0.781249999999999
40
0.781249999999999
40
0.812499999999999
40
0.812499999999999
40
0.843749999999999
40
0.843749999999999
40
0.875
40
0.875
40
0.90625
40
0.90625
40
0.9375
40
0.9375
40
0.96875
40
0.96875
40
0.984375
40
0.984375
40
1
40
1
40
1
40
1
41
1
10
135.509418287602
20
11
30
0
41
1
10
135.567615257763
20
11
30
0
41
1
10
135.625812227925
20
10.9851927421736
30
0
41
1
10
135.742206168247
20
10.9228700647421
30
0
41
1
10
135.800403138408
20
10.8753468086107
30
0
41
1
10
135.91679707873
20
10.7450605280864
30
0
41
1
10
135.974994048891
20
10.6622899189211
30
0
41
1
10
136.091387989214
20
10.4597885327957
30
0
41
1
10
136.149584959375
20
10.3400513584909
30
0
41
1
10
136.265978899697
20
10.0629211566356
30
0
41
1
10
136.324175869858
20
9.90552389540156
30
0
41
1
10
136.440569810181
20
9.55356578042361
30
0
41
1
10
136.498766780342
20
9.35900368596884
30
0
41
1
10
136.615160720664
20
8.93448122049787
30
0
41
1
10
136.673357690825
20
8.70452308729992
30
0
41
1
10
136.789751631148
20
8.21223343044679
30
0
41
1
10
136.847948601309
20
7.9499076171812
30
0
41
1
10
136.964342541631
20
7.39704728614899
30
0
41
1
10
137.022539511792
20
7.10652140889957
30
0
41
1
10
137.138933452114
20
6.50234755107562
30
0
41
1
10
137.197130422275
20
6.18871014516344
30
0
41
1
10
137.313524362598
20
5.54402927035622
30
0
41
1
10
137.371721332759
20
5.21299705391658
30
0
41
1
10
137.488115273081
20
4.53953959148285
30
0
41
1
10
137.546312243242
20
4.19712500650684
30
0
41
1
10
137.662706183564
20
3.5068792821819
30
0
41
1
10
137.720903153726
20
3.15905716031648
30
0
41
1
10
137.837297094048
20
2.46363728845577
30
0
41
1
10
137.895494064209
20
2.11604623065747
30
0
41
1
10
138.011888004531
20
1.42615594668931
30
0
41
1
10
138.070084974692
20
1.08386082560096
30
0
41
1
10
138.157380429934
20
0.577635565614031
30
0
41
1
10
138.186478915015
20
0.410090598563869
30
0
41
1
10
138.244675885176
20
0.077858676812383
30
0
41
1
10
138.273774370256
20
-0.0860900259416439
30
0
41
1
10
138.361069825498
20
-0.584579924949537
30
0
41
1
10
138.419266795659
20
-0.92263362868789
30
0
41
1
10
138.535660735982
20
-1.60626734553853
30
0
41
1
10
138.593857706143
20
-1.95184450379296
30
0
41
1
10
138.710251646465
20
-2.64580930289651
30
0
41
1
10
138.768448616626
20
-2.9941915161638
30
0
41
1
10
138.884842556948
20
-3.68838724603853
30
0
41
1
10
138.94303952711
20
-4.03419282945609
30
0
41
1
10
139.059433467432
20
-4.71739381945156
30
0
41
1
10
139.117630437593
20
-5.05477926224791
30
0
41
1
10
139.234024377915
20
-5.71510692174002
30
0
41
1
10
139.292221348076
20
-6.03803802695293
30
0
41
1
10
139.408615288399
20
-6.6635523403626
30
0
41
1
10
139.46681225856
20
-6.96612447688483
30
0
41
1
10
139.583206198882
20
-7.54548216054971
30
0
41
1
10
139.641403169043
20
-7.82225797002087
30
0
41
1
10
139.757797109366
20
-8.34536746553471
30
0
41
1
10
139.815994079527
20
-8.5916939010643
30
0
41
1
10
139.932388019849
20
-9.05029134060482
30
0
41
1
10
139.99058499001
20
-9.26255836485612
30
0
41
1
10
140.106978930332
20
-9.65063696883604
30
0
41
1
10
140.165175900494
20
-9.82644811151459
30
0
41
1
10
140.281569840816
20
-10.1404950275513
30
0
41
1
10
140.339766810977
20
-10.2787336495779
30
0
41
1
10
140.456160751299
20
-10.5177580376767
30
0
41
1
10
140.51435772146
20
-10.6185492548635
30
0
41
1
10
140.630751661783
20
-10.7839162938899
30
0
41
1
10
140.688948631944
20
-10.8484992400294
30
0
41
1
10
140.805342572266
20
-10.9436097487417
30
0
41
1
10
140.863539542427
20
-10.9741451322964
30
0
41
1
10
140.950834997669
20
-10.9965476288409
30
0
41
1
10
140.979933482749
20
-11.0001198179172
30
0
41
1
10
141.038130452911
20
-10.9998740600068
30
0
41
1
10
141.067228937991
20
-10.9960494751343
30
0
41
1
10
141.096327423072
20
-10.9883230236013
30
0
0
SPLINE
5
FC
100
AcDbEntity
8
1
62
256
6
ByLayer
370
13
48
1
60
0
100
AcDbSpline
70
4
71
3
72
74
73
70
40
0
40
0
40
0
40
0
40
0.015625
40
0.015625
40
0.03125
40
0.03125
40
0.0625000000000004
40
0.0625000000000004
40
0.0937500000000009
40
0.0937500000000009
40
0.125000000000001
40
0.125000000000001
40
0.156250000000002
40
0.156250000000002
40
0.187500000000002
40
0.187500000000002
40
0.218750000000003
40
0.218750000000003
40
0.250000000000003
40
0.250000000000003
40
0.281250000000004
40
0.281250000000004
40
0.312500000000004
40
0.312500000000004
40
0.343750000000004
40
0.343750000000004
40
0.375000000000005
40
0.375000000000005
40
0.406250000000005
40
0.406250000000005
40
0.437500000000006
40
0.437500000000006
40
0.468750000000006
40
0.468750000000006
40
0.500000000000007
40
0.500000000000007
40
0.515625000000007
40
0.515625000000007
40
0.531250000000007
40
0.531250000000007
40
0.562500000000006
40
0.562500000000006
40
0.593750000000006
40
0.593750000000006
40
0.625000000000005
40
0.625000000000005
40
0.656250000000005
40
0.656250000000005
40
0.687500000000004
40
0.687500000000004
40
0.718750000000004
40
0.718750000000004
40
0.750000000000004
40
0.750000000000004
40
0.781250000000003
40
0.781250000000003
40
0.812500000000003
40
0.812500000000003
40
0.843750000000002
40
0.843750000000002
40
0.875000000000002
40
0.875000000000002
40
0.906250000000001
40
0.906250000000001
40
0.937500000000001
40
0.937500000000001
40
0.96875
40
0.96875
40
1
40
1
40
1
40
1
41
1
10
130.1
20
-10.9883227316165
30
0
41
1
10
130.129098490808
20
-10.9960492829442
30
0
41
1
10
130.158196981616
20
-10.999873963634
30
0
41
1
10
130.216393963231
20
-11.0001199051445
30
0
41
1
10
130.245492454039
20
-10.9965478086417
30
0
41
1
10
130.332787926462
20
-10.9741455928248
30
0
41
1
10
130.390984908078
20
-10.943610399798
30
0
41
1
10
130.507378871309
20
-10.8485002737645
30
0
41
1
10
130.565575852925
20
-10.783917519767
30
0
41
1
10
130.681969816157
20
-10.6185508606634
30
0
41
1
10
130.740166797772
20
-10.5177598312438
30
0
41
1
10
130.856560761003
20
-10.278735807831
30
0
41
1
10
130.914757742619
20
-10.1404973627059
30
0
41
1
10
131.03115170585
20
-9.82645078310324
30
0
41
1
10
131.089348687466
20
-9.65063979993838
30
0
41
1
10
131.205742650697
20
-9.26256149161168
30
0
41
1
10
131.263939632313
20
-9.05029460348243
30
0
41
1
10
131.380333595544
20
-8.59169740787664
30
0
41
1
10
131.43853057716
20
-8.34537108014641
30
0
41
1
10
131.554924540391
20
-7.82226176852913
30
0
41
1
10
131.613121522007
20
-7.54548603514829
30
0
41
1
10
131.729515485238
20
-6.96612847042161
30
0
41
1
10
131.787712466854
20
-6.66355637674792
30
0
41
1
10
131.904106430085
20
-6.03804211620005
30
0
41
1
10
131.962303411701
20
-5.71511102100828
30
0
41
1
10
132.078697374932
20
-5.05478335094594
30
0
41
1
10
132.136894356548
20
-4.71739788757156
30
0
41
1
10
132.253288319779
20
-4.03419682951952
30
0
41
1
10
132.311485301395
20
-3.68839119863972
30
0
41
1
10
132.427879264626
20
-2.99419535168622
30
0
41
1
10
132.486076246242
20
-2.64581306881894
30
0
41
1
10
132.602470209473
20
-1.95184811363865
30
0
41
1
10
132.660667191088
20
-1.60627086892208
30
0
41
1
10
132.77706115432
20
-0.922636967604547
30
0
41
1
10
132.835258135936
20
-0.58458316587263
30
0
41
1
10
132.922553608359
20
-0.0860931149678663
30
0
41
1
10
132.951652099167
20
0.0778556208513805
30
0
41
1
10
133.009849080782
20
0.410087573170216
30
0
41
1
10
133.03894757159
20
0.577632557405082
30
0
41
1
10
133.126243044014
20
1.08385787470536
30
0
41
1
10
133.184440025629
20
1.42615304170894
30
0
41
1
10
133.300833988861
20
2.11604343261175
30
0
41
1
10
133.359030970476
20
2.46363455143248
30
0
41
1
10
133.475424933708
20
3.15905455922689
30
0
41
1
10
133.533621915323
20
3.50687675600344
30
0
41
1
10
133.650015878555
20
4.1971226418585
30
0
41
1
10
133.70821286017
20
4.5395373134495
30
0
41
1
10
133.824606823401
20
5.21299495773442
30
0
41
1
10
133.882803805017
20
5.54402726940233
30
0
41
1
10
133.999197768248
20
6.18870833947466
30
0
41
1
10
134.057394749864
20
6.50234584541258
30
0
41
1
10
134.173788713095
20
7.1065199038475
30
0
41
1
10
134.231985694711
20
7.39704588166936
30
0
41
1
10
134.348379657942
20
7.94990641008431
30
0
41
1
10
134.406576639558
20
8.21223232014773
30
0
41
1
10
134.522970602789
20
8.70452216282536
30
0
41
1
10
134.581167584405
20
8.93448038503982
30
0
41
1
10
134.697561547636
20
9.35900301742191
30
0
41
1
10
134.755758529252
20
9.55356518976484
30
0
41
1
10
134.872152492483
20
9.90552344695797
30
0
41
1
10
134.930349474099
20
10.062920772517
30
0
41
1
10
135.04674343733
20
10.340051088062
30
0
41
1
10
135.104940418946
20
10.4597883117336
30
0
41
1
10
135.221334382177
20
10.6622897812707
30
0
41
1
10
135.279531363793
20
10.7450604244863
30
0
41
1
10
135.395925327024
20
10.8753467583507
30
0
41
1
10
135.45412230864
20
10.9228700337792
30
0
41
1
10
135.570516271871
20
10.9851927363369
30
0
41
1
10
135.628713253487
20
11
30
0
41
1
10
135.686910235102
20
11
30
0
0
SPLINE
5
FD
100
AcDbEntity
8
1
62
256
6
ByLayer
370
13
48
1
60
0
100
AcDbSpline
70
4
71
3
72
78
73
74
40
0
40
0
40
0
40
0
40
0.03125
40
0.03125
40
0.0624999999999999
40
0.0624999999999999
40
0.0937499999999999
40
0.0937499999999999
40
0.125
40
0.125
40
0.15625
40
0.15625
40
0.1875
40
0.1875
40
0.21875
40
0.21875
40
0.25
40
0.25
40
0.28125
40
0.28125
40
0.3125
40
0.3125
40
0.34375
40
0.34375
40
0.375
40
0.375
40
0.40625
40
0.40625
40
0.4375
40
0.4375
40
0.4453125
40
0.4453125
40
0.453125
40
0.453125
40
0.46875
40
0.46875
40
0.499999999999999
40
0.499999999999999
40
0.531249999999999
40
0.531249999999999
40
0.562499999999999
40
0.562499999999999
40
0.593749999999999
40
0.593749999999999
40
0.624999999999999
40
0.624999999999999
40
0.656249999999999
40
0.656249999999999
40
0.687499999999999
40
0.687499999999999
40
0.718749999999999
40
0.718749999999999
40
0.749999999999999
40
0.749999999999999
40
0.781249999999999
40
0.781249999999999
40
0.812499999999999
40
0.812499999999999
40
0.843749999999999
40
0.843749999999999
40
0.874999999999999
40
0.874999999999999
40
0.890624999999999
40
0.890624999999999
40
0.898437499999999
40
0.898437499999999
40
0.906249999999999
40
0.906249999999999
40
0.937499999999999
40
0.937499999999999
40
0.96875
40
0.96875
40
1
40
1
40
1
40
1
41
1
10
135.017653038713
20
11
30
0
41
1
10
135.08097256355
20
11
30
0
41
1
10
135.144292088387
20
10.9824668784353
30
0
41
1
10
135.270931138061
20
10.9083775885846
30
0
41
1
10
135.334250662898
20
10.8518094647475
30
0
41
1
10
135.460889712572
20
10.6965080540878
30
0
41
1
10
135.524209237409
20
10.597763425867
30
0
41
1
10
135.650848287083
20
10.3561592639407
30
0
41
1
10
135.714167811921
20
10.2132907193396
30
0
41
1
10
135.840806861595
20
9.88299352241245
30
0
41
1
10
135.904126386432
20
9.69555990831432
30
0
41
1
10
136.030765436106
20
9.27740801242385
30
0
41
1
10
136.094084960943
20
9.04669012636211
30
0
41
1
10
136.220724010617
20
8.54503874695482
30
0
41
1
10
136.284043535454
20
8.27411151166854
30
0
41
1
10
136.410682585128
20
7.69680533473252
30
0
41
1
10
136.474002109965
20
7.3904379879223
30
0
41
1
10
136.60064115964
20
6.74843945165227
30
0
41
1
10
136.663960684477
20
6.41282368528454
30
0
41
1
10
136.790599734151
20
5.71952814894792
30
0
41
1
10
136.853919258988
20
5.36186546781022
30
0
41
1
10
136.980558308662
20
4.63219140183804
30
0
41
1
10
137.043877833499
20
4.26019645907328
30
0
41
1
10
137.170516883173
20
3.50957676206201
30
0
41
1
10
137.23383640801
20
3.13096584645626
30
0
41
1
10
137.360475457684
20
2.37437538508007
30
0
41
1
10
137.423794982521
20
1.99640582264598
30
0
41
1
10
137.550434032196
20
1.24754008230678
30
0
41
1
10
137.613753557033
20
0.876649599142553
30
0
41
1
10
137.692902963079
20
0.420824068898128
30
0
41
1
10
137.708732844288
20
0.330045582681066
30
0
41
1
10
137.740392606707
20
0.149334644705817
30
0
41
1
10
137.756222487916
20
0.0595710920751173
30
0
41
1
10
137.803712131544
20
-0.209463861369414
30
0
41
1
10
137.835371893962
20
-0.390621532290169
30
0
41
1
10
137.930351181218
20
-0.938639279066479
30
0
41
1
10
137.993670706055
20
-1.31007886127352
30
0
41
1
10
138.120309755729
20
-2.05970889725688
30
0
41
1
10
138.183629280566
20
-2.43789341791157
30
0
41
1
10
138.31026833024
20
-3.19452657060791
30
0
41
1
10
138.373587855078
20
-3.57296498452993
30
0
41
1
10
138.500226904752
20
-4.32281608836772
30
0
41
1
10
138.563546429589
20
-4.69421475328042
30
0
41
1
10
138.690185479263
20
-5.42225976481305
30
0
41
1
10
138.7535050041
20
-5.77888957615707
30
0
41
1
10
138.880144053774
20
-6.46969778214654
30
0
41
1
10
138.943463578611
20
-6.80385911905398
30
0
41
1
10
139.070102628285
20
-7.44257096341173
30
0
41
1
10
139.133422153122
20
-7.74710620893498
30
0
41
1
10
139.260061202797
20
-8.32044006767416
30
0
41
1
10
139.323380727634
20
-8.58922735309315
30
0
41
1
10
139.450019777308
20
-9.0863798485538
30
0
41
1
10
139.513339302145
20
-9.31473912478901
30
0
41
1
10
139.639978351819
20
-9.7280542854304
30
0
41
1
10
139.703297876656
20
-9.91301009632718
30
0
41
1
10
139.82993692633
20
-10.2383320473428
30
0
41
1
10
139.893256451167
20
-10.3787034162659
30
0
41
1
10
140.019895500842
20
-10.6153848381535
30
0
41
1
10
140.083215025679
20
-10.7117040796478
30
0
41
1
10
140.209854075353
20
-10.8623021722094
30
0
41
1
10
140.27317360019
20
-10.9165924426343
30
0
41
1
10
140.368152887445
20
-10.9688956605003
30
0
41
1
10
140.399812649864
20
-10.9814827806934
30
0
41
1
10
140.447302293492
20
-10.9934514800875
30
0
41
1
10
140.463132174701
20
-10.9962894139445
30
0
41
1
10
140.494791937119
20
-10.9997257456774
30
0
41
1
10
140.510621818329
20
-11.0003267402879
30
0
41
1
10
140.589771224375
20
-10.9978680659774
30
0
41
1
10
140.653090749212
20
-10.9782485533664
30
0
41
1
10
140.779729798886
20
-10.8997850846622
30
0
41
1
10
140.843049323723
20
-10.8409291664165
30
0
41
1
10
140.969688373398
20
-10.6809083040649
30
0
41
1
10
141.033007898235
20
-10.5797321019829
30
0
41
1
10
141.096327423072
20
-10.4564648343765
30
0
0
SPLINE
5
FE
100
AcDbEntity
8
1
62
256
6
ByLayer
370
13
48
1
60
0
100
AcDbSpline
70
4
71
3
72
64
73
60
40
0
40
0
40
0
40
0
40
0.03125
40
0.03125
40
0.0625000000000001
40
0.0625000000000001
40
0.0937500000000001
40
0.0937500000000001
40
0.125
40
0.125
40
0.15625
40
0.15625
40
0.1875
40
0.1875
40
0.21875
40
0.21875
40
0.25
40
0.25
40
0.28125
40
0.28125
40
0.3125
40
0.3125
40
0.34375
40
0.34375
40
0.375000000000001
40
0.375000000000001
40
0.437500000000001
40
0.437500000000001
40
0.453125
40
0.453125
40
0.46875
40
0.46875
40
0.5
40
0.5
40
0.5625
40
0.5625
40
0.59375
40
0.59375
40
0.625
40
0.625
40
0.65625
40
0.65625
40
0.6875
40
0.6875
40
0.71875
40
0.71875
40
0.75
40
0.75
40
0.78125
40
0.78125
40
0.8125
40
0.8125
40
0.84375
40
0.84375
40
0.875
40
0.875
40
0.9375
40
0.9375
40
1
40
1
40
1
40
1
41
1
10
130.1
20
-10.7448928148006
30
0
41
1
10
130.15307442694
20
-10.6755011160295
30
0
41
1
10
130.206148853879
20
-10.5911936104246
30
0
41
1
10
130.312297707759
20
-10.3916434674653
30
0
41
1
10
130.365372134699
20
-10.2763970385093
30
0
41
1
10
130.471520988578
20
-10.0145938591816
30
0
41
1
10
130.524595415518
20
-9.86803465718216
30
0
41
1
10
130.630744269397
20
-9.54406390720018
30
0
41
1
10
130.683818696337
20
-9.36665166683659
30
0
41
1
10
130.789967550216
20
-8.98231464978741
30
0
41
1
10
130.843041977156
20
-8.77539118637426
30
0
41
1
10
130.949190831035
20
-8.33424481027205
30
0
41
1
10
131.002265257975
20
-8.10002522623788
30
0
41
1
10
131.108414111855
20
-7.60730313187486
30
0
41
1
10
131.161488538794
20
-7.34880571624515
30
0
41
1
10
131.267637392674
20
-6.81122034613406
30
0
41
1
10
131.320711819613
20
-6.53213877304245
30
0
41
1
10
131.426860673493
20
-5.9575791326503
30
0
41
1
10
131.479935100433
20
-5.66210810021246
30
0
41
1
10
131.586083954312
20
-5.05926142412938
30
0
41
1
10
131.639158381252
20
-4.75189278685988
30
0
41
1
10
131.745307235131
20
-4.12982734545949
30
0
41
1
10
131.798381662071
20
-3.81513689667395
30
0
41
1
10
131.90453051595
20
-3.18288608193919
30
0
41
1
10
131.95760494289
20
-2.86533094343048
30
0
41
1
10
132.116828223709
20
-1.91460757784836
30
0
41
1
10
132.222977077588
20
-1.28365406686646
30
0
41
1
10
132.355663144938
20
-0.515892458869047
30
0
41
1
10
132.382200358408
20
-0.363365984954044
30
0
41
1
10
132.435274785347
20
-0.0607127505520566
30
0
41
1
10
132.461811998817
20
0.0888650129838027
30
0
41
1
10
132.541423639227
20
0.543290948582239
30
0
41
1
10
132.594498066166
20
0.851017537715677
30
0
41
1
10
132.753721346986
20
1.78410825035661
30
0
41
1
10
132.859870200865
20
2.41961792457843
30
0
41
1
10
133.019093481684
20
3.37064798905968
30
0
41
1
10
133.072167908624
20
3.68722227669133
30
0
41
1
10
133.178316762503
20
4.31517087665307
30
0
41
1
10
133.231391189443
20
4.6265393142601
30
0
41
1
10
133.337540043323
20
5.2395330588852
30
0
41
1
10
133.390614470262
20
5.54115159450123
30
0
41
1
10
133.496763324142
20
6.13008831630145
30
0
41
1
10
133.549837751081
20
6.41739939730874
30
0
41
1
10
133.655986604961
20
6.97336041960941
30
0
41
1
10
133.7090610319
20
7.24200358869712
30
0
41
1
10
133.81520988578
20
7.75667524845548
30
0
41
1
10
133.86828431272
20
8.00269796987453
30
0
41
1
10
133.974433166599
20
8.4687731366582
30
0
41
1
10
134.027507593539
20
8.68882137901826
30
0
41
1
10
134.133656447418
20
9.10034156316067
30
0
41
1
10
134.186730874358
20
9.29181123213164
30
0
41
1
10
134.292879728237
20
9.64441615215327
30
0
41
1
10
134.345954155177
20
9.80555117258731
30
0
41
1
10
134.452103009057
20
10.0966143236715
30
0
41
1
10
134.505177435996
20
10.2265441246569
30
0
41
1
10
134.664400716815
20
10.569509392286
30
0
41
1
10
134.770549570695
20
10.7353936112868
30
0
41
1
10
134.982847278454
20
10.9505622884164
30
0
41
1
10
135.088996132333
20
11
30
0
41
1
10
135.195144986213
20
11
30
0
0
SPLINE
5
FF
100
AcDbEntity
8
1
62
256
6
ByLayer
370
13
48
1
60
0
100
AcDbSpline
70
4
71
3
72
78
73
74
40
0
40
0
40
0
40
0
40
0.0312499999999997
40
0.0312499999999997
40
0.0624999999999994
40
0.0624999999999994
40
0.093749999999999
40
0.093749999999999
40
0.124999999999999
40
0.124999999999999
40
0.156249999999998
40
0.156249999999998
40
0.187499999999998
40
0.187499999999998
40
0.218749999999998
40
0.218749999999998
40
0.249999999999998
40
0.249999999999998
40
0.281249999999997
40
0.281249999999997
40
0.312499999999997
40
0.312499999999997
40
0.343749999999997
40
0.343749999999997
40
0.374999999999996
40
0.374999999999996
40
0.406249999999996
40
0.406249999999996
40
0.414062499999996
40
0.414062499999996
40
0.421874999999996
40
0.421874999999996
40
0.437499999999996
40
0.437499999999996
40
0.468749999999996
40
0.468749999999996
40
0.499999999999996
40
0.499999999999996
40
0.531249999999995
40
0.531249999999995
40
0.562499999999995
40
0.562499999999995
40
0.593749999999995
40
0.593749999999995
40
0.624999999999995
40
0.624999999999995
40
0.656249999999995
40
0.656249999999995
40
0.687499999999994
40
0.687499999999994
40
0.718749999999994
40
0.718749999999994
40
0.749999999999994
40
0.749999999999994
40
0.781249999999994
40
0.781249999999994
40
0.812499999999994
40
0.812499999999994
40
0.828124999999993
40
0.828124999999993
40
0.835937499999994
40
0.835937499999994
40
0.843749999999994
40
0.843749999999994
40
0.874999999999995
40
0.874999999999995
40
0.906249999999996
40
0.906249999999996
40
0.937499999999997
40
0.937499999999997
40
0.968749999999999
40
0.968749999999999
40
1
40
1
40
1
40
1
41
1
10
134.525887789823
20
11
30
0
41
1
10
134.594329869336
20
11
30
0
41
1
10
134.662771948849
20
10.9795094954787
30
0
41
1
10
134.799656107875
20
10.8925865312696
30
0
41
1
10
134.868098187388
20
10.8261364368408
30
0
41
1
10
135.004982346414
20
10.6434823399044
30
0
41
1
10
135.073424425927
20
10.527262002454
30
0
41
1
10
135.210308584953
20
10.2429573231371
30
0
41
1
10
135.278750664466
20
10.0748609353858
30
0
41
1
10
135.415634823492
20
9.6868335194217
30
0
41
1
10
135.484076903005
20
9.46689757717499
30
0
41
1
10
135.620961062031
20
8.97762479814071
30
0
41
1
10
135.689403141544
20
8.70829203774335
30
0
41
1
10
135.82628730057
20
8.12508218020236
30
0
41
1
10
135.894729380083
20
7.81121831976759
30
0
41
1
10
136.031613539109
20
7.14596471676094
30
0
41
1
10
136.100055618622
20
6.79459560778818
30
0
41
1
10
136.236939777648
20
6.06299513106416
30
0
41
1
10
136.305381857161
20
5.68278847725017
30
0
41
1
10
136.442266016187
20
4.90312744034557
30
0
41
1
10
136.5107080957
20
4.50369787086512
30
0
41
1
10
136.647592254726
20
3.6953978954387
30
0
41
1
10
136.716034334239
20
3.28654880392514
30
0
41
1
10
136.852918493265
20
2.46870391405437
30
0
41
1
10
136.921360572778
20
2.05972351882789
30
0
41
1
10
137.058244731804
20
1.24983858315659
30
0
41
1
10
137.126686811317
20
0.848942631733991
30
0
41
1
10
137.212239410708
20
0.357113223768636
30
0
41
1
10
137.229349930587
20
0.259208098192545
30
0
41
1
10
137.263570970343
20
0.0644098618722637
30
0
41
1
10
137.280681490222
20
-0.0321696906094076
30
0
41
1
10
137.332013049856
20
-0.324029261769255
30
0
41
1
10
137.366234089613
20
-0.520648736011395
30
0
41
1
10
137.468897208882
20
-1.11553134183438
30
0
41
1
10
137.537339288395
20
-1.51886510765581
30
0
41
1
10
137.674223447421
20
-2.33191523923557
30
0
41
1
10
137.742665526934
20
-2.74162149814896
30
0
41
1
10
137.87954968596
20
-3.55893071818275
30
0
41
1
10
137.947991765473
20
-3.9665168304156
30
0
41
1
10
138.084875924499
20
-4.77013407054906
30
0
41
1
10
138.153318004012
20
-5.16614284707106
30
0
41
1
10
138.290202163038
20
-5.93678230609976
30
0
41
1
10
138.358644242551
20
-6.3113878572166
30
0
41
1
10
138.495528401578
20
-7.0297505288132
30
0
41
1
10
138.56397048109
20
-7.37348350506446
30
0
41
1
10
138.700854640116
20
-8.02173792616884
30
0
41
1
10
138.769296719629
20
-8.32624013852708
30
0
41
1
10
138.906180878656
20
-8.88944274043979
30
0
41
1
10
138.974622958169
20
-9.14813184378099
30
0
41
1
10
139.111507117194
20
-9.61535902018917
30
0
41
1
10
139.179949196708
20
-9.82389509755484
30
0
41
1
10
139.316833355734
20
-10.1889107151522
30
0
41
1
10
139.385275435247
20
-10.3453969632736
30
0
41
1
10
139.522159594273
20
-10.6067763939587
30
0
41
1
10
139.590601673786
20
-10.7116828395135
30
0
41
1
10
139.727485832812
20
-10.8724260316783
30
0
41
1
10
139.795927912325
20
-10.9282796506458
30
0
41
1
10
139.898591031594
20
-10.9783473633342
30
0
41
1
10
139.932812071351
20
-10.9894286310544
30
0
41
1
10
139.984143630985
20
-10.9981021759758
30
0
41
1
10
140.001254150864
20
-10.9996691001259
30
0
41
1
10
140.03547519062
20
-11.000236642916
30
0
41
1
10
140.052585710498
20
-10.9992446153655
30
0
41
1
10
140.13813830989
20
-10.9877126910095
30
0
41
1
10
140.206580389403
20
-10.9574036585389
30
0
41
1
10
140.343464548429
20
-10.8498752415543
30
0
41
1
10
140.411906627942
20
-10.772638271733
30
0
41
1
10
140.548790786968
20
-10.5677768919301
30
0
41
1
10
140.617232866481
20
-10.44013683484
30
0
41
1
10
140.754117025507
20
-10.1328016653942
30
0
41
1
10
140.82255910502
20
-9.95309586819459
30
0
41
1
10
140.959443264046
20
-9.54217792277134
30
0
41
1
10
141.027885343559
20
-9.31096274916138
30
0
41
1
10
141.096327423072
20
-9.05548462017185
30
0
0
SPLINE
5
100
100
AcDbEntity
8
1
62
256
6
ByLayer
370
13
48
1
60
0
100
AcDbSpline
70
4
71
3
72
43
73
39
40
0
40
0
40
0
40
0
40
0.0625
40
0.0625
40
0.125
40
0.125
40
0.1875
40
0.1875
40
0.25
40
0.25
40
0.3125
40
0.3125
40
0.375
40
0.375
40
0.390625
40
0.3984375
40
0.3984375
40
0.40625
40
0.40625
40
0.4375
40
0.4375
40
0.500000000000001
40
0.500000000000001
40
0.562500000000001
40
0.562500000000001
40
0.625000000000001
40
0.625000000000001
40
0.687500000000001
40
0.687500000000001
40
0.75
40
0.75
40
0.8125
40
0.8125
40
0.875
40
0.875
40
0.9375
40
0.9375
40
1
40
1
40
1
40
1
41
1
10
130.1
20
-9.66266800184079
30
0
41
1
10
130.195903744527
20
-9.36504862224248
30
0
41
1
10
130.291807489055
20
-9.0169254517422
30
0
41
1
10
130.48361497811
20
-8.23012383026483
30
0
41
1
10
130.579518722638
20
-7.79150512073005
30
0
41
1
10
130.771326211693
20
-6.8428207013082
30
0
41
1
10
130.867229956221
20
-6.33287047478134
30
0
41
1
10
131.059037445276
20
-5.26659858472846
30
0
41
1
10
131.154941189803
20
-4.71041238888125
30
0
41
1
10
131.346748678858
20
-3.57879490503271
30
0
41
1
10
131.442652423386
20
-3.00347912714332
30
0
41
1
10
131.634459912441
20
-1.85886663978425
30
0
41
1
10
131.730363656969
20
-1.28963979150552
30
0
41
1
10
131.850243337628
20
-0.594706329046289
30
0
41
1
10
131.886207241826
20
-0.387450591457224
30
0
41
1
10
131.922171146024
20
-0.182325458753354
30
0
41
1
10
131.946147082156
20
-0.0460787104291569
30
0
41
1
10
131.958135050222
20
0.021637366051749
30
0
41
1
10
132.018074890551
20
0.361951235526874
30
0
41
1
10
132.066026762815
20
0.638274431980335
30
0
41
1
10
132.209882379606
20
1.47633824905674
30
0
41
1
10
132.305786124134
20
2.04734060466001
30
0
41
1
10
132.497593613189
20
3.19292797062084
30
0
41
1
10
132.593497357717
20
3.76743750820521
30
0
41
1
10
132.785304846772
20
4.89449240590159
30
0
41
1
10
132.881208591299
20
5.44691843188292
30
0
41
1
10
133.073016080354
20
6.50273536304263
30
0
41
1
10
133.168919824882
20
7.00599093629688
30
0
41
1
10
133.360727313937
20
7.93881917764279
30
0
41
1
10
133.456631058465
20
8.36828102272113
30
0
41
1
10
133.64843854752
20
9.13515008671774
30
0
41
1
10
133.744342292047
20
9.4725050338827
30
0
41
1
10
133.936149781103
20
10.0456262752555
30
0
41
1
10
134.03205352563
20
10.2814093848141
30
0
41
1
10
134.223861014685
20
10.6512363841995
30
0
41
1
10
134.319764759213
20
10.7853504858243
30
0
41
1
10
134.511572248268
20
10.9596855028654
30
0
41
1
10
134.607475992795
20
11
30
0
41
1
10
134.703379737323
20
11
30
0
0
SPLINE
5
101
100
AcDbEntity
8
1
62
256
6
ByLayer
370
13
48
1
60
0
100
AcDbSpline
70
4
71
3
72
79
73
75
40
0
40
0
40
0
40
0
40
0.0312500000000006
40
0.0312500000000006
40
0.0625000000000013
40
0.0625000000000013
40
0.0937500000000019
40
0.0937500000000019
40
0.125000000000003
40
0.125000000000003
40
0.156250000000003
40
0.156250000000003
40
0.187500000000004
40
0.187500000000004
40
0.218750000000005
40
0.218750000000005
40
0.250000000000005
40
0.250000000000005
40
0.281250000000006
40
0.281250000000006
40
0.312500000000006
40
0.312500000000006
40
0.343750000000007
40
0.343750000000007
40
0.375000000000008
40
0.375000000000008
40
0.382812500000008
40
0.386718750000008
40
0.386718750000008
40
0.390625000000008
40
0.390625000000008
40
0.406250000000007
40
0.406250000000007
40
0.437500000000007
40
0.437500000000007
40
0.468750000000007
40
0.468750000000007
40
0.500000000000006
40
0.500000000000006
40
0.531250000000006
40
0.531250000000006
40
0.562500000000005
40
0.562500000000005
40
0.593750000000005
40
0.593750000000005
40
0.625000000000005
40
0.625000000000005
40
0.656250000000004
40
0.656250000000004
40
0.687500000000004
40
0.687500000000004
40
0.718750000000004
40
0.718750000000004
40
0.750000000000003
40
0.750000000000003
40
0.765625000000003
40
0.765625000000003
40
0.773437500000003
40
0.773437500000003
40
0.781250000000003
40
0.781250000000003
40
0.812500000000002
40
0.812500000000002
40
0.843750000000002
40
0.843750000000002
40
0.875000000000002
40
0.875000000000002
40
0.906250000000001
40
0.906250000000001
40
0.937500000000001
40
0.937500000000001
40
0.96875
40
0.96875
40
1
40
1
40
1
40
1
41
1
10
134.034122540933
20
11
30
0
41
1
10
134.107687175122
20
11
30
0
41
1
10
134.181251809311
20
10.9763201231549
30
0
41
1
10
134.328381077689
20
10.8754860633089
30
0
41
1
10
134.401945711878
20
10.7983066122129
30
0
41
1
10
134.549074980256
20
10.5859415987234
30
0
41
1
10
134.622639614445
20
10.4507332754579
30
0
41
1
10
134.769768882823
20
10.1201466458576
30
0
41
1
10
134.843333517012
20
9.9247530611166
30
0
41
1
10
134.99046278539
20
9.47459015807746
30
0
41
1
10
135.064027419579
20
9.21981748207264
30
0
41
1
10
135.211156687957
20
8.65494424547063
30
0
41
1
10
135.284721322145
20
8.3448545663681
30
0
41
1
10
135.431850590523
20
7.67654213809479
30
0
41
1
10
135.505415224712
20
7.31834358478213
30
0
41
1
10
135.65254449309
20
6.56362201345479
30
0
41
1
10
135.726109127279
20
6.16713231104919
30
0
41
1
10
135.873238395657
20
5.34736907553048
30
0
41
1
10
135.946803029846
20
4.92413172347065
30
0
41
1
10
136.093932298224
20
4.06307797242943
30
0
41
1
10
136.167496932413
20
3.62529423849924
30
0
41
1
10
136.314626200791
20
2.7469599689008
30
0
41
1
10
136.388190834979
20
2.30643385789654
30
0
41
1
10
136.535320103357
20
1.43316199190912
30
0
41
1
10
136.608884737546
20
1.0004302905401
30
0
41
1
10
136.700840530283
20
0.469815348011707
30
0
41
1
10
136.728427268103
20
0.311395897971977
30
0
41
1
10
136.756014005924
20
0.154253585041005
30
0
41
1
10
136.774405164471
20
0.0497892742239401
30
0
41
1
10
136.783600743745
20
-0.0021924571729244
30
0
41
1
10
136.829578640113
20
-0.262897400220339
30
0
41
1
10
136.866360957208
20
-0.473877471130862
30
0
41
1
10
136.976707908491
20
-1.11269832934377
30
0
41
1
10
137.05027254268
20
-1.54648166068063
30
0
41
1
10
137.197401811058
20
-2.421008965769
30
0
41
1
10
137.270966445247
20
-2.86173796743074
30
0
41
1
10
137.418095713625
20
-3.7394923791301
30
0
41
1
10
137.491660347814
20
-4.17649252422453
30
0
41
1
10
137.638789616192
20
-5.03492047795959
30
0
41
1
10
137.71235425038
20
-5.45631509512657
30
0
41
1
10
137.859483518758
20
-6.27134752136755
30
0
41
1
10
137.933048152947
20
-6.66494913312022
30
0
41
1
10
138.080177421325
20
-7.41295754021309
30
0
41
1
10
138.153742055514
20
-7.76733158172993
30
0
41
1
10
138.300871323892
20
-8.42725335590248
30
0
41
1
10
138.374435958081
20
-8.7327779254874
30
0
41
1
10
138.521565226459
20
-9.28803715644543
30
0
41
1
10
138.595129860648
20
-9.53776218793911
30
0
41
1
10
138.742259129026
20
-9.97763100451704
30
0
41
1
10
138.815823763215
20
-10.1677793161194
30
0
41
1
10
138.962953031593
20
-10.4879512680868
30
0
41
1
10
139.036517665781
20
-10.617991032182
30
0
41
1
10
139.183646934159
20
-10.8203280936697
30
0
41
1
10
139.257211568348
20
-10.892648563437
30
0
41
1
10
139.367558519632
20
-10.9613470983664
30
0
41
1
10
139.404340836726
20
-10.9776320534484
30
0
41
1
10
139.459514312368
20
-10.992692099312
30
0
41
1
10
139.477905470915
20
-10.99615157389
30
0
41
1
10
139.51468778801
20
-11.000049145581
30
0
41
1
10
139.533078946557
20
-11.0004954814523
30
0
41
1
10
139.625034739293
20
-10.9953288593134
30
0
41
1
10
139.698599373482
20
-10.9672249064524
30
0
41
1
10
139.84572864186
20
-10.8570730581362
30
0
41
1
10
139.919293276049
20
-10.7749999285608
30
0
41
1
10
140.066422544427
20
-10.5525555524351
30
0
41
1
10
140.139987178616
20
-10.4121619949816
30
0
41
1
10
140.287116446993
20
-10.0711498766976
30
0
41
1
10
140.360681081182
20
-9.87051691737292
30
0
41
1
10
140.50781034956
20
-9.41009656765127
30
0
41
1
10
140.581374983749
20
-9.15030700663971
30
0
41
1
10
140.728504252127
20
-8.57590533743334
30
0
41
1
10
140.802068886316
20
-8.26130535539116
30
0
41
1
10
140.949198154694
20
-7.58473186126793
30
0
41
1
10
141.022762788883
20
-7.22278354533447
30
0
41
1
10
141.096327423072
20
-6.84214752998733
30
0
0
SPLINE
5
102
100
AcDbEntity
8
1
62
256
6
ByLayer
370
13
48
1
60
0
100
AcDbSpline
70
4
71
3
72
43
73
39
40
0
40
0
40
0
40
0
40
0.062499999999998
40
0.062499999999998
40
0.124999999999996
40
0.124999999999996
40
0.187499999999994
40
0.187499999999994
40
0.249999999999992
40
0.249999999999992
40
0.31249999999999
40
0.31249999999999
40
0.32812499999999
40
0.32812499999999
40
0.335937499999989
40
0.335937499999989
40
0.343749999999989
40
0.37499999999999
40
0.37499999999999
40
0.437499999999991
40
0.437499999999991
40
0.499999999999992
40
0.499999999999992
40
0.562499999999993
40
0.562499999999993
40
0.624999999999994
40
0.624999999999994
40
0.687499999999995
40
0.687499999999995
40
0.749999999999996
40
0.749999999999996
40
0.812499999999997
40
0.812499999999997
40
0.874999999999998
40
0.874999999999998
40
0.937499999999999
40
0.937499999999999
40
1
40
1
40
1
40
1
41
1
10
130.1
20
-7.7216784604625
30
0
41
1
10
130.185658635176
20
-7.31723272303933
30
0
41
1
10
130.271317270351
20
-6.88188031029526
30
0
41
1
10
130.442634540703
20
-5.96592561645795
30
0
41
1
10
130.528293175878
20
-5.48539891685283
30
0
41
1
10
130.69961044623
20
-4.4981094556137
30
0
41
1
10
130.785269081405
20
-3.9914207962338
30
0
41
1
10
130.956586351757
20
-2.97083621573671
30
0
41
1
10
131.042244986933
20
-2.45699703350522
30
0
41
1
10
131.213562257284
20
-1.43913680846177
30
0
41
1
10
131.29922089246
20
-0.935147208564501
30
0
41
1
10
131.406294186429
20
-0.31984462179409
30
0
41
1
10
131.427708845223
20
-0.19750917304691
30
0
41
1
10
131.459830833414
20
-0.0152251215219508
30
0
41
1
10
131.470538162811
20
0.0452722347039867
30
0
41
1
10
131.491952821605
20
0.166928451835048
30
0
41
1
10
131.54548946859
20
0.472073277757346
30
0
41
1
10
131.599026115575
20
0.781995577152543
30
0
41
1
10
131.727514068338
20
1.53268092798302
30
0
41
1
10
131.813172703514
20
2.04240642231556
30
0
41
1
10
131.984489973865
20
3.06536630321548
30
0
41
1
10
132.070148609041
20
3.57855887379313
30
0
41
1
10
132.241465879392
20
4.59047780439886
30
0
41
1
10
132.327124514568
20
5.08913910302587
30
0
41
1
10
132.498441784919
20
6.05272735827469
30
0
41
1
10
132.584100420095
20
6.51757741191034
30
0
41
1
10
132.755417690446
20
7.39516421840477
30
0
41
1
10
132.841076325622
20
7.80783007372349
30
0
41
1
10
133.012393595973
20
8.56584862144794
30
0
41
1
10
133.098052231149
20
8.91115425635732
30
0
41
1
10
133.269369501501
20
9.52426621909328
30
0
41
1
10
133.355028136676
20
9.79205983585371
30
0
41
1
10
133.526345407028
20
10.2459027630259
30
0
41
1
10
133.612004042203
20
10.4319730385958
30
0
41
1
10
133.783321312555
20
10.7239282752606
30
0
41
1
10
133.868979947731
20
10.8298576923488
30
0
41
1
10
134.040297218082
20
10.9678666906429
30
0
41
1
10
134.125955853258
20
11
30
0
41
1
10
134.211614488433
20
11
30
0
0
SPLINE
5
103
100
AcDbEntity
8
1
62
256
6
ByLayer
370
13
48
1
60
0
100
AcDbSpline
70
4
71
3
72
79
73
75
40
0
40
0
40
0
40
0
40
0.031250000000001
40
0.031250000000001
40
0.0625000000000019
40
0.0625000000000019
40
0.0937500000000029
40
0.0937500000000029
40
0.125000000000004
40
0.125000000000004
40
0.156250000000005
40
0.156250000000005
40
0.187500000000006
40
0.187500000000006
40
0.218750000000007
40
0.218750000000007
40
0.250000000000008
40
0.250000000000008
40
0.281250000000009
40
0.281250000000009
40
0.312500000000009
40
0.312500000000009
40
0.34375000000001
40
0.34375000000001
40
0.359375000000011
40
0.359375000000011
40
0.367187500000011
40
0.367187500000011
40
0.375000000000011
40
0.375000000000011
40
0.406250000000012
40
0.406250000000012
40
0.437500000000012
40
0.437500000000012
40
0.468750000000013
40
0.468750000000013
40
0.500000000000014
40
0.500000000000014
40
0.531250000000014
40
0.531250000000014
40
0.562500000000015
40
0.562500000000015
40
0.593750000000016
40
0.593750000000016
40
0.625000000000017
40
0.625000000000017
40
0.656250000000017
40
0.656250000000017
40
0.687500000000018
40
0.687500000000018
40
0.718750000000019
40
0.718750000000019
40
0.726562500000019
40
0.726562500000019
40
0.730468750000019
40
0.730468750000019
40
0.734375000000018
40
0.750000000000017
40
0.750000000000017
40
0.781250000000015
40
0.781250000000015
40
0.812500000000013
40
0.812500000000013
40
0.843750000000011
40
0.843750000000011
40
0.875000000000009
40
0.875000000000009
40
0.906250000000006
40
0.906250000000006
40
0.937500000000004
40
0.937500000000004
40
0.968750000000002
40
0.968750000000002
40
1
40
1
40
1
40
1
41
1
10
133.542357292044
20
11
30
0
41
1
10
133.621044480909
20
11
30
0
41
1
10
133.699731669774
20
10.9728982374458
30
0
41
1
10
133.857106047503
20
10.8570656320282
30
0
41
1
10
133.935793236368
20
10.768299486041
30
0
41
1
10
134.093167614098
20
10.5238485704955
30
0
41
1
10
134.171854802963
20
10.3681330169328
30
0
41
1
10
134.329229180693
20
9.98771567470618
30
0
41
1
10
134.407916369558
20
9.76299557487698
30
0
41
1
10
134.565290747287
20
9.24649085005268
30
0
41
1
10
134.643977936152
20
8.95470694159133
30
0
41
1
10
134.801352313882
20
8.31027215368204
30
0
41
1
10
134.880039502747
20
7.95764337762137
30
0
41
1
10
135.037413880476
20
7.20165385889683
30
0
41
1
10
135.116101069341
20
6.79833321198313
30
0
41
1
10
135.273475447071
20
5.95408054498213
30
0
41
1
10
135.352162635936
20
5.51319823457609
30
0
41
1
10
135.509537013666
20
4.6085451134494
30
0
41
1
10
135.588224202531
20
4.14482316451839
30
0
41
1
10
135.74559858026
20
3.2092964722554
30
0
41
1
10
135.824285769125
20
2.73753075857633
30
0
41
1
10
135.981660146855
20
1.79945466916703
30
0
41
1
10
136.06034733572
20
1.33316846758569
30
0
41
1
10
136.178378119017
20
0.64631111484502
30
0
41
1
10
136.217721713449
20
0.419434382661166
30
0
41
1
10
136.276737105098
20
0.08310133004926
30
0
41
1
10
136.296408902314
20
-0.0279107133322327
30
0
41
1
10
136.335752496747
20
-0.251692528366135
30
0
41
1
10
136.355424293963
20
-0.364256720231054
30
0
41
1
10
136.453783280044
20
-0.93010028387917
30
0
41
1
10
136.532470468909
20
-1.39255194742731
30
0
41
1
10
136.689844846639
20
-2.32650385679639
30
0
41
1
10
136.768532035504
20
-2.79798453672691
30
0
41
1
10
136.925906413233
20
-3.7370580511656
30
0
41
1
10
137.004593602098
20
-4.20461587067885
30
0
41
1
10
137.161967979828
20
-5.1213054285962
30
0
41
1
10
137.240655168693
20
-5.57039038610509
30
0
41
1
10
137.398029546423
20
-6.43524008746306
30
0
41
1
10
137.476716735288
20
-6.85095429026109
30
0
41
1
10
137.634091113017
20
-7.63530707350378
30
0
41
1
10
137.712778301882
20
-8.00390173290546
30
0
41
1
10
137.870152679612
20
-8.68285680705486
30
0
41
1
10
137.948839868477
20
-8.99318927004268
30
0
41
1
10
138.106214246206
20
-9.54816973594751
30
0
41
1
10
138.184901435071
20
-9.79281079353595
30
0
41
1
10
138.342275812801
20
-10.2132043872895
30
0
41
1
10
138.420963001666
20
-10.3889702317188
30
0
41
1
10
138.578337379396
20
-10.6725516813714
30
0
41
1
10
138.657024568261
20
-10.780395252753
30
0
41
1
10
138.81439894599
20
-10.9325684369696
30
0
41
1
10
138.893086134855
20
-10.9769328279359
30
0
41
1
10
138.991445120936
20
-10.9970432867442
30
0
41
1
10
139.011116918153
20
-10.9993027992324
30
0
41
1
10
139.040624613977
20
-11.0001413778861
30
0
41
1
10
139.050460512585
20
-10.9999981909259
30
0
41
1
10
139.070132309801
20
-10.9988586177598
30
0
41
1
10
139.119311802842
20
-10.9938718472075
30
0
41
1
10
139.168491295882
20
-10.9779903716217
30
0
41
1
10
139.28652207918
20
-10.9175477513524
30
0
41
1
10
139.365209268045
20
-10.8474039824564
30
0
41
1
10
139.522583645774
20
-10.6414483968706
30
0
41
1
10
139.601270834639
20
-10.5056036702734
30
0
41
1
10
139.758645212369
20
-10.1651451837664
30
0
41
1
10
139.837332401234
20
-9.9605086852159
30
0
41
1
10
139.994706778964
20
-9.48317181995984
30
0
41
1
10
140.073393967829
20
-9.2104661522244
30
0
41
1
10
140.230768345558
20
-8.60194909532089
30
0
41
1
10
140.309455534423
20
-8.2661536681253
30
0
41
1
10
140.466829912153
20
-7.54051845687661
30
0
41
1
10
140.545517101018
20
-7.15071421251102
30
0
41
1
10
140.702891478747
20
-6.32944105603744
30
0
41
1
10
140.781578667612
20
-5.89802011025733
30
0
41
1
10
140.938953045342
20
-5.00792671175768
30
0
41
1
10
141.017640234207
20
-4.54930442288406
30
0
41
1
10
141.096327423072
20
-4.08452321049245
30
0
0
SPLINE
5
104
100
AcDbEntity
8
1
62
256
6
ByLayer
370
13
48
1
60
0
100
AcDbSpline
70
4
71
3
72
42
73
38
40
0
40
0
40
0
40
0
40
0.0625000000000001
40
0.0625000000000001
40
0.125
40
0.125
40
0.1875
40
0.1875
40
0.218750000000001
40
0.218750000000001
40
0.234375000000001
40
0.234375000000001
40
0.250000000000001
40
0.250000000000001
40
0.312500000000001
40
0.312500000000001
40
0.375000000000001
40
0.375000000000001
40
0.437500000000001
40
0.437500000000001
40
0.500000000000001
40
0.500000000000001
40
0.562500000000001
40
0.562500000000001
40
0.625000000000001
40
0.625000000000001
40
0.687500000000001
40
0.687500000000001
40
0.750000000000001
40
0.750000000000001
40
0.8125
40
0.8125
40
0.875
40
0.875
40
0.9375
40
0.9375
40
1
40
1
40
1
40
1
41
1
10
130.1
20
-5.11931512003645
30
0
41
1
10
130.175413525824
20
-4.68676366663937
30
0
41
1
10
130.250827051648
20
-4.2434461030644
30
0
41
1
10
130.401654103295
20
-3.34826187192374
30
0
41
1
10
130.477067629119
20
-2.89642766369857
30
0
41
1
10
130.627894680767
20
-1.99628824968883
30
0
41
1
10
130.703308206591
20
-1.54800420565752
30
0
41
1
10
130.816428495326
20
-0.885932418617358
30
0
41
1
10
130.854135258238
20
-0.666951539422428
30
0
41
1
10
130.910695402606
20
-0.34184986404523
30
0
41
1
10
130.929548784062
20
-0.234043120356944
30
0
41
1
10
130.967255546974
20
-0.0196710921447618
30
0
41
1
10
130.98610892843
20
0.08674976355843
30
0
41
1
10
131.08037583571
20
0.623964559945904
30
0
41
1
10
131.155789361533
20
1.06356277107625
30
0
41
1
10
131.306616413181
20
1.95370788000781
30
0
41
1
10
131.382029939005
20
2.4042421381786
30
0
41
1
10
131.532856990653
20
3.30539757435383
30
0
41
1
10
131.608270516477
20
3.75599394931842
30
0
41
1
10
131.759097568124
20
4.64481701196667
30
0
41
1
10
131.834511093948
20
5.08300846873382
30
0
41
1
10
131.985338145596
20
5.93388076003896
30
0
41
1
10
132.06075167142
20
6.34652090547428
30
0
41
1
10
132.211578723067
20
7.1336264725833
30
0
41
1
10
132.286992248891
20
7.50805307616267
30
0
41
1
10
132.437819300539
20
8.20776687502419
30
0
41
1
10
132.513232826362
20
8.53302475026126
30
0
41
1
10
132.66405987801
20
9.12618661334238
30
0
41
1
10
132.739473403834
20
9.39407625166936
30
0
41
1
10
132.890300455482
20
9.86771055922546
30
0
41
1
10
132.965713981305
20
10.0734574679557
30
0
41
1
10
133.116541032953
20
10.4216225198116
30
0
41
1
10
133.191954558777
20
10.564057086092
30
0
41
1
10
133.342781610425
20
10.7877282550923
30
0
41
1
10
133.418195136248
20
10.868990323062
30
0
41
1
10
133.569022187896
20
10.9751119015146
30
0
41
1
10
133.64443571372
20
11
30
0
41
1
10
133.719849239544
20
11
30
0
0
SPLINE
5
105
100
AcDbEntity
8
1
62
256
6
ByLayer
370
13
48
1
60
0
100
AcDbSpline
70
4
71
3
72
79
73
75
40
0
40
0
40
0
40
0
40
0.031250000000002
40
0.031250000000002
40
0.062500000000004
40
0.062500000000004
40
0.093750000000006
40
0.093750000000006
40
0.125000000000008
40
0.125000000000008
40
0.15625000000001
40
0.15625000000001
40
0.187500000000012
40
0.187500000000012
40
0.218750000000014
40
0.218750000000014
40
0.250000000000016
40
0.250000000000016
40
0.281250000000018
40
0.281250000000018
40
0.31250000000002
40
0.31250000000002
40
0.328125000000021
40
0.328125000000021
40
0.335937500000021
40
0.339843750000021
40
0.339843750000021
40
0.343750000000021
40
0.343750000000021
40
0.37500000000002
40
0.37500000000002
40
0.406250000000019
40
0.406250000000019
40
0.437500000000018
40
0.437500000000018
40
0.468750000000017
40
0.468750000000017
40
0.500000000000016
40
0.500000000000016
40
0.531250000000015
40
0.531250000000015
40
0.562500000000014
40
0.562500000000014
40
0.593750000000012
40
0.593750000000012
40
0.625000000000011
40
0.625000000000011
40
0.65625000000001
40
0.65625000000001
40
0.67187500000001
40
0.67187500000001
40
0.679687500000009
40
0.679687500000009
40
0.687500000000009
40
0.687500000000009
40
0.718750000000008
40
0.718750000000008
40
0.750000000000007
40
0.750000000000007
40
0.781250000000006
40
0.781250000000006
40
0.812500000000005
40
0.812500000000005
40
0.843750000000004
40
0.843750000000004
40
0.875000000000004
40
0.875000000000004
40
0.906250000000003
40
0.906250000000003
40
0.937500000000002
40
0.937500000000002
40
0.968750000000001
40
0.968750000000001
40
1
40
1
40
1
40
1
41
1
10
133.050592043154
20
11
30
0
41
1
10
133.134401786695
20
11
30
0
41
1
10
133.218211530236
20
10.9692432579624
30
0
41
1
10
133.385831017317
20
10.8373149715735
30
0
41
1
10
133.469640760858
20
10.7360951866662
30
0
41
1
10
133.63726024794
20
10.4571707164941
30
0
41
1
10
133.721069991481
20
10.2794255159509
30
0
41
1
10
133.888689478562
20
9.84567816728043
30
0
41
1
10
133.972499222103
20
9.58965549183483
30
0
41
1
10
134.140118709185
20
9.0028418976494
30
0
41
1
10
134.223928452725
20
8.67205959628296
30
0
41
1
10
134.391547939807
20
7.94468471574712
30
0
41
1
10
134.475357683348
20
7.54813131154773
30
0
41
1
10
134.64297717043
20
6.70292081103506
30
0
41
1
10
134.72678691397
20
6.2543253696999
30
0
41
1
10
134.894406401052
20
5.32193353019119
30
0
41
1
10
134.978216144593
20
4.83820641199122
30
0
41
1
10
135.145835631674
20
3.85362448973106
30
0
41
1
10
135.229645375215
20
3.35283082236043
30
0
41
1
10
135.397264862297
20
2.35134436333632
30
0
41
1
10
135.481074605838
20
1.85069354567168
30
0
41
1
10
135.606789221149
20
1.11089354827817
30
0
41
1
10
135.648694092919
20
0.866133420395585
30
0
41
1
10
135.711551400575
20
0.502905528880206
30
0
41
1
10
135.742980054403
20
0.322267123634162
30
0
41
1
10
135.77440870823
20
0.143284756207493
30
0
41
1
10
135.795361144116
20
0.0243509573627705
30
0
41
1
10
135.805837362058
20
-0.0348354748342388
30
0
41
1
10
135.900123323542
20
-0.570242813818595
30
0
41
1
10
135.983933067082
20
-1.05868182678208
30
0
41
1
10
136.151552554164
20
-2.04872628188514
30
0
41
1
10
136.235362297705
20
-2.55030958793248
30
0
41
1
10
136.402981784787
20
-3.5514977224752
30
0
41
1
10
136.486791528327
20
-4.05105766725788
30
0
41
1
10
136.654411015409
20
-5.03079136918481
30
0
41
1
10
136.73822075895
20
-5.51090213297488
30
0
41
1
10
136.905840246031
20
-6.43371075146592
30
0
41
1
10
136.989649989572
20
-6.87633938409334
30
0
41
1
10
137.157269476654
20
-7.70757368114693
30
0
41
1
10
137.241079220195
20
-8.09611990818809
30
0
41
1
10
137.408698707276
20
-8.80598945564756
30
0
41
1
10
137.492508450817
20
-9.12727737953625
30
0
41
1
10
137.660127937899
20
-9.69431348524918
30
0
41
1
10
137.743937681439
20
-9.94005719196321
30
0
41
1
10
137.911557168521
20
-10.3531869921844
30
0
41
1
10
137.995366912062
20
-10.5205969046764
30
0
41
1
10
138.162986399143
20
-10.7794312605706
30
0
41
1
10
138.246796142684
20
-10.8708979534671
30
0
41
1
10
138.372510757995
20
-10.9560050196479
30
0
41
1
10
138.414415629766
20
-10.9757200645664
30
0
41
1
10
138.477272937422
20
-10.9931234925998
30
0
41
1
10
138.498225373307
20
-10.9968976380817
30
0
41
1
10
138.540130245077
20
-11.0005396513681
30
0
41
1
10
138.561082680962
20
-11.0004278781504
30
0
41
1
10
138.665844860388
20
-10.9901715821321
30
0
41
1
10
138.749654603929
20
-10.9505561825395
30
0
41
1
10
138.917274091011
20
-10.7999075532892
30
0
41
1
10
139.001083834552
20
-10.6888264189129
30
0
41
1
10
139.168703321633
20
-10.3896712138178
30
0
41
1
10
139.252513065174
20
-10.2015585839363
30
0
41
1
10
139.420132552256
20
-9.74722268387413
30
0
41
1
10
139.503942295796
20
-9.48098234574468
30
0
41
1
10
139.671561782878
20
-8.87461108179764
30
0
41
1
10
139.755371526419
20
-8.53449294323411
30
0
41
1
10
139.9229910135
20
-7.79001425031575
30
0
41
1
10
140.006800757041
20
-7.38569650368649
30
0
41
1
10
140.174420244123
20
-6.5270521678263
30
0
41
1
10
140.258229987664
20
-6.07278918177056
30
0
41
1
10
140.425849474745
20
-5.13143312768932
30
0
41
1
10
140.509659218286
20
-4.64440911256043
30
0
41
1
10
140.677278705368
20
-3.65560242533744
30
0
41
1
10
140.761088448909
20
-3.15387883637499
30
0
41
1
10
140.92870793599
20
-2.15265813151626
30
0
41
1
10
141.012517679531
20
-1.65320001764013
30
0
41
1
10
141.096327423072
20
-1.16205260836776
30
0
0
SPLINE
5
106
100
AcDbEntity
8
1
62
256
6
ByLayer
370
13
48
1
60
0
100
AcDbSpline
70
4
71
3
72
42
73
38
40
0
40
0
40
0
40
0
40
0.0625
40
0.0625
40
0.0937500000000003
40
0.0937500000000003
40
0.109375000000001
40
0.109375000000001
40
0.125000000000001
40
0.125000000000001
40
0.187500000000001
40
0.187500000000001
40
0.250000000000001
40
0.250000000000001
40
0.3125
40
0.3125
40
0.375
40
0.375
40
0.4375
40
0.4375
40
0.5
40
0.5
40
0.5625
40
0.5625
40
0.625
40
0.625
40
0.6875
40
0.6875
40
0.75
40
0.75
40
0.8125
40
0.8125
40
0.875
40
0.875
40
0.9375
40
0.9375
40
1
40
1
40
1
40
1
41
1
10
130.1
20
-2.21209261443354
30
0
41
1
10
130.165168416472
20
-1.82382134532361
30
0
41
1
10
130.230336832944
20
-1.43758593838444
30
0
41
1
10
130.328089457652
20
-0.866134228550976
30
0
41
1
10
130.360673665888
20
-0.676958085629337
30
0
41
1
10
130.409549978242
20
-0.395674508613041
30
0
41
1
10
130.42584208236
20
-0.302326127771266
30
0
41
1
10
130.458426290596
20
-0.116533865046478
30
0
41
1
10
130.474718394714
20
-0.0243878923961631
30
0
41
1
10
130.556178915304
20
0.43774482164639
30
0
41
1
10
130.621347331776
20
0.815043027742632
30
0
41
1
10
130.75168416472
20
1.57945334294939
30
0
41
1
10
130.816852581192
20
1.96656070556889
30
0
41
1
10
130.947189414135
20
2.74397313273181
30
0
41
1
10
131.012357830607
20
3.13426839445748
30
0
41
1
10
131.142694663551
20
3.91041150577561
30
0
41
1
10
131.207863080023
20
4.29624469580367
30
0
41
1
10
131.338199912967
20
5.05515829475004
30
0
41
1
10
131.403368329439
20
5.42822039772494
30
0
41
1
10
131.533705162383
20
6.15312643728862
30
0
41
1
10
131.598873578855
20
6.50495059253592
30
0
41
1
10
131.729210411799
20
7.17933593290527
30
0
41
1
10
131.794378828271
20
7.50187862585506
30
0
41
1
10
131.924715661215
20
8.11066201080487
30
0
41
1
10
131.989884077687
20
8.39688824165899
30
0
41
1
10
132.120220910631
20
8.92751007178572
30
0
41
1
10
132.185389327103
20
9.17189728839301
30
0
41
1
10
132.315726160047
20
9.61517254060149
30
0
41
1
10
132.380894576519
20
9.81405913921682
30
0
41
1
10
132.511231409463
20
10.1646741002799
30
0
41
1
10
132.576399825934
20
10.3164075295261
30
0
41
1
10
132.706736658878
20
10.5730092364047
30
0
41
1
10
132.77190507535
20
10.6778875802582
30
0
41
1
10
132.902241908294
20
10.8427906845607
30
0
41
1
10
132.967410324766
20
10.9028284354321
30
0
41
1
10
133.09774715771
20
10.981426190179
30
0
41
1
10
133.162915574182
20
11
30
0
41
1
10
133.228083990654
20
11
30
0
0
SPLINE
5
107
100
AcDbEntity
8
1
62
256
6
ByLayer
370
13
48
1
60
0
100
AcDbSpline
70
4
71
3
72
84
73
80
40
0
40
0
40
0
40
0
40
0.031249999999999
40
0.031249999999999
40
0.062499999999998
40
0.062499999999998
40
0.093749999999997
40
0.093749999999997
40
0.124999999999996
40
0.124999999999996
40
0.156249999999995
40
0.156249999999995
40
0.187499999999994
40
0.187499999999994
40
0.218749999999993
40
0.218749999999993
40
0.249999999999992
40
0.249999999999992
40
0.281249999999991
40
0.281249999999991
40
0.31249999999999
40
0.31249999999999
40
0.32031249999999
40
0.32031249999999
40
0.32421874999999
40
0.32421874999999
40
0.32812499999999
40
0.34374999999999
40
0.34374999999999
40
0.374999999999991
40
0.374999999999991
40
0.406249999999992
40
0.406249999999992
40
0.437499999999992
40
0.437499999999992
40
0.468749999999993
40
0.468749999999993
40
0.499999999999994
40
0.499999999999994
40
0.531249999999994
40
0.531249999999994
40
0.562499999999995
40
0.562499999999995
40
0.593749999999996
40
0.593749999999996
40
0.624999999999997
40
0.624999999999997
40
0.640624999999997
40
0.640624999999997
40
0.648437499999997
40
0.648437499999997
40
0.656249999999998
40
0.656249999999998
40
0.687499999999998
40
0.687499999999998
40
0.718749999999998
40
0.718749999999998
40
0.749999999999998
40
0.749999999999998
40
0.781249999999998
40
0.781249999999998
40
0.812499999999998
40
0.812499999999998
40
0.843749999999998
40
0.843749999999998
40
0.874999999999999
40
0.874999999999999
40
0.906249999999999
40
0.906249999999999
40
0.937499999999999
40
0.937499999999999
40
0.953124999999999
40
0.953124999999999
40
0.960937499999999
40
0.964843749999999
40
0.964843749999999
40
0.968749999999999
40
0.968749999999999
40
1
40
1
40
1
40
1
41
1
10
132.558826794264
20
11
30
0
41
1
10
132.647759092481
20
11
30
0
41
1
10
132.736691390698
20
10.96535454546
30
0
41
1
10
132.914555987132
20
10.8162241128988
30
0
41
1
10
133.003488285348
20
10.7016745020312
30
0
41
1
10
133.181352881782
20
10.3858804062557
30
0
41
1
10
133.270285179998
20
10.1845839370236
30
0
41
1
10
133.448149776432
20
9.69407386813958
30
0
41
1
10
133.537082074649
20
9.40483922440023
30
0
41
1
10
133.714946671082
20
8.74402808951555
30
0
41
1
10
133.803878969299
20
8.37247355307153
30
0
41
1
10
133.981743565732
20
7.55941803447971
30
0
41
1
10
134.070675863949
20
7.11798060732087
30
0
41
1
10
134.248540460383
20
6.18307152302651
30
0
41
1
10
134.337472758599
20
5.68968901566365
30
0
41
1
10
134.515337355033
20
4.67195410807781
30
0
41
1
10
134.60426965325
20
4.14769247067733
30
0
41
1
10
134.782134249683
20
3.08962149743823
30
0
41
1
10
134.8710665479
20
2.55588300233299
30
0
41
1
10
135.048931144333
20
1.49813780490803
30
0
41
1
10
135.13786344255
20
0.974170671072102
30
0
41
1
10
135.249028815321
20
0.334949061914841
30
0
41
1
10
135.271261889875
20
0.207881017970863
30
0
41
1
10
135.304611501706
20
0.0185909970551847
30
0
41
1
10
135.315728038984
20
-0.0442118977109658
30
0
41
1
10
135.337961113538
20
-0.170523321171458
30
0
41
1
10
135.393543799923
20
-0.487383817779232
30
0
41
1
10
135.449126486309
20
-0.809381744155786
30
0
41
1
10
135.582524933634
20
-1.5894534497246
30
0
41
1
10
135.67145723185
20
-2.11932529728463
30
0
41
1
10
135.849321828284
20
-3.18173383512391
30
0
41
1
10
135.938254126501
20
-3.71421813122993
30
0
41
1
10
136.116118722934
20
-4.76153504552701
30
0
41
1
10
136.205051021151
20
-5.27628699567504
30
0
41
1
10
136.382915617585
20
-6.26655302814845
30
0
41
1
10
136.471847915801
20
-6.74197405008519
30
0
41
1
10
136.649712512235
20
-7.63340089003577
30
0
41
1
10
136.738644810451
20
-8.04932495197272
30
0
41
1
10
136.916509406885
20
-8.80570709603495
30
0
41
1
10
137.005441705102
20
-9.14611675780884
30
0
41
1
10
137.183306301535
20
-9.7415769167207
30
0
41
1
10
137.272238599752
20
-9.99662300054007
30
0
41
1
10
137.450103196185
20
-10.4184401146033
30
0
41
1
10
137.539035494402
20
-10.5852462930784
30
0
41
1
10
137.716900090836
20
-10.8341532028998
30
0
41
1
10
137.805832389052
20
-10.9163131108417
30
0
41
1
10
137.939230836377
20
-10.9824538848322
30
0
41
1
10
137.983696985486
20
-10.9950173787684
30
0
41
1
10
138.050396209148
20
-11.0006658751341
30
0
41
1
10
138.072629283702
20
-11.0003761870427
30
0
41
1
10
138.117095432811
20
-10.9954150865511
30
0
41
1
10
138.139328507365
20
-10.9907240948046
30
0
41
1
10
138.250493880136
20
-10.9557792398872
30
0
41
1
10
138.339426178353
20
-10.8909195734667
30
0
41
1
10
138.517290774786
20
-10.6781107459802
30
0
41
1
10
138.606223073003
20
-10.5300996943358
30
0
41
1
10
138.784087669436
20
-10.146147467055
30
0
41
1
10
138.873019967653
20
-9.91016440294945
30
0
41
1
10
139.050884564087
20
-9.35162586106341
30
0
41
1
10
139.139816862303
20
-9.02906538265353
30
0
41
1
10
139.317681458737
20
-8.3056915085053
30
0
41
1
10
139.406613756954
20
-7.9049174094695
30
0
41
1
10
139.584478353387
20
-7.03989872086362
30
0
41
1
10
139.673410651604
20
-6.57573028381697
30
0
41
1
10
139.851275248037
20
-5.60339269607081
30
0
41
1
10
139.940207546254
20
-5.09531628127215
30
0
41
1
10
140.118072142688
20
-4.05669912342785
30
0
41
1
10
140.207004440904
20
-3.526243447913
30
0
41
1
10
140.384869037338
20
-2.46371121046548
30
0
41
1
10
140.473801335554
20
-1.93169390541976
30
0
41
1
10
140.60719978288
20
-1.14589584065249
30
0
41
1
10
140.651665931988
20
-0.885972844938095
30
0
41
1
10
140.718365155651
20
-0.500487118597306
30
0
41
1
10
140.751714767482
20
-0.308840741812276
30
0
41
1
10
140.785064379313
20
-0.119069040387444
30
0
41
1
10
140.807297453867
20
0.0070053668523826
30
0
41
1
10
140.818413991144
20
0.0698571616225934
30
0
41
1
10
140.918462826638
20
0.638785997632169
30
0
41
1
10
141.007395124855
20
1.15846442129609
30
0
41
1
10
141.096327423072
20
1.6848922519676
30
0
0
SPLINE
5
108
100
AcDbEntity
8
1
62
256
6
ByLayer
370
13
48
1
60
0
100
AcDbSpline
70
4
71
3
72
36
73
32
40
0
40
0
40
0
40
0
40
0.0625
40
0.0625
40
0.125
40
0.125
40
0.1875
40
0.1875
40
0.25
40
0.25
40
0.3125
40
0.3125
40
0.375
40
0.375
40
0.4375
40
0.4375
40
0.5
40
0.5
40
0.5625
40
0.5625
40
0.625
40
0.625
40
0.6875
40
0.6875
40
0.75
40
0.75
40
0.8125
40
0.8125
40
0.875
40
0.875
40
1
40
1
40
1
40
1
41
1
10
130.1
20
0.645300739833573
30
0
41
1
10
130.15492330712
20
0.962880209232708
30
0
41
1
10
130.20984661424
20
1.28491507554924
30
0
41
1
10
130.31969322848
20
1.93434673160542
30
0
41
1
10
130.3746165356
20
2.26174074987142
30
0
41
1
10
130.484463149841
20
2.91774153052219
30
0
41
1
10
130.539386456961
20
3.24634368764455
30
0
41
1
10
130.649233071201
20
3.90012377033057
30
0
41
1
10
130.704156378321
20
4.22529537339503
30
0
41
1
10
130.814002992561
20
4.8672541985743
30
0
41
1
10
130.868926299681
20
5.18403376083327
30
0
41
1
10
130.978772913921
20
5.80413666569268
30
0
41
1
10
131.033696221042
20
6.10745164151061
30
0
41
1
10
131.143542835282
20
6.69568493042487
30
0
41
1
10
131.198466142402
20
6.98059497894411
30
0
41
1
10
131.308312756642
20
7.52746211992962
30
0
41
1
10
131.363236063762
20
7.78941191467376
30
0
41
1
10
131.473082678002
20
8.28642320035442
30
0
41
1
10
131.528005985122
20
8.52147913195816
30
0
41
1
10
131.637852599363
20
8.96158399728137
30
0
41
1
10
131.692775906483
20
9.1666296517121
30
0
41
1
10
131.802622520723
20
9.54454634250737
30
0
41
1
10
131.857545827843
20
9.7174166025884
30
0
41
1
10
131.967392442083
20
10.0298273356374
30
0
41
1
10
132.022315749203
20
10.1693694204774
30
0
41
1
10
132.132162363443
20
10.4149677939328
30
0
41
1
10
132.187085670564
20
10.5210276805527
30
0
41
1
10
132.296932284804
20
10.7004248587967
30
0
41
1
10
132.351855591924
20
10.7737671457712
30
0
41
1
10
132.516625513284
20
10.9470367495319
30
0
41
1
10
132.626472127524
20
11
30
0
41
1
10
132.736318741764
20
11
30
0
0
SPLINE
5
109
100
AcDbEntity
8
1
62
256
6
ByLayer
370
13
48
1
60
0
100
AcDbSpline
70
4
71
3
72
8
73
4
40
0
40
0
40
0
40
0
40
1
40
1
40
1
40
1
41
1
10
141.096327423072
20
-10.1173778115549
30
0
41
1
10
142.430884948715
20
-6.75068016239743
30
0
41
1
10
143.765442474357
20
-3.37819384728314
30
0
41
1
10
145.1
20
5.969E-13
30
0
0
SPLINE
5
10A
100
AcDbEntity
8
1
62
256
6
ByLayer
370
13
48
1
60
0
100
AcDbSpline
70
4
71
3
72
8
73
4
40
0
40
0
40
0
40
0
40
1
40
1
40
1
40
1
41
1
10
141.096327423072
20
-8.93533859319678
30
0
41
1
10
142.430884948714
20
-5.96545436201436
30
0
41
1
10
143.765442474357
20
-2.98698427009637
30
0
41
1
10
145.1
20
-4.832E-13
30
0
0
SPLINE
5
10B
100
AcDbEntity
8
1
62
256
6
ByLayer
370
13
48
1
60
0
100
AcDbSpline
70
4
71
3
72
8
73
4
40
0
40
0
40
0
40
0
40
1
40
1
40
1
40
1
41
1
10
141.096327423072
20
7.06342338442744
30
0
41
1
10
142.430884948715
20
4.69769518797253
30
0
41
1
10
143.765442474357
20
2.34320188618759
30
0
41
1
10
145.1
20
3.979E-13
30
0
0
SPLINE
5
10C
100
AcDbEntity
8
1
62
256
6
ByLayer
370
13
48
1
60
0
100
AcDbSpline
70
4
71
3
72
8
73
4
40
0
40
0
40
0
40
0
40
1
40
1
40
1
40
1
41
1
10
141.096327423072
20
10.9933371918532
30
0
41
1
10
142.430884948714
20
7.32940233255158
30
0
41
1
10
143.765442474357
20
3.66492723118586
30
0
41
1
10
145.1
20
0
30
0
0
SPLINE
5
10D
100
AcDbEntity
8
1
62
256
6
ByLayer
370
13
48
1
60
0
100
AcDbSpline
70
4
71
3
72
8
73
4
40
0
40
0
40
0
40
0
40
1
40
1
40
1
40
1
41
1
10
141.096327423072
20
8.72927503638297
30
0
41
1
10
142.430884948715
20
5.81058414763544
30
0
41
1
10
143.765442474357
20
2.90080250523798
30
0
41
1
10
145.1
20
4.832E-13
30
0
0
SPLINE
5
10E
100
AcDbEntity
8
1
62
256
6
ByLayer
370
13
48
1
60
0
100
AcDbSpline
70
4
71
3
72
8
73
4
40
0
40
0
40
0
40
0
40
1
40
1
40
1
40
1
41
1
10
141.096327423072
20
0.0034802673641252
30
0
41
1
10
142.430884948714
20
0.017000310290058
30
0
41
1
10
143.765442474357
20
0.0158401726520481
30
0
41
1
10
145.1
20
0
30
0
0
SPLINE
5
10F
100
AcDbEntity
8
1
62
256
6
ByLayer
370
13
48
1
60
0
100
AcDbSpline
70
4
71
3
72
8
73
4
40
0
40
0
40
0
40
0
40
1
40
1
40
1
40
1
41
1
10
141.096327423072
20
-7.3249779941398
30
0
41
1
10
142.430884948714
20
-4.89427055095416
30
0
41
1
10
143.765442474357
20
-2.452591621182
30
0
41
1
10
145.1
20
-3.979E-13
30
0
0
SPLINE
5
110
100
AcDbEntity
8
1
62
256
6
ByLayer
370
13
48
1
60
0
100
AcDbSpline
70
4
71
3
72
8
73
4
40
0
40
0
40
0
40
0
40
1
40
1
40
1
40
1
41
1
10
141.096327423072
20
-10.5291864138874
30
0
41
1
10
142.430884948714
20
-7.02370650036693
30
0
41
1
10
143.765442474357
20
-3.51394955501107
30
0
41
1
10
145.1
20
0
30
0
0
SPLINE
5
111
100
AcDbEntity
8
1
62
256
6
ByLayer
370
13
48
1
60
0
100
AcDbSpline
70
4
71
3
72
8
73
4
40
0
40
0
40
0
40
0
40
1
40
1
40
1
40
1
41
1
10
141.096327423072
20
9.97668310088113
30
0
41
1
10
142.430884948714
20
6.64493890304669
30
0
41
1
10
143.765442474357
20
3.31935123261067
30
0
41
1
10
145.099999999999
20
2.8137E-12
30
0
0
SPLINE
5
112
100
AcDbEntity
8
1
62
256
6
ByLayer
370
13
48
1
60
0
100
AcDbSpline
70
4
71
3
72
8
73
4
40
0
40
0
40
0
40
0
40
1
40
1
40
1
40
1
41
1
10
141.096327423072
20
6.09785080994945
30
0
41
1
10
142.430884948715
20
4.053015839495
30
0
41
1
10
143.765442474357
20
2.02038264469934
30
0
41
1
10
145.1
20
3.411E-13
30
0
0
SPLINE
5
113
100
AcDbEntity
8
1
62
256
6
ByLayer
370
13
48
1
60
0
100
AcDbSpline
70
4
71
3
72
8
73
4
40
0
40
0
40
0
40
0
40
1
40
1
40
1
40
1
41
1
10
141.096327423072
20
-2.39049232025991
30
0
41
1
10
142.430884948714
20
-1.57933225493403
30
0
41
1
10
143.765442474357
20
-0.782495133446986
30
0
41
1
10
145.1
20
-5.68E-14
30
0
0
SPLINE
5
114
100
AcDbEntity
8
1
62
256
6
ByLayer
370
13
48
1
60
0
100
AcDbSpline
70
4
71
3
72
8
73
4
40
0
40
0
40
0
40
0
40
1
40
1
40
1
40
1
41
1
10
141.096327423072
20
3.55811549608771
30
0
41
1
10
142.430884948714
20
2.38596792799638
30
0
41
1
10
143.765442474357
20
1.19991988646339
30
0
41
1
10
145.1
20
0
30
0
0
SPLINE
5
115
100
AcDbEntity
8
1
62
256
6
ByLayer
370
13
48
1
60
0
100
AcDbSpline
70
4
71
3
72
8
73
4
40
0
40
0
40
0
40
0
40
1
40
1
40
1
40
1
41
1
10
141.096327423072
20
-9.58395796271188
30
0
41
1
10
142.430884948714
20
-6.39651040519144
30
0
41
1
10
143.765442474357
20
-3.20183212756643
30
0
41
1
10
145.1
20
-5.4E-13
30
0
0
SPLINE
5
116
100
AcDbEntity
8
1
62
256
6
ByLayer
370
13
48
1
60
0
100
AcDbSpline
70
4
71
3
72
8
73
4
40
0
40
0
40
0
40
0
40
1
40
1
40
1
40
1
41
1
10
141.096327423072
20
-10.9930927630835
30
0
41
1
10
142.430884948714
20
-7.32820835390157
30
0
41
1
10
143.765442474357
20
-3.66381473219985
30
0
41
1
10
145.1
20
2.84E-14
30
0
0
SPLINE
5
117
100
AcDbEntity
8
1
62
256
6
ByLayer
370
13
48
1
60
0
100
AcDbSpline
70
4
71
3
72
8
73
4
40
0
40
0
40
0
40
0
40
1
40
1
40
1
40
1
41
1
10
141.096327423072
20
7.9440933548502
30
0
41
1
10
142.430884948715
20
5.28590807071393
30
0
41
1
10
143.765442474357
20
2.63785575641933
30
0
41
1
10
145.1
20
4.263E-13
30
0
0
SPLINE
5
118
100
AcDbEntity
8
1
62
256
6
ByLayer
370
13
48
1
60
0
100
AcDbSpline
70
4
71
3
72
8
73
4
40
0
40
0
40
0
40
0
40
1
40
1
40
1
40
1
41
1
10
141.096327423072
20
2.81203466316197
30
0
41
1
10
142.430884948715
20
1.86049743154157
30
0
41
1
10
143.765442474357
20
0.923145069211444
30
0
41
1
10
145.1
20
1.421E-13
30
0
0
SPLINE
5
119
100
AcDbEntity
8
1
62
256
6
ByLayer
370
13
48
1
60
0
100
AcDbSpline
70
4
71
3
72
8
73
4
40
0
40
0
40
0
40
0
40
1
40
1
40
1
40
1
41
1
10
141.096327423072
20
1.20764109147052
30
0
41
1
10
142.430884948714
20
0.819685456717906
30
0
41
1
10
143.765442474357
20
0.417135160957684
30
0
41
1
10
145.1
20
0
30
0
0
SPLINE
5
11A
100
AcDbEntity
8
1
62
256
6
ByLayer
370
13
48
1
60
0
100
AcDbSpline
70
4
71
3
72
8
73
4
40
0
40
0
40
0
40
0
40
1
40
1
40
1
40
1
41
1
10
141.096327423072
20
6.73091094143601
30
0
41
1
10
142.430884948714
20
4.49888498248509
30
0
41
1
10
143.765442474357
20
2.25522998894019
30
0
41
1
10
145.1
20
8.53E-14
30
0
0
SPLINE
5
11B
100
AcDbEntity
8
1
62
256
6
ByLayer
370
13
48
1
60
0
100
AcDbSpline
70
4
71
3
72
8
73
4
40
0
40
0
40
0
40
0
40
1
40
1
40
1
40
1
41
1
10
141.096327423072
20
-10.814433815444
30
0
41
1
10
142.430884948715
20
-7.21230763266092
30
0
41
1
10
143.765442474357
20
-3.60746746224098
30
0
41
1
10
145.1
20
6.253E-13
30
0
0
SPLINE
5
11C
100
AcDbEntity
8
1
62
256
6
ByLayer
370
13
48
1
60
0
100
AcDbSpline
70
4
71
3
72
8
73
4
40
0
40
0
40
0
40
0
40
1
40
1
40
1
40
1
41
1
10
141.096327423072
20
-10.2772734502274
30
0
41
1
10
142.430884948714
20
-6.84628225323996
30
0
41
1
10
143.765442474357
20
-3.42049699410461
30
0
41
1
10
145.1
20
-5.684E-13
30
0
0
SPLINE
5
11D
100
AcDbEntity
8
1
62
256
6
ByLayer
370
13
48
1
60
0
100
AcDbSpline
70
4
71
3
72
8
73
4
40
0
40
0
40
0
40
0
40
1
40
1
40
1
40
1
41
1
10
141.096327423072
20
5.05898184861655
30
0
41
1
10
142.430884948715
20
3.35961909432157
30
0
41
1
10
143.765442474357
20
1.67327833089033
30
0
41
1
10
145.1
20
2.842E-13
30
0
0
SPLINE
5
11E
100
AcDbEntity
8
1
62
256
6
ByLayer
370
13
48
1
60
0
100
AcDbSpline
70
4
71
3
72
8
73
4
40
0
40
0
40
0
40
0
40
1
40
1
40
1
40
1
41
1
10
141.096327423072
20
-0.775555472639155
30
0
41
1
10
142.430884948714
20
-0.531680581900019
30
0
41
1
10
143.765442474357
20
-0.273159979954414
30
0
41
1
10
145.099999999999
20
-1.421E-13
30
0
0
SPLINE
5
11F
100
AcDbEntity
8
1
62
256
6
ByLayer
370
13
48
1
60
0
100
AcDbSpline
70
4
71
3
72
8
73
4
40
0
40
0
40
0
40
0
40
1
40
1
40
1
40
1
41
1
10
141.096327423072
20
4.67617628940792
30
0
41
1
10
142.430884948714
20
3.13073848100279
30
0
41
1
10
143.765442474357
20
1.57200052300601
30
0
41
1
10
145.1
20
0
30
0
0
SPLINE
5
120
100
AcDbEntity
8
1
62
256
6
ByLayer
370
13
48
1
60
0
100
AcDbSpline
70
4
71
3
72
8
73
4
40
0
40
0
40
0
40
0
40
1
40
1
40
1
40
1
41
1
10
141.096327423072
20
9.18137750830289
30
0
41
1
10
142.430884948714
20
6.12900341252455
30
0
41
1
10
143.765442474357
20
3.06851969287015
30
0
41
1
10
145.1
20
0
30
0
0
SPLINE
5
121
100
AcDbEntity
8
1
62
256
6
ByLayer
370
13
48
1
60
0
100
AcDbSpline
70
4
71
3
72
8
73
4
40
0
40
0
40
0
40
0
40
1
40
1
40
1
40
1
41
1
10
141.096327423072
20
-10.8843568221666
30
0
41
1
10
142.430884948715
20
-7.25411481199453
30
0
41
1
10
143.765442474357
20
-3.6259667987087
30
0
41
1
10
145.1
20
6.253E-13
30
0
0
SPLINE
5
122
100
AcDbEntity
8
1
62
256
6
ByLayer
370
13
48
1
60
0
100
AcDbSpline
70
4
71
3
72
8
73
4
40
0
40
0
40
0
40
0
40
1
40
1
40
1
40
1
41
1
10
141.096327423072
20
-8.45854674939059
30
0
41
1
10
142.430884948714
20
-5.62964618170221
30
0
41
1
10
143.765442474357
20
-2.81010802611155
30
0
41
1
10
145.1
20
0
30
0
0
SPLINE
5
123
100
AcDbEntity
8
1
62
256
6
ByLayer
370
13
48
1
60
0
100
AcDbSpline
70
4
71
3
72
8
73
4
40
0
40
0
40
0
40
0
40
1
40
1
40
1
40
1
41
1
10
141.096327423072
20
1.63096482531938
30
0
41
1
10
142.430884948715
20
1.0727920104367
30
0
41
1
10
143.765442474357
20
0.529132750225187
30
0
41
1
10
145.1
20
8.53E-14
30
0
0
SPLINE
5
124
100
AcDbEntity
8
1
62
256
6
ByLayer
370
13
48
1
60
0
100
AcDbSpline
70
4
71
3
72
8
73
4
40
0
40
0
40
0
40
0
40
1
40
1
40
1
40
1
41
1
10
141.096327423072
20
-4.27991673799082
30
0
41
1
10
142.430884948715
20
-2.86680120121233
30
0
41
1
10
143.765442474357
20
-1.44015081835684
30
0
41
1
10
145.1
20
-2.274E-13
30
0
0
SPLINE
5
125
100
AcDbEntity
8
1
62
256
6
ByLayer
370
13
48
1
60
0
100
AcDbSpline
70
4
71
3
72
8
73
4
40
0
40
0
40
0
40
0
40
1
40
1
40
1
40
1
41
1
10
141.096327423072
20
7.64288681545497
30
0
41
1
10
142.430884948714
20
5.10581576062594
30
0
41
1
10
143.765442474357
20
2.55816637548804
30
0
41
1
10
145.1
20
8.53E-14
30
0
0
SPLINE
5
126
100
AcDbEntity
8
1
62
256
6
ByLayer
370
13
48
1
60
0
100
AcDbSpline
70
4
71
3
72
8
73
4
40
0
40
0
40
0
40
0
40
1
40
1
40
1
40
1
41
1
10
141.096327423072
20
10.6465429508212
30
0
41
1
10
142.430884948714
20
7.10138677524594
30
0
41
1
10
143.765442474357
20
3.55251067220939
30
0
41
1
10
145.1
20
0
30
0
0
SPLINE
5
127
100
AcDbEntity
8
1
62
256
6
ByLayer
370
13
48
1
60
0
100
AcDbSpline
70
4
71
3
72
8
73
4
40
0
40
0
40
0
40
0
40
1
40
1
40
1
40
1
41
1
10
141.096327423072
20
2.39728602606419
30
0
41
1
10
142.430884948714
20
1.61251795436712
30
0
41
1
10
143.765442474357
20
0.813416169571013
30
0
41
1
10
145.1
20
5.68E-14
30
0
0
SPLINE
5
128
100
AcDbEntity
8
1
62
256
6
ByLayer
370
13
48
1
60
0
100
AcDbSpline
70
4
71
3
72
8
73
4
40
0
40
0
40
0
40
0
40
1
40
1
40
1
40
1
41
1
10
141.096327423072
20
10.9386233645574
30
0
41
1
10
142.430884948715
20
7.29086696115064
30
0
41
1
10
143.765442474357
20
3.6446299538905
30
0
41
1
10
145.1
20
5.969E-13
30
0
0
SPLINE
5
129
100
AcDbEntity
8
1
62
256
6
ByLayer
370
13
48
1
60
0
100
AcDbSpline
70
4
71
3
72
8
73
4
40
0
40
0
40
0
40
0
40
1
40
1
40
1
40
1
41
1
10
141.096327423072
20
-9.78622318325029
30
0
41
1
10
142.430884948714
20
-6.51744539846976
30
0
41
1
10
143.765442474357
20
-3.25534487745841
30
0
41
1
10
145.1
20
0
30
0
0
SPLINE
5
12A
100
AcDbEntity
8
1
62
256
6
ByLayer
370
13
48
1
60
0
100
AcDbSpline
70
4
71
3
72
8
73
4
40
0
40
0
40
0
40
0
40
1
40
1
40
1
40
1
41
1
10
141.096327423072
20
-5.73208963282997
30
0
41
1
10
142.430884948714
20
-3.80886365093241
30
0
41
1
10
143.765442474357
20
-1.89815182649542
30
0
41
1
10
145.1
20
0
30
0
0
SPLINE
5
12B
100
AcDbEntity
8
1
62
256
6
ByLayer
370
13
48
1
60
0
100
AcDbSpline
70
4
71
3
72
8
73
4
40
0
40
0
40
0
40
0
40
1
40
1
40
1
40
1
41
1
10
141.096327423072
20
-10.9696913321612
30
0
41
1
10
142.430884948714
20
-7.31421656686194
30
0
41
1
10
143.765442474357
20
-3.65762348035372
30
0
41
1
10
145.1
20
2.84E-14
30
0
0
SPLINE
5
12C
100
AcDbEntity
8
1
62
256
6
ByLayer
370
13
48
1
60
0
100
AcDbSpline
70
4
71
3
72
8
73
4
40
0
40
0
40
0
40
0
40
1
40
1
40
1
40
1
41
1
10
141.096327423072
20
-1.97207947190341
30
0
41
1
10
142.430884948715
20
-1.32916193465388
30
0
41
1
10
143.765442474357
20
-0.671796803569833
30
0
41
1
10
145.1
20
-1.137E-13
30
0
0
SPLINE
5
12D
100
AcDbEntity
8
1
62
256
6
ByLayer
370
13
48
1
60
0
100
AcDbSpline
70
4
71
3
72
8
73
4
40
0
40
0
40
0
40
0
40
1
40
1
40
1
40
1
41
1
10
141.096327423072
20
3.95930374284492
30
0
41
1
10
142.430884948715
20
2.62583960635936
30
0
41
1
10
143.765442474357
20
1.30606115114225
30
0
41
1
10
145.1
20
2.274E-13
30
0
0
SPLINE
5
12E
100
AcDbEntity
8
1
62
256
6
ByLayer
370
13
48
1
60
0
100
AcDbSpline
70
4
71
3
72
8
73
4
40
0
40
0
40
0
40
0
40
1
40
1
40
1
40
1
41
1
10
141.096327423072
20
9.78939961346757
30
0
41
1
10
142.430884948714
20
6.53296153377167
30
0
41
1
10
143.765442474357
20
3.26980215840689
30
0
41
1
10
145.1
20
0
30
0
0
SPLINE
5
12F
100
AcDbEntity
8
1
62
256
6
ByLayer
370
13
48
1
60
0
100
AcDbSpline
70
4
71
3
72
8
73
4
40
0
40
0
40
0
40
0
40
1
40
1
40
1
40
1
41
1
10
141.096327423072
20
5.73802927492946
30
0
41
1
10
142.430884948714
20
3.83787744445459
30
0
41
1
10
143.765442474357
20
1.92518565651619
30
0
41
1
10
145.1
20
-8.53E-14
30
0
0
SPLINE
5
130
100
AcDbEntity
8
1
62
256
6
ByLayer
370
13
48
1
60
0
100
AcDbSpline
70
4
71
3
72
8
73
4
40
0
40
0
40
0
40
0
40
1
40
1
40
1
40
1
41
1
10
141.096327423072
20
-7.63787930116925
30
0
41
1
10
142.430884948714
20
-5.08135519833786
30
0
41
1
10
143.765442474357
20
-2.53537505443575
30
0
41
1
10
145.1
20
0
30
0
0
SPLINE
5
131
100
AcDbEntity
8
1
62
256
6
ByLayer
370
13
48
1
60
0
100
AcDbSpline
70
4
71
3
72
8
73
4
40
0
40
0
40
0
40
0
40
1
40
1
40
1
40
1
41
1
10
141.096327423072
20
-10.6447905193453
30
0
41
1
10
142.430884948714
20
-7.09282654818998
30
0
41
1
10
143.765442474357
20
-3.5445346134087
30
0
41
1
10
145.1
20
-5.969E-13
30
0
0
SPLINE
5
132
100
AcDbEntity
8
1
62
256
6
ByLayer
370
13
48
1
60
0
100
AcDbSpline
70
4
71
3
72
8
73
4
40
0
40
0
40
0
40
0
40
1
40
1
40
1
40
1
41
1
10
141.096327423072
20
-5.3634897175676
30
0
41
1
10
142.430884948715
20
-3.5884766355274
30
0
41
1
10
143.765442474357
20
-1.80063236653473
30
0
41
1
10
145.1
20
-3.126E-13
30
0
0
SPLINE
5
133
100
AcDbEntity
8
1
62
256
6
ByLayer
370
13
48
1
60
0
100
AcDbSpline
70
4
71
3
72
8
73
4
40
0
40
0
40
0
40
0
40
1
40
1
40
1
40
1
41
1
10
141.096327423072
20
8.46299491406037
30
0
41
1
10
142.430884948714
20
5.65137444901501
30
0
41
1
10
143.765442474357
20
2.83035350985807
30
0
41
1
10
145.1
20
-1.421E-13
30
0
0
SPLINE
5
134
100
AcDbEntity
8
1
62
256
6
ByLayer
370
13
48
1
60
0
100
AcDbSpline
70
4
71
3
72
8
73
4
40
0
40
0
40
0
40
0
40
1
40
1
40
1
40
1
41
1
10
141.096327423072
20
10.8853612891541
30
0
41
1
10
142.430884948714
20
7.25902140355166
30
0
41
1
10
143.765442474357
20
3.63053855393409
30
0
41
1
10
145.1
20
-2.84E-14
30
0
0
SPLINE
5
135
100
AcDbEntity
8
1
62
256
6
ByLayer
370
13
48
1
60
0
100
AcDbSpline
70
4
71
3
72
8
73
4
40
0
40
0
40
0
40
0
40
1
40
1
40
1
40
1
41
1
10
141.096327423072
20
-9.17754216034891
30
0
41
1
10
142.430884948714
20
-6.11026861474437
30
0
41
1
10
143.765442474357
20
-3.05106339787463
30
0
41
1
10
145.1
20
0
30
0
0
SPLINE
5
136
100
AcDbEntity
8
1
62
256
6
ByLayer
370
13
48
1
60
0
100
AcDbSpline
70
4
71
3
72
8
73
4
40
0
40
0
40
0
40
0
40
1
40
1
40
1
40
1
41
1
10
141.096327423072
20
10.7458522451645
30
0
41
1
10
142.430884948715
20
7.16076410572305
30
0
41
1
10
143.765442474357
20
3.57878465750505
30
0
41
1
10
145.1
20
5.969E-13
30
0
0
SPLINE
5
137
100
AcDbEntity
8
1
62
256
6
ByLayer
370
13
48
1
60
0
100
AcDbSpline
70
4
71
3
72
8
73
4
40
0
40
0
40
0
40
0
40
1
40
1
40
1
40
1
41
1
10
141.096327423072
20
-3.14489900472756
30
0
41
1
10
142.430884948715
20
-2.11066671297334
30
0
41
1
10
143.765442474357
20
-1.06235860535594
30
0
41
1
10
145.1
20
-1.705E-13
30
0
0
SPLINE
5
138
100
AcDbEntity
8
1
62
256
6
ByLayer
370
13
48
1
60
0
100
AcDbSpline
70
4
71
3
72
8
73
4
40
0
40
0
40
0
40
0
40
1
40
1
40
1
40
1
41
1
10
141.096327423072
20
-4.66987507332038
30
0
41
1
10
142.430884948714
20
-3.09995848122534
30
0
41
1
10
143.765442474357
20
-1.54332101643314
30
0
41
1
10
145.1
20
0
30
0
0
SPLINE
5
139
100
AcDbEntity
8
1
62
256
6
ByLayer
370
13
48
1
60
0
100
AcDbSpline
70
4
71
3
72
8
73
4
40
0
40
0
40
0
40
0
40
1
40
1
40
1
40
1
41
1
10
141.096327423072
20
10.2797527819021
30
0
41
1
10
142.430884948714
20
6.85839322155701
30
0
41
1
10
143.765442474357
20
3.43178148396674
30
0
41
1
10
145.1
20
0
30
0
0
SPLINE
5
13A
100
AcDbEntity
8
1
62
256
6
ByLayer
370
13
48
1
60
0
100
AcDbSpline
70
4
71
3
72
8
73
4
40
0
40
0
40
0
40
0
40
1
40
1
40
1
40
1
41
1
10
141.096327423072
20
-8.17931613124495
30
0
41
1
10
142.430884948715
20
-5.46269334206551
30
0
41
1
10
143.765442474357
20
-2.73623275387541
30
0
41
1
10
145.1
20
4.832E-13
30
0
0
SPLINE
5
13B
100
AcDbEntity
8
1
62
256
6
ByLayer
370
13
48
1
60
0
100
AcDbSpline
70
4
71
3
72
8
73
4
40
0
40
0
40
0
40
0
40
1
40
1
40
1
40
1
41
1
10
141.096327423072
20
-6.72540426803681
30
0
41
1
10
142.430884948714
20
-4.47198614206349
30
0
41
1
10
143.765442474357
20
-2.23016678308403
30
0
41
1
10
145.1
20
0
30
0
0
SPLINE
5
13C
100
AcDbEntity
8
1
62
256
6
ByLayer
370
13
48
1
60
0
100
AcDbSpline
70
4
71
3
72
8
73
4
40
0
40
0
40
0
40
0
40
1
40
1
40
1
40
1
41
1
10
141.096327423072
20
9.40953051687035
30
0
41
1
10
142.430884948715
20
6.26541679335276
30
0
41
1
10
143.765442474357
20
3.12888150323096
30
0
41
1
10
145.1
20
5.116E-13
30
0
0
SPLINE
5
13D
100
AcDbEntity
8
1
62
256
6
ByLayer
370
13
48
1
60
0
100
AcDbSpline
70
4
71
3
72
8
73
4
40
0
40
0
40
0
40
0
40
1
40
1
40
1
40
1
41
1
10
141.096327423072
20
-6.3825933571288
30
0
41
1
10
142.430884948715
20
-4.2670184511469
30
0
41
1
10
143.765442474358
20
-2.13947024866744
30
0
41
1
10
145.1
20
3.695E-13
30
0
0
SPLINE
5
13E
100
AcDbEntity
8
1
62
256
6
ByLayer
370
13
48
1
60
0
100
AcDbSpline
70
4
71
3
72
8
73
4
40
0
40
0
40
0
40
0
40
1
40
1
40
1
40
1
41
1
10
141.096327423072
20
-1.20072238968163
30
0
41
1
10
142.430884948714
20
-0.785889180481121
30
0
41
1
10
143.765442474357
20
-0.385645215100681
30
0
41
1
10
145.1
20
2.84E-14
30
0
0
SPLINE
5
13F
100
AcDbEntity
8
1
62
256
6
ByLayer
370
13
48
1
60
0
100
AcDbSpline
70
4
71
3
72
8
73
4
40
0
40
0
40
0
40
0
40
1
40
1
40
1
40
1
41
1
10
141.096327423072
20
10.4239155938825
30
0
41
1
10
142.430884948715
20
6.94458860725646
30
0
41
1
10
143.765442474357
20
3.46992224034997
30
0
41
1
10
145.1
20
5.684E-13
30
0
0
SPLINE
5
140
100
AcDbEntity
8
1
62
256
6
ByLayer
370
13
48
1
60
0
100
AcDbSpline
70
4
71
3
72
8
73
4
40
0
40
0
40
0
40
0
40
1
40
1
40
1
40
1
41
1
10
141.096327423072
20
0.430290731402124
30
0
41
1
10
142.430884948715
20
0.272191590640858
30
0
41
1
10
143.765442474357
20
0.128760236480645
30
0
41
1
10
145.1
20
2.84E-14
30
0
0
SPLINE
5
141
100
AcDbEntity
8
1
62
256
6
ByLayer
370
13
48
1
60
0
100
AcDbSpline
70
4
71
3
72
8
73
4
40
0
40
0
40
0
40
0
40
1
40
1
40
1
40
1
41
1
10
141.096327423072
20
-3.55152844685702
30
0
41
1
10
142.430884948714
20
-2.3537916986721
30
0
41
1
10
143.765442474357
20
-1.16993943204278
30
0
41
1
10
145.1
20
0
30
0
0
LINE
5
7D
100
AcDbEntity
8
80
62
256
6
ByLayer
370
18
48
1
60
0
100
AcDbLine
10
0
20
0
30
0
11
-5
21
0
31
0
39
0
210
0
220
0
230
1
0
LINE
5
7E
100
AcDbEntity
8
4
62
256
6
ByLayer
370
18
48
0.05
60
0
100
AcDbLine
10
-5
20
0
30
0
11
150.1
21
0
31
0
39
0
210
0
220
0
230
1
0
LINE
5
80
100
AcDbEntity
8
81
62
256
6
ByLayer
370
18
48
1
60
0
100
AcDbLine
10
145.1
20
0
30
0
11
150.1
21
0
31
0
39
0
210
0
220
0
230
1
0
LINE
5
81
100
AcDbEntity
8
SK4
62
256
6
ByLayer
370
18
48
0.05
60
0
100
AcDbLine
10
-61
20
0
30
0
11
150.1
21
0
31
0
39
0
210
0
220
0
230
1
0
LINE
5
83
100
AcDbEntity
8
1
62
256
6
ByLayer
370
18
48
1
60
0
100
AcDbLine
10
38.82731
20
-10.7
30
0
11
88.982215
21
-10.7
31
0
39
0
210
0
220
0
230
1
0
LINE
5
84
100
AcDbEntity
8
1
62
256
6
ByLayer
370
18
48
1
60
0
100
AcDbLine
10
88.982215
20
10.7
30
0
11
38.82731
21
10.7
31
0
39
0
210
0
220
0
230
1
0
LINE
5
85
100
AcDbEntity
8
1
62
256
6
ByLayer
370
18
48
1
60
0
100
AcDbLine
10
145.1
20
0
30
0
11
141.096327
21
11
31
0
39
0
210
0
220
0
230
1
0
LINE
5
86
100
AcDbEntity
8
1
62
256
6
ByLayer
370
18
48
1
60
0
100
AcDbLine
10
141.096327
20
-11
30
0
11
145.1
21
0
31
0
39
0
210
0
220
0
230
1
0
LINE
5
87
100
AcDbEntity
8
1
62
256
6
ByLayer
370
18
48
1
60
0
100
AcDbLine
10
3.419512
20
11.884488
30
0
11
0
21
12.5
31
0
39
0
210
0
220
0
230
1
0
LINE
5
88
100
AcDbEntity
8
1
62
256
6
ByLayer
370
18
48
1
60
0
100
AcDbLine
10
0
20
-12.5
30
0
11
3.419512
21
-11.884488
31
0
39
0
210
0
220
0
230
1
0
LINE
5
89
100
AcDbEntity
8
1
62
256
6
ByLayer
370
18
48
1
60
0
100
AcDbLine
10
145.1
20
0
30
0
11
141.096327
21
11
31
0
39
0
210
0
220
0
230
1
0
LINE
5
8A
100
AcDbEntity
8
1
62
256
6
ByLayer
370
18
48
1
60
0
100
AcDbLine
10
141.096327
20
-11
30
0
11
145.1
21
0
31
0
39
0
210
0
220
0
230
1
0
LINE
5
8B
100
AcDbEntity
8
1
62
256
6
ByLayer
370
18
48
1
60
0
100
AcDbLine
10
141.096327
20
11
30
0
11
130.1
21
11
31
0
39
0
210
0
220
0
230
1
0
LINE
5
8C
100
AcDbEntity
8
1
62
256
6
ByLayer
370
18
48
1
60
0
100
AcDbLine
10
130.1
20
-11
30
0
11
141.096327
21
-11
31
0
39
0
210
0
220
0
230
1
0
LINE
5
8D
100
AcDbEntity
8
SK1
62
256
6
ByLayer
370
18
48
1
60
0
100
AcDbLine
10
-56
20
-11.5
30
0
11
-55
21
-12.5
31
0
39
0
210
0
220
0
230
1
0
LINE
5
8F
100
AcDbEntity
8
SK1
62
256
6
ByLayer
370
18
48
1
60
0
100
AcDbLine
10
-55
20
12.5
30
0
11
-56
21
11.5
31
0
39
0
210
0
220
0
230
1
0
LINE
5
90
100
AcDbEntity
8
SK1
62
256
6
ByLayer
370
18
48
1
60
0
100
AcDbLine
10
-55
20
-12.5
30
0
11
0
21
-12.5
31
0
39
0
210
0
220
0
230
1
0
LINE
5
91
100
AcDbEntity
8
SK1
62
256
6
ByLayer
370
18
48
1
60
0
100
AcDbLine
10
0
20
12.5
30
0
11
-55
21
12.5
31
0
39
0
210
0
220
0
230
1
0
LINE
5
92
100
AcDbEntity
8
1
62
256
6
ByLayer
370
18
48
1
60
0
100
AcDbLine
10
0
20
12.5
30
0
11
0
21
-12.5
31
0
39
0
210
0
220
0
230
1
0
LINE
5
93
100
AcDbEntity
8
1
62
256
6
ByLayer
370
18
48
1
60
0
100
AcDbLine
10
141.096327
20
11
30
0
11
141.096327
21
10.650738
31
0
39
0
210
0
220
0
230
1
0
LINE
5
94
100
AcDbEntity
8
1
62
256
6
ByLayer
370
18
48
1
60
0
100
AcDbLine
10
141.096327
20
-11
30
0
11
141.096327
21
-1.569785
31
0
39
0
210
0
220
0
230
1
0
LINE
5
95
100
AcDbEntity
8
1
62
256
6
ByLayer
370
18
48
1
60
0
100
AcDbLine
10
10
20
-7.786151
30
0
11
10
21
9.382658
31
0
39
0
210
0
220
0
230
1
0
LINE
5
96
100
AcDbEntity
8
SK1
62
256
6
ByLayer
370
13
48
1
60
0
100
AcDbLine
10
-15.162813
20
-7.237775
30
0
11
-15.162813
21
7.237775
31
0
39
0
210
0
220
0
230
1
0
LINE
5
97
100
AcDbEntity
8
SK1
62
256
6
ByLayer
370
13
48
1
60
0
100
AcDbLine
10
-51.386002
20
5.000227
30
0
11
-51.386002
21
-5.000227
31
0
39
0
210
0
220
0
230
1
0
LINE
5
98
100
AcDbEntity
8
SK1
62
256
6
ByLayer
370
18
48
1
60
0
100
AcDbLine
10
-56
20
-11.5
30
0
11
-56
21
11.5
31
0
39
0
210
0
220
0
230
1
0
LINE
5
99
100
AcDbEntity
8
SK1
62
256
6
ByLayer
370
13
48
1
60
0
100
AcDbLine
10
-52.500329
20
-3.620591
30
0
11
-52.500329
21
3.620591
31
0
39
0
210
0
220
0
230
1
0
LINE
5
9A
100
AcDbEntity
8
SK1
62
256
6
ByLayer
370
18
48
1
60
0
100
AcDbLine
10
-55
20
-12.5
30
0
11
-55
21
12.5
31
0
39
0
210
0
220
0
230
1
0
LINE
5
9B
100
AcDbEntity
8
SK1
62
256
6
ByLayer
370
18
48
1
60
0
100
AcDbLine
10
0
20
12.5
30
0
11
0
21
-12.5
31
0
39
0
210
0
220
0
230
1
0
LINE
5
9C
100
AcDbEntity
8
SK1
62
256
6
ByLayer
370
13
48
1
60
0
100
AcDbLine
10
-14.015776
20
6.592429
30
0
11
-14.015776
21
-6.592429
31
0
39
0
210
0
220
0
230
1
0
LINE
5
9D
100
AcDbEntity
8
1
62
256
6
ByLayer
370
18
48
1
60
0
100
AcDbLine
10
141.096327
20
11
30
0
11
141.096327
21
-11
31
0
39
0
210
0
220
0
230
1
0
LINE
5
9E
100
AcDbEntity
8
1
62
256
6
ByLayer
370
18
48
1
60
0
100
AcDbLine
10
141.096327
20
11
30
0
11
141.096327
21
-11
31
0
39
0
210
0
220
0
230
1
0
LINE
5
9F
100
AcDbEntity
8
1
62
256
6
ByLayer
370
18
48
1
60
0
100
AcDbLine
10
141.096327
20
11
30
0
11
141.096327
21
-11
31
0
39
0
210
0
220
0
230
1
0
LINE
5
A0
100
AcDbEntity
8
1
62
256
6
ByLayer
370
18
48
1
60
0
100
AcDbLine
10
130.1
20
11
30
0
11
130.1
21
-11
31
0
39
0
210
0
220
0
230
1
0
LINE
5
A1
100
AcDbEntity
8
1
62
256
6
ByLayer
370
18
48
1
60
0
100
AcDbLine
10
130.1
20
11
30
0
11
130.1
21
-11
31
0
39
0
210
0
220
0
230
1
0
LINE
5
A2
100
AcDbEntity
8
1
62
256
6
ByLayer
370
18
48
1
60
0
100
AcDbLine
10
141.096327
20
11
30
0
11
141.096327
21
-11
31
0
39
0
210
0
220
0
230
1
0
LINE
5
A3
100
AcDbEntity
8
1
62
256
6
ByLayer
370
18
48
1
60
0
100
AcDbLine
10
130.1
20
11
30
0
11
130.1
21
-11
31
0
39
0
210
0
220
0
230
1
0
LINE
5
A4
100
AcDbEntity
8
1
62
256
6
ByLayer
370
18
48
1
60
0
100
AcDbLine
10
141.096327
20
11
30
0
11
141.096327
21
-11
31
0
39
0
210
0
220
0
230
1
0
LINE
5
A5
100
AcDbEntity
8
SK2
62
256
6
ByLayer
370
13
48
1
60
0
100
AcDbLine
10
-62.5
20
-12.5
30
0
11
-62.5
21
41.524569
31
0
39
0
210
0
220
0
230
1
0
LINE
5
A7
100
AcDbEntity
8
SK2
62
256
6
ByLayer
370
13
48
1
60
0
100
AcDbLine
10
-57.5875
20
12.5
30
0
11
-64.5
21
12.5
31
0
39
0
210
0
220
0
230
1
0
LINE
5
A8
100
AcDbEntity
8
SK2
62
256
6
ByLayer
370
13
48
1
60
0
100
AcDbLine
10
-57.5875
20
-12.5
30
0
11
-64.5
21
-12.5
31
0
39
0
210
0
220
0
230
1
0
LINE
5
A9
100
AcDbEntity
8
1
62
256
6
ByLayer
370
18
48
1
60
1
100
AcDbLine
10
-62.5
20
12.5
30
0
11
-62.039216
21
9.000002
31
0
39
0
210
0
220
0
230
1
0
LINE
5
AA
100
AcDbEntity
8
1
62
256
6
ByLayer
370
18
48
1
60
1
100
AcDbLine
10
-62.039216
20
9.000002
30
0
11
-62.960784
21
8.999998
31
0
39
0
210
0
220
0
230
1
0
LINE
5
AB
100
AcDbEntity
8
1
62
256
6
ByLayer
370
18
48
1
60
1
100
AcDbLine
10
-62.960784
20
8.999998
30
0
11
-62.5
21
12.5
31
0
39
0
210
0
220
0
230
1
0
LINE
5
AC
100
AcDbEntity
8
1
62
256
6
ByLayer
370
18
48
1
60
1
100
AcDbLine
10
-62.5
20
-12.5
30
0
11
-62.960784
21
-9.000002
31
0
39
0
210
0
220
0
230
1
0
LINE
5
AD
100
AcDbEntity
8
1
62
256
6
ByLayer
370
18
48
1
60
1
100
AcDbLine
10
-62.960784
20
-9.000002
30
0
11
-62.039216
21
-8.999998
31
0
39
0
210
0
220
0
230
1
0
LINE
5
AE
100
AcDbEntity
8
1
62
256
6
ByLayer
370
18
48
1
60
1
100
AcDbLine
10
-62.039216
20
-8.999998
30
0
11
-62.5
21
-12.5
31
0
39
0
210
0
220
0
230
1
0
LINE
5
AF
100
AcDbEntity
8
2
62
256
6
ByLayer
370
13
48
1
60
0
100
AcDbLine
10
152.6
20
-11
30
0
11
152.6
21
40.024569
31
0
39
0
210
0
220
0
230
1
0
LINE
5
B1
100
AcDbEntity
8
2
62
256
6
ByLayer
370
13
48
1
60
0
100
AcDbLine
10
142.683827
20
11
30
0
11
154.6
21
11
31
0
39
0
210
0
220
0
230
1
0
LINE
5
B2
100
AcDbEntity
8
2
62
256
6
ByLayer
370
13
48
1
60
0
100
AcDbLine
10
142.683827
20
-11
30
0
11
154.6
21
-11
31
0
39
0
210
0
220
0
230
1
0
LINE
5
B3
100
AcDbEntity
8
1
62
256
6
ByLayer
370
18
48
1
60
1
100
AcDbLine
10
152.6
20
11
30
0
11
153.060784
21
7.500002
31
0
39
0
210
0
220
0
230
1
0
LINE
5
B4
100
AcDbEntity
8
1
62
256
6
ByLayer
370
18
48
1
60
1
100
AcDbLine
10
153.060784
20
7.500002
30
0
11
152.139216
21
7.499998
31
0
39
0
210
0
220
0
230
1
0
LINE
5
B5
100
AcDbEntity
8
1
62
256
6
ByLayer
370
18
48
1
60
1
100
AcDbLine
10
152.139216
20
7.499998
30
0
11
152.6
21
11
31
0
39
0
210
0
220
0
230
1
0
LINE
5
B6
100
AcDbEntity
8
1
62
256
6
ByLayer
370
18
48
1
60
1
100
AcDbLine
10
152.6
20
-11
30
0
11
152.139216
21
-7.500002
31
0
39
0
210
0
220
0
230
1
0
LINE
5
B7
100
AcDbEntity
8
1
62
256
6
ByLayer
370
18
48
1
60
1
100
AcDbLine
10
152.139216
20
-7.500002
30
0
11
153.060784
21
-7.499998
31
0
39
0
210
0
220
0
230
1
0
LINE
5
B8
100
AcDbEntity
8
1
62
256
6
ByLayer
370
18
48
1
60
1
100
AcDbLine
10
153.060784
20
-7.499998
30
0
11
152.6
21
-11
31
0
39
0
210
0
220
0
230
1
0
LINE
5
B9
100
AcDbEntity
8
SK2
62
256
6
ByLayer
370
13
48
1
60
0
100
AcDbLine
10
145.642957
20
-1.491762
30
0
11
152.282423
21
-19.733545
31
0
39
0
210
0
220
0
230
1
0
LINE
5
BA
100
AcDbEntity
8
SK2
62
256
6
ByLayer
370
13
48
1
60
0
100
AcDbLine
10
145.642957
20
1.491762
30
0
11
152.282423
21
19.733545
31
0
39
0
210
0
220
0
230
1
0
LINE
5
BB
100
AcDbEntity
8
1
62
256
6
ByLayer
370
18
48
1
60
1
100
AcDbLine
10
151.598383
20
-17.85416
30
0
11
154.651575
21
-16.082064
31
0
39
0
210
0
220
0
230
1
0
LINE
5
BC
100
AcDbEntity
8
1
62
256
6
ByLayer
370
18
48
1
60
1
100
AcDbLine
10
154.651575
20
-16.082064
30
0
11
155.006196
21
-16.93267
31
0
39
0
210
0
220
0
230
1
0
LINE
5
BD
100
AcDbEntity
8
1
62
256
6
ByLayer
370
18
48
1
60
1
100
AcDbLine
10
155.006196
20
-16.93267
30
0
11
151.598383
21
-17.85416
31
0
39
0
210
0
220
0
230
1
0
LINE
5
BE
100
AcDbEntity
8
1
62
256
6
ByLayer
370
18
48
1
60
1
100
AcDbLine
10
151.598383
20
17.85416
30
0
11
155.006193
21
16.932671
31
0
39
0
210
0
220
0
230
1
0
LINE
5
BF
100
AcDbEntity
8
1
62
256
6
ByLayer
370
18
48
1
60
1
100
AcDbLine
10
155.006193
20
16.932671
30
0
11
154.651579
21
16.082063
31
0
39
0
210
0
220
0
230
1
0
LINE
5
C0
100
AcDbEntity
8
1
62
256
6
ByLayer
370
18
48
1
60
1
100
AcDbLine
10
154.651579
20
16.082063
30
0
11
151.598383
21
17.85416
31
0
39
0
210
0
220
0
230
1
0
LINE
5
146
100
AcDbEntity
8
1
62
256
6
ByLayer
370
18
48
1
60
1
100
AcDbLine
10
-62.5
20
12.5
30
0
11
-62.039216
21
9.000002
31
0
39
0
210
0
220
0
230
1
0
LINE
5
147
100
AcDbEntity
8
1
62
256
6
ByLayer
370
18
48
1
60
1
100
AcDbLine
10
-62.039216
20
9.000002
30
0
11
-62.960784
21
8.999998
31
0
39
0
210
0
220
0
230
1
0
LINE
5
148
100
AcDbEntity
8
1
62
256
6
ByLayer
370
18
48
1
60
1
100
AcDbLine
10
-62.960784
20
8.999998
30
0
11
-62.5
21
12.5
31
0
39
0
210
0
220
0
230
1
0
LINE
5
14A
100
AcDbEntity
8
1
62
256
6
ByLayer
370
18
48
1
60
1
100
AcDbLine
10
-62.5
20
-12.5
30
0
11
-62.960784
21
-9.000002
31
0
39
0
210
0
220
0
230
1
0
LINE
5
14B
100
AcDbEntity
8
1
62
256
6
ByLayer
370
18
48
1
60
1
100
AcDbLine
10
-62.960784
20
-9.000002
30
0
11
-62.039216
21
-8.999998
31
0
39
0
210
0
220
0
230
1
0
LINE
5
14C
100
AcDbEntity
8
1
62
256
6
ByLayer
370
18
48
1
60
1
100
AcDbLine
10
-62.039216
20
-8.999998
30
0
11
-62.5
21
-12.5
31
0
39
0
210
0
220
0
230
1
0
LINE
5
150
100
AcDbEntity
8
1
62
256
6
ByLayer
370
18
48
1
60
1
100
AcDbLine
10
152.6
20
11
30
0
11
153.060784
21
7.500002
31
0
39
0
210
0
220
0
230
1
0
LINE
5
151
100
AcDbEntity
8
1
62
256
6
ByLayer
370
18
48
1
60
1
100
AcDbLine
10
153.060784
20
7.500002
30
0
11
152.139216
21
7.499998
31
0
39
0
210
0
220
0
230
1
0
LINE
5
152
100
AcDbEntity
8
1
62
256
6
ByLayer
370
18
48
1
60
1
100
AcDbLine
10
152.139216
20
7.499998
30
0
11
152.6
21
11
31
0
39
0
210
0
220
0
230
1
0
LINE
5
154
100
AcDbEntity
8
1
62
256
6
ByLayer
370
18
48
1
60
1
100
AcDbLine
10
152.6
20
-11
30
0
11
152.139216
21
-7.500002
31
0
39
0
210
0
220
0
230
1
0
LINE
5
155
100
AcDbEntity
8
1
62
256
6
ByLayer
370
18
48
1
60
1
100
AcDbLine
10
152.139216
20
-7.500002
30
0
11
153.060784
21
-7.499998
31
0
39
0
210
0
220
0
230
1
0
LINE
5
156
100
AcDbEntity
8
1
62
256
6
ByLayer
370
18
48
1
60
1
100
AcDbLine
10
153.060784
20
-7.499998
30
0
11
152.6
21
-11
31
0
39
0
210
0
220
0
230
1
0
LINE
5
159
100
AcDbEntity
8
1
62
256
6
ByLayer
370
18
48
1
60
1
100
AcDbLine
10
151.598383
20
-17.85416
30
0
11
154.651575
21
-16.082064
31
0
39
0
210
0
220
0
230
1
0
LINE
5
15A
100
AcDbEntity
8
1
62
256
6
ByLayer
370
18
48
1
60
1
100
AcDbLine
10
154.651575
20
-16.082064
30
0
11
155.006196
21
-16.93267
31
0
39
0
210
0
220
0
230
1
0
LINE
5
15B
100
AcDbEntity
8
1
62
256
6
ByLayer
370
18
48
1
60
1
100
AcDbLine
10
155.006196
20
-16.93267
30
0
11
151.598383
21
-17.85416
31
0
39
0
210
0
220
0
230
1
0
LINE
5
15D
100
AcDbEntity
8
1
62
256
6
ByLayer
370
18
48
1
60
1
100
AcDbLine
10
151.598383
20
17.85416
30
0
11
155.006193
21
16.932671
31
0
39
0
210
0
220
0
230
1
0
LINE
5
15E
100
AcDbEntity
8
1
62
256
6
ByLayer
370
18
48
1
60
1
100
AcDbLine
10
155.006193
20
16.932671
30
0
11
154.651579
21
16.082063
31
0
39
0
210
0
220
0
230
1
0
LINE
5
15F
100
AcDbEntity
8
1
62
256
6
ByLayer
370
18
48
1
60
1
100
AcDbLine
10
154.651579
20
16.082063
30
0
11
151.598383
21
17.85416
31
0
39
0
210
0
220
0
230
1
0
MTEXT
5
142
100
AcDbEntity
8
SK2
62
256
6
ByLayer
370
18
48
1
60
0
100
AcDbMText
10
-63.841114
20
24.158438
30
0
210
0
220
0
230
1
1
%%c
40
3
41
0
44
1.084337
50
90
71
7
72
5
7
iso_b_vert
0
MTEXT
5
145
100
AcDbEntity
8
SK2
62
256
6
ByLayer
370
18
48
1
60
0
100
AcDbMText
10
-63.841114
20
30.135
30
0
210
0
220
0
230
1
1
\W0.7513;25.000
40
3
41
0
44
1.084337
50
90
71
7
72
5
7
iso_b_vert
0
MTEXT
5
14E
100
AcDbEntity
8
2
62
256
6
ByLayer
370
18
48
1
60
0
100
AcDbMText
10
151.258886
20
22.658438
30
0
210
0
220
0
230
1
1
%%c
40
3
41
0
44
1.084337
50
90
71
7
72
5
7
iso_b_vert
0
MTEXT
5
14F
100
AcDbEntity
8
2
62
256
6
ByLayer
370
18
48
1
60
0
100
AcDbMText
10
151.258886
20
28.635
30
0
210
0
220
0
230
1
1
\W0.7513;22.000
40
3
41
0
44
1.084337
50
90
71
7
72
5
7
iso_b_vert
0
MTEXT
5
158
100
AcDbEntity
8
SK2
62
256
6
ByLayer
370
18
48
1
60
0
100
AcDbMText
10
165.009114
20
3.734657
30
0
210
0
220
0
230
1
1
\W0.7071;140%%d
40
3
41
0
44
1.084337
50
270
71
7
72
5
7
iso_b_vert
0
MTEXT
5
161
100
AcDbEntity
8
SK6
62
256
6
ByLayer
370
18
48
1
60
0
100
AcDbMText
10
20.26286
20
-67.114886
30
0
210
0
220
0
230
1
1
\W0.7680;H85522.0
40
3
41
0
44
1.084337
50
0
71
7
72
5
7
iso_b_vert
0
HATCH
5
149
100
AcDbEntity
8
SK2
62
256
6
ByLayer
370
13
48
1
60
0
100
AcDbHatch
10
0
20
0
30
0
210
0
220
0
230
1
2
ANSI31
70
0
71
0
91
1
92
5
93
3
72
1
10
-62.5
20
12.5
11
-62.0392162584472
21
9.00000169255318
72
1
10
-62.0392162584472
20
9.00000169255318
11
-62.9607837415528
21
8.99999830744682
72
1
10
-62.9607837415528
20
8.99999830744682
11
-62.5
21
12.5
97
0
75
0
76
1
52
0
41
0.0062
77
0
78
1
53
45
43
0
44
0
45
-0.0139193969876572
46
0.0139193969876572
79
0
47
0
98
1
10
0
20
0
0
HATCH
5
14D
100
AcDbEntity
8
SK2
62
256
6
ByLayer
370
13
48
1
60
0
100
AcDbHatch
10
0
20
0
30
0
210
0
220
0
230
1
2
ANSI31
70
0
71
0
91
1
92
5
93
3
72
1
10
-62.5
20
-12.5
11
-62.9607837415528
21
-9.00000169255318
72
1
10
-62.9607837415528
20
-9.00000169255318
11
-62.0392162584472
21
-8.99999830744682
72
1
10
-62.0392162584472
20
-8.99999830744682
11
-62.5
21
-12.5
97
0
75
0
76
1
52
0
41
0.0062
77
0
78
1
53
45
43
0
44
0
45
-0.0139193969876572
46
0.0139193969876572
79
0
47
0
98
1
10
0
20
0
0
HATCH
5
153
100
AcDbEntity
8
2
62
256
6
ByLayer
370
13
48
1
60
0
100
AcDbHatch
10
0
20
0
30
0
210
0
220
0
230
1
2
ANSI31
70
0
71
0
91
1
92
5
93
3
72
1
10
152.6
20
11
11
153.060783741553
21
7.50000169255318
72
1
10
153.060783741553
20
7.50000169255318
11
152.139216258447
21
7.49999830744682
72
1
10
152.139216258447
20
7.49999830744682
11
152.6
21
11
97
0
75
0
76
1
52
0
41
0.0062
77
0
78
1
53
45
43
0
44
0
45
-0.0139193969876572
46
0.0139193969876572
79
0
47
0
98
1
10
0
20
0
0
HATCH
5
157
100
AcDbEntity
8
2
62
256
6
ByLayer
370
13
48
1
60
0
100
AcDbHatch
10
0
20
0
30
0
210
0
220
0
230
1
2
ANSI31
70
0
71
0
91
1
92
5
93
3
72
1
10
152.6
20
-11
11
152.139216258447
21
-7.50000169255318
72
1
10
152.139216258447
20
-7.50000169255318
11
153.060783741553
21
-7.49999830744682
72
1
10
153.060783741553
20
-7.49999830744682
11
152.6
21
-11
97
0
75
0
76
1
52
0
41
0.0062
77
0
78
1
53
45
43
0
44
0
45
-0.0139193969876572
46
0.0139193969876572
79
0
47
0
98
1
10
0
20
0
0
HATCH
5
15C
100
AcDbEntity
8
SK2
62
256
6
ByLayer
370
13
48
1
60
0
100
AcDbHatch
10
0
20
0
30
0
210
0
220
0
230
1
2
ANSI31
70
0
71
0
91
1
92
5
93
3
72
1
10
151.598382723188
20
-17.8541597949323
11
154.651575425693
21
-16.0820638240607
72
1
10
154.651575425693
20
-16.0820638240607
11
155.006195833975
21
-16.9326700737196
72
1
10
155.006195833975
20
-16.9326700737196
11
151.598382723188
21
-17.8541597949323
97
0
75
0
76
1
52
0
41
0.0062
77
0
78
1
53
45
43
0
44
0
45
-0.0139193969876572
46
0.0139193969876572
79
0
47
0
98
1
10
0
20
0
0
HATCH
5
160
100
AcDbEntity
8
SK2
62
256
6
ByLayer
370
13
48
1
60
0
100
AcDbHatch
10
0
20
0
30
0
210
0
220
0
230
1
2
ANSI31
70
0
71
0
91
1
92
5
93
3
72
1
10
151.598382723188
20
17.8541597949323
11
155.006192709519
21
16.9326713763016
72
1
10
155.006192709519
20
16.9326713763016
11
154.651578550149
21
16.0820625214787
72
1
10
154.651578550149
20
16.0820625214787
11
151.598382723188
21
17.8541597949323
97
0
75
0
76
1
52
0
41
0.0062
77
0
78
1
53
45
43
0
44
0
45
-0.0139193969876572
46
0.0139193969876572
79
0
47
0
98
1
10
0
20
0
0
DIMENSION
5
164
100
AcDbEntity
8
SK2
62
256
6
ByLayer
370
18
48
1
60
0
100
AcDbDimension
2
_U0
10
145.1
20
-45.952229
30
0
11
44.55
21
-45.952229
31
0
70
32
71
1
72
1
41
1
210
0
220
0
230
1
3
Standard
100
AcDbAlignedDimension
13
-56
23
-12.5
33
0
14
145.1
24
0
34
0
50
0
100
AcDbRotatedDimension
1001
ACAD
1000
DSTYLE
1002
{
1070
   371
1070
    13
1070
   372
1070
    13
1070
     3
1000

1070
   170
1070
     0
1070
   144
1040
1.0
1070
   277
1070
     2
1070
   284
1070
     8
1070
   278
1070
    46
1070
   146
1040
1.166667
1070
   345
1005
16
1070
   347
1005
16
1070
   346
1005
16
1070
   344
1005
0
1070
   343
1005
0
1070
   172
1070
     1
1070
    76
1070
     0
1070
    75
1070
     0
1070
   282
1070
     0
1070
   281
1070
     0
1070
    71
1070
     0
1070
    74
1070
     0
1070
   279
1070
     0
1070
   173
1070
     1
1070
   340
1005
143
1070
   271
1070
     2
1070
   272
1070
     3
1070
    77
1070
     1
1070
    73
1070
     1
1070
   171
1070
     3
1070
   274
1070
     4
1070
   177
1070
     2
1070
   176
1070
     2
1070
   178
1070
     2
1070
    78
1070
     8
1070
    48
1040
-0.1
1070
    41
1040
3.5
1070
   147
1040
1.5
1070
    42
1040
1.5875
1070
    44
1040
2.0
1070
   140
1040
3.0
1002
}
1001
ACAD_DSTYLE_DIM_LINETYPE
1070
   380
1005
16
1001
ACAD_DSTYLE_DIM_EXT1_LINETYPE
1070
   381
1005
16
1001
ACAD_DSTYLE_DIM_EXT2_LINETYPE
1070
   382
1005
16
0
DIMENSION
5
17D
100
AcDbEntity
8
SK2
62
256
6
ByLayer
370
18
48
1
60
0
100
AcDbDimension
2
_U1
10
3
20
-35.952229
30
0
11
74.05
21
-35.952229
31
0
70
32
71
1
72
1
41
1
210
0
220
0
230
1
3
Standard
100
AcDbAlignedDimension
13
145.1
23
0
33
0
14
3
24
-11
34
0
50
0
100
AcDbRotatedDimension
1001
ACAD
1000
DSTYLE
1002
{
1070
   371
1070
    13
1070
   372
1070
    13
1070
     3
1000

1070
   170
1070
     0
1070
   144
1040
1.0
1070
   277
1070
     2
1070
   284
1070
     8
1070
   278
1070
    46
1070
   146
1040
1.166667
1070
   345
1005
16
1070
   347
1005
16
1070
   346
1005
16
1070
   344
1005
0
1070
   343
1005
0
1070
   172
1070
     1
1070
    76
1070
     0
1070
    75
1070
     0
1070
   282
1070
     0
1070
   281
1070
     0
1070
    71
1070
     0
1070
    74
1070
     0
1070
   279
1070
     0
1070
   173
1070
     1
1070
   340
1005
143
1070
   271
1070
     2
1070
   272
1070
     3
1070
    77
1070
     1
1070
    73
1070
     1
1070
   171
1070
     3
1070
   274
1070
     4
1070
   177
1070
     2
1070
   176
1070
     2
1070
   178
1070
     2
1070
    78
1070
     8
1070
    48
1040
-0.1
1070
    41
1040
3.5
1070
   147
1040
1.5
1070
    42
1040
1.5875
1070
    44
1040
2.0
1070
   140
1040
3.0
1002
}
1001
ACAD_DSTYLE_DIM_LINETYPE
1070
   380
1005
16
1001
ACAD_DSTYLE_DIM_EXT1_LINETYPE
1070
   381
1005
16
1001
ACAD_DSTYLE_DIM_EXT2_LINETYPE
1070
   382
1005
16
0
DIMENSION
5
195
100
AcDbEntity
8
SK2
62
256
6
ByLayer
370
18
48
1
60
0
100
AcDbDimension
2
_U2
10
0
20
-35.952229
30
0
11
-28
21
-35.952229
31
0
70
32
71
1
72
1
41
1
210
0
220
0
230
1
3
Standard
100
AcDbAlignedDimension
13
-56
23
-12.5
33
0
14
0
24
-12.5
34
0
50
0
100
AcDbRotatedDimension
1001
ACAD
1000
DSTYLE
1002
{
1070
   371
1070
    13
1070
   372
1070
    13
1070
     3
1000

1070
   170
1070
     0
1070
   144
1040
1.0
1070
   277
1070
     2
1070
   284
1070
     8
1070
   278
1070
    46
1070
   146
1040
1.166667
1070
   345
1005
16
1070
   347
1005
16
1070
   346
1005
16
1070
   344
1005
0
1070
   343
1005
0
1070
   172
1070
     1
1070
    76
1070
     0
1070
    75
1070
     0
1070
   282
1070
     0
1070
   281
1070
     0
1070
    71
1070
     0
1070
    74
1070
     0
1070
   279
1070
     0
1070
   173
1070
     1
1070
   340
1005
143
1070
   271
1070
     2
1070
   272
1070
     3
1070
    77
1070
     1
1070
    73
1070
     1
1070
   171
1070
     3
1070
   274
1070
     4
1070
   177
1070
     2
1070
   176
1070
     2
1070
   178
1070
     2
1070
    78
1070
     8
1070
    48
1040
-0.1
1070
    41
1040
3.5
1070
   147
1040
1.5
1070
    42
1040
1.5875
1070
    44
1040
2.0
1070
   140
1040
3.0
1002
}
1001
ACAD_DSTYLE_DIM_LINETYPE
1070
   380
1005
16
1001
ACAD_DSTYLE_DIM_EXT1_LINETYPE
1070
   381
1005
16
1001
ACAD_DSTYLE_DIM_EXT2_LINETYPE
1070
   382
1005
16
0
DIMENSION
5
1AD
100
AcDbEntity
8
SK2
62
256
6
ByLayer
370
18
48
1
60
0
100
AcDbDimension
2
_U3
10
20
20
32.952229
30
0
11
82.55
21
32.952229
31
0
70
32
71
1
72
1
41
1
210
0
220
0
230
1
3
Standard
100
AcDbAlignedDimension
13
145.1
23
0
33
0
14
20
24
11
34
0
50
0
100
AcDbRotatedDimension
1001
ACAD
1000
DSTYLE
1002
{
1070
   371
1070
    13
1070
   372
1070
    13
1070
     3
1000

1070
   170
1070
     0
1070
   144
1040
1.0
1070
   277
1070
     2
1070
   284
1070
     8
1070
   278
1070
    46
1070
   146
1040
1.166667
1070
   345
1005
16
1070
   347
1005
16
1070
   346
1005
16
1070
   344
1005
0
1070
   343
1005
0
1070
   172
1070
     1
1070
    76
1070
     0
1070
    75
1070
     0
1070
   282
1070
     0
1070
   281
1070
     0
1070
    71
1070
     0
1070
    74
1070
     0
1070
   279
1070
     0
1070
   173
1070
     1
1070
   340
1005
143
1070
   271
1070
     2
1070
   272
1070
     3
1070
    77
1070
     1
1070
    73
1070
     1
1070
   171
1070
     3
1070
   274
1070
     4
1070
   177
1070
     2
1070
   176
1070
     2
1070
   178
1070
     2
1070
    78
1070
     8
1070
    48
1040
-0.1
1070
    41
1040
3.5
1070
   147
1040
1.5
1070
    42
1040
1.5875
1070
    44
1040
2.0
1070
   140
1040
3.0
1002
}
1001
ACAD_DSTYLE_DIM_LINETYPE
1070
   380
1005
16
1001
ACAD_DSTYLE_DIM_EXT1_LINETYPE
1070
   381
1005
16
1001
ACAD_DSTYLE_DIM_EXT2_LINETYPE
1070
   382
1005
16
0
ENDSEC
0
SECTION
2
OBJECTS
0
DICTIONARY
5
235
330
0
100
AcDbDictionary
280
0
281
1
3
ACAD_GROUP
350
236
3
ACAD_MLINESTYLE
350
237
0
DICTIONARY
5
236
330
0
100
AcDbDictionary
280
0
281
1
0
DICTIONARY
5
237
330
0
100
AcDbDictionary
280
0
281
1
3
Standard
350
18
0
MLINESTYLE
5
18
330
237
100
AcDbMlineStyle
2
Standard
70
0
3

62
256
51
90
52
90
71
2
49
-0.5
62
256
6
ByLayer
49
0.5
62
256
6
ByLayer
0
RASTERVARIABLES
5
223
330

100
AcDbRasterVariables
90
0
70
1
71
1
72
1
0
ENDSEC
0
EOF
