0
SECTION
2
HEADER
9
$ACADVER
1
AC1015
9
$DWGCODEPAGE
3
ANSI_1252
9
$HANDSEED
5
23d
9
$ANGBASE
50
0
9
$ANGDIR
70
0
9
$ATTMODE
70
1
9
$AUNITS
70
0
9
$AUPREC
70
0
9
$CECOLOR
62
256
9
$CELTSCALE
40
1
9
$CELTYPE
6
ByLayer
9
$CELWEIGHT
370
18
9
$CLAYER
8
0
9
$CMLJUST
70
0
9
$CMLSCALE
40
1
9
$CMLSTYLE
2
Standard
9
$DIMSTYLE
2
Standard
9
$TEXTSIZE
40
0.2
9
$TEXTSTYLE
7
Standard
9
$LUNITS
70
2
9
$LUPREC
70
4
9
$EXTNAMES
290
1
9
$INSUNITS
70
4
9
$LTSCALE
40
1
9
$LWDISPLAY
290
1
9
$PDMODE
70
0
9
$PDSIZE
40
0
9
$PLINEGEN
70
0
0
ENDSEC
0
SECTION
2
CLASSES
0
CLASS
1
RASTERVARIABLES
2
AcDbRasterVariables
3
ISM
90
0
280
0
281
0
0
ENDSEC
0
SECTION
2
TABLES
0
TABLE
2
VPORT
5
233
100
AcDbSymbolTable
0
VPORT
5
1
100
AcDbSymbolTableRecord
100
AcDbViewportTableRecord
2
*Active
70
0
10
0
20
0
11
1
21
1
12
-1
22
1
13
0
23
0
14
0.5
24
0.5
15
10
25
10
16
0
26
0
36
1
17
0
27
0
37
0
0
ENDTAB
0
TABLE
2
LTYPE
5
234
100
AcDbSymbolTable
0
LTYPE
5
14
100
AcDbSymbolTableRecord
100
AcDbLinetypeTableRecord
70
0
2
ByBlock
3

72
65
73
0
40
0
0
LTYPE
5
15
100
AcDbSymbolTableRecord
100
AcDbLinetypeTableRecord
70
0
2
ByLayer
3

72
65
73
0
40
0
0
LTYPE
5
16
100
AcDbSymbolTableRecord
100
AcDbLinetypeTableRecord
70
0
2
Continuous
3
Solid line
72
65
73
0
40
0
0
LTYPE
5
6E
100
AcDbSymbolTableRecord
100
AcDbLinetypeTableRecord
70
0
2
CENTER
3
____ _ ____ _ ____ _ ____
72
65
73
4
40
47.5
49
22
74
0
49
-8.5
74
0
49
8.5
74
0
49
-8.5
74
0
0
LTYPE
5
6F
100
AcDbSymbolTableRecord
100
AcDbLinetypeTableRecord
70
0
2
DASHED
3
__ __ __ __ __ __ __ __ __
72
65
73
2
40
25.72
49
12.86
74
0
49
-12.86
74
0
0
ENDTAB
0
TABLE
2
LAYER
5
235
100
AcDbSymbolTable
0
LAYER
5
10
100
AcDbSymbolTableRecord
100
AcDbLayerTableRecord
2
0
70
0
62
7
6
Continuous
290
1
370
-3
390
0
0
LAYER
5
71
100
AcDbSymbolTableRecord
100
AcDbLayerTableRecord
2
80
70
0
62
-6
6
Continuous
290
1
370
-3
390
0
0
LAYER
5
73
100
AcDbSymbolTableRecord
100
AcDbLayerTableRecord
2
81
70
0
62
-3
6
Continuous
290
1
370
-3
390
0
0
LAYER
5
75
100
AcDbSymbolTableRecord
100
AcDbLayerTableRecord
2
1
70
0
62
4
6
Continuous
290
1
370
-3
390
0
0
LAYER
5
7F
100
AcDbSymbolTableRecord
100
AcDbLayerTableRecord
2
4
70
0
62
-2
6
CENTER
290
1
370
-3
390
0
0
LAYER
5
AF
100
AcDbSymbolTableRecord
100
AcDbLayerTableRecord
2
2
70
0
62
7
6
Continuous
290
1
370
-3
390
0
0
LAYER
5
162
100
AcDbSymbolTableRecord
100
AcDbLayerTableRecord
2
Defpoints
70
0
62
7
6
Continuous
290
0
370
-3
390
0
0
LAYER
5
21f
100
AcDbSymbolTableRecord
100
AcDbLayerTableRecord
2
SK4
70
0
62
2
6
CENTER
290
1
370
-3
390
0
0
LAYER
5
220
100
AcDbSymbolTableRecord
100
AcDbLayerTableRecord
2
SK1
70
0
62
4
6
Continuous
290
1
370
-3
390
0
0
LAYER
5
221
100
AcDbSymbolTableRecord
100
AcDbLayerTableRecord
2
SK2
70
0
62
7
6
Continuous
290
1
370
-3
390
0
0
LAYER
5
222
100
AcDbSymbolTableRecord
100
AcDbLayerTableRecord
2
SK6
70
0
62
5
6
Continuous
290
1
370
-3
390
0
0
ENDTAB
0
TABLE
2
STYLE
5
236
100
AcDbSymbolTable
0
STYLE
5
11
100
AcDbSymbolTableRecord
100
AcDbTextStyleTableRecord
2
Standard
3
txt
70
0
71
0
40
0
41
1
42
0
50
0
0
STYLE
5
13E
100
AcDbSymbolTableRecord
100
AcDbTextStyleTableRecord
2
iso_b_vert
3
simplex.shx
70
0
71
0
40
0
41
1
42
0
50
0
0
STYLE
5
13F
100
AcDbSymbolTableRecord
100
AcDbTextStyleTableRecord
2
DWGDirectTextStyle
3
simplex
70
0
71
0
40
0
41
1
42
0
50
0
0
ENDTAB
0
TABLE
2
DIMSTYLE
5
237
100
AcDbSymbolTable
100
AcDbDimStyleTable
0
DIMSTYLE
105
27
100
AcDbSymbolTableRecord
100
AcDbDimStyleTableRecord
2
Standard
70
0
3
<>
41
0.18
42
0.0625
44
0.18
140
0.18
147
0.09
73
0
74
0
77
1
271
2
275
0
278
52
280
0
340
11
0
ENDTAB
0
TABLE
2
VIEW
5
238
100
AcDbSymbolTable
0
ENDTAB
0
TABLE
2
UCS
5
239
100
AcDbSymbolTable
0
ENDTAB
0
TABLE
2
APPID
5
23a
100
AcDbSymbolTable
0
APPID
5
12
100
AcDbSymbolTableRecord
100
AcDbRegAppTableRecord
2
ACAD
70
0
0
APPID
5
15E
100
AcDbSymbolTableRecord
100
AcDbRegAppTableRecord
2
ACAD_DSTYLE_DIMBREAK
70
0
0
APPID
5
1DE
100
AcDbSymbolTableRecord
100
AcDbRegAppTableRecord
2
ACAD_DSTYLE_DIM_LINETYPE
70
0
0
APPID
5
1DF
100
AcDbSymbolTableRecord
100
AcDbRegAppTableRecord
2
ACAD_DSTYLE_DIM_EXT1_LINETYPE
70
0
0
APPID
5
1E0
100
AcDbSymbolTableRecord
100
AcDbRegAppTableRecord
2
ACAD_DSTYLE_DIM_EXT2_LINETYPE
70
0
0
APPID
5
21B
100
AcDbSymbolTableRecord
100
AcDbRegAppTableRecord
2
ACAD_MLEADERVER
70
0
0
ENDTAB
0
TABLE
2
BLOCK_RECORD
5
23b
100
AcDbSymbolTable
0
BLOCK_RECORD
5
1F
100
AcDbSymbolTableRecord
100
AcDbBlockTableRecord
2
*Model_Space
340
0
70
0
0
BLOCK_RECORD
5
1B
100
AcDbSymbolTableRecord
100
AcDbBlockTableRecord
2
*Paper_Space
340
0
70
0
0
BLOCK_RECORD
5
23
100
AcDbSymbolTableRecord
100
AcDbBlockTableRecord
2
*Paper_Space0
340
0
70
0
0
BLOCK_RECORD
5
163
100
AcDbSymbolTableRecord
100
AcDbBlockTableRecord
2
*D1
340
0
70
0
0
BLOCK_RECORD
5
16F
100
AcDbSymbolTableRecord
100
AcDbBlockTableRecord
2
_U0
340
0
70
0
0
BLOCK_RECORD
5
17B
100
AcDbSymbolTableRecord
100
AcDbBlockTableRecord
2
*D3
340
0
70
0
0
BLOCK_RECORD
5
187
100
AcDbSymbolTableRecord
100
AcDbBlockTableRecord
2
_U1
340
0
70
0
0
BLOCK_RECORD
5
193
100
AcDbSymbolTableRecord
100
AcDbBlockTableRecord
2
*D5
340
0
70
0
0
BLOCK_RECORD
5
19F
100
AcDbSymbolTableRecord
100
AcDbBlockTableRecord
2
_U2
340
0
70
0
0
BLOCK_RECORD
5
1AB
100
AcDbSymbolTableRecord
100
AcDbBlockTableRecord
2
*D7
340
0
70
0
0
BLOCK_RECORD
5
1B7
100
AcDbSymbolTableRecord
100
AcDbBlockTableRecord
2
_U3
340
0
70
0
0
ENDTAB
0
ENDSEC
0
SECTION
2
BLOCKS
0
BLOCK
5
20
100
AcDbEntity
8
0
100
AcDbBlockBegin
2
*Model_Space
70
0
10
0
20
0
30
0
3
*Model_Space
0
ENDBLK
5
21
100
AcDbEntity
8
0
100
AcDbBlockEnd
0
BLOCK
5
1C
100
AcDbEntity
8
0
100
AcDbBlockBegin
2
*Paper_Space
70
0
10
0
20
0
30
0
3
*Paper_Space
0
ENDBLK
5
1D
100
AcDbEntity
8
0
100
AcDbBlockEnd
0
BLOCK
5
24
100
AcDbEntity
8
0
100
AcDbBlockBegin
2
*Paper_Space0
70
0
10
0
20
0
30
0
3
*Paper_Space0
0
ENDBLK
5
25
100
AcDbEntity
8
0
100
AcDbBlockEnd
0
BLOCK
5
164
100
AcDbEntity
8
0
100
AcDbBlockBegin
2
*D1
70
1
10
0
20
0
30
0
3
*D1
0
LINE
5
166
100
AcDbEntity
8
0
62
256
6
ByLayer
370
-2
48
1
60
0
100
AcDbLine
10
-56
20
-14.0875
30
0
11
-56
21
-47.952229
31
0
39
0
210
0
220
0
230
1
0
LINE
5
167
100
AcDbEntity
8
0
62
256
6
ByLayer
370
-2
48
1
60
0
100
AcDbLine
10
140.5
20
-1.5875
30
0
11
140.5
21
-47.952229
31
0
39
0
210
0
220
0
230
1
0
LINE
5
168
100
AcDbEntity
8
0
62
256
6
ByLayer
370
-2
48
1
60
0
100
AcDbLine
10
-52.5
20
-45.952229
30
0
11
137
21
-45.952229
31
0
39
0
210
0
220
0
230
1
0
SOLID
5
169
100
AcDbEntity
8
0
62
256
6
ByLayer
370
-1
48
1
60
0
100
AcDbTrace
10
-52.5
20
-45.368896
30
0
11
-52.5
21
-46.535563
31
0
12
-56
22
-45.952229
32
0
13
-56
23
-45.952229
33
0
39
0
210
0
220
0
230
1
0
SOLID
5
16A
100
AcDbEntity
8
0
62
256
6
ByLayer
370
-1
48
1
60
0
100
AcDbTrace
10
137
20
-46.535563
30
0
11
137
21
-45.368896
31
0
12
140.5
22
-45.952229
32
0
13
140.5
23
-45.952229
33
0
39
0
210
0
220
0
230
1
0
MTEXT
5
16B
100
AcDbEntity
8
0
62
256
6
ByLayer
370
18
48
1
60
0
100
AcDbMText
10
42.25
20
-39.952229
30
0
210
0
220
0
230
1
1
\A1;196.5
40
3
41
0
44
1
50
0
71
5
72
5
7
iso_b_vert
0
POINT
5
16C
100
AcDbEntity
8
Defpoints
62
0
6
ByLayer
370
-1
48
1
60
0
100
AcDbPoint
10
-56
20
-12.5
30
0
39
0
210
0
220
0
230
1
50
360
0
POINT
5
16D
100
AcDbEntity
8
Defpoints
62
0
6
ByLayer
370
-1
48
1
60
0
100
AcDbPoint
10
140.5
20
0
30
0
39
0
210
0
220
0
230
1
50
360
0
POINT
5
16E
100
AcDbEntity
8
Defpoints
62
0
6
ByLayer
370
-1
48
1
60
0
100
AcDbPoint
10
140.5
20
-45.952229
30
0
39
0
210
0
220
0
230
1
50
360
0
ENDBLK
5
165
100
AcDbEntity
8
0
100
AcDbBlockEnd
0
BLOCK
5
176
100
AcDbEntity
8
0
100
AcDbBlockBegin
2
_U0
70
0
10
0
20
0
30
0
3
_U0
0
MTEXT
5
170
100
AcDbEntity
8
SK2
62
256
6
ByLayer
370
18
48
1
60
0
100
AcDbMText
10
37.021658
20
-45.067115
30
0
210
0
220
0
230
1
1
\W0.7022;196.50
40
3
41
0
44
1.084337
50
0
71
7
72
5
7
iso_b_vert
0
LINE
5
171
100
AcDbEntity
8
SK2
62
256
6
ByLayer
370
13
48
1
60
0
100
AcDbLine
10
-56
20
-14.0875
30
0
11
-56
21
-47.952229
31
0
39
0
210
0
220
0
230
1
0
LINE
5
172
100
AcDbEntity
8
SK2
62
256
6
ByLayer
370
13
48
1
60
0
100
AcDbLine
10
140.5
20
-1.5875
30
0
11
140.5
21
-47.952229
31
0
39
0
210
0
220
0
230
1
0
LINE
5
173
100
AcDbEntity
8
SK2
62
256
6
ByLayer
370
13
48
1
60
0
100
AcDbLine
10
-56
20
-45.952229
30
0
11
140.5
21
-45.952229
31
0
39
0
210
0
220
0
230
1
0
SOLID
5
174
100
AcDbEntity
8
SK2
62
256
6
ByLayer
370
18
48
1
60
0
100
AcDbTrace
10
-56
20
-45.952229
30
0
11
-52.500002
21
-45.491446
31
0
12
-52.499998
22
-46.413013
32
0
13
-52.499998
23
-46.413013
33
0
39
0
210
0
220
0
230
1
0
SOLID
5
175
100
AcDbEntity
8
SK2
62
256
6
ByLayer
370
18
48
1
60
0
100
AcDbTrace
10
140.5
20
-45.952229
30
0
11
137.000002
21
-46.413013
31
0
12
136.999998
22
-45.491446
32
0
13
136.999998
23
-45.491446
33
0
39
0
210
0
220
0
230
1
0
ENDBLK
5
177
100
AcDbEntity
8
0
100
AcDbBlockEnd
0
BLOCK
5
17C
100
AcDbEntity
8
0
100
AcDbBlockBegin
2
*D3
70
1
10
0
20
0
30
0
3
*D3
0
LINE
5
17E
100
AcDbEntity
8
0
62
256
6
ByLayer
370
-2
48
1
60
0
100
AcDbLine
10
140.5
20
-1.5875
30
0
11
140.5
21
-37.952229
31
0
39
0
210
0
220
0
230
1
0
LINE
5
17F
100
AcDbEntity
8
0
62
256
6
ByLayer
370
-2
48
1
60
0
100
AcDbLine
10
3
20
-12.0875
30
0
11
3
21
-37.952229
31
0
39
0
210
0
220
0
230
1
0
LINE
5
180
100
AcDbEntity
8
0
62
256
6
ByLayer
370
-2
48
1
60
0
100
AcDbLine
10
137
20
-35.952229
30
0
11
6.5
21
-35.952229
31
0
39
0
210
0
220
0
230
1
0
SOLID
5
181
100
AcDbEntity
8
0
62
256
6
ByLayer
370
-1
48
1
60
0
100
AcDbTrace
10
137
20
-36.535563
30
0
11
137
21
-35.368896
31
0
12
140.5
22
-35.952229
32
0
13
140.5
23
-35.952229
33
0
39
0
210
0
220
0
230
1
0
SOLID
5
182
100
AcDbEntity
8
0
62
256
6
ByLayer
370
-1
48
1
60
0
100
AcDbTrace
10
6.5
20
-35.368896
30
0
11
6.5
21
-36.535563
31
0
12
3
22
-35.952229
32
0
13
3
23
-35.952229
33
0
39
0
210
0
220
0
230
1
0
MTEXT
5
183
100
AcDbEntity
8
0
62
256
6
ByLayer
370
18
48
1
60
0
100
AcDbMText
10
71.75
20
-29.952229
30
0
210
0
220
0
230
1
1
\A1;137.5
40
3
41
0
44
1
50
0
71
5
72
5
7
iso_b_vert
0
POINT
5
184
100
AcDbEntity
8
Defpoints
62
0
6
ByLayer
370
-1
48
1
60
0
100
AcDbPoint
10
140.5
20
0
30
0
39
0
210
0
220
0
230
1
50
360
0
POINT
5
185
100
AcDbEntity
8
Defpoints
62
0
6
ByLayer
370
-1
48
1
60
0
100
AcDbPoint
10
3
20
-10.5
30
0
39
0
210
0
220
0
230
1
50
360
0
POINT
5
186
100
AcDbEntity
8
Defpoints
62
0
6
ByLayer
370
-1
48
1
60
0
100
AcDbPoint
10
3
20
-35.952229
30
0
39
0
210
0
220
0
230
1
50
360
0
ENDBLK
5
17D
100
AcDbEntity
8
0
100
AcDbBlockEnd
0
BLOCK
5
18E
100
AcDbEntity
8
0
100
AcDbBlockBegin
2
_U1
70
0
10
0
20
0
30
0
3
_U1
0
MTEXT
5
188
100
AcDbEntity
8
SK2
62
256
6
ByLayer
370
18
48
1
60
0
100
AcDbMText
10
66.521658
20
-35.067115
30
0
210
0
220
0
230
1
1
\W0.7022;137.50
40
3
41
0
44
1.084337
50
0
71
7
72
5
7
iso_b_vert
0
LINE
5
189
100
AcDbEntity
8
SK2
62
256
6
ByLayer
370
13
48
1
60
0
100
AcDbLine
10
140.5
20
-1.5875
30
0
11
140.5
21
-37.952229
31
0
39
0
210
0
220
0
230
1
0
LINE
5
18A
100
AcDbEntity
8
SK2
62
256
6
ByLayer
370
13
48
1
60
0
100
AcDbLine
10
3
20
-12.0875
30
0
11
3
21
-37.952229
31
0
39
0
210
0
220
0
230
1
0
LINE
5
18B
100
AcDbEntity
8
SK2
62
256
6
ByLayer
370
13
48
1
60
0
100
AcDbLine
10
140.5
20
-35.952229
30
0
11
3
21
-35.952229
31
0
39
0
210
0
220
0
230
1
0
SOLID
5
18C
100
AcDbEntity
8
SK2
62
256
6
ByLayer
370
18
48
1
60
0
100
AcDbTrace
10
140.5
20
-35.952229
30
0
11
137.000002
21
-36.413013
31
0
12
136.999998
22
-35.491446
32
0
13
136.999998
23
-35.491446
33
0
39
0
210
0
220
0
230
1
0
SOLID
5
18D
100
AcDbEntity
8
SK2
62
256
6
ByLayer
370
18
48
1
60
0
100
AcDbTrace
10
3
20
-35.952229
30
0
11
6.499998
21
-35.491446
31
0
12
6.500002
22
-36.413013
32
0
13
6.500002
23
-36.413013
33
0
39
0
210
0
220
0
230
1
0
ENDBLK
5
18F
100
AcDbEntity
8
0
100
AcDbBlockEnd
0
BLOCK
5
194
100
AcDbEntity
8
0
100
AcDbBlockBegin
2
*D5
70
1
10
0
20
0
30
0
3
*D5
0
LINE
5
196
100
AcDbEntity
8
0
62
256
6
ByLayer
370
-2
48
1
60
0
100
AcDbLine
10
-56
20
-14.0875
30
0
11
-56
21
-37.952229
31
0
39
0
210
0
220
0
230
1
0
LINE
5
197
100
AcDbEntity
8
0
62
256
6
ByLayer
370
-2
48
1
60
0
100
AcDbLine
10
0
20
-14.0875
30
0
11
0
21
-37.952229
31
0
39
0
210
0
220
0
230
1
0
LINE
5
198
100
AcDbEntity
8
0
62
256
6
ByLayer
370
-2
48
1
60
0
100
AcDbLine
10
-52.5
20
-35.952229
30
0
11
-3.5
21
-35.952229
31
0
39
0
210
0
220
0
230
1
0
SOLID
5
199
100
AcDbEntity
8
0
62
256
6
ByLayer
370
-1
48
1
60
0
100
AcDbTrace
10
-52.5
20
-35.368896
30
0
11
-52.5
21
-36.535563
31
0
12
-56
22
-35.952229
32
0
13
-56
23
-35.952229
33
0
39
0
210
0
220
0
230
1
0
SOLID
5
19A
100
AcDbEntity
8
0
62
256
6
ByLayer
370
-1
48
1
60
0
100
AcDbTrace
10
-3.5
20
-36.535563
30
0
11
-3.5
21
-35.368896
31
0
12
0
22
-35.952229
32
0
13
0
23
-35.952229
33
0
39
0
210
0
220
0
230
1
0
MTEXT
5
19B
100
AcDbEntity
8
0
62
256
6
ByLayer
370
18
48
1
60
0
100
AcDbMText
10
-28
20
-29.952229
30
0
210
0
220
0
230
1
1
\A1;56
40
3
41
0
44
1
50
0
71
5
72
5
7
iso_b_vert
0
POINT
5
19C
100
AcDbEntity
8
Defpoints
62
0
6
ByLayer
370
-1
48
1
60
0
100
AcDbPoint
10
-56
20
-12.5
30
0
39
0
210
0
220
0
230
1
50
360
0
POINT
5
19D
100
AcDbEntity
8
Defpoints
62
0
6
ByLayer
370
-1
48
1
60
0
100
AcDbPoint
10
0
20
-12.5
30
0
39
0
210
0
220
0
230
1
50
360
0
POINT
5
19E
100
AcDbEntity
8
Defpoints
62
0
6
ByLayer
370
-1
48
1
60
0
100
AcDbPoint
10
0
20
-35.952229
30
0
39
0
210
0
220
0
230
1
50
360
0
ENDBLK
5
195
100
AcDbEntity
8
0
100
AcDbBlockEnd
0
BLOCK
5
1A6
100
AcDbEntity
8
0
100
AcDbBlockBegin
2
_U2
70
0
10
0
20
0
30
0
3
_U2
0
MTEXT
5
1A0
100
AcDbEntity
8
SK2
62
256
6
ByLayer
370
18
48
1
60
0
100
AcDbMText
10
-32.48237
20
-35.067115
30
0
210
0
220
0
230
1
1
\W0.7468;56.00
40
3
41
0
44
1.084337
50
0
71
7
72
5
7
iso_b_vert
0
LINE
5
1A1
100
AcDbEntity
8
SK2
62
256
6
ByLayer
370
13
48
1
60
0
100
AcDbLine
10
-56
20
-14.0875
30
0
11
-56
21
-37.952229
31
0
39
0
210
0
220
0
230
1
0
LINE
5
1A2
100
AcDbEntity
8
SK2
62
256
6
ByLayer
370
13
48
1
60
0
100
AcDbLine
10
0
20
-14.0875
30
0
11
0
21
-37.952229
31
0
39
0
210
0
220
0
230
1
0
LINE
5
1A3
100
AcDbEntity
8
SK2
62
256
6
ByLayer
370
13
48
1
60
0
100
AcDbLine
10
-56
20
-35.952229
30
0
11
0
21
-35.952229
31
0
39
0
210
0
220
0
230
1
0
SOLID
5
1A4
100
AcDbEntity
8
SK2
62
256
6
ByLayer
370
18
48
1
60
0
100
AcDbTrace
10
-56
20
-35.952229
30
0
11
-52.500002
21
-35.491446
31
0
12
-52.499998
22
-36.413013
32
0
13
-52.499998
23
-36.413013
33
0
39
0
210
0
220
0
230
1
0
SOLID
5
1A5
100
AcDbEntity
8
SK2
62
256
6
ByLayer
370
18
48
1
60
0
100
AcDbTrace
10
0
20
-35.952229
30
0
11
-3.499998
21
-36.413013
31
0
12
-3.500002
22
-35.491446
32
0
13
-3.500002
23
-35.491446
33
0
39
0
210
0
220
0
230
1
0
ENDBLK
5
1A7
100
AcDbEntity
8
0
100
AcDbBlockEnd
0
BLOCK
5
1AC
100
AcDbEntity
8
0
100
AcDbBlockBegin
2
*D7
70
1
10
0
20
0
30
0
3
*D7
0
LINE
5
1AE
100
AcDbEntity
8
0
62
256
6
ByLayer
370
-2
48
1
60
0
100
AcDbLine
10
140.5
20
1.5875
30
0
11
140.5
21
34.952229
31
0
39
0
210
0
220
0
230
1
0
LINE
5
1AF
100
AcDbEntity
8
0
62
256
6
ByLayer
370
-2
48
1
60
0
100
AcDbLine
10
21
20
12.0875
30
0
11
21
21
34.952229
31
0
39
0
210
0
220
0
230
1
0
LINE
5
1B0
100
AcDbEntity
8
0
62
256
6
ByLayer
370
-2
48
1
60
0
100
AcDbLine
10
137
20
32.952229
30
0
11
24.5
21
32.952229
31
0
39
0
210
0
220
0
230
1
0
SOLID
5
1B1
100
AcDbEntity
8
0
62
256
6
ByLayer
370
-1
48
1
60
0
100
AcDbTrace
10
137
20
32.368896
30
0
11
137
21
33.535563
31
0
12
140.5
22
32.952229
32
0
13
140.5
23
32.952229
33
0
39
0
210
0
220
0
230
1
0
SOLID
5
1B2
100
AcDbEntity
8
0
62
256
6
ByLayer
370
-1
48
1
60
0
100
AcDbTrace
10
24.5
20
33.535563
30
0
11
24.5
21
32.368896
31
0
12
21
22
32.952229
32
0
13
21
23
32.952229
33
0
39
0
210
0
220
0
230
1
0
MTEXT
5
1B3
100
AcDbEntity
8
0
62
256
6
ByLayer
370
18
48
1
60
0
100
AcDbMText
10
80.75
20
38.952229
30
0
210
0
220
0
230
1
1
\A1;119.5
40
3
41
0
44
1
50
0
71
5
72
5
7
iso_b_vert
0
POINT
5
1B4
100
AcDbEntity
8
Defpoints
62
0
6
ByLayer
370
-1
48
1
60
0
100
AcDbPoint
10
140.5
20
0
30
0
39
0
210
0
220
0
230
1
50
360
0
POINT
5
1B5
100
AcDbEntity
8
Defpoints
62
0
6
ByLayer
370
-1
48
1
60
0
100
AcDbPoint
10
21
20
10.5
30
0
39
0
210
0
220
0
230
1
50
360
0
POINT
5
1B6
100
AcDbEntity
8
Defpoints
62
0
6
ByLayer
370
-1
48
1
60
0
100
AcDbPoint
10
21
20
32.952229
30
0
39
0
210
0
220
0
230
1
50
360
0
ENDBLK
5
1AD
100
AcDbEntity
8
0
100
AcDbBlockEnd
0
BLOCK
5
1BE
100
AcDbEntity
8
0
100
AcDbBlockBegin
2
_U3
70
0
10
0
20
0
30
0
3
_U3
0
MTEXT
5
1B8
100
AcDbEntity
8
SK2
62
256
6
ByLayer
370
18
48
1
60
0
100
AcDbMText
10
75.896601
20
33.837344
30
0
210
0
220
0
230
1
1
\W0.6532;119.50
40
3
41
0
44
1.084337
50
0
71
7
72
5
7
iso_b_vert
0
LINE
5
1B9
100
AcDbEntity
8
SK2
62
256
6
ByLayer
370
13
48
1
60
0
100
AcDbLine
10
140.5
20
1.5875
30
0
11
140.5
21
34.952229
31
0
39
0
210
0
220
0
230
1
0
LINE
5
1BA
100
AcDbEntity
8
SK2
62
256
6
ByLayer
370
13
48
1
60
0
100
AcDbLine
10
21
20
12.0875
30
0
11
21
21
34.952229
31
0
39
0
210
0
220
0
230
1
0
LINE
5
1BB
100
AcDbEntity
8
SK2
62
256
6
ByLayer
370
13
48
1
60
0
100
AcDbLine
10
140.5
20
32.952229
30
0
11
21
21
32.952229
31
0
39
0
210
0
220
0
230
1
0
SOLID
5
1BC
100
AcDbEntity
8
SK2
62
256
6
ByLayer
370
18
48
1
60
0
100
AcDbTrace
10
140.5
20
32.952229
30
0
11
137.000002
21
32.491446
31
0
12
136.999998
22
33.413013
32
0
13
136.999998
23
33.413013
33
0
39
0
210
0
220
0
230
1
0
SOLID
5
1BD
100
AcDbEntity
8
SK2
62
256
6
ByLayer
370
18
48
1
60
0
100
AcDbTrace
10
21
20
32.952229
30
0
11
24.499998
21
33.413013
31
0
12
24.500002
22
32.491446
32
0
13
24.500002
23
32.491446
33
0
39
0
210
0
220
0
230
1
0
ENDBLK
5
1BF
100
AcDbEntity
8
0
100
AcDbBlockEnd
0
ENDSEC
0
SECTION
2
ENTITIES
0
ARC
5
C0
100
AcDbEntity
8
SK2
62
256
6
ByLayer
370
13
48
1
60
0
100
AcDbCircle
39
0
10
140.5
20
0
30
0
40
19
210
0
220
0
230
1
100
AcDbArc
50
290
51
70
0
ELLIPSE
5
C1
100
AcDbEntity
8
SK1
62
256
6
ByLayer
370
18
48
1
60
0
100
AcDbEllipse
10
-41.343561
20
0
30
0
11
-2.29613691341699E-15
21
-12.5000000000002
31
0
210
0
220
0
230
1
40
0.932515
41
-1.86465462472194
42
-1.27693802886786
0
ELLIPSE
5
C2
100
AcDbEntity
8
SK1
62
256
6
ByLayer
370
18
48
1
60
0
100
AcDbEllipse
10
276.680659
20
0
30
0
11
357.953166043254
21
-4.05596621644435E-13
31
0
210
0
220
0
230
1
40
0.034921
41
2.52406396812455
42
2.73005601344533
0
ELLIPSE
5
C3
100
AcDbEntity
8
SK1
62
256
6
ByLayer
370
18
48
1
60
0
100
AcDbEllipse
10
276.680659
20
0
30
0
11
357.953166032003
21
-4.05596621631686E-13
31
0
210
0
220
0
230
1
40
0.034921
41
-2.73005601344242
42
-2.52406396811705
0
ELLIPSE
5
C4
100
AcDbEntity
8
SK1
62
256
6
ByLayer
370
18
48
1
60
0
100
AcDbEllipse
10
-25.404609
20
0
30
0
11
13.4046088753088
21
-1.51887581674114E-14
31
0
210
0
220
0
230
1
40
0.932515
41
-0.555530755442636
42
0.555530755442635
0
POINT
5
70
100
AcDbEntity
8
80
62
256
6
ByLayer
370
18
48
1
60
0
100
AcDbPoint
10
0
20
0
30
0
39
0
210
0
220
0
230
1
50
360
0
POINT
5
72
100
AcDbEntity
8
81
62
256
6
ByLayer
370
18
48
1
60
0
100
AcDbPoint
10
140.5
20
0
30
0
39
0
210
0
220
0
230
1
50
360
0
POINT
5
74
100
AcDbEntity
8
1
62
256
6
ByLayer
370
18
48
1
60
1
100
AcDbPoint
10
-56
20
-12.5
30
0
39
0
210
0
220
0
230
1
50
360
0
POINT
5
76
100
AcDbEntity
8
1
62
256
6
ByLayer
370
18
48
1
60
1
100
AcDbPoint
10
140.5
20
0
30
0
39
0
210
0
220
0
230
1
50
360
0
POINT
5
77
100
AcDbEntity
8
1
62
256
6
ByLayer
370
18
48
1
60
1
100
AcDbPoint
10
140.5
20
0
30
0
39
0
210
0
220
0
230
1
50
360
0
POINT
5
78
100
AcDbEntity
8
1
62
256
6
ByLayer
370
18
48
1
60
1
100
AcDbPoint
10
3
20
-10.5
30
0
39
0
210
0
220
0
230
1
50
360
0
POINT
5
79
100
AcDbEntity
8
1
62
256
6
ByLayer
370
18
48
1
60
1
100
AcDbPoint
10
-56
20
-12.5
30
0
39
0
210
0
220
0
230
1
50
360
0
POINT
5
7A
100
AcDbEntity
8
1
62
256
6
ByLayer
370
18
48
1
60
1
100
AcDbPoint
10
0
20
-12.5
30
0
39
0
210
0
220
0
230
1
50
360
0
POINT
5
7B
100
AcDbEntity
8
1
62
256
6
ByLayer
370
18
48
1
60
1
100
AcDbPoint
10
140.5
20
0
30
0
39
0
210
0
220
0
230
1
50
360
0
POINT
5
7C
100
AcDbEntity
8
1
62
256
6
ByLayer
370
18
48
1
60
1
100
AcDbPoint
10
21
20
10.5
30
0
39
0
210
0
220
0
230
1
50
360
0
SPLINE
5
C5
100
AcDbEntity
8
1
62
256
6
ByLayer
370
18
48
1
60
0
100
AcDbSpline
70
4
71
3
72
26
73
22
40
0
40
0
40
0
40
0
40
0.124999999999989
40
0.124999999999989
40
0.249999999999978
40
0.249999999999978
40
0.374999999999967
40
0.374999999999967
40
0.406249999999966
40
0.406249999999966
40
0.437499999999964
40
0.437499999999964
40
0.499999999999966
40
0.499999999999966
40
0.624999999999974
40
0.624999999999974
40
0.749999999999983
40
0.749999999999983
40
0.874999999999991
40
0.874999999999991
40
1
40
1
40
1
40
1
41
1
10
10
20
-7.06114755366849
30
0
41
1
10
10.3494594368371
20
-7.00446125581954
30
0
41
1
10
10.7001158777541
20
-6.95992189004579
30
0
41
1
10
11.4036442700406
20
-6.8944794782004
30
0
41
1
10
11.7565175305829
20
-6.87358448656869
30
0
41
1
10
12.4643616463142
20
-6.85468525592594
30
0
41
1
10
12.8193335485029
20
-6.85668900810256
30
0
41
1
10
13.2642999643379
20
-6.87282002158631
30
0
41
1
10
13.3533558385266
20
-6.87672636897955
30
0
41
1
10
13.5315912445183
20
-6.88587690957536
30
0
41
1
10
13.6207733874755
20
-6.89112298853584
30
0
41
1
10
13.8874352788797
20
-6.90874974857982
30
0
41
1
10
14.0643927003354
20
-6.92303610351195
30
0
41
1
10
14.5929620190897
20
-6.97291284742414
30
0
41
1
10
14.9422701721565
20
-7.01552943223206
30
0
41
1
10
15.6355292756312
20
-7.11617381196481
30
0
41
1
10
15.9794792008223
20
-7.17419900918495
30
0
41
1
10
16.6628414081313
20
-7.30209989227876
30
0
41
1
10
17.0022549817778
20
-7.37196670126681
30
0
41
1
10
17.6774017393047
20
-7.5199131758045
30
0
41
1
10
18.0131387171684
20
-7.59797897227776
30
0
41
1
10
18.3474447241729
20
-7.67846886253059
30
0
0
SPLINE
5
C6
100
AcDbEntity
8
1
62
256
6
ByLayer
370
18
48
1
60
0
100
AcDbSpline
70
4
71
3
72
14
73
10
40
0
40
0
40
0
40
0
40
0.25
40
0.25
40
0.5
40
0.5
40
0.75
40
0.75
40
1
40
1
40
1
40
1
41
1
10
13.7811994964714
20
8.38241003537837
30
0
41
1
10
13.4584467211321
20
8.44967188239818
30
0
41
1
10
13.1380711636306
20
8.51830797979872
30
0
41
1
10
12.5010885724043
20
8.65614567022544
30
0
41
1
10
12.1844766478174
20
8.72534653281718
30
0
41
1
10
11.5545252925763
20
8.8629099346995
30
0
41
1
10
11.2411845278902
20
8.93127900806508
30
0
41
1
10
10.6178821111881
20
9.06648254153745
30
0
41
1
10
10.3079225057898
20
9.13332880087913
30
0
41
1
10
10
20
9.19927061949568
30
0
0
SPLINE
5
C7
100
AcDbEntity
8
1
62
256
6
ByLayer
370
18
48
1
60
0
100
AcDbSpline
70
4
71
3
72
14
73
10
40
0
40
0
40
0
40
0
40
0.25
40
0.25
40
0.5
40
0.5
40
0.75
40
0.75
40
1
40
1
40
1
40
1
41
1
10
13.7811994964714
20
-8.38241003537837
30
0
41
1
10
13.458446721132
20
-8.44967188239818
30
0
41
1
10
13.1380711636306
20
-8.51830797979875
30
0
41
1
10
12.5010885724043
20
-8.65614567022547
30
0
41
1
10
12.1844766478174
20
-8.72534653281721
30
0
41
1
10
11.5545252925763
20
-8.86290993469953
30
0
41
1
10
11.2411845278902
20
-8.93127900806508
30
0
41
1
10
10.6178821111881
20
-9.06648254153745
30
0
41
1
10
10.3079225057898
20
-9.1333288008791
30
0
41
1
10
10
20
-9.19927061949562
30
0
0
SPLINE
5
C8
100
AcDbEntity
8
1
62
256
6
ByLayer
370
18
48
1
60
0
100
AcDbSpline
70
4
71
3
72
8
73
4
40
0
40
0
40
0
40
0
40
1
40
1
40
1
40
1
41
1
10
17.6633484273033
20
7.51815691734234
30
0
41
1
10
17.8921271928661
20
7.57012358779787
30
0
41
1
10
18.1201167985191
20
7.62373577546691
30
0
41
1
10
18.3474447241729
20
7.67846886253059
30
0
0
SPLINE
5
C9
100
AcDbEntity
8
1
62
256
6
ByLayer
370
18
48
1
60
0
100
AcDbSpline
70
4
71
3
72
14
73
10
40
0
40
0
40
0
40
0
40
0.371764459904848
40
0.371764459904848
40
0.557646689857262
40
0.557646689857262
40
0.743528919809677
40
0.743528919809677
40
1
40
1
40
1
40
1
41
1
10
125.7
20
-10.4118799985926
30
0
41
1
10
126.158271031646
20
-10.4332213788015
30
0
41
1
10
126.616219577994
20
-10.4506671562231
30
0
41
1
10
127.302584057628
20
-10.4709478252933
30
0
41
1
10
127.531279635592
20
-10.4767257524083
30
0
41
1
10
127.988476001719
20
-10.4862996364637
30
0
41
1
10
128.216962827203
20
-10.4900937262351
30
0
41
1
10
128.760863605243
20
-10.4967151857597
30
0
41
1
10
129.07627890603
20
-10.4986439905128
30
0
41
1
10
129.391732254248
20
-10.4986892498677
30
0
0
SPLINE
5
CA
100
AcDbEntity
8
1
62
256
6
ByLayer
370
18
48
1
60
0
100
AcDbSpline
70
4
71
3
72
199
73
195
40
0
40
0
40
0
40
0
40
0.0156250000000014
40
0.0156250000000014
40
0.0312500000000029
40
0.0312500000000029
40
0.0468750000000043
40
0.0468750000000043
40
0.0546875000000048
40
0.0546875000000048
40
0.0585937500000051
40
0.0585937500000051
40
0.0625000000000054
40
0.0625000000000054
40
0.0781250000000065
40
0.0781250000000065
40
0.0937500000000075
40
0.0937500000000075
40
0.109375000000009
40
0.109375000000009
40
0.117187500000009
40
0.117187500000009
40
0.121093750000009
40
0.121093750000009
40
0.125000000000009
40
0.125000000000009
40
0.140625000000009
40
0.140625000000009
40
0.156250000000009
40
0.156250000000009
40
0.171875000000009
40
0.171875000000009
40
0.179687500000009
40
0.179687500000009
40
0.183593750000009
40
0.183593750000009
40
0.187500000000009
40
0.187500000000009
40
0.203125000000009
40
0.203125000000009
40
0.21875000000001
40
0.21875000000001
40
0.23437500000001
40
0.23437500000001
40
0.23828125000001
40
0.23828125000001
40
0.24218750000001
40
0.24218750000001
40
0.250000000000009
40
0.250000000000009
40
0.265625000000009
40
0.265625000000009
40
0.281250000000008
40
0.281250000000008
40
0.296875000000007
40
0.296875000000007
40
0.304687500000007
40
0.304687500000007
40
0.312500000000007
40
0.312500000000007
40
0.328125000000007
40
0.328125000000007
40
0.343750000000006
40
0.343750000000006
40
0.359375000000006
40
0.359375000000006
40
0.363281250000006
40
0.363281250000006
40
0.367187500000006
40
0.367187500000006
40
0.375000000000006
40
0.375000000000006
40
0.390625000000006
40
0.390625000000006
40
0.406250000000006
40
0.406250000000006
40
0.414062500000006
40
0.417968750000006
40
0.417968750000006
40
0.421875000000006
40
0.421875000000006
40
0.437500000000006
40
0.437500000000006
40
0.453125000000006
40
0.453125000000006
40
0.468750000000006
40
0.468750000000006
40
0.476562500000006
40
0.476562500000006
40
0.484375000000006
40
0.484375000000006
40
0.492187500000006
40
0.492187500000006
40
0.500000000000006
40
0.500000000000006
40
0.515625000000007
40
0.515625000000007
40
0.531250000000007
40
0.531250000000007
40
0.539062500000007
40
0.539062500000007
40
0.542968750000007
40
0.542968750000007
40
0.546875000000007
40
0.546875000000007
40
0.562500000000007
40
0.562500000000007
40
0.578125000000007
40
0.578125000000007
40
0.593750000000007
40
0.593750000000007
40
0.601562500000007
40
0.601562500000007
40
0.609375000000007
40
0.609375000000007
40
0.617187500000007
40
0.617187500000007
40
0.625000000000007
40
0.625000000000007
40
0.640625000000007
40
0.640625000000007
40
0.656250000000006
40
0.656250000000006
40
0.660156250000006
40
0.660156250000006
40
0.664062500000007
40
0.664062500000007
40
0.671875000000007
40
0.671875000000007
40
0.687500000000007
40
0.687500000000007
40
0.703125000000007
40
0.703125000000007
40
0.718750000000007
40
0.718750000000007
40
0.722656250000007
40
0.722656250000007
40
0.726562500000007
40
0.726562500000007
40
0.734375000000008
40
0.734375000000008
40
0.742187500000008
40
0.742187500000008
40
0.750000000000008
40
0.750000000000008
40
0.765625000000008
40
0.765625000000008
40
0.773437500000008
40
0.773437500000008
40
0.781250000000008
40
0.781250000000008
40
0.789062500000008
40
0.789062500000008
40
0.796875000000007
40
0.796875000000007
40
0.812500000000007
40
0.812500000000007
40
0.828125000000007
40
0.828125000000007
40
0.835937500000008
40
0.835937500000008
40
0.839843750000008
40
0.839843750000008
40
0.843750000000007
40
0.843750000000007
40
0.859375000000007
40
0.859375000000007
40
0.867187500000006
40
0.867187500000006
40
0.875000000000006
40
0.875000000000006
40
0.890625000000005
40
0.890625000000005
40
0.898437500000005
40
0.898437500000005
40
0.906250000000004
40
0.906250000000004
40
0.921875000000003
40
0.921875000000003
40
0.929687500000003
40
0.929687500000003
40
0.937500000000003
40
0.937500000000003
40
0.953125000000001
40
0.953125000000001
40
0.960937500000001
40
0.960937500000001
40
0.96484375
40
0.96484375
40
0.96875
40
0.96875
40
0.984375
40
0.984375
40
1
40
1
40
1
40
1
41
1
10
18.3474447241729
20
7.67846886253062
30
0
41
1
10
18.907048749655
20
7.80980568718246
30
0
41
1
10
19.4666446165182
20
7.93586117660348
30
0
41
1
10
20.5855948091132
20
8.17813877299395
30
0
41
1
10
21.1449483176348
20
8.29436104873184
30
0
41
1
10
22.2632094043735
20
8.51741753724701
30
0
41
1
10
22.8221158594832
20
8.6242533935087
30
0
41
1
10
23.6599852843603
20
8.77763733672776
30
0
41
1
10
23.9391941084458
20
8.82761744897451
30
0
41
1
10
24.3578725633841
20
8.90086359698017
30
0
41
1
10
24.4974092410219
20
8.9249920205101
30
0
41
1
10
24.7764372207633
20
8.97267013131236
30
0
41
1
10
24.9159302633276
20
8.99621680600021
30
0
41
1
10
25.6135479262757
20
9.11214385331834
30
0
41
1
10
26.1720519066262
20
9.19923127577709
30
0
41
1
10
27.2895535276073
20
9.36274037371282
30
0
41
1
10
27.84855930751
20
9.43914914451943
30
0
41
1
10
28.9668860674219
20
9.58151518930052
30
0
41
1
10
29.5262020044162
20
9.64747781436336
30
0
41
1
10
30.3652662186451
20
9.73859699921695
30
0
41
1
10
30.644970463298
20
9.76766312412599
30
0
41
1
10
31.0645401655975
20
9.80928230712459
30
0
41
1
10
31.2043919830071
20
9.82283046848363
30
0
41
1
10
31.4841573286379
20
9.84921723827182
30
0
41
1
10
31.624101445416
20
9.86204686882434
30
0
41
1
10
32.3237944689744
20
9.92432798997072
30
0
41
1
10
32.8835000801216
20
9.96824328407698
30
0
41
1
10
34.0025347914598
20
10.0447169641087
30
0
41
1
10
34.5618740950742
20
10.0772665903458
30
0
41
1
10
35.6800004790311
20
10.1311310025364
30
0
41
1
10
36.2387813230416
20
10.1524476923193
30
0
41
1
10
37.0763920369521
20
10.1759143048206
30
0
41
1
10
37.3554954671437
20
10.1823173584011
30
0
41
1
10
37.7740245088492
20
10.1897609279167
30
0
41
1
10
37.9135263184262
20
10.1918795647954
30
0
41
1
10
38.1925955978495
20
10.1953853734191
30
0
41
1
10
38.3321540797334
20
10.1967740542486
30
0
41
1
10
39.0300520009537
20
10.201911340991
30
0
41
1
10
39.588699463416
20
10.2002534103989
30
0
41
1
10
40.7063844886079
20
10.1855812439263
30
0
41
1
10
41.2654320680837
20
10.17256634596
30
0
41
1
10
42.3837338794121
20
10.1351036742005
30
0
41
1
10
42.9429821595285
20
10.1106533733067
30
0
41
1
10
43.6420685018608
20
10.0727486519608
30
0
41
1
10
43.7818873063689
20
10.0648001426758
30
0
41
1
10
44.0615262838025
20
10.0481612520077
30
0
41
1
10
44.2013419502416
20
10.0394679489731
30
0
41
1
10
44.6209254154596
20
10.0123396146206
30
0
41
1
10
44.9009131870245
20
9.99286377304557
30
0
41
1
10
45.7407203502239
20
9.93035387962723
30
0
41
1
10
46.3004684826512
20
9.88323611657754
30
0
41
1
10
47.4194952000151
20
9.77814379793719
30
0
41
1
10
47.9787813978849
20
9.72017428821766
30
0
41
1
10
49.0966893096596
20
9.59319386045925
30
0
41
1
10
49.6553064805084
20
9.52417731785508
30
0
41
1
10
50.4926100485265
20
9.41208996764121
30
0
41
1
10
50.7715727723277
20
9.37325442675581
30
0
41
1
10
51.3297609991022
20
9.29324312876653
30
0
41
1
10
51.6089423924344
20
9.25202395426248
30
0
41
1
10
52.4466843624784
20
9.12470181275839
30
0
41
1
10
53.0054349516507
20
9.03493109288277
30
0
41
1
10
54.1232354563001
20
8.84543929292278
30
0
41
1
10
54.6822894757362
20
8.74572394041948
30
0
41
1
10
55.8004954472532
20
8.53595786774682
30
0
41
1
10
56.3596411723694
20
8.42589539872608
30
0
41
1
10
57.058563402524
20
8.28156445947238
30
0
41
1
10
57.1983531352853
20
8.25236925144381
30
0
41
1
10
57.4780419206872
20
8.19349025519739
30
0
41
1
10
57.6179342046805
20
8.16379548722912
30
0
41
1
10
58.0377461411758
20
8.07393748540429
30
0
41
1
10
58.3178276185095
20
8.01299444272729
30
0
41
1
10
59.1577378797859
20
7.82717623329873
30
0
41
1
10
59.7174917846452
20
7.69925692827906
30
0
41
1
10
60.8364399735786
20
7.43507118925385
30
0
41
1
10
61.3956339116051
20
7.29880426225182
30
0
41
1
10
62.2338456638767
20
7.08778730246033
30
0
41
1
10
62.6528074759736
20
6.98062416478206
30
0
41
1
10
63.0715323703843
20
6.87091478356334
30
0
41
1
10
63.3506275615086
20
6.79720171407933
30
0
41
1
10
63.4901408242648
20
6.76004334379795
30
0
41
1
10
64.1877402504676
20
6.57317617163935
30
0
41
1
10
64.7461624956358
20
6.42076348960114
30
0
41
1
10
65.8634086523358
20
6.1096581099778
30
0
41
1
10
66.4222300923794
20
5.95095815755306
30
0
41
1
10
67.5400757876942
20
5.62684948295765
30
0
41
1
10
68.0990961758795
20
5.46143183201406
30
0
41
1
10
68.9376270696681
20
5.20783027887222
30
0
41
1
10
69.2171384496287
20
5.12238514663886
30
0
41
1
10
69.776147821691
20
4.94960829991314
30
0
41
1
10
70.055596806394
20
4.8621483886804
30
0
41
1
10
70.6149109623296
20
4.6864221572516
30
0
41
1
10
70.8947515442734
20
4.59809781748604
30
0
41
1
10
71.4547553611288
20
4.42043357934495
30
0
41
1
10
71.7348574857497
20
4.33111016568756
30
0
41
1
10
72.5748065724514
20
4.06175088240209
30
0
41
1
10
73.1345364749516
20
3.8802634415257
30
0
41
1
10
74.2533331492666
20
3.51296571655288
30
0
41
1
10
74.812394114788
20
3.32713975032658
30
0
41
1
10
75.6503364514308
20
3.04472358997117
30
0
41
1
10
75.9295433496441
20
2.94997421488355
30
0
41
1
10
76.3481798193234
20
2.8068923923492
30
0
41
1
10
76.4876944022959
20
2.75903334999273
30
0
41
1
10
76.7667655711265
20
2.66327057860283
30
0
41
1
10
76.9063217570935
20
2.61536591637218
30
0
41
1
10
77.6041920332545
20
2.37569188087505
30
0
41
1
10
78.1627669140149
20
2.18345290745018
30
0
41
1
10
79.2801917503635
20
1.79723750756128
30
0
41
1
10
79.8390521862902
20
1.60328991118584
30
0
41
1
10
80.9568676846689
20
1.21314488536575
30
0
41
1
10
81.515816487733
20
1.01692956223096
30
0
41
1
10
82.3541777056231
20
0.720501964650509
30
0
41
1
10
82.6335990482905
20
0.62127768522771
30
0
41
1
10
83.1925209861633
20
0.422405614959985
30
0
41
1
10
83.4721409498606
20
0.32310333983628
30
0
41
1
10
84.0317352218891
20
0.124880256370773
30
0
41
1
10
84.3116965993883
20
0.0259220553294028
30
0
41
1
10
84.8719068403432
20
-0.171802057946508
30
0
41
1
10
85.1519615037597
20
-0.270496993075596
30
0
41
1
10
85.9918957174444
20
-0.566175339297757
30
0
41
1
10
86.5515674963678
20
-0.762752552669326
30
0
41
1
10
87.6701366261932
20
-1.15541978378579
30
0
41
1
10
88.2290285388316
20
-1.35152508733793
30
0
41
1
10
88.9270501399729
20
-1.5966330993013
30
0
41
1
10
89.0666231202646
20
-1.6456581144856
30
0
41
1
10
89.3457164698298
20
-1.74368539724813
30
0
41
1
10
89.4852436776462
20
-1.79266823952082
30
0
41
1
10
89.9039060308763
20
-1.93913363609707
30
0
41
1
10
90.1830885957891
20
-2.03622749761536
30
0
41
1
10
91.0207952390311
20
-2.32605411273067
30
0
41
1
10
91.5794694639342
20
-2.51735819440208
30
0
41
1
10
92.6970008902821
20
-2.89679114771988
30
0
41
1
10
93.2558641903801
20
-3.08490315860726
30
0
41
1
10
94.3735751897911
20
-3.45847658310763
30
0
41
1
10
94.9324194474292
20
-3.64394695951054
30
0
41
1
10
95.6308754506763
20
-3.8743270231939
30
0
41
1
10
95.7705554517823
20
-3.92034652835332
30
0
41
1
10
96.0499823548981
20
-4.01203367289187
30
0
41
1
10
96.189738838364
20
-4.057675938161
30
0
41
1
10
96.6091367118919
20
-4.19400254775701
30
0
41
1
10
96.8889030047897
20
-4.2840962420662
30
0
41
1
10
97.4487276268067
20
-4.46282427363673
30
0
41
1
10
97.7288402829644
20
-4.55147816700082
30
0
41
1
10
98.2890640930501
20
-4.72732595714172
30
0
41
1
10
98.5691016961768
20
-4.81449628661929
30
0
41
1
10
99.4089576921585
20
-5.07384725715076
30
0
41
1
10
99.9685201448351
20
-5.24387100054361
30
0
41
1
10
100.807191669554
20
-5.49496284647648
30
0
41
1
10
101.086636883815
20
-5.57800129587662
30
0
41
1
10
101.645284304728
20
-5.74278926994987
30
0
41
1
10
101.924472228793
20
-5.8245720569065
30
0
41
1
10
102.482653567974
20
-5.98671128440478
30
0
41
1
10
102.761764351141
20
-6.06679331182826
30
0
41
1
10
103.320141607794
20
-6.22474263717578
30
0
41
1
10
103.59938421066
20
-6.3026657822391
30
0
41
1
10
104.437212975387
20
-6.53344860049688
30
0
41
1
10
104.995900949325
20
-6.68332402676697
30
0
41
1
10
106.113354145636
20
-6.97558613953262
30
0
41
1
10
106.672117110095
20
-7.11797786513276
30
0
41
1
10
107.510163734212
20
-7.32620432809287
30
0
41
1
10
107.789497143688
20
-7.39471659545569
30
0
41
1
10
108.208461699908
20
-7.49614693459534
30
0
41
1
10
108.34811048084
20
-7.529734247759
30
0
41
1
10
108.627395104625
20
-7.5964611398141
30
0
41
1
10
108.767031429093
20
-7.62959930895036
30
0
41
1
10
109.465442116504
20
-7.79366742802699
30
0
41
1
10
110.024845953089
20
-7.91985568530134
30
0
41
1
10
110.86471481601
20
-8.10211648707511
30
0
41
1
10
111.144835343299
20
-8.16170133196854
30
0
41
1
10
111.705152632929
20
-8.27853373163802
30
0
41
1
10
111.985269896509
20
-8.33576438960145
30
0
41
1
10
112.825459760455
20
-8.50396590345247
30
0
41
1
10
113.385366247865
20
-8.611459747195
30
0
41
1
10
114.224747040907
20
-8.76587656295052
30
0
41
1
10
114.504461837247
20
-8.81620824363318
30
0
41
1
10
115.063716421669
20
-8.9145835578224
30
0
41
1
10
115.34324016987
20
-8.96264316191261
30
0
41
1
10
116.182287315193
20
-9.10237718620166
30
0
41
1
10
116.742061059301
20
-9.18994266566418
30
0
41
1
10
117.582107235533
20
-9.31333633737188
30
0
41
1
10
117.862189274898
20
-9.35313664987038
30
0
41
1
10
118.422462396122
20
-9.43010819499418
30
0
41
1
10
118.702667631988
20
-9.4672803567338
30
0
41
1
10
119.542965031089
20
-9.57483089110269
30
0
41
1
10
120.102877718234
20
-9.64127455180031
30
0
41
1
10
120.942179890472
20
-9.7330630480885
30
0
41
1
10
121.22184575213
20
-9.76235001081946
30
0
41
1
10
121.641217964972
20
-9.80426807428773
30
0
41
1
10
121.781001253466
20
-9.81789401541616
30
0
41
1
10
122.060634289605
20
-9.84439277199715
30
0
41
1
10
122.200474926711
20
-9.85727305529122
30
0
41
1
10
122.899784852629
20
-9.91985270705931
30
0
41
1
10
123.459565696922
20
-9.96410397705526
30
0
41
1
10
124.579522691987
20
-10.0413339345349
30
0
41
1
10
125.139708963307
20
-10.0743053331508
30
0
41
1
10
125.7
20
-10.1016642416193
30
0
0
SPLINE
5
CB
100
AcDbEntity
8
1
62
256
6
ByLayer
370
18
48
1
60
0
100
AcDbSpline
70
4
71
4
72
10
73
5
40
0
40
0
40
0
40
0
40
0
40
1
40
1
40
1
40
1
40
1
41
0.996883372174069
10
18.3474447241729
20
7.67846886253061
30
0
41
0.996743226905151
10
18.338684603978
20
7.5987961208249
30
0
41
0.996609388079863
10
18.3294600038169
20
7.51947446767463
30
0
41
0.996483273198034
10
18.3197725386343
20
7.44055296875576
30
0
41
0.996365980918545
10
18.3096252815504
20
7.36207903928845
30
0
0
SPLINE
5
CC
100
AcDbEntity
8
1
62
256
6
ByLayer
370
18
48
1
60
0
100
AcDbSpline
70
4
71
3
72
156
73
152
40
0
40
0
40
0
40
0
40
0.0009620381841686
40
0.0009620381841686
40
0.0194627411807592
40
0.0194627411807592
40
0.0379634441773498
40
0.0379634441773498
40
0.0425886199264972
40
0.0425886199264972
40
0.0472137956756447
40
0.0472137956756447
40
0.0564641471739396
40
0.0564641471739396
40
0.0749648501705302
40
0.0749648501705302
40
0.0934655531671209
40
0.0934655531671209
40
0.102715904665416
40
0.102715904665416
40
0.111966256163711
40
0.111966256163711
40
0.116591431912859
40
0.116591431912859
40
0.121216607662006
40
0.130466959160302
40
0.130466959160302
40
0.148967662156893
40
0.148967662156893
40
0.167468365153485
40
0.167468365153485
40
0.17671871665178
40
0.17671871665178
40
0.185969068150075
40
0.185969068150075
40
0.222970474143256
40
0.222970474143256
40
0.232220825641551
40
0.232220825641551
40
0.241471177139846
40
0.241471177139846
40
0.250721528638141
40
0.250721528638141
40
0.259971880136437
40
0.259971880136437
40
0.278472583133026
40
0.278472583133026
40
0.296973286129615
40
0.296973286129615
40
0.315473989126205
40
0.315473989126205
40
0.320099164875352
40
0.320099164875352
40
0.324724340624499
40
0.333974692122794
40
0.333974692122794
40
0.352475395119382
40
0.352475395119382
40
0.370976098115971
40
0.370976098115971
40
0.380226449614266
40
0.380226449614266
40
0.384851625363414
40
0.384851625363414
40
0.389476801112561
40
0.389476801112561
40
0.407977504109151
40
0.42647820710574
40
0.42647820710574
40
0.44497891010233
40
0.44497891010233
40
0.454229261600624
40
0.454229261600624
40
0.463479613098919
40
0.463479613098919
40
0.481980316095508
40
0.481980316095508
40
0.500481019092097
40
0.500481019092097
40
0.509731370590391
40
0.509731370590391
40
0.518981722088686
40
0.518981722088686
40
0.52823207358698
40
0.52823207358698
40
0.537482425085275
40
0.537482425085275
40
0.555983128081863
40
0.555983128081863
40
0.574483831078452
40
0.574483831078452
40
0.583734182576746
40
0.588359358325893
40
0.588359358325893
40
0.59298453407504
40
0.59298453407504
40
0.629985940068218
40
0.629985940068218
40
0.648486643064807
40
0.648486643064807
40
0.657736994563102
40
0.657736994563102
40
0.662362170312249
40
0.662362170312249
40
0.666987346061397
40
0.685488049057985
40
0.685488049057985
40
0.703988752054574
40
0.703988752054574
40
0.722489455051163
40
0.722489455051163
40
0.731739806549457
40
0.731739806549457
40
0.740990158047752
40
0.740990158047752
40
0.759490861044341
40
0.759490861044341
40
0.77799156404093
40
0.77799156404093
40
0.787241915539225
40
0.787241915539225
40
0.796492267037519
40
0.796492267037519
40
0.814992970034109
40
0.814992970034109
40
0.833493673030698
40
0.833493673030698
40
0.851994376027288
40
0.851994376027288
40
0.861244727525582
40
0.861244727525582
40
0.865869903274729
40
0.865869903274729
40
0.870495079023877
40
0.888995782020466
40
0.888995782020466
40
0.907496485017056
40
0.907496485017056
40
0.925997188013646
40
0.925997188013646
40
0.930622363762794
40
0.930622363762794
40
0.935247539511941
40
0.935247539511941
40
0.944497891010235
40
0.944497891010235
40
0.962998594006823
40
0.962998594006823
40
0.981499297003412
40
0.981499297003412
40
1
40
1
40
1
40
1
41
1
10
108.307831988591
20
-7.52420345005953
30
0
41
1
10
108.277540730691
20
-7.53141979776947
30
0
41
1
10
108.247249651132
20
-7.53862313371269
30
0
41
1
10
107.634442527718
20
-7.68408917149043
30
0
41
1
10
107.051993979731
20
-7.81756065760382
30
0
41
1
10
105.887330305889
20
-8.07509549776157
30
0
41
1
10
105.305116923793
20
-8.19916275789959
30
0
41
1
10
104.577579862186
20
-8.3484255802592
30
0
41
1
10
104.432083931194
20
-8.37798663549458
30
0
41
1
10
104.141116979137
20
-8.4365251403575
30
0
41
1
10
103.995647179734
20
-8.46550406912897
30
0
41
1
10
103.559152183901
20
-8.55136688579853
30
0
41
1
10
103.268050412719
20
-8.6071933668579
30
0
41
1
10
102.394445690447
20
-8.77048645438535
30
0
41
1
10
101.811644630046
20
-8.87377374367725
30
0
41
1
10
100.645342382133
20
-9.06941456280367
30
0
41
1
10
100.061839837361
20
-9.16176667996095
30
0
41
1
10
99.1861367415733
20
-9.29213892899963
30
0
41
1
10
98.8941676807175
20
-9.33423478152741
30
0
41
1
10
98.3106906047594
20
-9.41561918500247
30
0
41
1
10
98.0191127793724
20
-9.45492345697355
30
0
41
1
10
97.5819804501966
20
-9.51176979476182
30
0
41
1
10
97.4363001409796
20
-9.53035723665462
30
0
41
1
10
97.1449312562429
20
-9.56674028016144
30
0
41
1
10
96.7078866360939
20
-9.62014987967359
30
0
41
1
10
96.2708721072432
20
-9.67009143356091
30
0
41
1
10
95.3968995738857
20
-9.76540980944557
30
0
41
1
10
94.8143260256817
20
-9.82287476737463
30
0
41
1
10
93.649419788658
20
-9.92581159600985
30
0
41
1
10
93.0670851139484
20
-9.97128294058422
30
0
41
1
10
92.1938561976497
20
-10.0304852142648
30
0
41
1
10
91.9028254818905
20
-10.0487168539286
30
0
41
1
10
91.3208714484506
20
-10.0821530526256
30
0
41
1
10
91.029980478663
20
-10.0973662357256
30
0
41
1
10
89.5748831823581
20
-10.1654504593083
30
0
41
1
10
88.4092338205955
20
-10.1947834113962
30
0
41
1
10
86.9506856126024
20
-10.2005130121183
30
0
41
1
10
86.6589016506805
20
-10.2001043517739
30
0
41
1
10
86.0752004945914
20
-10.1961575244936
30
0
41
1
10
85.7832323401666
20
-10.1926177932331
30
0
41
1
10
85.1997445803917
20
-10.18238652838
30
0
41
1
10
84.9081911872871
20
-10.1756886674139
30
0
41
1
10
84.3252978656679
20
-10.1591392525077
30
0
41
1
10
84.0338736313966
20
-10.1493095879528
30
0
41
1
10
83.1596538711622
20
-10.1152156632243
30
0
41
1
10
82.5769230315977
20
-10.0863500299186
30
0
41
1
10
81.4117130972161
20
-10.0164768252973
30
0
41
1
10
80.8292328381939
20
-9.97547008362051
30
0
41
1
10
79.6646284519984
20
-9.88123924654155
30
0
41
1
10
79.0825075784272
20
-9.82801376374641
30
0
41
1
10
78.3551644902472
20
-9.75365277055494
30
0
41
1
10
78.2097140466857
20
-9.73838569305519
30
0
41
1
10
77.9187654450558
20
-9.70713205571616
30
0
41
1
10
77.4822726029854
20
-9.65917255636961
30
0
41
1
10
77.0455748845991
20
-9.60799103666096
30
0
41
1
10
76.1719244362621
20
-9.50135080094717
30
0
41
1
10
75.5891512993017
20
-9.42455994346338
30
0
41
1
10
74.4230204017208
20
-9.25953904611362
30
0
41
1
10
73.8396605873304
20
-9.17131235051158
30
0
41
1
10
72.9642660794803
20
-9.03019265820413
30
0
41
1
10
72.6723346945316
20
-8.98167457331471
30
0
41
1
10
72.2347134492134
20
-8.90672040832956
30
0
41
1
10
72.0888841116408
20
-8.88137055981059
30
0
41
1
10
71.7973078276806
20
-8.82994696232407
30
0
41
1
10
71.6515555587297
20
-8.80388053078548
30
0
41
1
10
70.9227899311675
20
-8.67204858133948
30
0
41
1
10
69.7569489954
20
-8.45123176276729
30
0
41
1
10
68.591636175809
20
-8.21076817051119
30
0
41
1
10
67.4266815648519
20
-7.96036700566532
30
0
41
1
10
66.844383483047
20
-7.8301981860165
30
0
41
1
10
65.9713044159665
20
-7.62723625400125
30
0
41
1
10
65.6803504133628
20
-7.55827475283215
30
0
41
1
10
65.0985304478691
20
-7.41782015163196
30
0
41
1
10
64.8075708085152
20
-7.34650808154561
30
0
41
1
10
63.9343893811767
20
-7.12965165728914
30
0
41
1
10
63.351933542552
20
-6.98105965431668
30
0
41
1
10
62.1864483690245
20
-6.67573373153337
30
0
41
1
10
61.603418060329
20
-6.51900212050185
30
0
41
1
10
60.7285164272722
20
-6.27760498610854
30
0
41
1
10
60.4368237533558
20
-6.19608684769898
30
0
41
1
10
59.8533359963882
20
-6.03089124514287
30
0
41
1
10
59.5614776024351
20
-5.94719588812586
30
0
41
1
10
58.9779788106787
20
-5.7776735331646
30
0
41
1
10
58.6864219589789
20
-5.69183591468683
30
0
41
1
10
58.103286817987
20
-5.518992986191
30
0
41
1
10
57.8117494344022
20
-5.43189071280301
30
0
41
1
10
56.9372419329807
20
-5.16852675001294
30
0
41
1
10
56.3543769721875
20
-4.99020909270865
30
0
41
1
10
55.189014503435
20
-4.6279227717161
30
0
41
1
10
54.6065150059976
20
-4.44395940685757
30
0
41
1
10
53.7331290011844
20
-4.16353547296191
30
0
41
1
10
53.2965275474849
20
-4.02220090475356
30
0
41
1
10
52.8600815186392
20
-3.87912395317389
30
0
41
1
10
52.5691542251686
20
-3.78334452722578
30
0
41
1
10
52.4237128709424
20
-3.73524682454172
30
0
41
1
10
51.1145717305724
20
-3.30147438450251
30
0
41
1
10
49.9495762543786
20
-2.90991335104655
30
0
41
1
10
48.2006769218142
20
-2.31230826503233
30
0
41
1
10
47.6174757963453
20
-2.11138781246353
30
0
41
1
10
46.7424128107124
20
-1.80712224669921
30
0
41
1
10
46.450670163711
20
-1.70520918984147
30
0
41
1
10
46.013035775102
20
-1.55160805649325
30
0
41
1
10
45.8671851793832
20
-1.50031238071392
30
0
41
1
10
45.575460348963
20
-1.3977523033696
30
0
41
1
10
44.8461209863633
20
-1.14134066273866
30
0
41
1
10
44.1166575239341
20
-0.884840577431959
30
0
41
1
10
42.9494493239482
20
-0.474074788350379
30
0
41
1
10
42.3658110905968
20
-0.268511345588621
30
0
41
1
10
41.1985688286818
20
0.143267300053935
30
0
41
1
10
40.6149675211395
20
0.349490177023568
30
0
41
1
10
39.7396912226767
20
0.65960431352309
30
0
41
1
10
39.4479613182147
20
0.76322086361273
30
0
41
1
10
38.8644689313733
20
0.969601860243699
30
0
41
1
10
38.5727037276453
20
1.07244772613731
30
0
41
1
10
37.697366187342
20
1.38000321245147
30
0
41
1
10
37.1137528709488
20
1.58373456912182
30
0
41
1
10
35.9465086924917
20
1.98886739595264
30
0
41
1
10
35.3628760440279
20
2.19026400135118
30
0
41
1
10
34.4874990819444
20
2.49083849514818
30
0
41
1
10
34.1957194456847
20
2.5907781653606
30
0
41
1
10
33.6122008956727
20
2.7901909825504
30
0
41
1
10
33.3204857161089
20
2.8897287960674
30
0
41
1
10
32.4452473882412
20
3.18721209674879
30
0
41
1
10
31.8617476573967
20
3.38281978136234
30
0
41
1
10
30.694924276158
20
3.7687202685963
30
0
41
1
10
30.1115826587255
20
3.9590503419974
30
0
41
1
10
28.9451333189922
20
4.33475121224527
30
0
41
1
10
28.3620243430595
20
4.5201192000861
30
0
41
1
10
27.4876327025904
20
4.79465936503695
30
0
41
1
10
27.1962140245383
20
4.8855864044817
30
0
41
1
10
26.759166246059
20
5.02111707260951
30
0
41
1
10
26.6135006896024
20
5.06615941325688
30
0
41
1
10
26.3221200967476
20
5.15576795531655
30
0
41
1
10
25.5935405859799
20
5.37858877224662
30
0
41
1
10
24.8643351061745
20
5.59547475064008
30
0
41
1
10
23.6969033273928
20
5.93519930307443
30
0
41
1
10
23.1126869614818
20
6.10145270459128
30
0
41
1
10
21.9452918122352
20
6.42642427011467
30
0
41
1
10
21.3619408193677
20
6.58520063856133
30
0
41
1
10
20.6332702898587
20
6.77915189187871
30
0
41
1
10
20.4875632793402
20
6.81771827488137
30
0
41
1
10
20.1961979878167
20
6.89438865830172
30
0
41
1
10
20.0505348203271
20
6.93248199420552
30
0
41
1
10
19.6134896122721
20
7.04579953129112
30
0
41
1
10
19.3220784815401
20
7.12011841742793
30
0
41
1
10
18.447717974337
20
7.33946325219034
30
0
41
1
10
17.8646434189761
20
7.48088564334123
30
0
41
1
10
16.6982450099713
20
7.75436531962816
30
0
41
1
10
16.114919291537
20
7.8864196487622
30
0
41
1
10
14.9481262339143
20
8.1413103237735
30
0
41
1
10
14.3646596344637
20
8.26414920929076
30
0
41
1
10
13.7811994964713
20
8.38241003537826
30
0
0
SPLINE
5
CD
100
AcDbEntity
8
1
62
256
6
ByLayer
370
18
48
1
60
0
100
AcDbSpline
70
4
71
3
72
21
73
17
40
0
40
0
40
0
40
0
40
0.0625000000000013
40
0.0625000000000013
40
0.125000000000002
40
0.250000000000005
40
0.250000000000005
40
0.50000000000001
40
0.50000000000001
40
0.562500000000011
40
0.562500000000011
40
0.625000000000013
40
0.625000000000013
40
0.750000000000008
40
0.750000000000008
40
1
40
1
40
1
40
1
41
1
10
136.67831254021
20
-1.49789096521556
30
0
41
1
10
136.449388473555
20
-1.41509339325145
30
0
41
1
10
136.220594140048
20
-1.33198276746444
30
0
41
1
10
135.762996390013
20
-1.16588346878305
30
0
41
1
10
135.076619256499
20
-0.916824869280191
30
0
41
1
10
134.390325007568
20
-0.667964838726391
30
0
41
1
10
133.017920215976
20
-0.170299322667489
30
0
41
1
10
132.103215380622
20
0.161370305552595
30
0
41
1
10
130.960442982332
20
0.576702096424924
30
0
41
1
10
130.731919509734
20
0.659807119424016
30
0
41
1
10
130.274943359463
20
0.826118030785494
30
0
41
1
10
130.046503651983
20
0.909359653939788
30
0
41
1
10
129.36120446788
20
1.15899677045812
30
0
41
1
10
128.904111944049
20
1.32460754162457
30
0
41
1
10
127.532060102797
20
1.81874417697046
30
0
41
1
10
126.616402428572
20
2.14478551541066
30
0
41
1
10
125.7
20
2.46802591163061
30
0
0
SPLINE
5
CE
100
AcDbEntity
8
1
62
256
6
ByLayer
370
18
48
1
60
0
100
AcDbSpline
70
4
71
3
72
90
73
86
40
0
40
0
40
0
40
0
40
0.0312499999999994
40
0.0312499999999994
40
0.0624999999999988
40
0.0624999999999988
40
0.124999999999996
40
0.124999999999996
40
0.140624999999995
40
0.140624999999995
40
0.148437499999995
40
0.148437499999995
40
0.156249999999995
40
0.187499999999994
40
0.187499999999994
40
0.218749999999993
40
0.218749999999993
40
0.249999999999992
40
0.249999999999992
40
0.281249999999991
40
0.281249999999991
40
0.296874999999991
40
0.296874999999991
40
0.31249999999999
40
0.31249999999999
40
0.343749999999989
40
0.343749999999989
40
0.374999999999988
40
0.374999999999988
40
0.406249999999987
40
0.406249999999987
40
0.437499999999986
40
0.437499999999986
40
0.445312499999985
40
0.445312499999985
40
0.453124999999985
40
0.468749999999984
40
0.468749999999984
40
0.499999999999982
40
0.499999999999982
40
0.53124999999998
40
0.53124999999998
40
0.539062499999979
40
0.539062499999979
40
0.546874999999979
40
0.562499999999978
40
0.562499999999978
40
0.593749999999977
40
0.593749999999977
40
0.624999999999975
40
0.624999999999975
40
0.632812499999975
40
0.632812499999975
40
0.640624999999974
40
0.656249999999974
40
0.656249999999974
40
0.687499999999973
40
0.687499999999973
40
0.718749999999972
40
0.718749999999972
40
0.726562499999972
40
0.726562499999972
40
0.734374999999973
40
0.734374999999973
40
0.749999999999975
40
0.749999999999975
40
0.781249999999979
40
0.781249999999979
40
0.812499999999983
40
0.812499999999983
40
0.843749999999986
40
0.843749999999986
40
0.851562499999987
40
0.851562499999987
40
0.859374999999988
40
0.87499999999999
40
0.87499999999999
40
0.906249999999993
40
0.937499999999996
40
0.968749999999999
40
0.968749999999999
40
0.9765625
40
0.9765625
40
0.984375
40
1
40
1
40
1
40
1
41
1
10
136.678312540205
20
10.1665916565486
30
0
41
1
10
136.743891969159
20
10.0039932179582
30
0
41
1
10
136.809574777182
20
9.83895381976424
30
0
41
1
10
136.94125858268
20
9.50437804554824
30
0
41
1
10
137.007259464362
20
9.33484081300139
30
0
41
1
10
137.205856718757
20
8.8199000254105
30
0
41
1
10
137.339065692805
20
8.46820351500426
30
0
41
1
10
137.506734337484
20
8.01885609631839
30
0
41
1
10
137.540324496675
20
7.92849734893628
30
0
41
1
10
137.59079225026
20
7.79223124015388
30
0
41
1
10
137.607640239398
20
7.74665617180304
30
0
41
1
10
137.641303146054
20
7.65542617692461
30
0
41
1
10
137.725336822454
20
7.42726054895002
30
0
41
1
10
137.808760890907
20
7.1986489049111
30
0
41
1
10
137.941404674822
20
6.83229559189451
30
0
41
1
10
138.007310023582
20
6.64883186149871
30
0
41
1
10
138.138136274678
20
6.28128741691319
30
0
41
1
10
138.203058674477
20
6.09720722636075
30
0
41
1
10
138.33163980373
20
5.72833746236347
30
0
41
1
10
138.395301122358
20
5.54354881831807
30
0
41
1
10
138.489494255356
20
5.26571111819854
30
0
41
1
10
138.520673780287
20
5.1729887879045
30
0
41
1
10
138.582511669175
20
4.9872943828546
30
0
41
1
10
138.613183054079
20
4.89428001893461
30
0
41
1
10
138.703815004799
20
4.61617078235835
30
0
41
1
10
138.762556636176
20
4.43157274764059
30
0
41
1
10
138.875606514915
20
4.06368653653666
30
0
41
1
10
138.929922146378
20
3.88039955047924
30
0
41
1
10
139.032469629011
20
3.51475130315472
30
0
41
1
10
139.080709589069
20
3.33239112392948
30
0
41
1
10
139.168624308003
20
2.96809866891579
30
0
41
1
10
139.208304526517
20
2.78616349341226
30
0
41
1
10
139.250355876546
20
2.55862696738362
30
0
41
1
10
139.258390905874
20
2.51308469161194
30
0
41
1
10
139.273614569587
20
2.42210459207246
30
0
41
1
10
139.29512893928
20
2.28611083858783
30
0
41
1
10
139.312448234155
20
2.15156559826178
30
0
41
1
10
139.340929028134
20
1.88448338811045
30
0
41
1
10
139.35164519389
20
1.70909719994873
30
0
41
1
10
139.354529647262
20
1.36429447249785
30
0
41
1
10
139.346681117557
20
1.19488083350058
30
0
41
1
10
139.325348690796
20
0.987399970592151
30
0
41
1
10
139.320506782581
20
0.946081962499591
30
0
41
1
10
139.309726109587
20
0.864050510424306
30
0
41
1
10
139.291966419809
20
0.742312314337397
30
0
41
1
10
139.26971597291
20
0.624452947898874
30
0
41
1
10
139.219974740857
20
0.393780853742697
30
0
41
1
10
139.179855511368
20
0.246719003617244
30
0
41
1
10
139.08931985877
20
-0.0344922342685265
30
0
41
1
10
139.038911081668
20
-0.168645474780305
30
0
41
1
10
138.971139945839
20
-0.328391568800271
30
0
41
1
10
138.957335703933
20
-0.35996362495689
30
0
41
1
10
138.929320182478
20
-0.42221730323422
30
0
41
1
10
138.886772344821
20
-0.514072669273361
30
0
41
1
10
138.842813961721
20
-0.601442732325381
30
0
41
1
10
138.753358302299
20
-0.770382890715808
30
0
41
1
10
138.69168972214
20
-0.875292502501168
30
0
41
1
10
138.565487610368
20
-1.07019724161768
30
0
41
1
10
138.500945533721
20
-1.16018955987272
30
0
41
1
10
138.418866282624
20
-1.2633755013878
30
0
41
1
10
138.402379305135
20
-1.28354637454046
30
0
41
1
10
138.36926924278
20
-1.32295169442008
30
0
41
1
10
138.352631693821
20
-1.34220152801385
30
0
41
1
10
138.302729287654
20
-1.39831052949802
30
0
41
1
10
138.269422138798
20
-1.43359709346549
30
0
41
1
10
138.169436208176
20
-1.53324222824088
30
0
41
1
10
138.102697906405
20
-1.59139908236116
30
0
41
1
10
137.969180619138
20
-1.69158894536665
30
0
41
1
10
137.902399547334
20
-1.7336202771603
30
0
41
1
10
137.768776203155
20
-1.80158373648061
30
0
41
1
10
137.701932976771
20
-1.82751586987214
30
0
41
1
10
137.618270950694
20
-1.84965512962961
30
0
41
1
10
137.601518749809
20
-1.85357022500605
30
0
41
1
10
137.568146787842
20
-1.86033599021573
30
0
41
1
10
137.518242580328
20
-1.86890216264572
30
0
41
1
10
137.468783166361
20
-1.87277397593456
30
0
41
1
10
137.370413906534
20
-1.87436539244919
30
0
41
1
10
137.240719992134
20
-1.86010302648893
30
0
41
1
10
137.049889513256
20
-1.79044972460525
30
0
41
1
10
136.924693985528
20
-1.71178337847863
30
0
41
1
10
136.846938596068
20
-1.65232350213654
30
0
41
1
10
136.831419510255
20
-1.63992089207207
30
0
41
1
10
136.800511666338
20
-1.61415174936133
30
0
41
1
10
136.754315468947
20
-1.57402932195964
30
0
41
1
10
136.708596390917
20
-1.52951515187553
30
0
41
1
10
136.678312540205
20
-1.49789096521386
30
0
0
SPLINE
5
CF
100
AcDbEntity
8
1
62
256
6
ByLayer
370
18
48
1
60
0
100
AcDbSpline
70
4
71
3
72
18
73
14
40
0
40
0
40
0
40
0
40
0.0584026080614886
40
0.0584026080614886
40
0.246722086449185
40
0.246722086449185
40
0.623361043224577
40
0.623361043224577
40
0.71752078241843
40
0.71752078241843
40
0.811680521612283
40
0.811680521612283
40
1
40
1
40
1
40
1
41
1
10
129.391731766091
20
10.4986892497976
30
0
41
1
10
129.533540052466
20
10.4987095964738
30
0
41
1
10
129.675356027639
20
10.4983493078774
30
0
41
1
10
130.274479164824
20
10.4952295151618
30
0
41
1
10
130.731835933543
20
10.4889140840004
30
0
41
1
10
132.103910495217
20
10.4582210884079
30
0
41
1
10
133.018616050533
20
10.4221476380042
30
0
41
1
10
134.161474637035
20
10.3569076127318
30
0
41
1
10
134.389996903065
20
10.3428356419697
30
0
41
1
10
134.847125831088
20
10.3127126138329
30
0
41
1
10
135.075795451613
20
10.2966951884557
30
0
41
1
10
135.76211475143
20
10.2458069312587
30
0
41
1
10
136.220056381877
20
10.2080947123749
30
0
41
1
10
136.67831254021
20
10.1665916565481
30
0
0
SPLINE
5
D0
100
AcDbEntity
8
1
62
256
6
ByLayer
370
18
48
1
60
0
100
AcDbSpline
70
4
71
3
72
44
73
40
40
0
40
0
40
0
40
0
40
0.0809126963547638
40
0.0809126963547638
40
0.161825392709528
40
0.161825392709528
40
0.242738089064291
40
0.242738089064291
40
0.283194437241674
40
0.283194437241674
40
0.303422611330366
40
0.303422611330366
40
0.323650785419057
40
0.323650785419057
40
0.404563481773824
40
0.404563481773824
40
0.485476178128592
40
0.485476178128592
40
0.566388874483359
40
0.566388874483359
40
0.606845222660742
40
0.606845222660742
40
0.627073396749433
40
0.627073396749433
40
0.647301570838125
40
0.647301570838125
40
0.72821426719289
40
0.72821426719289
40
0.809126963547656
40
0.809126963547656
40
0.890039659902421
40
0.890039659902421
40
0.930496008079804
40
0.930496008079804
40
0.950724182168496
40
0.950724182168496
40
0.970952356257189
40
0.970952356257189
40
1
40
1
40
1
40
1
41
1
10
18.3474447241729
20
-7.67846886253062
30
0
41
1
10
18.907048749655
20
-7.80980568718243
30
0
41
1
10
19.4666446165183
20
-7.93586117660348
30
0
41
1
10
20.5855948091132
20
-8.17813877299392
30
0
41
1
10
21.1449483176348
20
-8.29436104873184
30
0
41
1
10
22.2632094043734
20
-8.51741753724701
30
0
41
1
10
22.8221158594832
20
-8.62425339350867
30
0
41
1
10
23.6599852843603
20
-8.77763733672774
30
0
41
1
10
23.9391941084459
20
-8.82761744897448
30
0
41
1
10
24.3578725633841
20
-8.90086359698017
30
0
41
1
10
24.4974092410219
20
-8.9249920205101
30
0
41
1
10
24.7764372207633
20
-8.97267013131233
30
0
41
1
10
24.9159302633276
20
-8.99621680600018
30
0
41
1
10
25.6135479262758
20
-9.11214385331834
30
0
41
1
10
26.1720519066262
20
-9.19923127577709
30
0
41
1
10
27.2895535276073
20
-9.36274037371282
30
0
41
1
10
27.84855930751
20
-9.43914914451943
30
0
41
1
10
28.966886067422
20
-9.58151518930052
30
0
41
1
10
29.5262020044162
20
-9.64747781436336
30
0
41
1
10
30.3652662186449
20
-9.73859699921695
30
0
41
1
10
30.644970463298
20
-9.76766312412599
30
0
41
1
10
31.0645401655975
20
-9.80928230712456
30
0
41
1
10
31.2043919830072
20
-9.8228304684836
30
0
41
1
10
31.484157328638
20
-9.84921723827185
30
0
41
1
10
31.624101445416
20
-9.86204686882434
30
0
41
1
10
32.3237944689745
20
-9.92432798997072
30
0
41
1
10
32.8835000801216
20
-9.96824328407698
30
0
41
1
10
34.0025347914598
20
-10.0447169641087
30
0
41
1
10
34.5618740950742
20
-10.0772665903458
30
0
41
1
10
35.6800004790312
20
-10.1311310025364
30
0
41
1
10
36.2387813230417
20
-10.1524476923193
30
0
41
1
10
37.0763920369521
20
-10.1759143048206
30
0
41
1
10
37.3554954671437
20
-10.1823173584011
30
0
41
1
10
37.7740245088492
20
-10.1897609279167
30
0
41
1
10
37.9135263184262
20
-10.1918795647954
30
0
41
1
10
38.1925955978496
20
-10.1953853734191
30
0
41
1
10
38.3321540797335
20
-10.1967740542486
30
0
41
1
10
38.6721698486333
20
-10.1992769396257
30
0
41
1
10
38.8726484512693
20
-10.2000090137089
30
0
41
1
10
39.0731632684587
20
-10.200001879818
30
0
0
SPLINE
5
D1
100
AcDbEntity
8
1
62
256
6
ByLayer
370
18
48
1
60
0
100
AcDbSpline
70
4
71
3
72
40
73
36
40
0
40
0
40
0
40
0
40
0.0104267374773753
40
0.0104267374773753
40
0.0345626707096319
40
0.0345626707096319
40
0.131106403638672
40
0.131106403638672
40
0.179378270103192
40
0.179378270103192
40
0.227650136567711
40
0.227650136567711
40
0.324193869496747
40
0.324193869496747
40
0.372465735961265
40
0.372465735961265
40
0.420737602425783
40
0.420737602425783
40
0.517281335354814
40
0.517281335354814
40
0.565553201819332
40
0.565553201819332
40
0.61382506828385
40
0.61382506828385
40
0.710368801212881
40
0.710368801212881
40
0.758640667677395
40
0.758640667677395
40
0.782776600909653
40
0.782776600909653
40
0.806912534141912
40
0.806912534141912
40
0.903456267070955
40
0.903456267070955
40
1
40
1
40
1
40
1
41
1
10
108.306772518185
20
7.51973335710477
30
0
41
1
10
108.367100462263
20
7.53422985773119
30
0
41
1
10
108.427427231138
20
7.54868466530647
30
0
41
1
10
108.627395104625
20
7.59646113981407
30
0
41
1
10
108.767031429093
20
7.62959930895036
30
0
41
1
10
109.465442116504
20
7.79366742802699
30
0
41
1
10
110.024845953089
20
7.91985568530134
30
0
41
1
10
110.86471481601
20
8.10211648707511
30
0
41
1
10
111.144835343299
20
8.16170133196857
30
0
41
1
10
111.705152632929
20
8.27853373163805
30
0
41
1
10
111.985269896509
20
8.33576438960142
30
0
41
1
10
112.825459760455
20
8.50396590345247
30
0
41
1
10
113.385366247866
20
8.611459747195
30
0
41
1
10
114.224747040907
20
8.76587656295052
30
0
41
1
10
114.504461837247
20
8.81620824363318
30
0
41
1
10
115.063716421669
20
8.9145835578224
30
0
41
1
10
115.34324016987
20
8.96264316191264
30
0
41
1
10
116.182287315193
20
9.10237718620166
30
0
41
1
10
116.742061059301
20
9.18994266566418
30
0
41
1
10
117.582107235533
20
9.31333633737188
30
0
41
1
10
117.862189274898
20
9.35313664987038
30
0
41
1
10
118.422462396122
20
9.43010819499418
30
0
41
1
10
118.702667631989
20
9.4672803567338
30
0
41
1
10
119.54296503109
20
9.57483089110269
30
0
41
1
10
120.102877718234
20
9.64127455180031
30
0
41
1
10
120.942179890472
20
9.7330630480885
30
0
41
1
10
121.22184575213
20
9.76235001081949
30
0
41
1
10
121.641217964972
20
9.80426807428771
30
0
41
1
10
121.781001253466
20
9.81789401541613
30
0
41
1
10
122.060634289605
20
9.84439277199715
30
0
41
1
10
122.200474926711
20
9.85727305529122
30
0
41
1
10
122.899784852629
20
9.91985270705931
30
0
41
1
10
123.459565696922
20
9.96410397705529
30
0
41
1
10
124.579522691987
20
10.0413339345349
30
0
41
1
10
125.139708963307
20
10.0743053331508
30
0
41
1
10
125.7
20
10.1016642416193
30
0
0
SPLINE
5
D2
100
AcDbEntity
8
1
62
256
6
ByLayer
370
18
48
1
60
0
100
AcDbSpline
70
4
71
4
72
10
73
5
40
0
40
0
40
0
40
0
40
0
40
1
40
1
40
1
40
1
40
1
41
0.99551407124537
10
13.9989049725576
20
-6.91794151836357
30
0
41
0.995490764584222
10
13.930689330294
20
-7.26815640116238
30
0
41
0.99573185336136
10
13.8712333099764
20
-7.63187486622612
30
0
41
0.996241459837763
10
13.8213439941078
20
-8.00492085016013
30
0
41
0.996883372174069
10
13.7811994964714
20
-8.38241003537836
30
0
0
SPLINE
5
D3
100
AcDbEntity
8
1
62
256
6
ByLayer
370
18
48
1
60
0
100
AcDbSpline
70
4
71
3
72
71
73
67
40
0
40
0
40
0
40
0
40
0.045077532939373
40
0.045077532939373
40
0.0676162994090595
40
0.0676162994090595
40
0.0901550658787459
40
0.0901550658787459
40
0.135232598818121
40
0.135232598818121
40
0.180310131757496
40
0.180310131757496
40
0.202848898227182
40
0.202848898227182
40
0.225387664696869
40
0.225387664696869
40
0.247926431166555
40
0.247926431166555
40
0.270465197636242
40
0.270465197636242
40
0.315542730575613
40
0.315542730575613
40
0.338081497045298
40
0.338081497045298
40
0.360620263514984
40
0.360620263514984
40
0.383159029984669
40
0.383159029984669
40
0.405697796454355
40
0.405697796454355
40
0.450775329393726
40
0.450775329393726
40
0.495852862333097
40
0.495852862333097
40
0.540930395272468
40
0.540930395272468
40
0.55219977850731
40
0.55219977850731
40
0.563469161742152
40
0.563469161742152
40
0.586007928211837
40
0.586007928211837
40
0.631085461151208
40
0.631085461151208
40
0.676162994090579
40
0.676162994090579
40
0.698701760560266
40
0.698701760560266
40
0.721240527029952
40
0.721240527029952
40
0.732509910264796
40
0.732509910264796
40
0.743779293499641
40
0.766318059969329
40
0.766318059969329
40
0.811395592908706
40
0.811395592908706
40
0.856473125848083
40
0.856473125848083
40
0.879011892317772
40
0.879011892317772
40
0.901550658787461
40
0.901550658787461
40
0.991705724666219
40
0.991705724666219
40
1
40
1
40
1
40
1
41
1
10
125.7
20
2.29106190805453
30
0
41
1
10
125.11600788062
20
2.49180186820456
30
0
41
1
10
124.532545403499
20
2.69123508115092
30
0
41
1
10
123.65824836875
20
2.98866635879767
30
0
41
1
10
123.367007990879
20
3.08763817175131
30
0
41
1
10
122.784504865596
20
3.28411654874412
30
0
41
1
10
122.493252799368
20
3.38165506524817
30
0
41
1
10
121.619509004032
20
3.67222933927306
30
0
41
1
10
121.037030591911
20
3.86322909479432
30
0
41
1
10
119.872198325746
20
4.24009381931359
30
0
41
1
10
119.289842852485
20
4.4259547858579
30
0
41
1
10
118.416486264046
20
4.70109289975619
30
0
41
1
10
118.125397624702
20
4.79219799000467
30
0
41
1
10
117.543296258206
20
4.97322075194776
30
0
41
1
10
117.252298520404
20
5.06317537843233
30
0
41
1
10
116.670324431938
20
5.24174617709477
30
0
41
1
10
116.379251933894
20
5.33012503606409
30
0
41
1
10
115.796869033472
20
5.50491790260554
30
0
41
1
10
115.505570587057
20
5.59136148383112
30
0
41
1
10
114.631373568992
20
5.84789376070819
30
0
41
1
10
114.048172831674
20
6.01518561552311
30
0
41
1
10
113.172838393256
20
6.26070328786994
30
0
41
1
10
112.880971161164
20
6.34163801822939
30
0
41
1
10
112.297072161042
20
6.50172309577079
30
0
41
1
10
112.005137900097
20
6.58084712920268
30
0
41
1
10
111.421674964798
20
6.73718727160693
30
0
41
1
10
111.130092094068
20
6.81441778285279
30
0
41
1
10
110.547241312782
20
6.96701702641155
30
0
41
1
10
110.255973508334
20
7.04238121313216
30
0
41
1
10
109.382059414617
20
7.26445889873881
30
0
41
1
10
108.799474984265
20
7.40753779200881
30
0
41
1
10
107.634442527718
20
7.68408917149043
30
0
41
1
10
107.051993979731
20
7.81756065760385
30
0
41
1
10
105.887330305889
20
8.07509549776159
30
0
41
1
10
105.305116923793
20
8.19916275789961
30
0
41
1
10
104.577579862186
20
8.3484255802592
30
0
41
1
10
104.432083931194
20
8.37798663549461
30
0
41
1
10
104.141116979137
20
8.4365251403575
30
0
41
1
10
103.995647179734
20
8.46550406912897
30
0
41
1
10
103.559152183901
20
8.55136688579853
30
0
41
1
10
103.268050412719
20
8.6071933668579
30
0
41
1
10
102.394445690447
20
8.77048645438535
30
0
41
1
10
101.811644630046
20
8.87377374367725
30
0
41
1
10
100.645342382133
20
9.06941456280367
30
0
41
1
10
100.061839837361
20
9.16176667996098
30
0
41
1
10
99.1861367415733
20
9.29213892899966
30
0
41
1
10
98.8941676807174
20
9.33423478152741
30
0
41
1
10
98.3106906047595
20
9.41561918500247
30
0
41
1
10
98.0191127793725
20
9.45492345697357
30
0
41
1
10
97.5819804501966
20
9.51176979476188
30
0
41
1
10
97.4363001409796
20
9.53035723665462
30
0
41
1
10
97.1449312562429
20
9.56674028016144
30
0
41
1
10
96.7078866360939
20
9.62014987967359
30
0
41
1
10
96.2708721072431
20
9.67009143356091
30
0
41
1
10
95.3968995738857
20
9.76540980944557
30
0
41
1
10
94.8143260256819
20
9.82287476737463
30
0
41
1
10
93.6494197886581
20
9.92581159600985
30
0
41
1
10
93.0670851139483
20
9.97128294058422
30
0
41
1
10
92.1938561976497
20
10.0304852142648
30
0
41
1
10
91.9028254818904
20
10.0487168539286
30
0
41
1
10
91.3208714484506
20
10.0821530526256
30
0
41
1
10
91.029980478663
20
10.0973662357256
30
0
41
1
10
89.5748831823581
20
10.1654504593083
30
0
41
1
10
88.4092338205956
20
10.1947834113962
30
0
41
1
10
87.1350459860771
20
10.1997887910585
30
0
41
1
10
87.0276866531752
20
10.1999999621643
30
0
41
1
10
86.9203176394434
20
10.2000000983171
30
0
0
SPLINE
5
D4
100
AcDbEntity
8
1
62
256
6
ByLayer
370
18
48
1
60
0
100
AcDbSpline
70
4
71
3
72
12
73
8
40
0
40
0
40
0
40
0
40
0.098286743376987
40
0.098286743376987
40
0.549143371688492
40
0.549143371688492
40
1
40
1
40
1
40
1
41
1
10
17.6628382720836
20
-7.52752873339816
30
0
41
1
10
17.5357131396849
20
-7.55778437937974
30
0
41
1
10
17.4085816389921
20
-7.58781619725318
30
0
41
1
10
16.6982450099712
20
-7.75436531962819
30
0
41
1
10
16.114919291537
20
-7.88641964876223
30
0
41
1
10
14.9481262339143
20
-8.14131032377352
30
0
41
1
10
14.3646596344636
20
-8.26414920929076
30
0
41
1
10
13.7811994964714
20
-8.38241003537823
30
0
0
SPLINE
5
D5
100
AcDbEntity
8
1
62
256
6
ByLayer
370
18
48
1
60
0
100
AcDbSpline
70
4
71
3
72
95
73
91
40
0
40
0
40
0
40
0
40
0.0624999999999972
40
0.0624999999999972
40
0.0937499999999958
40
0.0937499999999958
40
0.124999999999994
40
0.124999999999994
40
0.156249999999993
40
0.156249999999993
40
0.164062499999994
40
0.164062499999994
40
0.171874999999995
40
0.171874999999995
40
0.187499999999997
40
0.187499999999997
40
0.218750000000001
40
0.218750000000001
40
0.250000000000005
40
0.250000000000005
40
0.281250000000008
40
0.281250000000008
40
0.312500000000012
40
0.312500000000012
40
0.343750000000016
40
0.343750000000016
40
0.359375000000018
40
0.359375000000018
40
0.367187500000019
40
0.367187500000019
40
0.371093750000019
40
0.371093750000019
40
0.37500000000002
40
0.406250000000021
40
0.406250000000021
40
0.437500000000021
40
0.437500000000021
40
0.445312500000022
40
0.445312500000022
40
0.453125000000022
40
0.468750000000023
40
0.468750000000023
40
0.500000000000024
40
0.500000000000024
40
0.507812500000024
40
0.507812500000024
40
0.515625000000024
40
0.515625000000024
40
0.531250000000025
40
0.531250000000025
40
0.562500000000026
40
0.562500000000026
40
0.566406250000026
40
0.566406250000026
40
0.570312500000026
40
0.570312500000026
40
0.578125000000027
40
0.593750000000027
40
0.593750000000027
40
0.625000000000027
40
0.625000000000027
40
0.640625000000028
40
0.640625000000028
40
0.648437500000027
40
0.648437500000027
40
0.656250000000027
40
0.656250000000027
40
0.687500000000026
40
0.687500000000026
40
0.718750000000024
40
0.718750000000024
40
0.750000000000023
40
0.750000000000023
40
0.765625000000022
40
0.765625000000022
40
0.781250000000021
40
0.781250000000021
40
0.812500000000018
40
0.812500000000018
40
0.843750000000015
40
0.843750000000015
40
0.875000000000012
40
0.875000000000012
40
0.906250000000009
40
0.906250000000009
40
0.937500000000006
40
0.937500000000006
40
0.968750000000003
40
0.968750000000003
40
1
40
1
40
1
40
1
41
1
10
10
20
-7.06114755366849
30
0
41
1
10
9.57473263987282
20
-7.20266350651312
30
0
41
1
10
9.15717371992008
20
-7.35706060703674
30
0
41
1
10
8.54248315276635
20
-7.60709860888241
30
0
41
1
10
8.33953019691398
20
-7.69351909467838
30
0
41
1
10
7.93756960006104
20
-7.87238222829006
30
0
41
1
10
7.73856148332129
20
-7.96482453806047
30
0
41
1
10
7.34459054229663
20
-8.15562838167136
30
0
41
1
10
7.14962698150447
20
-8.25398943714103
30
0
41
1
10
6.90855131114668
20
-8.38059863691106
30
0
41
1
10
6.86046779915577
20
-8.40610348169946
30
0
41
1
10
6.76456735104114
20
-8.45747863882357
30
0
41
1
10
6.71676906294411
20
-8.48333947476272
30
0
41
1
10
6.57426641513729
20
-8.56119946588271
30
0
41
1
10
6.48029639304502
20
-8.61356014538728
30
0
41
1
10
6.20152355470813
20
-8.77191303035255
30
0
41
1
10
6.01985163278908
20
-8.87917632569071
30
0
41
1
10
5.66521821677281
20
-9.09660405893897
30
0
41
1
10
5.49225374312437
20
-9.20676905679287
30
0
41
1
10
5.15562556249697
20
-9.42949842439319
30
0
41
1
10
4.99195637712802
20
-9.54206370366543
30
0
41
1
10
4.67486668194181
20
-9.7690563562841
30
0
41
1
10
4.52381597123969
20
-9.88178851246678
30
0
41
1
10
4.23758494424612
20
-10.1046889937319
30
0
41
1
10
4.10239037129762
20
-10.2148645252456
30
0
41
1
10
3.91263283511898
20
-10.3773189130834
30
0
41
1
10
3.85155879523126
20
-10.431000503982
30
0
41
1
10
3.76343045754578
20
-10.5106845005365
30
0
41
1
10
3.73463537896362
20
-10.5371059193051
30
0
41
1
10
3.69234718975781
20
-10.5765095644733
30
0
41
1
10
3.67839218692947
20
-10.5896153635488
30
0
41
1
10
3.65088360989054
20
-10.6156581236603
30
0
41
1
10
3.52882218110744
20
-10.7321671708475
30
0
41
1
10
3.42225554461709
20
-10.8424627557299
30
0
41
1
10
3.2588523618698
20
-11.0272267061799
30
0
41
1
10
3.19015275668687
20
-11.1139607385456
30
0
41
1
10
3.12249404315054
20
-11.2140283202214
30
0
41
1
10
3.10995895874899
20
-11.2335044116226
30
0
41
1
10
3.08693340956091
20
-11.2712845948334
30
0
41
1
10
3.05543169533945
20
-11.3262433308398
30
0
41
1
10
3.03299252650515
20
-11.3760607444772
30
0
41
1
10
3.0002114353245
20
-11.4687730978142
30
0
41
1
10
2.99443414675829
20
-11.5213714889339
30
0
41
1
10
3.00812179638868
20
-11.5750996063979
30
0
41
1
10
3.01191355261659
20
-11.5852515036917
30
0
41
1
10
3.02161458829374
20
-11.6042934754946
30
0
41
1
10
3.02749329503368
20
-11.6131289171113
30
0
41
1
10
3.04813509020505
20
-11.6376366263997
30
0
41
1
10
3.06590046783489
20
-11.6513120712742
30
0
41
1
10
3.13071421007584
20
-11.6847409767379
30
0
41
1
10
3.1892412892108
20
-11.6969170492462
30
0
41
1
10
3.27147269586459
20
-11.7000806006376
30
0
41
1
10
3.28083795346731
20
-11.7002853717126
30
0
41
1
10
3.30002374005053
20
-11.7004036741186
30
0
41
1
10
3.30985449338164
20
-11.7003168225804
30
0
41
1
10
3.33991834468102
20
-11.6996259544842
30
0
41
1
10
3.40237767546327
20
-11.6965265761138
30
0
41
1
10
3.47154089010269
20
-11.688535607351
30
0
41
1
10
3.61817747077149
20
-11.6666144347565
30
0
41
1
10
3.72698730920666
20
-11.6441040886833
30
0
41
1
10
3.90496016446852
20
-11.6002795454745
30
0
41
1
10
3.96675214015988
20
-11.5839884624336
30
0
41
1
10
4.06297119651825
20
-11.5572037113694
30
0
41
1
10
4.09565957467771
20
-11.5478760750503
30
0
41
1
10
4.16207280109691
20
-11.5284979591851
30
0
41
1
10
4.19570685310248
20
-11.5184743959898
30
0
41
1
10
4.36591983912922
20
-11.46678223309
30
0
41
1
10
4.50860102183958
20
-11.4204192000938
30
0
41
1
10
4.80504172907064
20
-11.3196736642618
30
0
41
1
10
4.95881061795333
20
-11.2652824597394
30
0
41
1
10
5.27598632702836
20
-11.1498973628285
30
0
41
1
10
5.43939818058846
20
-11.0888988267934
30
0
41
1
10
5.69086309659787
20
-10.9932397735841
30
0
41
1
10
5.77576111055845
20
-10.9606509043306
30
0
41
1
10
5.94747546603696
20
-10.8942149102829
30
0
41
1
10
6.03393545791062
20
-10.8605058836927
30
0
41
1
10
6.29497006980412
20
-10.7580505112553
30
0
41
1
10
6.47119561370593
20
-10.6879825510765
30
0
41
1
10
6.82733944341191
20
-10.5448981346698
30
0
41
1
10
7.00725865715339
20
-10.4718794946714
30
0
41
1
10
7.37018921245999
20
-10.3232797420414
30
0
41
1
10
7.55320072919798
20
-10.2476970134365
30
0
41
1
10
7.92180758060923
20
-10.0942224568852
30
0
41
1
10
8.1074026032004
20
-10.0163292308624
30
0
41
1
10
8.48076347183445
20
-9.85839844239214
30
0
41
1
10
8.66852872762371
20
-9.77835952893543
30
0
41
1
10
9.04592672892051
20
-9.61625421262983
30
0
41
1
10
9.23555881195426
20
-9.53418645599066
30
0
41
1
10
9.61651639925091
20
-9.36813285808492
30
0
41
1
10
9.80784137129061
20
-9.28414570106361
30
0
41
1
10
10
20
-9.19927061949565
30
0
0
SPLINE
5
D6
100
AcDbEntity
8
1
62
256
6
ByLayer
370
18
48
1
60
0
100
AcDbSpline
70
4
71
3
72
38
73
34
40
0
40
0
40
0
40
0
40
0.0164336806571501
40
0.0164336806571501
40
0.0574156106297709
40
0.0574156106297709
40
0.0779065756160804
40
0.0779065756160804
40
0.0983975406023898
40
0.0983975406023898
40
0.180361400547626
40
0.180361400547626
40
0.262325260492862
40
0.262325260492862
40
0.344289120438098
40
0.344289120438098
40
0.385271050410715
40
0.385271050410715
40
0.426252980383332
40
0.426252980383332
40
0.508216840328567
40
0.508216840328567
40
0.590180700273806
40
0.590180700273806
40
0.672144560219045
40
0.672144560219045
40
0.754108420164284
40
0.754108420164284
40
0.836072280109523
40
0.836072280109523
40
0.918036140054762
40
0.918036140054762
40
1
40
1
40
1
40
1
41
1
10
3.77546541036867
20
11.6316429534882
30
0
41
1
10
3.79845353079401
20
11.6263338544142
30
0
41
1
10
3.82184694711305
20
11.6207455810385
30
0
41
1
10
3.90496016446852
20
11.6002795454745
30
0
41
1
10
3.96675214015988
20
11.5839884624336
30
0
41
1
10
4.06297119651822
20
11.5572037113694
30
0
41
1
10
4.09565957467768
20
11.5478760750503
30
0
41
1
10
4.16207280109691
20
11.5284979591851
30
0
41
1
10
4.19570685310248
20
11.5184743959898
30
0
41
1
10
4.36591983912922
20
11.46678223309
30
0
41
1
10
4.50860102183955
20
11.4204192000938
30
0
41
1
10
4.80504172907064
20
11.3196736642619
30
0
41
1
10
4.9588106179533
20
11.2652824597394
30
0
41
1
10
5.27598632702839
20
11.1498973628286
30
0
41
1
10
5.43939818058846
20
11.0888988267934
30
0
41
1
10
5.69086309659787
20
10.9932397735841
30
0
41
1
10
5.77576111055845
20
10.9606509043306
30
0
41
1
10
5.94747546603693
20
10.8942149102829
30
0
41
1
10
6.03393545791064
20
10.8605058836927
30
0
41
1
10
6.29497006980412
20
10.7580505112553
30
0
41
1
10
6.47119561370593
20
10.6879825510765
30
0
41
1
10
6.82733944341197
20
10.5448981346698
30
0
41
1
10
7.00725865715339
20
10.4718794946714
30
0
41
1
10
7.37018921246002
20
10.3232797420414
30
0
41
1
10
7.55320072919798
20
10.2476970134365
30
0
41
1
10
7.92180758060925
20
10.0942224568852
30
0
41
1
10
8.1074026032004
20
10.0163292308625
30
0
41
1
10
8.48076347183445
20
9.85839844239217
30
0
41
1
10
8.66852872762374
20
9.77835952893543
30
0
41
1
10
9.04592672892048
20
9.61625421262983
30
0
41
1
10
9.23555881195421
20
9.53418645599069
30
0
41
1
10
9.61651639925094
20
9.36813285808495
30
0
41
1
10
9.80784137129064
20
9.28414570106358
30
0
41
1
10
10
20
9.19927061949562
30
0
0
SPLINE
5
D7
100
AcDbEntity
8
SK1
62
256
6
ByLayer
370
18
48
1
60
0
100
AcDbSpline
70
4
71
3
72
34
73
30
40
0
40
0
40
0
40
0
40
0.125000000000001
40
0.125000000000001
40
0.250000000000002
40
0.250000000000002
40
0.375000000000003
40
0.375000000000003
40
0.437500000000004
40
0.437500000000004
40
0.500000000000005
40
0.500000000000005
40
0.625000000000005
40
0.625000000000005
40
0.656250000000005
40
0.656250000000005
40
0.687500000000005
40
0.687500000000005
40
0.750000000000005
40
0.750000000000005
40
0.812500000000005
40
0.812500000000005
40
0.843750000000004
40
0.843750000000004
40
0.875000000000004
40
0.875000000000004
40
0.937500000000002
40
0.937500000000002
40
1
40
1
40
1
40
1
41
1
10
-52.5003287739481
20
-3.62059097355461
30
0
41
1
10
-52.4791023107682
20
-3.69580949914169
30
0
41
1
10
-52.456173666836
20
-3.7701328086529
30
0
41
1
10
-52.4062202513366
20
-3.91675156331095
30
0
41
1
10
-52.3792000011183
20
-3.98904864238443
30
0
41
1
10
-52.3201140822394
20
-4.13128549106548
30
0
41
1
10
-52.2880578558644
20
-4.20122868864783
30
0
41
1
10
-52.2351342019209
20
-4.30400502578081
30
0
41
1
10
-52.2166821098451
20
-4.33790583931534
30
0
41
1
10
-52.1779019271959
20
-4.40490146665846
30
0
41
1
10
-52.1575385793023
20
-4.43805147836142
30
0
41
1
10
-52.093380094742
20
-4.53574061166557
30
0
41
1
10
-52.0468993353633
20
-4.59806703723407
30
0
41
1
10
-51.9825062567773
20
-4.67139689881651
30
0
41
1
10
-51.9693089720826
20
-4.68583123022111
30
0
41
1
10
-51.9422155209833
20
-4.71419608571787
30
0
41
1
10
-51.9282893124733
20
-4.72815494045494
30
0
41
1
10
-51.8855899983215
20
-4.7689776324583
30
0
41
1
10
-51.8559681934236
20
-4.79473829352929
30
0
41
1
10
-51.7940523105194
20
-4.84293492664423
30
0
41
1
10
-51.7617609635258
20
-4.86537421079322
30
0
41
1
10
-51.710934585781
20
-4.89608972183805
30
0
41
1
10
-51.693592788252
20
-4.9058359097269
30
0
41
1
10
-51.6580214478988
20
-4.92423937407065
30
0
41
1
10
-51.6397301965266
20
-4.93292309713041
30
0
41
1
10
-51.583780125377
20
-4.9569645106269
30
0
41
1
10
-51.5455987975117
20
-4.97010157811332
30
0
41
1
10
-51.4673083175319
20
-4.99008231274206
30
0
41
1
10
-51.4272005227822
20
-4.99693051090844
30
0
41
1
10
-51.3860020460815
20
-5.00022676868039
30
0
0
SPLINE
5
D8
100
AcDbEntity
8
SK1
62
256
6
ByLayer
370
18
48
1
60
0
100
AcDbSpline
70
4
71
3
72
34
73
30
40
0
40
0
40
0
40
0
40
0.0625000000000001
40
0.0625000000000001
40
0.125
40
0.125
40
0.1875
40
0.1875
40
0.25
40
0.25
40
0.28125
40
0.28125
40
0.312499999999999
40
0.312499999999999
40
0.374999999999998
40
0.374999999999998
40
0.499999999999995
40
0.499999999999995
40
0.531249999999995
40
0.531249999999995
40
0.562499999999995
40
0.562499999999995
40
0.624999999999996
40
0.624999999999996
40
0.749999999999997
40
0.749999999999997
40
0.874999999999999
40
0.874999999999999
40
1
40
1
40
1
40
1
41
1
10
-51.3860020460815
20
5.00022676868039
30
0
41
1
10
-51.4271597094618
20
4.99693377635015
30
0
41
1
10
-51.4672462826171
20
4.9900941818546
30
0
41
1
10
-51.5455242136708
20
4.97012456894885
30
0
41
1
10
-51.5837142752675
20
4.95699014998107
30
0
41
1
10
-51.658355568598
20
4.92492253812571
30
0
41
1
10
-51.6938849422845
20
4.90639169663621
30
0
41
1
10
-51.7618166387264
20
4.86534206803361
30
0
41
1
10
-51.7942559781117
20
4.84279931421437
30
0
41
1
10
-51.8409760500773
20
4.80639681369991
30
0
41
1
10
-51.8562248159031
20
4.79382938651
30
0
41
1
10
-51.8861176712827
20
4.76788296468004
30
0
41
1
10
-51.9007110618413
20
4.75454548912128
30
0
41
1
10
-51.9432559764382
20
4.71379512925466
30
0
41
1
10
-51.9701014783725
20
4.68554212638855
30
0
41
1
10
-52.0468805903312
20
4.59805033156974
30
0
41
1
10
-52.0930959781036
20
4.5361050376323
30
0
41
1
10
-52.146279276313
20
4.45521167958731
30
0
41
1
10
-52.1566830990007
20
4.43885754119347
30
0
41
1
10
-52.1770537162702
20
4.4058167491863
30
0
41
1
10
-52.1870311208955
20
4.38911114781021
30
0
41
1
10
-52.2162315231511
20
4.33872068618709
30
0
41
1
10
-52.2347469485042
20
4.30473232112985
30
0
41
1
10
-52.2878314108395
20
4.20171722667834
30
0
41
1
10
-52.3199565384223
20
4.13164670884206
30
0
41
1
10
-52.3791390929746
20
3.98921323503123
30
0
41
1
10
-52.4061866509714
20
3.91684682729945
30
0
41
1
10
-52.4561716481468
20
3.77014208810513
30
0
41
1
10
-52.4791043925606
20
3.69580212206003
30
0
41
1
10
-52.5003287739482
20
3.62059097355464
30
0
0
SPLINE
5
D9
100
AcDbEntity
8
SK1
62
256
6
ByLayer
370
18
48
1
60
0
100
AcDbSpline
70
4
71
3
72
32
73
28
40
0
40
0
40
0
40
0
40
0.124999999999982
40
0.124999999999982
40
0.249999999999963
40
0.249999999999963
40
0.374999999999945
40
0.374999999999945
40
0.406249999999941
40
0.406249999999941
40
0.437499999999938
40
0.499999999999932
40
0.499999999999932
40
0.624999999999931
40
0.624999999999931
40
0.656249999999931
40
0.656249999999931
40
0.68749999999993
40
0.68749999999993
40
0.749999999999941
40
0.749999999999941
40
0.874999999999977
40
0.874999999999977
40
0.906249999999979
40
0.906249999999979
40
0.937499999999981
40
1
40
1
40
1
40
1
41
1
10
-14.0157764695459
20
6.59242894057729
30
0
41
1
10
-14.0458287908144
20
6.6375753796253
30
0
41
1
10
-14.0777095790597
20
6.68135165141678
30
0
41
1
10
-14.1456160664485
20
6.76590887596987
30
0
41
1
10
-14.1816386907667
20
6.80669170869109
30
0
41
1
10
-14.2584995514322
20
6.88489663469755
30
0
41
1
10
-14.2993317458756
20
6.92232243783545
30
0
41
1
10
-14.35399779722
20
6.96665617585003
30
0
41
1
10
-14.3651284778382
20
6.97541075031074
30
0
41
1
10
-14.3876400333972
20
6.9925614515505
30
0
41
1
10
-14.4218166346372
20
7.01777898878851
30
0
41
1
10
-14.4572545898122
20
7.04143848131534
30
0
41
1
10
-14.529923003083
20
7.08656817107874
30
0
41
1
10
-14.5807455844469
20
7.11375097789289
30
0
41
1
10
-14.6477689594914
20
7.14354340177493
30
0
41
1
10
-14.6613494138678
20
7.1492913738704
30
0
41
1
10
-14.6888796972728
20
7.1603468035685
30
0
41
1
10
-14.7028224503024
20
7.16564964334611
30
0
41
1
10
-14.7448319317882
20
7.18073146134719
30
0
41
1
10
-14.7732044950192
20
7.1897362156873
30
0
41
1
10
-14.8594560991353
20
7.21351895535656
30
0
41
1
10
-14.9184624466539
20
7.22508541231923
30
0
41
1
10
-14.9943023139084
20
7.23365556703433
30
0
41
1
10
-15.009604540326
20
7.23507501753883
30
0
41
1
10
-15.0401948935638
20
7.23728819114979
30
0
41
1
10
-15.0861089470591
20
7.23967813447453
30
0
41
1
10
-15.1321084232236
20
7.23928527151031
30
0
41
1
10
-15.1628130403699
20
7.23777548279986
30
0
0
SPLINE
5
DA
100
AcDbEntity
8
SK1
62
256
6
ByLayer
370
18
48
1
60
0
100
AcDbSpline
70
4
71
3
72
24
73
20
40
0
40
0
40
0
40
0
40
0.124999999999998
40
0.124999999999998
40
0.249999999999995
40
0.249999999999995
40
0.374999999999993
40
0.374999999999993
40
0.49999999999999
40
0.49999999999999
40
0.624999999999988
40
0.624999999999988
40
0.749999999999985
40
0.749999999999985
40
0.812499999999989
40
0.812499999999989
40
0.874999999999992
40
0.874999999999992
40
1
40
1
40
1
40
1
41
1
10
-15.1628130403699
20
-7.23777548279986
30
0
41
1
10
-15.1013368482927
20
-7.2407983526281
30
0
41
1
10
-15.0406973758297
20
-7.23880609117487
30
0
41
1
10
-14.920978556398
20
-7.22545942224767
30
0
41
1
10
-14.8618998887329
20
-7.21410077871741
30
0
41
1
10
-14.7452745335612
20
-7.18212437688828
30
0
41
1
10
-14.6895699451789
20
-7.16201960319464
30
0
41
1
10
-14.5827589175342
20
-7.11474711952985
30
0
41
1
10
-14.5316211412475
20
-7.08755690757022
30
0
41
1
10
-14.4334554488588
20
-7.02672282100497
30
0
41
1
10
-14.38751619038
20
-6.99376703919228
30
0
41
1
10
-14.3007925764322
20
-6.92357765523022
30
0
41
1
10
-14.2600161652162
20
-6.88633798514746
30
0
41
1
10
-14.2021759714483
20
-6.82763631844753
30
0
41
1
10
-14.1834523029509
20
-6.80759363972547
30
0
41
1
10
-14.1470479748901
20
-6.76660288333122
30
0
41
1
10
-14.1293429656042
20
-6.74562348347595
30
0
41
1
10
-14.0779142754528
20
-6.68164973874727
30
0
41
1
10
-14.0458764161971
20
-6.63764692539442
30
0
41
1
10
-14.0157764695459
20
-6.59242894057729
30
0
0
SPLINE
5
DB
100
AcDbEntity
8
1
62
256
6
ByLayer
370
13
48
1
60
0
100
AcDbSpline
70
4
71
3
72
22
73
18
40
0
40
0
40
0
40
0
40
0.125
40
0.125
40
0.250000000000001
40
0.250000000000001
40
0.375
40
0.375
40
0.5
40
0.5
40
0.625
40
0.625
40
0.75
40
0.75
40
0.875
40
0.875
40
1
40
1
40
1
40
1
41
1
10
125.7
20
6.45956135226706
30
0
41
1
10
125.765662584438
20
6.78645834456759
30
0
41
1
10
125.831325168875
20
7.0993861926957
30
0
41
1
10
125.962650337751
20
7.69034781551068
30
0
41
1
10
126.028312922189
20
7.96836680595419
30
0
41
1
10
126.159638091064
20
8.48398492236254
30
0
41
1
10
126.225300675502
20
8.72157529957977
30
0
41
1
10
126.356625844378
20
9.15263815017875
30
0
41
1
10
126.422288428815
20
9.34610886650515
30
0
41
1
10
126.553613597691
20
9.68722213287535
30
0
41
1
10
126.619276182129
20
9.83486952695318
30
0
41
1
10
126.750601351004
20
10.0845646080095
30
0
41
1
10
126.816263935442
20
10.1866222419262
30
0
41
1
10
126.947589104317
20
10.3470764432712
30
0
41
1
10
127.013251688755
20
10.4054859578351
30
0
41
1
10
127.144576857631
20
10.4819408372046
30
0
41
1
10
127.210239442068
20
10.5
30
0
41
1
10
127.275902026506
20
10.5
30
0
0
SPLINE
5
DC
100
AcDbEntity
8
1
62
256
6
ByLayer
370
13
48
1
60
0
100
AcDbSpline
70
4
71
3
72
103
73
99
40
0
40
0
40
0
40
0
40
0.0312500000000001
40
0.0312500000000001
40
0.0625000000000002
40
0.0625000000000002
40
0.0937500000000003
40
0.0937500000000003
40
0.109375
40
0.109375
40
0.125
40
0.125
40
0.140625
40
0.140625
40
0.15625
40
0.15625
40
0.171875
40
0.171875
40
0.1875
40
0.1875
40
0.21875
40
0.21875
40
0.25
40
0.25
40
0.265625
40
0.265625
40
0.2734375
40
0.2734375
40
0.27734375
40
0.27734375
40
0.28125
40
0.28125
40
0.3125
40
0.3125
40
0.34375
40
0.34375
40
0.375
40
0.375
40
0.390625000000001
40
0.390625000000001
40
0.406250000000001
40
0.406250000000001
40
0.421875000000001
40
0.421875000000001
40
0.437500000000001
40
0.437500000000001
40
0.468750000000002
40
0.468750000000002
40
0.500000000000002
40
0.500000000000002
40
0.531250000000002
40
0.531250000000002
40
0.546875000000002
40
0.546875000000002
40
0.550781250000002
40
0.550781250000002
40
0.554687500000002
40
0.562500000000002
40
0.562500000000002
40
0.593750000000002
40
0.593750000000002
40
0.625000000000002
40
0.625000000000002
40
0.656250000000002
40
0.656250000000002
40
0.671875000000002
40
0.671875000000002
40
0.687500000000002
40
0.687500000000002
40
0.703125000000001
40
0.703125000000001
40
0.718750000000001
40
0.718750000000001
40
0.750000000000001
40
0.750000000000001
40
0.781250000000001
40
0.781250000000001
40
0.8125
40
0.8125
40
0.8203125
40
0.8203125
40
0.828125
40
0.828125
40
0.84375
40
0.84375
40
0.875
40
0.875
40
0.90625
40
0.90625
40
0.9375
40
0.9375
40
0.953125
40
0.953125
40
0.96875
40
0.96875
40
0.984375
40
0.984375
40
1
40
1
40
1
40
1
41
1
10
126.689728029191
20
10.5
30
0
41
1
10
126.793775784514
20
10.5
30
0
41
1
10
126.897823539837
20
10.454519349158
30
0
41
1
10
127.105919050483
20
10.2568069676459
30
0
41
1
10
127.209966805806
20
10.1044413725794
30
0
41
1
10
127.418062316452
20
9.68436760311704
30
0
41
1
10
127.522110071775
20
9.41656878888898
30
0
41
1
10
127.67818170476
20
8.93018877164553
30
0
41
1
10
127.730205582421
20
8.75404365343556
30
0
41
1
10
127.834253337745
20
8.37520729433649
30
0
41
1
10
127.886277215406
20
8.17251780708756
30
0
41
1
10
127.990324970729
20
7.74284302440421
30
0
41
1
10
128.042348848391
20
7.51586115991157
30
0
41
1
10
128.146396603714
20
7.04053322490918
30
0
41
1
10
128.198420481375
20
6.79219198593927
30
0
41
1
10
128.302468236698
20
6.27763297966419
30
0
41
1
10
128.35449211436
20
6.01142099403981
30
0
41
1
10
128.458539869683
20
5.46500315037272
30
0
41
1
10
128.510563747344
20
5.18480347082971
30
0
41
1
10
128.666635380329
20
4.32935763988661
30
0
41
1
10
128.770683135652
20
3.73935454410957
30
0
41
1
10
128.978778646298
20
2.55233038372106
30
0
41
1
10
129.082826401621
20
1.95544613151083
30
0
41
1
10
129.238898034606
20
1.07598951833955
30
0
41
1
10
129.290921912267
20
0.785433512681237
30
0
41
1
10
129.36895772876
20
0.355603571429384
30
0
41
1
10
129.39496966759
20
0.213323742095184
30
0
41
1
10
129.433987575837
20
0.0016274466956361
30
0
41
1
10
129.446993545252
20
-0.0686416384102415
30
0
41
1
10
129.473005484083
20
-0.21013266180654
30
0
41
1
10
129.486011453498
20
-0.281159402979995
30
0
41
1
10
129.603065178237
20
-0.92276161922311
30
0
41
1
10
129.70711293356
20
-1.51018801989522
30
0
41
1
10
129.915208444206
20
-2.69550488493886
30
0
41
1
10
130.019256199529
20
-3.29330420340708
30
0
41
1
10
130.227351710175
20
-4.46892841135033
30
0
41
1
10
130.331399465498
20
-5.04658899018025
30
0
41
1
10
130.487471098483
20
-5.87319618272457
30
0
41
1
10
130.539494976144
20
-6.14207970183867
30
0
41
1
10
130.643542731467
20
-6.66262184073679
30
0
41
1
10
130.695566609129
20
-6.9142745703551
30
0
41
1
10
130.799614364452
20
-7.39678610583749
30
0
41
1
10
130.851638242113
20
-7.62763988215048
30
0
41
1
10
130.955685997436
20
-8.06551426546778
30
0
41
1
10
131.007709875098
20
-8.27253117730459
30
0
41
1
10
131.163781508083
20
-8.8542668537267
30
0
41
1
10
131.267829263406
20
-9.18927185863004
30
0
41
1
10
131.475924774052
20
-9.7437816533627
30
0
41
1
10
131.579972529375
20
-9.96332793147951
30
0
41
1
10
131.788068040021
20
-10.289246781677
30
0
41
1
10
131.892115795344
20
-10.3957345266857
30
0
41
1
10
132.048187428329
20
-10.4796875698981
30
0
41
1
10
132.10021130599
20
-10.4951066333067
30
0
41
1
10
132.165241153067
20
-10.4999789220825
30
0
41
1
10
132.178247122482
20
-10.5002364326155
30
0
41
1
10
132.204259061313
20
-10.4993359399593
30
0
41
1
10
132.243276969559
20
-10.4958465268005
30
0
41
1
10
132.282294877805
20
-10.4857833017327
30
0
41
1
10
132.412354571959
20
-10.4369688310734
30
0
41
1
10
132.516402327282
20
-10.3487837812806
30
0
41
1
10
132.724497837929
20
-10.0609632977385
30
0
41
1
10
132.828545593252
20
-9.86120531580161
30
0
41
1
10
133.036641103898
20
-9.34586801097919
30
0
41
1
10
133.140688859221
20
-9.030231320642
30
0
41
1
10
133.296760492205
20
-8.47562205428153
30
0
41
1
10
133.348784369867
20
-8.27732583582949
30
0
41
1
10
133.45283212519
20
-7.85600231806546
30
0
41
1
10
133.504856002852
20
-7.63297817731282
30
0
41
1
10
133.608903758175
20
-7.16502176520336
30
0
41
1
10
133.660927635836
20
-6.92009411406926
30
0
41
1
10
133.764975391159
20
-6.41173399949733
30
0
41
1
10
133.816999268821
20
-6.14830719290819
30
0
41
1
10
133.973070901805
20
-5.33601113316911
30
0
41
1
10
134.077118657128
20
-4.7651149623
30
0
41
1
10
134.285214167774
20
-3.59738705051561
30
0
41
1
10
134.389261923098
20
-3.00072895942654
30
0
41
1
10
134.597357433744
20
-1.81286251612343
30
0
41
1
10
134.701405189067
20
-1.22175905043133
30
0
41
1
10
134.83146488322
20
-0.502070685117047
30
0
41
1
10
134.857476822051
20
-0.359074209718841
30
0
41
1
10
134.909500699713
20
-0.0752788701068425
30
0
41
1
10
134.935512638544
20
0.0649071186117283
30
0
41
1
10
135.013548455036
20
0.490438559520754
30
0
41
1
10
135.065572332698
20
0.778551870012507
30
0
41
1
10
135.221643965682
20
1.65220566200102
30
0
41
1
10
135.325691721005
20
2.2472708873517
30
0
41
1
10
135.533787231651
20
3.43588164028421
30
0
41
1
10
135.637834986974
20
4.02930313834352
30
0
41
1
10
135.84593049762
20
5.18244400340083
30
0
41
1
10
135.949978252943
20
5.74197893879352
30
0
41
1
10
136.106049885928
20
6.53143754080318
30
0
41
1
10
136.158073763589
20
6.78629733383181
30
0
41
1
10
136.262121518913
20
7.2757991410997
30
0
41
1
10
136.314145396574
20
7.51043594177278
30
0
41
1
10
136.418193151897
20
7.95635157144918
30
0
41
1
10
136.470217029559
20
8.16762645020512
30
0
41
1
10
136.574264784882
20
8.56432072291372
30
0
41
1
10
136.626288662543
20
8.74973777209343
30
0
41
1
10
136.678312540205
20
8.92134745484145
30
0
0
SPLINE
5
DD
100
AcDbEntity
8
1
62
256
6
ByLayer
370
13
48
1
60
0
100
AcDbSpline
70
4
71
3
72
14
73
10
40
0
40
0
40
0
40
0
40
0.25
40
0.25
40
0.5
40
0.5
40
0.75
40
0.75
40
1
40
1
40
1
40
1
41
1
10
125.7
20
8.60614796091454
30
0
41
1
10
125.790086523864
20
8.93077494253779
30
0
41
1
10
125.880173047728
20
9.21520230753561
30
0
41
1
10
126.060346095456
20
9.69770168617725
30
0
41
1
10
126.15043261932
20
9.8957935250163
30
0
41
1
10
126.330605667048
20
10.2065440178596
30
0
41
1
10
126.420692190913
20
10.3192553337348
30
0
41
1
10
126.600865238641
20
10.4659501919984
30
0
41
1
10
126.690951762505
20
10.5
30
0
41
1
10
126.781038286369
20
10.5
30
0
0
SPLINE
5
DE
100
AcDbEntity
8
1
62
256
6
ByLayer
370
13
48
1
60
0
100
AcDbSpline
70
4
71
3
72
132
73
128
40
0
40
0
40
0
40
0
40
0.0312499999999994
40
0.0312499999999994
40
0.0468749999999992
40
0.0468749999999992
40
0.0624999999999989
40
0.0624999999999989
40
0.0781249999999986
40
0.0781249999999986
40
0.0937499999999983
40
0.0937499999999983
40
0.109374999999998
40
0.109374999999998
40
0.124999999999998
40
0.124999999999998
40
0.140624999999998
40
0.140624999999998
40
0.156249999999997
40
0.156249999999997
40
0.171874999999997
40
0.171874999999997
40
0.187499999999997
40
0.187499999999997
40
0.203124999999996
40
0.203124999999996
40
0.218749999999996
40
0.218749999999996
40
0.249999999999995
40
0.249999999999995
40
0.257812499999995
40
0.257812499999995
40
0.265624999999996
40
0.265624999999996
40
0.281249999999996
40
0.281249999999996
40
0.296874999999996
40
0.296874999999996
40
0.312499999999996
40
0.312499999999996
40
0.328124999999996
40
0.328124999999996
40
0.343749999999996
40
0.343749999999996
40
0.359374999999997
40
0.359374999999997
40
0.374999999999997
40
0.374999999999997
40
0.390624999999997
40
0.390624999999997
40
0.406249999999997
40
0.406249999999997
40
0.421874999999997
40
0.421874999999997
40
0.437499999999997
40
0.437499999999997
40
0.453124999999998
40
0.453124999999998
40
0.468749999999998
40
0.468749999999998
40
0.484374999999998
40
0.484374999999998
40
0.499999999999998
40
0.499999999999998
40
0.515624999999998
40
0.515624999999998
40
0.523437499999998
40
0.523437499999998
40
0.531249999999998
40
0.531249999999998
40
0.562499999999999
40
0.562499999999999
40
0.578124999999999
40
0.578124999999999
40
0.593749999999999
40
0.593749999999999
40
0.609374999999999
40
0.609374999999999
40
0.624999999999999
40
0.624999999999999
40
0.640624999999999
40
0.640624999999999
40
0.65625
40
0.65625
40
0.671875
40
0.671875
40
0.6875
40
0.6875
40
0.703125
40
0.703125
40
0.71875
40
0.71875
40
0.734375
40
0.734375
40
0.750000000000001
40
0.750000000000001
40
0.781250000000001
40
0.781250000000001
40
0.789062500000001
40
0.789062500000001
40
0.796875000000001
40
0.796875000000001
40
0.812500000000001
40
0.812500000000001
40
0.828125000000001
40
0.828125000000001
40
0.843750000000001
40
0.843750000000001
40
0.859375
40
0.859375
40
0.875
40
0.875
40
0.890625
40
0.890625
40
0.90625
40
0.90625
40
0.921875
40
0.921875
40
0.9375
40
0.9375
40
0.953125
40
0.953125
40
0.96875
40
0.96875
40
0.984375
40
0.984375
40
1
40
1
40
1
40
1
41
1
10
126.194864289053
20
10.5
30
0
41
1
10
126.304066875003
20
10.5
30
0
41
1
10
126.413269460952
20
10.4498737052431
30
0
41
1
10
126.577073339877
20
10.2859305675284
30
0
41
1
10
126.631674632851
20
10.2165390203565
30
0
41
1
10
126.740877218801
20
10.0468087232387
30
0
41
1
10
126.795478511775
20
9.94646529214009
30
0
41
1
10
126.904681097725
20
9.71409736835147
30
0
41
1
10
126.9592823907
20
9.58206948601483
30
0
41
1
10
127.068484976649
20
9.28645863707129
30
0
41
1
10
127.123086269624
20
9.12287412001871
30
0
41
1
10
127.232288855573
20
8.76521194260764
30
0
41
1
10
127.286890148548
20
8.57113494837671
30
0
41
1
10
127.396092734498
20
8.15450024190247
30
0
41
1
10
127.450694027472
20
7.931945526422
30
0
41
1
10
127.559896613422
20
7.46126349825965
30
0
41
1
10
127.614497906397
20
7.21314131571404
30
0
41
1
10
127.723700492346
20
6.69500518823631
30
0
41
1
10
127.778301785321
20
6.4249980137914
30
0
41
1
10
127.88750437127
20
5.86736475791031
30
0
41
1
10
127.942105664245
20
5.57974637822412
30
0
41
1
10
128.051308250195
20
4.9915355806333
30
0
41
1
10
128.105909543169
20
4.69095099518853
30
0
41
1
10
128.215112129119
20
4.08158850621967
30
0
41
1
10
128.269713422094
20
3.7728178107466
30
0
41
1
10
128.378916008043
20
3.1517712194009
30
0
41
1
10
128.433517301018
20
2.83950131244538
30
0
41
1
10
128.597321179942
20
1.90402693643355
30
0
41
1
10
128.706523765892
20
1.28244930710753
30
0
41
1
10
128.843026998329
20
0.526388771459608
30
0
41
1
10
128.870327644816
20
0.376200195798788
30
0
41
1
10
128.924928937791
20
0.0782363141840676
30
0
41
1
10
128.952229584278
20
-0.0688680896424216
30
0
41
1
10
129.03413152374
20
-0.515661284855156
30
0
41
1
10
129.088732816715
20
-0.818383720320298
30
0
41
1
10
129.197935402664
20
-1.43047264957963
30
0
41
1
10
129.252536695639
20
-1.73983729338497
30
0
41
1
10
129.361739281589
20
-2.3615424152436
30
0
41
1
10
129.416340574563
20
-2.67387935966565
30
0
41
1
10
129.525543160513
20
-3.2973500887218
30
0
41
1
10
129.580144453488
20
-3.60847866343042
30
0
41
1
10
129.689347039437
20
-4.22497428324806
30
0
41
1
10
129.743948332412
20
-4.53033468185964
30
0
41
1
10
129.853150918361
20
-5.1305352312969
30
0
41
1
10
129.907752211336
20
-5.42536778195949
30
0
41
1
10
130.016954797286
20
-5.99976938568045
30
0
41
1
10
130.07155609026
20
-6.27933056998788
30
0
41
1
10
130.18075867621
20
-6.81869653144793
30
0
41
1
10
130.235359969185
20
-7.07849396507604
30
0
41
1
10
130.344562555134
20
-7.57432118877864
30
0
41
1
10
130.399163848109
20
-7.8103449335278
30
0
41
1
10
130.508366434058
20
-8.2552989809908
30
0
41
1
10
130.562967727033
20
-8.46422515335075
30
0
41
1
10
130.672170312983
20
-8.85249853025152
30
0
41
1
10
130.726771605957
20
-9.03184387388009
30
0
41
1
10
130.835974191907
20
-9.35940130691662
30
0
41
1
10
130.890575484882
20
-9.50761384748367
30
0
41
1
10
130.999778070831
20
-9.77230363907879
30
0
41
1
10
131.054379363806
20
-9.88878340100587
30
0
41
1
10
131.163581949755
20
-10.0903121808527
30
0
41
1
10
131.21818324273
20
-10.1753652953164
30
0
41
1
10
131.327385828679
20
-10.3151507794429
30
0
41
1
10
131.381987121654
20
-10.3698882403185
30
0
41
1
10
131.491189707604
20
-10.4508176867747
30
0
41
1
10
131.545791000579
20
-10.4770151578778
30
0
41
1
10
131.627692940041
20
-10.49661194231
30
0
41
1
10
131.654993586528
20
-10.4998643812394
30
0
41
1
10
131.709594879503
20
-10.5001273073691
30
0
41
1
10
131.73689552599
20
-10.4971444061666
30
0
41
1
10
131.873398758427
20
-10.4658640320314
30
0
41
1
10
131.982601344377
20
-10.3881679445646
30
0
41
1
10
132.146405223301
20
-10.1804022299488
30
0
41
1
10
132.201006516276
20
-10.096002168106
30
0
41
1
10
132.310209102225
20
-9.89579507190905
30
0
41
1
10
132.3648103952
20
-9.77998391373654
30
0
41
1
10
132.474012981149
20
-9.51662874259529
30
0
41
1
10
132.528614274124
20
-9.36908217980979
30
0
41
1
10
132.637816860074
20
-9.04283433232521
30
0
41
1
10
132.692418153048
20
-8.86413254951049
30
0
41
1
10
132.801620738998
20
-8.47710382821106
30
0
41
1
10
132.856222031972
20
-8.26877870123369
30
0
41
1
10
132.965424617922
20
-7.82496533825244
30
0
41
1
10
133.020025910897
20
-7.58948118736902
30
0
41
1
10
133.129228496846
20
-7.09465540640505
30
0
41
1
10
133.183829789821
20
-6.83531978688029
30
0
41
1
10
133.293032375771
20
-6.29678719504966
30
0
41
1
10
133.347633668745
20
-6.01759754655765
30
0
41
1
10
133.456836254695
20
-5.44384090035706
30
0
41
1
10
133.511437547669
20
-5.14928176868651
30
0
41
1
10
133.620640133619
20
-4.54952708675245
30
0
41
1
10
133.675241426594
20
-4.24433914995893
30
0
41
1
10
133.784444012543
20
-3.62808946069245
30
0
41
1
10
133.839045305518
20
-3.31703438062061
30
0
41
1
10
133.948247891467
20
-2.69361785549251
30
0
41
1
10
134.002849184442
20
-2.38126165398319
30
0
41
1
10
134.166653063367
20
-1.44852130993161
30
0
41
1
10
134.275855649316
20
-0.832771217327007
30
0
41
1
10
134.412358881753
20
-0.0876079050067062
30
0
41
1
10
134.43965952824
20
0.0595032407485974
30
0
41
1
10
134.494260821215
20
0.357263311987396
30
0
41
1
10
134.521561467702
20
0.507357276157194
30
0
41
1
10
134.603463407164
20
0.960734090859859
30
0
41
1
10
134.658064700139
20
1.2671302589427
30
0
41
1
10
134.767267286089
20
1.88484125828555
30
0
41
1
10
134.821868579063
20
2.19615342756609
30
0
41
1
10
134.931071165013
20
2.81976500478564
30
0
41
1
10
134.985672457988
20
3.13206004407078
30
0
41
1
10
135.094875043937
20
3.7532531394678
30
0
41
1
10
135.149476336912
20
4.06214523716142
30
0
41
1
10
135.258678922861
20
4.67185102590076
30
0
41
1
10
135.313280215836
20
4.97265752917968
30
0
41
1
10
135.422482801786
20
5.561412348956
30
0
41
1
10
135.47708409476
20
5.84935283875407
30
0
41
1
10
135.58628668071
20
6.40772522175857
30
0
41
1
10
135.640887973685
20
6.67814940212673
30
0
41
1
10
135.750090559634
20
7.19720427119177
30
0
41
1
10
135.804691852609
20
7.44582816189791
30
0
41
1
10
135.913894438558
20
7.91758384487784
30
0
41
1
10
135.968495731533
20
8.1407104664155
30
0
41
1
10
136.077698317483
20
8.55854145529182
30
0
41
1
10
136.132299610457
20
8.75324277775175
30
0
41
1
10
136.241502196407
20
9.11218639091373
30
0
41
1
10
136.296103489382
20
9.27642796648973
30
0
41
1
10
136.405306075331
20
9.57336558091532
30
0
41
1
10
136.459907368306
20
9.70606312659763
30
0
41
1
10
136.569109954255
20
9.93976386743216
30
0
41
1
10
136.62371124723
20
10.0407704187061
30
0
41
1
10
136.678312540205
20
10.1262869267228
30
0
0
SPLINE
5
DF
100
AcDbEntity
8
1
62
256
6
ByLayer
370
13
48
1
60
0
100
AcDbSpline
70
4
71
3
72
10
73
6
40
0
40
0
40
0
40
0
40
0.5
40
0.5
40
1
40
1
40
1
40
1
41
1
10
125.7
20
9.96878180789022
30
0
41
1
10
125.797695757705
20
10.1528922831652
30
0
41
1
10
125.89539151541
20
10.2864234349609
30
0
41
1
10
126.090783030821
20
10.4599280115305
30
0
41
1
10
126.188478788526
20
10.5
30
0
41
1
10
126.286174546231
20
10.5
30
0
0
SPLINE
5
E0
100
AcDbEntity
8
1
62
256
6
ByLayer
370
13
48
1
60
0
100
AcDbSpline
70
4
71
3
72
134
73
130
40
0
40
0
40
0
40
0
40
0.0156250000000001
40
0.0156250000000001
40
0.0312500000000001
40
0.0312500000000001
40
0.0468750000000002
40
0.0468750000000002
40
0.0625000000000002
40
0.0625000000000002
40
0.0781250000000003
40
0.0781250000000003
40
0.0937500000000003
40
0.0937500000000003
40
0.109375
40
0.109375
40
0.125
40
0.125
40
0.140625
40
0.140625
40
0.15625
40
0.15625
40
0.171875
40
0.171875
40
0.1875
40
0.1875
40
0.203125
40
0.203125
40
0.21875
40
0.21875
40
0.234375
40
0.234375
40
0.25
40
0.25
40
0.265625
40
0.265625
40
0.28125
40
0.28125
40
0.296875
40
0.296875
40
0.3125
40
0.3125
40
0.328125
40
0.328125
40
0.34375
40
0.34375
40
0.359375
40
0.359375
40
0.375
40
0.375
40
0.390625
40
0.390625
40
0.40625
40
0.40625
40
0.421875
40
0.421875
40
0.4375
40
0.4375
40
0.453125
40
0.453125
40
0.46875
40
0.46875
40
0.484375
40
0.484375
40
0.5
40
0.5
40
0.515625
40
0.515625
40
0.53125
40
0.53125
40
0.546875
40
0.546875
40
0.5625
40
0.5625
40
0.578125
40
0.578125
40
0.59375
40
0.59375
40
0.609375
40
0.609375
40
0.625
40
0.625
40
0.640625
40
0.640625
40
0.65625
40
0.65625
40
0.671875
40
0.671875
40
0.6875
40
0.6875
40
0.703125
40
0.703125
40
0.71875
40
0.71875
40
0.734375
40
0.734375
40
0.75
40
0.75
40
0.765625
40
0.765625
40
0.78125
40
0.78125
40
0.796874999999999
40
0.796874999999999
40
0.812499999999999
40
0.812499999999999
40
0.828124999999999
40
0.828124999999999
40
0.84375
40
0.84375
40
0.859375
40
0.859375
40
0.875
40
0.875
40
0.890625
40
0.890625
40
0.90625
40
0.90625
40
0.921875
40
0.921875
40
0.9375
40
0.9375
40
0.953125
40
0.953125
40
0.96875
40
0.96875
40
0.984375
40
0.984375
40
1
40
1
40
1
40
1
41
1
10
125.700000548916
20
10.5
30
0
41
1
10
125.757179257204
20
10.5
30
0
41
1
10
125.814357965491
20
10.4863118507016
30
0
41
1
10
125.928715382067
20
10.4287412388045
30
0
41
1
10
125.985894090355
20
10.3848518728072
30
0
41
1
10
126.100251506931
20
10.2645609000282
30
0
41
1
10
126.157430215219
20
10.1881525898756
30
0
41
1
10
126.271787631795
20
10.0012256161692
30
0
41
1
10
126.328966340083
20
9.89070124489629
30
0
41
1
10
126.443323756659
20
9.63485323092354
30
0
41
1
10
126.500502464947
20
9.48952571161738
30
0
41
1
10
126.614859881523
20
9.16443867562271
30
0
41
1
10
126.672038589811
20
8.98467783495738
30
0
41
1
10
126.786396006387
20
8.59222825383893
30
0
41
1
10
126.843574714675
20
8.37954118572765
30
0
41
1
10
126.957932131251
20
7.92387623179229
30
0
41
1
10
127.015110839539
20
7.68090305302877
30
0
41
1
10
127.129468256115
20
7.16833996696445
30
0
41
1
10
127.186646964403
20
6.89875738772486
30
0
41
1
10
127.301004380979
20
6.33750402435106
30
0
41
1
10
127.358183089267
20
6.04584238035568
30
0
41
1
10
127.472540505843
20
5.44556334115089
30
0
41
1
10
127.52971921413
20
5.13695584443639
30
0
41
1
10
127.644076630706
20
4.50823164713464
30
0
41
1
10
127.701255338994
20
4.18812450699966
30
0
41
1
10
127.81561275557
20
3.54186555706579
30
0
41
1
10
127.872791463858
20
3.2157220271491
30
0
41
1
10
127.987148880434
20
2.56260175818821
30
0
41
1
10
128.044327588722
20
2.23563137017578
30
0
41
1
10
128.158685005298
20
1.58559409555755
30
0
41
1
10
128.215863713586
20
1.26253133463644
30
0
41
1
10
128.330221130162
20
0.624413296980947
30
0
41
1
10
128.38739983845
20
0.309359952824167
30
0
41
1
10
128.501757255026
20
-0.309358467899955
30
0
41
1
10
128.558935963314
20
-0.624411778217166
30
0
41
1
10
128.67329337989
20
-1.26252979043366
30
0
41
1
10
128.730472088178
20
-1.58559254163683
30
0
41
1
10
128.844829504754
20
-2.23562980391756
30
0
41
1
10
128.902008213042
20
-2.56260018931405
30
0
41
1
10
129.016365629618
20
-3.21572046104589
30
0
41
1
10
129.073544337906
20
-3.54186399635287
30
0
41
1
10
129.187901754481
20
-4.18812296566955
30
0
41
1
10
129.245080462769
20
-4.50823011979969
30
0
41
1
10
129.359437879345
20
-5.13695435389505
30
0
41
1
10
129.416616587633
20
-5.44556187340939
30
0
41
1
10
129.530974004209
20
-6.04584096675762
30
0
41
1
10
129.588152712497
20
-6.33750264209624
30
0
41
1
10
129.702510129073
20
-6.89875607596332
30
0
41
1
10
129.759688837361
20
-7.16833869435081
30
0
41
1
10
129.874046253937
20
-7.68090186533937
30
0
41
1
10
129.931224962225
20
-7.92387508987557
30
0
41
1
10
130.045582378801
20
-8.37954014045232
30
0
41
1
10
130.102761087089
20
-8.59222725942769
30
0
41
1
10
130.217118503665
20
-8.98467694561037
30
0
41
1
10
130.274297211953
20
-9.1644378404709
30
0
41
1
10
130.388654628529
20
-9.48952498635114
30
0
41
1
10
130.445833336817
20
-9.63485256134319
30
0
41
1
10
130.560190753393
20
-9.89070068640592
30
0
41
1
10
130.617369461681
20
-10.0012251130794
30
0
41
1
10
130.731726878256
20
-10.1881521957157
30
0
41
1
10
130.788905586545
20
-10.2645605593953
30
0
41
1
10
130.90326300312
20
-10.3848516360432
30
0
41
1
10
130.960441711408
20
-10.4287410523814
30
0
41
1
10
131.074799127984
20
-10.4863117607854
30
0
41
1
10
131.131977836272
20
-10.4999999562499
30
0
41
1
10
131.246335252848
20
-10.5000000437499
30
0
41
1
10
131.303513961136
20
-10.4863119406176
30
0
41
1
10
131.417871377712
20
-10.4287414252272
30
0
41
1
10
131.475050086
20
-10.3848521095709
30
0
41
1
10
131.589407502576
20
-10.2645612406609
30
0
41
1
10
131.646586210864
20
-10.1881529840353
30
0
41
1
10
131.76094362744
20
-10.0012261192587
30
0
41
1
10
131.818122335728
20
-9.89070180338641
30
0
41
1
10
131.932479752304
20
-9.63485390050366
30
0
41
1
10
131.989658460592
20
-9.48952643688335
30
0
41
1
10
132.104015877168
20
-9.16443951077429
30
0
41
1
10
132.161194585456
20
-8.98467872430416
30
0
41
1
10
132.275552002032
20
-8.59222924824994
30
0
41
1
10
132.33273071032
20
-8.37954223100272
30
0
41
1
10
132.447088126896
20
-7.92387737370879
30
0
41
1
10
132.504266835183
20
-7.68090424071798
30
0
41
1
10
132.618624251759
20
-7.1683412395779
30
0
41
1
10
132.675802960047
20
-6.89875869948622
30
0
41
1
10
132.790160376623
20
-6.33750540660571
30
0
41
1
10
132.847339084911
20
-6.04584379395362
30
0
41
1
10
132.961696501487
20
-5.44556480889227
30
0
41
1
10
133.018875209775
20
-5.13695733497758
30
0
41
1
10
133.133232626351
20
-4.50823317446952
30
0
41
1
10
133.190411334639
20
-4.18812604832974
30
0
41
1
10
133.304768751215
20
-3.54186711777868
30
0
41
1
10
133.361947459503
20
-3.21572359325231
30
0
41
1
10
133.476304876079
20
-2.56260332706233
30
0
41
1
10
133.533483584367
20
-2.235632936434
30
0
41
1
10
133.647841000943
20
-1.58559564947834
30
0
41
1
10
133.705019709231
20
-1.2625328788393
30
0
41
1
10
133.819377125807
20
-0.624414815744785
30
0
41
1
10
133.876555834095
20
-0.309361455870288
30
0
41
1
10
133.990913250671
20
0.309357001097538
30
0
41
1
10
134.048091958959
20
0.62441025945347
30
0
41
1
10
134.162449375534
20
1.26252824623091
30
0
41
1
10
134.219628083822
20
1.58559098771613
30
0
41
1
10
134.333985500398
20
2.23562823765937
30
0
41
1
10
134.391164208686
20
2.56259862043993
30
0
41
1
10
134.505521625262
20
3.21571889494268
30
0
41
1
10
134.56270033355
20
3.54186243563993
30
0
41
1
10
134.677057750126
20
4.18812142433936
30
0
41
1
10
134.734236458414
20
4.50822859246463
30
0
41
1
10
134.84859387499
20
5.13695286335363
30
0
41
1
10
134.905772583278
20
5.44556040566781
30
0
41
1
10
135.020129999854
20
6.0458395531594
30
0
41
1
10
135.077308708142
20
6.33750125984128
30
0
41
1
10
135.191666124718
20
6.89875476420158
30
0
41
1
10
135.248844833006
20
7.16833742173696
30
0
41
1
10
135.363202249582
20
7.68090067764973
30
0
41
1
10
135.42038095787
20
7.92387394795861
30
0
41
1
10
135.534738374446
20
8.37953909517677
30
0
41
1
10
135.591917082734
20
8.59222626501619
30
0
41
1
10
135.70627449931
20
8.98467605626308
30
0
41
1
10
135.763453207597
20
9.1644370053188
30
0
41
1
10
135.877810624173
20
9.48952426108465
30
0
41
1
10
135.934989332461
20
9.63485189176254
30
0
41
1
10
136.049346749037
20
9.89070012791527
30
0
41
1
10
136.106525457325
20
10.0012246099893
30
0
41
1
10
136.220882873901
20
10.1881518015555
30
0
41
1
10
136.278061582189
20
10.2645602187621
30
0
41
1
10
136.392418998765
20
10.3848513992789
30
0
41
1
10
136.449597707053
20
10.4287408659582
30
0
41
1
10
136.563955123629
20
10.486311670869
30
0
41
1
10
136.621133831917
20
10.4999999124996
30
0
41
1
10
136.678312540205
20
10.4999999999996
30
0
0
SPLINE
5
E1
100
AcDbEntity
8
1
62
256
6
ByLayer
370
13
48
1
60
0
100
AcDbSpline
70
4
71
3
72
10
73
6
40
0
40
0
40
0
40
0
40
0.5
40
0.5
40
1
40
1
40
1
40
1
41
1
10
136.092139091805
20
10.5
30
0
41
1
10
136.189834666538
20
10.5
30
0
41
1
10
136.287530241272
20
10.4599281623205
30
0
41
1
10
136.482921390738
20
10.2864242590268
30
0
41
1
10
136.580616965472
20
10.1528936306175
30
0
41
1
10
136.678312540205
20
9.96878387678277
30
0
0
SPLINE
5
E2
100
AcDbEntity
8
1
62
256
6
ByLayer
370
13
48
1
60
0
100
AcDbSpline
70
4
71
3
72
8
73
4
40
0
40
0
40
0
40
0
40
1
40
1
40
1
40
1
41
1
10
125.7
20
10.4881547885043
30
0
41
1
10
125.730436935364
20
10.4961248050841
30
0
41
1
10
125.760873870729
20
10.5
30
0
41
1
10
125.791310806093
20
10.5
30
0
0
SPLINE
5
E3
100
AcDbEntity
8
1
62
256
6
ByLayer
370
13
48
1
60
0
100
AcDbSpline
70
4
71
3
72
132
73
128
40
0
40
0
40
0
40
0
40
0.015625
40
0.015625
40
0.03125
40
0.03125
40
0.0468749999999999
40
0.0468749999999999
40
0.0624999999999999
40
0.0624999999999999
40
0.0781249999999999
40
0.0781249999999999
40
0.0937499999999999
40
0.0937499999999999
40
0.109375
40
0.109375
40
0.125
40
0.125
40
0.140625
40
0.140625
40
0.15625
40
0.15625
40
0.171875
40
0.171875
40
0.1875
40
0.1875
40
0.203125
40
0.203125
40
0.2109375
40
0.2109375
40
0.21875
40
0.21875
40
0.25
40
0.25
40
0.265625
40
0.265625
40
0.281249999999999
40
0.281249999999999
40
0.296874999999999
40
0.296874999999999
40
0.312499999999999
40
0.312499999999999
40
0.328124999999999
40
0.328124999999999
40
0.343749999999999
40
0.343749999999999
40
0.359374999999999
40
0.359374999999999
40
0.374999999999999
40
0.374999999999999
40
0.390624999999999
40
0.390624999999999
40
0.406249999999999
40
0.406249999999999
40
0.421874999999999
40
0.421874999999999
40
0.437499999999999
40
0.437499999999999
40
0.468749999999999
40
0.468749999999999
40
0.476562499999999
40
0.476562499999999
40
0.484374999999998
40
0.484374999999998
40
0.499999999999998
40
0.499999999999998
40
0.515624999999998
40
0.515624999999998
40
0.531249999999998
40
0.531249999999998
40
0.546874999999998
40
0.546874999999998
40
0.562499999999998
40
0.562499999999998
40
0.578124999999998
40
0.578124999999998
40
0.593749999999998
40
0.593749999999998
40
0.609374999999998
40
0.609374999999998
40
0.624999999999998
40
0.624999999999998
40
0.640624999999998
40
0.640624999999998
40
0.656249999999998
40
0.656249999999998
40
0.671874999999998
40
0.671874999999998
40
0.687499999999998
40
0.687499999999998
40
0.703124999999998
40
0.703124999999998
40
0.718749999999998
40
0.718749999999998
40
0.734374999999997
40
0.734374999999997
40
0.742187499999998
40
0.742187499999998
40
0.749999999999998
40
0.749999999999998
40
0.781249999999998
40
0.781249999999998
40
0.796874999999998
40
0.796874999999998
40
0.812499999999998
40
0.812499999999998
40
0.828124999999999
40
0.828124999999999
40
0.843749999999999
40
0.843749999999999
40
0.859374999999999
40
0.859374999999999
40
0.874999999999999
40
0.874999999999999
40
0.890624999999999
40
0.890624999999999
40
0.906249999999999
40
0.906249999999999
40
0.921874999999999
40
0.921874999999999
40
0.9375
40
0.9375
40
0.953125
40
0.953125
40
0.96875
40
0.96875
40
1
40
1
40
1
40
1
41
1
10
125.7
20
10.1262886461432
30
0
41
1
10
125.754601298693
20
10.0407723363603
30
0
41
1
10
125.809202597385
20
9.93976598378197
30
0
41
1
10
125.91840519477
20
9.70606563568657
30
0
41
1
10
125.973006493463
20
9.57336828403544
30
0
41
1
10
126.082209090848
20
9.2764310471166
30
0
41
1
10
126.136810389541
20
9.11218965500191
30
0
41
1
10
126.246012986926
20
8.75324639239753
30
0
41
1
10
126.300614285619
20
8.55854523701933
30
0
41
1
10
126.409816883004
20
8.14071456066418
30
0
41
1
10
126.464418181697
20
7.91758808455316
30
0
41
1
10
126.573620779082
20
7.44583266645498
30
0
41
1
10
126.628222077775
20
7.19720889519479
30
0
41
1
10
126.73742467516
20
6.67815423600447
30
0
41
1
10
126.792025973852
20
6.4077301460608
30
0
41
1
10
126.901228571238
20
5.84935791333254
30
0
41
1
10
126.95582986993
20
5.56141748338723
30
0
41
1
10
127.065032467316
20
4.97266275272992
30
0
41
1
10
127.119633766008
20
4.67185627872303
30
0
41
1
10
127.228836363393
20
4.06215051936627
30
0
41
1
10
127.283437662086
20
3.75325842179257
30
0
41
1
10
127.392640259471
20
3.13206530010643
30
0
41
1
10
127.447241558164
20
2.8197702344236
30
0
41
1
10
127.556444155549
20
2.19615858140321
30
0
41
1
10
127.611045454242
20
1.8848463627312
30
0
41
1
10
127.720248051627
20
1.26713524566372
30
0
41
1
10
127.774849350319
20
0.960739009258305
30
0
41
1
10
127.856751298359
20
0.507362081064343
30
0
41
1
10
127.884051947705
20
0.357268077230117
30
0
41
1
10
127.938653246397
20
0.0595079235204139
30
0
41
1
10
127.965953895744
20
-0.0876032325323024
30
0
41
1
10
128.102457142475
20
-0.832766497079263
30
0
41
1
10
128.21165973986
20
-1.44851658494176
30
0
41
1
10
128.375463635938
20
-2.38125698373625
30
0
41
1
10
128.430064934631
20
-2.69361321374055
30
0
41
1
10
128.539267532016
20
-3.31702981726531
30
0
41
1
10
128.593868830709
20
-3.62808494724396
30
0
41
1
10
128.703071428094
20
-4.24433475772412
30
0
41
1
10
128.757672726787
20
-4.54952276582696
30
0
41
1
10
128.866875324172
20
-5.14927761072437
30
0
41
1
10
128.921476622865
20
-5.44383683404789
30
0
41
1
10
129.03067922025
20
-6.01759368177198
30
0
41
1
10
129.085280518942
20
-6.29678344012976
30
0
41
1
10
129.194483116328
20
-6.83531626679675
30
0
41
1
10
129.24908441502
20
-7.09465201128404
30
0
41
1
10
129.358287012405
20
-7.58947805337402
30
0
41
1
10
129.412888311098
20
-7.82496234041056
30
0
41
1
10
129.522090908483
20
-8.26877598248581
30
0
41
1
10
129.576692207176
20
-8.47710125239274
30
0
41
1
10
129.685894804561
20
-8.86413026174941
30
0
41
1
10
129.740496103254
20
-9.04283218968101
30
0
41
1
10
129.849698700639
20
-9.36908032516899
30
0
41
1
10
129.904299999332
20
-9.51662703083218
30
0
41
1
10
130.013502596717
20
-9.77998248153008
30
0
41
1
10
130.06810389541
20
-9.89579377637563
30
0
41
1
10
130.177306492795
20
-10.0960011364372
30
0
41
1
10
130.231907791487
20
-10.1804013254688
30
0
41
1
10
130.395711687565
20
-10.3881674037327
30
0
41
1
10
130.504914284951
20
-10.4658637093331
30
0
41
1
10
130.641417531682
20
-10.4971443197801
30
0
41
1
10
130.668718181029
20
-10.500127266365
30
0
41
1
10
130.723319479721
20
-10.4998644277769
30
0
41
1
10
130.750620129067
20
-10.4966120331115
30
0
41
1
10
130.832522077106
20
-10.4770153826058
30
0
41
1
10
130.887123375799
20
-10.4508180023116
30
0
41
1
10
130.996325973184
20
-10.3698887383774
30
0
41
1
10
131.050927271877
20
-10.3151513692116
30
0
41
1
10
131.160129869262
20
-10.1753660669176
30
0
41
1
10
131.214731167955
20
-10.0903130425718
30
0
41
1
10
131.32393376534
20
-9.88878443866216
30
0
41
1
10
131.378535064032
20
-9.77230476254812
30
0
41
1
10
131.487737661418
20
-9.50761513551683
30
0
41
1
10
131.54233896011
20
-9.35940267369361
30
0
41
1
10
131.651541557496
20
-9.03184538846662
30
0
41
1
10
131.706142856188
20
-8.85250011389698
30
0
41
1
10
131.815345453573
20
-8.46422686317723
30
0
41
1
10
131.869946752266
20
-8.25530074793369
30
0
41
1
10
131.979149349651
20
-7.81034680105518
30
0
41
1
10
132.033750648344
20
-7.5743230997704
30
0
41
1
10
132.142953245729
20
-7.07849594832692
30
0
41
1
10
132.197554544422
20
-6.81869854349239
30
0
41
1
10
132.306757141807
20
-6.2793326246929
30
0
41
1
10
132.3613584405
20
-5.99977145425396
30
0
41
1
10
132.470561037885
20
-5.42536986384511
30
0
41
1
10
132.525162336577
20
-5.13053731262994
30
0
41
1
10
132.634364933963
20
-4.53033674884171
30
0
41
1
10
132.688966232655
20
-4.22497633643709
30
0
41
1
10
132.798168830041
20
-3.60848067750163
30
0
41
1
10
132.852770128733
20
-3.29735207747441
30
0
41
1
10
132.961972726118
20
-2.6738812883205
30
0
41
1
10
133.016574024811
20
-2.36154430912538
30
0
41
1
10
133.125776622196
20
-1.73983911050129
30
0
41
1
10
133.180377920889
20
-1.4304744247089
30
0
41
1
10
133.289580518274
20
-0.818385406494883
30
0
41
1
10
133.344181816967
20
-0.515662924066135
30
0
41
1
10
133.426083765006
20
-0.0688696562442317
30
0
41
1
10
133.453384414352
20
0.0782347623673445
30
0
41
1
10
133.507985713045
20
0.376198658527841
30
0
41
1
10
133.535286362391
20
0.526387242313945
30
0
41
1
10
133.671789609122
20
1.28244782289167
30
0
41
1
10
133.780992206508
20
1.90402550215327
30
0
41
1
10
133.944796102585
20
2.83949997235661
30
0
41
1
10
133.999397401278
20
3.15176991387907
30
0
41
1
10
134.108599998663
20
3.77281657985398
30
0
41
1
10
134.163201297356
20
4.08158731538813
30
0
41
1
10
134.272403894741
20
4.6909498887627
30
0
41
1
10
134.327005193434
20
4.99153451854951
30
0
41
1
10
134.436207790819
20
5.57974540758411
30
0
41
1
10
134.490809089512
20
5.86736383436826
30
0
41
1
10
134.600011686897
20
6.42499718546549
30
0
41
1
10
134.65461298559
20
6.695004408024
30
0
41
1
10
134.763815582975
20
7.21314063092143
30
0
41
1
10
134.818416881667
20
7.46126286076833
30
0
41
1
10
134.927619479053
20
7.93194498095267
30
0
41
1
10
134.982220777745
20
8.15449974114952
30
0
41
1
10
135.09142337513
20
8.57113453289614
30
0
41
1
10
135.146024673823
20
8.76521156767981
30
0
41
1
10
135.255227271208
20
9.12287382076482
30
0
41
1
10
135.309828569901
20
9.28645837293678
30
0
41
1
10
135.419031167286
20
9.58206928580188
30
0
41
1
10
135.473632465979
20
9.71409719694043
30
0
41
1
10
135.582835063364
20
9.94646517154706
30
0
41
1
10
135.637436362057
20
10.0468086246629
30
0
41
1
10
135.746638959442
20
10.2165389589642
30
0
41
1
10
135.801240258134
20
10.2859305213046
30
0
41
1
10
135.965044154212
20
10.4498736946815
30
0
41
1
10
136.074246751598
20
10.5
30
0
41
1
10
136.183449348983
20
10.5
30
0
0
SPLINE
5
E4
100
AcDbEntity
8
1
62
256
6
ByLayer
370
13
48
1
60
0
100
AcDbSpline
70
4
71
3
72
14
73
10
40
0
40
0
40
0
40
0
40
0.25
40
0.25
40
0.5
40
0.5
40
0.75
40
0.75
40
1
40
1
40
1
40
1
41
1
10
135.597275351667
20
10.5
30
0
41
1
10
135.687361784046
20
10.5
30
0
41
1
10
135.777448216424
20
10.4659502614179
30
0
41
1
10
135.95762108118
20
10.319255711236
30
0
41
1
10
136.047707513558
20
10.2065446343536
30
0
41
1
10
136.227880378314
20
9.89579480198753
30
0
41
1
10
136.317966810692
20
9.6977033848504
30
0
41
1
10
136.498139675449
20
9.21520501881125
30
0
41
1
10
136.588226107827
20
8.93077824468887
30
0
41
1
10
136.678312540205
20
8.60615191694981
30
0
0
SPLINE
5
E5
100
AcDbEntity
8
1
62
256
6
ByLayer
370
13
48
1
60
0
100
AcDbSpline
70
4
71
3
72
104
73
100
40
0
40
0
40
0
40
0
40
0.0156249999999998
40
0.0156249999999998
40
0.0312499999999997
40
0.0312499999999997
40
0.0468749999999995
40
0.0468749999999995
40
0.0624999999999994
40
0.0624999999999994
40
0.0937499999999989
40
0.0937499999999989
40
0.124999999999998
40
0.124999999999998
40
0.156249999999998
40
0.156249999999998
40
0.171874999999998
40
0.171874999999998
40
0.179687499999997
40
0.179687499999997
40
0.187499999999997
40
0.187499999999997
40
0.218749999999997
40
0.218749999999997
40
0.249999999999997
40
0.249999999999997
40
0.281249999999997
40
0.281249999999997
40
0.296874999999998
40
0.296874999999998
40
0.312499999999998
40
0.312499999999998
40
0.328124999999998
40
0.328124999999998
40
0.343749999999998
40
0.343749999999998
40
0.374999999999998
40
0.374999999999998
40
0.406249999999998
40
0.406249999999998
40
0.437499999999998
40
0.437499999999998
40
0.445312499999998
40
0.445312499999998
40
0.449218749999998
40
0.449218749999998
40
0.453124999999998
40
0.453124999999998
40
0.468749999999998
40
0.468749999999998
40
0.499999999999998
40
0.499999999999998
40
0.531249999999999
40
0.531249999999999
40
0.5625
40
0.5625
40
0.578125
40
0.578125
40
0.59375
40
0.59375
40
0.609375
40
0.609375
40
0.625000000000001
40
0.625000000000001
40
0.656250000000001
40
0.656250000000001
40
0.687500000000002
40
0.687500000000002
40
0.718750000000002
40
0.718750000000002
40
0.722656250000002
40
0.722656250000002
40
0.726562500000003
40
0.726562500000003
40
0.734375000000003
40
0.734375000000003
40
0.750000000000002
40
0.750000000000002
40
0.781250000000002
40
0.781250000000002
40
0.812500000000001
40
0.812500000000001
40
0.828125000000001
40
0.828125000000001
40
0.843750000000001
40
0.843750000000001
40
0.859375000000001
40
0.859375000000001
40
0.875000000000001
40
0.875000000000001
40
0.890625000000001
40
0.890625000000001
40
0.90625
40
0.90625
40
0.9375
40
0.9375
40
0.96875
40
0.96875
40
1
40
1
40
1
40
1
41
1
10
125.7
20
8.921351076224
30
0
41
1
10
125.752023883379
20
8.74974156840929
30
0
41
1
10
125.804047766759
20
8.56432468629939
30
0
41
1
10
125.908095533518
20
8.16763072723617
30
0
41
1
10
125.960119416897
20
7.95635599504533
30
0
41
1
10
126.064167183656
20
7.51044063402557
30
0
41
1
10
126.116191067035
20
7.27580395543623
30
0
41
1
10
126.220238833794
20
6.78630236497551
30
0
41
1
10
126.272262717173
20
6.53144266666618
30
0
41
1
10
126.428334367312
20
5.741984305355
30
0
41
1
10
126.53238213407
20
5.18244947184536
30
0
41
1
10
126.740477667588
20
4.02930869628548
30
0
41
1
10
126.844525434347
20
3.43588718606068
30
0
41
1
10
127.052620967864
20
2.24727631521185
30
0
41
1
10
127.156668734623
20
1.65221098441413
30
0
41
1
10
127.312740384761
20
0.778556986592974
30
0
41
1
10
127.364764268141
20
0.490443599588531
30
0
41
1
10
127.44280009321
20
0.0649120349386294
30
0
41
1
10
127.4688120349
20
-0.0752739671737004
30
0
41
1
10
127.520835918279
20
-0.359069287316032
30
0
41
1
10
127.546847859969
20
-0.502065754947978
30
0
41
1
10
127.676907568417
20
-1.22175409193022
30
0
41
1
10
127.780955335176
20
-1.81285756887692
30
0
41
1
10
127.989050868694
20
-3.00072411491871
30
0
41
1
10
128.093098635452
20
-3.59738229765395
30
0
41
1
10
128.30119416897
20
-4.76511047444149
30
0
41
1
10
128.405241935729
20
-5.33600681870624
30
0
41
1
10
128.561313585867
20
-6.14830318993509
30
0
41
1
10
128.613337469246
20
-6.41173010880198
30
0
41
1
10
128.717385236005
20
-6.92009046188892
30
0
41
1
10
128.769409119385
20
-7.16501823925339
30
0
41
1
10
128.873456886144
20
-7.63297491418061
30
0
41
1
10
128.925480769523
20
-7.85599919151198
30
0
41
1
10
129.029528536282
20
-8.27732298876884
30
0
41
1
10
129.081552419661
20
-8.47561935012556
30
0
41
1
10
129.237624069799
20
-9.03022904845477
30
0
41
1
10
129.341671836558
20
-9.34586603089247
30
0
41
1
10
129.549767370076
20
-9.86120389748686
30
0
41
1
10
129.653815136835
20
-10.0609621489292
30
0
41
1
10
129.861910670352
20
-10.3487831269537
30
0
41
1
10
129.965958437111
20
-10.4369684017096
30
0
41
1
10
130.096018145559
20
-10.4857831193559
30
0
41
1
10
130.122030087249
20
-10.4924919837821
30
0
41
1
10
130.161047999784
20
-10.4981726417411
30
0
41
1
10
130.174053970629
20
-10.4993358968795
30
0
41
1
10
130.200065912318
20
-10.5002364338291
30
0
41
1
10
130.213071883163
20
-10.4999789450345
30
0
41
1
10
130.278101737387
20
-10.495106766409
30
0
41
1
10
130.330125620767
20
-10.4796877928829
30
0
41
1
10
130.486197270905
20
-10.3957350218848
30
0
41
1
10
130.590245037664
20
-10.289247461889
30
0
41
1
10
130.798340571181
20
-9.96332897068794
30
0
41
1
10
130.90238833794
20
-9.74378286640751
30
0
41
1
10
131.110483871458
20
-9.18927338812682
30
0
41
1
10
131.214531638217
20
-8.854268525658
30
0
41
1
10
131.370603288355
20
-8.27253302672378
30
0
41
1
10
131.422627171734
20
-8.06551616806595
30
0
41
1
10
131.526674938493
20
-7.62764187777032
30
0
41
1
10
131.578698821872
20
-7.39678814129755
30
0
41
1
10
131.682746588631
20
-6.9142766714032
30
0
41
1
10
131.734770472011
20
-6.66262396753231
30
0
41
1
10
131.83881823877
20
-6.14208186594669
30
0
41
1
10
131.890842122149
20
-5.87319835839929
30
0
41
1
10
132.046913772287
20
-5.04659118011898
30
0
41
1
10
132.150961539046
20
-4.46893058333509
30
0
41
1
10
132.359057072564
20
-3.29330629539177
30
0
41
1
10
132.463104839322
20
-2.69550691503812
30
0
41
1
10
132.67120037284
20
-1.51018989809117
30
0
41
1
10
132.775248139599
20
-0.922763407540117
30
0
41
1
10
132.892301877202
20
-0.281161083415498
30
0
41
1
10
132.905307848047
20
-0.210134330159889
30
0
41
1
10
132.931319789737
20
-0.0686432824367955
30
0
41
1
10
132.944325760582
20
0.0016258146477526
30
0
41
1
10
132.983343673116
20
0.213322120070444
30
0
41
1
10
133.009355614806
20
0.355601956894049
30
0
41
1
10
133.087391439875
20
0.785431923067762
30
0
41
1
10
133.139415323254
20
1.07598794862125
30
0
41
1
10
133.295486973393
20
1.95544463127536
30
0
41
1
10
133.399534740151
20
2.55232894303816
30
0
41
1
10
133.607630273669
20
3.73935324504529
30
0
41
1
10
133.711678040428
20
4.32935642286949
30
0
41
1
10
133.867749690566
20
5.18480238696301
30
0
41
1
10
133.919773573946
20
5.46500211253081
30
0
41
1
10
134.023821340704
20
6.01142005003319
30
0
41
1
10
134.075845224084
20
6.27763208346457
30
0
41
1
10
134.179892990843
20
6.7921911855052
30
0
41
1
10
134.231916874222
20
7.0405324724297
30
0
41
1
10
134.335964640981
20
7.51586050184014
30
0
41
1
10
134.38798852436
20
7.74284241278235
30
0
41
1
10
134.492036291119
20
8.17251728531056
30
0
41
1
10
134.544060174498
20
8.37520681595157
30
0
41
1
10
134.648107941257
20
8.75404325743568
30
0
41
1
10
134.700131824637
20
8.93018841463626
30
0
41
1
10
134.856203474775
20
9.41656854067529
30
0
41
1
10
134.960251241534
20
9.68436741634793
30
0
41
1
10
135.168346775051
20
10.1044412823302
30
0
41
1
10
135.27239454181
20
10.2568069125059
30
0
41
1
10
135.480490075328
20
10.454519339107
30
0
41
1
10
135.584537842086
20
10.5
30
0
41
1
10
135.688585608845
20
10.5
30
0
0
SPLINE
5
E6
100
AcDbEntity
8
1
62
256
6
ByLayer
370
13
48
1
60
0
100
AcDbSpline
70
4
71
3
72
22
73
18
40
0
40
0
40
0
40
0
40
0.125
40
0.125
40
0.25
40
0.25
40
0.375
40
0.375
40
0.5
40
0.5
40
0.625
40
0.625
40
0.75
40
0.75
40
0.875
40
0.875
40
1
40
1
40
1
40
1
41
1
10
135.10241161153
20
10.5
30
0
41
1
10
135.168074150225
20
10.5
30
0
41
1
10
135.233736688919
20
10.4819408624113
30
0
41
1
10
135.365061766309
20
10.4054860924122
30
0
41
1
10
135.430724305004
20
10.3470766620598
30
0
41
1
10
135.562049382393
20
10.1866226938071
30
0
41
1
10
135.627711921088
20
10.0845652088132
30
0
41
1
10
135.759036998478
20
9.83487049166979
30
0
41
1
10
135.824699537173
20
9.68722331260798
30
0
41
1
10
135.956024614562
20
9.34611053835584
30
0
41
1
10
136.021687153257
20
9.15264009913156
30
0
41
1
10
136.153012230647
20
8.72157785503862
30
0
41
1
10
136.218674769341
20
8.48398780719475
30
0
41
1
10
136.349999846731
20
7.96837038669327
30
0
41
1
10
136.415662385426
20
7.69035176272473
30
0
41
1
10
136.546987462815
20
7.09939089087629
30
0
41
1
10
136.61265000151
20
6.78646342716334
30
0
41
1
10
136.678312540205
20
6.45956681774865
30
0
0
SPLINE
5
E7
100
AcDbEntity
8
1
62
256
6
ByLayer
370
13
48
1
60
0
100
AcDbSpline
70
4
71
3
72
80
73
76
40
0
40
0
40
0
40
0
40
0.0312499999999992
40
0.0312499999999992
40
0.0624999999999985
40
0.0624999999999985
40
0.0937499999999977
40
0.0937499999999977
40
0.124999999999997
40
0.124999999999997
40
0.132812499999997
40
0.132812499999997
40
0.140624999999997
40
0.140624999999997
40
0.156249999999997
40
0.156249999999997
40
0.187499999999997
40
0.187499999999997
40
0.218749999999998
40
0.218749999999998
40
0.249999999999998
40
0.249999999999998
40
0.281249999999998
40
0.281249999999998
40
0.312499999999999
40
0.312499999999999
40
0.343749999999999
40
0.343749999999999
40
0.374999999999999
40
0.374999999999999
40
0.40625
40
0.40625
40
0.421875
40
0.421875
40
0.4375
40
0.4375
40
0.468750000000001
40
0.468750000000001
40
0.500000000000001
40
0.500000000000001
40
0.531250000000002
40
0.531250000000002
40
0.562500000000002
40
0.562500000000002
40
0.593750000000003
40
0.593750000000003
40
0.625000000000004
40
0.625000000000004
40
0.656250000000004
40
0.656250000000004
40
0.687500000000005
40
0.687500000000005
40
0.703125000000005
40
0.703125000000005
40
0.710937500000005
40
0.710937500000005
40
0.718750000000005
40
0.718750000000005
40
0.750000000000004
40
0.750000000000004
40
0.781250000000004
40
0.781250000000004
40
0.812500000000003
40
0.812500000000003
40
0.843750000000003
40
0.843750000000003
40
0.875000000000002
40
0.875000000000002
40
0.906250000000002
40
0.906250000000002
40
0.937500000000001
40
0.937500000000001
40
0.96875
40
0.96875
40
1
40
1
40
1
40
1
41
1
10
125.7
20
6.90480761720013
30
0
41
1
10
125.798892936132
20
6.43310212749668
30
0
41
1
10
125.897785872265
20
5.92580979529754
30
0
41
1
10
126.095571744529
20
4.86648131867545
30
0
41
1
10
126.194464680662
20
4.31459672384267
30
0
41
1
10
126.392250552927
20
3.19460128284709
30
0
41
1
10
126.491143489059
20
2.62661468789366
30
0
41
1
10
126.688929361324
20
1.50044811374724
30
0
41
1
10
126.787822297456
20
0.942337448150113
30
0
41
1
10
126.911438467622
20
0.263679575363227
30
0
41
1
10
126.936161701655
20
0.128931841039446
30
0
41
1
10
126.985608169721
20
-0.138644122051915
30
0
41
1
10
127.010331403754
20
-0.273490477736203
30
0
41
1
10
127.084501105853
20
-0.680820357602954
30
0
41
1
10
127.133947573919
20
-0.956107414918961
30
0
41
1
10
127.282286978118
20
-1.78962967223237
30
0
41
1
10
127.38117991425
20
-2.35569310809021
30
0
41
1
10
127.578965786515
20
-3.48518713354829
30
0
41
1
10
127.677858722648
20
-4.04851883226269
30
0
41
1
10
127.875644594912
20
-5.14487107727376
30
0
41
1
10
127.974537531045
20
-5.67774851688603
30
0
41
1
10
128.172323403309
20
-6.68502606149079
30
0
41
1
10
128.271216339442
20
-7.15927821720709
30
0
41
1
10
128.469002211706
20
-8.02518908512323
30
0
41
1
10
128.567895147839
20
-8.41674352920523
30
0
41
1
10
128.765681020104
20
-9.10116015535746
30
0
41
1
10
128.864573956236
20
-9.39399404227387
30
0
41
1
10
129.062359828501
20
-9.87497428436851
30
0
41
1
10
129.161252764633
20
-10.0631680713922
30
0
41
1
10
129.359038636898
20
-10.3386560548985
30
0
41
1
10
129.45793157303
20
-10.4260452275278
30
0
41
1
10
129.606270977229
20
-10.4899352972147
30
0
41
1
10
129.655717445295
20
-10.5000819937801
30
0
41
1
10
129.754610381427
20
-10.4999170080994
30
0
41
1
10
129.804056849493
20
-10.48959752246
30
0
41
1
10
129.952396253692
20
-10.4251680791889
30
0
41
1
10
130.051289189824
20
-10.3373910374043
30
0
41
1
10
130.249075062089
20
-10.0610947244479
30
0
41
1
10
130.347967998221
20
-9.87248059334556
30
0
41
1
10
130.545753870486
20
-9.39066268282207
30
0
41
1
10
130.644646806619
20
-9.09741173366041
30
0
41
1
10
130.842432678883
20
-8.41220555958679
30
0
41
1
10
130.941325615016
20
-8.02027895899346
30
0
41
1
10
131.139111487281
20
-7.15370660030067
30
0
41
1
10
131.238004423413
20
-6.67916537024811
30
0
41
1
10
131.435790295677
20
-5.67141805230145
30
0
41
1
10
131.53468323181
20
-5.13835999383204
30
0
41
1
10
131.732469104075
20
-4.04176229057398
30
0
41
1
10
131.831362040207
20
-3.47836563945114
30
0
41
1
10
132.029147912472
20
-2.34884729111786
30
0
41
1
10
132.128040848604
20
-1.78282425873871
30
0
41
1
10
132.276380252803
20
-0.949425035639365
30
0
41
1
10
132.325826720869
20
-0.67418932339362
30
0
41
1
10
132.399996422968
20
-0.2669494951557
30
0
41
1
10
132.424719657001
20
-0.132152305576398
30
0
41
1
10
132.474166125068
20
0.135389526016922
30
0
41
1
10
132.498889359101
20
0.270219796083325
30
0
41
1
10
132.622505529266
20
0.949027929944094
30
0
41
1
10
132.721398465398
20
1.50722393172222
30
0
41
1
10
132.919184337663
20
2.63346622888369
30
0
41
1
10
133.018077273796
20
3.20144296974124
30
0
41
1
10
133.21586314606
20
4.32130646737124
30
0
41
1
10
133.314756082193
20
4.87306878957557
30
0
41
1
10
133.512541954457
20
5.93203829569578
30
0
41
1
10
133.61143489059
20
6.43909390793166
30
0
41
1
10
133.809220762854
20
7.38193338076201
30
0
41
1
10
133.908113698987
20
7.81758540695688
30
0
41
1
10
134.105899571252
20
8.59709141070189
30
0
41
1
10
134.204792507384
20
8.94087679613099
30
0
41
1
10
134.402578379649
20
9.52547147711834
30
0
41
1
10
134.501471315781
20
9.76629231339567
30
0
41
1
10
134.699257188046
20
10.1440166561034
30
0
41
1
10
134.798150124178
20
10.2809958526125
30
0
41
1
10
134.995935996443
20
10.4589352286704
30
0
41
1
10
135.094828932575
20
10.5
30
0
41
1
10
135.193721868708
20
10.5
30
0
0
SPLINE
5
E8
100
AcDbEntity
8
1
62
256
6
ByLayer
370
13
48
1
60
0
100
AcDbSpline
70
4
71
3
72
22
73
18
40
0
40
0
40
0
40
0
40
0.125
40
0.125
40
0.25
40
0.25
40
0.375
40
0.375
40
0.5
40
0.5
40
0.625
40
0.625
40
0.75
40
0.75
40
0.875
40
0.875
40
1
40
1
40
1
40
1
41
1
10
134.607547871392
20
10.5
30
0
41
1
10
134.693829732593
20
10.5
30
0
41
1
10
134.780111593793
20
10.4687752443743
30
0
41
1
10
134.952675316194
20
10.3345980494212
30
0
41
1
10
135.038957177395
20
10.2315920256711
30
0
41
1
10
135.211520899796
20
9.94767501413014
30
0
41
1
10
135.297802760996
20
9.76671997193102
30
0
41
1
10
135.470366483397
20
9.32544736934923
30
0
41
1
10
135.556648344598
20
9.06510969612737
30
0
41
1
10
135.729212066999
20
8.46935136454601
30
0
41
1
10
135.815493928199
20
8.13394467175041
30
0
41
1
10
135.988057650601
20
7.39818897242722
30
0
41
1
10
136.074339511801
20
6.99788827790891
30
0
41
1
10
136.246903234202
20
6.14740179077381
30
0
41
1
10
136.333185095403
20
5.69728753919654
30
0
41
1
10
136.505748817804
20
4.76529686107187
30
0
41
1
10
136.592030679004
20
4.28349690504353
30
0
41
1
10
136.678312540205
20
3.79526291384622
30
0
0
SPLINE
5
E9
100
AcDbEntity
8
1
62
256
6
ByLayer
370
13
48
1
60
0
100
AcDbSpline
70
4
71
3
72
85
73
81
40
0
40
0
40
0
40
0
40
0.0312500000000002
40
0.0312500000000002
40
0.0625000000000004
40
0.0625000000000004
40
0.0781250000000005
40
0.0781250000000005
40
0.0820312500000005
40
0.0820312500000005
40
0.0859375000000005
40
0.0859375000000005
40
0.0937500000000006
40
0.0937500000000006
40
0.125000000000001
40
0.125000000000001
40
0.156250000000001
40
0.156250000000001
40
0.187500000000001
40
0.187500000000001
40
0.218750000000001
40
0.218750000000001
40
0.250000000000002
40
0.250000000000002
40
0.281250000000002
40
0.281250000000002
40
0.312500000000002
40
0.312500000000002
40
0.343750000000002
40
0.343750000000002
40
0.375000000000003
40
0.375000000000003
40
0.382812500000003
40
0.386718750000003
40
0.386718750000003
40
0.390625000000003
40
0.390625000000003
40
0.406250000000003
40
0.406250000000003
40
0.437500000000003
40
0.437500000000003
40
0.468750000000003
40
0.468750000000003
40
0.500000000000002
40
0.500000000000002
40
0.531250000000002
40
0.531250000000002
40
0.562500000000002
40
0.562500000000002
40
0.593750000000002
40
0.593750000000002
40
0.625000000000002
40
0.625000000000002
40
0.656250000000002
40
0.656250000000002
40
0.687500000000002
40
0.687500000000002
40
0.695312500000002
40
0.695312500000002
40
0.703125000000002
40
0.703125000000002
40
0.718750000000001
40
0.718750000000001
40
0.750000000000001
40
0.750000000000001
40
0.781250000000001
40
0.781250000000001
40
0.812500000000001
40
0.812500000000001
40
0.843750000000001
40
0.843750000000001
40
0.875000000000001
40
0.875000000000001
40
0.906250000000001
40
0.906250000000001
40
0.9375
40
0.9375
40
0.96875
40
0.96875
40
1
40
1
40
1
40
1
41
1
10
125.7
20
4.30913443231745
30
0
41
1
10
125.793738105506
20
3.784908670031
30
0
41
1
10
125.887476211012
20
3.24928793202963
30
0
41
1
10
126.074952422024
20
2.17832248570616
30
0
41
1
10
126.16869052753
20
1.64304818404642
30
0
41
1
10
126.309297685789
20
0.855058465220253
30
0
41
1
10
126.356166738542
20
0.594847126307684
30
0
41
1
10
126.414753054483
20
0.273879417481084
30
0
41
1
10
126.426470317671
20
0.209899887446227
30
0
41
1
10
126.449904844047
20
0.082396370881753
30
0
41
1
10
126.461622107236
20
0.0190167630693736
30
0
41
1
10
126.496773896801
20
-0.17149954584184
30
0
41
1
10
126.520208423177
20
-0.299450399334432
30
0
41
1
10
126.637381055059
20
-0.94335503785743
30
0
41
1
10
126.731119160565
20
-1.47196033180225
30
0
41
1
10
126.918595371577
20
-2.53878285769542
30
0
41
1
10
127.012333477083
20
-3.07694862842527
30
0
41
1
10
127.199809688095
20
-4.14104370832746
30
0
41
1
10
127.293547793601
20
-4.66688094279223
30
0
41
1
10
127.481024004613
20
-5.68216462421952
30
0
41
1
10
127.574762110119
20
-6.17149588324409
30
0
41
1
10
127.762238321131
20
-7.09050155293667
30
0
41
1
10
127.855976426637
20
-7.52006898010038
30
0
41
1
10
128.043452637649
20
-8.30063148589846
30
0
41
1
10
128.137190743154
20
-8.65155983022075
30
0
41
1
10
128.324666954166
20
-9.26300141121746
30
0
41
1
10
128.418405059672
20
-9.52350539873831
30
0
41
1
10
128.605881270684
20
-9.95051471394837
30
0
41
1
10
128.69961937619
20
-10.117063492017
30
0
41
1
10
128.887095587202
20
-10.3602862869117
30
0
41
1
10
128.980833692708
20
-10.4370350670687
30
0
41
1
10
129.09800632459
20
-10.4830277099713
30
0
41
1
10
129.133158114155
20
-10.493096075996
30
0
41
1
10
129.16830990372
20
-10.4977862898567
30
0
41
1
10
129.191744430096
20
-10.499743294746
30
0
41
1
10
129.203461693285
20
-10.500137363053
30
0
41
1
10
129.262048009226
20
-10.4992412251971
30
0
41
1
10
129.308917061979
20
-10.489298847856
30
0
41
1
10
129.449524220238
20
-10.4294464256792
30
0
41
1
10
129.543262325744
20
-10.3493560722378
30
0
41
1
10
129.730738536755
20
-10.0991637769159
30
0
41
1
10
129.824476642261
20
-9.92898780014099
30
0
41
1
10
130.011952853273
20
-9.49470733838672
30
0
41
1
10
130.105690958779
20
-9.23056112642257
30
0
41
1
10
130.293167169791
20
-8.61213921533493
30
0
41
1
10
130.386905275297
20
-8.25787505568394
30
0
41
1
10
130.574381486309
20
-7.47125478432727
30
0
41
1
10
130.668119591815
20
-7.03896743282078
30
0
41
1
10
130.855595802827
20
-6.11536623383586
30
0
41
1
10
130.949333908333
20
-5.62416033810357
30
0
41
1
10
131.136810119344
20
-4.60607520141824
30
0
41
1
10
131.23054822485
20
-4.07931077602225
30
0
41
1
10
131.418024435862
20
-3.01427627583655
30
0
41
1
10
131.511762541368
20
-2.47609690666763
30
0
41
1
10
131.69923875238
20
-1.41002088226571
30
0
41
1
10
131.792976857886
20
-0.882173997223617
30
0
41
1
10
131.910149489768
20
-0.239575264774146
30
0
41
1
10
131.933584016145
20
-0.112042969090709
30
0
41
1
10
131.980453068898
20
0.141684862042069
30
0
41
1
10
132.003887595274
20
0.269496877090234
30
0
41
1
10
132.074191174404
20
0.655449970691222
30
0
41
1
10
132.121060227157
20
0.916118391890052
30
0
41
1
10
132.261667385416
20
1.70522829807848
30
0
41
1
10
132.355405490922
20
2.24091267937933
30
0
41
1
10
132.542881701934
20
3.31184926887374
30
0
41
1
10
132.636619807439
20
3.84702944661467
30
0
41
1
10
132.824096018451
20
4.89365504849928
30
0
41
1
10
132.917834123957
20
5.4049940505538
30
0
41
1
10
133.105310334969
20
6.37977203141946
30
0
41
1
10
133.199048440475
20
6.84309542175993
30
0
41
1
10
133.386524651487
20
7.70025655660706
30
0
41
1
10
133.480262756993
20
8.09400325754308
30
0
41
1
10
133.667738968005
20
8.79623605953029
30
0
41
1
10
133.761477073511
20
9.10468223775095
30
0
41
1
10
133.948953284523
20
9.62840232550113
30
0
41
1
10
134.042691390028
20
9.84369418403088
30
0
41
1
10
134.23016760104
20
10.1813912130322
30
0
41
1
10
134.323905706546
20
10.3038581110933
30
0
41
1
10
134.511381917558
20
10.4631222408392
30
0
41
1
10
134.605120023064
20
10.5
30
0
41
1
10
134.69885812857
20
10.5
30
0
0
SPLINE
5
EA
100
AcDbEntity
8
1
62
256
6
ByLayer
370
13
48
1
60
0
100
AcDbSpline
70
4
71
3
72
32
73
28
40
0
40
0
40
0
40
0
40
0.125
40
0.125
40
0.249999999999999
40
0.249999999999999
40
0.312499999999999
40
0.312499999999999
40
0.374999999999999
40
0.374999999999999
40
0.437499999999999
40
0.437499999999999
40
0.499999999999999
40
0.499999999999999
40
0.562499999999999
40
0.562499999999999
40
0.624999999999999
40
0.624999999999999
40
0.687499999999999
40
0.687499999999999
40
0.75
40
0.75
40
0.8125
40
0.8125
40
0.875
40
0.875
40
1
40
1
40
1
40
1
41
1
10
134.112684131255
20
10.5
30
0
41
1
10
134.219585314961
20
10.5
30
0
41
1
10
134.326486498667
20
10.4519762272764
30
0
41
1
10
134.54028886608
20
10.2428437469151
30
0
41
1
10
134.647190049786
20
10.0815824765222
30
0
41
1
10
134.807541825345
20
9.74819901867573
30
0
41
1
10
134.860992417199
20
9.62190386840601
30
0
41
1
10
134.967893600905
20
9.33902327131176
30
0
41
1
10
135.021344192758
20
9.1824362362855
30
0
41
1
10
135.128245376464
20
8.83986456556943
30
0
41
1
10
135.181695968317
20
8.65388026526441
30
0
41
1
10
135.288597152023
20
8.25428138907657
30
0
41
1
10
135.342047743877
20
8.04066920267559
30
0
41
1
10
135.448948927583
20
7.58841590541294
30
0
41
1
10
135.502399519436
20
7.34977910829772
30
0
41
1
10
135.609300703142
20
6.85081065010772
30
0
41
1
10
135.662751294995
20
6.59048484150995
30
0
41
1
10
135.769652478702
20
6.05205090185052
30
0
41
1
10
135.823103070555
20
5.77394957844837
30
0
41
1
10
135.930004254261
20
5.20426330043117
30
0
41
1
10
135.983454846114
20
4.91268542501686
30
0
41
1
10
136.09035602982
20
4.32051986769784
30
0
41
1
10
136.143806621674
20
4.01993886641159
30
0
41
1
10
136.25070780538
20
3.41420706489421
30
0
41
1
10
136.304158397233
20
3.10906199161781
30
0
41
1
10
136.464510172792
20
2.19309915671738
30
0
41
1
10
136.571411356499
20
1.58200960451021
30
0
41
1
10
136.678312540205
20
0.984861803016543
30
0
0
SPLINE
5
EB
100
AcDbEntity
8
1
62
256
6
ByLayer
370
13
48
1
60
0
100
AcDbSpline
70
4
71
3
72
85
73
81
40
0
40
0
40
0
40
0
40
0.0312499999999991
40
0.0312499999999991
40
0.0390624999999988
40
0.0390624999999988
40
0.0468749999999985
40
0.0468749999999985
40
0.0624999999999979
40
0.0624999999999979
40
0.0937499999999965
40
0.0937499999999965
40
0.124999999999995
40
0.124999999999995
40
0.156249999999994
40
0.156249999999994
40
0.187499999999992
40
0.187499999999992
40
0.218749999999991
40
0.218749999999991
40
0.249999999999989
40
0.249999999999989
40
0.281249999999988
40
0.281249999999988
40
0.312499999999987
40
0.312499999999987
40
0.343749999999985
40
0.343749999999985
40
0.351562499999985
40
0.351562499999985
40
0.355468749999985
40
0.355468749999985
40
0.359374999999985
40
0.374999999999985
40
0.374999999999985
40
0.406249999999986
40
0.406249999999986
40
0.437499999999987
40
0.437499999999987
40
0.468749999999988
40
0.468749999999988
40
0.499999999999988
40
0.499999999999988
40
0.531249999999989
40
0.531249999999989
40
0.56249999999999
40
0.56249999999999
40
0.593749999999991
40
0.593749999999991
40
0.624999999999992
40
0.624999999999992
40
0.656249999999992
40
0.656249999999992
40
0.671874999999993
40
0.671874999999993
40
0.675781249999993
40
0.675781249999993
40
0.679687499999993
40
0.679687499999993
40
0.687499999999993
40
0.687499999999993
40
0.718749999999994
40
0.718749999999994
40
0.749999999999994
40
0.749999999999994
40
0.781249999999995
40
0.781249999999995
40
0.812499999999996
40
0.812499999999996
40
0.843749999999997
40
0.843749999999997
40
0.874999999999997
40
0.874999999999997
40
0.906249999999998
40
0.906249999999998
40
0.937499999999999
40
0.937499999999999
40
0.968749999999999
40
0.968749999999999
40
1
40
1
40
1
40
1
41
1
10
125.7
20
1.49793684121534
30
0
41
1
10
125.78858327488
20
0.997547192994972
30
0
41
1
10
125.877166549759
20
0.504143389387337
30
0
41
1
10
125.987895643358
20
-0.095519045148194
30
0
41
1
10
126.010041462078
20
-0.215869783361654
30
0
41
1
10
126.054333099518
20
-0.458516074469088
30
0
41
1
10
126.076478918238
20
-0.580604435097086
30
0
41
1
10
126.142916374398
20
-0.948867275024952
30
0
41
1
10
126.187208011837
20
-1.19704751564208
30
0
41
1
10
126.320082924156
20
-1.94692499336071
30
0
41
1
10
126.408666199036
20
-2.45406317438596
30
0
41
1
10
126.585832748795
20
-3.46566616600751
30
0
41
1
10
126.674416023675
20
-3.9700731182632
30
0
41
1
10
126.851582573434
20
-4.95638616196905
30
0
41
1
10
126.940165848313
20
-5.43821089539645
30
0
41
1
10
127.117332398072
20
-6.35899913300048
30
0
41
1
10
127.205915672952
20
-6.79787541102695
30
0
41
1
10
127.383082222711
20
-7.6144795792793
30
0
41
1
10
127.47166549759
20
-7.99213722665118
30
0
41
1
10
127.648832047349
20
-8.67254146699662
30
0
41
1
10
127.737415322229
20
-8.97525331907414
30
0
41
1
10
127.914581871988
20
-9.49816533270254
30
0
41
1
10
128.003165146867
20
-9.71837242403339
30
0
41
1
10
128.180331696626
20
-10.0752635043795
30
0
41
1
10
128.268914971506
20
-10.2119884603455
30
0
41
1
10
128.446081521265
20
-10.4067336862604
30
0
41
1
10
128.534664796144
20
-10.4648128427403
30
0
41
1
10
128.645393889744
20
-10.4938987310286
30
0
41
1
10
128.667539708463
20
-10.4975480792461
30
0
41
1
10
128.700758436543
20
-10.4998960845352
30
0
41
1
10
128.711831345903
20
-10.5001587917049
30
0
41
1
10
128.733977164623
20
-10.4996595122824
30
0
41
1
10
128.789341711423
20
-10.4958358908189
30
0
41
1
10
128.844706258223
20
-10.4788502916551
30
0
41
1
10
128.977581170542
20
-10.4108848361157
30
0
41
1
10
129.066164445421
20
-10.3291801102247
30
0
41
1
10
129.24333099518
20
-10.085138996531
30
0
41
1
10
129.33191427006
20
-9.92274737841254
30
0
41
1
10
129.509080819819
20
-9.51413877407856
30
0
41
1
10
129.597664094698
20
-9.26788991316536
30
0
41
1
10
129.774830644457
20
-8.69451941768952
30
0
41
1
10
129.863413919337
20
-8.36740357402812
30
0
41
1
10
130.040580469096
20
-7.64183759852637
30
0
41
1
10
130.129163743975
20
-7.24343457747986
30
0
41
1
10
130.306330293734
20
-6.3906258081303
30
0
41
1
10
130.394913568614
20
-5.93629796446919
30
0
41
1
10
130.572080118373
20
-4.99083489232814
30
0
41
1
10
130.660663393252
20
-4.49978743922412
30
0
41
1
10
130.837829943011
20
-3.50137198195901
30
0
41
1
10
130.926413217891
20
-2.99407947431138
30
0
41
1
10
131.10357976765
20
-1.9824209749433
30
0
41
1
10
131.192163042529
20
-1.47810358838427
30
0
41
1
10
131.325037954849
20
-0.735896604150355
30
0
41
1
10
131.369329592288
20
-0.490843432622796
30
0
41
1
10
131.424694139088
20
-0.188477684700047
30
0
41
1
10
131.435767048448
20
-0.128201419989438
30
0
41
1
10
131.457912867168
20
-0.0080653989651012
30
0
41
1
10
131.468985776528
20
0.0517585660522286
30
0
41
1
10
131.502204504608
20
0.232263970011417
30
0
41
1
10
131.524350323327
20
0.353423600124699
30
0
41
1
10
131.635079416927
20
0.96286480177406
30
0
41
1
10
131.723662691806
20
1.46223523179953
30
0
41
1
10
131.900829241565
20
2.46995319836461
30
0
41
1
10
131.989412516445
20
2.97826275583282
30
0
41
1
10
132.166579066204
20
3.98558336599743
30
0
41
1
10
132.255162341083
20
4.48452709040592
30
0
41
1
10
132.432328890842
20
5.45282938088573
30
0
41
1
10
132.520912165722
20
5.92210213808895
30
0
41
1
10
132.698078715481
20
6.811115343279
30
0
41
1
10
132.786661990361
20
7.23077184336415
30
0
41
1
10
132.963828540119
20
8.003576723685
30
0
41
1
10
133.052411814999
20
8.35666551276142
30
0
41
1
10
133.229578364758
20
8.98456794681289
30
0
41
1
10
133.318161639637
20
9.25936126193122
30
0
41
1
10
133.495328189396
20
9.72535962531597
30
0
41
1
10
133.583911464276
20
9.91658478563744
30
0
41
1
10
133.761078014035
20
10.2165816519754
30
0
41
1
10
133.849661288914
20
10.3254025130474
30
0
41
1
10
134.026827838674
20
10.4670811855982
30
0
41
1
10
134.115411113553
20
10.5
30
0
41
1
10
134.203994388433
20
10.5
30
0
0
SPLINE
5
EC
100
AcDbEntity
8
1
62
256
6
ByLayer
370
13
48
1
60
0
100
AcDbSpline
70
4
71
3
72
42
73
38
40
0
40
0
40
0
40
0
40
0.0625000000000003
40
0.0625000000000003
40
0.125000000000001
40
0.125000000000001
40
0.187500000000001
40
0.187500000000001
40
0.250000000000001
40
0.250000000000001
40
0.312500000000002
40
0.312500000000002
40
0.375000000000002
40
0.375000000000002
40
0.437500000000002
40
0.437500000000002
40
0.500000000000003
40
0.500000000000003
40
0.562500000000003
40
0.562500000000003
40
0.625000000000004
40
0.625000000000004
40
0.687500000000004
40
0.687500000000004
40
0.750000000000005
40
0.750000000000005
40
0.812500000000005
40
0.812500000000005
40
0.875000000000005
40
0.875000000000005
40
0.890625000000005
40
0.890625000000005
40
0.906250000000005
40
0.906250000000005
40
0.937500000000003
40
0.937500000000003
40
1
40
1
40
1
40
1
41
1
10
133.617820391117
20
10.5
30
0
41
1
10
133.681580644223
20
10.5
30
0
41
1
10
133.745340897329
20
10.4829738206662
30
0
41
1
10
133.872861403541
20
10.4109966581406
30
0
41
1
10
133.936621656647
20
10.3560337627079
30
0
41
1
10
134.064142162859
20
10.2051183640868
30
0
41
1
10
134.127902415965
20
10.1091545871423
30
0
41
1
10
134.255422922177
20
9.87435629692064
30
0
41
1
10
134.319183175283
20
9.73551289046418
30
0
41
1
10
134.446703681495
20
9.41456737197652
30
0
41
1
10
134.510463934601
20
9.23246048310426
30
0
41
1
10
134.637984440813
20
8.82630480259206
30
0
41
1
10
134.701744693919
20
8.60225665371641
30
0
41
1
10
134.829265200131
20
8.11530647837279
30
0
41
1
10
134.893025453237
20
7.85241098348695
30
0
41
1
10
135.020545959449
20
7.29251860582491
30
0
41
1
10
135.084306212555
20
6.99553355559902
30
0
41
1
10
135.211826718767
20
6.37360021320254
30
0
41
1
10
135.275586971873
20
6.04866747439991
30
0
41
1
10
135.403107478085
20
5.3779447741835
30
0
41
1
10
135.466867731191
20
5.03217186832327
30
0
41
1
10
135.594388237403
20
4.32734456642419
30
0
41
1
10
135.658148490509
20
3.96830639617173
30
0
41
1
10
135.785668996721
20
3.24448585252679
30
0
41
1
10
135.849429249827
20
2.87971694339822
30
0
41
1
10
135.976949756039
20
2.15148145843437
30
0
41
1
10
136.040710009145
20
1.78802439415577
30
0
41
1
10
136.168230515357
20
1.06861988341012
30
0
41
1
10
136.231990768463
20
0.712677639236745
30
0
41
1
10
136.311691084845
20
0.275660022997897
30
0
41
1
10
136.327631148122
20
0.188649257714474
30
0
41
1
10
136.359511274675
20
0.0154823601600356
30
0
41
1
10
136.375451337951
20
-0.0705772906708262
30
0
41
1
10
136.423271527781
20
-0.330867873742846
30
0
41
1
10
136.455151654334
20
-0.506077818226316
30
0
41
1
10
136.550792033993
20
-1.03588835053679
30
0
41
1
10
136.614552287099
20
-1.39470343419401
30
0
41
1
10
136.678312540205
20
-1.75639118601953
30
0
0
SPLINE
5
ED
100
AcDbEntity
8
1
62
256
6
ByLayer
370
13
48
1
60
0
100
AcDbSpline
70
4
71
3
72
80
73
76
40
0
40
0
40
0
40
0
40
0.0312500000000009
40
0.0312500000000009
40
0.0625000000000019
40
0.0625000000000019
40
0.0937500000000028
40
0.0937500000000028
40
0.125000000000004
40
0.125000000000004
40
0.156250000000005
40
0.156250000000005
40
0.187500000000006
40
0.187500000000006
40
0.218750000000006
40
0.218750000000006
40
0.250000000000007
40
0.250000000000007
40
0.281250000000008
40
0.281250000000008
40
0.312500000000009
40
0.312500000000009
40
0.316406250000009
40
0.316406250000009
40
0.320312500000009
40
0.328125000000009
40
0.328125000000009
40
0.343750000000009
40
0.343750000000009
40
0.375000000000009
40
0.375000000000009
40
0.406250000000008
40
0.406250000000008
40
0.437500000000008
40
0.437500000000008
40
0.468750000000007
40
0.468750000000007
40
0.500000000000007
40
0.500000000000007
40
0.531250000000006
40
0.531250000000006
40
0.562500000000006
40
0.562500000000006
40
0.593750000000006
40
0.593750000000006
40
0.625000000000005
40
0.625000000000005
40
0.656250000000005
40
0.656250000000005
40
0.660156250000005
40
0.660156250000005
40
0.664062500000005
40
0.671875000000004
40
0.671875000000004
40
0.687500000000004
40
0.687500000000004
40
0.718750000000004
40
0.718750000000004
40
0.750000000000003
40
0.750000000000003
40
0.781250000000003
40
0.781250000000003
40
0.812500000000002
40
0.812500000000002
40
0.843750000000002
40
0.843750000000002
40
0.875000000000002
40
0.875000000000002
40
0.906250000000001
40
0.906250000000001
40
0.937500000000001
40
0.937500000000001
40
0.96875
40
0.96875
40
1
40
1
40
1
40
1
41
1
10
125.7
20
-1.24067563334339
30
0
41
1
10
125.783428444253
20
-1.70953077718855
30
0
41
1
10
125.866856888506
20
-2.18569967307377
30
0
41
1
10
126.033713777012
20
-3.13885375825413
30
0
41
1
10
126.117142221265
20
-3.61580034219742
30
0
41
1
10
126.283999109772
20
-4.55431754501117
30
0
41
1
10
126.367427554025
20
-5.01583128422268
30
0
41
1
10
126.534284442531
20
-5.90639527740456
30
0
41
1
10
126.617712886784
20
-6.33538040137626
30
0
41
1
10
126.78456977529
20
-7.14477982295506
30
0
41
1
10
126.867998219543
20
-7.52513538452865
30
0
41
1
10
127.034855108049
20
-8.22406568156694
30
0
41
1
10
127.118283552302
20
-8.54260216029343
30
0
41
1
10
127.285140440808
20
-9.10908767885908
30
0
41
1
10
127.368568885061
20
-9.35702693879125
30
0
41
1
10
127.535425773568
20
-9.77865848682828
30
0
41
1
10
127.618854217821
20
-9.95236864446596
30
0
41
1
10
127.785711106327
20
-10.2268965890857
30
0
41
1
10
127.86913955058
20
-10.3277516512281
30
0
41
1
10
128.035996439086
20
-10.4620737589563
30
0
41
1
10
128.119424883339
20
-10.4955860549443
30
0
41
1
10
128.213281883124
20
-10.5000903921802
30
0
41
1
10
128.223710438655
20
-10.5001331573979
30
0
41
1
10
128.244567549719
20
-10.4993058128889
30
0
41
1
10
128.275853216313
20
-10.4966881812603
30
0
41
1
10
128.307138882909
20
-10.4898594834181
30
0
41
1
10
128.369710216098
20
-10.4703802230714
30
0
41
1
10
128.411424438225
20
-10.4496268951384
30
0
41
1
10
128.536567104605
20
-10.3625556776635
30
0
41
1
10
128.619995548858
20
-10.2713177085425
30
0
41
1
10
128.786852437364
20
-10.0165614751143
30
0
41
1
10
128.870280881617
20
-9.85300415608813
30
0
41
1
10
129.037137770123
20
-9.45158695143954
30
0
41
1
10
129.120566214376
20
-9.2137059326638
30
0
41
1
10
129.287423102882
20
-8.66653434333833
30
0
41
1
10
129.370851547135
20
-8.35724952277707
30
0
41
1
10
129.537708435641
20
-7.67533922180806
30
0
41
1
10
129.621136879894
20
-7.3027483872045
30
0
41
1
10
129.7879937684
20
-6.50686422894475
30
0
41
1
10
129.871422212654
20
-6.08362758615215
30
0
41
1
10
130.03827910116
20
-5.20225443219522
30
0
41
1
10
130.121707545413
20
-4.74418309110635
30
0
41
1
10
130.288564433919
20
-3.81022312082331
30
0
41
1
10
130.371992878172
20
-3.3343932350792
30
0
41
1
10
130.538849766678
20
-2.38136370254236
30
0
41
1
10
130.622278210931
20
-1.90420550236973
30
0
41
1
10
130.789135099437
20
-0.962792467143061
30
0
41
1
10
130.87256354369
20
-0.498557711497654
30
0
41
1
10
130.966420543475
20
0.0101670554370514
30
0
41
1
10
130.976849099007
20
0.0665551939201521
30
0
41
1
10
130.99770621007
20
0.179937946884593
30
0
41
1
10
131.028991876665
20
0.350556929207528
30
0
41
1
10
131.06027754326
20
0.522725334292801
30
0
41
1
10
131.12284887645
20
0.868882433622417
30
0
41
1
10
131.164563098576
20
1.10208723759905
30
0
41
1
10
131.289705764956
20
1.80680247417089
30
0
41
1
10
131.373134209209
20
2.28349909278245
30
0
41
1
10
131.539991097715
20
3.23666246941673
30
0
41
1
10
131.623419541968
20
3.71308919324056
30
0
41
1
10
131.790276430474
20
4.64940665909509
30
0
41
1
10
131.873704874727
20
5.1092395646138
30
0
41
1
10
132.040561763234
20
5.99528626385046
30
0
41
1
10
132.123990207486
20
6.42143487181369
30
0
41
1
10
132.290847095993
20
7.22414496016117
30
0
41
1
10
132.374275540246
20
7.60064869859576
30
0
41
1
10
132.541132428752
20
8.29111943535997
30
0
41
1
10
132.624560873005
20
8.60504996451004
30
0
41
1
10
132.791417761511
20
9.16190601469563
30
0
41
1
10
132.874846205764
20
9.40482377448575
30
0
41
1
10
133.04170309427
20
9.81635160801295
30
0
41
1
10
133.125131538524
20
9.9849812041648
30
0
41
1
10
133.29198842703
20
10.2496054063242
30
0
41
1
10
133.375416871283
20
10.3456382050066
30
0
41
1
10
133.542273759789
20
10.4708128078103
30
0
41
1
10
133.625702204042
20
10.5
30
0
41
1
10
133.709130648295
20
10.5
30
0
0
SPLINE
5
EE
100
AcDbEntity
8
1
62
256
6
ByLayer
370
13
48
1
60
0
100
AcDbSpline
70
4
71
3
72
42
73
38
40
0
40
0
40
0
40
0
40
0.0625000000000002
40
0.0625000000000002
40
0.125
40
0.125
40
0.187500000000001
40
0.187500000000001
40
0.250000000000001
40
0.250000000000001
40
0.312500000000001
40
0.312500000000001
40
0.375000000000001
40
0.375000000000001
40
0.437500000000001
40
0.437500000000001
40
0.500000000000002
40
0.500000000000002
40
0.562500000000002
40
0.562500000000002
40
0.625000000000002
40
0.625000000000002
40
0.687500000000002
40
0.687500000000002
40
0.750000000000002
40
0.750000000000002
40
0.765625000000002
40
0.765625000000002
40
0.781250000000002
40
0.781250000000002
40
0.812500000000002
40
0.812500000000002
40
0.875000000000001
40
0.875000000000001
40
0.937500000000001
40
0.937500000000001
40
1
40
1
40
1
40
1
41
1
10
133.122956650979
20
10.5
30
0
41
1
10
133.197026565338
20
10.5
30
0
41
1
10
133.271096479697
20
10.4770087205163
30
0
41
1
10
133.419236308415
20
10.3790620682024
30
0
41
1
10
133.493306222774
20
10.3040815359237
30
0
41
1
10
133.641446051491
20
10.0977437372102
30
0
41
1
10
133.71551596585
20
9.96636389193199
30
0
41
1
10
133.863655794568
20
9.64516461379509
30
0
41
1
10
133.937725708927
20
9.4553302228536
30
0
41
1
10
134.085865537645
20
9.01809166920157
30
0
41
1
10
134.159935452004
20
8.77068462588704
30
0
41
1
10
134.308075280721
20
8.22238676648936
30
0
41
1
10
134.38214519508
20
7.92150739509012
30
0
41
1
10
134.530285023798
20
7.27344444803555
30
0
41
1
10
134.604354938157
20
6.9262855556486
30
0
41
1
10
134.752494766874
20
6.19538707133282
30
0
41
1
10
134.826564681233
20
5.81168100950583
30
0
41
1
10
134.974704509951
20
5.01906258166321
30
0
41
1
10
135.04877442431
20
4.61018619636542
30
0
41
1
10
135.196914253028
20
3.77918386483682
30
0
41
1
10
135.270984167387
20
3.35708995377453
30
0
41
1
10
135.419123996104
20
2.51114751067709
30
0
41
1
10
135.493193910463
20
2.08732246612317
30
0
41
1
10
135.641333739181
20
1.24810243797452
30
0
41
1
10
135.71540365354
20
0.832720468589457
30
0
41
1
10
135.807991046488
20
0.323963030723348
30
0
41
1
10
135.826508525078
20
0.222730089529449
30
0
41
1
10
135.863543482257
20
0.0214107765456504
30
0
41
1
10
135.882060960847
20
-0.0785236169087966
30
0
41
1
10
135.937613396616
20
-0.381148784900944
30
0
41
1
10
135.974648353796
20
-0.585155869568695
30
0
41
1
10
136.085753225334
20
-1.20256648559152
30
0
41
1
10
136.159823139693
20
-1.62141930638089
30
0
41
1
10
136.307962968411
20
-2.46473416998168
30
0
41
1
10
136.382032882769
20
-2.88918004384985
30
0
41
1
10
136.530172711487
20
-3.73305487741078
30
0
41
1
10
136.604242625846
20
-4.15245748000692
30
0
41
1
10
136.678312540205
20
-4.56349284849532
30
0
0
SPLINE
5
EF
100
AcDbEntity
8
1
62
256
6
ByLayer
370
13
48
1
60
0
100
AcDbSpline
70
4
71
3
72
79
73
75
40
0
40
0
40
0
40
0
40
0.0312500000000008
40
0.0312500000000008
40
0.0625000000000017
40
0.0625000000000017
40
0.0937500000000025
40
0.0937500000000025
40
0.125000000000003
40
0.125000000000003
40
0.156250000000004
40
0.156250000000004
40
0.187500000000005
40
0.187500000000005
40
0.218750000000006
40
0.218750000000006
40
0.250000000000007
40
0.250000000000007
40
0.265625000000007
40
0.265625000000007
40
0.273437500000007
40
0.273437500000007
40
0.281250000000007
40
0.281250000000007
40
0.312500000000006
40
0.312500000000006
40
0.343750000000005
40
0.343750000000005
40
0.375000000000005
40
0.375000000000005
40
0.406250000000004
40
0.406250000000004
40
0.437500000000004
40
0.437500000000004
40
0.468750000000003
40
0.468750000000003
40
0.500000000000002
40
0.500000000000002
40
0.531250000000002
40
0.531250000000002
40
0.562500000000001
40
0.562500000000001
40
0.59375
40
0.59375
40
0.625
40
0.625
40
0.6328125
40
0.6328125
40
0.63671875
40
0.63671875
40
0.640625
40
0.65625
40
0.65625
40
0.6875
40
0.6875
40
0.71875
40
0.71875
40
0.75
40
0.75
40
0.78125
40
0.78125
40
0.8125
40
0.8125
40
0.84375
40
0.84375
40
0.875
40
0.875
40
0.90625
40
0.90625
40
0.9375
40
0.9375
40
0.96875
40
0.96875
40
1
40
1
40
1
40
1
41
1
10
125.7
20
-4.05294730306017
30
0
41
1
10
125.778273613627
20
-4.493539174473
30
0
41
1
10
125.856547227253
20
-4.92748434673697
30
0
41
1
10
126.013094454507
20
-5.7680598178201
30
0
41
1
10
126.091368068133
20
-6.17464282946816
30
0
41
1
10
126.247915295387
20
-6.94702234978911
30
0
41
1
10
126.326188909013
20
-7.31277471883206
30
0
41
1
10
126.482736136266
20
-7.99206264896426
30
0
41
1
10
126.561009749893
20
-8.30556658407932
30
0
41
1
10
126.717556977146
20
-8.87213994840695
30
0
41
1
10
126.795830590773
20
-9.12519645924229
30
0
41
1
10
126.952377818026
20
-9.56655773707013
30
0
41
1
10
127.030651431653
20
-9.75486930376667
30
0
41
1
10
127.187198658906
20
-10.0664143731776
30
0
41
1
10
127.265472272533
20
-10.1896704101551
30
0
41
1
10
127.422019499786
20
-10.3743095646334
30
0
41
1
10
127.500293113413
20
-10.4357240225653
30
0
41
1
10
127.617703533853
20
-10.4858660757318
30
0
41
1
10
127.656840340666
20
-10.4956014282347
30
0
41
1
10
127.715545550886
20
-10.5004136435711
30
0
41
1
10
127.735113954293
20
-10.5004018003268
30
0
41
1
10
127.774250761106
20
-10.4971449524203
30
0
41
1
10
127.793819164512
20
-10.493884985453
30
0
41
1
10
127.891661181546
20
-10.4691384076561
30
0
41
1
10
127.969934795173
20
-10.4222380370216
30
0
41
1
10
128.126482022426
20
-10.2678792654945
30
0
41
1
10
128.204755636053
20
-10.1603884986132
30
0
41
1
10
128.361302863306
20
-9.88087334419984
30
0
41
1
10
128.439576476932
20
-9.70882353588615
30
0
41
1
10
128.596123704186
20
-9.29955086699266
30
0
41
1
10
128.674397317812
20
-9.06231677200643
30
0
41
1
10
128.830944545065
20
-8.52594931627641
30
0
41
1
10
128.909218158692
20
-8.22682386087564
30
0
41
1
10
129.065765385945
20
-7.57392627154741
30
0
41
1
10
129.144038999572
20
-7.22018151695258
30
0
41
1
10
129.300586226825
20
-6.46874346281331
30
0
41
1
10
129.378859840452
20
-6.07109199970503
30
0
41
1
10
129.535407067705
20
-5.24492163099814
30
0
41
1
10
129.613680681332
20
-4.81645015812504
30
0
41
1
10
129.770227908585
20
-3.9427280223727
30
0
41
1
10
129.848501522212
20
-3.49752077476839
30
0
41
1
10
130.005048749465
20
-2.60402333012308
30
0
41
1
10
130.083322363092
20
-2.15576526788158
30
0
41
1
10
130.239869590345
20
-1.26831227472223
30
0
41
1
10
130.318143203972
20
-0.829134988512266
30
0
41
1
10
130.415985221005
20
-0.291978306791861
30
0
41
1
10
130.435553624412
20
-0.185131541042466
30
0
41
1
10
130.464906229522
20
-0.0258343083880561
30
0
41
1
10
130.474690431225
20
0.0270210559827717
30
0
41
1
10
130.494258834631
20
0.133224048851389
30
0
41
1
10
130.543179843148
20
0.399540015203854
30
0
41
1
10
130.592100851665
20
0.669719731512743
30
0
41
1
10
130.709511272105
20
1.3239102168547
30
0
41
1
10
130.787784885731
20
1.76778927421384
30
0
41
1
10
130.944332112985
20
2.66033035794632
30
0
41
1
10
131.022605726611
20
3.10896918684816
30
0
41
1
10
131.179152953865
20
3.99821622739714
30
0
41
1
10
131.257426567491
20
4.43878745351415
30
0
41
1
10
131.413973794745
20
5.29791996643246
30
0
41
1
10
131.492247408371
20
5.71643529296242
30
0
41
1
10
131.648794635625
20
6.51757808408007
30
0
41
1
10
131.727068249251
20
6.90015905695981
30
0
41
1
10
131.883615476505
20
7.61707892895799
30
0
41
1
10
131.961889090131
20
7.95138053682558
30
0
41
1
10
132.118436317384
20
8.562205416214
30
0
41
1
10
132.196709931011
20
8.8387083190415
30
0
41
1
10
132.353257158264
20
9.32810887890011
30
0
41
1
10
132.431530771891
20
9.5410061515752
30
0
41
1
10
132.588077999144
20
9.90139589473102
30
0
41
1
10
132.666351612771
20
10.0489056968955
30
0
41
1
10
132.822898840024
20
10.2804806139593
30
0
41
1
10
132.901172453651
20
10.3645746451351
30
0
41
1
10
133.057719680904
20
10.4743177896113
30
0
41
1
10
133.135993294531
20
10.5
30
0
41
1
10
133.214266908157
20
10.5
30
0
0
SPLINE
5
F0
100
AcDbEntity
8
1
62
256
6
ByLayer
370
13
48
1
60
0
100
AcDbSpline
70
4
71
3
72
44
73
40
40
0
40
0
40
0
40
0
40
0.0625000000000017
40
0.0625000000000017
40
0.125000000000003
40
0.125000000000003
40
0.187500000000005
40
0.187500000000005
40
0.250000000000007
40
0.250000000000007
40
0.312500000000009
40
0.312500000000009
40
0.37500000000001
40
0.37500000000001
40
0.437500000000012
40
0.437500000000012
40
0.500000000000014
40
0.500000000000014
40
0.562500000000016
40
0.562500000000016
40
0.625000000000017
40
0.625000000000017
40
0.656250000000018
40
0.656250000000018
40
0.671875000000018
40
0.671875000000018
40
0.679687500000018
40
0.679687500000018
40
0.687500000000018
40
0.687500000000018
40
0.750000000000014
40
0.750000000000014
40
0.812500000000011
40
0.812500000000011
40
0.875000000000007
40
0.875000000000007
40
0.937500000000004
40
0.937500000000004
40
1
40
1
40
1
40
1
41
1
10
132.628092910842
20
10.5
30
0
41
1
10
132.712472486454
20
10.5
30
0
41
1
10
132.796852062065
20
10.4701413468484
30
0
41
1
10
132.965611213289
20
10.3420024970664
30
0
41
1
10
133.0499907889
20
10.243674298068
30
0
41
1
10
133.218749940124
20
9.97269837093521
30
0
41
1
10
133.303129515736
20
9.80001055369115
30
0
41
1
10
133.471888666959
20
9.37868074862376
30
0
41
1
10
133.556268242571
20
9.13001897925471
30
0
41
1
10
133.725027393794
20
8.56031549618623
30
0
41
1
10
133.809406969406
20
8.23928342122966
30
0
41
1
10
133.97816612063
20
7.53380400143101
30
0
41
1
10
134.062545696241
20
7.14939682232369
30
0
41
1
10
134.231304847465
20
6.33077005878877
30
0
41
1
10
134.315684423077
20
5.89661261879445
30
0
41
1
10
134.4844435743
20
4.9951498502765
30
0
41
1
10
134.568823149912
20
4.52791341538082
30
0
41
1
10
134.737582301135
20
3.57799046006045
30
0
41
1
10
134.821961876747
20
3.09536377587682
30
0
41
1
10
134.99072102797
20
2.13140170886641
30
0
41
1
10
135.075100603582
20
1.6501064178008
30
0
41
1
10
135.201669967
20
0.939820357544932
30
0
41
1
10
135.243859754805
20
0.70497801831192
30
0
41
1
10
135.307144436514
20
0.356694550605368
30
0
41
1
10
135.328239330417
20
0.241261716446473
30
0
41
1
10
135.359881671271
20
0.0692271045804489
30
0
41
1
10
135.370429118223
20
0.0121905563103439
30
0
41
1
10
135.391524012126
20
-0.102142094758165
30
0
41
1
10
135.402071459077
20
-0.159498666002037
30
0
41
1
10
135.496998481641
20
-0.677332206454935
30
0
41
1
10
135.581378057252
20
-1.14932181275356
30
0
41
1
10
135.750137208476
20
-2.10472967683916
30
0
41
1
10
135.834516784088
20
-2.58812359931272
30
0
41
1
10
136.003275935311
20
-3.5512215365396
30
0
41
1
10
136.087655510923
20
-4.03087852623321
30
0
41
1
10
136.256414662146
20
-4.96929996767835
30
0
41
1
10
136.340794237758
20
-5.42800024217473
30
0
41
1
10
136.509553388981
20
-6.30691891015354
30
0
41
1
10
136.593932964593
20
-6.72706872730117
30
0
41
1
10
136.678312540205
20
-7.12001298883229
30
0
0
SPLINE
5
F1
100
AcDbEntity
8
1
62
256
6
ByLayer
370
13
48
1
60
0
100
AcDbSpline
70
4
71
3
72
76
73
72
40
0
40
0
40
0
40
0
40
0.0312499999999997
40
0.0312499999999997
40
0.0624999999999994
40
0.0624999999999994
40
0.0937499999999991
40
0.0937499999999991
40
0.124999999999999
40
0.124999999999999
40
0.156249999999999
40
0.156249999999999
40
0.187499999999998
40
0.187499999999998
40
0.203124999999998
40
0.203124999999998
40
0.210937499999998
40
0.210937499999998
40
0.218749999999998
40
0.218749999999998
40
0.249999999999998
40
0.249999999999998
40
0.281249999999998
40
0.281249999999998
40
0.312499999999998
40
0.312499999999998
40
0.343749999999999
40
0.343749999999999
40
0.374999999999999
40
0.374999999999999
40
0.406249999999999
40
0.406249999999999
40
0.437499999999999
40
0.437499999999999
40
0.468749999999999
40
0.468749999999999
40
0.499999999999999
40
0.499999999999999
40
0.531249999999999
40
0.531249999999999
40
0.562499999999999
40
0.562499999999999
40
0.593749999999999
40
0.593749999999999
40
0.609375
40
0.609375
40
0.625
40
0.625
40
0.65625
40
0.65625
40
0.6875
40
0.6875
40
0.71875
40
0.71875
40
0.75
40
0.75
40
0.78125
40
0.78125
40
0.8125
40
0.8125
40
0.84375
40
0.84375
40
0.875
40
0.875
40
0.90625
40
0.90625
40
0.9375
40
0.9375
40
0.96875
40
0.96875
40
1
40
1
40
1
40
1
41
1
10
125.7
20
-6.68456286870551
30
0
41
1
10
125.773118783
20
-7.04117238976599
30
0
41
1
10
125.846237566
20
-7.37937322197908
30
0
41
1
10
125.992475132001
20
-8.00987400070159
30
0
41
1
10
126.065593915001
20
-8.30215191196856
30
0
41
1
10
126.211831481001
20
-8.83413933186085
30
0
41
1
10
126.284950264002
20
-9.07383929854606
30
0
41
1
10
126.431187830002
20
-9.49696650365232
30
0
41
1
10
126.504306613002
20
-9.68039740143482
30
0
41
1
10
126.650544179003
20
-9.99033325928548
30
0
41
1
10
126.723662962003
20
-10.1168528258239
30
0
41
1
10
126.869900528003
20
-10.3150787474747
30
0
41
1
10
126.943019311003
20
-10.3868065025353
30
0
41
1
10
127.052697485504
20
-10.4565292008242
30
0
41
1
10
127.089256877004
20
-10.473473739873
30
0
41
1
10
127.144095964254
20
-10.4899608661303
30
0
41
1
10
127.162375660004
20
-10.4939689627315
30
0
41
1
10
127.198935051504
20
-10.4991028329743
30
0
41
1
10
127.217214747254
20
-10.500229441416
30
0
41
1
10
127.308613226004
20
-10.498890099455
30
0
41
1
10
127.381732009005
20
-10.4753396857711
30
0
41
1
10
127.527969575005
20
-10.3775471224573
30
0
41
1
10
127.601088358005
20
-10.3032813855654
30
0
41
1
10
127.747325924006
20
-10.0998224884859
30
0
41
1
10
127.820444707006
20
-9.97060814668376
30
0
41
1
10
127.966682273006
20
-9.65524658150613
30
0
41
1
10
128.039801056006
20
-9.46908519034736
30
0
41
1
10
128.186038622007
20
-9.04060267250875
30
0
41
1
10
128.259157405007
20
-8.79827848736804
30
0
41
1
10
128.405394971008
20
-8.26129521894637
30
0
41
1
10
128.478513754008
20
-7.96664631725577
30
0
41
1
10
128.624751320008
20
-7.33178900391977
30
0
41
1
10
128.697870103008
20
-6.99160315280992
30
0
41
1
10
128.844107669009
20
-6.27490024900482
30
0
41
1
10
128.917226452009
20
-5.89841426028801
30
0
41
1
10
129.063464018009
20
-5.11997030616982
30
0
41
1
10
129.13658280101
20
-4.71804612634159
30
0
41
1
10
129.28282036701
20
-3.90021966850952
30
0
41
1
10
129.35593915001
20
-3.48434798152894
30
0
41
1
10
129.502176716011
20
-2.64976712040181
30
0
41
1
10
129.575295499011
20
-2.23108093597838
30
0
41
1
10
129.721533065011
20
-1.40083956017082
30
0
41
1
10
129.794651848012
20
-0.989297734409547
30
0
41
1
10
129.904330022512
20
-0.383517354198659
30
0
41
1
10
129.940889414012
20
-0.183711561213158
30
0
41
1
10
130.014008197012
20
0.212110773747781
30
0
41
1
10
130.050567588512
20
0.41233290826878
30
0
41
1
10
130.160245763013
20
1.01865623490241
30
0
41
1
10
130.233364546013
20
1.43047272538766
30
0
41
1
10
130.379602112013
20
2.26104393558606
30
0
41
1
10
130.452720895013
20
2.67978505475398
30
0
41
1
10
130.598958461014
20
3.51422060568498
30
0
41
1
10
130.672077244014
20
3.92989183219512
30
0
41
1
10
130.818314810014
20
4.74704309215284
30
0
41
1
10
130.891433593015
20
5.1484923981991
30
0
41
1
10
131.037671159015
20
5.92571533065731
30
0
41
1
10
131.110789942015
20
6.30145516441019
30
0
41
1
10
131.257027508016
20
7.01642191226304
30
0
41
1
10
131.330146291016
20
7.35561790264427
30
0
41
1
10
131.476383857016
20
7.98830153377838
30
0
41
1
10
131.549502640016
20
8.281766875524
30
0
41
1
10
131.695740206017
20
8.81625523455745
30
0
41
1
10
131.768858989017
20
9.05726838985737
30
0
41
1
10
131.915096555017
20
9.4830745271401
30
0
41
1
10
131.988215338018
20
9.6678708686886
30
0
41
1
10
132.134452904018
20
9.98051917322314
30
0
41
1
10
132.207571687018
20
10.1083855245532
30
0
41
1
10
132.353809253019
20
10.3092260885662
30
0
41
1
10
132.426928036019
20
10.3822215933781
30
0
41
1
10
132.573165602019
20
10.4775967528344
30
0
41
1
10
132.64628438502
20
10.5
30
0
41
1
10
132.71940316802
20
10.5
30
0
0
SPLINE
5
F2
100
AcDbEntity
8
1
62
256
6
ByLayer
370
13
48
1
60
0
100
AcDbSpline
70
4
71
3
72
44
73
40
40
0
40
0
40
0
40
0
40
0.0625000000000016
40
0.0625000000000016
40
0.125000000000003
40
0.125000000000003
40
0.187500000000005
40
0.187500000000005
40
0.250000000000007
40
0.250000000000007
40
0.312500000000008
40
0.312500000000008
40
0.37500000000001
40
0.37500000000001
40
0.437500000000012
40
0.437500000000012
40
0.500000000000013
40
0.500000000000013
40
0.562500000000015
40
0.562500000000015
40
0.593750000000016
40
0.593750000000016
40
0.601562500000016
40
0.601562500000016
40
0.609375000000016
40
0.609375000000016
40
0.625000000000015
40
0.625000000000015
40
0.687500000000013
40
0.687500000000013
40
0.75000000000001
40
0.75000000000001
40
0.812500000000008
40
0.812500000000008
40
0.875000000000005
40
0.875000000000005
40
0.937500000000003
40
0.937500000000003
40
1
40
1
40
1
40
1
41
1
10
132.133229170704
20
10.5
30
0
41
1
10
132.227918407569
20
10.5
30
0
41
1
10
132.322607644433
20
10.4623668657703
30
0
41
1
10
132.511986118163
20
10.2997391496172
30
0
41
1
10
132.606675355027
20
10.1746599609727
30
0
41
1
10
132.796053828757
20
9.82975238344363
30
0
41
1
10
132.890743065621
20
9.60985978601823
30
0
41
1
10
133.08012153935
20
9.07514157210559
30
0
41
1
10
133.174810776215
20
8.76029881944572
30
0
41
1
10
133.364189249944
20
8.04401887727005
30
0
41
1
10
133.458878486809
20
7.64262615387864
30
0
41
1
10
133.648256960538
20
6.76973452912239
30
0
41
1
10
133.742946197402
20
6.29833347215322
30
0
41
1
10
133.932324671132
20
5.30787252072386
30
0
41
1
10
134.027013907996
20
4.7889345734655
30
0
41
1
10
134.216392381725
20
3.72838127176789
30
0
41
1
10
134.31108161859
20
3.18687594433007
30
0
41
1
10
134.500460092319
20
2.10508687747802
30
0
41
1
10
134.595149329184
20
1.56487531864101
30
0
41
1
10
134.737183184481
20
0.770473103808769
30
0
41
1
10
134.784527802913
20
0.508287789037723
30
0
41
1
10
134.843708575953
20
0.185071396194502
30
0
41
1
10
134.855544730561
20
0.120653031316351
30
0
41
1
10
134.879217039778
20
-0.0077061377823497
30
0
41
1
10
134.891053194386
20
-0.0716878493475974
30
0
41
1
10
134.92656165821
20
-0.264810821325938
30
0
41
1
10
134.950233967426
20
-0.394492717576412
30
0
41
1
10
135.068595513507
20
-1.04698868299332
30
0
41
1
10
135.163284750371
20
-1.58226852500806
30
0
41
1
10
135.352663224101
20
-2.66115991499743
30
0
41
1
10
135.447352460965
20
-3.20471402116073
30
0
41
1
10
135.636730934694
20
-4.27735148975327
30
0
41
1
10
135.731420171559
20
-4.8063350645553
30
0
41
1
10
135.920798645288
20
-5.82487028126945
30
0
41
1
10
136.015487882153
20
-6.31430008164494
30
0
41
1
10
136.204866355882
20
-7.23002939476749
30
0
41
1
10
136.299555592746
20
-7.65621937036454
30
0
41
1
10
136.488934066476
20
-8.42664489787586
30
0
41
1
10
136.58362330334
20
-8.77081662814578
30
0
41
1
10
136.678312540205
20
-9.06839599877407
30
0
0
SPLINE
5
F3
100
AcDbEntity
8
1
62
256
6
ByLayer
370
13
48
1
60
0
100
AcDbSpline
70
4
71
3
72
77
73
73
40
0
40
0
40
0
40
0
40
0.0312499999999998
40
0.0312499999999998
40
0.0624999999999996
40
0.0624999999999996
40
0.0937499999999994
40
0.0937499999999994
40
0.124999999999999
40
0.124999999999999
40
0.156249999999999
40
0.156249999999999
40
0.164062499999999
40
0.164062499999999
40
0.171874999999998
40
0.187499999999998
40
0.187499999999998
40
0.218749999999998
40
0.218749999999998
40
0.249999999999999
40
0.249999999999999
40
0.281249999999999
40
0.281249999999999
40
0.312499999999999
40
0.312499999999999
40
0.343749999999999
40
0.343749999999999
40
0.374999999999999
40
0.374999999999999
40
0.406249999999999
40
0.406249999999999
40
0.437499999999999
40
0.437499999999999
40
0.468749999999999
40
0.468749999999999
40
0.499999999999999
40
0.499999999999999
40
0.531249999999999
40
0.531249999999999
40
0.562499999999999
40
0.562499999999999
40
0.578125
40
0.578125
40
0.5859375
40
0.5859375
40
0.59375
40
0.59375
40
0.625
40
0.625
40
0.65625
40
0.65625
40
0.6875
40
0.6875
40
0.71875
40
0.71875
40
0.75
40
0.75
40
0.78125
40
0.78125
40
0.8125
40
0.8125
40
0.84375
40
0.84375
40
0.875
40
0.875
40
0.90625
40
0.90625
40
0.9375
40
0.9375
40
0.96875
40
0.96875
40
1
40
1
40
1
40
1
41
1
10
125.7
20
-8.76722768772427
30
0
41
1
10
125.767963952374
20
-9.00186636241989
30
0
41
1
10
125.835927904748
20
-9.21326985095212
30
0
41
1
10
125.971855809495
20
-9.58718829693527
30
0
41
1
10
126.039819761869
20
-9.74970738526625
30
0
41
1
10
126.175747666617
20
-10.0256876094585
30
0
41
1
10
126.24371161899
20
-10.1391596029832
30
0
41
1
10
126.379639523738
20
-10.3189009758925
30
0
41
1
10
126.447603476112
20
-10.3851853583042
30
0
41
1
10
126.583531380859
20
-10.4740331143901
30
0
41
1
10
126.651495333233
20
-10.4966128744267
30
0
41
1
10
126.7364502737
20
-10.5004034633219
30
0
41
1
10
126.753441261793
20
-10.4999536189871
30
0
41
1
10
126.78742323798
20
-10.496596208038
30
0
41
1
10
126.838396202261
20
-10.4878585417841
30
0
41
1
10
126.889369166541
20
-10.4676694612716
30
0
41
1
10
126.991315095102
20
-10.4111752586608
30
0
41
1
10
127.059279047475
20
-10.3519818749871
30
0
41
1
10
127.195206952223
20
-10.1868716217728
30
0
41
1
10
127.263170904597
20
-10.0809393563456
30
0
41
1
10
127.399098809344
20
-9.82020520131573
30
0
41
1
10
127.467062761718
20
-9.66539162303806
30
0
41
1
10
127.602990666466
20
-9.30671481356501
30
0
41
1
10
127.670954618839
20
-9.10284626012898
30
0
41
1
10
127.806882523587
20
-8.64811067490044
30
0
41
1
10
127.874846475961
20
-8.39724652003952
30
0
41
1
10
128.010774380708
20
-7.85284473908035
30
0
41
1
10
128.078738333082
20
-7.55931852768481
30
0
41
1
10
128.21466623783
20
-6.93597672412594
30
0
41
1
10
128.282630190203
20
-6.60617965143189
30
0
41
1
10
128.418558094951
20
-5.91828301700536
30
0
41
1
10
128.486522047325
20
-5.56020615873913
30
0
41
1
10
128.622449952072
20
-4.82470879661469
30
0
41
1
10
128.690413904446
20
-4.44731154113117
30
0
41
1
10
128.826341809194
20
-3.68240049738148
30
0
41
1
10
128.894305761567
20
-3.29490710025294
30
0
41
1
10
129.030233666315
20
-2.51863196038562
30
0
41
1
10
129.098197618689
20
-2.12986536294903
30
0
41
1
10
129.234125523436
20
-1.3589319327551
30
0
41
1
10
129.30208947581
20
-0.976773980083806
30
0
41
1
10
129.404035404371
20
-0.413425610763511
30
0
41
1
10
129.438017380558
20
-0.227279945264144
30
0
41
1
10
129.488990344838
20
0.0489695083381889
30
0
41
1
10
129.505981332931
20
0.141007428021794
30
0
41
1
10
129.539963309118
20
0.326493744075862
30
0
41
1
10
129.556954297211
20
0.419702914094756
30
0
41
1
10
129.641909237679
20
0.887862185032162
30
0
41
1
10
129.709873190053
20
1.26920854117802
30
0
41
1
10
129.8458010948
20
2.03908239406772
30
0
41
1
10
129.913765047174
20
2.42760150358234
30
0
41
1
10
130.049692951921
20
3.20403650900227
30
0
41
1
10
130.117656904295
20
3.59193773033968
30
0
41
1
10
130.253584809043
20
4.35837555292585
30
0
41
1
10
130.321548761416
20
4.73689210349437
30
0
41
1
10
130.457476666164
20
5.47534794022849
30
0
41
1
10
130.525440618538
20
5.83526408786972
30
0
41
1
10
130.661368523285
20
6.52751328600687
30
0
41
1
10
130.729332475659
20
6.85982345662515
30
0
41
1
10
130.865260380407
20
7.48876573073355
30
0
41
1
10
130.93322433278
20
7.78537886781396
30
0
41
1
10
131.069152237528
20
8.33638474107639
30
0
41
1
10
131.137116189902
20
8.59076543357565
30
0
41
1
10
131.273044094649
20
9.05279252220762
30
0
41
1
10
131.341008047023
20
9.26043536425425
30
0
41
1
10
131.476935951771
20
9.62673972314423
30
0
41
1
10
131.544899904145
20
9.78540597201919
30
0
41
1
10
131.680827808892
20
10.0537568566495
30
0
41
1
10
131.748791761266
20
10.1634527737751
30
0
41
1
10
131.884719666013
20
10.3358612922401
30
0
41
1
10
131.952683618387
20
10.3985891015705
30
0
41
1
10
132.088611523135
20
10.4806502614594
30
0
41
1
10
132.156575475508
20
10.5
30
0
41
1
10
132.224539427882
20
10.5
30
0
0
SPLINE
5
F4
100
AcDbEntity
8
1
62
256
6
ByLayer
370
13
48
1
60
0
100
AcDbSpline
70
4
71
3
72
58
73
54
40
0
40
0
40
0
40
0
40
0.0624999999999999
40
0.0624999999999999
40
0.125
40
0.125
40
0.1875
40
0.1875
40
0.21875
40
0.21875
40
0.249999999999999
40
0.249999999999999
40
0.281249999999999
40
0.281249999999999
40
0.312499999999999
40
0.312499999999999
40
0.343749999999999
40
0.343749999999999
40
0.374999999999999
40
0.374999999999999
40
0.437499999999998
40
0.437499999999998
40
0.499999999999997
40
0.499999999999997
40
0.531249999999997
40
0.531249999999997
40
0.539062499999997
40
0.539062499999997
40
0.546874999999997
40
0.546874999999997
40
0.562499999999997
40
0.562499999999997
40
0.624999999999997
40
0.624999999999997
40
0.687499999999998
40
0.687499999999998
40
0.718749999999998
40
0.718749999999998
40
0.749999999999998
40
0.749999999999998
40
0.781249999999999
40
0.781249999999999
40
0.812499999999999
40
0.812499999999999
40
0.843749999999999
40
0.843749999999999
40
0.874999999999999
40
0.874999999999999
40
0.90625
40
0.90625
40
0.9375
40
0.9375
40
1
40
1
40
1
40
1
41
1
10
131.638365430567
20
10.5
30
0
41
1
10
131.743364328684
20
10.5
30
0
41
1
10
131.848363226802
20
10.453679471563
30
0
41
1
10
132.058361023037
20
10.2521980880356
30
0
41
1
10
132.163359921154
20
10.0968973428554
30
0
41
1
10
132.373357717389
20
9.66875637712275
30
0
41
1
10
132.478356615506
20
9.39582269613291
30
0
41
1
10
132.635854962683
20
8.90035684421346
30
0
41
1
10
132.688354411741
20
8.72095640729003
30
0
41
1
10
132.793353309859
20
8.33524469606255
30
0
41
1
10
132.845852758917
20
8.12893537376607
30
0
41
1
10
132.950851657035
20
7.69176966308333
30
0
41
1
10
133.003351106094
20
7.46091698462169
30
0
41
1
10
133.108350004211
20
6.97772692970372
30
0
41
1
10
133.16084945327
20
6.72539471090235
30
0
41
1
10
133.265848351387
20
6.20287210933492
30
0
41
1
10
133.318347800446
20
5.93268783980076
30
0
41
1
10
133.423346698564
20
5.37848070762331
30
0
41
1
10
133.475846147622
20
5.0944643188686
30
0
41
1
10
133.633344494799
20
4.22798939615026
30
0
41
1
10
133.738343392916
20
3.63120809848664
30
0
41
1
10
133.948341189151
20
2.43252335097762
30
0
41
1
10
134.053340087268
20
1.83075812778321
30
0
41
1
10
134.210838434445
20
0.945641326973686
30
0
41
1
10
134.263337883503
20
0.653471945642508
30
0
41
1
10
134.328962194827
20
0.293605741498283
30
0
41
1
10
134.342087057092
20
0.221898504795348
30
0
41
1
10
134.368336781621
20
0.079054870261217
30
0
41
1
10
134.381461643885
20
0.0081148442576193
30
0
41
1
10
134.420836230679
20
-0.205441681689194
30
0
41
1
10
134.447085955209
20
-0.348985951263273
30
0
41
1
10
134.578334577856
20
-1.07179316472906
30
0
41
1
10
134.683333475973
20
-1.66662388285471
30
0
41
1
10
134.893331272208
20
-2.86435849701078
30
0
41
1
10
134.998330170325
20
-3.46715929038319
30
0
41
1
10
135.155828517502
20
-4.35359185211473
30
0
41
1
10
135.20832796656
20
-4.64606654504294
30
0
41
1
10
135.313326864678
20
-5.22078212091503
30
0
41
1
10
135.365826313737
20
-5.50301669965745
30
0
41
1
10
135.470825211854
20
-6.05304846468925
30
0
41
1
10
135.523324660913
20
-6.32083919159416
30
0
41
1
10
135.62832355903
20
-6.83800912573571
30
0
41
1
10
135.680823008089
20
-7.08738232497663
30
0
41
1
10
135.785821906207
20
-7.56416194079452
30
0
41
1
10
135.838321355265
20
-7.79156338639783
30
0
41
1
10
135.943320253383
20
-8.22143000169078
30
0
41
1
10
135.995819702441
20
-8.42389170697274
30
0
41
1
10
136.100818600559
20
-8.80162333040062
30
0
41
1
10
136.153318049618
20
-8.97689156928683
30
0
41
1
10
136.258316947735
20
-9.29877276575314
30
0
41
1
10
136.310816396794
20
-9.44538588013486
30
0
41
1
10
136.46831474397
20
-9.84126930735869
30
0
41
1
10
136.573313642087
20
-10.0462351037817
30
0
41
1
10
136.678312540205
20
-10.1942021128439
30
0
0
SPLINE
5
F5
100
AcDbEntity
8
1
62
256
6
ByLayer
370
13
48
1
60
0
100
AcDbSpline
70
4
71
3
72
78
73
74
40
0
40
0
40
0
40
0
40
0.0312500000000004
40
0.0312500000000004
40
0.0625000000000008
40
0.0625000000000008
40
0.0781250000000007
40
0.0781250000000007
40
0.0859375000000009
40
0.0859375000000009
40
0.0937500000000012
40
0.0937500000000012
40
0.125000000000001
40
0.125000000000001
40
0.156250000000001
40
0.156250000000001
40
0.187500000000001
40
0.187500000000001
40
0.218750000000001
40
0.218750000000001
40
0.250000000000001
40
0.250000000000001
40
0.281250000000001
40
0.281250000000001
40
0.312500000000001
40
0.312500000000001
40
0.343750000000001
40
0.343750000000001
40
0.375
40
0.375
40
0.40625
40
0.40625
40
0.4375
40
0.4375
40
0.46875
40
0.46875
40
0.5
40
0.5
40
0.53125
40
0.53125
40
0.5390625
40
0.5390625
40
0.546875000000001
40
0.546875000000001
40
0.562500000000001
40
0.562500000000001
40
0.593750000000001
40
0.593750000000001
40
0.625000000000001
40
0.625000000000001
40
0.656250000000001
40
0.656250000000001
40
0.6875
40
0.6875
40
0.71875
40
0.71875
40
0.75
40
0.75
40
0.78125
40
0.78125
40
0.8125
40
0.8125
40
0.84375
40
0.84375
40
0.875
40
0.875
40
0.90625
40
0.90625
40
0.9375
40
0.9375
40
0.96875
40
0.96875
40
1
40
1
40
1
40
1
41
1
10
125.7
20
-10.0511682980712
30
0
41
1
10
125.762809121747
20
-10.1594973551393
30
0
41
1
10
125.825618243495
20
-10.2471379539448
30
0
41
1
10
125.951236486989
20
-10.3830296835828
30
0
41
1
10
126.014045608737
20
-10.4312914720771
30
0
41
1
10
126.108259291358
20
-10.4764454255836
30
0
41
1
10
126.139663852231
20
-10.4869642482431
30
0
41
1
10
126.186770693542
20
-10.496284782701
30
0
41
1
10
126.202472973979
20
-10.4983156701038
30
0
41
1
10
126.233877534852
20
-10.5002858524976
30
0
41
1
10
126.249579815289
20
-10.500233308928
30
0
41
1
10
126.328091217473
20
-10.4947705698395
30
0
41
1
10
126.390900339221
20
-10.4736178692519
30
0
41
1
10
126.516518582716
20
-10.394124201393
30
0
41
1
10
126.579327704463
20
-10.3357721756602
30
0
41
1
10
126.704945947957
20
-10.1790559169049
30
0
41
1
10
126.767755069705
20
-10.0806813687584
30
0
41
1
10
126.8933733132
20
-9.84224252892437
30
0
41
1
10
126.956182434947
20
-9.70217024943452
30
0
41
1
10
127.081800678441
20
-9.38008567291632
30
0
41
1
10
127.144609800189
20
-9.19806926187081
30
0
41
1
10
127.270228043684
20
-8.79346075393312
30
0
41
1
10
127.333037165431
20
-8.57086954959857
30
0
41
1
10
127.458655408925
20
-8.08814253728909
30
0
41
1
10
127.521464530673
20
-7.82801300250361
30
0
41
1
10
127.647082774168
20
-7.27480026147214
30
0
41
1
10
127.709891895915
20
-6.98172814094769
30
0
41
1
10
127.835510139409
20
-6.36851747848758
30
0
41
1
10
127.898319261157
20
-6.04839339193711
30
0
41
1
10
128.023937504652
20
-5.38787289040246
30
0
41
1
10
128.086746626399
20
-5.047492297963
30
0
41
1
10
128.212364869894
20
-4.35369741313022
30
0
41
1
10
128.275173991641
20
-4.0002982088202
30
0
41
1
10
128.400792235136
20
-3.28767754341544
30
0
41
1
10
128.463601356883
20
-2.92846868512163
30
0
41
1
10
128.589219600378
20
-2.21099128553857
30
0
41
1
10
128.652028722125
20
-1.85273176338634
30
0
41
1
10
128.77764696562
20
-1.14313881832703
30
0
41
1
10
128.840456087367
20
-0.791810474448766
30
0
41
1
10
128.918967489551
20
-0.360101856262872
30
0
41
1
10
128.934669769988
20
-0.274130147256784
30
0
41
1
10
128.966074330862
20
-0.10299423270726
30
0
41
1
10
128.981776611298
20
-0.0181019914384706
30
0
41
1
10
129.028883452609
20
0.237431491562347
30
0
41
1
10
129.060288013483
20
0.40946531231566
30
0
41
1
10
129.154501696104
20
0.929790296924097
30
0
41
1
10
129.217310817851
20
1.28233721460089
30
0
41
1
10
129.342929061346
20
1.99363478080761
30
0
41
1
10
129.405738183093
20
2.3523798368029
30
0
41
1
10
129.531356426588
20
3.06997898867559
30
0
41
1
10
129.594165548335
20
3.42882355847351
30
0
41
1
10
129.71978379183
20
4.13978608579239
30
0
41
1
10
129.782592913577
20
4.49189103533359
30
0
41
1
10
129.908211157072
20
5.1821382127811
30
0
41
1
10
129.971020278819
20
5.52026514472436
30
0
41
1
10
130.096638522314
20
6.17534965431486
30
0
41
1
10
130.159447644061
20
6.49229146637245
30
0
41
1
10
130.285065887556
20
7.09830208461463
30
0
41
1
10
130.347875009303
20
7.38735677169456
30
0
41
1
10
130.473493252798
20
7.93184907250617
30
0
41
1
10
130.536302374545
20
8.18727616721119
30
0
41
1
10
130.66192061804
20
8.66010559879885
30
0
41
1
10
130.724729739787
20
8.87750235794846
30
0
41
1
10
130.850347983282
20
9.27144573116854
30
0
41
1
10
130.913157105029
20
9.4479921511001
30
0
41
1
10
131.038775348524
20
9.75907913664025
30
0
41
1
10
131.101584470271
20
9.8936244027837
30
0
41
1
10
131.227202713766
20
10.121152726782
30
0
41
1
10
131.290011835513
20
10.2141441709837
30
0
41
1
10
131.415630079008
20
10.3604063092993
30
0
41
1
10
131.478439200755
20
10.4136875035163
30
0
41
1
10
131.60405744425
20
10.4834788240817
30
0
41
1
10
131.666866565997
20
10.5
30
0
41
1
10
131.729675687745
20
10.5
30
0
0
SPLINE
5
F6
100
AcDbEntity
8
1
62
256
6
ByLayer
370
13
48
1
60
0
100
AcDbSpline
70
4
71
3
72
78
73
74
40
0
40
0
40
0
40
0
40
0.03125
40
0.03125
40
0.0625000000000001
40
0.0625000000000001
40
0.0937500000000001
40
0.0937500000000001
40
0.125
40
0.125
40
0.15625
40
0.15625
40
0.1875
40
0.1875
40
0.21875
40
0.21875
40
0.25
40
0.25
40
0.28125
40
0.28125
40
0.3125
40
0.3125
40
0.34375
40
0.34375
40
0.375
40
0.375
40
0.40625
40
0.40625
40
0.4375
40
0.4375
40
0.46875
40
0.46875
40
0.484375000000001
40
0.484375000000001
40
0.492187500000001
40
0.492187500000001
40
0.500000000000001
40
0.500000000000001
40
0.531250000000001
40
0.531250000000001
40
0.562500000000001
40
0.562500000000001
40
0.593750000000001
40
0.593750000000001
40
0.625000000000001
40
0.625000000000001
40
0.656250000000001
40
0.656250000000001
40
0.687500000000001
40
0.687500000000001
40
0.718750000000001
40
0.718750000000001
40
0.750000000000001
40
0.750000000000001
40
0.781250000000001
40
0.781250000000001
40
0.812500000000001
40
0.812500000000001
40
0.843750000000001
40
0.843750000000001
40
0.875000000000001
40
0.875000000000001
40
0.906250000000001
40
0.906250000000001
40
0.9375
40
0.9375
40
0.96875
40
0.96875
40
0.984375
40
0.984375
40
0.9921875
40
0.9921875
40
1
40
1
40
1
40
1
41
1
10
131.143501690429
20
10.5
30
0
41
1
10
131.201155970114
20
10.5
30
0
41
1
10
131.258810249799
20
10.4860829019268
30
0
41
1
10
131.37411880917
20
10.4275274343655
30
0
41
1
10
131.431773088855
20
10.3828818688037
30
0
41
1
10
131.547081648225
20
10.2605009867621
30
0
41
1
10
131.604735927911
20
10.1827586943111
30
0
41
1
10
131.720044487281
20
9.99256339553054
30
0
41
1
10
131.777698766966
20
9.88010447800758
30
0
41
1
10
131.893007326336
20
9.61979919994656
30
0
41
1
10
131.950661606021
20
9.47194887706274
30
0
41
1
10
132.065970165392
20
9.14127981183671
30
0
41
1
10
132.123624445077
20
8.9584598131203
30
0
41
1
10
132.238933004447
20
8.55944719550214
30
0
41
1
10
132.296587284132
20
8.34325648045359
30
0
41
1
10
132.411895843503
20
7.88026669117642
30
0
41
1
10
132.469550123188
20
7.63347269802006
30
0
41
1
10
132.584858682558
20
7.11310389938626
30
0
41
1
10
132.642512962244
20
6.83953688681552
30
0
41
1
10
132.757821521614
20
6.27031749956524
30
0
41
1
10
132.815475801299
20
5.97467474967419
30
0
41
1
10
132.930784360669
20
5.36660220645732
30
0
41
1
10
132.988438640354
20
5.05418274256303
30
0
41
1
10
133.103747199725
20
4.41815410806348
30
0
41
1
10
133.16140147941
20
4.09455481628368
30
0
41
1
10
133.27671003878
20
3.44175532584558
30
0
41
1
10
133.334364318465
20
3.11256358049405
30
0
41
1
10
133.449672877836
20
2.4538809102589
30
0
41
1
10
133.507327157521
20
2.12439636228441
30
0
41
1
10
133.622635716891
20
1.46991809262926
30
0
41
1
10
133.680289996576
20
1.14492839737076
30
0
41
1
10
133.766771416104
20
0.66390310972136
30
0
41
1
10
133.795598555947
20
0.504632305448695
30
0
41
1
10
133.838839265711
20
0.267665919017958
30
0
41
1
10
133.853252835632
20
0.189000053730467
30
0
41
1
10
133.882079975475
20
0.032365235453284
30
0
41
1
10
133.896493545396
20
-0.0454456505886185
30
0
41
1
10
133.968561395002
20
-0.437226761711116
30
0
41
1
10
134.026215674687
20
-0.756234723898757
30
0
41
1
10
134.141524234058
20
-1.40185073737257
30
0
41
1
10
134.199178513743
20
-1.72845646387068
30
0
41
1
10
134.314487073113
20
-2.38496349217038
30
0
41
1
10
134.372141352798
20
-2.7148601411069
30
0
41
1
10
134.487449912169
20
-3.37301042160593
30
0
41
1
10
134.545104191854
20
-3.70125708610533
30
0
41
1
10
134.660412751224
20
-4.3507094075743
30
0
41
1
10
134.718067030909
20
-4.67190615677359
30
0
41
1
10
134.83337559028
20
-5.30164121916766
30
0
41
1
10
134.891029869965
20
-5.61016942928643
30
0
41
1
10
135.006338429335
20
-6.2090189666516
30
0
41
1
10
135.06399270902
20
-6.49933003536424
30
0
41
1
10
135.179301268391
20
-7.05657553150965
30
0
41
1
10
135.236955548076
20
-7.32350071460826
30
0
41
1
10
135.352264107446
20
-7.82948050536154
30
0
41
1
10
135.409918387131
20
-8.06852796510444
30
0
41
1
10
135.525226946502
20
-8.51518411443573
30
0
41
1
10
135.582881226187
20
-8.72278853585453
30
0
41
1
10
135.698189785557
20
-9.1040900787834
30
0
41
1
10
135.755844065242
20
-9.27778615181074
30
0
41
1
10
135.871152624613
20
-9.58998274708722
30
0
41
1
10
135.928806904298
20
-9.72848529941018
30
0
41
1
10
136.044115463668
20
-9.97017116530293
30
0
41
1
10
136.101769743353
20
-10.0733590375941
30
0
41
1
10
136.217078302724
20
-10.2453551138828
30
0
41
1
10
136.274732582409
20
-10.3141695970768
30
0
41
1
10
136.390041141779
20
-10.4192558395742
30
0
41
1
10
136.447695421464
20
-10.4555347101313
30
0
41
1
10
136.534176840992
20
-10.4874434706102
30
0
41
1
10
136.563003980835
20
-10.4943328623129
30
0
41
1
10
136.606244690598
20
-10.4993182472552
30
0
41
1
10
136.62065826052
20
-10.5000889446174
30
0
41
1
10
136.649485400362
20
-10.4998948029105
30
0
41
1
10
136.663898970283
20
-10.4989275688448
30
0
41
1
10
136.678312540205
20
-10.4970664848188
30
0
0
SPLINE
5
F7
100
AcDbEntity
8
1
62
256
6
ByLayer
370
13
48
1
60
0
100
AcDbSpline
70
4
71
3
72
77
73
73
40
0
40
0
40
0
40
0
40
0.0078125000000001
40
0.0078125000000001
40
0.0156250000000001
40
0.0156250000000001
40
0.0312500000000002
40
0.0312500000000002
40
0.0625
40
0.0625
40
0.0937499999999998
40
0.0937499999999998
40
0.125
40
0.125
40
0.156249999999999
40
0.156249999999999
40
0.187499999999999
40
0.187499999999999
40
0.218749999999999
40
0.218749999999999
40
0.249999999999999
40
0.249999999999999
40
0.281249999999999
40
0.281249999999999
40
0.312499999999998
40
0.312499999999998
40
0.343749999999998
40
0.343749999999998
40
0.374999999999998
40
0.374999999999998
40
0.406249999999997
40
0.406249999999997
40
0.437499999999997
40
0.437499999999997
40
0.468749999999997
40
0.468749999999997
40
0.499999999999997
40
0.499999999999997
40
0.507812499999997
40
0.507812499999997
40
0.515624999999997
40
0.531249999999997
40
0.531249999999997
40
0.562499999999997
40
0.562499999999997
40
0.593749999999997
40
0.593749999999997
40
0.624999999999997
40
0.624999999999997
40
0.656249999999998
40
0.656249999999998
40
0.687499999999998
40
0.687499999999998
40
0.718749999999998
40
0.718749999999998
40
0.749999999999998
40
0.749999999999998
40
0.781249999999998
40
0.781249999999998
40
0.812499999999999
40
0.812499999999999
40
0.843749999999999
40
0.843749999999999
40
0.874999999999999
40
0.874999999999999
40
0.906249999999999
40
0.906249999999999
40
0.9375
40
0.9375
40
0.96875
40
0.96875
40
1
40
1
40
1
40
1
41
1
10
125.7
20
-10.4970663430648
30
0
41
1
10
125.71441357278
20
-10.4989274728446
30
0
41
1
10
125.728827145561
20
-10.499894751717
30
0
41
1
10
125.757654291121
20
-10.5000889811361
30
0
41
1
10
125.772067863901
20
-10.4993183276334
30
0
41
1
10
125.815308582242
20
-10.4943330753376
30
0
41
1
10
125.844135727802
20
-10.4874437729951
30
0
41
1
10
125.930617164484
20
-10.455535282571
30
0
41
1
10
125.988271455605
20
-10.4192565947084
30
0
41
1
10
126.103580037846
20
-10.3141707178887
30
0
41
1
10
126.161234328967
20
-10.2453564176684
30
0
41
1
10
126.276542911209
20
-10.0733607018509
30
0
41
1
10
126.33419720233
20
-9.97017300704354
30
0
41
1
10
126.449505784572
20
-9.72848748449675
30
0
41
1
10
126.507160075693
20
-9.58998509801944
30
0
41
1
10
126.622468657935
20
-9.27778881674217
30
0
41
1
10
126.680122949056
20
-9.10409289185105
30
0
41
1
10
126.795431531297
20
-8.72279162202284
30
0
41
1
10
126.853085822418
20
-8.51518732555289
30
0
41
1
10
126.96839440466
20
-8.06853139856264
30
0
41
1
10
127.026048695781
20
-7.82948403620068
30
0
41
1
10
127.141357278023
20
-7.32350440977575
30
0
41
1
10
127.199011569143
20
-7.05657929361954
30
0
41
1
10
127.314320151385
20
-6.49933389980882
30
0
41
1
10
127.371974442506
20
-6.20902286649039
30
0
41
1
10
127.487283024748
20
-5.61017336905655
30
0
41
1
10
127.544937315869
20
-5.30164516348319
30
0
41
1
10
127.660245898111
20
-4.67191008166901
30
0
41
1
10
127.717900189232
20
-4.35071330851719
30
0
41
1
10
127.833208771474
20
-3.70126091430481
30
0
41
1
10
127.890863062594
20
-3.37301420102983
30
0
41
1
10
128.006171644836
20
-2.7148638027073
30
0
41
1
10
128.063825935957
20
-2.38496708473804
30
0
41
1
10
128.179134518199
20
-1.72845990309395
30
0
41
1
10
128.23678880932
20
-1.40185409229736
30
0
41
1
10
128.352097391562
20
-0.756237899937958
30
0
41
1
10
128.409751682683
20
-0.437229843173071
30
0
41
1
10
128.481819546584
20
-0.0454486102980525
30
0
41
1
10
128.496233119364
20
0.0323622926458711
30
0
41
1
10
128.525060264924
20
0.188997124580595
30
0
41
1
10
128.568300983265
20
0.424993995991486
30
0
41
1
10
128.611541701606
20
0.66390022829458
30
0
41
1
10
128.698023138287
20
1.14492557318994
30
0
41
1
10
128.755677429408
20
1.46991531391527
30
0
41
1
10
128.87098601165
20
2.1243936887289
30
0
41
1
10
128.928640302771
20
2.45387829639759
30
0
41
1
10
129.043948885013
20
3.11256109900975
30
0
41
1
10
129.101603176133
20
3.44175291704366
30
0
41
1
10
129.216911758375
20
4.09455256369907
30
0
41
1
10
129.274566049496
20
4.41815193900976
30
0
41
1
10
129.389874631738
20
5.05418074845363
30
0
41
1
10
129.447528922859
20
5.36660030375376
30
0
41
1
10
129.562837505101
20
5.97467303403693
30
0
41
1
10
129.620491796222
20
6.27031587957805
30
0
41
1
10
129.735800378463
20
6.83953545837235
30
0
41
1
10
129.793454669584
20
7.11310256682526
30
0
41
1
10
129.908763251826
20
7.63347155341384
30
0
41
1
10
129.966417542947
20
7.88026563863144
30
0
41
1
10
130.081726125189
20
8.34325560448124
30
0
41
1
10
130.13938041631
20
8.55944640403197
30
0
41
1
10
130.254688998552
20
8.95845917999364
30
0
41
1
10
130.312343289672
20
9.14127925254559
30
0
41
1
10
130.427651871914
20
9.47194845252926
30
0
41
1
10
130.485306163035
20
9.61979883633342
30
0
41
1
10
130.600614745277
20
9.88010422204115
30
0
41
1
10
130.658269036398
20
9.99256318629256
30
0
41
1
10
130.77357761864
20
10.1827585640214
30
0
41
1
10
130.831231909761
20
10.2605008886973
30
0
41
1
10
130.946540492002
20
10.3828818212228
30
0
41
1
10
131.004194783123
20
10.4275274050503
30
0
41
1
10
131.119503365365
20
10.4860828963985
30
0
41
1
10
131.177157656486
20
10.5
30
0
41
1
10
131.234811947607
20
10.5
30
0
0
SPLINE
5
F8
100
AcDbEntity
8
1
62
256
6
ByLayer
370
13
48
1
60
0
100
AcDbSpline
70
4
71
3
72
77
73
73
40
0
40
0
40
0
40
0
40
0.0312499999999991
40
0.0312499999999991
40
0.0624999999999982
40
0.0624999999999982
40
0.0937499999999973
40
0.0937499999999973
40
0.124999999999996
40
0.124999999999996
40
0.156249999999996
40
0.156249999999996
40
0.187499999999995
40
0.187499999999995
40
0.218749999999994
40
0.218749999999994
40
0.249999999999993
40
0.249999999999993
40
0.281249999999992
40
0.281249999999992
40
0.312499999999991
40
0.312499999999991
40
0.34374999999999
40
0.34374999999999
40
0.374999999999989
40
0.374999999999989
40
0.406249999999988
40
0.406249999999988
40
0.437499999999987
40
0.437499999999987
40
0.453124999999987
40
0.453124999999987
40
0.460937499999987
40
0.460937499999987
40
0.468749999999987
40
0.468749999999987
40
0.499999999999988
40
0.499999999999988
40
0.531249999999989
40
0.531249999999989
40
0.56249999999999
40
0.56249999999999
40
0.59374999999999
40
0.59374999999999
40
0.624999999999991
40
0.624999999999991
40
0.656249999999992
40
0.656249999999992
40
0.687499999999993
40
0.687499999999993
40
0.718749999999994
40
0.718749999999994
40
0.749999999999995
40
0.749999999999995
40
0.781249999999996
40
0.781249999999996
40
0.812499999999997
40
0.812499999999997
40
0.843749999999998
40
0.843749999999998
40
0.874999999999999
40
0.874999999999999
40
0.906249999999999
40
0.906249999999999
40
0.914062499999999
40
0.914062499999999
40
0.921874999999999
40
0.937499999999999
40
0.937499999999999
40
0.96875
40
0.96875
40
1
40
1
40
1
40
1
41
1
10
130.648637950292
20
10.5
30
0
41
1
10
130.711447060603
20
10.5
30
0
41
1
10
130.774256170915
20
10.4834788301076
30
0
41
1
10
130.899874391538
20
10.4136875356115
30
0
41
1
10
130.96268350185
20
10.360406361448
30
0
41
1
10
131.088301722473
20
10.214144278616
30
0
41
1
10
131.151110832784
20
10.1211528698534
30
0
41
1
10
131.276729053408
20
9.89362463254977
30
0
41
1
10
131.339538163719
20
9.75907941766775
30
0
41
1
10
131.465156384342
20
9.44799254975285
30
0
41
1
10
131.527965494654
20
9.27144619618619
30
0
41
1
10
131.653583715277
20
8.87750296881779
30
0
41
1
10
131.716392825589
20
8.66010628914995
30
0
41
1
10
131.842011046212
20
8.18727702645648
30
0
41
1
10
131.904820156524
20
7.93185002115297
30
0
41
1
10
132.030438377147
20
7.3873579049131
30
0
41
1
10
132.093247487458
20
7.09830331298824
30
0
41
1
10
132.218865708081
20
6.49229288609089
30
0
41
1
10
132.281674818393
20
6.17535117020631
30
0
41
1
10
132.407293039016
20
5.52026684918013
30
0
41
1
10
132.470102149328
20
5.18214000961294
30
0
41
1
10
132.595720369951
20
4.49189300872882
30
0
41
1
10
132.658529480263
20
4.13978814336377
30
0
41
1
10
132.784147700886
20
3.42882577261719
30
0
41
1
10
132.846956811197
20
3.06998127520964
30
0
41
1
10
132.972575031821
20
2.35238225382193
30
0
41
1
10
133.035384142132
20
1.99363725592096
30
0
41
1
10
133.161002362755
20
1.28233979025725
30
0
41
1
10
133.223811473067
20
0.929792915033374
30
0
41
1
10
133.318025138534
20
0.409467982184793
30
0
41
1
10
133.34942969369
20
0.23743417670633
30
0
41
1
10
133.396536526424
20
-0.0180992863066933
30
0
41
1
10
133.412238804002
20
-0.102991499390498
30
0
41
1
10
133.443643359158
20
-0.274127365439938
30
0
41
1
10
133.459345636736
20
-0.360099050399924
30
0
41
1
10
133.537857024625
20
-0.791807549581932
30
0
41
1
10
133.600666134937
20
-1.14313580216248
30
0
41
1
10
133.72628435556
20
-1.85272857811663
30
0
41
1
10
133.789093465871
20
-2.21098802247738
30
0
41
1
10
133.914711686495
20
-2.92846528594652
30
0
41
1
10
133.977520796806
20
-3.28767408593814
30
0
41
1
10
134.103139017429
20
-4.00029465991548
30
0
41
1
10
134.165948127741
20
-4.35369383112217
30
0
41
1
10
134.291566348364
20
-5.04748867972052
30
0
41
1
10
134.354375458676
20
-5.38786926904851
30
0
41
1
10
134.479993679299
20
-6.04838979757838
30
0
41
1
10
134.542802789611
20
-6.36851391424889
30
0
41
1
10
134.668421010234
20
-6.98172467135504
30
0
41
1
10
134.731230120545
20
-7.27479685640935
30
0
41
1
10
134.856848341169
20
-7.82800975976798
30
0
41
1
10
134.91965745148
20
-8.08813939234392
30
0
41
1
10
135.045275672103
20
-8.57086663007914
30
0
41
1
10
135.108084782415
20
-8.79345796203265
30
0
41
1
10
135.233703003038
20
-9.1980667497003
30
0
41
1
10
135.29651211335
20
-9.38008331283433
30
0
41
1
10
135.422130333973
20
-9.70216821133573
30
0
41
1
10
135.484939444285
20
-9.84224066069592
30
0
41
1
10
135.610557664908
20
-10.0806798507792
30
0
41
1
10
135.673366775219
20
-10.1790545792824
30
0
41
1
10
135.798984995842
20
-10.3357712020629
30
0
41
1
10
135.861794106154
20
-10.3941234114474
30
0
41
1
10
135.987412326777
20
-10.4736174434189
30
0
41
1
10
136.050221437089
20
-10.4947703244575
30
0
41
1
10
136.128732824978
20
-10.5002332837408
30
0
41
1
10
136.144435102556
20
-10.5002858707189
30
0
41
1
10
136.175839657712
20
-10.4983157777882
30
0
41
1
10
136.222946490446
20
-10.4922239045527
30
0
41
1
10
136.270053323179
20
-10.4764458171256
30
0
41
1
10
136.364266988647
20
-10.4312921688118
30
0
41
1
10
136.427076098959
20
-10.3830305999494
30
0
41
1
10
136.552694319582
20
-10.2471393385796
30
0
41
1
10
136.615503429893
20
-10.1594989884138
30
0
41
1
10
136.678312540205
20
-10.0511701915365
30
0
0
SPLINE
5
F9
100
AcDbEntity
8
1
62
256
6
ByLayer
370
13
48
1
60
0
100
AcDbSpline
70
4
71
3
72
58
73
54
40
0
40
0
40
0
40
0
40
0.0625000000000003
40
0.0625000000000003
40
0.0937500000000006
40
0.0937500000000006
40
0.125000000000001
40
0.125000000000001
40
0.156250000000001
40
0.156250000000001
40
0.187500000000002
40
0.187500000000002
40
0.218750000000002
40
0.218750000000002
40
0.250000000000003
40
0.250000000000003
40
0.281250000000003
40
0.281250000000003
40
0.312500000000003
40
0.312500000000003
40
0.375000000000004
40
0.375000000000004
40
0.437500000000004
40
0.437500000000004
40
0.453125000000004
40
0.453125000000004
40
0.460937500000004
40
0.460937500000004
40
0.468750000000004
40
0.468750000000004
40
0.500000000000004
40
0.500000000000004
40
0.562500000000003
40
0.562500000000003
40
0.625000000000002
40
0.625000000000002
40
0.656250000000002
40
0.656250000000002
40
0.687500000000002
40
0.687500000000002
40
0.718750000000002
40
0.718750000000002
40
0.750000000000002
40
0.750000000000002
40
0.781250000000002
40
0.781250000000002
40
0.812500000000002
40
0.812500000000002
40
0.875000000000001
40
0.875000000000001
40
0.9375
40
0.9375
40
1
40
1
40
1
40
1
41
1
10
125.7
20
-10.1942036599324
30
0
41
1
10
125.804998920989
20
-10.0462370127597
30
0
41
1
10
125.909997841978
20
-9.84127156973946
30
0
41
1
10
126.067496223461
20
-9.44538862945734
30
0
41
1
10
126.119995683956
20
-9.29877567018372
30
0
41
1
10
126.224994604945
20
-8.97689476477743
30
0
41
1
10
126.277494065439
20
-8.8016266618317
30
0
41
1
10
126.382492986428
20
-8.42389528703742
30
0
41
1
10
126.434992446923
20
-8.2214336944391
30
0
41
1
10
126.539991367912
20
-7.79156727817116
30
0
41
1
10
126.592490828406
20
-7.56416591890312
30
0
41
1
10
126.697489749395
20
-7.0873864475536
30
0
41
1
10
126.74998920989
20
-6.83801330644388
30
0
41
1
10
126.854988130878
20
-6.32084345986158
30
0
41
1
10
126.907487591373
20
-6.05305276238713
30
0
41
1
10
127.012486512362
20
-5.503021028364
30
0
41
1
10
127.064985972856
20
-5.22078645120607
30
0
41
1
10
127.169984893845
20
-4.64607085272058
30
0
41
1
10
127.22248435434
20
-4.35359613560359
30
0
41
1
10
127.379982735823
20
-3.46716346721351
30
0
41
1
10
127.484981656812
20
-2.86436255712818
30
0
41
1
10
127.69497949879
20
-1.66662764966762
30
0
41
1
10
127.799978419779
20
-1.07179675524773
30
0
41
1
10
127.931227071015
20
-0.348989304680288
30
0
41
1
10
127.957476801262
20
-0.205444986840519
30
0
41
1
10
127.996851396633
20
0.0081116124270295
30
0
41
1
10
128.009976261757
20
0.0790516428733667
30
0
41
1
10
128.036225992004
20
0.221895291368298
30
0
41
1
10
128.049350857128
20
0.293602535460053
30
0
41
1
10
128.114975182746
20
0.653468778604292
30
0
41
1
10
128.16747464324
20
0.945638197736542
30
0
41
1
10
128.324973024724
20
1.83075513179043
30
0
41
1
10
128.429971945713
20
2.4325204706121
30
0
41
1
10
128.63996978769
20
3.63120549565474
30
0
41
1
10
128.744968708679
20
4.22798695519447
30
0
41
1
10
128.902467090163
20
5.09446214201341
30
0
41
1
10
128.954966550657
20
5.37847862226866
30
0
41
1
10
129.059965471646
20
5.93268594137237
30
0
41
1
10
129.112464932141
20
6.20287030632508
30
0
41
1
10
129.21746385313
20
6.72539309934254
30
0
41
1
10
129.269963313624
20
6.97772541416725
30
0
41
1
10
129.374962234613
20
7.46091565837199
30
0
41
1
10
129.427461695107
20
7.69176843008904
30
0
41
1
10
129.532460616097
20
8.12893432133532
30
0
41
1
10
129.584960076591
20
8.335243730933
30
0
41
1
10
129.68995899758
20
8.72095560804101
30
0
41
1
10
129.742458458074
20
8.90035612353881
30
0
41
1
10
129.899956839558
20
9.39582219482628
30
0
41
1
10
130.004955760547
20
9.66875599987577
30
0
41
1
10
130.214953602525
20
10.0968971605411
30
0
41
1
10
130.319952523514
20
10.252197976662
30
0
41
1
10
130.529950365491
20
10.4536794512729
30
0
41
1
10
130.63494928648
20
10.5
30
0
41
1
10
130.739948207469
20
10.5
30
0
0
SPLINE
5
FA
100
AcDbEntity
8
1
62
256
6
ByLayer
370
13
48
1
60
0
100
AcDbSpline
70
4
71
3
72
78
73
74
40
0
40
0
40
0
40
0
40
0.0312499999999983
40
0.0312499999999983
40
0.0624999999999966
40
0.0624999999999966
40
0.0937499999999948
40
0.0937499999999948
40
0.124999999999993
40
0.124999999999993
40
0.156249999999991
40
0.156249999999991
40
0.18749999999999
40
0.18749999999999
40
0.218749999999988
40
0.218749999999988
40
0.249999999999986
40
0.249999999999986
40
0.281249999999985
40
0.281249999999985
40
0.312499999999983
40
0.312499999999983
40
0.343749999999981
40
0.343749999999981
40
0.37499999999998
40
0.37499999999998
40
0.406249999999978
40
0.406249999999978
40
0.414062499999978
40
0.414062499999978
40
0.421874999999978
40
0.421874999999978
40
0.437499999999978
40
0.437499999999978
40
0.468749999999979
40
0.468749999999979
40
0.499999999999979
40
0.499999999999979
40
0.53124999999998
40
0.53124999999998
40
0.562499999999981
40
0.562499999999981
40
0.593749999999981
40
0.593749999999981
40
0.624999999999982
40
0.624999999999982
40
0.656249999999983
40
0.656249999999983
40
0.687499999999984
40
0.687499999999984
40
0.718749999999984
40
0.718749999999984
40
0.749999999999985
40
0.749999999999985
40
0.781249999999986
40
0.781249999999986
40
0.812499999999987
40
0.812499999999987
40
0.828124999999987
40
0.828124999999987
40
0.835937499999988
40
0.835937499999988
40
0.843749999999988
40
0.843749999999988
40
0.87499999999999
40
0.87499999999999
40
0.906249999999993
40
0.906249999999993
40
0.937499999999995
40
0.937499999999995
40
0.968749999999998
40
0.968749999999998
40
1
40
1
40
1
40
1
41
1
10
130.153774210154
20
10.5
30
0
41
1
10
130.221738151092
20
10.5
30
0
41
1
10
130.28970209203
20
10.4806502679837
30
0
41
1
10
130.425629973906
20
10.3985891364694
30
0
41
1
10
130.493593914844
20
10.335861349003
30
0
41
1
10
130.62952179672
20
10.1634528910709
30
0
41
1
10
130.697485737658
20
10.0537570126262
30
0
41
1
10
130.833413619534
20
9.78540622242153
30
0
41
1
10
130.901377560472
20
9.62674002929811
30
0
41
1
10
131.037305442348
20
9.26043579772099
30
0
41
1
10
131.105269383286
20
9.05279302723451
30
0
41
1
10
131.241197265162
20
8.59076609467184
30
0
41
1
10
131.3091612061
20
8.33638548667139
30
0
41
1
10
131.445089087976
20
7.78537979105792
30
0
41
1
10
131.513053028915
20
7.48876674710948
30
0
41
1
10
131.648980910791
20
6.85982466261621
30
0
41
1
10
131.716944851729
20
6.52751458845859
30
0
41
1
10
131.852872733605
20
5.83526558091736
30
0
41
1
10
131.920836674543
20
5.47534952738937
30
0
41
1
10
132.056764556419
20
4.73689387119038
30
0
41
1
10
132.124728497357
20
4.35837740702669
30
0
41
1
10
132.260656379233
20
3.59193974510671
30
0
41
1
10
132.328620320171
20
3.20403859802136
30
0
41
1
10
132.464548202047
20
2.42760372582879
30
0
41
1
10
132.532512142985
20
2.03908467528837
30
0
41
1
10
132.668440024861
20
1.26921092341249
30
0
41
1
10
132.736403965799
20
0.887864609311919
30
0
41
1
10
132.821358891972
20
0.41970538018586
30
0
41
1
10
132.838349877206
20
0.326496217995071
30
0
41
1
10
132.872331847675
20
0.141009916536575
30
0
41
1
10
132.88932283291
20
0.0489719939108397
30
0
41
1
10
132.940295788613
20
-0.227277386285095
30
0
41
1
10
132.974277759082
20
-0.413423003628338
30
0
41
1
10
133.076223670489
20
-0.976771231989972
30
0
41
1
10
133.144187611427
20
-1.35892909535332
30
0
41
1
10
133.280115493303
20
-2.12986236300921
30
0
41
1
10
133.348079434241
20
-2.51862888723923
30
0
41
1
10
133.484007316117
20
-3.29490390375878
30
0
41
1
10
133.551971257055
20
-3.68239725077501
30
0
41
1
10
133.687899138932
20
-4.44730822376371
30
0
41
1
10
133.755863079869
20
-4.82470545862788
30
0
41
1
10
133.891790961746
20
-5.56020281389249
30
0
41
1
10
133.959754902684
20
-5.91827968594151
30
0
41
1
10
134.09568278456
20
-6.60617638492857
30
0
41
1
10
134.163646725498
20
-6.93597350841168
30
0
41
1
10
134.299574607374
20
-7.55931545031817
30
0
41
1
10
134.367538548312
20
-7.85284174926818
30
0
41
1
10
134.503466430188
20
-8.39724373892003
30
0
41
1
10
134.571430371126
20
-8.6481080149002
30
0
41
1
10
134.707358253002
20
-9.1028438701596
30
0
41
1
10
134.77532219394
20
-9.30671257247761
30
0
41
1
10
134.911250075816
20
-9.66538969986064
30
0
41
1
10
134.979214016754
20
-9.82020344713288
30
0
41
1
10
135.11514189863
20
-10.0809379517696
30
0
41
1
10
135.183105839568
20
-10.1868703977786
30
0
41
1
10
135.319033721444
20
-10.3519810153467
30
0
41
1
10
135.386997662382
20
-10.41117458277
30
0
41
1
10
135.488943573789
20
-10.4676690577611
30
0
41
1
10
135.522925544258
20
-10.4811285350316
30
0
41
1
10
135.573898499962
20
-10.4936831589593
30
0
41
1
10
135.590889485196
20
-10.4965960732135
30
0
41
1
10
135.624871455665
20
-10.4999535724686
30
0
41
1
10
135.6418624409
20
-10.5004034602012
30
0
41
1
10
135.726817367072
20
-10.4966130935543
30
0
41
1
10
135.79478130801
20
-10.4740335293422
30
0
41
1
10
135.930709189887
20
-10.3851861991232
30
0
41
1
10
135.998673130825
20
-10.318902046767
30
0
41
1
10
136.134601012701
20
-10.1391611633003
30
0
41
1
10
136.202564953639
20
-10.025689429162
30
0
41
1
10
136.338492835515
20
-9.74970974488448
30
0
41
1
10
136.406456776453
20
-9.58719093706307
30
0
41
1
10
136.542384658329
20
-9.21327306202869
30
0
41
1
10
136.610348599267
20
-9.00186986389863
30
0
41
1
10
136.678312540205
20
-8.76723147787362
30
0
0
SPLINE
5
FB
100
AcDbEntity
8
1
62
256
6
ByLayer
370
13
48
1
60
0
100
AcDbSpline
70
4
71
3
72
44
73
40
40
0
40
0
40
0
40
0
40
0.0624999999999996
40
0.0624999999999996
40
0.124999999999999
40
0.124999999999999
40
0.187499999999999
40
0.187499999999999
40
0.249999999999998
40
0.249999999999998
40
0.312499999999997
40
0.312499999999997
40
0.374999999999997
40
0.374999999999997
40
0.390624999999997
40
0.390624999999997
40
0.398437499999996
40
0.398437499999996
40
0.406249999999996
40
0.406249999999996
40
0.437499999999996
40
0.437499999999996
40
0.499999999999996
40
0.499999999999996
40
0.562499999999997
40
0.562499999999997
40
0.624999999999997
40
0.624999999999997
40
0.687499999999998
40
0.687499999999998
40
0.749999999999998
40
0.749999999999998
40
0.812499999999999
40
0.812499999999999
40
0.874999999999999
40
0.874999999999999
40
0.9375
40
0.9375
40
1
40
1
40
1
40
1
41
1
10
125.7
20
-9.0683994489205
30
0
41
1
10
125.794689259736
20
-8.77082036383445
30
0
41
1
10
125.889378519472
20
-8.42664888304168
30
0
41
1
10
126.078757038944
20
-7.65622375927171
30
0
41
1
10
126.173446298681
20
-7.23003393780678
30
0
41
1
10
126.362824818153
20
-6.31430482848421
30
0
41
1
10
126.457514077889
20
-5.82487507780419
30
0
41
1
10
126.646892597361
20
-4.80633986278539
30
0
41
1
10
126.741581857097
20
-4.27735624014909
30
0
41
1
10
126.930960376569
20
-3.20471859791959
30
0
41
1
10
127.025649636305
20
-2.66116436617602
30
0
41
1
10
127.215028155777
20
-1.58227267357114
30
0
41
1
10
127.309717415513
20
-1.04699265471285
30
0
41
1
10
127.428078990183
20
-0.394496452813911
30
0
41
1
10
127.451751305117
20
-0.264814508488996
30
0
41
1
10
127.487259777519
20
-0.0716914635150658
30
0
41
1
10
127.499095934986
20
-0.0077097253902139
30
0
41
1
10
127.522768249919
20
0.120649456952862
30
0
41
1
10
127.534604407386
20
0.185067828820109
30
0
41
1
10
127.593785194722
20
0.508284258456399
30
0
41
1
10
127.64112982459
20
0.770469608590247
30
0
41
1
10
127.783163714194
20
1.56487194745191
30
0
41
1
10
127.87785297393
20
2.10508361314265
30
0
41
1
10
128.067231493402
20
3.18687293751006
30
0
41
1
10
128.161920753138
20
3.72837841560892
30
0
41
1
10
128.35129927261
20
4.7889320500795
30
0
41
1
10
128.445988532346
20
5.3078701793643
30
0
41
1
10
128.635367051818
20
6.2983315072193
30
0
41
1
10
128.730056311555
20
6.76973275843301
30
0
41
1
10
128.919434831027
20
7.64262476196006
30
0
41
1
10
129.014124090763
20
8.0440176697104
30
0
41
1
10
129.203502610235
20
8.76029795085972
30
0
41
1
10
129.298191869971
20
9.07514085802131
30
0
41
1
10
129.487570389443
20
9.60985933768734
30
0
41
1
10
129.582259649179
20
9.82975204634306
30
0
41
1
10
129.771638168651
20
10.1746597982139
30
0
41
1
10
129.866327428388
20
10.2997390500302
30
0
41
1
10
130.05570594786
20
10.4623668475127
30
0
41
1
10
130.150395207596
20
10.5
30
0
41
1
10
130.245084467332
20
10.5
30
0
0
SPLINE
5
FC
100
AcDbEntity
8
1
62
256
6
ByLayer
370
13
48
1
60
0
100
AcDbSpline
70
4
71
3
72
76
73
72
40
0
40
0
40
0
40
0
40
0.03125
40
0.03125
40
0.0625
40
0.0625
40
0.09375
40
0.09375
40
0.125
40
0.125
40
0.15625
40
0.15625
40
0.1875
40
0.1875
40
0.21875
40
0.21875
40
0.25
40
0.25
40
0.28125
40
0.28125
40
0.3125
40
0.3125
40
0.34375
40
0.34375
40
0.375
40
0.375
40
0.390625
40
0.390625
40
0.40625
40
0.40625
40
0.4375
40
0.4375
40
0.46875
40
0.46875
40
0.5
40
0.5
40
0.53125
40
0.53125
40
0.5625
40
0.5625
40
0.59375
40
0.59375
40
0.625
40
0.625
40
0.65625
40
0.65625
40
0.6875
40
0.6875
40
0.71875
40
0.71875
40
0.75
40
0.75
40
0.78125
40
0.78125
40
0.7890625
40
0.7890625
40
0.796875
40
0.796875
40
0.8125
40
0.8125
40
0.84375
40
0.84375
40
0.875
40
0.875
40
0.90625
40
0.90625
40
0.9375
40
0.9375
40
0.96875
40
0.96875
40
1
40
1
40
1
40
1
41
1
10
129.658910470016
20
10.5
30
0
41
1
10
129.732029241581
20
10.5
30
0
41
1
10
129.805148013145
20
10.4775967598584
30
0
41
1
10
129.951385556274
20
10.3822216311041
30
0
41
1
10
130.024504327839
20
10.3092261499886
30
0
41
1
10
130.170741870968
20
10.108385651599
30
0
41
1
10
130.243860642532
20
9.98051934221115
30
0
41
1
10
130.390098185661
20
9.6678711397829
30
0
41
1
10
130.463216957226
20
9.48307485840542
30
0
41
1
10
130.609454500354
20
9.05726885774249
30
0
41
1
10
130.682573271919
20
8.8162557788861
30
0
41
1
10
130.828810815048
20
8.28176758510102
30
0
41
1
10
130.901929586612
20
7.9883023321421
30
0
41
1
10
131.048167129741
20
7.35561888540585
30
0
41
1
10
131.121285901306
20
7.01642299060813
30
0
41
1
10
131.267523444434
20
6.30145643429447
30
0
41
1
10
131.340642215999
20
5.92571669646662
30
0
41
1
10
131.486879759128
20
5.14849394976457
30
0
41
1
10
131.559998530692
20
4.74704473352338
30
0
41
1
10
131.706236073821
20
3.92989364148008
30
0
41
1
10
131.779354845386
20
3.51422249306327
30
0
41
1
10
131.925592388515
20
2.67978708253511
30
0
41
1
10
131.998711160079
20
2.26104602567264
30
0
41
1
10
132.144948703208
20
1.43047492203192
30
0
41
1
10
132.218067474773
20
1.01865847580518
30
0
41
1
10
132.327745632119
20
0.412335201649768
30
0
41
1
10
132.364305017902
20
0.212113082316364
30
0
41
1
10
132.437423789466
20
-0.183709226800005
30
0
41
1
10
132.473983175248
20
-0.383514937912594
30
0
41
1
10
132.583661332595
20
-0.989295176968909
30
0
41
1
10
132.656780104159
20
-1.40083691359345
30
0
41
1
10
132.803017647288
20
-2.23107812888327
30
0
41
1
10
132.876136418853
20
-2.64976424195774
30
0
41
1
10
133.022373961982
20
-3.48434498621114
30
0
41
1
10
133.095492733546
20
-3.90021662770616
30
0
41
1
10
133.241730276675
20
-4.71804302757701
30
0
41
1
10
133.31484904824
20
-5.11996719496784
30
0
41
1
10
133.461086591369
20
-5.89841116232842
30
0
41
1
10
133.534205362933
20
-6.27489717675226
30
0
41
1
10
133.680442906062
20
-6.99160017209442
30
0
41
1
10
133.753561677626
20
-7.33178608904214
30
0
41
1
10
133.899799220755
20
-7.96664357252385
30
0
41
1
10
133.97291799232
20
-8.26129257850747
30
0
41
1
10
134.119155535449
20
-8.79827608877008
30
0
41
1
10
134.192274307013
20
-9.04060041142492
30
0
41
1
10
134.338511850142
20
-9.46908322951859
30
0
41
1
10
134.411630621707
20
-9.65524478337454
30
0
41
1
10
134.557868164835
20
-9.97060668953523
30
0
41
1
10
134.6309869364
20
-10.0998212095804
30
0
41
1
10
134.777224479529
20
-10.3032804688286
30
0
41
1
10
134.850343251093
20
-10.3775463896129
30
0
41
1
10
134.996580794222
20
-10.4753393173943
30
0
41
1
10
135.069699565787
20
-10.4988899116339
30
0
41
1
10
135.161098030242
20
-10.5002294726595
30
0
41
1
10
135.179377723133
20
-10.4991029086916
30
0
41
1
10
135.215937108916
20
-10.4939691303013
30
0
41
1
10
135.234216801807
20
-10.4899610808273
30
0
41
1
10
135.28905588048
20
-10.4734740995207
30
0
41
1
10
135.325615266262
20
-10.4565296618714
30
0
41
1
10
135.435293423609
20
-10.3868072815542
30
0
41
1
10
135.508412195173
20
-10.3150797569675
30
0
41
1
10
135.654649738302
20
-10.1168543275256
30
0
41
1
10
135.727768509867
20
-9.99033502272007
30
0
41
1
10
135.874006052996
20
-9.68039970979763
30
0
41
1
10
135.94712482456
20
-9.49696909518212
30
0
41
1
10
136.093362367689
20
-9.07384246440213
30
0
41
1
10
136.166481139254
20
-8.83414278882228
30
0
41
1
10
136.312718682382
20
-8.30215594323533
30
0
41
1
10
136.385837453947
20
-8.00987831509804
30
0
41
1
10
136.532074997076
20
-7.37937807831077
30
0
41
1
10
136.60519376864
20
-7.04117750483229
30
0
41
1
10
136.678312540205
20
-6.68456822296545
30
0
0
SPLINE
5
FD
100
AcDbEntity
8
1
62
256
6
ByLayer
370
13
48
1
60
0
100
AcDbSpline
70
4
71
3
72
44
73
40
40
0
40
0
40
0
40
0
40
0.0625000000000036
40
0.0625000000000036
40
0.125000000000007
40
0.125000000000007
40
0.187500000000011
40
0.187500000000011
40
0.250000000000014
40
0.250000000000014
40
0.312500000000018
40
0.312500000000018
40
0.320312500000018
40
0.320312500000018
40
0.328125000000018
40
0.328125000000018
40
0.343750000000018
40
0.343750000000018
40
0.375000000000017
40
0.375000000000017
40
0.437500000000015
40
0.437500000000015
40
0.500000000000014
40
0.500000000000014
40
0.562500000000012
40
0.562500000000012
40
0.62500000000001
40
0.62500000000001
40
0.687500000000008
40
0.687500000000008
40
0.750000000000007
40
0.750000000000007
40
0.812500000000005
40
0.812500000000005
40
0.875000000000003
40
0.875000000000003
40
0.937500000000002
40
0.937500000000002
40
1
40
1
40
1
40
1
41
1
10
125.7
20
-7.12001810128226
30
0
41
1
10
125.784379598483
20
-6.72707396817569
30
0
41
1
10
125.868759196966
20
-6.30692423338408
30
0
41
1
10
126.037518393933
20
-5.42800563952062
30
0
41
1
10
126.121897992416
20
-4.96930535686127
30
0
41
1
10
126.290657189383
20
-4.03088382031987
30
0
41
1
10
126.375036787866
20
-3.55122674382446
30
0
41
1
10
126.543795984832
20
-2.58812857306603
30
0
41
1
10
126.628175583315
20
-2.10473450400113
30
0
41
1
10
126.796934780282
20
-1.14932630843393
30
0
41
1
10
126.881314378765
20
-0.677336517352586
30
0
41
1
10
126.976241427059
20
-0.159502759061013
30
0
41
1
10
126.986788876869
20
-0.10214616347281
30
0
41
1
10
127.00788377649
20
0.01218653652802
30
0
41
1
10
127.0184312263
20
0.0692230874428503
30
0
41
1
10
127.050073575731
20
0.241257719976801
30
0
41
1
10
127.071168475352
20
0.356690569226316
30
0
41
1
10
127.134453174214
20
0.70497408618121
30
0
41
1
10
127.176642973456
20
0.939816463557975
30
0
41
1
10
127.303212371181
20
1.65010265419087
30
0
41
1
10
127.387591969664
20
2.13139805360993
30
0
41
1
10
127.556351166631
20
3.09536037639808
30
0
41
1
10
127.640730765114
20
3.57798720800682
30
0
41
1
10
127.80948996208
20
4.52791048788731
30
0
41
1
10
127.893869560563
20
4.99514709987093
30
0
41
1
10
128.06262875753
20
5.89661023793869
30
0
41
1
10
128.147008356013
20
6.3307678703049
30
0
41
1
10
128.31576755298
20
7.14939501673916
30
0
41
1
10
128.400147151463
20
7.53380238626565
30
0
41
1
10
128.568906348429
20
8.23928216804154
30
0
41
1
10
128.653285946912
20
8.56031441446427
30
0
41
1
10
128.822045143879
20
9.13001820792644
30
0
41
1
10
128.906424742362
20
9.37868011617562
30
0
41
1
10
129.075183939328
20
9.80001015830817
30
0
41
1
10
129.159563537812
20
9.97269807374275
30
0
41
1
10
129.328322734778
20
10.2436741545645
30
0
41
1
10
129.412702333261
20
10.3420024091076
30
0
41
1
10
129.581461530228
20
10.4701413306093
30
0
41
1
10
129.665841128711
20
10.5
30
0
41
1
10
129.750220727194
20
10.5
30
0
0
SPLINE
5
FE
100
AcDbEntity
8
1
62
256
6
ByLayer
370
13
48
1
60
0
100
AcDbSpline
70
4
71
3
72
80
73
76
40
0
40
0
40
0
40
0
40
0.0312500000000009
40
0.0312500000000009
40
0.0625000000000018
40
0.0625000000000018
40
0.0937500000000027
40
0.0937500000000027
40
0.125000000000004
40
0.125000000000004
40
0.156250000000004
40
0.156250000000004
40
0.187500000000005
40
0.187500000000005
40
0.218750000000006
40
0.218750000000006
40
0.250000000000007
40
0.250000000000007
40
0.281250000000008
40
0.281250000000008
40
0.312500000000009
40
0.312500000000009
40
0.34375000000001
40
0.34375000000001
40
0.35937500000001
40
0.35937500000001
40
0.36328125000001
40
0.36328125000001
40
0.36718750000001
40
0.36718750000001
40
0.375000000000009
40
0.375000000000009
40
0.406250000000009
40
0.406250000000009
40
0.437500000000008
40
0.437500000000008
40
0.468750000000008
40
0.468750000000008
40
0.500000000000007
40
0.500000000000007
40
0.531250000000007
40
0.531250000000007
40
0.562500000000006
40
0.562500000000006
40
0.593750000000006
40
0.593750000000006
40
0.625000000000005
40
0.625000000000005
40
0.656250000000005
40
0.656250000000005
40
0.687500000000005
40
0.687500000000005
40
0.718750000000004
40
0.718750000000004
40
0.726562500000004
40
0.726562500000004
40
0.734375000000004
40
0.734375000000004
40
0.750000000000004
40
0.750000000000004
40
0.781250000000003
40
0.781250000000003
40
0.812500000000003
40
0.812500000000003
40
0.843750000000002
40
0.843750000000002
40
0.875000000000002
40
0.875000000000002
40
0.906250000000001
40
0.906250000000001
40
0.937500000000001
40
0.937500000000001
40
0.968750000000001
40
0.968750000000001
40
1
40
1
40
1
40
1
41
1
10
129.164046729879
20
10.5
30
0
41
1
10
129.24232033207
20
10.5
30
0
41
1
10
129.320593934261
20
10.474317797136
30
0
41
1
10
129.477141138642
20
10.3645746857107
30
0
41
1
10
129.555414740833
20
10.280480680085
30
0
41
1
10
129.711961945215
20
10.0489058337677
30
0
41
1
10
129.790235547406
20
9.9013960768184
30
0
41
1
10
129.946782751788
20
9.5410064433629
30
0
41
1
10
130.025056353979
20
9.32810923517897
30
0
41
1
10
130.181603558361
20
8.83870882077719
30
0
41
1
10
130.259877160551
20
8.56220599890349
30
0
41
1
10
130.416424364933
20
7.95138129275486
30
0
41
1
10
130.494697967124
20
7.61707977714426
30
0
41
1
10
130.651245171506
20
6.90016009412389
30
0
41
1
10
130.729518773697
20
6.51757921792588
30
0
41
1
10
130.886065978079
20
5.71643661709561
30
0
41
1
10
130.964339580269
20
5.29792138413302
30
0
41
1
10
131.120886784651
20
4.43878904826707
30
0
41
1
10
131.199160386842
20
3.9982179056077
30
0
41
1
10
131.355707591224
20
3.10897101644025
30
0
41
1
10
131.433981193415
20
2.66033225545127
30
0
41
1
10
131.590528397797
20
1.76779128870527
30
0
41
1
10
131.668801999987
20
1.32391228042442
30
0
41
1
10
131.786212403274
20
0.669721853767498
30
0
41
1
10
131.825349204369
20
0.45357809781018
30
0
41
1
10
131.874270205738
20
0.186489717941981
30
0
41
1
10
131.884054406012
20
0.133226210006995
30
0
41
1
10
131.90362280656
20
0.0270232238506765
30
0
41
1
10
131.913407006834
20
-0.0258321329104376
30
0
41
1
10
131.942759607656
20
-0.185129328939013
30
0
41
1
10
131.962328008203
20
-0.291976070503608
30
0
41
1
10
132.060170010942
20
-0.829132632781011
30
0
41
1
10
132.138443613133
20
-1.26830982813774
30
0
41
1
10
132.294990817515
20
-2.15576265786228
30
0
41
1
10
132.373264419706
20
-2.60402064756309
30
0
41
1
10
132.529811624087
20
-3.4975179746651
30
0
41
1
10
132.608085226278
20
-3.94272517731807
30
0
41
1
10
132.76463243066
20
-4.81644725890979
30
0
41
1
10
132.842906032851
20
-5.24491872262331
30
0
41
1
10
132.999453237233
20
-6.07108911432849
30
0
41
1
10
133.077726839424
20
-6.46874060962762
30
0
41
1
10
133.234274043805
20
-7.22017877111347
30
0
41
1
10
133.312547645996
20
-7.57392360086843
30
0
41
1
10
133.469094850378
20
-8.22682138059807
30
0
41
1
10
133.547368452569
20
-8.52594695121317
30
0
41
1
10
133.703915656951
20
-9.06231467037381
30
0
41
1
10
133.782189259142
20
-9.299548913526
30
0
41
1
10
133.938736463523
20
-9.70882190167725
30
0
41
1
10
134.017010065714
20
-9.88087188102415
30
0
41
1
10
134.173557270096
20
-10.1603873890531
30
0
41
1
10
134.251830872287
20
-10.2678783384655
30
0
41
1
10
134.408378076669
20
-10.4222374756331
30
0
41
1
10
134.48665167886
20
-10.4691380293431
30
0
41
1
10
134.584493681598
20
-10.4938848305631
30
0
41
1
10
134.604062082146
20
-10.4971448419492
30
0
41
1
10
134.643198883242
20
-10.5004017780411
30
0
41
1
10
134.662767283789
20
-10.5004136646286
30
0
41
1
10
134.721472485433
20
-10.4956015843807
30
0
41
1
10
134.760609286528
20
-10.4858663270992
30
0
41
1
10
134.878019689814
20
-10.435724574733
30
0
41
1
10
134.956293292005
20
-10.374310337671
30
0
41
1
10
135.112840496387
20
-10.1896716602929
30
0
41
1
10
135.191114098578
20
-10.0664158795502
30
0
41
1
10
135.34766130296
20
-9.75487134768636
30
0
41
1
10
135.425934905151
20
-9.56656006227075
30
0
41
1
10
135.582482109532
20
-9.12519935713715
30
0
41
1
10
135.660755711723
20
-8.87214313764727
30
0
41
1
10
135.817302916105
20
-8.30557034803098
30
0
41
1
10
135.895576518296
20
-7.99206669618999
30
0
41
1
10
136.052123722678
20
-7.31277930580379
30
0
41
1
10
136.130397324869
20
-6.94702719314037
30
0
41
1
10
136.28694452925
20
-6.17464814210368
30
0
41
1
10
136.365218131441
20
-5.76806534329268
30
0
41
1
10
136.521765335823
20
-4.92749024238097
30
0
41
1
10
136.600038938014
20
-4.49354522742496
30
0
41
1
10
136.678312540205
20
-4.05295348260731
30
0
0
SPLINE
5
FF
100
AcDbEntity
8
1
62
256
6
ByLayer
370
13
48
1
60
0
100
AcDbSpline
70
4
71
3
72
42
73
38
40
0
40
0
40
0
40
0
40
0.0624999999999983
40
0.0624999999999983
40
0.124999999999997
40
0.124999999999997
40
0.187499999999995
40
0.187499999999995
40
0.218749999999994
40
0.218749999999994
40
0.234374999999994
40
0.234374999999994
40
0.249999999999993
40
0.249999999999993
40
0.312499999999994
40
0.312499999999994
40
0.374999999999994
40
0.374999999999994
40
0.437499999999995
40
0.437499999999995
40
0.499999999999995
40
0.499999999999995
40
0.562499999999996
40
0.562499999999996
40
0.624999999999996
40
0.624999999999996
40
0.687499999999997
40
0.687499999999997
40
0.749999999999997
40
0.749999999999997
40
0.812499999999998
40
0.812499999999998
40
0.874999999999999
40
0.874999999999999
40
0.937499999999999
40
0.937499999999999
40
1
40
1
40
1
40
1
41
1
10
125.7
20
-4.56349894067765
30
0
41
1
10
125.77406993723
20
-4.1524635281769
30
0
41
1
10
125.848139874461
20
-3.73306084683617
30
0
41
1
10
125.996279748921
20
-2.8891858002396
30
0
41
1
10
126.070349686152
20
-2.46473979216404
30
0
41
1
10
126.218489560612
20
-1.62142462103111
30
0
41
1
10
126.292559497843
20
-1.20257162698792
30
0
41
1
10
126.403664403688
20
-0.585160734046184
30
0
41
1
10
126.440699372303
20
-0.381153554225477
30
0
41
1
10
126.496251825226
20
-0.0785282406460226
30
0
41
1
10
126.514769309534
20
0.0214061937583097
30
0
41
1
10
126.551804278149
20
0.222725534230733
30
0
41
1
10
126.570321762457
20
0.323958490320251
30
0
41
1
10
126.662909183995
20
0.832716008475785
30
0
41
1
10
126.736979121225
20
1.24809806081618
30
0
41
1
10
126.885118995686
20
2.08731829178208
30
0
41
1
10
126.959188932916
20
2.51114345621369
30
0
41
1
10
127.107328807377
20
3.35708617187436
30
0
41
1
10
127.181398744607
20
3.77918023561685
30
0
41
1
10
127.329538619068
20
4.61018289741548
30
0
41
1
10
127.403608556298
20
5.0190594602723
30
0
41
1
10
127.551748430759
20
5.81167825697784
30
0
41
1
10
127.625818367989
20
6.19538451005556
30
0
41
1
10
127.77395824245
20
6.92628337746538
30
0
41
1
10
127.84802817968
20
7.27344246163142
30
0
41
1
10
127.996168054141
20
7.92150577950625
30
0
41
1
10
128.070237991371
20
8.22238532988735
30
0
41
1
10
128.218377865832
20
8.77068352291795
30
0
41
1
10
128.292447803062
20
9.01809072084373
30
0
41
1
10
128.440587677523
20
9.45532955107248
30
0
41
1
10
128.514657614753
20
9.64516406396683
30
0
41
1
10
128.662797489214
20
9.96636354913397
30
0
41
1
10
128.736867426444
20
10.0977434795032
30
0
41
1
10
128.885007300905
20
10.3040814113498
30
0
41
1
10
128.959077238135
20
10.3790619917023
30
0
41
1
10
129.107217112596
20
10.4770087062838
30
0
41
1
10
129.181287049826
20
10.5
30
0
41
1
10
129.255356987057
20
10.5
30
0
0
SPLINE
5
100
100
AcDbEntity
8
1
62
256
6
ByLayer
370
13
48
1
60
0
100
AcDbSpline
70
4
71
3
72
80
73
76
40
0
40
0
40
0
40
0
40
0.0312500000000012
40
0.0312500000000012
40
0.0625000000000023
40
0.0625000000000023
40
0.0937500000000035
40
0.0937500000000035
40
0.125000000000005
40
0.125000000000005
40
0.156250000000006
40
0.156250000000006
40
0.187500000000007
40
0.187500000000007
40
0.218750000000008
40
0.218750000000008
40
0.250000000000009
40
0.250000000000009
40
0.281250000000011
40
0.281250000000011
40
0.312500000000012
40
0.312500000000012
40
0.328125000000013
40
0.328125000000013
40
0.335937500000013
40
0.339843750000014
40
0.339843750000014
40
0.343750000000014
40
0.343750000000014
40
0.375000000000014
40
0.375000000000014
40
0.406250000000014
40
0.406250000000014
40
0.437500000000014
40
0.437500000000014
40
0.468750000000014
40
0.468750000000014
40
0.500000000000015
40
0.500000000000015
40
0.531250000000015
40
0.531250000000015
40
0.562500000000015
40
0.562500000000015
40
0.593750000000015
40
0.593750000000015
40
0.625000000000015
40
0.625000000000015
40
0.656250000000016
40
0.656250000000016
40
0.671875000000016
40
0.671875000000016
40
0.679687500000016
40
0.683593750000016
40
0.683593750000016
40
0.687500000000016
40
0.687500000000016
40
0.718750000000014
40
0.718750000000014
40
0.750000000000013
40
0.750000000000013
40
0.781250000000011
40
0.781250000000011
40
0.81250000000001
40
0.81250000000001
40
0.843750000000008
40
0.843750000000008
40
0.875000000000006
40
0.875000000000006
40
0.906250000000005
40
0.906250000000005
40
0.937500000000003
40
0.937500000000003
40
0.968750000000002
40
0.968750000000002
40
1
40
1
40
1
40
1
41
1
10
128.669182989741
20
10.5
30
0
41
1
10
128.752611422558
20
10.5
30
0
41
1
10
128.836039855376
20
10.4708128158371
30
0
41
1
10
129.002896721011
20
10.3456382484537
30
0
41
1
10
129.086325153828
20
10.2496054771958
30
0
41
1
10
129.253182019463
20
9.98498135092939
30
0
41
1
10
129.33661045228
20
9.8163518032687
30
0
41
1
10
129.503467317914
20
9.40482408691219
30
0
41
1
10
129.586895750732
20
9.16190639580503
30
0
41
1
10
129.753752616367
20
8.60505049935614
30
0
41
1
10
129.837181049184
20
8.29112005523828
30
0
41
1
10
130.004037914818
20
7.6006494983852
30
0
41
1
10
130.087466347636
20
7.22414585478657
30
0
41
1
10
130.254323213271
20
6.42143595771822
30
0
41
1
10
130.337751646088
20
5.99528744614645
30
0
41
1
10
130.504608511722
20
5.10924093282233
30
0
41
1
10
130.58803694454
20
4.64940811678048
30
0
41
1
10
130.754893810174
20
3.7130908157952
30
0
41
1
10
130.838322242992
20
3.23666416733917
30
0
41
1
10
131.005179108626
20
2.28350092247612
30
0
41
1
10
131.088607541444
20
1.80680436026623
30
0
41
1
10
131.21375019067
20
1.10208919246296
30
0
41
1
10
131.255464407079
20
0.868884408791502
30
0
41
1
10
131.318035731692
20
0.522727335970473
30
0
41
1
10
131.349321393998
20
0.350558943153942
30
0
41
1
10
131.380607056305
20
0.179939971632052
30
0
41
1
10
131.401464164509
20
0.0665572255442726
30
0
41
1
10
131.411892718611
20
0.0101690886814367
30
0
41
1
10
131.50574970553
20
-0.49855556816442
30
0
41
1
10
131.589178138348
20
-0.96279022975196
30
0
41
1
10
131.756035003982
20
-1.90420309425613
30
0
41
1
10
131.8394634368
20
-2.38136121781275
30
0
41
1
10
132.006320302434
20
-3.33439062507881
30
0
41
1
10
132.089748735252
20
-3.81022046223302
30
0
41
1
10
132.256605600886
20
-4.74418037284846
30
0
41
1
10
132.340034033704
20
-5.20225170292446
30
0
41
1
10
132.506890899338
20
-6.08362487888311
30
0
41
1
10
132.590319332156
20
-6.50686155473318
30
0
41
1
10
132.75717619779
20
-7.30274582491299
30
0
41
1
10
132.840604630608
20
-7.67533673838267
30
0
41
1
10
133.007461496242
20
-8.35724723917417
30
0
41
1
10
133.09088992906
20
-8.66653218065281
30
0
41
1
10
133.257746794694
20
-9.21370404523165
30
0
41
1
10
133.341175227512
20
-9.451585218275
30
0
41
1
10
133.508032093146
20
-9.85300275292627
30
0
41
1
10
133.591460525964
20
-10.0165602476125
30
0
41
1
10
133.758317391598
20
-10.2713168408388
30
0
41
1
10
133.841745824416
20
-10.3625549940376
30
0
41
1
10
133.966888473642
20
-10.449626485041
30
0
41
1
10
134.00860269005
20
-10.4703799037328
30
0
41
1
10
134.071174014663
20
-10.4898592986472
30
0
41
1
10
134.10245967697
20
-10.4966880633825
30
0
41
1
10
134.133745339276
20
-10.4993057611601
30
0
41
1
10
134.154602447481
20
-10.5001331495869
30
0
41
1
10
134.165031001583
20
-10.5000904061503
30
0
41
1
10
134.258887988502
20
-10.4955862691744
30
0
41
1
10
134.34231642132
20
-10.4620741733977
30
0
41
1
10
134.509173286954
20
-10.3277525072032
30
0
41
1
10
134.592601719772
20
-10.2268976864064
30
0
41
1
10
134.759458585406
20
-9.95237025651883
30
0
41
1
10
134.842887018224
20
-9.77866037224766
30
0
41
1
10
135.009743883858
20
-9.35702938792477
30
0
41
1
10
135.093172316676
20
-9.10909041826855
30
0
41
1
10
135.26002918231
20
-8.54260547754723
30
0
41
1
10
135.343457615128
20
-8.22406928627711
30
0
41
1
10
135.510314480762
20
-7.52513953994762
30
0
41
1
10
135.593742913579
20
-7.14478424150465
30
0
41
1
10
135.760599779214
20
-6.33538530231957
30
0
41
1
10
135.844028212032
20
-5.90640039751702
30
0
41
1
10
136.010885077666
20
-5.015836784355
30
0
41
1
10
136.094313510483
20
-4.55432320595511
30
0
41
1
10
136.261170376118
20
-3.6158062592902
30
0
41
1
10
136.344598808936
20
-3.1388597707043
30
0
41
1
10
136.51145567457
20
-2.18570581118288
30
0
41
1
10
136.594884107388
20
-1.709536945662
30
0
41
1
10
136.678312540205
20
-1.24068180298806
30
0
0
SPLINE
5
101
100
AcDbEntity
8
1
62
256
6
ByLayer
370
13
48
1
60
0
100
AcDbSpline
70
4
71
3
72
42
73
38
40
0
40
0
40
0
40
0
40
0.0624999999999968
40
0.0624999999999968
40
0.0937499999999953
40
0.0937499999999953
40
0.109374999999995
40
0.109374999999995
40
0.124999999999995
40
0.124999999999995
40
0.187499999999995
40
0.187499999999995
40
0.249999999999995
40
0.249999999999995
40
0.312499999999995
40
0.312499999999995
40
0.374999999999996
40
0.374999999999996
40
0.437499999999996
40
0.437499999999996
40
0.499999999999997
40
0.499999999999997
40
0.562499999999997
40
0.562499999999997
40
0.624999999999998
40
0.624999999999998
40
0.687499999999998
40
0.687499999999998
40
0.749999999999998
40
0.749999999999998
40
0.812499999999999
40
0.812499999999999
40
0.874999999999999
40
0.874999999999999
40
0.9375
40
0.9375
40
1
40
1
40
1
40
1
41
1
10
125.7
20
-1.75639741360038
30
0
41
1
10
125.763760275978
20
-1.394709499572
30
0
41
1
10
125.827520551955
20
-1.03589423855493
30
0
41
1
10
125.923160965921
20
-0.506083426409475
30
0
41
1
10
125.95504110391
20
-0.330873386342546
30
0
41
1
10
126.002861310893
20
-0.0705826574760238
30
0
41
1
10
126.018801379888
20
0.0154770355808864
30
0
41
1
10
126.050681517876
20
0.188643960319013
30
0
41
1
10
126.066621586871
20
0.275654740184422
30
0
41
1
10
126.146321931842
20
0.712672434327487
30
0
41
1
10
126.21008220782
20
1.06861475688496
30
0
41
1
10
126.337602759775
20
1.78801945641604
30
0
41
1
10
126.401363035752
20
2.15147663110642
30
0
41
1
10
126.528883587707
20
2.87971236659558
30
0
41
1
10
126.592643863685
20
3.24448141583903
30
0
41
1
10
126.72016441564
20
3.96830226466773
30
0
41
1
10
126.783924691617
20
4.32734059997878
30
0
41
1
10
126.911445243572
20
5.03216824989559
30
0
41
1
10
126.97520551955
20
5.37794133869275
30
0
41
1
10
127.102726071505
20
6.04866441381421
30
0
41
1
10
127.166486347482
20
6.37359734455345
30
0
41
1
10
127.294006899437
20
6.99553106998812
30
0
41
1
10
127.357767175414
20
7.29251631128014
30
0
41
1
10
127.485287727369
20
7.85240906040411
30
0
41
1
10
127.549048003347
20
8.11530473565293
30
0
41
1
10
127.676568555302
20
8.60225525229959
30
0
41
1
10
127.740328831279
20
8.82630356209111
30
0
41
1
10
127.867849383234
20
9.23245953821905
30
0
41
1
10
127.931609659212
20
9.41456656177951
30
0
41
1
10
128.059130211167
20
9.73551231914189
30
0
41
1
10
128.122890487144
20
9.87435582978631
30
0
41
1
10
128.250411039099
20
10.1091542962545
30
0
41
1
10
128.314171315077
20
10.2051181452701
30
0
41
1
10
128.441691867032
20
10.3560336567148
30
0
41
1
10
128.505452143009
20
10.4109965929192
30
0
41
1
10
128.632972694964
20
10.4829738084307
30
0
41
1
10
128.696732970941
20
10.5
30
0
41
1
10
128.760493246919
20
10.5
30
0
0
SPLINE
5
102
100
AcDbEntity
8
1
62
256
6
ByLayer
370
13
48
1
60
0
100
AcDbSpline
70
4
71
3
72
85
73
81
40
0
40
0
40
0
40
0
40
0.0312500000000021
40
0.0312500000000021
40
0.0625000000000042
40
0.0625000000000042
40
0.0937500000000063
40
0.0937500000000063
40
0.125000000000008
40
0.125000000000008
40
0.15625000000001
40
0.15625000000001
40
0.187500000000012
40
0.187500000000012
40
0.218750000000015
40
0.218750000000015
40
0.250000000000017
40
0.250000000000017
40
0.281250000000019
40
0.281250000000019
40
0.312500000000021
40
0.312500000000021
40
0.320312500000021
40
0.320312500000021
40
0.324218750000021
40
0.324218750000021
40
0.328125000000021
40
0.343750000000021
40
0.343750000000021
40
0.37500000000002
40
0.37500000000002
40
0.406250000000019
40
0.406250000000019
40
0.437500000000018
40
0.437500000000018
40
0.468750000000018
40
0.468750000000018
40
0.500000000000017
40
0.500000000000017
40
0.531250000000016
40
0.531250000000016
40
0.562500000000015
40
0.562500000000015
40
0.593750000000014
40
0.593750000000014
40
0.625000000000013
40
0.625000000000013
40
0.640625000000013
40
0.640625000000013
40
0.644531250000013
40
0.644531250000013
40
0.648437500000012
40
0.648437500000012
40
0.656250000000012
40
0.656250000000012
40
0.687500000000011
40
0.687500000000011
40
0.71875000000001
40
0.71875000000001
40
0.750000000000009
40
0.750000000000009
40
0.781250000000008
40
0.781250000000008
40
0.812500000000006
40
0.812500000000006
40
0.843750000000005
40
0.843750000000005
40
0.875000000000004
40
0.875000000000004
40
0.906250000000003
40
0.906250000000003
40
0.937500000000002
40
0.937500000000002
40
0.953125000000001
40
0.953125000000001
40
0.960937500000001
40
0.960937500000001
40
0.968750000000001
40
0.968750000000001
40
1
40
1
40
1
40
1
41
1
10
128.174319249604
20
10.5
30
0
41
1
10
128.262902513047
20
10.5
30
0
41
1
10
128.351485776491
20
10.4670811941285
30
0
41
1
10
128.528652303379
20
10.3254025593875
30
0
41
1
10
128.617235566823
20
10.2165817276337
30
0
41
1
10
128.79440209371
20
9.91658494234935
30
0
41
1
10
128.882985357154
20
9.72535983378936
30
0
41
1
10
129.060151884041
20
9.25936159488433
30
0
41
1
10
129.148735147485
20
8.984568352483
30
0
41
1
10
129.325901674372
20
8.35666607980718
30
0
41
1
10
129.414484937816
20
8.00357737935445
30
0
41
1
10
129.591651464704
20
7.23077268418433
30
0
41
1
10
129.680234728148
20
6.81111628056613
30
0
41
1
10
129.857401255035
20
5.92210326662581
30
0
41
1
10
129.945984518479
20
5.45283060414098
30
0
41
1
10
130.123151045367
20
4.48452849223259
30
0
41
1
10
130.21173430881
20
3.98558485163051
30
0
41
1
10
130.388900835698
20
2.97826439118398
30
0
41
1
10
130.477484099141
20
2.46995489961077
30
0
41
1
10
130.654650626029
20
1.46223704304572
30
0
41
1
10
130.743233889473
20
0.962866657136857
30
0
41
1
10
130.853962968777
20
0.353425496575824
30
0
41
1
10
130.876108784638
20
0.232265873984318
30
0
41
1
10
130.90932750843
20
0.0517604802754192
30
0
41
1
10
130.92040041636
20
-0.0080634803019279
30
0
41
1
10
130.942546232221
20
-0.128199476893343
30
0
41
1
10
130.997910771874
20
-0.429578135889642
30
0
41
1
10
131.053275311526
20
-0.735894541419981
30
0
41
1
10
131.186150206692
20
-1.47810138999475
30
0
41
1
10
131.274733470135
20
-1.98241869363895
30
0
41
1
10
131.451899997023
20
-2.9940770539792
30
0
41
1
10
131.540483260467
20
-3.50136950559235
30
0
41
1
10
131.717649787354
20
-4.49978488882633
30
0
41
1
10
131.806233050798
20
-4.99083232401807
30
0
41
1
10
131.983399577685
20
-5.93629540644983
30
0
41
1
10
132.071982841129
20
-6.39062327837362
30
0
41
1
10
132.249149368017
20
-7.24343215299879
30
0
41
1
10
132.33773263146
20
-7.64183525106677
30
0
41
1
10
132.514899158348
20
-8.36740142544059
30
0
41
1
10
132.603482421792
20
-8.69451739090357
30
0
41
1
10
132.780648948679
20
-9.26788816493988
30
0
41
1
10
132.869232212123
20
-9.51413718252405
30
0
41
1
10
133.04639873901
20
-9.922746121481
30
0
41
1
10
133.134982002454
20
-10.0851379174574
30
0
41
1
10
133.312148529342
20
-10.3291793935279
30
0
41
1
10
133.400731792786
20
-10.4108843038667
30
0
41
1
10
133.533606687951
20
-10.4788500313346
30
0
41
1
10
133.577898319673
20
-10.4924386005375
30
0
41
1
10
133.633262859325
20
-10.4988944283831
30
0
41
1
10
133.644335767256
20
-10.499659474406
30
0
41
1
10
133.666481583117
20
-10.5001587976748
30
0
41
1
10
133.677554491047
20
-10.4998961124246
30
0
41
1
10
133.710773214839
20
-10.4975481744178
30
0
41
1
10
133.7329190307
20
-10.4938988725141
30
0
41
1
10
133.843648110005
20
-10.4648132230221
30
0
41
1
10
133.932231373448
20
-10.4067342809723
30
0
41
1
10
134.109397900336
20
-10.2119895249258
30
0
41
1
10
134.19798116378
20
-10.0752648244103
30
0
41
1
10
134.375147690667
20
-9.71837428305071
30
0
41
1
10
134.463730954111
20
-9.49816747520279
30
0
41
1
10
134.640897480998
20
-8.9752560369908
30
0
41
1
10
134.729480744442
20
-8.67254447672755
30
0
41
1
10
134.90664727133
20
-7.99214080472535
30
0
41
1
10
134.995230534773
20
-7.61448343372763
30
0
41
1
10
135.172397061661
20
-6.79787977935925
30
0
41
1
10
135.260980325105
20
-6.35900373870422
30
0
41
1
10
135.438146851992
20
-5.43821591816379
30
0
41
1
10
135.526730115436
20
-4.95639136435372
30
0
41
1
10
135.703896642324
20
-3.97007861151531
30
0
41
1
10
135.792479905767
20
-3.46567177051605
30
0
41
1
10
135.969646432655
20
-2.45406893154222
30
0
41
1
10
136.058229696099
20
-1.94693079197918
30
0
41
1
10
136.191104591264
20
-1.19705332888645
30
0
41
1
10
136.235396222986
20
-0.948873085271032
30
0
41
1
10
136.301833670569
20
-0.580610230021961
30
0
41
1
10
136.32397948643
20
-0.458521862485156
30
0
41
1
10
136.368271118152
20
-0.215875554143906
30
0
41
1
10
136.390416934013
20
-0.0955247622583215
30
0
41
1
10
136.501146013318
20
0.504137459826069
30
0
41
1
10
136.589729276761
20
0.997541112444367
30
0
41
1
10
136.678312540205
20
1.49793063978109
30
0
0
SPLINE
5
103
100
AcDbEntity
8
1
62
256
6
ByLayer
370
13
48
1
60
0
100
AcDbSpline
70
4
71
3
72
32
73
28
40
0
40
0
40
0
40
0
40
0.125
40
0.125
40
0.1875
40
0.1875
40
0.25
40
0.25
40
0.3125
40
0.3125
40
0.375
40
0.375
40
0.4375
40
0.4375
40
0.5
40
0.5
40
0.5625
40
0.5625
40
0.625
40
0.625
40
0.6875
40
0.6875
40
0.75
40
0.75
40
0.875
40
0.875
40
1
40
1
40
1
40
1
41
1
10
125.7
20
0.984855670554396
30
0
41
1
10
125.806901229449
20
1.58200363439042
30
0
41
1
10
125.913802458899
20
2.19309340373087
30
0
41
1
10
126.074154303072
20
3.10905663736921
30
0
41
1
10
126.127604917797
20
3.41420185555674
30
0
41
1
10
126.234506147246
20
4.01993396724637
30
0
41
1
10
126.287956761971
20
4.32051513378804
30
0
41
1
10
126.39485799142
20
4.91268103698042
30
0
41
1
10
126.448308606145
20
5.20425909300201
30
0
41
1
10
126.555209835594
20
5.77394574151606
30
0
41
1
10
126.608660450318
20
6.05204725479305
30
0
41
1
10
126.715561679768
20
6.59048157669721
30
0
41
1
10
126.769012294492
20
6.85080757764771
30
0
41
1
10
126.875913523942
20
7.34977641603055
30
0
41
1
10
126.929364138666
20
7.58841340096845
30
0
41
1
10
127.036265368115
20
8.04066706266363
30
0
41
1
10
127.08971598284
20
8.25427942565912
30
0
41
1
10
127.196617212289
20
8.65387863792935
30
0
41
1
10
127.250067827014
20
8.83986309771103
30
0
41
1
10
127.356969056463
20
9.1824350655906
30
0
41
1
10
127.410419671188
20
9.33902223829776
30
0
41
1
10
127.517320900637
20
9.62190308575239
30
0
41
1
10
127.570771515362
20
9.74819834870118
30
0
41
1
10
127.731123359535
20
10.0815821046154
30
0
41
1
10
127.838024588984
20
10.2428435197856
30
0
41
1
10
128.051827047883
20
10.4519761859428
30
0
41
1
10
128.158728277332
20
10.5
30
0
41
1
10
128.265629506781
20
10.5
30
0
0
SPLINE
5
104
100
AcDbEntity
8
1
62
256
6
ByLayer
370
13
48
1
60
0
100
AcDbSpline
70
4
71
3
72
84
73
80
40
0
40
0
40
0
40
0
40
0.0312499999999993
40
0.0312499999999993
40
0.0624999999999986
40
0.0624999999999986
40
0.0937499999999979
40
0.0937499999999979
40
0.124999999999997
40
0.124999999999997
40
0.156249999999997
40
0.156249999999997
40
0.187499999999996
40
0.187499999999996
40
0.218749999999995
40
0.218749999999995
40
0.249999999999995
40
0.249999999999995
40
0.281249999999994
40
0.281249999999994
40
0.296874999999994
40
0.296874999999994
40
0.304687499999994
40
0.304687499999994
40
0.312499999999993
40
0.312499999999993
40
0.343749999999994
40
0.343749999999994
40
0.374999999999994
40
0.374999999999994
40
0.406249999999994
40
0.406249999999994
40
0.437499999999995
40
0.437499999999995
40
0.468749999999995
40
0.468749999999995
40
0.499999999999995
40
0.499999999999995
40
0.531249999999995
40
0.531249999999995
40
0.562499999999996
40
0.562499999999996
40
0.593749999999996
40
0.593749999999996
40
0.609374999999996
40
0.609374999999996
40
0.613281249999996
40
0.613281249999996
40
0.617187499999996
40
0.624999999999996
40
0.624999999999996
40
0.656249999999996
40
0.656249999999996
40
0.687499999999997
40
0.687499999999997
40
0.718749999999997
40
0.718749999999997
40
0.749999999999997
40
0.749999999999997
40
0.781249999999998
40
0.781249999999998
40
0.812499999999998
40
0.812499999999998
40
0.843749999999998
40
0.843749999999998
40
0.874999999999999
40
0.874999999999999
40
0.906249999999999
40
0.906249999999999
40
0.914062499999999
40
0.914062499999999
40
0.917968749999999
40
0.917968749999999
40
0.921874999999999
40
0.937499999999999
40
0.937499999999999
40
0.96875
40
0.96875
40
1
40
1
40
1
40
1
41
1
10
127.679455509466
20
10.5
30
0
41
1
10
127.773193603536
20
10.5
30
0
41
1
10
127.866931697606
20
10.4631222498746
30
0
41
1
10
128.054407885747
20
10.3038581603469
30
0
41
1
10
128.148145979817
20
10.1813912935168
30
0
41
1
10
128.335622167957
20
9.84369435073378
30
0
41
1
10
128.429360262028
20
9.62840254722093
30
0
41
1
10
128.616836450168
20
9.10468259106034
30
0
41
1
10
128.710574544238
20
8.79623648940353
30
0
41
1
10
128.898050732379
20
8.09400385571104
30
0
41
1
10
128.991788826449
20
7.70025724645316
30
0
41
1
10
129.179265014589
20
6.84309630047656
30
0
41
1
10
129.273003108659
20
6.37977300724862
30
0
41
1
10
129.4604792968
20
5.4049952152796
30
0
41
1
10
129.55421739087
20
4.89365630493364
30
0
41
1
10
129.74169357901
20
3.84703087156308
30
0
41
1
10
129.835431673081
20
3.31185077058376
30
0
41
1
10
130.022907861221
20
2.24091431328753
30
0
41
1
10
130.116645955291
20
1.70522998741993
30
0
41
1
10
130.257253096396
20
0.916120146477681
30
0
41
1
10
130.304122143431
20
0.655451744073758
30
0
41
1
10
130.374425713984
20
0.269498674244858
30
0
41
1
10
130.397860237502
20
0.141686666385596
30
0
41
1
10
130.444729284537
20
-0.112041151820193
30
0
41
1
10
130.468163808054
20
-0.23957340724121
30
0
41
1
10
130.585336425642
20
-0.882172019962582
30
0
41
1
10
130.679074519712
20
-1.41001881471385
30
0
41
1
10
130.866550707853
20
-2.47609468231261
30
0
41
1
10
130.960288801923
20
-3.01427398505783
30
0
41
1
10
131.147764990063
20
-4.07930838929488
30
0
41
1
10
131.241503084134
20
-4.60607278527297
30
0
41
1
10
131.428979272274
20
-5.62415791032942
30
0
41
1
10
131.522717366344
20
-6.11536382393649
30
0
41
1
10
131.710193554485
20
-7.03896511031405
30
0
41
1
10
131.803931648555
20
-7.47125253136252
30
0
41
1
10
131.991407836695
20
-8.25787299021852
30
0
41
1
10
132.085145930765
20
-8.61213726777402
30
0
41
1
10
132.272622118906
20
-9.23055945260089
30
0
41
1
10
132.366360212976
20
-9.49470582029184
30
0
41
1
10
132.553836401116
20
-9.9289866162141
30
0
41
1
10
132.647574495186
20
-10.0991627713123
30
0
41
1
10
132.835050683327
20
-10.3493554296175
30
0
41
1
10
132.928788777397
20
-10.4294459676317
30
0
41
1
10
133.069395918502
20
-10.4892986606762
30
0
41
1
10
133.116264965537
20
-10.4992411273323
30
0
41
1
10
133.174851274331
20
-10.5001373747273
30
0
41
1
10
133.18656853609
20
-10.4997433284439
30
0
41
1
10
133.210003059607
20
-10.4977863686079
30
0
41
1
10
133.245154844884
20
-10.4930962234835
30
0
41
1
10
133.28030663016
20
-10.4830279296532
30
0
41
1
10
133.397479247748
20
-10.4370355349663
30
0
41
1
10
133.491217341818
20
-10.3602869779233
30
0
41
1
10
133.678693529959
20
-10.117064670364
30
0
41
1
10
133.772431624029
20
-9.95051615651533
30
0
41
1
10
133.959907812169
20
-9.52350739435607
30
0
41
1
10
134.053645906239
20
-9.26300369557467
30
0
41
1
10
134.24112209438
20
-8.65156269283858
30
0
41
1
10
134.33486018845
20
-8.30063463786712
30
0
41
1
10
134.52233637659
20
-7.52007268440684
30
0
41
1
10
134.616074470661
20
-7.09050552003632
30
0
41
1
10
134.803550658801
20
-6.17150032481905
30
0
41
1
10
134.897288752871
20
-5.68216927733394
30
0
41
1
10
135.084764941012
20
-4.66688595085705
30
0
41
1
10
135.178503035082
20
-4.14104885976164
30
0
41
1
10
135.365979223222
20
-3.07695399209615
30
0
41
1
10
135.459717317292
20
-2.53878829029227
30
0
41
1
10
135.647193505433
20
-1.47196583170967
30
0
41
1
10
135.740931599503
20
-0.943360536266368
30
0
41
1
10
135.858104217091
20
-0.29945585895328
30
0
41
1
10
135.881538740608
20
-0.171504995869839
30
0
41
1
10
135.916690525885
20
0.0190113300120345
30
0
41
1
10
135.928407787643
20
0.0823909085751211
30
0
41
1
10
135.951842311161
20
0.209894383470726
30
0
41
1
10
136.010428619955
20
0.529788685079552
30
0
41
1
10
136.069014928749
20
0.855052765028603
30
0
41
1
10
136.209622069854
20
1.64304228064088
30
0
41
1
10
136.303360163924
20
2.1783164758024
30
0
41
1
10
136.490836352064
20
3.24928179108545
30
0
41
1
10
136.584574446135
20
3.78490250474573
30
0
41
1
10
136.678312540205
20
4.30912829274953
30
0
0
SPLINE
5
105
100
AcDbEntity
8
1
62
256
6
ByLayer
370
13
48
1
60
0
100
AcDbSpline
70
4
71
3
72
22
73
18
40
0
40
0
40
0
40
0
40
0.125
40
0.125
40
0.25
40
0.25
40
0.375
40
0.375
40
0.5
40
0.5
40
0.625
40
0.625
40
0.75
40
0.75
40
0.875
40
0.875
40
1
40
1
40
1
40
1
41
1
10
125.7
20
3.79525670166495
30
0
41
1
10
125.786281906944
20
4.28349100648686
30
0
41
1
10
125.872563813887
20
4.76529130859984
30
0
41
1
10
126.045127627774
20
5.69728271553006
30
0
41
1
10
126.131409534718
20
6.147397349644
30
0
41
1
10
126.303973348604
20
6.99788460298626
30
0
41
1
10
126.390255255548
20
7.39818568093972
30
0
41
1
10
126.562819069435
20
8.13394211224147
30
0
41
1
10
126.649100976379
20
8.46934915337212
30
0
41
1
10
126.821664790265
20
9.06510811715188
30
0
41
1
10
126.907946697209
20
9.32544607412331
30
0
41
1
10
127.080510511096
20
9.76671916166086
30
0
41
1
10
127.166792418039
20
9.94767440507084
30
0
41
1
10
127.339356231926
20
10.2315917316059
30
0
41
1
10
127.42563813887
20
10.3345978692373
30
0
41
1
10
127.598201952757
20
10.468775211153
30
0
41
1
10
127.6844838597
20
10.5
30
0
41
1
10
127.770765766644
20
10.5
30
0
0
SPLINE
5
106
100
AcDbEntity
8
1
62
256
6
ByLayer
370
13
48
1
60
0
100
AcDbSpline
70
4
71
3
72
80
73
76
40
0
40
0
40
0
40
0
40
0.0312499999999999
40
0.0312499999999999
40
0.0624999999999998
40
0.0624999999999998
40
0.0937499999999997
40
0.0937499999999997
40
0.125
40
0.125
40
0.15625
40
0.15625
40
0.1875
40
0.1875
40
0.21875
40
0.21875
40
0.249999999999999
40
0.249999999999999
40
0.281249999999999
40
0.281249999999999
40
0.289062499999999
40
0.289062499999999
40
0.296874999999999
40
0.296874999999999
40
0.312499999999999
40
0.312499999999999
40
0.343749999999999
40
0.343749999999999
40
0.374999999999999
40
0.374999999999999
40
0.406249999999999
40
0.406249999999999
40
0.437499999999999
40
0.437499999999999
40
0.468749999999999
40
0.468749999999999
40
0.499999999999998
40
0.499999999999998
40
0.531249999999998
40
0.531249999999998
40
0.562499999999998
40
0.562499999999998
40
0.578124999999998
40
0.578124999999998
40
0.593749999999998
40
0.593749999999998
40
0.624999999999998
40
0.624999999999998
40
0.656249999999998
40
0.656249999999998
40
0.687499999999998
40
0.687499999999998
40
0.718749999999999
40
0.718749999999999
40
0.749999999999999
40
0.749999999999999
40
0.781249999999999
40
0.781249999999999
40
0.812499999999999
40
0.812499999999999
40
0.843749999999999
40
0.843749999999999
40
0.859374999999999
40
0.859374999999999
40
0.867187499999999
40
0.867187499999999
40
0.874999999999999
40
0.874999999999999
40
0.906249999999999
40
0.906249999999999
40
0.9375
40
0.9375
40
0.96875
40
0.96875
40
1
40
1
40
1
40
1
41
1
10
127.184591769328
20
10.5
30
0
41
1
10
127.283484694025
20
10.5
30
0
41
1
10
127.382377618722
20
10.4589352382127
30
0
41
1
10
127.580163468115
20
10.2809959047996
30
0
41
1
10
127.679056392812
20
10.1440167414522
30
0
41
1
10
127.876842242205
20
9.76629249012166
30
0
41
1
10
127.975735166901
20
9.52547171209218
30
0
41
1
10
128.173521016295
20
8.94087716956727
30
0
41
1
10
128.272413940991
20
8.59709186433253
30
0
41
1
10
128.470199790384
20
7.81758603500867
30
0
41
1
10
128.569092715081
20
7.38193410296537
30
0
41
1
10
128.766878564474
20
6.43909482114367
30
0
41
1
10
128.865771489171
20
5.93203930566355
30
0
41
1
10
129.063557338564
20
4.87306998382823
30
0
41
1
10
129.162450263261
20
4.32130774906972
30
0
41
1
10
129.360236112654
20
3.20144440750764
30
0
41
1
10
129.459129037351
20
2.63346773523739
30
0
41
1
10
129.656914886744
20
1.50722555103155
30
0
41
1
10
129.755807811441
20
0.94902959363688
30
0
41
1
10
129.879423967312
20
0.270221499545301
30
0
41
1
10
129.904147198486
20
0.135391236657
30
0
41
1
10
129.953593660834
20
-0.132150582109915
30
0
41
1
10
129.978316892008
20
-0.266947729533285
30
0
41
1
10
130.052486585531
20
-0.674187486123543
30
0
41
1
10
130.101933047879
20
-0.949423152099513
30
0
41
1
10
130.250272434924
20
-1.78282224348121
30
0
41
1
10
130.349165359621
20
-2.34884519751222
30
0
41
1
10
130.546951209014
20
-3.47836342276858
30
0
41
1
10
130.64584413371
20
-4.04176002929088
30
0
41
1
10
130.843629983104
20
-5.13835769002952
30
0
41
1
10
130.9425229078
20
-5.67141575070127
30
0
41
1
10
131.140308757194
20
-6.67916312704202
30
0
41
1
10
131.23920168189
20
-7.15370441334162
30
0
41
1
10
131.436987531284
20
-8.02027693720117
30
0
41
1
10
131.53588045598
20
-8.41220364667009
30
0
41
1
10
131.733666305373
20
-9.09741008097427
30
0
41
1
10
131.83255923007
20
-9.39066118136591
30
0
41
1
10
132.030345079463
20
-9.87247942041981
30
0
41
1
10
132.12923800416
20
-10.0610937286752
30
0
41
1
10
132.327023853553
20
-10.3373904037134
30
0
41
1
10
132.42591677825
20
-10.4251676303155
30
0
41
1
10
132.574256165295
20
-10.4895973445707
30
0
41
1
10
132.623702627643
20
-10.4999169195255
30
0
41
1
10
132.72259555234
20
-10.5000820802351
30
0
41
1
10
132.772042014688
20
-10.4899354775923
30
0
41
1
10
132.920381401733
20
-10.4260457090136
30
0
41
1
10
133.019274326429
20
-10.3386567629619
30
0
41
1
10
133.217060175823
20
-10.0631692747335
30
0
41
1
10
133.31595310052
20
-9.8749757563981
30
0
41
1
10
133.513738949913
20
-9.39399607426478
30
0
41
1
10
133.612631874609
20
-9.10116247849075
30
0
41
1
10
133.810417724003
20
-8.41674642959367
30
0
41
1
10
133.909310648699
20
-8.02519227140044
30
0
41
1
10
134.107096498092
20
-7.15928194002623
30
0
41
1
10
134.205989422789
20
-6.6850300347316
30
0
41
1
10
134.403775272182
20
-5.67775293014338
30
0
41
1
10
134.502668196879
20
-5.14487567998557
30
0
41
1
10
134.700454046272
20
-4.048523738016
30
0
41
1
10
134.799346970969
20
-3.48519215288715
30
0
41
1
10
134.997132820362
20
-2.35569827648578
30
0
41
1
10
135.096025745059
20
-1.78963487621053
30
0
41
1
10
135.244365132104
20
-0.956112620238059
30
0
41
1
10
135.293811594452
20
-0.680825554770365
30
0
41
1
10
135.367981287974
20
-0.273495651090542
30
0
41
1
10
135.392704519149
20
-0.138649285540367
30
0
41
1
10
135.442150981497
20
0.128926700893231
30
0
41
1
10
135.466874212671
20
0.263674341465702
30
0
41
1
10
135.590490368542
20
0.942332015010606
30
0
41
1
10
135.689383293239
20
1.5004425456153
30
0
41
1
10
135.887169142632
20
2.62660892625934
30
0
41
1
10
135.986062067329
20
3.19459546294314
30
0
41
1
10
136.183847916722
20
4.31459088752317
30
0
41
1
10
136.282740841418
20
4.86647552443935
30
0
41
1
10
136.480526690812
20
5.92580419719883
30
0
41
1
10
136.579419615508
20
6.433096683559
30
0
41
1
10
136.678312540205
20
6.90480238069705
30
0
0
SPLINE
5
107
100
AcDbEntity
8
1
62
256
6
ByLayer
370
13
48
1
60
0
100
AcDbSpline
70
4
71
3
72
8
73
4
40
0
40
0
40
0
40
0
40
1
40
1
40
1
40
1
41
1
10
136.678312540205
20
5.40425034622021
30
0
41
1
10
137.952208360137
20
3.59136538269019
30
0
41
1
10
139.226104180068
20
1.78993547343711
30
0
41
1
10
140.5
20
2.842E-13
30
0
0
SPLINE
5
108
100
AcDbEntity
8
1
62
256
6
ByLayer
370
13
48
1
60
0
100
AcDbSpline
70
4
71
3
72
8
73
4
40
0
40
0
40
0
40
0
40
1
40
1
40
1
40
1
41
1
10
136.678312540205
20
-0.0619121786061498
30
0
41
1
10
137.952208360136
20
-0.0278991121536478
30
0
41
1
10
139.226104180068
20
-0.0072616011367472
30
0
41
1
10
140.5
20
0
30
0
0
SPLINE
5
109
100
AcDbEntity
8
1
62
256
6
ByLayer
370
13
48
1
60
0
100
AcDbSpline
70
4
71
3
72
8
73
4
40
0
40
0
40
0
40
0
40
1
40
1
40
1
40
1
41
1
10
136.678312540205
20
-5.75710549241043
30
0
41
1
10
137.952208360137
20
-3.82688426537419
30
0
41
1
10
139.226104180068
20
-1.90783511444621
30
0
41
1
10
140.5
20
3.695E-13
30
0
0
SPLINE
5
10A
100
AcDbEntity
8
1
62
256
6
ByLayer
370
13
48
1
60
0
100
AcDbSpline
70
4
71
3
72
8
73
4
40
0
40
0
40
0
40
0
40
1
40
1
40
1
40
1
41
1
10
136.678312540205
20
10.2331087465096
30
0
41
1
10
137.952208360137
20
6.81907586647901
30
0
41
1
10
139.226104180068
20
3.40801471537162
30
0
41
1
10
140.5
20
-6.537E-13
30
0
0
SPLINE
5
10B
100
AcDbEntity
8
1
62
256
6
ByLayer
370
13
48
1
60
0
100
AcDbSpline
70
4
71
3
72
8
73
4
40
0
40
0
40
0
40
0
40
1
40
1
40
1
40
1
41
1
10
136.678312540205
20
8.31029985990875
30
0
41
1
10
137.952208360137
20
5.54837559056671
30
0
41
1
10
139.226104180068
20
2.77825538832349
30
0
41
1
10
140.5
20
-2.84E-14
30
0
0
SPLINE
5
10C
100
AcDbEntity
8
1
62
256
6
ByLayer
370
13
48
1
60
0
100
AcDbSpline
70
4
71
3
72
8
73
4
40
0
40
0
40
0
40
0
40
1
40
1
40
1
40
1
41
1
10
136.678312540205
20
2.04474038555941
30
0
41
1
10
137.952208360137
20
1.3500404265171
30
0
41
1
10
139.226104180068
20
0.668455352600432
30
0
41
1
10
140.5
20
1.137E-13
30
0
0
SPLINE
5
10D
100
AcDbEntity
8
1
62
256
6
ByLayer
370
13
48
1
60
0
100
AcDbSpline
70
4
71
3
72
8
73
4
40
0
40
0
40
0
40
0
40
1
40
1
40
1
40
1
41
1
10
136.678312540205
20
-10.1103777536977
30
0
41
1
10
137.952208360137
20
-6.74386176563848
30
0
41
1
10
139.226104180068
20
-3.37371122814019
30
0
41
1
10
140.5
20
2.84E-14
30
0
0
SPLINE
5
10E
100
AcDbEntity
8
1
62
256
6
ByLayer
370
13
48
1
60
0
100
AcDbSpline
70
4
71
3
72
8
73
4
40
0
40
0
40
0
40
0
40
1
40
1
40
1
40
1
41
1
10
136.678312540205
20
8.8365202076609
30
0
41
1
10
137.952208360137
20
5.88378857181448
30
0
41
1
10
139.226104180068
20
2.93826034354333
30
0
41
1
10
140.5
20
4.832E-13
30
0
0
SPLINE
5
10F
100
AcDbEntity
8
1
62
256
6
ByLayer
370
13
48
1
60
0
100
AcDbSpline
70
4
71
3
72
8
73
4
40
0
40
0
40
0
40
0
40
1
40
1
40
1
40
1
41
1
10
136.678312540205
20
-1.55526641665844
30
0
41
1
10
137.952208360137
20
-1.05007263832968
30
0
41
1
10
139.226104180068
20
-0.531646681393369
30
0
41
1
10
140.5
20
-8.53E-14
30
0
0
SPLINE
5
110
100
AcDbEntity
8
1
62
256
6
ByLayer
370
13
48
1
60
0
100
AcDbSpline
70
4
71
3
72
8
73
4
40
0
40
0
40
0
40
0
40
1
40
1
40
1
40
1
41
1
10
136.678312540205
20
-10.4732578570621
30
0
41
1
10
137.952208360136
20
-6.98121786826727
30
0
41
1
10
139.226104180068
20
-3.49010642409658
30
0
41
1
10
140.5
20
-5.684E-13
30
0
0
SPLINE
5
111
100
AcDbEntity
8
1
62
256
6
ByLayer
370
13
48
1
60
0
100
AcDbSpline
70
4
71
3
72
8
73
4
40
0
40
0
40
0
40
0
40
1
40
1
40
1
40
1
41
1
10
136.678312540205
20
-9.05454194531035
30
0
41
1
10
137.952208360137
20
-6.02958861801662
30
0
41
1
10
139.226104180068
20
-3.01138594538338
30
0
41
1
10
140.5
20
2.84E-14
30
0
0
SPLINE
5
112
100
AcDbEntity
8
1
62
256
6
ByLayer
370
13
48
1
60
0
100
AcDbSpline
70
4
71
3
72
8
73
4
40
0
40
0
40
0
40
0
40
1
40
1
40
1
40
1
41
1
10
136.678312540205
20
-4.97234698353233
30
0
41
1
10
137.952208360137
20
-3.32667899557325
30
0
41
1
10
139.226104180068
20
-1.66921786863401
30
0
41
1
10
140.5
20
-2.842E-13
30
0
0
SPLINE
5
113
100
AcDbEntity
8
1
62
256
6
ByLayer
370
13
48
1
60
0
100
AcDbSpline
70
4
71
3
72
8
73
4
40
0
40
0
40
0
40
0
40
1
40
1
40
1
40
1
41
1
10
136.678312540205
20
-9.60430165826094
30
0
41
1
10
137.952208360137
20
-6.39746198064131
30
0
41
1
10
139.226104180068
20
-3.19600472879839
30
0
41
1
10
140.5
20
2.84E-14
30
0
0
SPLINE
5
114
100
AcDbEntity
8
1
62
256
6
ByLayer
370
13
48
1
60
0
100
AcDbSpline
70
4
71
3
72
8
73
4
40
0
40
0
40
0
40
0
40
1
40
1
40
1
40
1
41
1
10
136.678312540205
20
-9.71888486076648
30
0
41
1
10
137.952208360137
20
-6.48431913216947
30
0
41
1
10
139.226104180068
20
-3.24466717508926
30
0
41
1
10
140.5
20
2.84E-14
30
0
0
SPLINE
5
115
100
AcDbEntity
8
1
62
256
6
ByLayer
370
13
48
1
60
0
100
AcDbSpline
70
4
71
3
72
8
73
4
40
0
40
0
40
0
40
0
40
1
40
1
40
1
40
1
41
1
10
136.678312540205
20
-7.80459352790157
30
0
41
1
10
137.952208360136
20
-5.21201035430883
30
0
41
1
10
139.226104180068
20
-2.61046015851835
30
0
41
1
10
140.5
20
-4.263E-13
30
0
0
SPLINE
5
116
100
AcDbEntity
8
1
62
256
6
ByLayer
370
13
48
1
60
0
100
AcDbSpline
70
4
71
3
72
8
73
4
40
0
40
0
40
0
40
0
40
1
40
1
40
1
40
1
41
1
10
136.678312540205
20
-2.73538500197714
30
0
41
1
10
137.952208360137
20
-1.83650404244813
30
0
41
1
10
139.226104180068
20
-0.924702351844189
30
0
41
1
10
140.5
20
-1.421E-13
30
0
0
SPLINE
5
117
100
AcDbEntity
8
1
62
256
6
ByLayer
370
13
48
1
60
0
100
AcDbSpline
70
4
71
3
72
8
73
4
40
0
40
0
40
0
40
0
40
1
40
1
40
1
40
1
41
1
10
136.678312540205
20
-7.60571343845328
30
0
41
1
10
137.952208360137
20
-5.06125389361094
30
0
41
1
10
139.226104180068
20
-2.52599758931524
30
0
41
1
10
140.5
20
2.84E-14
30
0
0
SPLINE
5
118
100
AcDbEntity
8
1
62
256
6
ByLayer
370
13
48
1
60
0
100
AcDbSpline
70
4
71
3
72
8
73
4
40
0
40
0
40
0
40
0
40
1
40
1
40
1
40
1
41
1
10
136.678312540205
20
10.4636979807185
30
0
41
1
10
137.952208360137
20
6.97690995876863
30
0
41
1
10
139.226104180068
20
3.48898515828893
30
0
41
1
10
140.5
20
0
30
0
0
SPLINE
5
119
100
AcDbEntity
8
1
62
256
6
ByLayer
370
13
48
1
60
0
100
AcDbSpline
70
4
71
3
72
8
73
4
40
0
40
0
40
0
40
0
40
1
40
1
40
1
40
1
41
1
10
136.678312540205
20
-4.71256174611179
30
0
41
1
10
137.952208360137
20
-3.12975479343859
30
0
41
1
10
139.226104180068
20
-1.55888943578572
30
0
41
1
10
140.5
20
1.705E-13
30
0
0
SPLINE
5
11A
100
AcDbEntity
8
1
62
256
6
ByLayer
370
13
48
1
60
0
100
AcDbSpline
70
4
71
3
72
8
73
4
40
0
40
0
40
0
40
0
40
1
40
1
40
1
40
1
41
1
10
136.678312540205
20
3.48934415134977
30
0
41
1
10
137.952208360137
20
2.33884515052614
30
0
41
1
10
139.226104180068
20
1.17572190889371
30
0
41
1
10
140.5
20
0
30
0
0
SPLINE
5
11B
100
AcDbEntity
8
1
62
256
6
ByLayer
370
13
48
1
60
0
100
AcDbSpline
70
4
71
3
72
8
73
4
40
0
40
0
40
0
40
0
40
1
40
1
40
1
40
1
41
1
10
136.678312540205
20
10.2947179423217
30
0
41
1
10
137.952208360137
20
6.86577729512808
30
0
41
1
10
139.226104180068
20
3.43417958174572
30
0
41
1
10
140.5
20
2.84E-14
30
0
0
SPLINE
5
11C
100
AcDbEntity
8
1
62
256
6
ByLayer
370
13
48
1
60
0
100
AcDbSpline
70
4
71
3
72
8
73
4
40
0
40
0
40
0
40
0
40
1
40
1
40
1
40
1
41
1
10
136.678312540205
20
8.99121691935932
30
0
41
1
10
137.952208360137
20
6.00105284297342
30
0
41
1
10
139.226104180068
20
3.0039586331682
30
0
41
1
10
140.5
20
-2.84E-14
30
0
0
SPLINE
5
11D
100
AcDbEntity
8
1
62
256
6
ByLayer
370
13
48
1
60
0
100
AcDbSpline
70
4
71
3
72
8
73
4
40
0
40
0
40
0
40
0
40
1
40
1
40
1
40
1
41
1
10
136.678312540205
20
7.31257076101792
30
0
41
1
10
137.952208360136
20
4.86544836191993
30
0
41
1
10
139.226104180068
20
2.42790699792602
30
0
41
1
10
140.499999999999
20
1.279E-12
30
0
0
SPLINE
5
11E
100
AcDbEntity
8
1
62
256
6
ByLayer
370
13
48
1
60
0
100
AcDbSpline
70
4
71
3
72
8
73
4
40
0
40
0
40
0
40
0
40
1
40
1
40
1
40
1
41
1
10
136.678312540205
20
-5.99969778862993
30
0
41
1
10
137.952208360137
20
-4.01077575532722
30
0
41
1
10
139.226104180068
20
-2.01086186118815
30
0
41
1
10
140.5
20
-3.411E-13
30
0
0
SPLINE
5
11F
100
AcDbEntity
8
1
62
256
6
ByLayer
370
13
48
1
60
0
100
AcDbSpline
70
4
71
3
72
8
73
4
40
0
40
0
40
0
40
0
40
1
40
1
40
1
40
1
41
1
10
136.678312540205
20
-10.318366808919
30
0
41
1
10
137.952208360137
20
-6.87643404144777
30
0
41
1
10
139.226104180068
20
-3.43695332740336
30
0
41
1
10
140.5
20
2.84E-14
30
0
0
SPLINE
5
120
100
AcDbEntity
8
1
62
256
6
ByLayer
370
13
48
1
60
0
100
AcDbSpline
70
4
71
3
72
8
73
4
40
0
40
0
40
0
40
0
40
1
40
1
40
1
40
1
41
1
10
136.678312540205
20
5.65315458195687
30
0
41
1
10
137.952208360137
20
3.78004149268389
30
0
41
1
10
139.226104180068
20
1.89564284361199
30
0
41
1
10
140.5
20
-2.84E-14
30
0
0
SPLINE
5
121
100
AcDbEntity
8
1
62
256
6
ByLayer
370
13
48
1
60
0
100
AcDbSpline
70
4
71
3
72
8
73
4
40
0
40
0
40
0
40
0
40
1
40
1
40
1
40
1
41
1
10
136.678312540205
20
10.4353067049871
30
0
41
1
10
137.952208360137
20
6.95538860760746
30
0
41
1
10
139.226104180068
20
3.47692764112901
30
0
41
1
10
140.5
20
-6.537E-13
30
0
0
SPLINE
5
122
100
AcDbEntity
8
1
62
256
6
ByLayer
370
13
48
1
60
0
100
AcDbSpline
70
4
71
3
72
8
73
4
40
0
40
0
40
0
40
0
40
1
40
1
40
1
40
1
41
1
10
136.678312540205
20
4.33664585734024
30
0
41
1
10
137.952208360137
20
2.8789154698068
30
0
41
1
10
139.226104180068
20
1.4333563240273
30
0
41
1
10
140.5
20
2.274E-13
30
0
0
SPLINE
5
123
100
AcDbEntity
8
1
62
256
6
ByLayer
370
13
48
1
60
0
100
AcDbSpline
70
4
71
3
72
8
73
4
40
0
40
0
40
0
40
0
40
1
40
1
40
1
40
1
41
1
10
136.678312540205
20
-6.72574631329906
30
0
41
1
10
137.952208360137
20
-4.47355926651204
30
0
41
1
10
139.226104180068
20
-2.23162748185067
30
0
41
1
10
140.5
20
2.84E-14
30
0
0
SPLINE
5
124
100
AcDbEntity
8
1
62
256
6
ByLayer
370
13
48
1
60
0
100
AcDbSpline
70
4
71
3
72
8
73
4
40
0
40
0
40
0
40
0
40
1
40
1
40
1
40
1
41
1
10
136.678312540205
20
-3.60588656533156
30
0
41
1
10
137.952208360136
20
-2.39136195661399
30
0
41
1
10
139.226104180068
20
-1.18939102125427
30
0
41
1
10
140.5
20
-8.53E-14
30
0
0
SPLINE
5
125
100
AcDbEntity
8
1
62
256
6
ByLayer
370
13
48
1
60
0
100
AcDbSpline
70
4
71
3
72
8
73
4
40
0
40
0
40
0
40
0
40
1
40
1
40
1
40
1
41
1
10
136.678312540205
20
2.33110053055083
30
0
41
1
10
137.952208360137
20
1.56710912385898
30
0
41
1
10
139.226104180068
20
0.790069907533137
30
0
41
1
10
140.5
20
-8.53E-14
30
0
0
SPLINE
5
126
100
AcDbEntity
8
1
62
256
6
ByLayer
370
13
48
1
60
0
100
AcDbSpline
70
4
71
3
72
8
73
4
40
0
40
0
40
0
40
0
40
1
40
1
40
1
40
1
41
1
10
136.678312540205
20
1.14212317559907
30
0
41
1
10
137.952208360137
20
0.77471199117349
30
0
41
1
10
139.226104180068
20
0.394001453436232
30
0
41
1
10
140.5
20
-2.84E-14
30
0
0
SPLINE
5
127
100
AcDbEntity
8
1
62
256
6
ByLayer
370
13
48
1
60
0
100
AcDbSpline
70
4
71
3
72
8
73
4
40
0
40
0
40
0
40
0
40
1
40
1
40
1
40
1
41
1
10
136.678312540205
20
9.42841084213941
30
0
41
1
10
137.952208360136
20
6.2797203586818
30
0
41
1
10
139.226104180068
20
3.13689380820671
30
0
41
1
10
140.499999999999
20
1.6485E-12
30
0
0
SPLINE
5
128
100
AcDbEntity
8
1
62
256
6
ByLayer
370
13
48
1
60
0
100
AcDbSpline
70
4
71
3
72
8
73
4
40
0
40
0
40
0
40
0
40
1
40
1
40
1
40
1
41
1
10
136.678312540205
20
-8.55834232583081
30
0
41
1
10
137.952208360137
20
-5.71331085647719
30
0
41
1
10
139.226104180068
20
-2.86050922950969
30
0
41
1
10
140.5
20
2.84E-14
30
0
0
SPLINE
5
129
100
AcDbEntity
8
1
62
256
6
ByLayer
370
13
48
1
60
0
100
AcDbSpline
70
4
71
3
72
8
73
4
40
0
40
0
40
0
40
0
40
1
40
1
40
1
40
1
41
1
10
136.678312540205
20
-0.35464286213741
30
0
41
1
10
137.952208360137
20
-0.249796849173066
30
0
41
1
10
139.226104180068
20
-0.131581665976483
30
0
41
1
10
140.5
20
-2.84E-14
30
0
0
SPLINE
5
12A
100
AcDbEntity
8
1
62
256
6
ByLayer
370
13
48
1
60
0
100
AcDbSpline
70
4
71
3
72
8
73
4
40
0
40
0
40
0
40
0
40
1
40
1
40
1
40
1
41
1
10
136.678312540205
20
-10.3685732371029
30
0
41
1
10
137.952208360137
20
-6.91449186532665
30
0
41
1
10
139.226104180068
20
-3.45827554184217
30
0
41
1
10
140.5
20
6.537E-13
30
0
0
SPLINE
5
12B
100
AcDbEntity
8
1
62
256
6
ByLayer
370
13
48
1
60
0
100
AcDbSpline
70
4
71
3
72
8
73
4
40
0
40
0
40
0
40
0
40
1
40
1
40
1
40
1
41
1
10
136.678312540205
20
-10.4900672058214
30
0
41
1
10
137.952208360137
20
-6.99395980705322
30
0
41
1
10
139.226104180068
20
-3.49724520197327
30
0
41
1
10
140.5
20
6.537E-13
30
0
0
SPLINE
5
12C
100
AcDbEntity
8
1
62
256
6
ByLayer
370
13
48
1
60
0
100
AcDbSpline
70
4
71
3
72
8
73
4
40
0
40
0
40
0
40
0
40
1
40
1
40
1
40
1
41
1
10
136.678312540205
20
9.55359182805799
30
0
41
1
10
137.952208360137
20
6.37461091527786
30
0
41
1
10
139.226104180068
20
3.19005703693983
30
0
41
1
10
140.5
20
1.137E-13
30
0
0
SPLINE
5
12D
100
AcDbEntity
8
1
62
256
6
ByLayer
370
13
48
1
60
0
100
AcDbSpline
70
4
71
3
72
8
73
4
40
0
40
0
40
0
40
0
40
1
40
1
40
1
40
1
41
1
10
136.678312540205
20
-3.87943967913114
30
0
41
1
10
137.952208360137
20
-2.59872257960888
30
0
41
1
10
139.226104180068
20
-1.30556654626057
30
0
41
1
10
140.5
20
-2.274E-13
30
0
0
SPLINE
5
12E
100
AcDbEntity
8
1
62
256
6
ByLayer
370
13
48
1
60
0
100
AcDbSpline
70
4
71
3
72
8
73
4
40
0
40
0
40
0
40
0
40
1
40
1
40
1
40
1
41
1
10
136.678312540205
20
9.89599526652168
30
0
41
1
10
137.952208360136
20
6.59285895257898
30
0
41
1
10
139.226104180068
20
3.2941697856638
30
0
41
1
10
140.499999999999
20
1.7337E-12
30
0
0
SPLINE
5
12F
100
AcDbEntity
8
1
62
256
6
ByLayer
370
13
48
1
60
0
100
AcDbSpline
70
4
71
3
72
8
73
4
40
0
40
0
40
0
40
0
40
1
40
1
40
1
40
1
41
1
10
136.678312540205
20
-10.0274361785095
30
0
41
1
10
137.952208360136
20
-6.6809898192576
30
0
41
1
10
139.226104180068
20
-3.33848669383175
30
0
41
1
10
140.5
20
-5.684E-13
30
0
0
SPLINE
5
130
100
AcDbEntity
8
1
62
256
6
ByLayer
370
13
48
1
60
0
100
AcDbSpline
70
4
71
3
72
8
73
4
40
0
40
0
40
0
40
0
40
1
40
1
40
1
40
1
41
1
10
136.678312540205
20
3.21186609045415
30
0
41
1
10
137.952208360137
20
2.12850931199188
30
0
41
1
10
139.226104180068
20
1.05787949447387
30
0
41
1
10
140.5
20
1.705E-13
30
0
0
SPLINE
5
131
100
AcDbEntity
8
1
62
256
6
ByLayer
370
13
48
1
60
0
100
AcDbSpline
70
4
71
3
72
8
73
4
40
0
40
0
40
0
40
0
40
1
40
1
40
1
40
1
41
1
10
136.678312540205
20
-2.45167059528387
30
0
41
1
10
137.952208360136
20
-1.6214408859467
30
0
41
1
10
139.226104180068
20
-0.804211417957106
30
0
41
1
10
140.5
20
-5.68E-14
30
0
0
SPLINE
5
132
100
AcDbEntity
8
1
62
256
6
ByLayer
370
13
48
1
60
0
100
AcDbSpline
70
4
71
3
72
8
73
4
40
0
40
0
40
0
40
0
40
1
40
1
40
1
40
1
41
1
10
136.678312540205
20
0.850656380669562
30
0
41
1
10
137.952208360137
20
0.553772315732061
30
0
41
1
10
139.226104180068
20
0.270218150616302
30
0
41
1
10
140.5
20
5.68E-14
30
0
0
SPLINE
5
133
100
AcDbEntity
8
1
62
256
6
ByLayer
370
13
48
1
60
0
100
AcDbSpline
70
4
71
3
72
8
73
4
40
0
40
0
40
0
40
0
40
1
40
1
40
1
40
1
41
1
10
136.678312540205
20
-8.38540519075389
30
0
41
1
10
137.952208360137
20
-5.58221985345259
30
0
41
1
10
139.226104180068
20
-2.78706439760273
30
0
41
1
10
140.5
20
2.84E-14
30
0
0
SPLINE
5
134
100
AcDbEntity
8
1
62
256
6
ByLayer
370
13
48
1
60
0
100
AcDbSpline
70
4
71
3
72
8
73
4
40
0
40
0
40
0
40
0
40
1
40
1
40
1
40
1
41
1
10
136.678312540205
20
6.40060402834197
30
0
41
1
10
137.952208360137
20
4.25646595672237
30
0
41
1
10
139.226104180068
20
2.12291572598667
30
0
41
1
10
140.5
20
3.411E-13
30
0
0
SPLINE
5
135
100
AcDbEntity
8
1
62
256
6
ByLayer
370
13
48
1
60
0
100
AcDbSpline
70
4
71
3
72
8
73
4
40
0
40
0
40
0
40
0
40
1
40
1
40
1
40
1
41
1
10
136.678312540205
20
-9.19925608538054
30
0
41
1
10
137.952208360137
20
-6.13928583119861
30
0
41
1
10
139.226104180068
20
-3.07284472742705
30
0
41
1
10
140.5
20
5.969E-13
30
0
0
SPLINE
5
136
100
AcDbEntity
8
1
62
256
6
ByLayer
370
13
48
1
60
0
100
AcDbSpline
70
4
71
3
72
8
73
4
40
0
40
0
40
0
40
0
40
1
40
1
40
1
40
1
41
1
10
136.678312540205
20
7.51981800765856
30
0
41
1
10
137.952208360137
20
5.02254735297259
30
0
41
1
10
139.226104180068
20
2.51592302285766
30
0
41
1
10
140.5
20
-2.84E-14
30
0
0
SPLINE
5
137
100
AcDbEntity
8
1
62
256
6
ByLayer
370
13
48
1
60
0
100
AcDbSpline
70
4
71
3
72
8
73
4
40
0
40
0
40
0
40
0
40
1
40
1
40
1
40
1
41
1
10
136.678312540205
20
-6.94794727895558
30
0
41
1
10
137.952208360137
20
-4.64199357906134
30
0
41
1
10
139.226104180068
20
-2.32599421554784
30
0
41
1
10
140.5
20
4.547E-13
30
0
0
SPLINE
5
138
100
AcDbEntity
8
1
62
256
6
ByLayer
370
13
48
1
60
0
100
AcDbSpline
70
4
71
3
72
8
73
4
40
0
40
0
40
0
40
0
40
1
40
1
40
1
40
1
41
1
10
136.678312540205
20
9.99001011343645
30
0
41
1
10
137.952208360137
20
6.66412473696747
30
0
41
1
10
139.226104180068
20
3.33409703798665
30
0
41
1
10
140.5
20
2.84E-14
30
0
0
SPLINE
5
139
100
AcDbEntity
8
1
62
256
6
ByLayer
370
13
48
1
60
0
100
AcDbSpline
70
4
71
3
72
8
73
4
40
0
40
0
40
0
40
0
40
1
40
1
40
1
40
1
41
1
10
136.678312540205
20
6.63019324651353
30
0
41
1
10
137.952208360137
20
4.43050076353424
30
0
41
1
10
139.226104180068
20
2.22042018348046
30
0
41
1
10
140.5
20
-2.84E-14
30
0
0
SPLINE
5
13A
100
AcDbEntity
8
1
62
256
6
ByLayer
370
13
48
1
60
0
100
AcDbSpline
70
4
71
3
72
8
73
4
40
0
40
0
40
0
40
0
40
1
40
1
40
1
40
1
41
1
10
136.678312540205
20
8.12812697737442
30
0
41
1
10
137.952208360137
20
5.41028364238735
30
0
41
1
10
139.226104180068
20
2.70088821828315
30
0
41
1
10
140.5
20
-5.116E-13
30
0
0
SPLINE
5
13B
100
AcDbEntity
8
1
62
256
6
ByLayer
370
13
48
1
60
0
100
AcDbSpline
70
4
71
3
72
8
73
4
40
0
40
0
40
0
40
0
40
1
40
1
40
1
40
1
41
1
10
136.678312540205
20
-1.2651312692426
30
0
41
1
10
137.952208360136
20
-0.830142387545095
30
0
41
1
10
139.226104180068
20
-0.408428917188019
30
0
41
1
10
140.5
20
-2.84E-14
30
0
0
SPLINE
5
13C
100
AcDbEntity
8
1
62
256
6
ByLayer
370
13
48
1
60
0
100
AcDbSpline
70
4
71
3
72
8
73
4
40
0
40
0
40
0
40
0
40
1
40
1
40
1
40
1
41
1
10
136.678312540205
20
4.60158350330232
30
0
41
1
10
137.952208360137
20
3.07974533629368
30
0
41
1
10
139.226104180068
20
1.54587293802587
30
0
41
1
10
140.5
20
-2.84E-14
30
0
0
LINE
5
7D
100
AcDbEntity
8
80
62
256
6
ByLayer
370
18
48
1
60
0
100
AcDbLine
10
0
20
0
30
0
11
-5
21
0
31
0
39
0
210
0
220
0
230
1
0
LINE
5
7E
100
AcDbEntity
8
4
62
256
6
ByLayer
370
18
48
0.05
60
0
100
AcDbLine
10
-5
20
0
30
0
11
145.5
21
0
31
0
39
0
210
0
220
0
230
1
0
LINE
5
80
100
AcDbEntity
8
81
62
256
6
ByLayer
370
18
48
1
60
0
100
AcDbLine
10
140.5
20
0
30
0
11
145.5
21
0
31
0
39
0
210
0
220
0
230
1
0
LINE
5
81
100
AcDbEntity
8
SK4
62
256
6
ByLayer
370
18
48
0.05
60
0
100
AcDbLine
10
-61
20
0
30
0
11
145.5
21
0
31
0
39
0
210
0
220
0
230
1
0
LINE
5
83
100
AcDbEntity
8
1
62
256
6
ByLayer
370
18
48
1
60
0
100
AcDbLine
10
39.072941
20
-10.2
30
0
11
86.92094
21
-10.2
31
0
39
0
210
0
220
0
230
1
0
LINE
5
84
100
AcDbEntity
8
1
62
256
6
ByLayer
370
18
48
1
60
0
100
AcDbLine
10
86.92094
20
10.2
30
0
11
39.072941
21
10.2
31
0
39
0
210
0
220
0
230
1
0
LINE
5
85
100
AcDbEntity
8
1
62
256
6
ByLayer
370
18
48
1
60
0
100
AcDbLine
10
140.5
20
0
30
0
11
136.678313
21
10.5
31
0
39
0
210
0
220
0
230
1
0
LINE
5
86
100
AcDbEntity
8
1
62
256
6
ByLayer
370
18
48
1
60
0
100
AcDbLine
10
136.678313
20
-10.5
30
0
11
140.5
21
0
31
0
39
0
210
0
220
0
230
1
0
LINE
5
87
100
AcDbEntity
8
1
62
256
6
ByLayer
370
18
48
1
60
0
100
AcDbLine
10
3.785988
20
11.629223
30
0
11
0
21
12.5
31
0
39
0
210
0
220
0
230
1
0
LINE
5
88
100
AcDbEntity
8
1
62
256
6
ByLayer
370
18
48
1
60
0
100
AcDbLine
10
0
20
-12.5
30
0
11
3.785988
21
-11.629223
31
0
39
0
210
0
220
0
230
1
0
LINE
5
89
100
AcDbEntity
8
1
62
256
6
ByLayer
370
18
48
1
60
0
100
AcDbLine
10
140.5
20
0
30
0
11
136.678313
21
10.5
31
0
39
0
210
0
220
0
230
1
0
LINE
5
8A
100
AcDbEntity
8
1
62
256
6
ByLayer
370
18
48
1
60
0
100
AcDbLine
10
136.678313
20
-10.5
30
0
11
140.5
21
0
31
0
39
0
210
0
220
0
230
1
0
LINE
5
8B
100
AcDbEntity
8
1
62
256
6
ByLayer
370
18
48
1
60
0
100
AcDbLine
10
125.7
20
-10.5
30
0
11
136.678313
21
-10.5
31
0
39
0
210
0
220
0
230
1
0
LINE
5
8C
100
AcDbEntity
8
SK1
62
256
6
ByLayer
370
18
48
1
60
0
100
AcDbLine
10
-56
20
-11.5
30
0
11
-55
21
-12.5
31
0
39
0
210
0
220
0
230
1
0
LINE
5
8E
100
AcDbEntity
8
SK1
62
256
6
ByLayer
370
18
48
1
60
0
100
AcDbLine
10
-55
20
12.5
30
0
11
-56
21
11.5
31
0
39
0
210
0
220
0
230
1
0
LINE
5
8F
100
AcDbEntity
8
SK1
62
256
6
ByLayer
370
18
48
1
60
0
100
AcDbLine
10
-55
20
-12.5
30
0
11
0
21
-12.5
31
0
39
0
210
0
220
0
230
1
0
LINE
5
90
100
AcDbEntity
8
SK1
62
256
6
ByLayer
370
18
48
1
60
0
100
AcDbLine
10
0
20
12.5
30
0
11
-55
21
12.5
31
0
39
0
210
0
220
0
230
1
0
LINE
5
91
100
AcDbEntity
8
1
62
256
6
ByLayer
370
18
48
1
60
0
100
AcDbLine
10
0
20
12.5
30
0
11
0
21
-12.5
31
0
39
0
210
0
220
0
230
1
0
LINE
5
92
100
AcDbEntity
8
1
62
256
6
ByLayer
370
18
48
1
60
0
100
AcDbLine
10
136.678313
20
10.5
30
0
11
136.678313
21
10.166592
31
0
39
0
210
0
220
0
230
1
0
LINE
5
93
100
AcDbEntity
8
1
62
256
6
ByLayer
370
18
48
1
60
0
100
AcDbLine
10
136.678313
20
-10.5
30
0
11
136.678313
21
-1.497891
31
0
39
0
210
0
220
0
230
1
0
LINE
5
94
100
AcDbEntity
8
1
62
256
6
ByLayer
370
18
48
1
60
0
100
AcDbLine
10
10
20
-7.061148
30
0
11
10
21
9.199271
31
0
39
0
210
0
220
0
230
1
0
LINE
5
95
100
AcDbEntity
8
SK1
62
256
6
ByLayer
370
13
48
1
60
0
100
AcDbLine
10
-15.162813
20
-7.237775
30
0
11
-15.162813
21
7.237775
31
0
39
0
210
0
220
0
230
1
0
LINE
5
96
100
AcDbEntity
8
SK1
62
256
6
ByLayer
370
13
48
1
60
0
100
AcDbLine
10
-51.386002
20
5.000227
30
0
11
-51.386002
21
-5.000227
31
0
39
0
210
0
220
0
230
1
0
LINE
5
97
100
AcDbEntity
8
SK1
62
256
6
ByLayer
370
18
48
1
60
0
100
AcDbLine
10
-56
20
-11.5
30
0
11
-56
21
11.5
31
0
39
0
210
0
220
0
230
1
0
LINE
5
98
100
AcDbEntity
8
SK1
62
256
6
ByLayer
370
13
48
1
60
0
100
AcDbLine
10
-52.500329
20
-3.620591
30
0
11
-52.500329
21
3.620591
31
0
39
0
210
0
220
0
230
1
0
LINE
5
99
100
AcDbEntity
8
SK1
62
256
6
ByLayer
370
18
48
1
60
0
100
AcDbLine
10
-55
20
-12.5
30
0
11
-55
21
12.5
31
0
39
0
210
0
220
0
230
1
0
LINE
5
9A
100
AcDbEntity
8
SK1
62
256
6
ByLayer
370
18
48
1
60
0
100
AcDbLine
10
0
20
12.5
30
0
11
0
21
-12.5
31
0
39
0
210
0
220
0
230
1
0
LINE
5
9B
100
AcDbEntity
8
SK1
62
256
6
ByLayer
370
13
48
1
60
0
100
AcDbLine
10
-14.015776
20
6.592429
30
0
11
-14.015776
21
-6.592429
31
0
39
0
210
0
220
0
230
1
0
LINE
5
9C
100
AcDbEntity
8
1
62
256
6
ByLayer
370
18
48
1
60
0
100
AcDbLine
10
136.678313
20
10.5
30
0
11
136.678313
21
-10.5
31
0
39
0
210
0
220
0
230
1
0
LINE
5
9D
100
AcDbEntity
8
1
62
256
6
ByLayer
370
18
48
1
60
0
100
AcDbLine
10
136.678313
20
10.5
30
0
11
136.678313
21
-10.5
31
0
39
0
210
0
220
0
230
1
0
LINE
5
9E
100
AcDbEntity
8
1
62
256
6
ByLayer
370
18
48
1
60
0
100
AcDbLine
10
136.678313
20
10.5
30
0
11
136.678313
21
-10.5
31
0
39
0
210
0
220
0
230
1
0
LINE
5
9F
100
AcDbEntity
8
1
62
256
6
ByLayer
370
18
48
1
60
0
100
AcDbLine
10
125.7
20
10.5
30
0
11
125.7
21
-10.5
31
0
39
0
210
0
220
0
230
1
0
LINE
5
A0
100
AcDbEntity
8
1
62
256
6
ByLayer
370
18
48
1
60
0
100
AcDbLine
10
125.7
20
10.5
30
0
11
125.7
21
-10.5
31
0
39
0
210
0
220
0
230
1
0
LINE
5
A1
100
AcDbEntity
8
1
62
256
6
ByLayer
370
18
48
1
60
0
100
AcDbLine
10
136.678313
20
10.5
30
0
11
136.678313
21
-10.5
31
0
39
0
210
0
220
0
230
1
0
LINE
5
A2
100
AcDbEntity
8
1
62
256
6
ByLayer
370
18
48
1
60
0
100
AcDbLine
10
125.7
20
10.5
30
0
11
125.7
21
-10.5
31
0
39
0
210
0
220
0
230
1
0
LINE
5
A3
100
AcDbEntity
8
1
62
256
6
ByLayer
370
18
48
1
60
0
100
AcDbLine
10
136.678313
20
10.5
30
0
11
136.678313
21
-10.5
31
0
39
0
210
0
220
0
230
1
0
LINE
5
A4
100
AcDbEntity
8
SK2
62
256
6
ByLayer
370
13
48
1
60
0
100
AcDbLine
10
-62.5
20
-12.5
30
0
11
-62.5
21
41.524569
31
0
39
0
210
0
220
0
230
1
0
LINE
5
A6
100
AcDbEntity
8
SK2
62
256
6
ByLayer
370
13
48
1
60
0
100
AcDbLine
10
-57.5875
20
12.5
30
0
11
-64.5
21
12.5
31
0
39
0
210
0
220
0
230
1
0
LINE
5
A7
100
AcDbEntity
8
SK2
62
256
6
ByLayer
370
13
48
1
60
0
100
AcDbLine
10
-57.5875
20
-12.5
30
0
11
-64.5
21
-12.5
31
0
39
0
210
0
220
0
230
1
0
LINE
5
A8
100
AcDbEntity
8
1
62
256
6
ByLayer
370
18
48
1
60
1
100
AcDbLine
10
-62.5
20
12.5
30
0
11
-62.039216
21
9.000002
31
0
39
0
210
0
220
0
230
1
0
LINE
5
A9
100
AcDbEntity
8
1
62
256
6
ByLayer
370
18
48
1
60
1
100
AcDbLine
10
-62.039216
20
9.000002
30
0
11
-62.960784
21
8.999998
31
0
39
0
210
0
220
0
230
1
0
LINE
5
AA
100
AcDbEntity
8
1
62
256
6
ByLayer
370
18
48
1
60
1
100
AcDbLine
10
-62.960784
20
8.999998
30
0
11
-62.5
21
12.5
31
0
39
0
210
0
220
0
230
1
0
LINE
5
AB
100
AcDbEntity
8
1
62
256
6
ByLayer
370
18
48
1
60
1
100
AcDbLine
10
-62.5
20
-12.5
30
0
11
-62.960784
21
-9.000002
31
0
39
0
210
0
220
0
230
1
0
LINE
5
AC
100
AcDbEntity
8
1
62
256
6
ByLayer
370
18
48
1
60
1
100
AcDbLine
10
-62.960784
20
-9.000002
30
0
11
-62.039216
21
-8.999998
31
0
39
0
210
0
220
0
230
1
0
LINE
5
AD
100
AcDbEntity
8
1
62
256
6
ByLayer
370
18
48
1
60
1
100
AcDbLine
10
-62.039216
20
-8.999998
30
0
11
-62.5
21
-12.5
31
0
39
0
210
0
220
0
230
1
0
LINE
5
AE
100
AcDbEntity
8
2
62
256
6
ByLayer
370
13
48
1
60
0
100
AcDbLine
10
148
20
-10.5
30
0
11
148
21
38.774683
31
0
39
0
210
0
220
0
230
1
0
LINE
5
B0
100
AcDbEntity
8
2
62
256
6
ByLayer
370
13
48
1
60
0
100
AcDbLine
10
138.265813
20
10.5
30
0
11
150
21
10.5
31
0
39
0
210
0
220
0
230
1
0
LINE
5
B1
100
AcDbEntity
8
2
62
256
6
ByLayer
370
13
48
1
60
0
100
AcDbLine
10
138.265813
20
-10.5
30
0
11
150
21
-10.5
31
0
39
0
210
0
220
0
230
1
0
LINE
5
B2
100
AcDbEntity
8
1
62
256
6
ByLayer
370
18
48
1
60
1
100
AcDbLine
10
148
20
10.5
30
0
11
148.460784
21
7.000002
31
0
39
0
210
0
220
0
230
1
0
LINE
5
B3
100
AcDbEntity
8
1
62
256
6
ByLayer
370
18
48
1
60
1
100
AcDbLine
10
148.460784
20
7.000002
30
0
11
147.539216
21
6.999998
31
0
39
0
210
0
220
0
230
1
0
LINE
5
B4
100
AcDbEntity
8
1
62
256
6
ByLayer
370
18
48
1
60
1
100
AcDbLine
10
147.539216
20
6.999998
30
0
11
148
21
10.5
31
0
39
0
210
0
220
0
230
1
0
LINE
5
B5
100
AcDbEntity
8
1
62
256
6
ByLayer
370
18
48
1
60
1
100
AcDbLine
10
148
20
-10.5
30
0
11
147.539216
21
-7.000002
31
0
39
0
210
0
220
0
230
1
0
LINE
5
B6
100
AcDbEntity
8
1
62
256
6
ByLayer
370
18
48
1
60
1
100
AcDbLine
10
147.539216
20
-7.000002
30
0
11
148.460784
21
-6.999998
31
0
39
0
210
0
220
0
230
1
0
LINE
5
B7
100
AcDbEntity
8
1
62
256
6
ByLayer
370
18
48
1
60
1
100
AcDbLine
10
148.460784
20
-6.999998
30
0
11
148
21
-10.5
31
0
39
0
210
0
220
0
230
1
0
LINE
5
B8
100
AcDbEntity
8
SK2
62
256
6
ByLayer
370
13
48
1
60
0
100
AcDbLine
10
141.042957
20
-1.491762
30
0
11
147.682423
21
-19.733545
31
0
39
0
210
0
220
0
230
1
0
LINE
5
B9
100
AcDbEntity
8
SK2
62
256
6
ByLayer
370
13
48
1
60
0
100
AcDbLine
10
141.042957
20
1.491762
30
0
11
147.682423
21
19.733545
31
0
39
0
210
0
220
0
230
1
0
LINE
5
BA
100
AcDbEntity
8
1
62
256
6
ByLayer
370
18
48
1
60
1
100
AcDbLine
10
146.998383
20
-17.85416
30
0
11
150.051575
21
-16.082064
31
0
39
0
210
0
220
0
230
1
0
LINE
5
BB
100
AcDbEntity
8
1
62
256
6
ByLayer
370
18
48
1
60
1
100
AcDbLine
10
150.051575
20
-16.082064
30
0
11
150.406196
21
-16.93267
31
0
39
0
210
0
220
0
230
1
0
LINE
5
BC
100
AcDbEntity
8
1
62
256
6
ByLayer
370
18
48
1
60
1
100
AcDbLine
10
150.406196
20
-16.93267
30
0
11
146.998383
21
-17.85416
31
0
39
0
210
0
220
0
230
1
0
LINE
5
BD
100
AcDbEntity
8
1
62
256
6
ByLayer
370
18
48
1
60
1
100
AcDbLine
10
146.998383
20
17.85416
30
0
11
150.406193
21
16.932671
31
0
39
0
210
0
220
0
230
1
0
LINE
5
BE
100
AcDbEntity
8
1
62
256
6
ByLayer
370
18
48
1
60
1
100
AcDbLine
10
150.406193
20
16.932671
30
0
11
150.051579
21
16.082063
31
0
39
0
210
0
220
0
230
1
0
LINE
5
BF
100
AcDbEntity
8
1
62
256
6
ByLayer
370
18
48
1
60
1
100
AcDbLine
10
150.051579
20
16.082063
30
0
11
146.998383
21
17.85416
31
0
39
0
210
0
220
0
230
1
0
LINE
5
141
100
AcDbEntity
8
1
62
256
6
ByLayer
370
18
48
1
60
1
100
AcDbLine
10
-62.5
20
12.5
30
0
11
-62.039216
21
9.000002
31
0
39
0
210
0
220
0
230
1
0
LINE
5
142
100
AcDbEntity
8
1
62
256
6
ByLayer
370
18
48
1
60
1
100
AcDbLine
10
-62.039216
20
9.000002
30
0
11
-62.960784
21
8.999998
31
0
39
0
210
0
220
0
230
1
0
LINE
5
143
100
AcDbEntity
8
1
62
256
6
ByLayer
370
18
48
1
60
1
100
AcDbLine
10
-62.960784
20
8.999998
30
0
11
-62.5
21
12.5
31
0
39
0
210
0
220
0
230
1
0
LINE
5
145
100
AcDbEntity
8
1
62
256
6
ByLayer
370
18
48
1
60
1
100
AcDbLine
10
-62.5
20
-12.5
30
0
11
-62.960784
21
-9.000002
31
0
39
0
210
0
220
0
230
1
0
LINE
5
146
100
AcDbEntity
8
1
62
256
6
ByLayer
370
18
48
1
60
1
100
AcDbLine
10
-62.960784
20
-9.000002
30
0
11
-62.039216
21
-8.999998
31
0
39
0
210
0
220
0
230
1
0
LINE
5
147
100
AcDbEntity
8
1
62
256
6
ByLayer
370
18
48
1
60
1
100
AcDbLine
10
-62.039216
20
-8.999998
30
0
11
-62.5
21
-12.5
31
0
39
0
210
0
220
0
230
1
0
LINE
5
14B
100
AcDbEntity
8
1
62
256
6
ByLayer
370
18
48
1
60
1
100
AcDbLine
10
148
20
10.5
30
0
11
148.460784
21
7.000002
31
0
39
0
210
0
220
0
230
1
0
LINE
5
14C
100
AcDbEntity
8
1
62
256
6
ByLayer
370
18
48
1
60
1
100
AcDbLine
10
148.460784
20
7.000002
30
0
11
147.539216
21
6.999998
31
0
39
0
210
0
220
0
230
1
0
LINE
5
14D
100
AcDbEntity
8
1
62
256
6
ByLayer
370
18
48
1
60
1
100
AcDbLine
10
147.539216
20
6.999998
30
0
11
148
21
10.5
31
0
39
0
210
0
220
0
230
1
0
LINE
5
14F
100
AcDbEntity
8
1
62
256
6
ByLayer
370
18
48
1
60
1
100
AcDbLine
10
148
20
-10.5
30
0
11
147.539216
21
-7.000002
31
0
39
0
210
0
220
0
230
1
0
LINE
5
150
100
AcDbEntity
8
1
62
256
6
ByLayer
370
18
48
1
60
1
100
AcDbLine
10
147.539216
20
-7.000002
30
0
11
148.460784
21
-6.999998
31
0
39
0
210
0
220
0
230
1
0
LINE
5
151
100
AcDbEntity
8
1
62
256
6
ByLayer
370
18
48
1
60
1
100
AcDbLine
10
148.460784
20
-6.999998
30
0
11
148
21
-10.5
31
0
39
0
210
0
220
0
230
1
0
LINE
5
154
100
AcDbEntity
8
1
62
256
6
ByLayer
370
18
48
1
60
1
100
AcDbLine
10
146.998383
20
-17.85416
30
0
11
150.051575
21
-16.082064
31
0
39
0
210
0
220
0
230
1
0
LINE
5
155
100
AcDbEntity
8
1
62
256
6
ByLayer
370
18
48
1
60
1
100
AcDbLine
10
150.051575
20
-16.082064
30
0
11
150.406196
21
-16.93267
31
0
39
0
210
0
220
0
230
1
0
LINE
5
156
100
AcDbEntity
8
1
62
256
6
ByLayer
370
18
48
1
60
1
100
AcDbLine
10
150.406196
20
-16.93267
30
0
11
146.998383
21
-17.85416
31
0
39
0
210
0
220
0
230
1
0
LINE
5
158
100
AcDbEntity
8
1
62
256
6
ByLayer
370
18
48
1
60
1
100
AcDbLine
10
146.998383
20
17.85416
30
0
11
150.406193
21
16.932671
31
0
39
0
210
0
220
0
230
1
0
LINE
5
159
100
AcDbEntity
8
1
62
256
6
ByLayer
370
18
48
1
60
1
100
AcDbLine
10
150.406193
20
16.932671
30
0
11
150.051579
21
16.082063
31
0
39
0
210
0
220
0
230
1
0
LINE
5
15A
100
AcDbEntity
8
1
62
256
6
ByLayer
370
18
48
1
60
1
100
AcDbLine
10
150.051579
20
16.082063
30
0
11
146.998383
21
17.85416
31
0
39
0
210
0
220
0
230
1
0
MTEXT
5
13D
100
AcDbEntity
8
SK2
62
256
6
ByLayer
370
18
48
1
60
0
100
AcDbMText
10
-63.841114
20
24.158438
30
0
210
0
220
0
230
1
1
%%c
40
3
41
0
44
1.084337
50
90
71
7
72
5
7
iso_b_vert
0
MTEXT
5
140
100
AcDbEntity
8
SK2
62
256
6
ByLayer
370
18
48
1
60
0
100
AcDbMText
10
-63.841114
20
30.135
30
0
210
0
220
0
230
1
1
\W0.7513;25.000
40
3
41
0
44
1.084337
50
90
71
7
72
5
7
iso_b_vert
0
MTEXT
5
149
100
AcDbEntity
8
2
62
256
6
ByLayer
370
18
48
1
60
0
100
AcDbMText
10
146.658886
20
22.158438
30
0
210
0
220
0
230
1
1
%%c
40
3
41
0
44
1.084337
50
90
71
7
72
5
7
iso_b_vert
0
MTEXT
5
14A
100
AcDbEntity
8
2
62
256
6
ByLayer
370
18
48
1
60
0
100
AcDbMText
10
146.658886
20
28.135
30
0
210
0
220
0
230
1
1
\W0.7022;21.000
40
3
41
0
44
1.084337
50
90
71
7
72
5
7
iso_b_vert
0
MTEXT
5
153
100
AcDbEntity
8
SK2
62
256
6
ByLayer
370
18
48
1
60
0
100
AcDbMText
10
160.409114
20
3.734657
30
0
210
0
220
0
230
1
1
\W0.7071;140%%d
40
3
41
0
44
1.084337
50
270
71
7
72
5
7
iso_b_vert
0
MTEXT
5
15C
100
AcDbEntity
8
SK6
62
256
6
ByLayer
370
18
48
1
60
0
100
AcDbMText
10
18.712746
20
-67.114886
30
0
210
0
220
0
230
1
1
\W0.7358;H85521.0
40
3
41
0
44
1.084337
50
0
71
7
72
5
7
iso_b_vert
0
HATCH
5
144
100
AcDbEntity
8
SK2
62
256
6
ByLayer
370
13
48
1
60
0
100
AcDbHatch
10
0
20
0
30
0
210
0
220
0
230
1
2
ANSI31
70
0
71
0
91
1
92
5
93
3
72
1
10
-62.5
20
12.5
11
-62.0392162584472
21
9.00000169255318
72
1
10
-62.0392162584472
20
9.00000169255318
11
-62.9607837415528
21
8.99999830744682
72
1
10
-62.9607837415528
20
8.99999830744682
11
-62.5
21
12.5
97
0
75
0
76
1
52
0
41
0.0062
77
0
78
1
53
45
43
0
44
0
45
-0.0139193969876572
46
0.0139193969876572
79
0
47
0
98
1
10
0
20
0
0
HATCH
5
148
100
AcDbEntity
8
SK2
62
256
6
ByLayer
370
13
48
1
60
0
100
AcDbHatch
10
0
20
0
30
0
210
0
220
0
230
1
2
ANSI31
70
0
71
0
91
1
92
5
93
3
72
1
10
-62.5
20
-12.5
11
-62.9607837415528
21
-9.00000169255318
72
1
10
-62.9607837415528
20
-9.00000169255318
11
-62.0392162584472
21
-8.99999830744682
72
1
10
-62.0392162584472
20
-8.99999830744682
11
-62.5
21
-12.5
97
0
75
0
76
1
52
0
41
0.0062
77
0
78
1
53
45
43
0
44
0
45
-0.0139193969876572
46
0.0139193969876572
79
0
47
0
98
1
10
0
20
0
0
HATCH
5
14E
100
AcDbEntity
8
2
62
256
6
ByLayer
370
13
48
1
60
0
100
AcDbHatch
10
0
20
0
30
0
210
0
220
0
230
1
2
ANSI31
70
0
71
0
91
1
92
5
93
3
72
1
10
148
20
10.5
11
148.460783741553
21
7.00000169255318
72
1
10
148.460783741553
20
7.00000169255318
11
147.539216258447
21
6.99999830744682
72
1
10
147.539216258447
20
6.99999830744682
11
148
21
10.5
97
0
75
0
76
1
52
0
41
0.0062
77
0
78
1
53
45
43
0
44
0
45
-0.0139193969876572
46
0.0139193969876572
79
0
47
0
98
1
10
0
20
0
0
HATCH
5
152
100
AcDbEntity
8
2
62
256
6
ByLayer
370
13
48
1
60
0
100
AcDbHatch
10
0
20
0
30
0
210
0
220
0
230
1
2
ANSI31
70
0
71
0
91
1
92
5
93
3
72
1
10
148
20
-10.5
11
147.539216258447
21
-7.00000169255318
72
1
10
147.539216258447
20
-7.00000169255318
11
148.460783741553
21
-6.99999830744682
72
1
10
148.460783741553
20
-6.99999830744682
11
148
21
-10.5
97
0
75
0
76
1
52
0
41
0.0062
77
0
78
1
53
45
43
0
44
0
45
-0.0139193969876572
46
0.0139193969876572
79
0
47
0
98
1
10
0
20
0
0
HATCH
5
157
100
AcDbEntity
8
SK2
62
256
6
ByLayer
370
13
48
1
60
0
100
AcDbHatch
10
0
20
0
30
0
210
0
220
0
230
1
2
ANSI31
70
0
71
0
91
1
92
5
93
3
72
1
10
146.998382723188
20
-17.8541597949322
11
150.051575425693
21
-16.0820638240607
72
1
10
150.051575425693
20
-16.0820638240607
11
150.406195833975
21
-16.9326700737196
72
1
10
150.406195833975
20
-16.9326700737196
11
146.998382723188
21
-17.8541597949322
97
0
75
0
76
1
52
0
41
0.0062
77
0
78
1
53
45
43
0
44
0
45
-0.0139193969876572
46
0.0139193969876572
79
0
47
0
98
1
10
0
20
0
0
HATCH
5
15B
100
AcDbEntity
8
SK2
62
256
6
ByLayer
370
13
48
1
60
0
100
AcDbHatch
10
0
20
0
30
0
210
0
220
0
230
1
2
ANSI31
70
0
71
0
91
1
92
5
93
3
72
1
10
146.998382723188
20
17.8541597949322
11
150.406192709519
21
16.9326713763016
72
1
10
150.406192709519
20
16.9326713763016
11
150.051578550149
21
16.0820625214787
72
1
10
150.051578550149
20
16.0820625214787
11
146.998382723188
21
17.8541597949322
97
0
75
0
76
1
52
0
41
0.0062
77
0
78
1
53
45
43
0
44
0
45
-0.0139193969876572
46
0.0139193969876572
79
0
47
0
98
1
10
0
20
0
0
DIMENSION
5
15F
100
AcDbEntity
8
SK2
62
256
6
ByLayer
370
18
48
1
60
0
100
AcDbDimension
2
_U0
10
140.5
20
-45.952229
30
0
11
42.25
21
-45.952229
31
0
70
32
71
1
72
1
41
1
210
0
220
0
230
1
3
Standard
100
AcDbAlignedDimension
13
-56
23
-12.5
33
0
14
140.5
24
0
34
0
50
0
100
AcDbRotatedDimension
1001
ACAD
1000
DSTYLE
1002
{
1070
   371
1070
    13
1070
   372
1070
    13
1070
     3
1000

1070
   170
1070
     0
1070
   144
1040
1.0
1070
   277
1070
     2
1070
   284
1070
     8
1070
   278
1070
    46
1070
   146
1040
1.166667
1070
   345
1005
16
1070
   347
1005
16
1070
   346
1005
16
1070
   344
1005
0
1070
   343
1005
0
1070
   172
1070
     1
1070
    76
1070
     0
1070
    75
1070
     0
1070
   282
1070
     0
1070
   281
1070
     0
1070
    71
1070
     0
1070
    74
1070
     0
1070
   279
1070
     0
1070
   173
1070
     1
1070
   340
1005
13E
1070
   271
1070
     2
1070
   272
1070
     3
1070
    77
1070
     1
1070
    73
1070
     1
1070
   171
1070
     3
1070
   274
1070
     4
1070
   177
1070
     2
1070
   176
1070
     2
1070
   178
1070
     2
1070
    78
1070
     8
1070
    48
1040
-0.1
1070
    41
1040
3.5
1070
   147
1040
1.5
1070
    42
1040
1.5875
1070
    44
1040
2.0
1070
   140
1040
3.0
1002
}
1001
ACAD_DSTYLE_DIM_LINETYPE
1070
   380
1005
16
1001
ACAD_DSTYLE_DIM_EXT1_LINETYPE
1070
   381
1005
16
1001
ACAD_DSTYLE_DIM_EXT2_LINETYPE
1070
   382
1005
16
0
DIMENSION
5
178
100
AcDbEntity
8
SK2
62
256
6
ByLayer
370
18
48
1
60
0
100
AcDbDimension
2
_U1
10
3
20
-35.952229
30
0
11
71.75
21
-35.952229
31
0
70
32
71
1
72
1
41
1
210
0
220
0
230
1
3
Standard
100
AcDbAlignedDimension
13
140.5
23
0
33
0
14
3
24
-10.5
34
0
50
0
100
AcDbRotatedDimension
1001
ACAD
1000
DSTYLE
1002
{
1070
   371
1070
    13
1070
   372
1070
    13
1070
     3
1000

1070
   170
1070
     0
1070
   144
1040
1.0
1070
   277
1070
     2
1070
   284
1070
     8
1070
   278
1070
    46
1070
   146
1040
1.166667
1070
   345
1005
16
1070
   347
1005
16
1070
   346
1005
16
1070
   344
1005
0
1070
   343
1005
0
1070
   172
1070
     1
1070
    76
1070
     0
1070
    75
1070
     0
1070
   282
1070
     0
1070
   281
1070
     0
1070
    71
1070
     0
1070
    74
1070
     0
1070
   279
1070
     0
1070
   173
1070
     1
1070
   340
1005
13E
1070
   271
1070
     2
1070
   272
1070
     3
1070
    77
1070
     1
1070
    73
1070
     1
1070
   171
1070
     3
1070
   274
1070
     4
1070
   177
1070
     2
1070
   176
1070
     2
1070
   178
1070
     2
1070
    78
1070
     8
1070
    48
1040
-0.1
1070
    41
1040
3.5
1070
   147
1040
1.5
1070
    42
1040
1.5875
1070
    44
1040
2.0
1070
   140
1040
3.0
1002
}
1001
ACAD_DSTYLE_DIM_LINETYPE
1070
   380
1005
16
1001
ACAD_DSTYLE_DIM_EXT1_LINETYPE
1070
   381
1005
16
1001
ACAD_DSTYLE_DIM_EXT2_LINETYPE
1070
   382
1005
16
0
DIMENSION
5
190
100
AcDbEntity
8
SK2
62
256
6
ByLayer
370
18
48
1
60
0
100
AcDbDimension
2
_U2
10
0
20
-35.952229
30
0
11
-28
21
-35.952229
31
0
70
32
71
1
72
1
41
1
210
0
220
0
230
1
3
Standard
100
AcDbAlignedDimension
13
-56
23
-12.5
33
0
14
0
24
-12.5
34
0
50
0
100
AcDbRotatedDimension
1001
ACAD
1000
DSTYLE
1002
{
1070
   371
1070
    13
1070
   372
1070
    13
1070
     3
1000

1070
   170
1070
     0
1070
   144
1040
1.0
1070
   277
1070
     2
1070
   284
1070
     8
1070
   278
1070
    46
1070
   146
1040
1.166667
1070
   345
1005
16
1070
   347
1005
16
1070
   346
1005
16
1070
   344
1005
0
1070
   343
1005
0
1070
   172
1070
     1
1070
    76
1070
     0
1070
    75
1070
     0
1070
   282
1070
     0
1070
   281
1070
     0
1070
    71
1070
     0
1070
    74
1070
     0
1070
   279
1070
     0
1070
   173
1070
     1
1070
   340
1005
13E
1070
   271
1070
     2
1070
   272
1070
     3
1070
    77
1070
     1
1070
    73
1070
     1
1070
   171
1070
     3
1070
   274
1070
     4
1070
   177
1070
     2
1070
   176
1070
     2
1070
   178
1070
     2
1070
    78
1070
     8
1070
    48
1040
-0.1
1070
    41
1040
3.5
1070
   147
1040
1.5
1070
    42
1040
1.5875
1070
    44
1040
2.0
1070
   140
1040
3.0
1002
}
1001
ACAD_DSTYLE_DIM_LINETYPE
1070
   380
1005
16
1001
ACAD_DSTYLE_DIM_EXT1_LINETYPE
1070
   381
1005
16
1001
ACAD_DSTYLE_DIM_EXT2_LINETYPE
1070
   382
1005
16
0
DIMENSION
5
1A8
100
AcDbEntity
8
SK2
62
256
6
ByLayer
370
18
48
1
60
0
100
AcDbDimension
2
_U3
10
21
20
32.952229
30
0
11
80.75
21
32.952229
31
0
70
32
71
1
72
1
41
1
210
0
220
0
230
1
3
Standard
100
AcDbAlignedDimension
13
140.5
23
0
33
0
14
21
24
10.5
34
0
50
0
100
AcDbRotatedDimension
1001
ACAD
1000
DSTYLE
1002
{
1070
   371
1070
    13
1070
   372
1070
    13
1070
     3
1000

1070
   170
1070
     0
1070
   144
1040
1.0
1070
   277
1070
     2
1070
   284
1070
     8
1070
   278
1070
    46
1070
   146
1040
1.166667
1070
   345
1005
16
1070
   347
1005
16
1070
   346
1005
16
1070
   344
1005
0
1070
   343
1005
0
1070
   172
1070
     1
1070
    76
1070
     0
1070
    75
1070
     0
1070
   282
1070
     0
1070
   281
1070
     0
1070
    71
1070
     0
1070
    74
1070
     0
1070
   279
1070
     0
1070
   173
1070
     1
1070
   340
1005
13E
1070
   271
1070
     2
1070
   272
1070
     3
1070
    77
1070
     1
1070
    73
1070
     1
1070
   171
1070
     3
1070
   274
1070
     4
1070
   177
1070
     2
1070
   176
1070
     2
1070
   178
1070
     2
1070
    78
1070
     8
1070
    48
1040
-0.1
1070
    41
1040
3.5
1070
   147
1040
1.5
1070
    42
1040
1.5875
1070
    44
1040
2.0
1070
   140
1040
3.0
1002
}
1001
ACAD_DSTYLE_DIM_LINETYPE
1070
   380
1005
16
1001
ACAD_DSTYLE_DIM_EXT1_LINETYPE
1070
   381
1005
16
1001
ACAD_DSTYLE_DIM_EXT2_LINETYPE
1070
   382
1005
16
0
ENDSEC
0
SECTION
2
OBJECTS
0
DICTIONARY
5
230
330
0
100
AcDbDictionary
280
0
281
1
3
ACAD_GROUP
350
231
3
ACAD_MLINESTYLE
350
232
0
DICTIONARY
5
231
330
0
100
AcDbDictionary
280
0
281
1
0
DICTIONARY
5
232
330
0
100
AcDbDictionary
280
0
281
1
3
Standard
350
18
0
MLINESTYLE
5
18
330
232
100
AcDbMlineStyle
2
Standard
70
0
3

62
256
51
90
52
90
71
2
49
-0.5
62
256
6
ByLayer
49
0.5
62
256
6
ByLayer
0
RASTERVARIABLES
5
21e
330

100
AcDbRasterVariables
90
0
70
1
71
1
72
1
0
ENDSEC
0
EOF
