0
SECTION
2
HEADER
9
$ACADVER
1
AC1015
9
$DWGCODEPAGE
3
ANSI_1252
9
$HANDSEED
5
237
9
$ANGBASE
50
0
9
$ANGDIR
70
0
9
$ATTMODE
70
1
9
$AUNITS
70
0
9
$AUPREC
70
0
9
$CECOLOR
62
256
9
$CELTSCALE
40
1
9
$CELTYPE
6
ByLayer
9
$CELWEIGHT
370
18
9
$CLAYER
8
0
9
$CMLJUST
70
0
9
$CMLSCALE
40
1
9
$CMLSTYLE
2
Standard
9
$DIMSTYLE
2
Standard
9
$TEXTSIZE
40
0.2
9
$TEXTSTYLE
7
Standard
9
$LUNITS
70
2
9
$LUPREC
70
4
9
$EXTNAMES
290
1
9
$INSUNITS
70
4
9
$LTSCALE
40
1
9
$LWDISPLAY
290
1
9
$PDMODE
70
0
9
$PDSIZE
40
0
9
$PLINEGEN
70
0
0
ENDSEC
0
SECTION
2
CLASSES
0
CLASS
1
RASTERVARIABLES
2
AcDbRasterVariables
3
ISM
90
0
280
0
281
0
0
ENDSEC
0
SECTION
2
TABLES
0
TABLE
2
VPORT
5
22d
100
AcDbSymbolTable
0
VPORT
5
1
100
AcDbSymbolTableRecord
100
AcDbViewportTableRecord
2
*Active
70
0
10
0
20
0
11
1
21
1
12
-1
22
1
13
0
23
0
14
0.5
24
0.5
15
10
25
10
16
0
26
0
36
1
17
0
27
0
37
0
0
ENDTAB
0
TABLE
2
LTYPE
5
22e
100
AcDbSymbolTable
0
LTYPE
5
14
100
AcDbSymbolTableRecord
100
AcDbLinetypeTableRecord
70
0
2
ByBlock
3

72
65
73
0
40
0
0
LTYPE
5
15
100
AcDbSymbolTableRecord
100
AcDbLinetypeTableRecord
70
0
2
ByLayer
3

72
65
73
0
40
0
0
LTYPE
5
16
100
AcDbSymbolTableRecord
100
AcDbLinetypeTableRecord
70
0
2
Continuous
3
Solid line
72
65
73
0
40
0
0
LTYPE
5
6E
100
AcDbSymbolTableRecord
100
AcDbLinetypeTableRecord
70
0
2
CENTER
3
____ _ ____ _ ____ _ ____
72
65
73
4
40
47.5
49
22
74
0
49
-8.5
74
0
49
8.5
74
0
49
-8.5
74
0
0
LTYPE
5
6F
100
AcDbSymbolTableRecord
100
AcDbLinetypeTableRecord
70
0
2
DASHED
3
__ __ __ __ __ __ __ __ __
72
65
73
2
40
25.72
49
12.86
74
0
49
-12.86
74
0
0
ENDTAB
0
TABLE
2
LAYER
5
22f
100
AcDbSymbolTable
0
LAYER
5
10
100
AcDbSymbolTableRecord
100
AcDbLayerTableRecord
2
0
70
0
62
7
6
Continuous
290
1
370
-3
390
0
0
LAYER
5
71
100
AcDbSymbolTableRecord
100
AcDbLayerTableRecord
2
80
70
0
62
-6
6
Continuous
290
1
370
-3
390
0
0
LAYER
5
73
100
AcDbSymbolTableRecord
100
AcDbLayerTableRecord
2
81
70
0
62
-3
6
Continuous
290
1
370
-3
390
0
0
LAYER
5
75
100
AcDbSymbolTableRecord
100
AcDbLayerTableRecord
2
1
70
0
62
4
6
Continuous
290
1
370
-3
390
0
0
LAYER
5
7F
100
AcDbSymbolTableRecord
100
AcDbLayerTableRecord
2
4
70
0
62
-2
6
CENTER
290
1
370
-3
390
0
0
LAYER
5
AF
100
AcDbSymbolTableRecord
100
AcDbLayerTableRecord
2
2
70
0
62
7
6
Continuous
290
1
370
-3
390
0
0
LAYER
5
15C
100
AcDbSymbolTableRecord
100
AcDbLayerTableRecord
2
Defpoints
70
0
62
7
6
Continuous
290
0
370
-3
390
0
0
LAYER
5
219
100
AcDbSymbolTableRecord
100
AcDbLayerTableRecord
2
SK4
70
0
62
2
6
CENTER
290
1
370
-3
390
0
0
LAYER
5
21a
100
AcDbSymbolTableRecord
100
AcDbLayerTableRecord
2
SK1
70
0
62
4
6
Continuous
290
1
370
-3
390
0
0
LAYER
5
21b
100
AcDbSymbolTableRecord
100
AcDbLayerTableRecord
2
SK2
70
0
62
7
6
Continuous
290
1
370
-3
390
0
0
LAYER
5
21c
100
AcDbSymbolTableRecord
100
AcDbLayerTableRecord
2
SK6
70
0
62
5
6
Continuous
290
1
370
-3
390
0
0
ENDTAB
0
TABLE
2
STYLE
5
230
100
AcDbSymbolTable
0
STYLE
5
11
100
AcDbSymbolTableRecord
100
AcDbTextStyleTableRecord
2
Standard
3
txt
70
0
71
0
40
0
41
1
42
0
50
0
0
STYLE
5
138
100
AcDbSymbolTableRecord
100
AcDbTextStyleTableRecord
2
iso_b_vert
3
simplex.shx
70
0
71
0
40
0
41
1
42
0
50
0
0
STYLE
5
139
100
AcDbSymbolTableRecord
100
AcDbTextStyleTableRecord
2
DWGDirectTextStyle
3
simplex
70
0
71
0
40
0
41
1
42
0
50
0
0
ENDTAB
0
TABLE
2
DIMSTYLE
5
231
100
AcDbSymbolTable
100
AcDbDimStyleTable
0
DIMSTYLE
105
27
100
AcDbSymbolTableRecord
100
AcDbDimStyleTableRecord
2
Standard
70
0
3
<>
41
0.18
42
0.0625
44
0.18
140
0.18
147
0.09
73
0
74
0
77
1
271
2
275
0
278
52
280
0
340
11
0
ENDTAB
0
TABLE
2
VIEW
5
232
100
AcDbSymbolTable
0
ENDTAB
0
TABLE
2
UCS
5
233
100
AcDbSymbolTable
0
ENDTAB
0
TABLE
2
APPID
5
234
100
AcDbSymbolTable
0
APPID
5
12
100
AcDbSymbolTableRecord
100
AcDbRegAppTableRecord
2
ACAD
70
0
0
APPID
5
158
100
AcDbSymbolTableRecord
100
AcDbRegAppTableRecord
2
ACAD_DSTYLE_DIMBREAK
70
0
0
APPID
5
1D8
100
AcDbSymbolTableRecord
100
AcDbRegAppTableRecord
2
ACAD_DSTYLE_DIM_LINETYPE
70
0
0
APPID
5
1D9
100
AcDbSymbolTableRecord
100
AcDbRegAppTableRecord
2
ACAD_DSTYLE_DIM_EXT1_LINETYPE
70
0
0
APPID
5
1DA
100
AcDbSymbolTableRecord
100
AcDbRegAppTableRecord
2
ACAD_DSTYLE_DIM_EXT2_LINETYPE
70
0
0
APPID
5
215
100
AcDbSymbolTableRecord
100
AcDbRegAppTableRecord
2
ACAD_MLEADERVER
70
0
0
ENDTAB
0
TABLE
2
BLOCK_RECORD
5
235
100
AcDbSymbolTable
0
BLOCK_RECORD
5
1F
100
AcDbSymbolTableRecord
100
AcDbBlockTableRecord
2
*Model_Space
340
0
70
0
0
BLOCK_RECORD
5
1B
100
AcDbSymbolTableRecord
100
AcDbBlockTableRecord
2
*Paper_Space
340
0
70
0
0
BLOCK_RECORD
5
23
100
AcDbSymbolTableRecord
100
AcDbBlockTableRecord
2
*Paper_Space0
340
0
70
0
0
BLOCK_RECORD
5
15D
100
AcDbSymbolTableRecord
100
AcDbBlockTableRecord
2
*D1
340
0
70
0
0
BLOCK_RECORD
5
169
100
AcDbSymbolTableRecord
100
AcDbBlockTableRecord
2
_U0
340
0
70
0
0
BLOCK_RECORD
5
175
100
AcDbSymbolTableRecord
100
AcDbBlockTableRecord
2
*D3
340
0
70
0
0
BLOCK_RECORD
5
181
100
AcDbSymbolTableRecord
100
AcDbBlockTableRecord
2
_U1
340
0
70
0
0
BLOCK_RECORD
5
18D
100
AcDbSymbolTableRecord
100
AcDbBlockTableRecord
2
*D5
340
0
70
0
0
BLOCK_RECORD
5
199
100
AcDbSymbolTableRecord
100
AcDbBlockTableRecord
2
_U2
340
0
70
0
0
BLOCK_RECORD
5
1A5
100
AcDbSymbolTableRecord
100
AcDbBlockTableRecord
2
*D7
340
0
70
0
0
BLOCK_RECORD
5
1B1
100
AcDbSymbolTableRecord
100
AcDbBlockTableRecord
2
_U3
340
0
70
0
0
ENDTAB
0
ENDSEC
0
SECTION
2
BLOCKS
0
BLOCK
5
20
100
AcDbEntity
8
0
100
AcDbBlockBegin
2
*Model_Space
70
0
10
0
20
0
30
0
3
*Model_Space
0
ENDBLK
5
21
100
AcDbEntity
8
0
100
AcDbBlockEnd
0
BLOCK
5
1C
100
AcDbEntity
8
0
100
AcDbBlockBegin
2
*Paper_Space
70
0
10
0
20
0
30
0
3
*Paper_Space
0
ENDBLK
5
1D
100
AcDbEntity
8
0
100
AcDbBlockEnd
0
BLOCK
5
24
100
AcDbEntity
8
0
100
AcDbBlockBegin
2
*Paper_Space0
70
0
10
0
20
0
30
0
3
*Paper_Space0
0
ENDBLK
5
25
100
AcDbEntity
8
0
100
AcDbBlockEnd
0
BLOCK
5
15E
100
AcDbEntity
8
0
100
AcDbBlockBegin
2
*D1
70
1
10
0
20
0
30
0
3
*D1
0
LINE
5
160
100
AcDbEntity
8
0
62
256
6
ByLayer
370
-2
48
1
60
0
100
AcDbLine
10
-56
20
-14.0875
30
0
11
-56
21
-47.952229
31
0
39
0
210
0
220
0
230
1
0
LINE
5
161
100
AcDbEntity
8
0
62
256
6
ByLayer
370
-2
48
1
60
0
100
AcDbLine
10
140.5
20
-1.5875
30
0
11
140.5
21
-47.952229
31
0
39
0
210
0
220
0
230
1
0
LINE
5
162
100
AcDbEntity
8
0
62
256
6
ByLayer
370
-2
48
1
60
0
100
AcDbLine
10
-52.5
20
-45.952229
30
0
11
137
21
-45.952229
31
0
39
0
210
0
220
0
230
1
0
SOLID
5
163
100
AcDbEntity
8
0
62
256
6
ByLayer
370
-1
48
1
60
0
100
AcDbTrace
10
-52.5
20
-45.368896
30
0
11
-52.5
21
-46.535563
31
0
12
-56
22
-45.952229
32
0
13
-56
23
-45.952229
33
0
39
0
210
0
220
0
230
1
0
SOLID
5
164
100
AcDbEntity
8
0
62
256
6
ByLayer
370
-1
48
1
60
0
100
AcDbTrace
10
137
20
-46.535563
30
0
11
137
21
-45.368896
31
0
12
140.5
22
-45.952229
32
0
13
140.5
23
-45.952229
33
0
39
0
210
0
220
0
230
1
0
MTEXT
5
165
100
AcDbEntity
8
0
62
256
6
ByLayer
370
18
48
1
60
0
100
AcDbMText
10
42.25
20
-39.952229
30
0
210
0
220
0
230
1
1
\A1;196.5
40
3
41
0
44
1
50
0
71
5
72
5
7
iso_b_vert
0
POINT
5
166
100
AcDbEntity
8
Defpoints
62
0
6
ByLayer
370
-1
48
1
60
0
100
AcDbPoint
10
-56
20
-12.5
30
0
39
0
210
0
220
0
230
1
50
360
0
POINT
5
167
100
AcDbEntity
8
Defpoints
62
0
6
ByLayer
370
-1
48
1
60
0
100
AcDbPoint
10
140.5
20
0
30
0
39
0
210
0
220
0
230
1
50
360
0
POINT
5
168
100
AcDbEntity
8
Defpoints
62
0
6
ByLayer
370
-1
48
1
60
0
100
AcDbPoint
10
140.5
20
-45.952229
30
0
39
0
210
0
220
0
230
1
50
360
0
ENDBLK
5
15F
100
AcDbEntity
8
0
100
AcDbBlockEnd
0
BLOCK
5
170
100
AcDbEntity
8
0
100
AcDbBlockBegin
2
_U0
70
0
10
0
20
0
30
0
3
_U0
0
MTEXT
5
16A
100
AcDbEntity
8
SK2
62
256
6
ByLayer
370
18
48
1
60
0
100
AcDbMText
10
37.021658
20
-45.067115
30
0
210
0
220
0
230
1
1
\W0.7022;196.50
40
3
41
0
44
1.084337
50
0
71
7
72
5
7
iso_b_vert
0
LINE
5
16B
100
AcDbEntity
8
SK2
62
256
6
ByLayer
370
13
48
1
60
0
100
AcDbLine
10
-56
20
-14.0875
30
0
11
-56
21
-47.952229
31
0
39
0
210
0
220
0
230
1
0
LINE
5
16C
100
AcDbEntity
8
SK2
62
256
6
ByLayer
370
13
48
1
60
0
100
AcDbLine
10
140.5
20
-1.5875
30
0
11
140.5
21
-47.952229
31
0
39
0
210
0
220
0
230
1
0
LINE
5
16D
100
AcDbEntity
8
SK2
62
256
6
ByLayer
370
13
48
1
60
0
100
AcDbLine
10
-56
20
-45.952229
30
0
11
140.5
21
-45.952229
31
0
39
0
210
0
220
0
230
1
0
SOLID
5
16E
100
AcDbEntity
8
SK2
62
256
6
ByLayer
370
18
48
1
60
0
100
AcDbTrace
10
-56
20
-45.952229
30
0
11
-52.500002
21
-45.491446
31
0
12
-52.499998
22
-46.413013
32
0
13
-52.499998
23
-46.413013
33
0
39
0
210
0
220
0
230
1
0
SOLID
5
16F
100
AcDbEntity
8
SK2
62
256
6
ByLayer
370
18
48
1
60
0
100
AcDbTrace
10
140.5
20
-45.952229
30
0
11
137.000002
21
-46.413013
31
0
12
136.999998
22
-45.491446
32
0
13
136.999998
23
-45.491446
33
0
39
0
210
0
220
0
230
1
0
ENDBLK
5
171
100
AcDbEntity
8
0
100
AcDbBlockEnd
0
BLOCK
5
176
100
AcDbEntity
8
0
100
AcDbBlockBegin
2
*D3
70
1
10
0
20
0
30
0
3
*D3
0
LINE
5
178
100
AcDbEntity
8
0
62
256
6
ByLayer
370
-2
48
1
60
0
100
AcDbLine
10
140.5
20
-1.5875
30
0
11
140.5
21
-37.952229
31
0
39
0
210
0
220
0
230
1
0
LINE
5
179
100
AcDbEntity
8
0
62
256
6
ByLayer
370
-2
48
1
60
0
100
AcDbLine
10
3
20
-11.5875
30
0
11
3
21
-37.952229
31
0
39
0
210
0
220
0
230
1
0
LINE
5
17A
100
AcDbEntity
8
0
62
256
6
ByLayer
370
-2
48
1
60
0
100
AcDbLine
10
137
20
-35.952229
30
0
11
6.5
21
-35.952229
31
0
39
0
210
0
220
0
230
1
0
SOLID
5
17B
100
AcDbEntity
8
0
62
256
6
ByLayer
370
-1
48
1
60
0
100
AcDbTrace
10
137
20
-36.535563
30
0
11
137
21
-35.368896
31
0
12
140.5
22
-35.952229
32
0
13
140.5
23
-35.952229
33
0
39
0
210
0
220
0
230
1
0
SOLID
5
17C
100
AcDbEntity
8
0
62
256
6
ByLayer
370
-1
48
1
60
0
100
AcDbTrace
10
6.5
20
-35.368896
30
0
11
6.5
21
-36.535563
31
0
12
3
22
-35.952229
32
0
13
3
23
-35.952229
33
0
39
0
210
0
220
0
230
1
0
MTEXT
5
17D
100
AcDbEntity
8
0
62
256
6
ByLayer
370
18
48
1
60
0
100
AcDbMText
10
71.75
20
-29.952229
30
0
210
0
220
0
230
1
1
\A1;137.5
40
3
41
0
44
1
50
0
71
5
72
5
7
iso_b_vert
0
POINT
5
17E
100
AcDbEntity
8
Defpoints
62
0
6
ByLayer
370
-1
48
1
60
0
100
AcDbPoint
10
140.5
20
0
30
0
39
0
210
0
220
0
230
1
50
360
0
POINT
5
17F
100
AcDbEntity
8
Defpoints
62
0
6
ByLayer
370
-1
48
1
60
0
100
AcDbPoint
10
3
20
-10
30
0
39
0
210
0
220
0
230
1
50
360
0
POINT
5
180
100
AcDbEntity
8
Defpoints
62
0
6
ByLayer
370
-1
48
1
60
0
100
AcDbPoint
10
3
20
-35.952229
30
0
39
0
210
0
220
0
230
1
50
360
0
ENDBLK
5
177
100
AcDbEntity
8
0
100
AcDbBlockEnd
0
BLOCK
5
188
100
AcDbEntity
8
0
100
AcDbBlockBegin
2
_U1
70
0
10
0
20
0
30
0
3
_U1
0
MTEXT
5
182
100
AcDbEntity
8
SK2
62
256
6
ByLayer
370
18
48
1
60
0
100
AcDbMText
10
66.521658
20
-35.067115
30
0
210
0
220
0
230
1
1
\W0.7022;137.50
40
3
41
0
44
1.084337
50
0
71
7
72
5
7
iso_b_vert
0
LINE
5
183
100
AcDbEntity
8
SK2
62
256
6
ByLayer
370
13
48
1
60
0
100
AcDbLine
10
140.5
20
-1.5875
30
0
11
140.5
21
-37.952229
31
0
39
0
210
0
220
0
230
1
0
LINE
5
184
100
AcDbEntity
8
SK2
62
256
6
ByLayer
370
13
48
1
60
0
100
AcDbLine
10
3
20
-11.5875
30
0
11
3
21
-37.952229
31
0
39
0
210
0
220
0
230
1
0
LINE
5
185
100
AcDbEntity
8
SK2
62
256
6
ByLayer
370
13
48
1
60
0
100
AcDbLine
10
140.5
20
-35.952229
30
0
11
3
21
-35.952229
31
0
39
0
210
0
220
0
230
1
0
SOLID
5
186
100
AcDbEntity
8
SK2
62
256
6
ByLayer
370
18
48
1
60
0
100
AcDbTrace
10
140.5
20
-35.952229
30
0
11
137.000002
21
-36.413013
31
0
12
136.999998
22
-35.491446
32
0
13
136.999998
23
-35.491446
33
0
39
0
210
0
220
0
230
1
0
SOLID
5
187
100
AcDbEntity
8
SK2
62
256
6
ByLayer
370
18
48
1
60
0
100
AcDbTrace
10
3
20
-35.952229
30
0
11
6.499998
21
-35.491446
31
0
12
6.500002
22
-36.413013
32
0
13
6.500002
23
-36.413013
33
0
39
0
210
0
220
0
230
1
0
ENDBLK
5
189
100
AcDbEntity
8
0
100
AcDbBlockEnd
0
BLOCK
5
18E
100
AcDbEntity
8
0
100
AcDbBlockBegin
2
*D5
70
1
10
0
20
0
30
0
3
*D5
0
LINE
5
190
100
AcDbEntity
8
0
62
256
6
ByLayer
370
-2
48
1
60
0
100
AcDbLine
10
-56
20
-14.0875
30
0
11
-56
21
-37.952229
31
0
39
0
210
0
220
0
230
1
0
LINE
5
191
100
AcDbEntity
8
0
62
256
6
ByLayer
370
-2
48
1
60
0
100
AcDbLine
10
0
20
-14.0875
30
0
11
0
21
-37.952229
31
0
39
0
210
0
220
0
230
1
0
LINE
5
192
100
AcDbEntity
8
0
62
256
6
ByLayer
370
-2
48
1
60
0
100
AcDbLine
10
-52.5
20
-35.952229
30
0
11
-3.5
21
-35.952229
31
0
39
0
210
0
220
0
230
1
0
SOLID
5
193
100
AcDbEntity
8
0
62
256
6
ByLayer
370
-1
48
1
60
0
100
AcDbTrace
10
-52.5
20
-35.368896
30
0
11
-52.5
21
-36.535563
31
0
12
-56
22
-35.952229
32
0
13
-56
23
-35.952229
33
0
39
0
210
0
220
0
230
1
0
SOLID
5
194
100
AcDbEntity
8
0
62
256
6
ByLayer
370
-1
48
1
60
0
100
AcDbTrace
10
-3.5
20
-36.535563
30
0
11
-3.5
21
-35.368896
31
0
12
0
22
-35.952229
32
0
13
0
23
-35.952229
33
0
39
0
210
0
220
0
230
1
0
MTEXT
5
195
100
AcDbEntity
8
0
62
256
6
ByLayer
370
18
48
1
60
0
100
AcDbMText
10
-28
20
-29.952229
30
0
210
0
220
0
230
1
1
\A1;56
40
3
41
0
44
1
50
0
71
5
72
5
7
iso_b_vert
0
POINT
5
196
100
AcDbEntity
8
Defpoints
62
0
6
ByLayer
370
-1
48
1
60
0
100
AcDbPoint
10
-56
20
-12.5
30
0
39
0
210
0
220
0
230
1
50
360
0
POINT
5
197
100
AcDbEntity
8
Defpoints
62
0
6
ByLayer
370
-1
48
1
60
0
100
AcDbPoint
10
0
20
-12.5
30
0
39
0
210
0
220
0
230
1
50
360
0
POINT
5
198
100
AcDbEntity
8
Defpoints
62
0
6
ByLayer
370
-1
48
1
60
0
100
AcDbPoint
10
0
20
-35.952229
30
0
39
0
210
0
220
0
230
1
50
360
0
ENDBLK
5
18F
100
AcDbEntity
8
0
100
AcDbBlockEnd
0
BLOCK
5
1A0
100
AcDbEntity
8
0
100
AcDbBlockBegin
2
_U2
70
0
10
0
20
0
30
0
3
_U2
0
MTEXT
5
19A
100
AcDbEntity
8
SK2
62
256
6
ByLayer
370
18
48
1
60
0
100
AcDbMText
10
-32.48237
20
-35.067115
30
0
210
0
220
0
230
1
1
\W0.7468;56.00
40
3
41
0
44
1.084337
50
0
71
7
72
5
7
iso_b_vert
0
LINE
5
19B
100
AcDbEntity
8
SK2
62
256
6
ByLayer
370
13
48
1
60
0
100
AcDbLine
10
-56
20
-14.0875
30
0
11
-56
21
-37.952229
31
0
39
0
210
0
220
0
230
1
0
LINE
5
19C
100
AcDbEntity
8
SK2
62
256
6
ByLayer
370
13
48
1
60
0
100
AcDbLine
10
0
20
-14.0875
30
0
11
0
21
-37.952229
31
0
39
0
210
0
220
0
230
1
0
LINE
5
19D
100
AcDbEntity
8
SK2
62
256
6
ByLayer
370
13
48
1
60
0
100
AcDbLine
10
-56
20
-35.952229
30
0
11
0
21
-35.952229
31
0
39
0
210
0
220
0
230
1
0
SOLID
5
19E
100
AcDbEntity
8
SK2
62
256
6
ByLayer
370
18
48
1
60
0
100
AcDbTrace
10
-56
20
-35.952229
30
0
11
-52.500002
21
-35.491446
31
0
12
-52.499998
22
-36.413013
32
0
13
-52.499998
23
-36.413013
33
0
39
0
210
0
220
0
230
1
0
SOLID
5
19F
100
AcDbEntity
8
SK2
62
256
6
ByLayer
370
18
48
1
60
0
100
AcDbTrace
10
0
20
-35.952229
30
0
11
-3.499998
21
-36.413013
31
0
12
-3.500002
22
-35.491446
32
0
13
-3.500002
23
-35.491446
33
0
39
0
210
0
220
0
230
1
0
ENDBLK
5
1A1
100
AcDbEntity
8
0
100
AcDbBlockEnd
0
BLOCK
5
1A6
100
AcDbEntity
8
0
100
AcDbBlockBegin
2
*D7
70
1
10
0
20
0
30
0
3
*D7
0
LINE
5
1A8
100
AcDbEntity
8
0
62
256
6
ByLayer
370
-2
48
1
60
0
100
AcDbLine
10
140.5
20
1.5875
30
0
11
140.5
21
34.952229
31
0
39
0
210
0
220
0
230
1
0
LINE
5
1A9
100
AcDbEntity
8
0
62
256
6
ByLayer
370
-2
48
1
60
0
100
AcDbLine
10
26
20
11.5875
30
0
11
26
21
34.952229
31
0
39
0
210
0
220
0
230
1
0
LINE
5
1AA
100
AcDbEntity
8
0
62
256
6
ByLayer
370
-2
48
1
60
0
100
AcDbLine
10
137
20
32.952229
30
0
11
29.5
21
32.952229
31
0
39
0
210
0
220
0
230
1
0
SOLID
5
1AB
100
AcDbEntity
8
0
62
256
6
ByLayer
370
-1
48
1
60
0
100
AcDbTrace
10
137
20
32.368896
30
0
11
137
21
33.535563
31
0
12
140.5
22
32.952229
32
0
13
140.5
23
32.952229
33
0
39
0
210
0
220
0
230
1
0
SOLID
5
1AC
100
AcDbEntity
8
0
62
256
6
ByLayer
370
-1
48
1
60
0
100
AcDbTrace
10
29.5
20
33.535563
30
0
11
29.5
21
32.368896
31
0
12
26
22
32.952229
32
0
13
26
23
32.952229
33
0
39
0
210
0
220
0
230
1
0
MTEXT
5
1AD
100
AcDbEntity
8
0
62
256
6
ByLayer
370
18
48
1
60
0
100
AcDbMText
10
83.25
20
38.952229
30
0
210
0
220
0
230
1
1
\A1;114.5
40
3
41
0
44
1
50
0
71
5
72
5
7
iso_b_vert
0
POINT
5
1AE
100
AcDbEntity
8
Defpoints
62
0
6
ByLayer
370
-1
48
1
60
0
100
AcDbPoint
10
140.5
20
0
30
0
39
0
210
0
220
0
230
1
50
360
0
POINT
5
1AF
100
AcDbEntity
8
Defpoints
62
0
6
ByLayer
370
-1
48
1
60
0
100
AcDbPoint
10
26
20
10
30
0
39
0
210
0
220
0
230
1
50
360
0
POINT
5
1B0
100
AcDbEntity
8
Defpoints
62
0
6
ByLayer
370
-1
48
1
60
0
100
AcDbPoint
10
26
20
32.952229
30
0
39
0
210
0
220
0
230
1
50
360
0
ENDBLK
5
1A7
100
AcDbEntity
8
0
100
AcDbBlockEnd
0
BLOCK
5
1B8
100
AcDbEntity
8
0
100
AcDbBlockBegin
2
_U3
70
0
10
0
20
0
30
0
3
_U3
0
MTEXT
5
1B2
100
AcDbEntity
8
SK2
62
256
6
ByLayer
370
18
48
1
60
0
100
AcDbMText
10
78.238658
20
33.837344
30
0
210
0
220
0
230
1
1
\W0.6746;114.50
40
3
41
0
44
1.084337
50
0
71
7
72
5
7
iso_b_vert
0
LINE
5
1B3
100
AcDbEntity
8
SK2
62
256
6
ByLayer
370
13
48
1
60
0
100
AcDbLine
10
140.5
20
1.5875
30
0
11
140.5
21
34.952229
31
0
39
0
210
0
220
0
230
1
0
LINE
5
1B4
100
AcDbEntity
8
SK2
62
256
6
ByLayer
370
13
48
1
60
0
100
AcDbLine
10
26
20
11.5875
30
0
11
26
21
34.952229
31
0
39
0
210
0
220
0
230
1
0
LINE
5
1B5
100
AcDbEntity
8
SK2
62
256
6
ByLayer
370
13
48
1
60
0
100
AcDbLine
10
140.5
20
32.952229
30
0
11
26
21
32.952229
31
0
39
0
210
0
220
0
230
1
0
SOLID
5
1B6
100
AcDbEntity
8
SK2
62
256
6
ByLayer
370
18
48
1
60
0
100
AcDbTrace
10
140.5
20
32.952229
30
0
11
137.000002
21
32.491446
31
0
12
136.999998
22
33.413013
32
0
13
136.999998
23
33.413013
33
0
39
0
210
0
220
0
230
1
0
SOLID
5
1B7
100
AcDbEntity
8
SK2
62
256
6
ByLayer
370
18
48
1
60
0
100
AcDbTrace
10
26
20
32.952229
30
0
11
29.499998
21
33.413013
31
0
12
29.500002
22
32.491446
32
0
13
29.500002
23
32.491446
33
0
39
0
210
0
220
0
230
1
0
ENDBLK
5
1B9
100
AcDbEntity
8
0
100
AcDbBlockEnd
0
ENDSEC
0
SECTION
2
ENTITIES
0
ARC
5
C0
100
AcDbEntity
8
SK2
62
256
6
ByLayer
370
13
48
1
60
0
100
AcDbCircle
39
0
10
140.5
20
0
30
0
40
19
210
0
220
0
230
1
100
AcDbArc
50
290
51
70
0
ELLIPSE
5
C1
100
AcDbEntity
8
SK1
62
256
6
ByLayer
370
18
48
1
60
0
100
AcDbEllipse
10
-41.343561
20
0
30
0
11
-2.29613691341699E-15
21
-12.5000000000002
31
0
210
0
220
0
230
1
40
0.932515
41
-1.86465462472194
42
-1.27693802886786
0
ELLIPSE
5
C2
100
AcDbEntity
8
SK1
62
256
6
ByLayer
370
18
48
1
60
0
100
AcDbEllipse
10
276.680659
20
0
30
0
11
357.953166043254
21
-4.05596621644435E-13
31
0
210
0
220
0
230
1
40
0.034921
41
2.52406396812455
42
2.73005601344533
0
ELLIPSE
5
C3
100
AcDbEntity
8
SK1
62
256
6
ByLayer
370
18
48
1
60
0
100
AcDbEllipse
10
276.680659
20
0
30
0
11
357.953166032003
21
-4.05596621631686E-13
31
0
210
0
220
0
230
1
40
0.034921
41
-2.73005601344242
42
-2.52406396811705
0
ELLIPSE
5
C4
100
AcDbEntity
8
SK1
62
256
6
ByLayer
370
18
48
1
60
0
100
AcDbEllipse
10
-25.404609
20
0
30
0
11
13.4046088753088
21
-1.51887581674114E-14
31
0
210
0
220
0
230
1
40
0.932515
41
-0.555530755442636
42
0.555530755442635
0
POINT
5
70
100
AcDbEntity
8
80
62
256
6
ByLayer
370
18
48
1
60
0
100
AcDbPoint
10
0
20
0
30
0
39
0
210
0
220
0
230
1
50
360
0
POINT
5
72
100
AcDbEntity
8
81
62
256
6
ByLayer
370
18
48
1
60
0
100
AcDbPoint
10
140.5
20
0
30
0
39
0
210
0
220
0
230
1
50
360
0
POINT
5
74
100
AcDbEntity
8
1
62
256
6
ByLayer
370
18
48
1
60
1
100
AcDbPoint
10
-56
20
-12.5
30
0
39
0
210
0
220
0
230
1
50
360
0
POINT
5
76
100
AcDbEntity
8
1
62
256
6
ByLayer
370
18
48
1
60
1
100
AcDbPoint
10
140.5
20
0
30
0
39
0
210
0
220
0
230
1
50
360
0
POINT
5
77
100
AcDbEntity
8
1
62
256
6
ByLayer
370
18
48
1
60
1
100
AcDbPoint
10
140.5
20
0
30
0
39
0
210
0
220
0
230
1
50
360
0
POINT
5
78
100
AcDbEntity
8
1
62
256
6
ByLayer
370
18
48
1
60
1
100
AcDbPoint
10
3
20
-10
30
0
39
0
210
0
220
0
230
1
50
360
0
POINT
5
79
100
AcDbEntity
8
1
62
256
6
ByLayer
370
18
48
1
60
1
100
AcDbPoint
10
-56
20
-12.5
30
0
39
0
210
0
220
0
230
1
50
360
0
POINT
5
7A
100
AcDbEntity
8
1
62
256
6
ByLayer
370
18
48
1
60
1
100
AcDbPoint
10
0
20
-12.5
30
0
39
0
210
0
220
0
230
1
50
360
0
POINT
5
7B
100
AcDbEntity
8
1
62
256
6
ByLayer
370
18
48
1
60
1
100
AcDbPoint
10
140.5
20
0
30
0
39
0
210
0
220
0
230
1
50
360
0
POINT
5
7C
100
AcDbEntity
8
1
62
256
6
ByLayer
370
18
48
1
60
1
100
AcDbPoint
10
26
20
10
30
0
39
0
210
0
220
0
230
1
50
360
0
SPLINE
5
C5
100
AcDbEntity
8
1
62
256
6
ByLayer
370
18
48
1
60
0
100
AcDbSpline
70
4
71
3
72
14
73
10
40
0
40
0
40
0
40
0
40
0.25
40
0.25
40
0.5
40
0.5
40
0.75
40
0.75
40
1
40
1
40
1
40
1
41
1
10
13.8632404250701
20
8.97035237675141
30
0
41
1
10
13.5335159768208
20
9.01617427943677
30
0
41
1
10
13.2062502544962
20
9.06202602035748
30
0
41
1
10
12.5555423918379
20
9.15176180087815
30
0
41
1
10
12.23209457382
20
9.19564856832179
30
0
41
1
10
11.5884792008138
20
9.28008999781807
30
0
41
1
10
11.2683101573555
20
9.32065449728921
30
0
41
1
10
10.6313895507192
20
9.39756724528266
30
0
41
1
10
10.3146403046033
20
9.43392975843909
30
0
41
1
10
10
20
9.46779552663722
30
0
0
SPLINE
5
C6
100
AcDbEntity
8
1
62
256
6
ByLayer
370
18
48
1
60
0
100
AcDbSpline
70
4
71
3
72
21
73
17
40
0
40
0
40
0
40
0
40
0.124999999999997
40
0.124999999999997
40
0.187499999999996
40
0.187499999999996
40
0.249999999999995
40
0.249999999999995
40
0.499999999999996
40
0.499999999999996
40
0.749999999999998
40
0.749999999999998
40
0.812499999999999
40
0.812499999999999
40
0.874999999999999
40
1
40
1
40
1
40
1
41
1
10
136.860297657354
20
-1.4294513925839
30
0
41
1
10
136.423717232208
20
-1.2725023316936
30
0
41
1
10
135.987441621893
20
-1.1148864094356
30
0
41
1
10
135.333537377306
20
-0.877320449979578
30
0
41
1
10
135.115666140144
20
-0.797908228077631
30
0
41
1
10
134.680041159322
20
-0.638848905470951
30
0
41
1
10
134.462235622987
20
-0.559345561581353
30
0
41
1
10
133.373110327603
20
-0.162325654767869
30
0
41
1
10
132.501635034522
20
0.154083925735506
30
0
41
1
10
130.758692706548
20
0.785507632158669
30
0
41
1
10
129.887219785078
20
1.10050583797826
30
0
41
1
10
128.798197719417
20
1.49422824624418
30
0
41
1
10
128.580433663852
20
1.5730382398757
30
0
41
1
10
128.144780248837
20
1.73022301229474
30
0
41
1
10
127.491050734237
20
1.96517901196634
30
0
41
1
10
126.836598178372
20
2.19774405463923
30
0
41
1
10
126.4
20
2.35179447991928
30
0
0
SPLINE
5
C7
100
AcDbEntity
8
1
62
256
6
ByLayer
370
18
48
1
60
0
100
AcDbSpline
70
4
71
3
72
90
73
86
40
0
40
0
40
0
40
0
40
0.0312500000000051
40
0.0312500000000051
40
0.0625000000000102
40
0.0625000000000102
40
0.125000000000021
40
0.125000000000021
40
0.140625000000022
40
0.140625000000022
40
0.148437500000023
40
0.148437500000023
40
0.156250000000024
40
0.187500000000024
40
0.187500000000024
40
0.218750000000023
40
0.218750000000023
40
0.250000000000022
40
0.250000000000022
40
0.281250000000021
40
0.281250000000021
40
0.296875000000021
40
0.296875000000021
40
0.312500000000022
40
0.312500000000022
40
0.343750000000021
40
0.343750000000021
40
0.37500000000002
40
0.37500000000002
40
0.406250000000019
40
0.406250000000019
40
0.437500000000019
40
0.437500000000019
40
0.445312500000019
40
0.445312500000019
40
0.453125000000018
40
0.468750000000017
40
0.468750000000017
40
0.500000000000015
40
0.500000000000015
40
0.531250000000013
40
0.531250000000013
40
0.539062500000013
40
0.539062500000013
40
0.546875000000012
40
0.562500000000012
40
0.562500000000012
40
0.59375000000001
40
0.59375000000001
40
0.625000000000008
40
0.625000000000008
40
0.632812500000007
40
0.632812500000007
40
0.640625000000007
40
0.656250000000005
40
0.656250000000005
40
0.687500000000002
40
0.687500000000002
40
0.71875
40
0.71875
40
0.7265625
40
0.7265625
40
0.734374999999999
40
0.734374999999999
40
0.749999999999999
40
0.749999999999999
40
0.781249999999999
40
0.781249999999999
40
0.812499999999998
40
0.812499999999998
40
0.843749999999997
40
0.843749999999997
40
0.851562499999997
40
0.851562499999997
40
0.859374999999996
40
0.874999999999997
40
0.874999999999997
40
0.906249999999999
40
0.9375
40
0.968750000000002
40
0.968750000000002
40
0.976562500000001
40
0.976562500000001
40
0.984375000000001
40
1
40
1
40
1
40
1
41
1
10
136.860297657357
20
9.68245782600576
30
0
41
1
10
136.922748368197
20
9.52762937636237
30
0
41
1
10
136.985297221287
20
9.37047284325624
30
0
41
1
10
137.110697976578
20
9.051868859552
30
0
41
1
10
137.173549771143
20
8.89042058868432
30
0
41
1
10
137.362672171633
20
8.40003418377015
30
0
41
1
10
137.489527142094
20
8.0650885668845
30
0
41
1
10
137.649199631395
20
7.63711667322823
30
0
41
1
10
137.681187928835
20
7.55105504099328
30
0
41
1
10
137.729248991534
20
7.42126733788854
30
0
41
1
10
137.745293523445
20
7.37785875851833
30
0
41
1
10
137.777351480804
20
7.29096385994282
30
0
41
1
10
137.857377854926
20
7.07364093000021
30
0
41
1
10
137.936819574637
20
6.85589635892092
30
0
41
1
10
138.063125442878
20
6.50696128585619
30
0
41
1
10
138.125878719759
20
6.33222212605804
30
0
41
1
10
138.250440476881
20
5.98215918480648
30
0
41
1
10
138.312250356584
20
5.80683588246913
30
0
41
1
10
138.434657426165
20
5.45551599433043
30
0
41
1
10
138.495257180965
20
5.27952043965198
30
0
41
1
10
138.584921232028
20
5.01491094341142
30
0
41
1
10
138.614601863037
20
4.9266045675451
30
0
41
1
10
138.673468096305
20
4.74975683167997
30
0
41
1
10
138.702660778461
20
4.66119116657052
30
0
41
1
10
138.788930592124
20
4.39637193781488
30
0
41
1
10
138.844855793147
20
4.22057656725275
30
0
41
1
10
138.952507078392
20
3.87020252632325
30
0
41
1
10
139.004240232002
20
3.69562498992636
30
0
41
1
10
139.101936225547
20
3.34732765850956
30
0
41
1
10
139.14790732275
20
3.17360860399631
30
0
41
1
10
139.231713501396
20
2.82656217693904
30
0
41
1
10
139.269552397378
20
2.6532333830576
30
0
41
1
10
139.309659242843
20
2.4364598420913
30
0
41
1
10
139.317322686074
20
2.39307434273786
30
0
41
1
10
139.331845128782
20
2.30639030062676
30
0
41
1
10
139.352369334077
20
2.17682006575015
30
0
41
1
10
139.36889446409
20
2.04863522538867
30
0
41
1
10
139.396074981517
20
1.79418470146345
30
0
41
1
10
139.40631120841
20
1.62710123829001
30
0
41
1
10
139.409104657499
20
1.29863040466412
30
0
41
1
10
139.401645836055
20
1.13724577425387
30
0
41
1
10
139.381341050187
20
0.939600041240055
30
0
41
1
10
139.376731539297
20
0.90023975394152
30
0
41
1
10
139.366467751074
20
0.822099900190636
30
0
41
1
10
139.349558088206
20
0.706138028874051
30
0
41
1
10
139.32836909465
20
0.593873309251194
30
0
41
1
10
139.280998006906
20
0.374152659368832
30
0
41
1
10
139.242787227242
20
0.234074980954034
30
0
41
1
10
139.156555820761
20
-0.0337817497622837
30
0
41
1
10
139.108542442428
20
-0.161564419719241
30
0
41
1
10
139.043991074959
20
-0.313726635320989
30
0
41
1
10
139.03084151372
20
-0.343802376579475
30
0
41
1
10
139.004160432143
20
-0.403093145581437
30
0
41
1
10
138.963639155353
20
-0.490577412720541
30
0
41
1
10
138.921774221094
20
-0.573791930853844
30
0
41
1
10
138.836578251387
20
-0.734699868392283
30
0
41
1
10
138.777845544418
20
-0.83462572873222
30
0
41
1
10
138.657649811041
20
-1.02028027048115
30
0
41
1
10
138.596178648376
20
-1.10600626464105
30
0
41
1
10
138.518003453197
20
-1.20430671159159
30
0
41
1
10
138.502300607562
20
-1.22352290867224
30
0
41
1
10
138.470765153148
20
-1.26106390260733
30
0
41
1
10
138.454920453266
20
-1.27940135830966
30
0
41
1
10
138.407400423756
20
-1.33284747339852
30
0
41
1
10
138.375682926089
20
-1.36646151618504
30
0
41
1
10
138.280467639972
20
-1.46139007571597
30
0
41
1
10
138.216911783465
20
-1.51680322702649
30
0
41
1
10
138.089757620357
20
-1.61228559229306
30
0
41
1
10
138.026157329445
20
-1.65235321129168
30
0
41
1
10
137.898894802961
20
-1.71716745383875
30
0
41
1
10
137.835231659652
20
-1.74191408114959
30
0
41
1
10
137.755547625277
20
-1.76306818554815
30
0
41
1
10
137.739593881619
20
-1.76681052493083
30
0
41
1
10
137.707815184904
20
-1.77328196122951
30
0
41
1
10
137.660292958226
20
-1.78148367258171
30
0
41
1
10
137.613192604375
20
-1.78521944265708
30
0
41
1
10
137.519513088333
20
-1.78683794550781
30
0
41
1
10
137.395996525428
20
-1.77340839071772
30
0
41
1
10
137.214239199481
20
-1.70734980536895
30
0
41
1
10
137.094985921613
20
-1.63264702677981
30
0
41
1
10
137.020918020928
20
-1.57616551540852
30
0
41
1
10
137.00613680684
20
-1.56438505260698
30
0
41
1
10
136.976697104736
20
-1.53990646553572
30
0
41
1
10
136.932694704143
20
-1.50179153163594
30
0
41
1
10
136.889145142307
20
-1.4594991978386
30
0
41
1
10
136.860297657357
20
-1.4294513925847
30
0
0
SPLINE
5
C8
100
AcDbEntity
8
1
62
256
6
ByLayer
370
18
48
1
60
0
100
AcDbSpline
70
4
71
3
72
16
73
12
40
0
40
0
40
0
40
0
40
0.246917017891737
40
0.246917017891737
40
0.4351877634188
40
0.4351877634188
40
0.529323136182337
40
0.529323136182337
40
0.623458508945874
40
0.623458508945874
40
1
40
1
40
1
40
1
41
1
10
129.916298911172
20
9.99876094819078
30
0
41
1
10
130.487913317488
20
9.99887672132533
30
0
41
1
10
131.059369274267
20
9.99254257520874
30
0
41
1
10
132.066060087887
20
9.96993280626202
30
0
41
1
10
132.501395295804
20
9.95635612505544
30
0
41
1
10
133.154170948581
20
9.93019068933432
30
0
41
1
10
133.371795384621
20
9.9205218295661
30
0
41
1
10
133.807252664171
20
9.89935731586152
30
0
41
1
10
134.025062077099
20
9.88785482412169
30
0
41
1
10
135.114455253175
20
9.82576404278819
30
0
41
1
10
135.98704953404
20
9.76149403491843
30
0
41
1
10
136.860297657354
20
9.68245782600593
30
0
0
SPLINE
5
C9
100
AcDbEntity
8
1
62
256
6
ByLayer
370
18
48
1
60
0
100
AcDbSpline
70
4
71
3
72
50
73
46
40
0
40
0
40
0
40
0
40
0.0657591902983149
40
0.0657591902983149
40
0.13151838059663
40
0.13151838059663
40
0.197277570894945
40
0.197277570894945
40
0.230157166044102
40
0.230157166044102
40
0.263036761193259
40
0.263036761193259
40
0.328795951491574
40
0.328795951491574
40
0.394555141789889
40
0.394555141789889
40
0.460314332088204
40
0.460314332088204
40
0.493193927237361
40
0.493193927237361
40
0.50963372481194
40
0.50963372481194
40
0.526073522386519
40
0.526073522386519
40
0.591832712684829
40
0.591832712684829
40
0.65759190298314
40
0.65759190298314
40
0.72335109328145
40
0.72335109328145
40
0.739790890856027
40
0.739790890856027
40
0.756230688430604
40
0.756230688430604
40
0.789110283579757
40
0.789110283579757
40
0.854869473878061
40
0.854869473878061
40
0.920628664176366
40
0.920628664176366
40
0.953508259325519
40
0.953508259325519
40
0.986387854474671
40
0.986387854474671
40
1
40
1
40
1
40
1
41
1
10
18.2088580878397
20
-5.75583371574487
30
0
41
1
10
18.7728188177464
20
-5.91754150702312
30
0
41
1
10
19.3367856708296
20
-6.07436806342798
30
0
41
1
10
20.4644781223804
20
-6.37914938479281
30
0
41
1
10
21.0282028436482
20
-6.52710467587335
30
0
41
1
10
22.1551842842505
20
-6.81472182560287
30
0
41
1
10
22.718438711187
20
-6.95438822628566
30
0
41
1
10
23.5627972389262
20
-7.15793604398993
30
0
41
1
10
23.8441639648472
20
-7.22478941501214
30
0
41
1
10
24.4067066725688
20
-7.35650980143203
30
0
41
1
10
24.6878288397877
20
-7.421471518951
30
0
41
1
10
25.5316231185627
20
-7.61203823726191
30
0
41
1
10
26.0946017231914
20
-7.73358251176808
30
0
41
1
10
27.2211087200793
20
-7.96649056353547
30
0
41
1
10
27.7846480750648
20
-8.07783303318027
30
0
41
1
10
28.912078471551
20
-8.29065092622417
30
0
41
1
10
29.475962502876
20
-8.39213690335782
30
0
41
1
10
30.3219027884441
20
-8.53703872352412
30
0
41
1
10
30.6039217105525
20
-8.58412861865185
30
0
41
1
10
31.0269123834601
20
-8.65286348691279
30
0
41
1
10
31.1678750929973
20
-8.67543258625625
30
0
41
1
10
31.4498224759
20
-8.71977169860853
30
0
41
1
10
31.5907972558826
20
-8.74155523712301
30
0
41
1
10
32.2956624412095
20
-8.84857903599385
30
0
41
1
10
32.8595178367933
20
-8.92816209645019
30
0
41
1
10
33.9868753276212
20
-9.07584077917554
30
0
41
1
10
34.5503881725461
20
-9.14392276027229
30
0
41
1
10
35.6768527981402
20
-9.26879710026518
30
0
41
1
10
36.2397979530129
20
-9.3255939202167
30
0
41
1
10
36.9430101771301
20
-9.38947661188851
30
0
41
1
10
37.0836275852212
20
-9.40189792604409
30
0
41
1
10
37.3648219627871
20
-9.42601761129572
30
0
41
1
10
37.5054062777659
20
-9.43771025160316
30
0
41
1
10
37.9272757090335
20
-9.47158748795059
30
0
41
1
10
38.2086400507601
20
-9.49259938785826
30
0
41
1
10
39.0530140627657
20
-9.55102792002023
30
0
41
1
10
39.6162950306166
20
-9.58385122455803
30
0
41
1
10
40.7433372570626
20
-9.63749429817648
30
0
41
1
10
41.3071045836332
20
-9.65831145774601
30
0
41
1
10
42.1529523896825
20
-9.68049618413315
30
0
41
1
10
42.4349343311728
20
-9.68638183201892
30
0
41
1
10
42.9989447159222
20
-9.69509966693312
30
0
41
1
10
43.2810179352913
20
-9.69793202586357
30
0
41
1
10
43.6797505824541
20
-9.6997410220668
30
0
41
1
10
43.796462578374
20
-9.70000373194966
30
0
41
1
10
43.913174476019
20
-9.69999990673011
30
0
0
SPLINE
5
CA
100
AcDbEntity
8
1
62
256
6
ByLayer
370
18
48
1
60
0
100
AcDbSpline
70
4
71
3
72
36
73
32
40
0
40
0
40
0
40
0
40
0.0812576717479814
40
0.0812576717479814
40
0.183340152664883
40
0.183340152664883
40
0.234381393123336
40
0.234381393123336
40
0.25990201335256
40
0.25990201335256
40
0.285422633581784
40
0.285422633581784
40
0.387505114498686
40
0.387505114498686
40
0.438546354957135
40
0.438546354957135
40
0.489587595415584
40
0.489587595415584
40
0.591670076332481
40
0.591670076332481
40
0.617190696561702
40
0.617190696561702
40
0.642711316790924
40
0.642711316790924
40
0.693752557249362
40
0.693752557249362
40
0.795835038166241
40
0.795835038166241
40
0.897917519083121
40
0.897917519083121
40
1
40
1
40
1
40
1
41
1
10
109.830511978988
20
7.14835267657438
30
0
41
1
10
110.279338656942
20
7.25506659454135
30
0
41
1
10
110.728156043012
20
7.35880149704821
30
0
41
1
10
111.740667621106
20
7.58639184510045
30
0
41
1
10
112.304317263499
20
7.70860282816008
30
0
41
1
10
113.149475979631
20
7.88529671911803
30
0
41
1
10
113.431140306877
20
7.94309326156343
30
0
41
1
10
113.853559327078
20
8.0280995741181
30
0
41
1
10
113.994361736307
20
8.05613845403707
30
0
41
1
10
114.276063235519
20
8.1114581954001
30
0
41
1
10
114.416953081214
20
8.13875430164626
30
0
41
1
10
115.12158187421
20
8.27345299130354
30
0
41
1
10
115.685849650633
20
8.37553588709017
30
0
41
1
10
116.532868069555
20
8.52059976010014
30
0
41
1
10
116.815252751952
20
8.56759465642435
30
0
41
1
10
117.379770776062
20
8.65885506888759
30
0
41
1
10
117.661950354683
20
8.70312908098126
30
0
41
1
10
118.508204956197
20
8.83193249012305
30
0
41
1
10
119.071991207722
20
8.91245641603567
30
0
41
1
10
119.776130803071
20
9.00642067264661
30
0
41
1
10
119.916928449243
20
9.02487899283713
30
0
41
1
10
120.198466231936
20
9.06111788623139
30
0
41
1
10
120.339210565199
20
9.07889336712077
30
0
41
1
10
120.761537887873
20
9.13102149857127
30
0
41
1
10
121.04318471377
20
9.16421010106976
30
0
41
1
10
121.888338159694
20
9.25922438000941
30
0
41
1
10
122.452047911471
20
9.31651577601747
30
0
41
1
10
123.579762630964
20
9.41935465063159
30
0
41
1
10
124.143774229167
20
9.46489682960694
30
0
41
1
10
125.271871537594
20
9.54428536665105
30
0
41
1
10
125.835953068309
20
9.5781319984354
30
0
41
1
10
126.4
20
9.6059969152536
30
0
0
SPLINE
5
CB
100
AcDbEntity
8
1
62
256
6
ByLayer
370
18
48
1
60
0
100
AcDbSpline
70
4
71
3
72
69
73
65
40
0
40
0
40
0
40
0
40
0.0475918525826894
40
0.0475918525826894
40
0.0951837051653788
40
0.0951837051653788
40
0.107081668311052
40
0.107081668311052
40
0.118979631456725
40
0.142775557748072
40
0.142775557748072
40
0.190367410330764
40
0.190367410330764
40
0.237959262913455
40
0.237959262913455
40
0.261755189204802
40
0.261755189204802
40
0.285551115496148
40
0.285551115496148
40
0.309347041787495
40
0.309347041787495
40
0.333142968078842
40
0.333142968078842
40
0.356938894370189
40
0.356938894370189
40
0.380734820661535
40
0.380734820661535
40
0.428326673244229
40
0.428326673244229
40
0.452122599535574
40
0.452122599535574
40
0.464020562681246
40
0.475918525826918
40
0.523510378409605
40
0.571102230992293
40
0.571102230992293
40
0.61869408357498
40
0.61869408357498
40
0.642490009866324
40
0.642490009866324
40
0.666285936157668
40
0.666285936157668
40
0.690081862449012
40
0.690081862449012
40
0.713877788740355
40
0.713877788740355
40
0.761469641323045
40
0.761469641323045
40
0.78526556761439
40
0.797163530760063
40
0.797163530760063
40
0.809061493905736
40
0.809061493905736
40
0.856653346488432
40
0.856653346488432
40
0.904245199071127
40
0.904245199071127
40
0.951837051653823
40
0.951837051653823
40
0.97563297794517
40
0.97563297794517
40
0.999428904236516
40
0.999428904236516
40
1
40
1
40
1
40
1
41
1
10
126.4
20
2.17506152719355
30
0
41
1
10
125.812611866697
20
2.37673686847435
30
0
41
1
10
125.225585474381
20
2.57645703952832
30
0
41
1
10
124.052349770712
20
2.97228541525021
30
0
41
1
10
123.466141041335
20
3.16839577781661
30
0
41
1
10
122.733982519791
20
3.41148582845636
30
0
41
1
10
122.587580958933
20
3.46000122133708
30
0
41
1
10
122.294840612224
20
3.55683135863282
30
0
41
1
10
121.855836139616
20
3.70180569637307
30
0
41
1
10
121.416739741551
20
3.84487953459694
30
0
41
1
10
120.538438017432
20
4.12855501594936
30
0
41
1
10
119.952759310919
20
4.31438164186875
30
0
41
1
10
118.78120948799
20
4.67976558348337
30
0
41
1
10
118.195336979291
20
4.8593195859327
30
0
41
1
10
117.316465583588
20
5.12412917696761
30
0
41
1
10
117.023498895593
20
5.21164681977498
30
0
41
1
10
116.437562697543
20
5.38520365936856
30
0
41
1
10
116.144604495004
20
5.47126962824896
30
0
41
1
10
115.558650349716
20
5.64182038606768
30
0
41
1
10
115.26555320149
20
5.72606489740272
30
0
41
1
10
114.679008362151
20
5.89224498957199
30
0
41
1
10
114.385579028044
20
5.97422417779936
30
0
41
1
10
113.798419969297
20
6.13600112228511
30
0
41
1
10
113.504679905223
20
6.21580067835143
30
0
41
1
10
112.917538081168
20
6.37308361912022
30
0
41
1
10
112.624058135805
20
6.45058903296083
30
0
41
1
10
111.743908521279
20
6.67974643661637
30
0
41
1
10
111.157526192965
20
6.8280401716313
30
0
41
1
10
110.278632453143
20
7.04392282601268
30
0
41
1
10
109.98578130354
20
7.11478939150399
30
0
41
1
10
109.546689244916
20
7.21945586377402
30
0
41
1
10
109.254030784202
20
7.2887025922314
30
0
41
1
10
108.375926339208
20
7.49221938767664
30
0
41
1
10
107.0583050191
20
7.78181803821352
30
0
41
1
10
105.886613680542
20
8.01759650530158
30
0
41
1
10
104.714787649504
20
8.24270687877274
30
0
41
1
10
104.128809429604
20
8.34993247774631
30
0
41
1
10
103.249844623832
20
8.5027779689442
30
0
41
1
10
102.956895358085
20
8.55244136355483
30
0
41
1
10
102.370615904842
20
8.64855748226185
30
0
41
1
10
102.077314089296
20
8.69505412907029
30
0
41
1
10
101.490398283166
20
8.78496221893951
30
0
41
1
10
101.196707538289
20
8.82838484904761
30
0
41
1
10
100.609452336517
20
8.91211235450857
30
0
41
1
10
100.315910529156
20
8.95241495047483
30
0
41
1
10
99.435559454452
20
9.06868278887524
30
0
41
1
10
98.8490214255525
20
9.14001264098792
30
0
41
1
10
97.969849977658
20
9.23779858166171
30
0
41
1
10
97.5304242376068
20
9.28438747978774
30
0
41
1
10
97.0912589818673
20
9.32750820271855
30
0
41
1
10
96.7985425689413
20
9.35548157810507
30
0
41
1
10
96.6522185721141
20
9.36908384394891
30
0
41
1
10
95.9205420975601
20
9.4350015805195
30
0
41
1
10
95.3350164286916
20
9.48105363803572
30
0
41
1
10
94.1636847047745
20
9.56009612766252
30
0
41
1
10
93.5778793766782
20
9.59308704846606
30
0
41
1
10
92.4060882614874
20
9.64608915223127
30
0
41
1
10
91.8201014462156
20
9.66610128931342
30
0
41
1
10
90.9410843545463
20
9.68627460283059
30
0
41
1
10
90.6480836727025
20
9.69135715835716
30
0
41
1
10
90.0620351479018
20
9.69818830396864
30
0
41
1
10
89.7688862799445
20
9.69992639167802
30
0
41
1
10
89.4685175659784
20
9.69999942095947
30
0
41
1
10
89.4614776590194
20
9.70000017366087
30
0
41
1
10
89.4544376590724
20
9.69999996759563
30
0
0
SPLINE
5
CC
100
AcDbEntity
8
1
62
256
6
ByLayer
370
18
48
1
60
0
100
AcDbSpline
70
4
71
3
72
22
73
18
40
0
40
0
40
0
40
0
40
0.0905783558269126
40
0.0905783558269126
40
0.272462684661528
40
0.272462684661528
40
0.317933766870181
40
0.317933766870181
40
0.363404849078834
40
0.363404849078834
40
0.454347013496144
40
0.454347013496144
40
0.636231342330762
40
0.636231342330762
40
0.818115671165382
40
0.818115671165382
40
1
40
1
40
1
40
1
41
1
10
23.5235570865686
20
-7.15054464934209
30
0
41
1
10
23.2319139544987
20
-7.21990153624452
30
0
41
1
10
22.9403138776765
20
-7.28803557973683
30
0
41
1
10
22.0633188412571
20
-7.48934905769144
30
0
41
1
10
21.4780733038279
20
-7.61886549592288
30
0
41
1
10
20.7468533192133
20
-7.77474190922825
30
0
41
1
10
20.6006261743985
20
-7.80561572838116
30
0
41
1
10
20.3082079461448
20
-7.866760345242
30
0
41
1
10
20.1620209212474
20
-7.89703742502493
30
0
41
1
10
19.7233904523334
20
-7.98675548327111
30
0
41
1
10
19.4308765095134
20
-8.04508405391607
30
0
41
1
10
18.5530700557201
20
-8.21568689108236
30
0
41
1
10
17.9675155626869
20
-8.32358801999587
30
0
41
1
10
16.7957934869155
20
-8.52794654626518
30
0
41
1
10
16.2096233993704
20
-8.62440114049264
30
0
41
1
10
15.036774127626
20
-8.80593092729384
30
0
41
1
10
14.4500958582059
20
-8.89100914975603
30
0
41
1
10
13.8632404250701
20
-8.97035237675064
30
0
0
SPLINE
5
CD
100
AcDbEntity
8
1
62
256
6
ByLayer
370
18
48
1
60
0
100
AcDbSpline
70
4
71
3
72
14
73
10
40
0
40
0
40
0
40
0
40
0.185977316087172
40
0.185977316087172
40
0.371954632174343
40
0.371954632174343
40
0.743909264348666
40
0.743909264348666
40
1
40
1
40
1
40
1
41
1
10
126.4
20
-9.91625759316804
30
0
41
1
10
126.618048212043
20
-9.92650394289896
30
0
41
1
10
126.835990821863
20
-9.93581069936306
30
0
41
1
10
127.271969661999
20
-9.95245906613602
30
0
41
1
10
127.489971667232
20
-9.95981435008039
30
0
41
1
10
128.143982544746
20
-9.97901838082987
30
0
41
1
10
128.579991664873
20
-9.98800975139591
30
0
41
1
10
129.316092163437
20
-9.99686182265128
30
0
41
1
10
129.616217095733
20
-9.99870016830863
30
0
41
1
10
129.916298360129
20
-9.99876094807922
30
0
0
SPLINE
5
CE
100
AcDbEntity
8
1
62
256
6
ByLayer
370
18
48
1
60
0
100
AcDbSpline
70
4
71
3
72
191
73
187
40
0
40
0
40
0
40
0
40
0.0058498729432636
40
0.0058498729432636
40
0.0140659896957988
40
0.0140659896957988
40
0.0304982232008694
40
0.0304982232008694
40
0.0469304567059399
40
0.0469304567059399
40
0.0633626902110104
40
0.0633626902110104
40
0.0715788069635458
40
0.0715788069635458
40
0.0756868653398134
40
0.0756868653398134
40
0.0797949237160809
40
0.0797949237160809
40
0.096227157221151
40
0.096227157221151
40
0.112659390726221
40
0.112659390726221
40
0.129091624231291
40
0.129091624231291
40
0.133199682607559
40
0.133199682607559
40
0.137307740983827
40
0.137307740983827
40
0.145523857736362
40
0.145523857736362
40
0.161956091241433
40
0.161956091241433
40
0.178388324746504
40
0.178388324746504
40
0.186604441499039
40
0.186604441499039
40
0.194820558251574
40
0.194820558251574
40
0.198928616627842
40
0.198928616627842
40
0.20303667500411
40
0.211252791756645
40
0.211252791756645
40
0.227685025261716
40
0.227685025261716
40
0.244117258766786
40
0.244117258766786
40
0.252333375519322
40
0.252333375519322
40
0.256441433895589
40
0.256441433895589
40
0.260549492271857
40
0.260549492271857
40
0.276981725776927
40
0.276981725776927
40
0.293413959281997
40
0.293413959281997
40
0.309846192787067
40
0.309846192787067
40
0.318062309539603
40
0.318062309539603
40
0.32217036791587
40
0.32217036791587
40
0.326278426292138
40
0.326278426292138
40
0.342710659797207
40
0.342710659797207
40
0.359142893302277
40
0.359142893302277
40
0.375575126807347
40
0.375575126807347
40
0.379683185183615
40
0.379683185183615
40
0.383791243559882
40
0.383791243559882
40
0.392007360312418
40
0.392007360312418
40
0.408439593817488
40
0.408439593817488
40
0.424871827322558
40
0.424871827322558
40
0.433087944075093
40
0.433087944075093
40
0.441304060827628
40
0.441304060827628
40
0.445412119203896
40
0.445412119203896
40
0.449520177580163
40
0.449520177580163
40
0.457736294332699
40
0.457736294332699
40
0.47416852783777
40
0.47416852783777
40
0.490600761342841
40
0.490600761342841
40
0.498816878095376
40
0.502924936471644
40
0.502924936471644
40
0.507032994847912
40
0.507032994847912
40
0.523465228352983
40
0.523465228352983
40
0.539897461858054
40
0.539897461858054
40
0.556329695363124
40
0.556329695363124
40
0.56454581211566
40
0.56454581211566
40
0.572761928868195
40
0.572761928868195
40
0.589194162373266
40
0.589194162373266
40
0.605626395878337
40
0.605626395878337
40
0.622058629383408
40
0.622058629383408
40
0.630274746135943
40
0.630274746135943
40
0.638490862888478
40
0.638490862888478
40
0.654923096393549
40
0.654923096393549
40
0.67135532989862
40
0.67135532989862
40
0.679571446651155
40
0.679571446651155
40
0.687787563403691
40
0.687787563403691
40
0.696003680156226
40
0.696003680156226
40
0.704219796908761
40
0.704219796908761
40
0.720652030413832
40
0.720652030413832
40
0.737084263918903
40
0.737084263918903
40
0.745300380671438
40
0.745300380671438
40
0.753516497423973
40
0.753516497423973
40
0.757624555800241
40
0.757624555800241
40
0.761732614176508
40
0.769948730929043
40
0.769948730929043
40
0.786380964434113
40
0.786380964434113
40
0.802813197939183
40
0.802813197939183
40
0.811029314691719
40
0.811029314691719
40
0.815137373067987
40
0.815137373067987
40
0.819245431444255
40
0.819245431444255
40
0.835677664949324
40
0.835677664949324
40
0.852109898454393
40
0.852109898454393
40
0.868542131959463
40
0.868542131959463
40
0.876758248711997
40
0.876758248711997
40
0.880866307088264
40
0.880866307088264
40
0.884974365464531
40
0.884974365464531
40
0.901406598969597
40
0.901406598969597
40
0.90962271572213
40
0.90962271572213
40
0.917838832474663
40
0.917838832474663
40
0.934271065979731
40
0.934271065979731
40
0.938379124355998
40
0.938379124355998
40
0.942487182732264
40
0.942487182732264
40
0.950703299484798
40
0.950703299484798
40
0.967135532989865
40
0.967135532989865
40
0.983567766494933
40
0.983567766494933
40
1
40
1
40
1
40
1
41
1
10
23.5244982271253
20
7.14846084947442
30
0
41
1
10
23.7248567121244
20
7.19636124295684
30
0
41
1
10
23.9251701895451
20
7.24375716816792
30
0
41
1
10
24.4067066725691
20
7.35650980143211
30
0
41
1
10
24.687828839788
20
7.42147151895108
30
0
41
1
10
25.5316231185631
20
7.612038237262
30
0
41
1
10
26.0946017231918
20
7.73358251176816
30
0
41
1
10
27.2211087200797
20
7.96649056353556
30
0
41
1
10
27.7846480750651
20
8.07783303318035
30
0
41
1
10
28.9120784715514
20
8.29065092622429
30
0
41
1
10
29.4759625028765
20
8.39213690335794
30
0
41
1
10
30.3219027884447
20
8.5370387235242
30
0
41
1
10
30.603921710553
20
8.58412861865193
30
0
41
1
10
31.0269123834605
20
8.65286348691291
30
0
41
1
10
31.1678750929979
20
8.67543258625633
30
0
41
1
10
31.4498224759005
20
8.71977169860861
30
0
41
1
10
31.5907972558832
20
8.74155523712309
30
0
41
1
10
32.2956624412101
20
8.84857903599394
30
0
41
1
10
32.8595178367939
20
8.92816209645031
30
0
41
1
10
33.9868753276219
20
9.07584077917562
30
0
41
1
10
34.5503881725468
20
9.1439227602724
30
0
41
1
10
35.676852798141
20
9.26879710026523
30
0
41
1
10
36.2397979530136
20
9.32559392021676
30
0
41
1
10
36.9430101771308
20
9.3894766118886
30
0
41
1
10
37.083627585222
20
9.40189792604417
30
0
41
1
10
37.3648219627879
20
9.42601761129578
30
0
41
1
10
37.5054062777667
20
9.43771025160325
30
0
41
1
10
37.9272757090343
20
9.47158748795067
30
0
41
1
10
38.208640050761
20
9.49259938785832
30
0
41
1
10
39.0530140627667
20
9.55102792002029
30
0
41
1
10
39.6162950306175
20
9.58385122455809
30
0
41
1
10
40.7433372570636
20
9.63749429817653
30
0
41
1
10
41.3071045836343
20
9.65831145774604
30
0
41
1
10
42.1529523896835
20
9.68049618413318
30
0
41
1
10
42.4349343311739
20
9.68638183201895
30
0
41
1
10
42.9989447159233
20
9.69509966693312
30
0
41
1
10
43.2810179352924
20
9.69793202586357
30
0
41
1
10
43.704001711161
20
9.69985104616455
30
0
41
1
10
43.8449504044931
20
9.70010135852453
30
0
41
1
10
44.1268665139626
20
9.699824685713
30
0
41
1
10
44.5497471456431
20
9.69824580899012
30
0
41
1
10
44.9726212584992
20
9.69321123809939
30
0
41
1
10
45.8182948578838
20
9.67859383193411
30
0
41
1
10
46.3819757176665
20
9.66279213261836
30
0
41
1
10
47.5089218949503
20
9.61916052705612
30
0
41
1
10
48.0721856720358
20
9.59133037238726
30
0
41
1
10
48.9165935364223
20
9.54040493277856
30
0
41
1
10
49.1979823660812
20
9.52189774732898
30
0
41
1
10
49.6199304921368
20
9.49180357916669
30
0
41
1
10
49.7605572613781
20
9.48138311718179
30
0
41
1
10
50.041764076295
20
9.45975729128031
30
0
41
1
10
50.1823439828931
20
9.44855099589338
30
0
41
1
10
50.8854155102079
20
9.39074014759751
30
0
41
1
10
51.4483585940463
20
9.33878397647894
30
0
41
1
10
52.5748513975172
20
9.22347841917997
30
0
41
1
10
53.1384104879983
20
9.16013261797062
30
0
41
1
10
54.2659361739125
20
9.02187452185865
30
0
41
1
10
54.8298965053956
20
8.94695585733183
30
0
41
1
10
55.6759869423266
20
8.82555667655305
30
0
41
1
10
55.9581043361036
20
8.78357649560428
30
0
41
1
10
56.3810887034924
20
8.71833167779673
30
0
41
1
10
56.5220288518337
20
8.69620132390577
30
0
41
1
10
56.8039130775965
20
8.65132303523234
30
0
41
1
10
56.9448583936224
20
8.62857744268936
30
0
41
1
10
57.6495866826119
20
8.51331381027615
30
0
41
1
10
58.2133671418005
20
8.41618977437597
30
0
41
1
10
59.3406254323256
20
8.21192116210204
30
0
41
1
10
59.904114701144
20
8.10479133288271
30
0
41
1
10
61.0305882440605
20
7.88020468376959
30
0
41
1
10
61.5935653218974
20
7.7627352358158
30
0
41
1
10
62.2968463504837
20
7.60911772517417
30
0
41
1
10
62.4374808000889
20
7.57805512847804
30
0
41
1
10
62.7187040125377
20
7.51524327981377
30
0
41
1
10
62.8592862047337
20
7.4834816093944
30
0
41
1
10
63.2811029107276
20
7.38741487766288
30
0
41
1
10
63.5624396230476
20
7.32238996228466
30
0
41
1
10
64.4067578132689
20
7.12430415931644
30
0
41
1
10
64.9700346255575
20
6.98821536800861
30
0
41
1
10
66.0971178733505
20
6.70757677699274
30
0
41
1
10
66.6609325712828
20
6.56304318910392
30
0
41
1
10
67.5068923600989
20
6.33950091025019
30
0
41
1
10
67.7889182531641
20
6.26386050590332
30
0
41
1
10
68.3530279935484
20
6.11025234151333
30
0
41
1
10
68.6351821551899
20
6.03226546276795
30
0
41
1
10
69.0581693790741
20
5.91356287134633
30
0
41
1
10
69.1991076781635
20
5.87369293014513
30
0
41
1
10
69.4809626445053
20
5.79356419619239
30
0
41
1
10
69.6218915620193
20
5.75333427745872
30
0
41
1
10
70.044686402706
20
5.63216180395409
30
0
41
1
10
70.3265551155925
20
5.55072452352545
30
0
41
1
10
71.1721108901966
20
5.30431796122696
30
0
41
1
10
71.7357418465535
20
5.13724373339639
30
0
41
1
10
72.862638903479
20
4.79702355435612
30
0
41
1
10
73.4259064992106
20
4.62388135817562
30
0
41
1
10
74.2703593748356
20
4.35914412455071
30
0
41
1
10
74.692474319152
20
4.22551954563582
30
0
41
1
10
75.1144000398897
20
4.08993764105759
30
0
41
1
10
75.3956396594704
20
3.99910658393401
30
0
41
1
10
75.5362294177155
20
3.95344860963448
30
0
41
1
10
76.2392291781671
20
3.72446764673407
30
0
41
1
10
76.8021203113622
20
3.53994005308238
30
0
41
1
10
77.928598146523
20
3.16757292458277
30
0
41
1
10
78.4921764855311
20
2.97971000022099
30
0
41
1
10
79.6197948457565
20
2.60004976416619
30
0
41
1
10
80.1838298901903
20
2.40823877498477
30
0
41
1
10
81.0300679796605
20
2.11705029486183
30
0
41
1
10
81.3122530877852
20
2.01938581158541
30
0
41
1
10
81.8762394892166
20
1.82299171020844
30
0
41
1
10
82.1580090390768
20
1.72418517922873
30
0
41
1
10
83.0035131792088
20
1.42842247327081
30
0
41
1
10
83.5672156056436
20
1.23146923823054
30
0
41
1
10
84.6943700161294
20
0.837093187368453
30
0
41
1
10
85.2578333805043
20
0.639703041559301
30
0
41
1
10
86.3843111280616
20
0.243884246621576
30
0
41
1
10
86.9473182107301
20
0.0454347288948043
30
0
41
1
10
87.7913354569785
20
-0.253462977666004
30
0
41
1
10
88.0725727866394
20
-0.353355147215837
30
0
41
1
10
88.634965678537
20
-0.553310127508809
30
0
41
1
10
88.916255482319
20
-0.652989625482803
30
0
41
1
10
89.7605127820224
20
-0.950827803515324
30
0
41
1
10
90.3237831294041
20
-1.14802917952909
30
0
41
1
10
91.4509030315782
20
-1.54053388595096
30
0
41
1
10
92.0147625843065
20
-1.73580869210323
30
0
41
1
10
92.8608309152794
20
-2.02773872719666
30
0
41
1
10
93.1428997641195
20
-2.12488621329993
30
0
41
1
10
93.7071070114273
20
-2.31891972139422
30
0
41
1
10
93.9893172494783
20
-2.41582899051053
30
0
41
1
10
94.5533067104897
20
-2.60925907387403
30
0
41
1
10
94.8350601919446
20
-2.70591928395746
30
0
41
1
10
95.3986717339361
20
-2.89748676694259
30
0
41
1
10
95.680491437397
20
-2.99250532177641
30
0
41
1
10
96.5259246403452
20
-3.27548810937517
30
0
41
1
10
97.0895041059624
20
-3.46140568692195
30
0
41
1
10
98.2163479197281
20
-3.82846803558613
30
0
41
1
10
98.7796165262586
20
-4.00960141323097
30
0
41
1
10
99.6241114479415
20
-4.27814294557481
30
0
41
1
10
99.905541713908
20
-4.36712932636667
30
0
41
1
10
100.468245891776
20
-4.54408354788197
30
0
41
1
10
100.749509136794
20
-4.63207798171393
30
0
41
1
10
101.17130961837
20
-4.76323252035544
30
0
41
1
10
101.311911537479
20
-4.80676728282984
30
0
41
1
10
101.593198721157
20
-4.89327347249969
30
0
41
1
10
102.015225082184
20
-5.02226136619294
30
0
41
1
10
102.437509640997
20
-5.14901961797142
30
0
41
1
10
103.282353244227
20
-5.39975657096036
30
0
41
1
10
103.845948812543
20
-5.56321089602739
30
0
41
1
10
104.973654886688
20
-5.88325755920505
30
0
41
1
10
105.537762249208
20
-6.03985742953486
30
0
41
1
10
106.384145201818
20
-6.26991779891091
30
0
41
1
10
106.666368233567
20
-6.3458091729803
30
0
41
1
10
107.089393124992
20
-6.45834553602481
30
0
41
1
10
107.230356669929
20
-6.49564955216803
30
0
41
1
10
107.51221141484
20
-6.56980055555658
30
0
41
1
10
107.653112680054
20
-6.60662568600617
30
0
41
1
10
108.357723125614
20
-6.78901313212106
30
0
41
1
10
108.921579759876
20
-6.9297271537832
30
0
41
1
10
110.04928752129
20
-7.20170780717609
30
0
41
1
10
110.613149264149
20
-7.33295050097448
30
0
41
1
10
111.74066762111
20
-7.58639184510136
30
0
41
1
10
112.304317263503
20
-7.70860282816099
30
0
41
1
10
113.149475979635
20
-7.88529671911894
30
0
41
1
10
113.431140306881
20
-7.94309326156429
30
0
41
1
10
113.853559327082
20
-8.02809957411895
30
0
41
1
10
113.994361736311
20
-8.05613845403795
30
0
41
1
10
114.276063235523
20
-8.11145819540096
30
0
41
1
10
114.416953081219
20
-8.13875430164711
30
0
41
1
10
115.121581874214
20
-8.27345299130431
30
0
41
1
10
115.685849650637
20
-8.37553588709093
30
0
41
1
10
116.532868069559
20
-8.52059976010088
30
0
41
1
10
116.815252751956
20
-8.56759465642509
30
0
41
1
10
117.379770776066
20
-8.65885506888827
30
0
41
1
10
117.661950354687
20
-8.70312908098194
30
0
41
1
10
118.508204956201
20
-8.83193249012371
30
0
41
1
10
119.071991207727
20
-8.91245641603629
30
0
41
1
10
119.776130803076
20
-9.00642067264721
30
0
41
1
10
119.916928449248
20
-9.02487899283773
30
0
41
1
10
120.198466231941
20
-9.06111788623198
30
0
41
1
10
120.339210565204
20
-9.07889336712134
30
0
41
1
10
120.761537887878
20
-9.13102149857181
30
0
41
1
10
121.043184713774
20
-9.1642101010703
30
0
41
1
10
121.888338159698
20
-9.2592243800099
30
0
41
1
10
122.452047911476
20
-9.31651577601795
30
0
41
1
10
123.579762630968
20
-9.41935465063202
30
0
41
1
10
124.143774229172
20
-9.46489682960731
30
0
41
1
10
125.271871537599
20
-9.54428536665134
30
0
41
1
10
125.83595306831
20
-9.5781319984354
30
0
41
1
10
126.4
20
-9.60599691525363
30
0
0
SPLINE
5
CF
100
AcDbEntity
8
1
62
256
6
ByLayer
370
18
48
1
60
0
100
AcDbSpline
70
4
71
3
72
162
73
158
40
0
40
0
40
0
40
0
40
0.001447440823989
40
0.001447440823989
40
0.0060279571504838
40
0.0106084734769787
40
0.028930538782958
40
0.0472526040889373
40
0.0472526040889373
40
0.0655746693949166
40
0.0655746693949166
40
0.0747357020479062
40
0.0747357020479062
40
0.0838967347008959
40
0.0838967347008959
40
0.0930577673538855
40
0.0930577673538855
40
0.102218800006875
40
0.102218800006875
40
0.120540865312854
40
0.120540865312854
40
0.129701897965843
40
0.134282414292338
40
0.134282414292338
40
0.138862930618833
40
0.138862930618833
40
0.157184995924814
40
0.157184995924814
40
0.175507061230795
40
0.175507061230795
40
0.193829126536776
40
0.193829126536776
40
0.202990159189766
40
0.202990159189766
40
0.212151191842755
40
0.212151191842755
40
0.221312224495746
40
0.221312224495746
40
0.230473257148736
40
0.230473257148736
40
0.248795322454716
40
0.248795322454716
40
0.267117387760696
40
0.267117387760696
40
0.271697904087191
40
0.276278420413687
40
0.285439453066677
40
0.285439453066677
40
0.303761518372659
40
0.303761518372659
40
0.322083583678641
40
0.322083583678641
40
0.331244616331631
40
0.331244616331631
40
0.340405648984622
40
0.340405648984622
40
0.349566681637613
40
0.349566681637613
40
0.358727714290604
40
0.358727714290604
40
0.377049779596585
40
0.377049779596585
40
0.395371844902567
40
0.395371844902567
40
0.399952361229062
40
0.399952361229062
40
0.404532877555558
40
0.404532877555558
40
0.413693910208549
40
0.413693910208549
40
0.432015975514531
40
0.432015975514531
40
0.450338040820513
40
0.450338040820513
40
0.459499073473505
40
0.459499073473505
40
0.468660106126496
40
0.468660106126496
40
0.477821138779488
40
0.477821138779488
40
0.486982171432479
40
0.486982171432479
40
0.505304236738462
40
0.505304236738462
40
0.523626302044446
40
0.523626302044446
40
0.532787334697437
40
0.532787334697437
40
0.537367851023933
40
0.537367851023933
40
0.541948367350428
40
0.560270432656412
40
0.578592497962395
40
0.578592497962395
40
0.596914563268378
40
0.596914563268378
40
0.60607559592137
40
0.60607559592137
40
0.615236628574361
40
0.615236628574361
40
0.624397661227353
40
0.624397661227353
40
0.633558693880344
40
0.633558693880344
40
0.651880759186328
40
0.651880759186328
40
0.66104179183932
40
0.665622308165815
40
0.665622308165815
40
0.670202824492311
40
0.670202824492311
40
0.688524889798294
40
0.688524889798294
40
0.706846955104277
40
0.706846955104277
40
0.72516902041026
40
0.72516902041026
40
0.734330053063251
40
0.734330053063251
40
0.743491085716243
40
0.743491085716243
40
0.752652118369234
40
0.752652118369234
40
0.761813151022226
40
0.761813151022226
40
0.780135216328209
40
0.780135216328209
40
0.798457281634192
40
0.798457281634192
40
0.803037797960688
40
0.807618314287184
40
0.816779346940175
40
0.816779346940175
40
0.835101412246158
40
0.835101412246158
40
0.853423477552141
40
0.853423477552141
40
0.862584510205132
40
0.862584510205132
40
0.871745542858124
40
0.871745542858124
40
0.890067608164106
40
0.908389673470089
40
0.908389673470089
40
0.926711738776072
40
0.926711738776072
40
0.931292255102567
40
0.931292255102567
40
0.935872771429063
40
0.935872771429063
40
0.945033804082054
40
0.945033804082054
40
0.963355869388036
40
0.963355869388036
40
0.981677934694018
40
0.981677934694018
40
1
40
1
40
1
40
1
41
1
10
109.831815312912
20
-7.15141091556728
30
0
41
1
10
109.785558248893
20
-7.16249015478826
30
0
41
1
10
109.739304220015
20
-7.17354218905817
30
0
41
1
10
109.546689244916
20
-7.21945586377402
30
0
41
1
10
109.254030784202
20
-7.2887025922314
30
0
41
1
10
108.375926339208
20
-7.49221938767658
30
0
41
1
10
107.0583050191
20
-7.78181803821349
30
0
41
1
10
105.886613680542
20
-8.01759650530155
30
0
41
1
10
104.714787649504
20
-8.24270687877274
30
0
41
1
10
104.128809429604
20
-8.34993247774628
30
0
41
1
10
103.249844623832
20
-8.50277796894417
30
0
41
1
10
102.956895358085
20
-8.55244136355483
30
0
41
1
10
102.370615904842
20
-8.64855748226185
30
0
41
1
10
102.077314089296
20
-8.69505412907029
30
0
41
1
10
101.490398283166
20
-8.78496221893951
30
0
41
1
10
101.196707538288
20
-8.82838484904758
30
0
41
1
10
100.609452336517
20
-8.91211235450857
30
0
41
1
10
100.315910529156
20
-8.95241495047483
30
0
41
1
10
99.435559454452
20
-9.06868278887524
30
0
41
1
10
98.8490214255525
20
-9.14001264098792
30
0
41
1
10
97.969849977658
20
-9.23779858166171
30
0
41
1
10
97.5304242376067
20
-9.28438747978774
30
0
41
1
10
97.0912589818674
20
-9.32750820271855
30
0
41
1
10
96.7985425689413
20
-9.35548157810507
30
0
41
1
10
96.6522185721142
20
-9.36908384394891
30
0
41
1
10
95.9205420975601
20
-9.4350015805195
30
0
41
1
10
95.3350164286916
20
-9.48105363803569
30
0
41
1
10
94.1636847047745
20
-9.56009612766249
30
0
41
1
10
93.5778793766782
20
-9.59308704846606
30
0
41
1
10
92.4060882614872
20
-9.64608915223127
30
0
41
1
10
91.8201014462156
20
-9.66610128931342
30
0
41
1
10
90.9410843545462
20
-9.68627460283059
30
0
41
1
10
90.6480836727025
20
-9.69135715835716
30
0
41
1
10
90.0620351479019
20
-9.69818830396864
30
0
41
1
10
89.7688862799445
20
-9.69992639167802
30
0
41
1
10
89.1822284797686
20
-9.70006902703122
30
0
41
1
10
88.8887379771358
20
-9.69847554403447
30
0
41
1
10
88.3014472207801
20
-9.69197877534074
30
0
41
1
10
88.0078216111267
20
-9.68707709154123
30
0
41
1
10
87.1272899632423
20
-9.66744661898036
30
0
41
1
10
86.5406121700577
20
-9.64779882445617
30
0
41
1
10
85.3680476354576
20
-9.59537085005468
30
0
41
1
10
84.7821639523905
20
-9.56259064984675
30
0
41
1
10
84.0504002815687
20
-9.51323491395078
30
0
41
1
10
83.7577621030111
20
-9.49264745355958
30
0
41
1
10
83.1723906307371
20
-9.44829852841164
30
0
41
1
10
82.7332583184867
20
-9.41149192220513
30
0
41
1
10
81.8548728844914
20
-9.333185204584
30
0
41
1
10
81.2691218058908
20
-9.27472950065427
30
0
41
1
10
80.0973955202076
20
-9.14532241079624
30
0
41
1
10
79.5114175552876
20
-9.07437451416439
30
0
41
1
10
78.6323729582384
20
-8.95839762598877
30
0
41
1
10
78.3393453817071
20
-8.91814399090975
30
0
41
1
10
77.7532812511531
20
-8.83439106647822
30
0
41
1
10
77.4602833803952
20
-8.79083945907175
30
0
41
1
10
76.8738975983616
20
-8.70093176691466
30
0
41
1
10
76.5805379204891
20
-8.65454733363251
30
0
41
1
10
75.9934970284728
20
-8.55892812359704
30
0
41
1
10
75.6997791429889
20
-8.50968582342782
30
0
41
1
10
74.8190876581882
20
-8.3578400088239
30
0
41
1
10
74.2322836570399
20
-8.25107833005239
30
0
41
1
10
73.0594174546518
20
-8.02640580067276
30
0
41
1
10
72.4733558323402
20
-7.90849497193608
30
0
41
1
10
71.7413338978228
20
-7.75391568827123
30
0
41
1
10
71.5949572860049
20
-7.72263977189661
30
0
41
1
10
71.3022620805728
20
-7.65935994055866
30
0
41
1
10
71.1559475575764
20
-7.62734838368303
30
0
41
1
10
70.7169668083379
20
-7.53043870747561
30
0
41
1
10
70.4242624762818
20
-7.46466968189387
30
0
41
1
10
69.546011937862
20
-7.26389209942784
30
0
41
1
10
68.9603292408271
20
-7.12541662520459
30
0
41
1
10
67.7886959203132
20
-6.83913862934477
30
0
41
1
10
67.2027439128506
20
-6.69133922871262
30
0
41
1
10
66.3236961792634
20
-6.46243600424083
30
0
41
1
10
66.0306611862572
20
-6.38493099667534
30
0
41
1
10
65.444569126394
20
-6.22745465706379
30
0
41
1
10
65.1515232295285
20
-6.14745799457748
30
0
41
1
10
64.5653748228086
20
-5.98504187396847
30
0
41
1
10
64.272171467585
20
-5.90284996215377
30
0
41
1
10
63.6853951926915
20
-5.73677451308339
30
0
41
1
10
63.3917712908577
20
-5.65282915546777
30
0
41
1
10
62.510940038975
20
-5.39845609895815
30
0
41
1
10
61.9240231362471
20
-5.22557117493596
30
0
41
1
10
60.7508867424313
20
-4.87302576132231
30
0
41
1
10
60.1646649205637
20
-4.69337143693144
30
0
41
1
10
59.2859553181262
20
-4.41852988226447
30
0
41
1
10
58.9931561007339
20
-4.32602159506746
30
0
41
1
10
58.5541276640897
20
-4.18587072215286
30
0
41
1
10
58.4078173659765
20
-4.13891143219141
30
0
41
1
10
58.1151708901031
20
-4.04474298941105
30
0
41
1
10
57.3834889469902
20
-3.8087004244087
30
0
41
1
10
56.0658887782967
20
-3.37824184807542
30
0
41
1
10
54.89406558164
20
-2.9873142630737
30
0
41
1
10
53.7220315801043
20
-2.59195642779324
30
0
41
1
10
53.1359114442067
20
-2.39205667588988
30
0
41
1
10
52.2566756309446
20
-2.0885274164076
30
0
41
1
10
51.9636263973428
20
-1.98662510170536
30
0
41
1
10
51.3771287600432
20
-1.78266443857339
30
0
41
1
10
51.0837084595191
20
-1.68052863218324
30
0
41
1
10
50.496536964857
20
-1.47592169186007
30
0
41
1
10
50.202906467501
20
-1.37349156325428
30
0
41
1
10
49.6159009715326
20
-1.1684639266374
30
0
41
1
10
49.3224744835482
20
-1.06584869494054
30
0
41
1
10
48.4424409867
20
-0.757647450140098
30
0
41
1
10
47.8560768787252
20
-0.551714163554578
30
0
41
1
10
46.977109758856
20
-0.241853793177768
30
0
41
1
10
46.5377720338817
20
-0.086680616421063
30
0
41
1
10
46.0986734558347
20
0.0689133669689284
30
0
41
1
10
45.8059967302623
20
0.172743036381604
30
0
41
1
10
45.6596903154707
20
0.224719786728656
30
0
41
1
10
44.9280908142791
20
0.484263208336472
30
0
41
1
10
44.3425882321754
20
0.690789704794497
30
0
41
1
10
43.1712269572838
20
1.10189987483289
30
0
41
1
10
42.5853689969581
20
1.30648564064549
30
0
41
1
10
41.4133969461033
20
1.71400050974393
30
0
41
1
10
40.8272818233297
20
1.91692678581757
30
0
41
1
10
39.9480145153184
20
2.22033903593368
30
0
41
1
10
39.654920662198
20
2.32134444156208
30
0
41
1
10
39.0686668582637
20
2.52292872399755
30
0
41
1
10
38.7754062398809
20
2.62322432351434
30
0
41
1
10
38.1885059578829
20
2.82251070319282
30
0
41
1
10
37.8948334117684
20
2.92157068924166
30
0
41
1
10
37.3076928951308
20
3.11835175828
30
0
41
1
10
37.0141700763369
20
3.21609141936744
30
0
41
1
10
36.1337604250737
20
3.50741717100436
30
0
41
1
10
35.5470313618976
20
3.69911077013705
30
0
41
1
10
34.3741011686296
20
4.07773458477647
30
0
41
1
10
33.787903139551
20
4.26467347201481
30
0
41
1
10
33.0555806490914
20
4.49554785788013
30
0
41
1
10
32.7627023000722
20
4.58763703525133
30
0
41
1
10
32.1767816684564
20
4.76984813428987
30
0
41
1
10
31.7371611464207
20
4.90431707213702
30
0
41
1
10
30.8576983103102
20
5.17040095259549
30
0
41
1
10
30.2710944512028
20
5.34398929929355
30
0
41
1
10
29.0973949910068
20
5.68383490370704
30
0
41
1
10
28.5102444006525
20
5.85010066484068
30
0
41
1
10
27.6293983849541
20
6.09410853767514
30
0
41
1
10
27.3359618875626
20
6.17449063923996
30
0
41
1
10
26.7494658587511
20
6.33336971434065
30
0
41
1
10
26.4564437441013
20
6.41194458754669
30
0
41
1
10
25.577371131101
20
6.64357213680231
30
0
41
1
10
24.4054908990336
20
6.94204867994878
30
0
41
1
10
23.2342069119563
20
7.22057267924072
30
0
41
1
10
22.0633188412571
20
7.48934905769144
30
0
41
1
10
21.4780733038279
20
7.61886549592288
30
0
41
1
10
20.7468533192133
20
7.77474190922823
30
0
41
1
10
20.6006261743985
20
7.80561572838113
30
0
41
1
10
20.3082079461448
20
7.86676034524197
30
0
41
1
10
20.1620209212474
20
7.89703742502491
30
0
41
1
10
19.7233904523334
20
7.98675548327111
30
0
41
1
10
19.4308765095134
20
8.04508405391607
30
0
41
1
10
18.5530700557201
20
8.21568689108233
30
0
41
1
10
17.9675155626869
20
8.32358801999587
30
0
41
1
10
16.7957934869154
20
8.52794654626518
30
0
41
1
10
16.2096233993705
20
8.62440114049264
30
0
41
1
10
15.036774127626
20
8.80593092729384
30
0
41
1
10
14.4500958582059
20
8.891009149756
30
0
41
1
10
13.8632404250701
20
8.97035237675061
30
0
0
SPLINE
5
D0
100
AcDbEntity
8
1
62
256
6
ByLayer
370
18
48
1
60
0
100
AcDbSpline
70
4
71
3
72
14
73
10
40
0
40
0
40
0
40
0
40
0.25
40
0.25
40
0.5
40
0.5
40
0.75
40
0.75
40
1
40
1
40
1
40
1
41
1
10
13.8632404250701
20
-8.97035237675141
30
0
41
1
10
13.5335159768208
20
-9.0161742794368
30
0
41
1
10
13.2062502544962
20
-9.06202602035748
30
0
41
1
10
12.5555423918379
20
-9.15176180087815
30
0
41
1
10
12.23209457382
20
-9.19564856832179
30
0
41
1
10
11.5884792008138
20
-9.2800899978181
30
0
41
1
10
11.2683101573555
20
-9.32065449728921
30
0
41
1
10
10.6313895507192
20
-9.39756724528266
30
0
41
1
10
10.3146403046033
20
-9.43392975843906
30
0
41
1
10
10
20
-9.46779552663719
30
0
0
SPLINE
5
D1
100
AcDbEntity
8
1
62
256
6
ByLayer
370
18
48
1
60
0
100
AcDbSpline
70
4
71
4
72
10
73
5
40
0
40
0
40
0
40
0
40
0
40
1
40
1
40
1
40
1
40
1
41
0.99966332540213
10
14.7518832457236
20
-4.95423842835949
30
0
41
0.998347943817881
10
14.4501700557597
20
-5.75646727892632
30
0
41
0.994252690680112
10
14.1763142463015
20
-6.7510294169294
30
0
41
0.994952147626869
10
13.9784352488035
20
-7.86563961899766
30
0
41
0.996856785525806
10
13.8632404250701
20
-8.97035237675142
30
0
0
SPLINE
5
D2
100
AcDbEntity
8
1
62
256
6
ByLayer
370
18
48
1
60
0
100
AcDbSpline
70
4
71
3
72
25
73
21
40
0
40
0
40
0
40
0
40
0.125000000000003
40
0.125000000000003
40
0.250000000000005
40
0.250000000000005
40
0.375000000000008
40
0.375000000000008
40
0.406250000000008
40
0.406250000000008
40
0.437500000000009
40
0.50000000000001
40
0.50000000000001
40
0.625000000000008
40
0.625000000000008
40
0.750000000000005
40
0.750000000000005
40
0.875000000000003
40
0.875000000000003
40
1
40
1
40
1
40
1
41
1
10
10
20
-5.00842853617155
30
0
41
1
10
10.3439811801679
20
-4.94346027097245
30
0
41
1
10
10.6891563804425
20
-4.89293237175258
30
0
41
1
10
11.3817127411611
20
-4.81940262452338
30
0
41
1
10
11.7290952781749
20
-4.79641342968296
30
0
41
1
10
12.4259467410402
20
-4.77683506370826
30
0
41
1
10
12.7754167541156
20
-4.78025703296191
30
0
41
1
10
13.2134978791335
20
-4.80023594645815
30
0
41
1
10
13.3012215646837
20
-4.80501889052991
30
0
41
1
10
13.4765945919453
20
-4.81611634088614
30
0
41
1
10
13.7390448337295
20
-4.83502546498013
30
0
41
1
10
13.9997227533063
20
-4.86048952791694
30
0
41
1
10
14.518859303508
20
-4.91952562888508
30
0
41
1
10
14.8619903810626
20
-4.96970144773775
30
0
41
1
10
15.5430960557862
20
-5.0881787018582
30
0
41
1
10
15.881069679266
20
-5.1564792796471
30
0
41
1
10
16.5526607228942
20
-5.30746092875702
30
0
41
1
10
16.8862794073112
20
-5.39013356090967
30
0
41
1
10
17.5500006818279
20
-5.56600491846689
30
0
41
1
10
17.8801069165917
20
-5.65918852216743
30
0
41
1
10
18.2088580878398
20
-5.75583371574484
30
0
0
SPLINE
5
D3
100
AcDbEntity
8
1
62
256
6
ByLayer
370
18
48
1
60
0
100
AcDbSpline
70
4
71
3
72
106
73
102
40
0
40
0
40
0
40
0
40
0.0624999999999911
40
0.0624999999999911
40
0.0937499999999876
40
0.0937499999999876
40
0.124999999999984
40
0.124999999999984
40
0.15624999999998
40
0.15624999999998
40
0.16406249999998
40
0.16406249999998
40
0.171874999999979
40
0.187499999999979
40
0.187499999999979
40
0.218749999999978
40
0.218749999999978
40
0.249999999999978
40
0.249999999999978
40
0.265624999999978
40
0.265624999999978
40
0.273437499999977
40
0.273437499999977
40
0.281249999999977
40
0.281249999999977
40
0.312499999999975
40
0.312499999999975
40
0.343749999999973
40
0.343749999999973
40
0.359374999999973
40
0.359374999999973
40
0.367187499999972
40
0.367187499999972
40
0.374999999999972
40
0.374999999999972
40
0.406249999999972
40
0.406249999999972
40
0.421874999999972
40
0.421874999999972
40
0.429687499999973
40
0.429687499999973
40
0.433593749999973
40
0.433593749999973
40
0.437499999999973
40
0.437499999999973
40
0.468749999999973
40
0.468749999999973
40
0.484374999999973
40
0.484374999999973
40
0.492187499999973
40
0.496093749999973
40
0.496093749999973
40
0.499999999999973
40
0.499999999999973
40
0.531249999999973
40
0.531249999999973
40
0.546874999999972
40
0.546874999999972
40
0.554687499999972
40
0.554687499999972
40
0.558593749999972
40
0.558593749999972
40
0.562499999999973
40
0.562499999999973
40
0.593749999999974
40
0.593749999999974
40
0.609374999999975
40
0.609374999999975
40
0.617187499999975
40
0.617187499999975
40
0.624999999999975
40
0.624999999999975
40
0.656249999999977
40
0.656249999999977
40
0.687499999999979
40
0.687499999999979
40
0.703124999999979
40
0.703124999999979
40
0.71093749999998
40
0.71093749999998
40
0.71874999999998
40
0.71874999999998
40
0.749999999999981
40
0.749999999999981
40
0.781249999999982
40
0.781249999999982
40
0.812499999999983
40
0.812499999999983
40
0.843749999999984
40
0.843749999999984
40
0.874999999999984
40
0.874999999999984
40
0.890624999999986
40
0.890624999999986
40
0.906249999999987
40
0.906249999999987
40
0.937499999999991
40
0.937499999999991
40
0.968749999999996
40
0.968749999999996
40
1
40
1
40
1
40
1
41
1
10
10
20
-5.00842853617155
30
0
41
1
10
9.58307605539619
20
-5.15294670005358
30
0
41
1
10
9.17292521589272
20
-5.31283443716882
30
0
41
1
10
8.56789219586375
20
-5.57598636180362
30
0
41
1
10
8.36791532470414
20
-5.66759542959943
30
0
41
1
10
7.97140153167817
20
-5.85872558475643
30
0
41
1
10
7.77486422942911
20
-5.95824571980339
30
0
41
1
10
7.38530055214363
20
-6.16540948762358
30
0
41
1
10
7.19227358558484
20
-6.2730516314827
30
0
41
1
10
6.95325813634238
20
-6.41288855889337
30
0
41
1
10
6.90555955004149
20
-6.44112655185168
30
0
41
1
10
6.81068677800022
20
-6.49795945907735
30
0
41
1
10
6.66905516741838
20
-6.58380750381818
30
0
41
1
10
6.52946765521702
20
-6.67144138396208
30
0
41
1
10
6.25306038246327
20
-6.84906988942072
30
0
41
1
10
6.07247345426569
20
-6.97063334963161
30
0
41
1
10
5.71901429150969
20
-7.22000879310943
30
0
41
1
10
5.54613912203033
20
-7.34781932836566
30
0
41
1
10
5.29303200731124
20
-7.54427922892449
30
0
41
1
10
5.20969919783334
20
-7.6105576012707
30
0
41
1
10
5.08632954528505
20
-7.71118206921312
30
0
41
1
10
5.04547810084719
20
-7.74492480478315
30
0
41
1
10
4.96433373005598
20
-7.812817264091
30
0
41
1
10
4.9240525636788
20
-7.84695849344317
30
0
41
1
10
4.72504013548669
20
-8.01785963614867
30
0
41
1
10
4.57269860333903
20
-8.1558424171603
30
0
41
1
10
4.28271109631788
20
-8.43383820508208
30
0
41
1
10
4.14505390070829
20
-8.57385166124061
30
0
41
1
10
3.95082893275361
20
-8.78504156366685
30
0
41
1
10
3.88813719921379
20
-8.85563328169889
30
0
41
1
10
3.79740908298743
20
-8.96176998591986
30
0
41
1
10
3.76767048995867
20
-8.99725049221823
30
0
41
1
10
3.70971400857238
20
-9.06783304765105
30
0
41
1
10
3.68146762069529
20
-9.10296595208555
30
0
41
1
10
3.54394670366855
20
-9.27779658791223
30
0
41
1
10
3.44574795480079
20
-9.41500410340183
30
0
41
1
10
3.31780329343397
20
-9.61590297610897
30
0
41
1
10
3.27839158839296
20
-9.6820483805412
30
0
41
1
10
3.22445880899659
20
-9.77989183918592
30
0
41
1
10
3.20734637928086
20
-9.81227698283226
30
0
41
1
10
3.18302744551605
20
-9.86049027725747
30
0
41
1
10
3.17515623779627
20
-9.87648167922035
30
0
41
1
10
3.15994646787073
20
-9.90817928669273
30
0
41
1
10
3.15259869665772
20
-9.92390361789194
30
0
41
1
10
3.08877972270892
20
-10.0642990661949
30
0
41
1
10
3.04841071812734
20
-10.1811295387797
30
0
41
1
10
3.01289519492875
20
-10.3439057326641
30
0
41
1
10
3.00524362561373
20
-10.3960817129416
30
0
41
1
10
3.00024531995956
20
-10.4711103525261
30
0
41
1
10
2.99936743819774
20
-10.5078153140569
30
0
41
1
10
3.00097330740624
20
-10.5432802200696
30
0
41
1
10
3.00260268706316
20
-10.5666446381098
30
0
41
1
10
3.00369866527222
20
-10.5781970496895
30
0
41
1
10
3.01602627338266
20
-10.680326622765
30
0
41
1
10
3.04445055560353
20
-10.7590256684484
30
0
41
1
10
3.11138997468584
20
-10.8604681669475
30
0
41
1
10
3.13776999828224
20
-10.8915055214868
30
0
41
1
10
3.18332929548205
20
-10.9340166272829
30
0
41
1
10
3.19951470246599
20
-10.9475124250236
30
0
41
1
10
3.2252838381896
20
-10.9667558164902
30
0
41
1
10
3.23411986331564
20
-10.9730009473121
30
0
41
1
10
3.25220688445162
20
-10.9851093056341
30
0
41
1
10
3.26146697816728
20
-10.9909795148636
30
0
41
1
10
3.34671849689656
20
-11.0421941314827
30
0
41
1
10
3.43601381423807
20
-11.0762788739759
30
0
41
1
10
3.58774091087153
20
-11.112839233849
30
0
41
1
10
3.64129383016066
20
-11.1225868203572
30
0
41
1
10
3.72587093834301
20
-11.1337918296899
30
0
41
1
10
3.75482044668718
20
-11.1369603405348
30
0
41
1
10
3.81377484692055
20
-11.1421677049876
30
0
41
1
10
3.84379319594637
20
-11.1442108221071
30
0
41
1
10
3.99646270178477
20
-11.1517838814862
30
0
41
1
10
4.12680780261209
20
-11.1494357105464
30
0
41
1
10
4.40136955459434
20
-11.1311252263587
30
0
41
1
10
4.54560110102747
20
-11.1151461548164
30
0
41
1
10
4.77100306266215
20
-11.0826352518196
30
0
41
1
10
4.84765035630917
20
-11.0703688101177
30
0
41
1
10
4.96474950676208
20
-11.0499937695949
30
0
41
1
10
5.00415112191612
20
-11.0428700383526
30
0
41
1
10
5.08358458257771
20
-11.0279998086711
30
0
41
1
10
5.12352323253754
20
-11.0202709890034
30
0
41
1
10
5.32427468949504
20
-10.9802390302473
30
0
41
1
10
5.48825110818768
20
-10.9437951954987
30
0
41
1
10
5.82183744042973
20
-10.8637301188531
30
0
41
1
10
5.99145079073648
20
-10.8201024994397
30
0
41
1
10
6.33541618578133
20
-10.7268517881863
30
0
41
1
10
6.50976984864073
20
-10.6772250902247
30
0
41
1
10
6.86245898001368
20
-10.5728452719175
30
0
41
1
10
7.04079498610355
20
-10.5180899352144
30
0
41
1
10
7.40079991252725
20
-10.4040917737871
30
0
41
1
10
7.58246866335878
20
-10.3448474213278
30
0
41
1
10
7.85706263610126
20
-10.2529622239244
30
0
41
1
10
7.94898329596376
20
-10.2218156126114
30
0
41
1
10
8.13320804593113
20
-10.1586474735375
30
0
41
1
10
8.22552058474338
20
-10.126623488587
30
0
41
1
10
8.50300195888576
20
-10.0292900050339
30
0
41
1
10
8.68871080559546
20
-9.96272131973038
30
0
41
1
10
9.06135281423883
20
-9.82646388095478
30
0
41
1
10
9.24828543337577
20
-9.75677370920963
30
0
41
1
10
9.6232822884312
20
-9.61445168414912
30
0
41
1
10
9.81134614349617
20
-9.54181845748499
30
0
41
1
10
10
20
-9.46779552663719
30
0
0
SPLINE
5
D4
100
AcDbEntity
8
1
62
256
6
ByLayer
370
18
48
1
60
0
100
AcDbSpline
70
4
71
3
72
22
73
18
40
0
40
0
40
0
40
0
40
0.0988962222289462
40
0.0988962222289462
40
0.249080185190787
40
0.249080185190787
40
0.399264148152629
40
0.399264148152629
40
0.474356129633553
40
0.474356129633553
40
0.549448111114477
40
0.549448111114477
40
0.699632074076318
40
0.699632074076318
40
0.849816037038159
40
0.849816037038159
40
1
40
1
40
1
40
1
41
1
10
6.34044386081789
20
10.7246769265611
30
0
41
1
10
6.45473172850404
20
10.692657881586
30
0
41
1
10
6.56999142081267
20
10.6594022649592
30
0
41
1
10
6.86245898001363
20
10.5728452719174
30
0
41
1
10
7.04079498610346
20
10.5180899352143
30
0
41
1
10
7.40079991252719
20
10.4040917737871
30
0
41
1
10
7.58246866335875
20
10.3448474213278
30
0
41
1
10
7.85706263610129
20
10.2529622239244
30
0
41
1
10
7.94898329596379
20
10.2218156126114
30
0
41
1
10
8.1332080459311
20
10.1586474735375
30
0
41
1
10
8.22552058474332
20
10.126623488587
30
0
41
1
10
8.50300195888576
20
10.0292900050339
30
0
41
1
10
8.68871080559552
20
9.96272131973038
30
0
41
1
10
9.06135281423883
20
9.82646388095478
30
0
41
1
10
9.24828543337577
20
9.75677370920963
30
0
41
1
10
9.62328228843114
20
9.61445168414912
30
0
41
1
10
9.81134614349611
20
9.54181845748505
30
0
41
1
10
10
20
9.46779552663725
30
0
0
SPLINE
5
D5
100
AcDbEntity
8
SK1
62
256
6
ByLayer
370
18
48
1
60
0
100
AcDbSpline
70
4
71
3
72
34
73
30
40
0
40
0
40
0
40
0
40
0.125000000000001
40
0.125000000000001
40
0.250000000000002
40
0.250000000000002
40
0.375000000000003
40
0.375000000000003
40
0.437500000000004
40
0.437500000000004
40
0.500000000000005
40
0.500000000000005
40
0.625000000000005
40
0.625000000000005
40
0.656250000000005
40
0.656250000000005
40
0.687500000000005
40
0.687500000000005
40
0.750000000000005
40
0.750000000000005
40
0.812500000000005
40
0.812500000000005
40
0.843750000000004
40
0.843750000000004
40
0.875000000000004
40
0.875000000000004
40
0.937500000000002
40
0.937500000000002
40
1
40
1
40
1
40
1
41
1
10
-52.5003287739481
20
-3.62059097355461
30
0
41
1
10
-52.4791023107682
20
-3.69580949914169
30
0
41
1
10
-52.456173666836
20
-3.7701328086529
30
0
41
1
10
-52.4062202513366
20
-3.91675156331095
30
0
41
1
10
-52.3792000011183
20
-3.98904864238443
30
0
41
1
10
-52.3201140822394
20
-4.13128549106548
30
0
41
1
10
-52.2880578558644
20
-4.20122868864783
30
0
41
1
10
-52.2351342019209
20
-4.30400502578081
30
0
41
1
10
-52.2166821098451
20
-4.33790583931534
30
0
41
1
10
-52.1779019271959
20
-4.40490146665846
30
0
41
1
10
-52.1575385793023
20
-4.43805147836142
30
0
41
1
10
-52.093380094742
20
-4.53574061166557
30
0
41
1
10
-52.0468993353633
20
-4.59806703723407
30
0
41
1
10
-51.9825062567773
20
-4.67139689881651
30
0
41
1
10
-51.9693089720826
20
-4.68583123022111
30
0
41
1
10
-51.9422155209833
20
-4.71419608571787
30
0
41
1
10
-51.9282893124733
20
-4.72815494045494
30
0
41
1
10
-51.8855899983215
20
-4.7689776324583
30
0
41
1
10
-51.8559681934236
20
-4.79473829352929
30
0
41
1
10
-51.7940523105194
20
-4.84293492664423
30
0
41
1
10
-51.7617609635258
20
-4.86537421079322
30
0
41
1
10
-51.710934585781
20
-4.89608972183805
30
0
41
1
10
-51.693592788252
20
-4.9058359097269
30
0
41
1
10
-51.6580214478988
20
-4.92423937407065
30
0
41
1
10
-51.6397301965266
20
-4.93292309713041
30
0
41
1
10
-51.583780125377
20
-4.9569645106269
30
0
41
1
10
-51.5455987975117
20
-4.97010157811332
30
0
41
1
10
-51.4673083175319
20
-4.99008231274206
30
0
41
1
10
-51.4272005227822
20
-4.99693051090844
30
0
41
1
10
-51.3860020460815
20
-5.00022676868039
30
0
0
SPLINE
5
D6
100
AcDbEntity
8
SK1
62
256
6
ByLayer
370
18
48
1
60
0
100
AcDbSpline
70
4
71
3
72
34
73
30
40
0
40
0
40
0
40
0
40
0.0625000000000001
40
0.0625000000000001
40
0.125
40
0.125
40
0.1875
40
0.1875
40
0.25
40
0.25
40
0.28125
40
0.28125
40
0.312499999999999
40
0.312499999999999
40
0.374999999999998
40
0.374999999999998
40
0.499999999999995
40
0.499999999999995
40
0.531249999999995
40
0.531249999999995
40
0.562499999999995
40
0.562499999999995
40
0.624999999999996
40
0.624999999999996
40
0.749999999999997
40
0.749999999999997
40
0.874999999999999
40
0.874999999999999
40
1
40
1
40
1
40
1
41
1
10
-51.3860020460815
20
5.00022676868039
30
0
41
1
10
-51.4271597094618
20
4.99693377635015
30
0
41
1
10
-51.4672462826171
20
4.9900941818546
30
0
41
1
10
-51.5455242136708
20
4.97012456894885
30
0
41
1
10
-51.5837142752675
20
4.95699014998107
30
0
41
1
10
-51.658355568598
20
4.92492253812571
30
0
41
1
10
-51.6938849422845
20
4.90639169663621
30
0
41
1
10
-51.7618166387264
20
4.86534206803361
30
0
41
1
10
-51.7942559781117
20
4.84279931421437
30
0
41
1
10
-51.8409760500773
20
4.80639681369991
30
0
41
1
10
-51.8562248159031
20
4.79382938651
30
0
41
1
10
-51.8861176712827
20
4.76788296468004
30
0
41
1
10
-51.9007110618413
20
4.75454548912128
30
0
41
1
10
-51.9432559764382
20
4.71379512925466
30
0
41
1
10
-51.9701014783725
20
4.68554212638855
30
0
41
1
10
-52.0468805903312
20
4.59805033156974
30
0
41
1
10
-52.0930959781036
20
4.5361050376323
30
0
41
1
10
-52.146279276313
20
4.45521167958731
30
0
41
1
10
-52.1566830990007
20
4.43885754119347
30
0
41
1
10
-52.1770537162702
20
4.4058167491863
30
0
41
1
10
-52.1870311208955
20
4.38911114781021
30
0
41
1
10
-52.2162315231511
20
4.33872068618709
30
0
41
1
10
-52.2347469485042
20
4.30473232112985
30
0
41
1
10
-52.2878314108395
20
4.20171722667834
30
0
41
1
10
-52.3199565384223
20
4.13164670884206
30
0
41
1
10
-52.3791390929746
20
3.98921323503123
30
0
41
1
10
-52.4061866509714
20
3.91684682729945
30
0
41
1
10
-52.4561716481468
20
3.77014208810513
30
0
41
1
10
-52.4791043925606
20
3.69580212206003
30
0
41
1
10
-52.5003287739482
20
3.62059097355464
30
0
0
SPLINE
5
D7
100
AcDbEntity
8
SK1
62
256
6
ByLayer
370
18
48
1
60
0
100
AcDbSpline
70
4
71
3
72
32
73
28
40
0
40
0
40
0
40
0
40
0.124999999999982
40
0.124999999999982
40
0.249999999999963
40
0.249999999999963
40
0.374999999999945
40
0.374999999999945
40
0.406249999999941
40
0.406249999999941
40
0.437499999999938
40
0.499999999999932
40
0.499999999999932
40
0.624999999999931
40
0.624999999999931
40
0.656249999999931
40
0.656249999999931
40
0.68749999999993
40
0.68749999999993
40
0.749999999999941
40
0.749999999999941
40
0.874999999999977
40
0.874999999999977
40
0.906249999999979
40
0.906249999999979
40
0.937499999999981
40
1
40
1
40
1
40
1
41
1
10
-14.0157764695459
20
6.59242894057729
30
0
41
1
10
-14.0458287908144
20
6.6375753796253
30
0
41
1
10
-14.0777095790597
20
6.68135165141678
30
0
41
1
10
-14.1456160664485
20
6.76590887596987
30
0
41
1
10
-14.1816386907667
20
6.80669170869109
30
0
41
1
10
-14.2584995514322
20
6.88489663469755
30
0
41
1
10
-14.2993317458756
20
6.92232243783545
30
0
41
1
10
-14.35399779722
20
6.96665617585003
30
0
41
1
10
-14.3651284778382
20
6.97541075031074
30
0
41
1
10
-14.3876400333972
20
6.9925614515505
30
0
41
1
10
-14.4218166346372
20
7.01777898878851
30
0
41
1
10
-14.4572545898122
20
7.04143848131534
30
0
41
1
10
-14.529923003083
20
7.08656817107874
30
0
41
1
10
-14.5807455844469
20
7.11375097789289
30
0
41
1
10
-14.6477689594914
20
7.14354340177493
30
0
41
1
10
-14.6613494138678
20
7.1492913738704
30
0
41
1
10
-14.6888796972728
20
7.1603468035685
30
0
41
1
10
-14.7028224503024
20
7.16564964334611
30
0
41
1
10
-14.7448319317882
20
7.18073146134719
30
0
41
1
10
-14.7732044950192
20
7.1897362156873
30
0
41
1
10
-14.8594560991353
20
7.21351895535656
30
0
41
1
10
-14.9184624466539
20
7.22508541231923
30
0
41
1
10
-14.9943023139084
20
7.23365556703433
30
0
41
1
10
-15.009604540326
20
7.23507501753883
30
0
41
1
10
-15.0401948935638
20
7.23728819114979
30
0
41
1
10
-15.0861089470591
20
7.23967813447453
30
0
41
1
10
-15.1321084232236
20
7.23928527151031
30
0
41
1
10
-15.1628130403699
20
7.23777548279986
30
0
0
SPLINE
5
D8
100
AcDbEntity
8
SK1
62
256
6
ByLayer
370
18
48
1
60
0
100
AcDbSpline
70
4
71
3
72
24
73
20
40
0
40
0
40
0
40
0
40
0.124999999999998
40
0.124999999999998
40
0.249999999999995
40
0.249999999999995
40
0.374999999999993
40
0.374999999999993
40
0.49999999999999
40
0.49999999999999
40
0.624999999999988
40
0.624999999999988
40
0.749999999999985
40
0.749999999999985
40
0.812499999999989
40
0.812499999999989
40
0.874999999999992
40
0.874999999999992
40
1
40
1
40
1
40
1
41
1
10
-15.1628130403699
20
-7.23777548279986
30
0
41
1
10
-15.1013368482927
20
-7.2407983526281
30
0
41
1
10
-15.0406973758297
20
-7.23880609117487
30
0
41
1
10
-14.920978556398
20
-7.22545942224767
30
0
41
1
10
-14.8618998887329
20
-7.21410077871741
30
0
41
1
10
-14.7452745335612
20
-7.18212437688828
30
0
41
1
10
-14.6895699451789
20
-7.16201960319464
30
0
41
1
10
-14.5827589175342
20
-7.11474711952985
30
0
41
1
10
-14.5316211412475
20
-7.08755690757022
30
0
41
1
10
-14.4334554488588
20
-7.02672282100497
30
0
41
1
10
-14.38751619038
20
-6.99376703919228
30
0
41
1
10
-14.3007925764322
20
-6.92357765523022
30
0
41
1
10
-14.2600161652162
20
-6.88633798514746
30
0
41
1
10
-14.2021759714483
20
-6.82763631844753
30
0
41
1
10
-14.1834523029509
20
-6.80759363972547
30
0
41
1
10
-14.1470479748901
20
-6.76660288333122
30
0
41
1
10
-14.1293429656042
20
-6.74562348347595
30
0
41
1
10
-14.0779142754528
20
-6.68164973874727
30
0
41
1
10
-14.0458764161971
20
-6.63764692539442
30
0
41
1
10
-14.0157764695459
20
-6.59242894057729
30
0
0
SPLINE
5
D9
100
AcDbEntity
8
1
62
256
6
ByLayer
370
13
48
1
60
0
100
AcDbSpline
70
4
71
3
72
77
73
73
40
0
40
0
40
0
40
0
40
0.0312499999999997
40
0.0312499999999997
40
0.0624999999999993
40
0.0624999999999993
40
0.093749999999999
40
0.093749999999999
40
0.124999999999999
40
0.124999999999999
40
0.156249999999998
40
0.156249999999998
40
0.187499999999998
40
0.187499999999998
40
0.195312499999998
40
0.195312499999998
40
0.203124999999998
40
0.203124999999998
40
0.218749999999998
40
0.218749999999998
40
0.249999999999998
40
0.249999999999998
40
0.281249999999998
40
0.281249999999998
40
0.312499999999998
40
0.312499999999998
40
0.343749999999998
40
0.343749999999998
40
0.374999999999998
40
0.374999999999998
40
0.406249999999998
40
0.406249999999998
40
0.437499999999998
40
0.437499999999998
40
0.468749999999998
40
0.468749999999998
40
0.499999999999998
40
0.499999999999998
40
0.531249999999998
40
0.531249999999998
40
0.562499999999998
40
0.562499999999998
40
0.593749999999999
40
0.593749999999999
40
0.601562499999999
40
0.601562499999999
40
0.609374999999999
40
0.624999999999999
40
0.624999999999999
40
0.656249999999999
40
0.656249999999999
40
0.687499999999999
40
0.687499999999999
40
0.718749999999999
40
0.718749999999999
40
0.749999999999999
40
0.749999999999999
40
0.781249999999999
40
0.781249999999999
40
0.812499999999999
40
0.812499999999999
40
0.843749999999999
40
0.843749999999999
40
0.874999999999999
40
0.874999999999999
40
0.90625
40
0.90625
40
0.9375
40
0.9375
40
0.96875
40
0.96875
40
1
40
1
40
1
40
1
41
1
10
126.4
20
-7.23291879782582
30
0
41
1
10
126.467720114854
20
-7.52916314869447
30
0
41
1
10
126.535440229709
20
-7.80512531438976
30
0
41
1
10
126.670880459417
20
-8.31040685660699
30
0
41
1
10
126.738600574272
20
-8.53971687980703
30
0
41
1
10
126.87404080398
20
-8.94806106302704
30
0
41
1
10
126.941760918835
20
-9.12709656469005
30
0
41
1
10
127.077201148543
20
-9.43386358363239
30
0
41
1
10
127.144921263398
20
-9.56160570353634
30
0
41
1
10
127.280361493107
20
-9.7671760749198
30
0
41
1
10
127.348081607961
20
-9.84502113304293
30
0
41
1
10
127.48352183767
20
-9.95418164929157
30
0
41
1
10
127.551241952524
20
-9.98551650213088
30
0
41
1
10
127.635892096092
20
-9.99861738082416
30
0
41
1
10
127.652822124805
20
-9.99993685856907
30
0
41
1
10
127.686682182232
20
-10.000058715316
30
0
41
1
10
127.703612210946
20
-9.99886307466537
30
0
41
1
10
127.754402297087
20
-9.99138022518923
30
0
41
1
10
127.788262354514
20
-9.98119491076599
30
0
41
1
10
127.889842526796
20
-9.93409771131044
30
0
41
1
10
127.95756264165
20
-9.88059817603477
30
0
41
1
10
128.093002871358
20
-9.72523965748047
30
0
41
1
10
128.160722986213
20
-9.62336209740204
30
0
41
1
10
128.296163215921
20
-9.36876351646828
30
0
41
1
10
128.363883330776
20
-9.2160282729017
30
0
41
1
10
128.499323560484
20
-8.85944789061301
30
0
41
1
10
128.567043675339
20
-8.65559636325861
30
0
41
1
10
128.702483905047
20
-8.19905674271689
30
0
41
1
10
128.770204019902
20
-7.946372481602
30
0
41
1
10
128.905644249611
20
-7.3970265119558
30
0
41
1
10
128.973364364465
20
-7.10037920502745
30
0
41
1
10
129.108804594174
20
-6.47027758838456
30
0
41
1
10
129.176524709028
20
-6.13684619918814
30
0
41
1
10
129.311964938737
20
-5.44208812159332
30
0
41
1
10
129.379685053591
20
-5.08078889229051
30
0
41
1
10
129.5151252833
20
-4.34017552163104
30
0
41
1
10
129.582845398154
20
-3.96088861807013
30
0
41
1
10
129.718285627863
20
-3.19430990396043
30
0
41
1
10
129.786005742717
20
-2.8070409116313
30
0
41
1
10
129.921445972426
20
-2.03387155682131
30
0
41
1
10
129.98916608728
20
-1.64798694336474
30
0
41
1
10
130.124606316988
20
-0.885736314787749
30
0
41
1
10
130.192326431843
20
-0.509378206214734
30
0
41
1
10
130.276976575411
20
-0.0489860999770144
30
0
41
1
10
130.293906604124
20
0.0423212275764229
30
0
41
1
10
130.327766661552
20
0.226429735295028
30
0
41
1
10
130.378556747692
20
0.504090173604538
30
0
41
1
10
130.429346833833
20
0.785839178328786
30
0
41
1
10
130.530927006115
20
1.35356219262613
30
0
41
1
10
130.598647120969
20
1.73772432275402
30
0
41
1
10
130.734087350678
20
2.50966645165039
30
0
41
1
10
130.801807465532
20
2.89743270801557
30
0
41
1
10
130.937247695241
20
3.66749058390931
30
0
41
1
10
131.004967810095
20
4.04976101762307
30
0
41
1
10
131.140408039804
20
4.79892346920101
30
0
41
1
10
131.208128154658
20
5.1657890303162
30
0
41
1
10
131.343568384367
20
5.87415167597311
30
0
41
1
10
131.411288499221
20
6.2156209048436
30
0
41
1
10
131.54672872893
20
6.86394568955709
30
0
41
1
10
131.614448843784
20
7.17077672894831
30
0
41
1
10
131.749889073493
20
7.74212908635982
30
0
41
1
10
131.817609188347
20
8.00663353443969
30
0
41
1
10
131.953049418056
20
8.48782228265071
30
0
41
1
10
132.02076953291
20
8.70449998193629
30
0
41
1
10
132.156209762619
20
9.08707061347016
30
0
41
1
10
132.223929877473
20
9.25296747671115
30
0
41
1
10
132.359370107182
20
9.53359637673279
30
0
41
1
10
132.427090222036
20
9.6483409374456
30
0
41
1
10
132.562530451745
20
9.82861359260556
30
0
41
1
10
132.630250566599
20
9.89415949883278
30
0
41
1
10
132.765690796308
20
9.97984294803373
30
0
41
1
10
132.833410911162
20
10
30
0
41
1
10
132.901131026016
20
10
30
0
0
SPLINE
5
DA
100
AcDbEntity
8
1
62
256
6
ByLayer
370
13
48
1
60
0
100
AcDbSpline
70
4
71
3
72
42
73
38
40
0
40
0
40
0
40
0
40
0.0625000000000004
40
0.0625000000000004
40
0.125000000000001
40
0.125000000000001
40
0.187500000000001
40
0.187500000000001
40
0.250000000000002
40
0.250000000000002
40
0.312500000000002
40
0.312500000000002
40
0.375000000000003
40
0.375000000000003
40
0.437500000000003
40
0.437500000000003
40
0.500000000000004
40
0.500000000000004
40
0.562500000000004
40
0.562500000000004
40
0.625000000000004
40
0.625000000000004
40
0.640625000000004
40
0.640625000000004
40
0.656250000000004
40
0.656250000000004
40
0.687500000000004
40
0.687500000000004
40
0.750000000000003
40
0.750000000000003
40
0.812500000000003
40
0.812500000000003
40
0.875000000000002
40
0.875000000000002
40
0.937500000000001
40
0.937500000000001
40
1
40
1
40
1
40
1
41
1
10
132.833647148812
20
10
30
0
41
1
10
132.917535701072
20
10
30
0
41
1
10
133.001424253334
20
9.96903146161691
30
0
41
1
10
133.169201357856
20
9.83579534837736
30
0
41
1
10
133.253089910116
20
9.73347139920367
30
0
41
1
10
133.420867014638
20
9.45139569550685
30
0
41
1
10
133.504755566899
20
9.27159829534057
30
0
41
1
10
133.672532671421
20
8.83337544787898
30
0
41
1
10
133.756421223682
20
8.57493080360464
30
0
41
1
10
133.924198328204
20
7.9841738655625
30
0
41
1
10
134.008086880465
20
7.65187939691185
30
0
41
1
10
134.175863984987
20
6.92419665366796
30
0
41
1
10
134.259752537248
20
6.52886247161922
30
0
41
1
10
134.42752964177
20
5.6907929716368
30
0
41
1
10
134.511418194031
20
5.24813473393897
30
0
41
1
10
134.679195298553
20
4.33399901419256
30
0
41
1
10
134.763083850814
20
3.86260115881112
30
0
41
1
10
134.930860955336
20
2.91002477790076
30
0
41
1
10
135.014749507597
20
2.42890960029163
30
0
41
1
10
135.182526612119
20
1.47418177536949
30
0
41
1
10
135.26641516438
20
1.0006057798806
30
0
41
1
10
135.371275854706
20
0.422072958652848
30
0
41
1
10
135.392247992771
20
0.307029061482297
30
0
41
1
10
135.434192268902
20
0.0784464329894661
30
0
41
1
10
135.455164406967
20
-0.0346100629477917
30
0
41
1
10
135.518080821163
20
-0.376899899199117
30
0
41
1
10
135.560025097293
20
-0.608155182922218
30
0
41
1
10
135.685857925684
20
-1.308880062707
30
0
41
1
10
135.769746477945
20
-1.78541871991021
30
0
41
1
10
135.937523582467
20
-2.74255869804276
30
0
41
1
10
136.021412134728
20
-3.22311719023705
30
0
41
1
10
136.18918923925
20
-4.1705231352536
30
0
41
1
10
136.273077791511
20
-4.63730245228734
30
0
41
1
10
136.440854896033
20
-5.53803145213757
30
0
41
1
10
136.524743448294
20
-5.97190026892449
30
0
41
1
10
136.692520552816
20
-6.78863831418192
30
0
41
1
10
136.776409105077
20
-7.17143384786044
30
0
41
1
10
136.860297657338
20
-7.52131874126007
30
0
0
SPLINE
5
DB
100
AcDbEntity
8
1
62
256
6
ByLayer
370
13
48
1
60
0
100
AcDbSpline
70
4
71
3
72
76
73
72
40
0
40
0
40
0
40
0
40
0.03125
40
0.03125
40
0.0624999999999999
40
0.0624999999999999
40
0.0937499999999999
40
0.0937499999999999
40
0.125
40
0.125
40
0.1328125
40
0.1328125
40
0.140625
40
0.15625
40
0.15625
40
0.1875
40
0.1875
40
0.21875
40
0.21875
40
0.25
40
0.25
40
0.28125
40
0.28125
40
0.3125
40
0.3125
40
0.34375
40
0.34375
40
0.375
40
0.375
40
0.40625
40
0.40625
40
0.4375
40
0.4375
40
0.46875
40
0.46875
40
0.5
40
0.5
40
0.53125
40
0.53125
40
0.5625
40
0.5625
40
0.5703125
40
0.5703125
40
0.578125
40
0.59375
40
0.59375
40
0.625
40
0.625
40
0.65625
40
0.65625
40
0.6875
40
0.6875
40
0.71875
40
0.71875
40
0.75
40
0.75
40
0.78125
40
0.78125
40
0.8125
40
0.8125
40
0.84375
40
0.84375
40
0.875
40
0.875
40
0.90625
40
0.90625
40
0.9375
40
0.9375
40
0.96875
40
0.96875
40
1
40
1
40
1
40
1
41
1
10
126.4
20
-8.99658019784252
30
0
41
1
10
126.462564949289
20
-9.16487543396025
30
0
41
1
10
126.525129898578
20
-9.31140558515841
30
0
41
1
10
126.650259797155
20
-9.56090601130239
30
0
41
1
10
126.712824746444
20
-9.66388521436048
30
0
41
1
10
126.837954645022
20
-9.82792806972247
30
0
41
1
10
126.90051959431
20
-9.88900379141921
30
0
41
1
10
127.025649492888
20
-9.9722274373249
30
0
41
1
10
127.088214442177
20
-9.99438850309718
30
0
41
1
10
127.166420628788
20
-10.0002256337187
30
0
41
1
10
127.18206186611
20
-10.000309382726
30
0
41
1
10
127.213344340754
20
-9.99831741246211
30
0
41
1
10
127.260268052721
20
-9.99206376567699
30
0
41
1
10
127.307191764688
20
-9.97571270061198
30
0
41
1
10
127.401039188621
20
-9.92880791649918
30
0
41
1
10
127.46360413791
20
-9.87856725456541
30
0
41
1
10
127.588734036487
20
-9.73688434877755
30
0
41
1
10
127.651298985776
20
-9.64542954970432
30
0
41
1
10
127.776428884354
20
-9.41927104907319
30
0
41
1
10
127.838993833642
20
-9.28455736555
30
0
41
1
10
127.96412373222
20
-8.97141882382502
30
0
41
1
10
128.026688681509
20
-8.79298859542055
30
0
41
1
10
128.151818580086
20
-8.39377774503208
30
0
41
1
10
128.214383529375
20
-8.17299790038157
30
0
41
1
10
128.339513427953
20
-7.6923457661978
30
0
41
1
10
128.402078377242
20
-7.43248093640258
30
0
41
1
10
128.527208275819
20
-6.87869130396038
30
0
41
1
10
128.589773225108
20
-6.58477990570947
30
0
41
1
10
128.714903123685
20
-5.9693870300905
30
0
41
1
10
128.777468072974
20
-5.64792298719365
30
0
41
1
10
128.902597971552
20
-4.9849011223794
30
0
41
1
10
128.965162920841
20
-4.64336213170819
30
0
41
1
10
129.090292819418
20
-3.94809844060762
30
0
41
1
10
129.152857768707
20
-3.5943912739713
30
0
41
1
10
129.277987667285
20
-2.8825753555582
30
0
41
1
10
129.340552616573
20
-2.52448070135858
30
0
41
1
10
129.465682515151
20
-1.81106793413437
30
0
41
1
10
129.52824746444
20
-1.45575927451389
30
0
41
1
10
129.653377363017
20
-0.754133602842387
30
0
41
1
10
129.715942312306
20
-0.407821183037072
30
0
41
1
10
129.794148498917
20
0.0162986751357153
30
0
41
1
10
129.809789736239
20
0.100811432225328
30
0
41
1
10
129.841072210884
20
0.271246774104554
30
0
41
1
10
129.88799592285
20
0.528156761404517
30
0
41
1
10
129.934919634817
20
0.78851452791622
30
0
41
1
10
130.02876705875
20
1.31285776825248
30
0
41
1
10
130.091332008039
20
1.66729130645106
30
0
41
1
10
130.216461906617
20
2.3798528341855
30
0
41
1
10
130.279026855905
20
2.73797203348991
30
0
41
1
10
130.404156754483
20
3.45084837946439
30
0
41
1
10
130.466721703772
20
3.80559200687924
30
0
41
1
10
130.591851602349
20
4.5039963484929
30
0
41
1
10
130.654416551638
20
4.84763988550159
30
0
41
1
10
130.779546450216
20
5.51592446895617
30
0
41
1
10
130.842111399504
20
5.84054670859805
30
0
41
1
10
130.967241298082
20
6.46321890889644
30
0
41
1
10
131.029806247371
20
6.76125108471518
30
0
41
1
10
131.154936145949
20
7.32408272273381
30
0
41
1
10
131.217501095237
20
7.58886810357896
30
0
41
1
10
131.342630993815
20
8.07994321143707
30
0
41
1
10
131.405195943104
20
8.30622460544791
30
0
41
1
10
131.530325841681
20
8.71676957386902
30
0
41
1
10
131.59289079097
20
8.90103147444353
30
0
41
1
10
131.718020689548
20
9.22590848980735
30
0
41
1
10
131.780585638836
20
9.36652821796312
30
0
41
1
10
131.905715537414
20
9.60433840934735
30
0
41
1
10
131.968280486703
20
9.70153834623164
30
0
41
1
10
132.09341038528
20
9.85435529954682
30
0
41
1
10
132.155975334569
20
9.90998464720562
30
0
41
1
10
132.281105233147
20
9.98280042660758
30
0
41
1
10
132.343670182435
20
10
30
0
41
1
10
132.406235131724
20
10
30
0
0
SPLINE
5
DC
100
AcDbEntity
8
1
62
256
6
ByLayer
370
13
48
1
60
0
100
AcDbSpline
70
4
71
3
72
42
73
38
40
0
40
0
40
0
40
0
40
0.0625000000000006
40
0.0625000000000006
40
0.125000000000001
40
0.125000000000001
40
0.187500000000002
40
0.187500000000002
40
0.250000000000002
40
0.250000000000002
40
0.312500000000003
40
0.312500000000003
40
0.375000000000003
40
0.375000000000003
40
0.437500000000004
40
0.437500000000004
40
0.500000000000004
40
0.500000000000004
40
0.562500000000005
40
0.562500000000005
40
0.578125000000005
40
0.578125000000005
40
0.593750000000005
40
0.593750000000005
40
0.625000000000004
40
0.625000000000004
40
0.687500000000004
40
0.687500000000004
40
0.750000000000003
40
0.750000000000003
40
0.812500000000002
40
0.812500000000002
40
0.875000000000002
40
0.875000000000002
40
0.937500000000001
40
0.937500000000001
40
1
40
1
40
1
40
1
41
1
10
132.33875125452
20
10
30
0
41
1
10
132.432950137912
20
10
30
0
41
1
10
132.527149021304
20
9.96091384409434
30
0
41
1
10
132.715546788088
20
9.79155122997329
30
0
41
1
10
132.80974567148
20
9.66117530339807
30
0
41
1
10
132.998143438264
20
9.30165951925784
30
0
41
1
10
133.092342321656
20
9.0724476541584
30
0
41
1
10
133.28074008844
20
8.51602673836604
30
0
41
1
10
133.374938971832
20
8.18880664751376
30
0
41
1
10
133.563336738616
20
7.44684315904195
30
0
41
1
10
133.657535622008
20
7.03216490478215
30
0
41
1
10
133.845933388792
20
6.1346860097955
30
0
41
1
10
133.940132272184
20
5.65201067989128
30
0
41
1
10
134.128530038969
20
4.64391548674399
30
0
41
1
10
134.222728922361
20
4.1186397752405
30
0
41
1
10
134.411126689145
20
3.05248189150291
30
0
41
1
10
134.505325572537
20
2.511718143656
30
0
41
1
10
134.693723339321
20
1.43938064740547
30
0
41
1
10
134.787922222713
20
0.907873177786684
30
0
41
1
10
134.905670826953
20
0.261485837726809
30
0
41
1
10
134.929220547801
20
0.133093493972012
30
0
41
1
10
134.976319989497
20
-0.121677087573005
30
0
41
1
10
134.999869710345
20
-0.249953797904226
30
0
41
1
10
135.070518872889
20
-0.637627374753038
30
0
41
1
10
135.117618314585
20
-0.899644327614453
30
0
41
1
10
135.258916639673
20
-1.6930381680877
30
0
41
1
10
135.353115523065
20
-2.23191751918949
30
0
41
1
10
135.541513289849
20
-3.30735037803603
30
0
41
1
10
135.635712173241
20
-3.84381023012443
30
0
41
1
10
135.824109940025
20
-4.88808542755777
30
0
41
1
10
135.918308823418
20
-5.39576488259033
30
0
41
1
10
136.106706590202
20
-6.35566542668582
30
0
41
1
10
136.200905473594
20
-6.80774566988751
30
0
41
1
10
136.389303240378
20
-7.63345292443981
30
0
41
1
10
136.48350212377
20
-8.00698027868401
30
0
41
1
10
136.671899890554
20
-8.66018856989214
30
0
41
1
10
136.766098773946
20
-8.93984194276462
30
0
41
1
10
136.860297657338
20
-9.16967747363108
30
0
0
SPLINE
5
DD
100
AcDbEntity
8
1
62
256
6
ByLayer
370
13
48
1
60
0
100
AcDbSpline
70
4
71
3
72
78
73
74
40
0
40
0
40
0
40
0
40
0.0312500000000007
40
0.0312500000000007
40
0.046875000000001
40
0.046875000000001
40
0.0546875000000011
40
0.0546875000000011
40
0.0625000000000013
40
0.0625000000000013
40
0.0937500000000015
40
0.0937500000000015
40
0.125000000000002
40
0.125000000000002
40
0.156250000000002
40
0.156250000000002
40
0.187500000000002
40
0.187500000000002
40
0.218750000000002
40
0.218750000000002
40
0.250000000000002
40
0.250000000000002
40
0.281250000000002
40
0.281250000000002
40
0.312500000000003
40
0.312500000000003
40
0.343750000000003
40
0.343750000000003
40
0.375000000000003
40
0.375000000000003
40
0.406250000000003
40
0.406250000000003
40
0.437500000000003
40
0.437500000000003
40
0.468750000000004
40
0.468750000000004
40
0.500000000000004
40
0.500000000000004
40
0.515625000000004
40
0.515625000000004
40
0.523437500000004
40
0.523437500000004
40
0.531250000000004
40
0.531250000000004
40
0.562500000000003
40
0.562500000000003
40
0.593750000000003
40
0.593750000000003
40
0.625000000000003
40
0.625000000000003
40
0.656250000000003
40
0.656250000000003
40
0.687500000000002
40
0.687500000000002
40
0.718750000000002
40
0.718750000000002
40
0.750000000000002
40
0.750000000000002
40
0.781250000000002
40
0.781250000000002
40
0.812500000000001
40
0.812500000000001
40
0.843750000000001
40
0.843750000000001
40
0.875000000000001
40
0.875000000000001
40
0.906250000000001
40
0.906250000000001
40
0.9375
40
0.9375
40
0.96875
40
0.96875
40
1
40
1
40
1
40
1
41
1
10
126.4
20
-9.87749332329506
30
0
41
1
10
126.457409783723
20
-9.92882723984752
30
0
41
1
10
126.514819567446
20
-9.96327601021432
30
0
41
1
10
126.600934243031
20
-9.9916967902966
30
0
41
1
10
126.629639134893
20
-9.9973002669052
30
0
41
1
10
126.672696472685
20
-10.0001991541497
30
0
41
1
10
126.687048918616
20
-10.0002540718235
30
0
41
1
10
126.715753810478
20
-9.99854590125261
30
0
41
1
10
126.730106256409
20
-9.99677589516764
30
0
41
1
10
126.801868486063
20
-9.98321927452938
30
0
41
1
10
126.859278269786
20
-9.9572908151049
30
0
41
1
10
126.974097837233
20
-9.87233691878785
30
0
41
1
10
127.031507620956
20
-9.81330294140028
30
0
41
1
10
127.146327188402
20
-9.65990091338199
30
0
41
1
10
127.203736972125
20
-9.56552505250048
30
0
41
1
10
127.318556539572
20
-9.34016163535043
30
0
41
1
10
127.375966323295
20
-9.20916814012116
30
0
41
1
10
127.490785890742
20
-8.91046206072227
30
0
41
1
10
127.548195674465
20
-8.74274649607128
30
0
41
1
10
127.663015241912
20
-8.37179697428019
30
0
41
1
10
127.720425025635
20
-8.16856377894584
30
0
41
1
10
127.835244593081
20
-7.72912370048229
30
0
41
1
10
127.892654376805
20
-7.4929215781244
30
0
41
1
10
128.007473944251
20
-6.99134992195718
30
0
41
1
10
128.064883727974
20
-6.72598875870614
30
0
41
1
10
128.179703295421
20
-6.17096774041994
30
0
41
1
10
128.237113079144
20
-5.88131887078166
30
0
41
1
10
128.351932646591
20
-5.28335886641688
30
0
41
1
10
128.409342430314
20
-4.97505992986657
30
0
41
1
10
128.52416199776
20
-4.34585044287545
30
0
41
1
10
128.581571781484
20
-4.02495179237269
30
0
41
1
10
128.69639134893
20
-3.37664043329201
30
0
41
1
10
128.753801132654
20
-3.04923801034633
30
0
41
1
10
128.8686207001
20
-2.39372595676937
30
0
41
1
10
128.926030483823
20
-2.06562409789422
30
0
41
1
10
129.04085005127
20
-1.41395540410542
30
0
41
1
10
129.098259834993
20
-1.09039343470465
30
0
41
1
10
129.184374510578
20
-0.611816997428207
30
0
41
1
10
129.213079402439
20
-0.453412934229135
30
0
41
1
10
129.256136740232
20
-0.217849322620026
30
0
41
1
10
129.270489186163
20
-0.139668108164074
30
0
41
1
10
129.299194078024
20
0.0159594128508047
30
0
41
1
10
129.313546523955
20
0.0935181770380495
30
0
41
1
10
129.385308753609
20
0.484281516361676
30
0
41
1
10
129.442718537332
20
0.802602488595085
30
0
41
1
10
129.557538104779
20
1.44672035973531
30
0
41
1
10
129.614947888502
20
1.77251421703011
30
0
41
1
10
129.729767455949
20
2.42680270066339
30
0
41
1
10
129.787177239672
20
2.75529138003316
30
0
41
1
10
129.901996807119
20
3.4094986989023
30
0
41
1
10
129.959406590842
20
3.73520857034177
30
0
41
1
10
130.074226158288
20
4.37791332792551
30
0
41
1
10
130.131635942011
20
4.69489720543655
30
0
41
1
10
130.246455509458
20
5.31403032245183
30
0
41
1
10
130.303865293181
20
5.61616738324625
30
0
41
1
10
130.418684860628
20
6.19966493422308
30
0
41
1
10
130.476094644351
20
6.48101349497023
30
0
41
1
10
130.590914211798
20
7.01753722683995
30
0
41
1
10
130.648323995521
20
7.27270222595442
30
0
41
1
10
130.763143562967
20
7.75234447186418
30
0
41
1
10
130.820553346691
20
7.97681458780087
30
0
41
1
10
130.935372914137
20
8.39169934890208
30
0
41
1
10
130.99278269786
20
8.58211069218845
30
0
41
1
10
131.107602265307
20
8.92681582517497
30
0
41
1
10
131.16501204903
20
9.08111028951339
30
0
41
1
10
131.279831616477
20
9.35286457148155
30
0
41
1
10
131.3372414002
20
9.4703285690037
30
0
41
1
10
131.452060967646
20
9.66897462809354
30
0
41
1
10
131.509470751369
20
9.75016345042366
30
0
41
1
10
131.624290318816
20
9.87791363700836
30
0
41
1
10
131.681700102539
20
9.9244832080272
30
0
41
1
10
131.796519669986
20
9.9855221158374
30
0
41
1
10
131.853929453709
20
10
30
0
41
1
10
131.911339237432
20
10
30
0
0
SPLINE
5
DE
100
AcDbEntity
8
1
62
256
6
ByLayer
370
13
48
1
60
0
100
AcDbSpline
70
4
71
3
72
66
73
62
40
0
40
0
40
0
40
0
40
0.0624999999999995
40
0.0624999999999995
40
0.0937499999999993
40
0.0937499999999993
40
0.124999999999999
40
0.124999999999999
40
0.156249999999999
40
0.156249999999999
40
0.187499999999999
40
0.187499999999999
40
0.218749999999998
40
0.218749999999998
40
0.249999999999998
40
0.249999999999998
40
0.281249999999998
40
0.281249999999998
40
0.312499999999998
40
0.312499999999998
40
0.343749999999997
40
0.343749999999997
40
0.374999999999997
40
0.374999999999997
40
0.406249999999997
40
0.406249999999997
40
0.437499999999997
40
0.437499999999997
40
0.499999999999997
40
0.499999999999997
40
0.515624999999996
40
0.515624999999996
40
0.523437499999996
40
0.523437499999996
40
0.531249999999996
40
0.531249999999996
40
0.562499999999996
40
0.562499999999996
40
0.624999999999996
40
0.624999999999996
40
0.656249999999997
40
0.656249999999997
40
0.687499999999997
40
0.687499999999997
40
0.718749999999997
40
0.718749999999997
40
0.749999999999997
40
0.749999999999997
40
0.781249999999998
40
0.781249999999998
40
0.812499999999998
40
0.812499999999998
40
0.843749999999998
40
0.843749999999998
40
0.874999999999998
40
0.874999999999998
40
0.906249999999999
40
0.906249999999999
40
0.937499999999999
40
0.937499999999999
40
1
40
1
40
1
40
1
41
1
10
131.843855360228
20
10
30
0
41
1
10
131.948364574751
20
10
30
0
41
1
10
132.052873789274
20
9.95183563134697
30
0
41
1
10
132.209637611058
20
9.79426390579397
30
0
41
1
10
132.26189221832
20
9.72756617103423
30
0
41
1
10
132.366401432843
20
9.56442162335395
30
0
41
1
10
132.418656040105
20
9.46797026595559
30
0
41
1
10
132.523165254628
20
9.24462221735797
30
0
41
1
10
132.575419861889
20
9.11772225358655
30
0
41
1
10
132.679929076413
20
8.83361592680347
30
0
41
1
10
132.732183683674
20
8.67640809892177
30
0
41
1
10
132.836692898197
20
8.33273320943277
30
0
41
1
10
132.888947505459
20
8.1462668563687
30
0
41
1
10
132.993456719982
20
7.74604286909641
30
0
41
1
10
133.045711327244
20
7.53228822108127
30
0
41
1
10
133.150220541767
20
7.08032108138403
30
0
41
1
10
133.202475149028
20
6.84211365026232
30
0
41
1
10
133.306984363551
20
6.34481806864551
30
0
41
1
10
133.359238970813
20
6.08573655975891
30
0
41
1
10
133.463748185336
20
5.55083592241431
30
0
41
1
10
133.516002792598
20
5.27502431418961
30
0
41
1
10
133.620512007121
20
4.71115723535164
30
0
41
1
10
133.672766614382
20
4.42310937662467
30
0
41
1
10
133.777275828905
20
3.83938414001935
30
0
41
1
10
133.829530436167
20
3.54371372946685
30
0
41
1
10
133.93403965069
20
2.94925686199031
30
0
41
1
10
133.986294257952
20
2.65047615445911
30
0
41
1
10
134.143058079737
20
1.75578967028477
30
0
41
1
10
134.24756729426
20
1.16182437869048
30
0
41
1
10
134.378203812413
20
0.439987059928285
30
0
41
1
10
134.404331116044
20
0.296629011405173
30
0
41
1
10
134.44352207149
20
0.0833670958782022
30
0
41
1
10
134.456585723306
20
0.0127754234643476
30
0
41
1
10
134.482713026937
20
-0.128855482664193
30
0
41
1
10
134.495776678752
20
-0.199975700321829
30
0
41
1
10
134.561094937829
20
-0.556997456578358
30
0
41
1
10
134.613349545091
20
-0.847184169890596
30
0
41
1
10
134.770113366875
20
-1.72693042521041
30
0
41
1
10
134.874622581398
20
-2.32591345803132
30
0
41
1
10
135.031386403183
20
-3.22015501115871
30
0
41
1
10
135.083641010445
20
-3.51746534005122
30
0
41
1
10
135.188150224968
20
-4.10613169449192
30
0
41
1
10
135.240404832229
20
-4.39748113994355
30
0
41
1
10
135.344914046753
20
-4.96962529341116
30
0
41
1
10
135.397168654014
20
-5.25041254507903
30
0
41
1
10
135.501677868537
20
-5.79686849009008
30
0
41
1
10
135.553932475799
20
-6.06252953875114
30
0
41
1
10
135.658441690322
20
-6.57443522321074
30
0
41
1
10
135.710696297583
20
-6.82067280962326
30
0
41
1
10
135.815205512107
20
-7.28992318744827
30
0
41
1
10
135.867460119368
20
-7.51293027365162
30
0
41
1
10
135.971969333891
20
-7.93259488519752
30
0
41
1
10
136.024223941153
20
-8.12924863103882
30
0
41
1
10
136.128733155676
20
-8.49390973654965
30
0
41
1
10
136.180987762938
20
-8.66191555663133
30
0
41
1
10
136.285496977461
20
-8.96789265156073
30
0
41
1
10
136.337751584722
20
-9.10586463198229
30
0
41
1
10
136.442260799245
20
-9.35130679111742
30
0
41
1
10
136.494515406507
20
-9.45877964109559
30
0
41
1
10
136.651279228292
20
-9.73604797982995
30
0
41
1
10
136.755788442815
20
-9.86039355788742
30
0
41
1
10
136.860297657338
20
-9.93014605044854
30
0
0
SPLINE
5
DF
100
AcDbEntity
8
1
62
256
6
ByLayer
370
13
48
1
60
0
100
AcDbSpline
70
4
71
3
72
66
73
62
40
0
40
0
40
0
40
0
40
0.0624999999999998
40
0.0624999999999998
40
0.0937499999999994
40
0.0937499999999994
40
0.124999999999999
40
0.124999999999999
40
0.156249999999999
40
0.156249999999999
40
0.187499999999998
40
0.187499999999998
40
0.218749999999998
40
0.218749999999998
40
0.249999999999998
40
0.249999999999998
40
0.281249999999997
40
0.281249999999997
40
0.312499999999997
40
0.312499999999997
40
0.343749999999997
40
0.343749999999997
40
0.374999999999996
40
0.374999999999996
40
0.437499999999995
40
0.437499999999995
40
0.468749999999994
40
0.468749999999994
40
0.476562499999994
40
0.476562499999994
40
0.484374999999994
40
0.484374999999994
40
0.499999999999994
40
0.499999999999994
40
0.562499999999994
40
0.562499999999994
40
0.593749999999994
40
0.593749999999994
40
0.624999999999995
40
0.624999999999995
40
0.656249999999995
40
0.656249999999995
40
0.687499999999995
40
0.687499999999995
40
0.718749999999996
40
0.718749999999996
40
0.749999999999996
40
0.749999999999996
40
0.781249999999996
40
0.781249999999996
40
0.812499999999997
40
0.812499999999997
40
0.843749999999997
40
0.843749999999997
40
0.874999999999998
40
0.874999999999998
40
0.906249999999998
40
0.906249999999998
40
0.937499999999999
40
0.937499999999999
40
1
40
1
40
1
40
1
41
1
10
126.4
20
-9.93014674859745
30
0
41
1
10
126.504509236315
20
-9.86039460313953
30
0
41
1
10
126.609018472631
20
-9.73604937710937
30
0
41
1
10
126.765782327104
20
-9.45878154417593
30
0
41
1
10
126.818036945262
20
-9.35130885902475
30
0
41
1
10
126.922546181577
20
-9.10586701670184
30
0
41
1
10
126.974800799735
20
-8.96789518825213
30
0
41
1
10
127.07931003605
20
-8.66191837933991
30
0
41
1
10
127.131564654208
20
-8.4939126932903
30
0
41
1
10
127.236073890523
20
-8.12925183347238
30
0
41
1
10
127.288328508681
20
-7.93259819928065
30
0
41
1
10
127.392837744996
20
-7.51293378523425
30
0
41
1
10
127.445092363154
20
-7.28992678487327
30
0
41
1
10
127.54960159947
20
-6.8206765508115
30
0
41
1
10
127.601856217627
20
-6.57443902231714
30
0
41
1
10
127.706365453943
20
-6.06253342511741
30
0
41
1
10
127.758620072101
20
-5.79687240580049
30
0
41
1
10
127.863129308416
20
-5.25041649171919
30
0
41
1
10
127.915383926574
20
-4.96962924164396
30
0
41
1
10
128.019893162889
20
-4.39748506575006
30
0
41
1
10
128.072147781047
20
-4.10613559628982
30
0
41
1
10
128.176657017362
20
-3.51746917143052
30
0
41
1
10
128.22891163552
20
-3.22015879614003
30
0
41
1
10
128.385675489993
20
-2.32591707611636
30
0
41
1
10
128.490184726309
20
-1.72693389511991
30
0
41
1
10
128.646948580782
20
-0.847187387948367
30
0
41
1
10
128.699203198939
20
-0.557000585762552
30
0
41
1
10
128.764521471636
20
-0.199978714785374
30
0
41
1
10
128.777585126176
20
-0.128858474001248
30
0
41
1
10
128.803712435255
20
0.0127724786860028
30
0
41
1
10
128.816776089794
20
0.0833641542057819
30
0
41
1
10
128.855967053413
20
0.296626089804192
30
0
41
1
10
128.882094362491
20
0.439984153335303
30
0
41
1
10
129.012730907886
20
1.16182155536473
30
0
41
1
10
129.117240144201
20
1.75578694032316
30
0
41
1
10
129.274003998674
20
2.65047360167489
30
0
41
1
10
129.326258616832
20
2.94925437436777
30
0
41
1
10
129.430767853147
20
3.54371138279404
30
0
41
1
10
129.483022471305
20
3.83938186913249
30
0
41
1
10
129.58753170762
20
4.4231072656444
30
0
41
1
10
129.639786325778
20
4.71115520848716
30
0
41
1
10
129.744295562094
20
5.27502246098982
30
0
41
1
10
129.796550180251
20
5.55083415875615
30
0
41
1
10
129.901059416567
20
6.08573497728858
30
0
41
1
10
129.953314034724
20
6.34481657781248
30
0
41
1
10
130.05782327104
20
6.84211234129788
30
0
41
1
10
130.110077889197
20
7.08031986264157
30
0
41
1
10
130.214587125513
20
7.53228717796043
30
0
41
1
10
130.266841743671
20
7.74604191136683
30
0
41
1
10
130.371350979986
20
8.14626606154727
30
0
41
1
10
130.423605598144
20
8.33273249212192
30
0
41
1
10
130.528114834459
20
8.67640752629541
30
0
41
1
10
130.580369452617
20
8.83361542134745
30
0
41
1
10
130.684878688932
20
9.11772187041367
30
0
41
1
10
130.73713330709
20
9.24462188929726
30
0
41
1
10
130.841642543405
20
9.46797003514519
30
0
41
1
10
130.893897161563
20
9.56442143468371
30
0
41
1
10
130.998406397879
20
9.72756605353396
30
0
41
1
10
131.050661016036
20
9.79426381732762
30
0
41
1
10
131.207424870509
20
9.95183561113831
30
0
41
1
10
131.311934106825
20
10
30
0
41
1
10
131.41644334314
20
10
30
0
0
SPLINE
5
E0
100
AcDbEntity
8
1
62
256
6
ByLayer
370
13
48
1
60
0
100
AcDbSpline
70
4
71
3
72
77
73
73
40
0
40
0
40
0
40
0
40
0.0312500000000004
40
0.0312500000000004
40
0.0625000000000007
40
0.0625000000000007
40
0.0937500000000011
40
0.0937500000000011
40
0.125000000000001
40
0.125000000000001
40
0.156250000000002
40
0.156250000000002
40
0.187500000000002
40
0.187500000000002
40
0.218750000000003
40
0.218750000000003
40
0.250000000000003
40
0.250000000000003
40
0.281250000000004
40
0.281250000000004
40
0.312500000000004
40
0.312500000000004
40
0.343750000000005
40
0.343750000000005
40
0.375000000000005
40
0.375000000000005
40
0.406250000000006
40
0.406250000000006
40
0.437500000000006
40
0.437500000000006
40
0.468750000000007
40
0.468750000000007
40
0.476562500000007
40
0.476562500000007
40
0.484375000000007
40
0.500000000000007
40
0.500000000000007
40
0.531250000000006
40
0.531250000000006
40
0.562500000000006
40
0.562500000000006
40
0.593750000000005
40
0.593750000000005
40
0.625000000000005
40
0.625000000000005
40
0.656250000000005
40
0.656250000000005
40
0.687500000000004
40
0.687500000000004
40
0.718750000000004
40
0.718750000000004
40
0.750000000000003
40
0.750000000000003
40
0.781250000000003
40
0.781250000000003
40
0.812500000000002
40
0.812500000000002
40
0.843750000000002
40
0.843750000000002
40
0.875000000000002
40
0.875000000000002
40
0.906250000000001
40
0.906250000000001
40
0.937500000000001
40
0.937500000000001
40
0.945312500000001
40
0.945312500000001
40
0.953125000000001
40
0.953125000000001
40
0.96875
40
0.96875
40
1
40
1
40
1
40
1
41
1
10
131.348959465936
20
10
30
0
41
1
10
131.406369238762
20
10
30
0
41
1
10
131.46377901159
20
9.98552212134123
30
0
41
1
10
131.578598557244
20
9.92448323727817
30
0
41
1
10
131.636008330071
20
9.87791368451084
30
0
41
1
10
131.750827875725
20
9.75016354839997
30
0
41
1
10
131.808237648552
20
9.66897475829967
30
0
41
1
10
131.923057194206
20
9.47032877811745
30
0
41
1
10
131.980466967034
20
9.35286482727832
30
0
41
1
10
132.095286512688
20
9.08111065265081
30
0
41
1
10
132.152696285515
20
8.92681624897159
30
0
41
1
10
132.267515831169
20
8.58211124974622
30
0
41
1
10
132.324925603996
20
8.39169997955875
30
0
41
1
10
132.43974514965
20
7.97681537452598
30
0
41
1
10
132.497154922478
20
7.75234534155109
30
0
41
1
10
132.611974468132
20
7.27270326798441
30
0
41
1
10
132.669384240959
20
7.01753835823973
30
0
41
1
10
132.784203786613
20
6.48101480749077
30
0
41
1
10
132.84161355944
20
6.19966633848119
30
0
41
1
10
132.956433105094
20
5.61616896911539
30
0
41
1
10
133.013842877921
20
5.31403199818135
30
0
41
1
10
133.128662423576
20
4.69489905497522
30
0
41
1
10
133.186072196403
20
4.37791526140234
30
0
41
1
10
133.300891742057
20
3.73521066229549
30
0
41
1
10
133.358301514884
20
3.40950086538797
30
0
41
1
10
133.473121060538
20
2.75529368351934
30
0
41
1
10
133.530530833366
20
2.42680506661577
30
0
41
1
10
133.64535037902
20
1.77251669414815
30
0
41
1
10
133.702760151847
20
1.44672288555446
30
0
41
1
10
133.817579697501
20
0.802605097316018
30
0
41
1
10
133.874989470328
20
0.484284159287853
30
0
41
1
10
133.946751686362
20
0.093520853744792
30
0
41
1
10
133.961104129569
20
0.0159620922553074
30
0
41
1
10
133.989809015983
20
-0.139665382211859
30
0
41
1
10
134.032866345603
20
-0.374208107361795
30
0
41
1
10
134.075923675223
20
-0.611814134680401
30
0
41
1
10
134.162038334464
20
-1.09039044034205
30
0
41
1
10
134.219448107291
20
-1.41395232645127
30
0
41
1
10
134.334267652945
20
-2.06562086766118
30
0
41
1
10
134.391677425772
20
-2.39372265726311
30
0
41
1
10
134.506496971426
20
-3.04923459152252
30
0
41
1
10
134.563906744254
20
-3.37663696444076
30
0
41
1
10
134.678726289908
20
-4.02494824755283
30
0
41
1
10
134.736136062735
20
-4.3458468721318
30
0
41
1
10
134.850955608389
20
-4.97505633532572
30
0
41
1
10
134.908365381216
20
-5.28335527401765
30
0
41
1
10
135.02318492687
20
-5.88131531328639
30
0
41
1
10
135.080594699698
20
-6.1709642156967
30
0
41
1
10
135.195414245352
20
-6.72598533093992
30
0
41
1
10
135.252824018179
20
-6.99134655837815
30
0
41
1
10
135.367643563833
20
-7.49291837315988
30
0
41
1
10
135.42505333666
20
-7.72912058993904
30
0
41
1
10
135.539872882315
20
-8.16856088440349
30
0
41
1
10
135.597282655141
20
-8.37179420130414
30
0
41
1
10
135.712102200796
20
-8.7427439886917
30
0
41
1
10
135.769511973623
20
-8.91045969735475
30
0
41
1
10
135.884331519277
20
-9.20916608141656
30
0
41
1
10
135.941741292104
20
-9.34015973727702
30
0
41
1
10
136.056560837758
20
-9.56552348595318
30
0
41
1
10
136.113970610586
20
-9.65989951771147
30
0
41
1
10
136.22879015624
20
-9.81330189140104
30
0
41
1
10
136.286199929067
20
-9.87233604356885
30
0
41
1
10
136.401019474721
20
-9.95729028754127
30
0
41
1
10
136.458429247548
20
-9.98321891983167
30
0
41
1
10
136.530191463582
20
-9.99677575227102
30
0
41
1
10
136.544543906789
20
-9.99854580050459
30
0
41
1
10
136.573248793202
20
-10.0002540548826
30
0
41
1
10
136.587601236409
20
-10.0001991786025
30
0
41
1
10
136.630658566029
20
-9.99730041936726
30
0
41
1
10
136.659363452443
20
-9.99169703188107
30
0
41
1
10
136.745478111684
20
-9.96327653035212
30
0
41
1
10
136.802887884511
20
-9.92882796066715
30
0
41
1
10
136.860297657338
20
-9.87749425861816
30
0
0
SPLINE
5
E1
100
AcDbEntity
8
1
62
256
6
ByLayer
370
13
48
1
60
0
100
AcDbSpline
70
4
71
3
72
42
73
38
40
0
40
0
40
0
40
0
40
0.0625000000000001
40
0.0625000000000001
40
0.125
40
0.125
40
0.1875
40
0.1875
40
0.25
40
0.25
40
0.3125
40
0.3125
40
0.375
40
0.375
40
0.40625
40
0.40625
40
0.421875
40
0.421875
40
0.437499999999999
40
0.437499999999999
40
0.499999999999999
40
0.499999999999999
40
0.5625
40
0.5625
40
0.625
40
0.625
40
0.6875
40
0.6875
40
0.75
40
0.75
40
0.8125
40
0.8125
40
0.875
40
0.875
40
0.9375
40
0.9375
40
1
40
1
40
1
40
1
41
1
10
126.4
20
-9.16968002583343
30
0
41
1
10
126.494198905184
20
-8.93984480762145
30
0
41
1
10
126.588397810369
20
-8.66019172250077
30
0
41
1
10
126.776795620737
20
-8.00698392626518
30
0
41
1
10
126.870994525922
20
-7.63345677900438
30
0
41
1
10
127.05939233629
20
-6.80774983824003
30
0
41
1
10
127.153591241475
20
-6.35566970175964
30
0
41
1
10
127.341989051843
20
-5.39576926811321
30
0
41
1
10
127.436187957028
20
-4.88808981691423
30
0
41
1
10
127.624585767396
20
-3.84381453786821
30
0
41
1
10
127.718784672581
20
-3.30735460056439
30
0
41
1
10
127.907182482949
20
-2.23192150687151
30
0
41
1
10
128.001381388134
20
-1.6930420063826
30
0
41
1
10
128.14267974591
20
-0.899647914859258
30
0
41
1
10
128.189779198502
20
-0.637630873823298
30
0
41
1
10
128.260428377391
20
-0.249957160454841
30
0
41
1
10
128.283978103687
20
-0.121680370961457
30
0
41
1
10
128.331077556279
20
0.133090235078242
30
0
41
1
10
128.354627282575
20
0.261482592537192
30
0
41
1
10
128.472375914056
20
0.907870008504489
30
0
41
1
10
128.56657481924
20
1.43937756278379
30
0
41
1
10
128.754972629608
20
2.51171527440186
30
0
41
1
10
128.849171534793
20
3.05247915298423
30
0
41
1
10
129.037569345161
20
4.11863733413946
30
0
41
1
10
129.131768250346
20
4.64391321225858
30
0
41
1
10
129.320166060714
20
5.65200875648605
30
0
41
1
10
129.414364965899
20
6.13468427069614
30
0
41
1
10
129.602762776267
20
7.03216352949443
30
0
41
1
10
129.696961681452
20
7.44684196306716
30
0
41
1
10
129.885359491821
20
8.18880578370838
30
0
41
1
10
129.979558397005
20
8.51602602727397
30
0
41
1
10
130.167956207373
20
9.07244720673174
30
0
41
1
10
130.262155112558
20
9.30165918274486
30
0
41
1
10
130.450552922927
20
9.66117514088145
30
0
41
1
10
130.544751828111
20
9.79155113060079
30
0
41
1
10
130.733149638479
20
9.96091382592408
30
0
41
1
10
130.827348543664
20
10
30
0
41
1
10
130.921547448848
20
10
30
0
0
SPLINE
5
E2
100
AcDbEntity
8
1
62
256
6
ByLayer
370
13
48
1
60
0
100
AcDbSpline
70
4
71
3
72
78
73
74
40
0
40
0
40
0
40
0
40
0.0312500000000001
40
0.0312500000000001
40
0.0625000000000002
40
0.0625000000000002
40
0.0937500000000003
40
0.0937500000000003
40
0.125
40
0.125
40
0.156250000000001
40
0.156250000000001
40
0.187500000000001
40
0.187500000000001
40
0.218750000000001
40
0.218750000000001
40
0.250000000000001
40
0.250000000000001
40
0.281250000000001
40
0.281250000000001
40
0.312500000000001
40
0.312500000000001
40
0.343750000000001
40
0.343750000000001
40
0.375000000000001
40
0.375000000000001
40
0.406250000000001
40
0.406250000000001
40
0.421875000000001
40
0.421875000000001
40
0.429687500000001
40
0.429687500000001
40
0.4375
40
0.4375
40
0.468750000000001
40
0.468750000000001
40
0.500000000000001
40
0.500000000000001
40
0.531250000000001
40
0.531250000000001
40
0.562500000000001
40
0.562500000000001
40
0.593750000000001
40
0.593750000000001
40
0.625000000000001
40
0.625000000000001
40
0.656250000000001
40
0.656250000000001
40
0.687500000000001
40
0.687500000000001
40
0.718750000000001
40
0.718750000000001
40
0.75
40
0.75
40
0.78125
40
0.78125
40
0.8125
40
0.8125
40
0.84375
40
0.84375
40
0.859375
40
0.859375
40
0.8671875
40
0.8671875
40
0.875
40
0.875
40
0.90625
40
0.90625
40
0.9375
40
0.9375
40
0.96875
40
0.96875
40
1
40
1
40
1
40
1
41
1
10
130.854063571643
20
10
30
0
41
1
10
130.916628510036
20
10
30
0
41
1
10
130.979193448429
20
9.98280043260925
30
0
41
1
10
131.104323325214
20
9.90998467924814
30
0
41
1
10
131.166888263607
20
9.85435535163998
30
0
41
1
10
131.292018140392
20
9.70153845382362
30
0
41
1
10
131.354583078784
20
9.60433855239756
30
0
41
1
10
131.47971295557
20
9.3665284476603
30
0
41
1
10
131.542277893963
20
9.22590877069945
30
0
41
1
10
131.667407770748
20
8.90103187250787
30
0
41
1
10
131.72997270914
20
8.71677003791075
30
0
41
1
10
131.855102585926
20
8.30622521389719
30
0
41
1
10
131.917667524318
20
8.07994389830924
30
0
41
1
10
132.042797401104
20
7.58886895614441
30
0
41
1
10
132.105362339496
20
7.32408366255569
30
0
41
1
10
132.230492216282
20
6.76125220333927
30
0
41
1
10
132.293057154674
20
6.46322011904812
30
0
41
1
10
132.41818703146
20
5.84054810107619
30
0
41
1
10
132.480751969852
20
5.51592595221436
30
0
41
1
10
132.605881846638
20
4.84764154468269
30
0
41
1
10
132.66844678503
20
4.50399809280106
30
0
41
1
10
132.793576661816
20
3.80559391153761
30
0
41
1
10
132.856141600208
20
3.45085035933585
30
0
41
1
10
132.981271476993
20
2.73797415065511
30
0
41
1
10
133.043836415386
20
2.37985501342794
30
0
41
1
10
133.168966292171
20
1.66729359472941
30
0
41
1
10
133.231531230564
20
1.31286010349214
30
0
41
1
10
133.325378638153
20
0.788516921706616
30
0
41
1
10
133.35666110735
20
0.614945094909956
30
0
41
1
10
133.403584811144
20
0.356886266148706
30
0
41
1
10
133.419226045742
20
0.271249216105105
30
0
41
1
10
133.450508514938
20
0.100813887847551
30
0
41
1
10
133.466149749537
20
0.016301133687449
30
0
41
1
10
133.544355922527
20
-0.407818608164376
30
0
41
1
10
133.60692086092
20
-0.754130937840273
30
0
41
1
10
133.732050737705
20
-1.45575644082044
30
0
41
1
10
133.794615676098
20
-1.81106502189522
30
0
41
1
10
133.919745552883
20
-2.52447764978751
30
0
41
1
10
133.982310491276
20
-2.88257224322285
30
0
41
1
10
134.107440368061
20
-3.59438806394129
30
0
41
1
10
134.170005306454
20
-3.94809519367203
30
0
41
1
10
134.295135183239
20
-4.6433588400397
30
0
41
1
10
134.357700121632
20
-4.9848978229067
30
0
41
1
10
134.482829998417
20
-5.64791970486971
30
0
41
1
10
134.54539493681
20
-5.96938377273591
30
0
41
1
10
134.670524813595
20
-6.584776732553
30
0
41
1
10
134.733089751988
20
-6.87868819003822
30
0
41
1
10
134.858219628773
20
-7.43247797419309
30
0
41
1
10
134.920784567166
20
-7.69234289645945
30
0
41
1
10
135.045914443951
20
-8.17299524531876
30
0
41
1
10
135.108479382344
20
-8.39377521215511
30
0
41
1
10
135.233609259129
20
-8.79298633103687
30
0
41
1
10
135.296174197522
20
-8.97141670572293
30
0
41
1
10
135.421304074307
20
-9.28455555710346
30
0
41
1
10
135.4838690127
20
-9.41926940397283
30
0
41
1
10
135.608998889485
20
-9.64542824076551
30
0
41
1
10
135.671563827878
20
-9.73688321262958
30
0
41
1
10
135.796693704663
20
-9.87856646605201
30
0
41
1
10
135.859258643056
20
-9.92880730281169
30
0
41
1
10
135.953106050644
20
-9.97571234578015
30
0
41
1
10
135.984388519841
20
-9.98661314155314
30
0
41
1
10
136.031312223635
20
-9.99623247127161
30
0
41
1
10
136.046953458234
20
-9.99831731277982
30
0
41
1
10
136.07823592743
20
-10.0003093668828
30
0
41
1
10
136.093877162028
20
-10.0002256592539
30
0
41
1
10
136.172083335019
20
-9.9943887425209
30
0
41
1
10
136.234648273411
20
-9.97222786442686
30
0
41
1
10
136.359778150197
20
-9.88900462529284
30
0
41
1
10
136.422343088589
20
-9.82792912270037
30
0
41
1
10
136.547472965375
20
-9.66388673261278
30
0
41
1
10
136.610037903767
20
-9.56090777572444
30
0
41
1
10
136.735167780553
20
-9.31140786179861
30
0
41
1
10
136.797732718945
20
-9.16487797663399
30
0
41
1
10
136.860297657338
20
-8.99658301158567
30
0
0
SPLINE
5
E3
100
AcDbEntity
8
1
62
256
6
ByLayer
370
13
48
1
60
0
100
AcDbSpline
70
4
71
3
72
42
73
38
40
0
40
0
40
0
40
0
40
0.0625
40
0.0625
40
0.125
40
0.125
40
0.1875
40
0.1875
40
0.25
40
0.25
40
0.3125
40
0.3125
40
0.34375
40
0.34375
40
0.359375000000001
40
0.359375000000001
40
0.375000000000001
40
0.375000000000001
40
0.437500000000001
40
0.437500000000001
40
0.500000000000001
40
0.500000000000001
40
0.5625
40
0.5625
40
0.625
40
0.625
40
0.6875
40
0.6875
40
0.75
40
0.75
40
0.8125
40
0.8125
40
0.875
40
0.875
40
0.9375
40
0.9375
40
1
40
1
40
1
40
1
41
1
10
126.4
20
-7.52132310407069
30
0
41
1
10
126.483888574053
20
-7.17143839177501
30
0
41
1
10
126.567777148107
20
-6.78864299614045
30
0
41
1
10
126.735554296213
20
-5.97190513458969
30
0
41
1
10
126.819442870266
20
-5.53803636349141
30
0
41
1
10
126.987220018373
20
-4.63730736844315
30
0
41
1
10
127.071108592426
20
-4.17052801063997
30
0
41
1
10
127.238885740533
20
-3.22312191329371
30
0
41
1
10
127.322774314586
20
-2.74256330969712
30
0
41
1
10
127.490551462692
20
-1.78542305938993
30
0
41
1
10
127.574440036746
20
-1.30888424155785
30
0
41
1
10
127.700272897825
20
-0.608159100551717
30
0
41
1
10
127.742217184852
20
-0.376903726368425
30
0
41
1
10
127.805133615392
20
-0.0346137512545681
30
0
41
1
10
127.826105758905
20
0.0784427674206256
30
0
41
1
10
127.868050045932
20
0.307025423259006
30
0
41
1
10
127.889022189445
20
0.422069335409816
30
0
41
1
10
127.993882907012
20
1.00060223813611
30
0
41
1
10
128.077771481065
20
1.47417832014799
30
0
41
1
10
128.245548629172
20
2.42890635908157
30
0
41
1
10
128.329437203225
20
2.91002166419807
30
0
41
1
10
128.497214351331
20
3.86259833354342
30
0
41
1
10
128.581102925385
20
4.3339963498187
30
0
41
1
10
128.748880073491
20
5.24813241141925
30
0
41
1
10
128.832768647544
20
5.69079082998871
30
0
41
1
10
129.000545795651
20
6.52886069447109
30
0
41
1
10
129.084434369704
20
6.92419506002787
30
0
41
1
10
129.252211517811
20
7.65187815502694
30
0
41
1
10
129.336100091864
20
7.9841727918139
30
0
41
1
10
129.50387723997
20
8.57493003577477
30
0
41
1
10
129.587765814024
20
8.83337481776795
30
0
41
1
10
129.75554296213
20
9.2715979008909
30
0
41
1
10
129.839431536183
20
9.45139539899847
30
0
41
1
10
130.00720868429
20
9.7334712560519
30
0
41
1
10
130.091097258343
20
9.83579526068999
30
0
41
1
10
130.25887440645
20
9.96903144546937
30
0
41
1
10
130.342762980503
20
10
30
0
41
1
10
130.426651554556
20
10
30
0
0
SPLINE
5
E4
100
AcDbEntity
8
1
62
256
6
ByLayer
370
13
48
1
60
0
100
AcDbSpline
70
4
71
3
72
78
73
74
40
0
40
0
40
0
40
0
40
0.0312500000000005
40
0.0312500000000005
40
0.062500000000001
40
0.062500000000001
40
0.0937500000000015
40
0.0937500000000015
40
0.125000000000002
40
0.125000000000002
40
0.156250000000002
40
0.156250000000002
40
0.187500000000003
40
0.187500000000003
40
0.218750000000003
40
0.218750000000003
40
0.250000000000004
40
0.250000000000004
40
0.281250000000005
40
0.281250000000005
40
0.312500000000005
40
0.312500000000005
40
0.343750000000006
40
0.343750000000006
40
0.375000000000006
40
0.375000000000006
40
0.390625000000006
40
0.390625000000006
40
0.398437500000006
40
0.398437500000006
40
0.406250000000006
40
0.406250000000006
40
0.437500000000005
40
0.437500000000005
40
0.468750000000005
40
0.468750000000005
40
0.500000000000005
40
0.500000000000005
40
0.531250000000005
40
0.531250000000005
40
0.562500000000004
40
0.562500000000004
40
0.593750000000004
40
0.593750000000004
40
0.625000000000004
40
0.625000000000004
40
0.656250000000003
40
0.656250000000003
40
0.687500000000003
40
0.687500000000003
40
0.718750000000003
40
0.718750000000003
40
0.750000000000003
40
0.750000000000003
40
0.781250000000002
40
0.781250000000002
40
0.796875000000002
40
0.796875000000002
40
0.804687500000002
40
0.804687500000002
40
0.812500000000002
40
0.812500000000002
40
0.843750000000001
40
0.843750000000001
40
0.875000000000001
40
0.875000000000001
40
0.906250000000001
40
0.906250000000001
40
0.937500000000001
40
0.937500000000001
40
0.96875
40
0.96875
40
1
40
1
40
1
40
1
41
1
10
130.359167677351
20
10
30
0
41
1
10
130.426887781309
20
10
30
0
41
1
10
130.494607885268
20
9.97984295453432
30
0
41
1
10
130.630048093184
20
9.89415953369149
30
0
41
1
10
130.697768197142
20
9.82861364933751
30
0
41
1
10
130.833208405059
20
9.6483410547485
30
0
41
1
10
130.900928509017
20
9.53359653274669
30
0
41
1
10
131.036368716933
20
9.25296772707509
30
0
41
1
10
131.104088820891
20
9.08707091947977
30
0
41
1
10
131.239529028808
20
8.70450041459242
30
0
41
1
10
131.307249132766
20
8.48782278630443
30
0
41
1
10
131.442689340683
20
8.00663419213245
30
0
41
1
10
131.510409444641
20
7.74212982708002
30
0
41
1
10
131.645849652557
20
7.1707776429752
30
0
41
1
10
131.713569756515
20
6.86394669384069
30
0
41
1
10
131.849009964432
20
6.2156220911798
30
0
41
1
10
131.91673006839
20
5.87415295407908
30
0
41
1
10
132.052170276306
20
5.16579048761747
30
0
41
1
10
132.119890380264
20
4.79892501390427
30
0
41
1
10
132.255330588181
20
4.04976272749923
30
0
41
1
10
132.323050692139
20
3.66749237154033
30
0
41
1
10
132.458490900055
20
2.89743463744594
30
0
41
1
10
132.526211004014
20
2.50966844511902
30
0
41
1
10
132.66165121193
20
1.73772642805787
30
0
41
1
10
132.729371315888
20
1.35356434572986
30
0
41
1
10
132.830951471826
20
0.785841390248777
30
0
41
1
10
132.864811523804
20
0.598008737902859
30
0
41
1
10
132.915601601773
20
0.318986009533376
30
0
41
1
10
132.932531627763
20
0.22643199484034
30
0
41
1
10
132.966391679742
20
0.0423235003496814
30
0
41
1
10
132.983321705731
20
-0.0489838119324304
30
0
41
1
10
133.067971835679
20
-0.509375802392213
30
0
41
1
10
133.135691939637
20
-0.885733821714808
30
0
41
1
10
133.271132147554
20
-1.64798428531148
30
0
41
1
10
133.338852251512
20
-2.0338688230618
30
0
41
1
10
133.474292459428
20
-2.80703804727003
30
0
41
1
10
133.542012563386
20
-3.19430698473508
30
0
41
1
10
133.677452771303
20
-3.96088561686722
30
0
41
1
10
133.745172875261
20
-4.34017249334858
30
0
41
1
10
133.880613083177
20
-5.08078584318622
30
0
41
1
10
133.948333187135
20
-5.44208507877548
30
0
41
1
10
134.083773395052
20
-6.13684320554304
30
0
41
1
10
134.15149349901
20
-6.4702746376415
30
0
41
1
10
134.286933706927
20
-7.10037637693085
30
0
41
1
10
134.354653810885
20
-7.39702376360131
30
0
41
1
10
134.490094018801
20
-7.94636992658042
30
0
41
1
10
134.557814122759
20
-8.1990543012657
30
0
41
1
10
134.693254330676
20
-8.65559417691281
30
0
41
1
10
134.760974434634
20
-8.85944584576887
30
0
41
1
10
134.89641464255
20
-9.21602653108226
30
0
41
1
10
134.964134746509
20
-9.36876193613389
30
0
41
1
10
135.099574954425
20
-9.62336085116144
30
0
41
1
10
135.167295058383
20
-9.72523858381439
30
0
41
1
10
135.3027352663
20
-9.88059744990511
30
0
41
1
10
135.370455370258
20
-9.93409716011809
30
0
41
1
10
135.472035526195
20
-9.98119461801633
30
0
41
1
10
135.505895578174
20
-9.99138001793719
30
0
41
1
10
135.556685656143
20
-9.99886299407967
30
0
41
1
10
135.573615682132
20
-10.0000586766235
30
0
41
1
10
135.607475734111
20
-9.99993690331794
30
0
41
1
10
135.624405760101
20
-9.99861746840983
30
0
41
1
10
135.709055890049
20
-9.98551680945593
30
0
41
1
10
135.776775994007
20
-9.95418215031012
30
0
41
1
10
135.912216201923
20
-9.84502205469681
30
0
41
1
10
135.979936305881
20
-9.76717722352734
30
0
41
1
10
136.115376513798
20
-9.56160733332678
30
0
41
1
10
136.183096617756
20
-9.43386546764569
30
0
41
1
10
136.318536825672
20
-9.12709897488102
30
0
41
1
10
136.38625692963
20
-8.94806374514431
30
0
41
1
10
136.521697137547
20
-8.53972011090579
30
0
41
1
10
136.589417241505
20
-8.31041036471211
30
0
41
1
10
136.724857449422
20
-7.80512936714649
30
0
41
1
10
136.79257755338
20
-7.52916746903574
30
0
41
1
10
136.860297657338
20
-7.23292337372322
30
0
0
SPLINE
5
E5
100
AcDbEntity
8
1
62
256
6
ByLayer
370
13
48
1
60
0
100
AcDbSpline
70
4
71
3
72
42
73
38
40
0
40
0
40
0
40
0
40
0.0624999999999989
40
0.0624999999999989
40
0.124999999999998
40
0.124999999999998
40
0.187499999999997
40
0.187499999999997
40
0.249999999999996
40
0.249999999999996
40
0.265624999999996
40
0.265624999999996
40
0.281249999999996
40
0.281249999999996
40
0.312499999999996
40
0.312499999999996
40
0.374999999999996
40
0.374999999999996
40
0.437499999999996
40
0.437499999999996
40
0.499999999999997
40
0.499999999999997
40
0.562499999999997
40
0.562499999999997
40
0.624999999999998
40
0.624999999999998
40
0.687499999999998
40
0.687499999999998
40
0.749999999999998
40
0.749999999999998
40
0.812499999999999
40
0.812499999999999
40
0.874999999999999
40
0.874999999999999
40
0.9375
40
0.9375
40
1
40
1
40
1
40
1
41
1
10
126.4
20
-5.1329033089491
30
0
41
1
10
126.473578242922
20
-4.7388653296789
30
0
41
1
10
126.547156485844
20
-4.33195179375656
30
0
41
1
10
126.694312971689
20
-3.50519830622247
30
0
41
1
10
126.767891214611
20
-3.08539539771036
30
0
41
1
10
126.915047700455
20
-2.24518376360959
30
0
41
1
10
126.988625943377
20
-1.82480131974188
30
0
41
1
10
127.135782429222
20
-0.994194052816056
30
0
41
1
10
127.209360672144
20
-0.583982663380709
30
0
41
1
10
127.301333475797
20
-0.0829455631796634
30
0
41
1
10
127.319728036527
20
0.0162826502019584
30
0
41
1
10
127.356517157988
20
0.216174348884522
30
0
41
1
10
127.374911718719
20
0.316713677954198
30
0
41
1
10
127.43009540091
20
0.619934599061509
30
0
41
1
10
127.466884522372
20
0.824223649979473
30
0
41
1
10
127.577251886755
20
1.44193098968779
30
0
41
1
10
127.650830129677
20
1.86025332429412
30
0
41
1
10
127.797986615521
20
2.69982838958222
30
0
41
1
10
127.871564858443
20
3.12105871184622
30
0
41
1
10
128.018721344288
20
3.95454167537099
30
0
41
1
10
128.09229958721
20
4.36676012075469
30
0
41
1
10
128.239456073054
20
5.16938333677814
30
0
41
1
10
128.313034315976
20
5.55974673393217
30
0
41
1
10
128.460190801821
20
6.30605096394615
30
0
41
1
10
128.533769044743
20
6.66195080990565
30
0
41
1
10
128.680925530587
20
7.32821305803478
30
0
41
1
10
128.754503773509
20
7.63854326199913
30
0
41
1
10
128.901660259354
20
8.2051752429004
30
0
41
1
10
128.975238502276
20
8.46146005046944
30
0
41
1
10
129.12239498812
20
8.91489352154906
30
0
41
1
10
129.195973231043
20
9.11204278401578
30
0
41
1
10
129.343129716887
20
9.44573088920023
30
0
41
1
10
129.416707959809
20
9.58228570299434
30
0
41
1
10
129.563864445653
20
9.79668307642086
30
0
41
1
10
129.637442688575
20
9.87455156884184
30
0
41
1
10
129.78459917442
20
9.9761952932767
30
0
41
1
10
129.858177417342
20
10
30
0
41
1
10
129.931755660264
20
10
30
0
0
SPLINE
5
E6
100
AcDbEntity
8
1
62
256
6
ByLayer
370
13
48
1
60
0
100
AcDbSpline
70
4
71
3
72
80
73
76
40
0
40
0
40
0
40
0
40
0.0312499999999979
40
0.0312499999999979
40
0.0624999999999957
40
0.0624999999999957
40
0.0937499999999936
40
0.0937499999999936
40
0.124999999999991
40
0.124999999999991
40
0.156249999999989
40
0.156249999999989
40
0.187499999999987
40
0.187499999999987
40
0.218749999999985
40
0.218749999999985
40
0.249999999999983
40
0.249999999999983
40
0.281249999999981
40
0.281249999999981
40
0.312499999999978
40
0.312499999999978
40
0.343749999999976
40
0.343749999999976
40
0.359374999999975
40
0.359374999999975
40
0.367187499999974
40
0.371093749999974
40
0.371093749999974
40
0.374999999999974
40
0.374999999999974
40
0.406249999999975
40
0.406249999999975
40
0.437499999999976
40
0.437499999999976
40
0.468749999999977
40
0.468749999999977
40
0.499999999999978
40
0.499999999999978
40
0.531249999999979
40
0.531249999999979
40
0.56249999999998
40
0.56249999999998
40
0.593749999999981
40
0.593749999999981
40
0.624999999999982
40
0.624999999999982
40
0.656249999999983
40
0.656249999999983
40
0.687499999999984
40
0.687499999999984
40
0.718749999999985
40
0.718749999999985
40
0.734374999999986
40
0.734374999999986
40
0.742187499999986
40
0.746093749999986
40
0.746093749999986
40
0.749999999999986
40
0.749999999999986
40
0.781249999999988
40
0.781249999999988
40
0.812499999999989
40
0.812499999999989
40
0.843749999999991
40
0.843749999999991
40
0.874999999999993
40
0.874999999999993
40
0.906249999999995
40
0.906249999999995
40
0.937499999999996
40
0.937499999999996
40
0.968749999999998
40
0.968749999999998
40
1
40
1
40
1
40
1
41
1
10
129.864271783059
20
10
30
0
41
1
10
129.937147052583
20
10
30
0
41
1
10
130.010022322107
20
9.97664915190026
30
0
41
1
10
130.155772861154
20
9.87699629345641
30
0
41
1
10
130.228648130678
20
9.80066618041587
30
0
41
1
10
130.374398669726
20
9.59052882019895
30
0
41
1
10
130.447273939249
20
9.45669672845347
30
0
41
1
10
130.593024478297
20
9.12962108111074
30
0
41
1
10
130.66589974782
20
8.93636194431426
30
0
41
1
10
130.811650286868
20
8.49171940204334
30
0
41
1
10
130.884525556392
20
8.24033479995464
30
0
41
1
10
131.030276095439
20
7.6842196927737
30
0
41
1
10
131.103151364963
20
7.37950457868681
30
0
41
1
10
131.24890190401
20
6.72478989748478
30
0
41
1
10
131.321777173534
20
6.37482032865046
30
0
41
1
10
131.467527712582
20
5.64024848669439
30
0
41
1
10
131.540402982105
20
5.25568497030028
30
0
41
1
10
131.686153521153
20
4.46411017835263
30
0
41
1
10
131.759028790676
20
4.05713859584185
30
0
41
1
10
131.904779329724
20
3.23325800225143
30
0
41
1
10
131.977654599248
20
2.81638239820939
30
0
41
1
10
132.123405138295
20
1.98440661598795
30
0
41
1
10
132.196280407819
20
1.56932896440739
30
0
41
1
10
132.305593312104
20
0.955590220315514
30
0
41
1
10
132.342030946866
20
0.752475299111637
30
0
41
1
10
132.396687399009
20
0.450792577160286
30
0
41
1
10
132.424015625081
20
0.300697015672739
30
0
41
1
10
132.451343851152
20
0.151853922499299
30
0
41
1
10
132.469562668533
20
0.0529173404937922
30
0
41
1
10
132.478672077223
20
0.0036951376617651
30
0
41
1
10
132.560656755438
20
-0.440504146899912
30
0
41
1
10
132.633532024961
20
-0.844959208454981
30
0
41
1
10
132.779282564009
20
-1.66502489329892
30
0
41
1
10
132.852157833532
20
-2.08062421124114
30
0
41
1
10
132.99790837258
20
-2.91279132282469
30
0
41
1
10
133.070783642104
20
-3.32933566372861
30
0
41
1
10
133.216534181151
20
-4.15160506287216
30
0
41
1
10
133.289409450675
20
-4.5572960236822
30
0
41
1
10
133.435159989722
20
-5.34534264137923
30
0
41
1
10
133.508035259246
20
-5.72765839741825
30
0
41
1
10
133.653785798294
20
-6.45684229852793
30
0
41
1
10
133.726661067817
20
-6.80367209378645
30
0
41
1
10
133.872411606865
20
-7.45137945316344
30
0
41
1
10
133.945286876389
20
-7.75222797906682
30
0
41
1
10
134.091037415436
20
-8.30011596800492
30
0
41
1
10
134.16391268496
20
-8.54714130567143
30
0
41
1
10
134.309663224007
20
-8.98283990747797
30
0
41
1
10
134.382538493531
20
-9.17151560503891
30
0
41
1
10
134.528289032578
20
-9.48946333946813
30
0
41
1
10
134.601164302102
20
-9.61875187905682
30
0
41
1
10
134.74691484115
20
-9.82006794157553
30
0
41
1
10
134.819790110673
20
-9.89212077194998
30
0
41
1
10
134.929103014959
20
-9.96076995004259
30
0
41
1
10
134.965540649721
20
-9.97709868567949
30
0
41
1
10
135.020197101864
20
-9.99232449076848
30
0
41
1
10
135.047525327935
20
-9.99762169966044
30
0
41
1
10
135.074853554006
20
-9.99956012701622
30
0
41
1
10
135.093072371387
20
-10.0001192870299
30
0
41
1
10
135.102181780078
20
-10.0000342305091
30
0
41
1
10
135.184166458292
20
-9.99596632780256
30
0
41
1
10
135.257041727816
20
-9.96873420460636
30
0
41
1
10
135.402792266863
20
-9.86089539252441
30
0
41
1
10
135.475667536387
20
-9.78026065107096
30
0
41
1
10
135.621418075435
20
-9.56126282516891
30
0
41
1
10
135.694293344958
20
-9.42287539571527
30
0
41
1
10
135.840043884006
20
-9.08666762894211
30
0
41
1
10
135.912919153529
20
-8.88883266351587
30
0
41
1
10
136.058669692577
20
-8.43528243405419
30
0
41
1
10
136.131544962101
20
-8.1795672240147
30
0
41
1
10
136.277295501148
20
-7.61530210923479
30
0
41
1
10
136.350170770672
20
-7.30676884919066
30
0
41
1
10
136.495921309719
20
-6.64515934123034
30
0
41
1
10
136.568796579243
20
-6.29211401583149
30
0
41
1
10
136.71454711829
20
-5.55229147252365
30
0
41
1
10
136.787422387814
20
-5.16555337032054
30
0
41
1
10
136.860297657338
20
-4.76807600771991
30
0
0
SPLINE
5
E7
100
AcDbEntity
8
1
62
256
6
ByLayer
370
13
48
1
60
0
100
AcDbSpline
70
4
71
3
72
41
73
37
40
0
40
0
40
0
40
0
40
0.0625000000000046
40
0.0625000000000046
40
0.125000000000009
40
0.125000000000009
40
0.14062500000001
40
0.14062500000001
40
0.15625000000001
40
0.18750000000001
40
0.18750000000001
40
0.250000000000009
40
0.250000000000009
40
0.312500000000009
40
0.312500000000009
40
0.375000000000008
40
0.375000000000008
40
0.437500000000007
40
0.437500000000007
40
0.500000000000006
40
0.500000000000006
40
0.562500000000006
40
0.562500000000006
40
0.625000000000005
40
0.625000000000005
40
0.687500000000004
40
0.687500000000004
40
0.750000000000004
40
0.750000000000004
40
0.812500000000003
40
0.812500000000003
40
0.875000000000002
40
0.875000000000002
40
0.937500000000001
40
0.937500000000001
40
1
40
1
40
1
40
1
41
1
10
126.4
20
-2.36026292281753
30
0
41
1
10
126.463267911791
20
-1.99916725562878
30
0
41
1
10
126.526535823582
20
-1.63887500826766
30
0
41
1
10
126.653071647164
20
-0.926496280917206
30
0
41
1
10
126.716339558955
20
-0.57441550018217
30
0
41
1
10
126.795424448694
20
-0.14283051715168
30
0
41
1
10
126.811241426642
20
-0.0571046014669321
30
0
41
1
10
126.842875382538
20
0.114170775565043
30
0
41
1
10
126.890326316381
20
0.372435294850618
30
0
41
1
10
126.937777250224
20
0.634434003402646
30
0
41
1
10
127.032679117911
20
1.16244322128304
30
0
41
1
10
127.095947029702
20
1.51983532715454
30
0
41
1
10
127.222482853284
20
2.23930018081106
30
0
41
1
10
127.285750765075
20
2.60136433596156
30
0
41
1
10
127.412286588657
20
3.32299338594189
30
0
41
1
10
127.475554500448
20
3.68254456458328
30
0
41
1
10
127.602090324031
20
4.39122160546756
30
0
41
1
10
127.665358235822
20
4.74032965035949
30
0
41
1
10
127.791894059404
20
5.41992631416539
30
0
41
1
10
127.855161971195
20
5.75039510228817
30
0
41
1
10
127.981697794777
20
6.38482490514266
30
0
41
1
10
128.044965706568
20
6.68876689856216
30
0
41
1
10
128.17150153015
20
7.26315476298319
30
0
41
1
10
128.234769441941
20
7.53358534684443
30
0
41
1
10
128.361305265524
20
8.03538779976822
30
0
41
1
10
128.424573177315
20
8.26675040293557
30
0
41
1
10
128.551109000897
20
8.68665632067405
30
0
41
1
10
128.614376912688
20
8.87519746745886
30
0
41
1
10
128.74091273627
20
9.20767628880085
30
0
41
1
10
128.804180648061
20
9.35161856700213
30
0
41
1
10
128.930716471643
20
9.59505275468743
30
0
41
1
10
128.993984383435
20
9.69455453925582
30
0
41
1
10
129.120520207017
20
9.8509742104369
30
0
41
1
10
129.183788118808
20
9.90790509104184
30
0
41
1
10
129.31032394239
20
9.98241103781118
30
0
41
1
10
129.373591854181
20
10
30
0
41
1
10
129.436859765972
20
10
30
0
0
SPLINE
5
E8
100
AcDbEntity
8
1
62
256
6
ByLayer
370
13
48
1
60
0
100
AcDbSpline
70
4
71
3
72
81
73
77
40
0
40
0
40
0
40
0
40
0.0312499999999997
40
0.0312499999999997
40
0.0624999999999994
40
0.0624999999999994
40
0.0937499999999991
40
0.0937499999999991
40
0.124999999999999
40
0.124999999999999
40
0.156249999999999
40
0.156249999999999
40
0.187499999999998
40
0.187499999999998
40
0.218749999999998
40
0.218749999999998
40
0.249999999999997
40
0.249999999999997
40
0.281249999999997
40
0.281249999999997
40
0.312499999999997
40
0.312499999999997
40
0.343749999999996
40
0.343749999999996
40
0.347656249999997
40
0.347656249999997
40
0.351562499999997
40
0.351562499999997
40
0.359374999999996
40
0.359374999999996
40
0.374999999999996
40
0.374999999999996
40
0.406249999999995
40
0.406249999999995
40
0.437499999999993
40
0.437499999999993
40
0.468749999999992
40
0.468749999999992
40
0.499999999999991
40
0.499999999999991
40
0.53124999999999
40
0.53124999999999
40
0.562499999999989
40
0.562499999999989
40
0.593749999999988
40
0.593749999999988
40
0.624999999999986
40
0.624999999999986
40
0.656249999999985
40
0.656249999999985
40
0.687499999999984
40
0.687499999999984
40
0.695312499999984
40
0.695312499999984
40
0.699218749999984
40
0.699218749999984
40
0.703124999999984
40
0.718749999999985
40
0.718749999999985
40
0.749999999999986
40
0.749999999999986
40
0.781249999999988
40
0.781249999999988
40
0.81249999999999
40
0.81249999999999
40
0.843749999999991
40
0.843749999999991
40
0.874999999999993
40
0.874999999999993
40
0.906249999999995
40
0.906249999999995
40
0.937499999999997
40
0.937499999999997
40
0.968749999999998
40
0.968749999999998
40
1
40
1
40
1
40
1
41
1
10
129.369375888767
20
10
30
0
41
1
10
129.447406323857
20
10
30
0
41
1
10
129.525436758946
20
9.97321842661486
30
0
41
1
10
129.681497629124
20
9.85848377274073
30
0
41
1
10
129.759528064214
20
9.77049125524422
30
0
41
1
10
129.915588934392
20
9.52806449397485
30
0
41
1
10
129.993619369482
20
9.37359667300566
30
0
41
1
10
130.14968023966
20
8.99649139216007
30
0
41
1
10
130.227710674749
20
8.77383584267773
30
0
41
1
10
130.383771544928
20
8.26298164419521
30
0
41
1
10
130.461801980017
20
7.97478785213309
30
0
41
1
10
130.617862850196
20
7.34006150621542
30
0
41
1
10
130.695893285285
20
6.99355848429619
30
0
41
1
10
130.851954155464
20
6.25347973485424
30
0
41
1
10
130.929984590553
20
5.85995263463783
30
0
41
1
10
131.086045460731
20
5.03995257577603
30
0
41
1
10
131.164075895821
20
4.61353614407992
30
0
41
1
10
131.320136765999
20
3.74312067030362
30
0
41
1
10
131.398167201089
20
3.29917348426494
30
0
41
1
10
131.554228071267
20
2.40862262918776
30
0
41
1
10
131.632258506356
20
1.96205665375874
30
0
41
1
10
131.788319376535
20
1.07938164128944
30
0
41
1
10
131.866349811624
20
0.643292161943066
30
0
41
1
10
131.9541340511
20
0.164441490018135
30
0
41
1
10
131.963887855486
20
0.111397180231052
30
0
41
1
10
131.983395464258
20
0.0056482535480313
30
0
41
1
10
131.993149268644
20
-0.0470328162303701
30
0
41
1
10
132.022410681803
20
-0.205920663555645
30
0
41
1
10
132.041918290575
20
-0.312516879558672
30
0
41
1
10
132.100441116892
20
-0.634107160652235
30
0
41
1
10
132.139456334437
20
-0.850908573420639
30
0
41
1
10
132.256501987071
20
-1.50663722408649
30
0
41
1
10
132.33453242216
20
-1.95096833100339
30
0
41
1
10
132.490593292338
20
-2.84178613966927
30
0
41
1
10
132.568623727428
20
-3.2882412035892
30
0
41
1
10
132.724684597606
20
-4.168901766147
30
0
41
1
10
132.802715032695
20
-4.6030594430361
30
0
41
1
10
132.958775902874
20
-5.44374890196485
30
0
41
1
10
133.036806337963
20
-5.85022441561458
30
0
41
1
10
133.192867208142
20
-6.62079891532173
30
0
41
1
10
133.270897643231
20
-6.98484513767241
30
0
41
1
10
133.42695851341
20
-7.65812053327522
30
0
41
1
10
133.504988948499
20
-7.96731265842814
30
0
41
1
10
133.661049818678
20
-8.52214190111482
30
0
41
1
10
133.739080253767
20
-8.76776554375377
30
0
41
1
10
133.895141123945
20
-9.19120471867245
30
0
41
1
10
133.973171559035
20
-9.36903109992681
30
0
41
1
10
134.129232429213
20
-9.65714270877126
30
0
41
1
10
134.207262864302
20
-9.76745726775101
30
0
41
1
10
134.363323734481
20
-9.92470184692951
30
0
41
1
10
134.44135416957
20
-9.97167036061634
30
0
41
1
10
134.538892213432
20
-9.99513522089447
30
0
41
1
10
134.558399822204
20
-9.9980711549218
30
0
41
1
10
134.587661235363
20
-9.99993447250134
30
0
41
1
10
134.597415039749
20
-10.0001330217031
30
0
41
1
10
134.616922648521
20
-9.99969579564345
30
0
41
1
10
134.665691670452
20
-9.99650623759425
30
0
41
1
10
134.714460692383
20
-9.98262082862843
30
0
41
1
10
134.831506345017
20
-9.92729798187651
30
0
41
1
10
134.909536780106
20
-9.86100043572395
30
0
41
1
10
135.065597650285
20
-9.66342228737321
30
0
41
1
10
135.143628085374
20
-9.53210502193699
30
0
41
1
10
135.299688955553
20
-9.20143318463349
30
0
41
1
10
135.377719390642
20
-9.00205419008634
30
0
41
1
10
135.53378026082
20
-8.53633510021857
30
0
41
1
10
135.611810695909
20
-8.26999146175484
30
0
41
1
10
135.767871566088
20
-7.67599999657386
30
0
41
1
10
135.845902001177
20
-7.34837351622559
30
0
41
1
10
136.001962871356
20
-6.64179627168829
30
0
41
1
10
136.079993306445
20
-6.26288864671398
30
0
41
1
10
136.236054176624
20
-5.46706540520395
30
0
41
1
10
136.314084611713
20
-5.05020505971473
30
0
41
1
10
136.470145481892
20
-4.19361038734374
30
0
41
1
10
136.548175916981
20
-3.75393081662639
30
0
41
1
10
136.704236787159
20
-2.86694936445812
30
0
41
1
10
136.782267222249
20
-2.41969077004768
30
0
41
1
10
136.860297657338
20
-1.97555088399972
30
0
0
SPLINE
5
E9
100
AcDbEntity
8
1
62
256
6
ByLayer
370
13
48
1
60
0
100
AcDbSpline
70
4
71
3
72
34
73
30
40
0
40
0
40
0
40
0
40
0.125000000000001
40
0.125000000000001
40
0.187500000000001
40
0.187500000000001
40
0.25
40
0.25
40
0.3125
40
0.3125
40
0.375
40
0.375
40
0.4375
40
0.4375
40
0.5
40
0.5
40
0.5625
40
0.5625
40
0.625
40
0.625
40
0.6875
40
0.6875
40
0.75
40
0.75
40
0.8125
40
0.8125
40
0.874999999999999
40
0.874999999999999
40
1
40
1
40
1
40
1
41
1
10
126.4
20
0.398482557978411
30
0
41
1
10
126.50591516132
20
0.980067603213769
30
0
41
1
10
126.61183032264
20
1.57988278294579
30
0
41
1
10
126.77070306462
20
2.48577732947135
30
0
41
1
10
126.82366064528
20
2.78869401446121
30
0
41
1
10
126.9295758066
20
3.39212390274122
30
0
41
1
10
126.98253338726
20
3.69263123281124
30
0
41
1
10
127.08844854858
20
4.28658528876457
30
0
41
1
10
127.14140612924
20
4.58002474120391
30
0
41
1
10
127.24732129056
20
5.15504300008669
30
0
41
1
10
127.30027887122
20
5.4366137250926
30
0
41
1
10
127.40619403254
20
5.98318444098601
30
0
41
1
10
127.4591516132
20
6.24817633069284
30
0
41
1
10
127.56506677452
20
6.75721520230121
30
0
41
1
10
127.61802435518
20
7.00125492782945
30
0
41
1
10
127.7239395165
20
7.46458495577156
30
0
41
1
10
127.77689709716
20
7.6838696365314
30
0
41
1
10
127.88281225848
20
8.09465082703264
30
0
41
1
10
127.93576983914
20
8.28614392126491
30
0
41
1
10
128.04168500046
20
8.6392064790216
30
0
41
1
10
128.09464258112
20
8.80077498826938
30
0
41
1
10
128.20055774244
20
9.09282241831144
30
0
41
1
10
128.2535153231
20
9.22330275800107
30
0
41
1
10
128.35943048442
20
9.452969763336
30
0
41
1
10
128.41238806508
20
9.55215983640022
30
0
41
1
10
128.5183032264
20
9.71992995739788
30
0
41
1
10
128.57126080706
20
9.78851482041259
30
0
41
1
10
128.73013354904
20
9.95052284419344
30
0
41
1
10
128.83604871036
20
10
30
0
41
1
10
128.94196387168
20
10
30
0
0
SPLINE
5
EA
100
AcDbEntity
8
1
62
256
6
ByLayer
370
13
48
1
60
0
100
AcDbSpline
70
4
71
3
72
84
73
80
40
0
40
0
40
0
40
0
40
0.0312500000000015
40
0.0312500000000015
40
0.062500000000003
40
0.062500000000003
40
0.0937500000000045
40
0.0937500000000045
40
0.125000000000006
40
0.125000000000006
40
0.156250000000007
40
0.156250000000007
40
0.187500000000009
40
0.187500000000009
40
0.21875000000001
40
0.21875000000001
40
0.250000000000012
40
0.250000000000012
40
0.281250000000013
40
0.281250000000013
40
0.312500000000015
40
0.312500000000015
40
0.320312500000015
40
0.320312500000015
40
0.328125000000015
40
0.328125000000015
40
0.343750000000016
40
0.343750000000016
40
0.375000000000016
40
0.375000000000016
40
0.406250000000017
40
0.406250000000017
40
0.437500000000018
40
0.437500000000018
40
0.468750000000019
40
0.468750000000019
40
0.50000000000002
40
0.50000000000002
40
0.53125000000002
40
0.53125000000002
40
0.562500000000021
40
0.562500000000021
40
0.593750000000022
40
0.593750000000022
40
0.625000000000023
40
0.625000000000023
40
0.640625000000023
40
0.640625000000023
40
0.648437500000024
40
0.652343750000023
40
0.652343750000023
40
0.656250000000023
40
0.656250000000023
40
0.687500000000021
40
0.687500000000021
40
0.718750000000019
40
0.718750000000019
40
0.750000000000017
40
0.750000000000017
40
0.781250000000015
40
0.781250000000015
40
0.812500000000013
40
0.812500000000013
40
0.843750000000011
40
0.843750000000011
40
0.875000000000009
40
0.875000000000009
40
0.906250000000008
40
0.906250000000008
40
0.937500000000006
40
0.937500000000006
40
0.968750000000004
40
0.968750000000004
40
0.976562500000003
40
0.980468750000003
40
0.980468750000003
40
0.984375000000002
40
0.984375000000002
40
1
40
1
40
1
40
1
41
1
10
128.874479994475
20
10
30
0
41
1
10
128.95766559513
20
10
30
0
41
1
10
129.040851195785
20
9.96955011470672
30
0
41
1
10
129.207222397094
20
9.83861111913629
30
0
41
1
10
129.290407997749
20
9.73806792299862
30
0
41
1
10
129.456779199059
20
9.46091632398276
30
0
41
1
10
129.539964799714
20
9.28426384333474
30
0
41
1
10
129.706336001023
20
8.85361084240819
30
0
41
1
10
129.789521601678
20
8.59959111040774
30
0
41
1
10
129.955892802988
20
8.01866962134437
30
0
41
1
10
130.039078403643
20
7.69178370603538
30
0
41
1
10
130.205449604952
20
6.97542672525606
30
0
41
1
10
130.288635205607
20
6.58600625828186
30
0
41
1
10
130.455006406917
20
5.75969809717773
30
0
41
1
10
130.538192007571
20
5.32288365903543
30
0
41
1
10
130.704563208881
20
4.41981171683241
30
0
41
1
10
130.787748809536
20
3.95363098307863
30
0
41
1
10
130.954120010846
20
3.01042928481627
30
0
41
1
10
131.037305611501
20
2.53347053516862
30
0
41
1
10
131.20367681281
20
1.58574428937919
30
0
41
1
10
131.286862413465
20
1.11501399137023
30
0
41
1
10
131.390844414283
20
0.539181392360064
30
0
41
1
10
131.411640814447
20
0.424635121680382
30
0
41
1
10
131.453233614775
20
0.196963579734728
30
0
41
1
10
131.474030014938
20
0.0840702727959126
30
0
41
1
10
131.536419215429
20
-0.253722805984012
30
0
41
1
10
131.578012015757
20
-0.482044770655193
30
0
41
1
10
131.702790416739
20
-1.17428433611966
30
0
41
1
10
131.785976017394
20
-1.64558459675521
30
0
41
1
10
131.952347218703
20
-2.59378807160204
30
0
41
1
10
132.035532819358
20
-3.07065294715443
30
0
41
1
10
132.201904020668
20
-4.01290107584313
30
0
41
1
10
132.285089621323
20
-4.47822122045676
30
0
41
1
10
132.451460822632
20
-5.37878269787456
30
0
41
1
10
132.534646423287
20
-5.81394700773711
30
0
41
1
10
132.701017624597
20
-6.63624046084337
30
0
41
1
10
132.784203225252
20
-7.02329694102022
30
0
41
1
10
132.950574426561
20
-7.73438002531029
30
0
41
1
10
133.033760027216
20
-8.05835732912973
30
0
41
1
10
133.200131228526
20
-8.63314862832652
30
0
41
1
10
133.283316829181
20
-8.88394834388669
30
0
41
1
10
133.44968803049
20
-9.30810092122613
30
0
41
1
10
133.532873631145
20
-9.48147430791832
30
0
41
1
10
133.699244832455
20
-9.75223448532782
30
0
41
1
10
133.78243043311
20
-9.84966608533551
30
0
41
1
10
133.907208834092
20
-9.94345553582929
30
0
41
1
10
133.948801634419
20
-9.96602459590474
30
0
41
1
10
134.01119083491
20
-9.98764657783508
30
0
41
1
10
134.042385435156
20
-9.99540173693745
30
0
41
1
10
134.073580035401
20
-9.9987412107636
30
0
41
1
10
134.094376435565
20
-10.0000058661578
30
0
41
1
10
134.104774635647
20
-10.0001588249829
30
0
41
1
10
134.198358436384
20
-9.99726280897221
30
0
41
1
10
134.281544037038
20
-9.96402147743692
30
0
41
1
10
134.447915238348
20
-9.82716833775774
30
0
41
1
10
134.531100839003
20
-9.72350256970373
30
0
41
1
10
134.697472040313
20
-9.43994614283926
30
0
41
1
10
134.780657640967
20
-9.26001216529986
30
0
41
1
10
134.947028842277
20
-8.82286433945117
30
0
41
1
10
135.030214442932
20
-8.56563261175367
30
0
41
1
10
135.196585644242
20
-7.97860755300641
30
0
41
1
10
135.279771244896
20
-7.64883162535247
30
0
41
1
10
135.446142446206
20
-6.92724669364688
30
0
41
1
10
135.529328046861
20
-6.53548956392632
30
0
41
1
10
135.69569924817
20
-5.70522659431549
30
0
41
1
10
135.778884848825
20
-5.26679456784137
30
0
41
1
10
135.945256050135
20
-4.36127824421507
30
0
41
1
10
136.02844165079
20
-3.89427043143792
30
0
41
1
10
136.194812852099
20
-2.95017927965876
30
0
41
1
10
136.277998452754
20
-2.47315724293301
30
0
41
1
10
136.444369654064
20
-1.52596375191033
30
0
41
1
10
136.527555254719
20
-1.05582835373013
30
0
41
1
10
136.631537255537
20
-0.48105630673706
30
0
41
1
10
136.662731855783
20
-0.309578736926625
30
0
41
1
10
136.693926456028
20
-0.139732320749204
30
0
41
1
10
136.714722856192
20
-0.0268843176151847
30
0
41
1
10
136.725121056274
20
0.0292527391520991
30
0
41
1
10
136.777112056683
20
0.311399592069591
30
0
41
1
10
136.818704857011
20
0.540188994592967
30
0
41
1
10
136.860297657338
20
0.771338116591409
30
0
0
SPLINE
5
EB
100
AcDbEntity
8
1
62
256
6
ByLayer
370
13
48
1
60
0
100
AcDbSpline
70
4
71
3
72
22
73
18
40
0
40
0
40
0
40
0
40
0.125
40
0.125
40
0.25
40
0.25
40
0.375
40
0.375
40
0.5
40
0.5
40
0.625
40
0.625
40
0.75
40
0.75
40
0.875
40
0.875
40
1
40
1
40
1
40
1
41
1
10
126.4
20
3.19449039559583
30
0
41
1
10
126.485294499058
20
3.67993852355696
30
0
41
1
10
126.570588998116
20
4.16160432406485
30
0
41
1
10
126.741177996231
20
5.09764164136178
30
0
41
1
10
126.826472495289
20
5.55192780842893
30
0
41
1
10
126.997061493405
20
6.41349264154655
30
0
41
1
10
127.082355992463
20
6.82068625474423
30
0
41
1
10
127.252944990578
20
7.5711420221495
30
0
41
1
10
127.338239489636
20
7.91434261061366
30
0
41
1
10
127.508828487752
20
8.52496450134862
30
0
41
1
10
127.59412298681
20
8.79236360810503
30
0
41
1
10
127.764711984925
20
9.24591728005745
30
0
41
1
10
127.850006483983
20
9.43209085758616
30
0
41
1
10
128.020595482099
20
9.72415131239379
30
0
41
1
10
128.105889981157
20
9.83008706651736
30
0
41
1
10
128.276478979272
20
9.96798082134117
30
0
41
1
10
128.36177347833
20
10
30
0
41
1
10
128.447067977388
20
10
30
0
0
SPLINE
5
EC
100
AcDbEntity
8
1
62
256
6
ByLayer
370
13
48
1
60
0
100
AcDbSpline
70
4
71
3
72
82
73
78
40
0
40
0
40
0
40
0
40
0.0312499999999995
40
0.0312499999999995
40
0.0624999999999991
40
0.0624999999999991
40
0.0937499999999986
40
0.0937499999999986
40
0.124999999999998
40
0.124999999999998
40
0.156249999999998
40
0.156249999999998
40
0.187499999999997
40
0.187499999999997
40
0.218749999999997
40
0.218749999999997
40
0.249999999999996
40
0.249999999999996
40
0.281249999999996
40
0.281249999999996
40
0.296874999999996
40
0.296874999999996
40
0.304687499999995
40
0.304687499999995
40
0.312499999999995
40
0.312499999999995
40
0.343749999999995
40
0.343749999999995
40
0.374999999999994
40
0.374999999999994
40
0.406249999999994
40
0.406249999999994
40
0.437499999999993
40
0.437499999999993
40
0.468749999999993
40
0.468749999999993
40
0.499999999999992
40
0.499999999999992
40
0.531249999999991
40
0.531249999999991
40
0.562499999999991
40
0.562499999999991
40
0.59374999999999
40
0.59374999999999
40
0.60937499999999
40
0.60937499999999
40
0.61718749999999
40
0.61718749999999
40
0.62499999999999
40
0.62499999999999
40
0.656249999999991
40
0.656249999999991
40
0.687499999999992
40
0.687499999999992
40
0.718749999999993
40
0.718749999999993
40
0.749999999999993
40
0.749999999999993
40
0.781249999999994
40
0.781249999999994
40
0.812499999999995
40
0.812499999999995
40
0.843749999999995
40
0.843749999999995
40
0.874999999999996
40
0.874999999999996
40
0.906249999999997
40
0.906249999999997
40
0.921874999999997
40
0.921874999999997
40
0.929687499999998
40
0.929687499999998
40
0.937499999999998
40
0.937499999999998
40
0.968749999999999
40
0.968749999999999
40
1
40
1
40
1
40
1
41
1
10
128.379584100183
20
10
30
0
41
1
10
128.467924866404
20
10
30
0
41
1
10
128.556265632624
20
9.9656434833453
30
0
41
1
10
128.732947165065
20
9.81736782564079
30
0
41
1
10
128.821287931285
20
9.70337600441508
30
0
41
1
10
128.997969463726
20
9.38905828107517
30
0
41
1
10
129.086310229946
20
9.1886760801068
30
0
41
1
10
129.262991762387
20
8.70104161382517
30
0
41
1
10
129.351332528607
20
8.41377157417139
30
0
41
1
10
129.528014061048
20
7.7592543093144
30
0
41
1
10
129.616354827268
20
7.39204078160933
30
0
41
1
10
129.793036359709
20
6.59175484052204
30
0
41
1
10
129.881377125929
20
6.1587625111799
30
0
41
1
10
130.05805865837
20
5.24651671890507
30
0
41
1
10
130.14639942459
20
4.76736698953633
30
0
41
1
10
130.323080957031
20
3.78502508157214
30
0
41
1
10
130.411421723251
20
3.28193047412759
30
0
41
1
10
130.588103255692
20
2.27340368218157
30
0
41
1
10
130.676444021912
20
1.76803968407549
30
0
41
1
10
130.808955171243
20
1.0222102010718
30
0
41
1
10
130.853125554353
20
0.775606076509575
30
0
41
1
10
130.919381129019
20
0.410133955030233
30
0
41
1
10
130.941466320574
20
0.289046610028038
30
0
41
1
10
130.985636703684
20
0.0485545318717584
30
0
41
1
10
131.007721895239
20
-0.0704666379768355
30
0
41
1
10
131.118147853014
20
-0.672207678479737
30
0
41
1
10
131.206488619235
20
-1.16715034095552
30
0
41
1
10
131.383170151675
20
-2.16886936702048
30
0
41
1
10
131.471510917896
20
-2.67560554885668
30
0
41
1
10
131.648192450336
20
-3.68134942680899
30
0
41
1
10
131.736533216557
20
-4.18027964590215
30
0
41
1
10
131.913214748998
20
-5.14833341260078
30
0
41
1
10
132.001555515218
20
-5.61735500813842
30
0
41
1
10
132.178237047659
20
-6.50375407223467
30
0
41
1
10
132.266577813879
20
-6.9210312102534
30
0
41
1
10
132.44325934632
20
-7.68548944275588
30
0
41
1
10
132.53160011254
20
-8.03260114606866
30
0
41
1
10
132.708281644981
20
-8.6443175922775
30
0
41
1
10
132.796622411201
20
-8.90890262300624
30
0
41
1
10
132.973303943642
20
-9.35058890106311
30
0
41
1
10
133.061644709862
20
-9.52771998571853
30
0
41
1
10
133.238326242303
20
-9.79678467929105
30
0
41
1
10
133.326667008523
20
-9.88878119585158
30
0
41
1
10
133.459178157854
20
-9.96894036328422
30
0
41
1
10
133.503348540964
20
-9.98605961756223
30
0
41
1
10
133.569604115629
20
-9.99836325780709
30
0
41
1
10
133.591689307185
20
-10.0002374908684
30
0
41
1
10
133.635859690295
20
-9.99971469515918
30
0
41
1
10
133.65794488185
20
-9.99730740788308
30
0
41
1
10
133.768370839625
20
-9.97407732734607
30
0
41
1
10
133.856711605846
20
-9.91953441759563
30
0
41
1
10
134.033393138286
20
-9.72858813997297
30
0
41
1
10
134.121733904507
20
-9.59211420763879
30
0
41
1
10
134.298415436947
20
-9.23201312329508
30
0
41
1
10
134.386756203168
20
-9.00833790344689
30
0
41
1
10
134.563437735608
20
-8.4752020579127
30
0
41
1
10
134.651778501829
20
-8.16573668613165
30
0
41
1
10
134.82846003427
20
-7.46991518020377
30
0
41
1
10
134.91680080049
20
-7.08360637002767
30
0
41
1
10
135.093482332931
20
-6.24989770938694
30
0
41
1
10
135.181823099151
20
-5.80258697246549
30
0
41
1
10
135.358504631592
20
-4.86747392780632
30
0
41
1
10
135.446845397812
20
-4.37977657731022
30
0
41
1
10
135.623526930253
20
-3.38626801687965
30
0
41
1
10
135.711867696473
20
-2.88054831794372
30
0
41
1
10
135.888549228914
20
-1.87209440872596
30
0
41
1
10
135.976889995134
20
-1.36941848873968
30
0
41
1
10
136.109401144465
20
-0.630776619806312
30
0
41
1
10
136.153571527575
20
-0.387091315376722
30
0
41
1
10
136.21982710224
20
-0.0266619333384597
30
0
41
1
10
136.241912293796
20
0.0923981197146588
30
0
41
1
10
136.286082676906
20
0.333297379788149
30
0
41
1
10
136.308167868461
20
0.454576067293374
30
0
41
1
10
136.418593826236
20
1.06458588884911
30
0
41
1
10
136.506934592457
20
1.56434541704672
30
0
41
1
10
136.683616124897
20
2.57087495061103
30
0
41
1
10
136.771956891118
20
3.07759451355034
30
0
41
1
10
136.860297657338
20
3.57759482069406
30
0
0
SPLINE
5
ED
100
AcDbEntity
8
1
62
256
6
ByLayer
370
13
48
1
60
0
100
AcDbSpline
70
4
71
3
72
22
73
18
40
0
40
0
40
0
40
0
40
0.125
40
0.125
40
0.25
40
0.25
40
0.375
40
0.375
40
0.5
40
0.5
40
0.625
40
0.625
40
0.75
40
0.75
40
0.875
40
0.875
40
1
40
1
40
1
40
1
41
1
10
126.4
20
5.8971993250417
30
0
41
1
10
126.464673836796
20
6.22614855713735
30
0
41
1
10
126.529347673591
20
6.54193284426887
30
0
41
1
10
126.658695347183
20
7.13954652265423
30
0
41
1
10
126.723369183978
20
7.42135801388525
30
0
41
1
10
126.85271685757
20
7.94483384891902
30
0
41
1
10
126.917390694365
20
8.18648685423761
30
0
41
1
10
127.046738367957
20
8.62537807053511
30
0
41
1
10
127.111412204752
20
8.82261297116747
30
0
41
1
10
127.240759878344
20
9.17054883138991
30
0
41
1
10
127.305433715139
20
9.32125430608627
30
0
41
1
10
127.434781388731
20
9.57614023993381
30
0
41
1
10
127.499455225526
20
9.68033139409323
30
0
41
1
10
127.628802899118
20
9.8440900046952
30
0
41
1
10
127.693476735913
20
9.90367185854655
30
0
41
1
10
127.822824409505
20
9.98161910232139
30
0
41
1
10
127.8874982463
20
10
30
0
41
1
10
127.952172083096
20
10
30
0
0
SPLINE
5
EE
100
AcDbEntity
8
1
62
256
6
ByLayer
370
13
48
1
60
0
100
AcDbSpline
70
4
71
3
72
87
73
83
40
0
40
0
40
0
40
0
40
0.0312500000000004
40
0.0312500000000004
40
0.0625000000000007
40
0.0625000000000007
40
0.0937500000000011
40
0.0937500000000011
40
0.125000000000001
40
0.125000000000001
40
0.156250000000002
40
0.156250000000002
40
0.187500000000002
40
0.187500000000002
40
0.218750000000003
40
0.218750000000003
40
0.250000000000003
40
0.250000000000003
40
0.281250000000003
40
0.281250000000003
40
0.289062500000004
40
0.289062500000004
40
0.292968750000003
40
0.292968750000003
40
0.296875000000003
40
0.296875000000003
40
0.312500000000003
40
0.312500000000003
40
0.343750000000003
40
0.343750000000003
40
0.375000000000003
40
0.375000000000003
40
0.406250000000003
40
0.406250000000003
40
0.437500000000002
40
0.437500000000002
40
0.468750000000002
40
0.468750000000002
40
0.500000000000002
40
0.500000000000002
40
0.531250000000002
40
0.531250000000002
40
0.562500000000002
40
0.562500000000002
40
0.578125000000002
40
0.578125000000002
40
0.582031250000002
40
0.582031250000002
40
0.585937500000002
40
0.585937500000002
40
0.593750000000001
40
0.593750000000001
40
0.625000000000001
40
0.625000000000001
40
0.65625
40
0.65625
40
0.6875
40
0.6875
40
0.718749999999999
40
0.718749999999999
40
0.749999999999999
40
0.749999999999999
40
0.781249999999998
40
0.781249999999998
40
0.812499999999998
40
0.812499999999998
40
0.843749999999997
40
0.843749999999997
40
0.859374999999997
40
0.859374999999997
40
0.867187499999997
40
0.871093749999997
40
0.871093749999997
40
0.874999999999997
40
0.874999999999997
40
0.906249999999998
40
0.906249999999998
40
0.937499999999999
40
0.937499999999999
40
0.968749999999999
40
0.968749999999999
40
1
40
1
40
1
40
1
41
1
10
127.884688205891
20
10
30
0
41
1
10
127.978184137677
20
10
30
0
41
1
10
128.071680069463
20
9.96149772789144
30
0
41
1
10
128.258671933035
20
9.7947437426233
30
0
41
1
10
128.352167864821
20
9.66639612615376
30
0
41
1
10
128.539159728392
20
9.31247026601201
30
0
41
1
10
128.632655660178
20
9.08682198590316
30
0
41
1
10
128.81964752375
20
8.53887639133688
30
0
41
1
10
128.913143455536
20
8.21656685652198
30
0
41
1
10
129.100135319108
20
7.48529282540991
30
0
41
1
10
129.193631250894
20
7.07638896498918
30
0
41
1
10
129.380623114465
20
6.19063926171856
30
0
41
1
10
129.474119046251
20
5.71391260720281
30
0
41
1
10
129.661110909823
20
4.71716675592762
30
0
41
1
10
129.754606841609
20
4.1972866160223
30
0
41
1
10
129.941598705181
20
3.14078145738554
30
0
41
1
10
130.035094636967
20
2.60427266229323
30
0
41
1
10
130.222086500539
20
1.53896943113017
30
0
41
1
10
130.315582432325
20
1.01024210216957
30
0
41
1
10
130.432452347057
20
0.366367320322553
30
0
41
1
10
130.455826330003
20
0.238429954683312
30
0
41
1
10
130.490887304423
20
0.0479640921821556
30
0
41
1
10
130.502574295896
20
-0.0151288279462847
30
0
41
1
10
130.525948278843
20
-0.141939325959186
30
0
41
1
10
130.537635270316
20
-0.205586924490859
30
0
41
1
10
130.596070227682
20
-0.524962620677883
30
0
41
1
10
130.642818193575
20
-0.784118710026036
30
0
41
1
10
130.783062091254
20
-1.56935066460753
30
0
41
1
10
130.87655802304
20
-2.10334991324203
30
0
41
1
10
131.063549886612
20
-3.17104021170593
30
0
41
1
10
131.157045818398
20
-3.70464530061034
30
0
41
1
10
131.344037681969
20
-4.74603504494988
30
0
41
1
10
131.437533613755
20
-5.25369124327528
30
0
41
1
10
131.624525477327
20
-6.21683736039307
30
0
41
1
10
131.718021409113
20
-6.67219005827508
30
0
41
1
10
131.905013272685
20
-7.50768456010164
30
0
41
1
10
131.998509204471
20
-7.88772437566558
30
0
41
1
10
132.185501068043
20
-8.55660728926691
30
0
41
1
10
132.278996999829
20
-8.84541547349255
30
0
41
1
10
132.4659888634
20
-9.32506229979882
30
0
41
1
10
132.559484795186
20
-9.51593657132372
30
0
41
1
10
132.746476658758
20
-9.8021289458768
30
0
41
1
10
132.839972590544
20
-9.89753017188318
30
0
41
1
10
132.980216488223
20
-9.97624793077114
30
0
41
1
10
133.026964454116
20
-9.99180485449128
30
0
41
1
10
133.085399411482
20
-9.99892916860247
30
0
41
1
10
133.097086402955
20
-9.99973848877224
30
0
41
1
10
133.120460385902
20
-10.0001538355402
30
0
41
1
10
133.132147377375
20
-9.9997632034565
30
0
41
1
10
133.167208351795
20
-9.99676108007435
30
0
41
1
10
133.190582334741
20
-9.992316167328
30
0
41
1
10
133.307452249474
20
-9.95733535435832
30
0
41
1
10
133.40094818126
20
-9.88834150898981
30
0
41
1
10
133.587940044831
20
-9.65718821050456
30
0
41
1
10
133.681435976617
20
-9.49493807273578
30
0
41
1
10
133.868427840189
20
-9.07238511806634
30
0
41
1
10
133.961923771975
20
-8.81202952219579
30
0
41
1
10
134.148915635547
20
-8.19711350607457
30
0
41
1
10
134.242411567333
20
-7.84256628309214
30
0
41
1
10
134.429403430905
20
-7.05253744484165
30
0
41
1
10
134.52289936269
20
-6.61714035372268
30
0
41
1
10
134.709891226262
20
-5.68663046903109
30
0
41
1
10
134.803387158048
20
-5.1916490257718
30
0
41
1
10
134.99037902162
20
-4.16777806255459
30
0
41
1
10
135.083874953406
20
-3.63902389832492
30
0
41
1
10
135.270866816978
20
-2.57383095426613
30
0
41
1
10
135.364362748764
20
-2.03749281906997
30
0
41
1
10
135.504606646442
20
-1.24444499194951
30
0
41
1
10
135.551354612335
20
-0.981970665631138
30
0
41
1
10
135.621476561175
20
-0.592837037576174
30
0
41
1
10
135.656537535595
20
-0.399410431131457
30
0
41
1
10
135.691598510014
20
-0.207985501397417
30
0
41
1
10
135.714972492961
20
-0.0808432582210514
30
0
41
1
10
135.726659484434
20
-0.0176620924026452
30
0
41
1
10
135.831842407693
20
0.552227033021182
30
0
41
1
10
135.925338339479
20
1.07471255808394
30
0
41
1
10
136.112330203051
20
2.1338257777727
30
0
41
1
10
136.205826134837
20
2.67040226383835
30
0
41
1
10
136.392817998409
20
3.73456143939313
30
0
41
1
10
136.486313930194
20
4.26204064300879
30
0
41
1
10
136.673305793766
20
5.28175800414724
30
0
41
1
10
136.766801725552
20
5.77385980416346
30
0
41
1
10
136.860297657338
20
6.23551037423499
30
0
0
SPLINE
5
EF
100
AcDbEntity
8
1
62
256
6
ByLayer
370
13
48
1
60
0
100
AcDbSpline
70
4
71
3
72
14
73
10
40
0
40
0
40
0
40
0
40
0.25
40
0.25
40
0.5
40
0.5
40
0.75
40
0.75
40
1
40
1
40
1
40
1
41
1
10
126.4
20
8.09692031363909
30
0
41
1
10
126.488106349067
20
8.42246990111599
30
0
41
1
10
126.576212698134
20
8.7081883545703
30
0
41
1
10
126.752425396268
20
9.19315862209791
30
0
41
1
10
126.840531745335
20
9.39242835192564
30
0
41
1
10
127.016744443469
20
9.70500303566502
30
0
41
1
10
127.104850792536
20
9.81836369758099
30
0
41
1
10
127.28106349067
20
9.96582630997676
30
0
41
1
10
127.369169839737
20
10
30
0
41
1
10
127.457276188804
20
10
30
0
0
SPLINE
5
F0
100
AcDbEntity
8
1
62
256
6
ByLayer
370
13
48
1
60
0
100
AcDbSpline
70
4
71
3
72
86
73
82
40
0
40
0
40
0
40
0
40
0.031249999999999
40
0.031249999999999
40
0.062499999999998
40
0.062499999999998
40
0.0937499999999969
40
0.0937499999999969
40
0.124999999999996
40
0.124999999999996
40
0.156249999999995
40
0.156249999999995
40
0.187499999999994
40
0.187499999999994
40
0.218749999999993
40
0.218749999999993
40
0.249999999999992
40
0.249999999999992
40
0.265624999999991
40
0.265624999999991
40
0.273437499999991
40
0.273437499999991
40
0.277343749999991
40
0.277343749999991
40
0.281249999999991
40
0.281249999999991
40
0.312499999999993
40
0.312499999999993
40
0.343749999999995
40
0.343749999999995
40
0.374999999999997
40
0.374999999999997
40
0.406249999999999
40
0.406249999999999
40
0.437500000000001
40
0.437500000000001
40
0.468750000000003
40
0.468750000000003
40
0.500000000000005
40
0.500000000000005
40
0.531250000000007
40
0.531250000000007
40
0.546875000000008
40
0.546875000000008
40
0.550781250000008
40
0.550781250000008
40
0.554687500000008
40
0.554687500000008
40
0.562500000000008
40
0.562500000000008
40
0.593750000000008
40
0.593750000000008
40
0.625000000000007
40
0.625000000000007
40
0.656250000000006
40
0.656250000000006
40
0.687500000000006
40
0.687500000000006
40
0.718750000000005
40
0.718750000000005
40
0.750000000000005
40
0.750000000000005
40
0.781250000000004
40
0.781250000000004
40
0.812500000000004
40
0.812500000000004
40
0.828125000000003
40
0.828125000000003
40
0.835937500000003
40
0.835937500000003
40
0.843750000000003
40
0.843750000000003
40
0.875000000000002
40
0.875000000000002
40
0.906250000000002
40
0.906250000000002
40
0.937500000000001
40
0.937500000000001
40
0.968750000000001
40
0.968750000000001
40
1
40
1
40
1
40
1
41
1
10
127.389792311599
20
10
30
0
41
1
10
127.48844340895
20
10
30
0
41
1
10
127.587094506302
20
9.95711196898361
30
0
41
1
10
127.784396701005
20
9.77072908972823
30
0
41
1
10
127.883047798356
20
9.62710975687241
30
0
41
1
10
128.080349993059
20
9.23113830317152
30
0
41
1
10
128.179001090411
20
8.97870129776416
30
0
41
1
10
128.376303285113
20
8.3672386565037
30
0
41
1
10
128.474954382465
20
8.00821244918535
30
0
41
1
10
128.672256577168
20
7.19742490489287
30
0
41
1
10
128.770907674519
20
6.74576261064416
30
0
41
1
10
128.968209869222
20
5.77380575146972
30
0
41
1
10
129.066860966574
20
5.25367976731692
30
0
41
1
10
129.264163161277
20
4.17497467253784
30
0
41
1
10
129.362814258628
20
3.61657280908602
30
0
41
1
10
129.560116453331
20
2.49213568427695
30
0
41
1
10
129.658767550682
20
1.92622987699542
30
0
41
1
10
129.806744196709
20
1.09164325220698
30
0
41
1
10
129.856069745385
20
0.815781723320271
30
0
41
1
10
129.930058068399
20
0.407498450188058
30
0
41
1
10
129.954720842737
20
0.272318614993935
30
0
41
1
10
129.991715004243
20
0.0711387312763065
30
0
41
1
10
130.004046391412
20
0.0045268939607013
30
0
41
1
10
130.02870916575
20
-0.129188306429768
30
0
41
1
10
130.041040552919
20
-0.196317092108217
30
0
41
1
10
130.15202303744
20
-0.802760729889741
30
0
41
1
10
130.250674134791
20
-1.35836870013037
30
0
41
1
10
130.447976329494
20
-2.48071618002234
30
0
41
1
10
130.546627426845
20
-3.04737468763497
30
0
41
1
10
130.743929621548
20
-4.16351093250967
30
0
41
1
10
130.8425807189
20
-4.71283897169883
30
0
41
1
10
131.039882913602
20
-5.76317270980778
30
0
41
1
10
131.138534010954
20
-6.26399681552277
30
0
41
1
10
131.335836205657
20
-7.1884987313631
30
0
41
1
10
131.434487303008
20
-7.6120249173286
30
0
41
1
10
131.631789497711
20
-8.36067248867911
30
0
41
1
10
131.730440595063
20
-8.68572639910948
30
0
41
1
10
131.927742789766
20
-9.22720573413974
30
0
41
1
10
132.026393887117
20
-9.44366304831374
30
0
41
1
10
132.22369608182
20
-9.76930772214627
30
0
41
1
10
132.322347179171
20
-9.87859846836699
30
0
41
1
10
132.470323825199
20
-9.97016087649007
30
0
41
1
10
132.519649373874
20
-9.98868196869336
30
0
41
1
10
132.581306309719
20
-9.99802780056331
30
0
41
1
10
132.593637696888
20
-9.999207397085
30
0
41
1
10
132.618300471226
20
-10.0002198904455
30
0
41
1
10
132.630631858395
20
-10.000057641527
30
0
41
1
10
132.667626019901
20
-9.99754766227369
30
0
41
1
10
132.692288794239
20
-9.99316443207593
30
0
41
1
10
132.815602665929
20
-9.95706375447159
30
0
41
1
10
132.91425376328
20
-9.88255590372077
30
0
41
1
10
133.111555957983
20
-9.62932006180444
30
0
41
1
10
133.210207055334
20
-9.45047505649848
30
0
41
1
10
133.407509250037
20
-8.98350166129867
30
0
41
1
10
133.506160347389
20
-8.69531195165669
30
0
41
1
10
133.703462542092
20
-8.01560264527831
30
0
41
1
10
133.802113639443
20
-7.62411559023022
30
0
41
1
10
133.999415834146
20
-6.75533539503095
30
0
41
1
10
134.098066931497
20
-6.27816950521296
30
0
41
1
10
134.2953691262
20
-5.26468620210272
30
0
41
1
10
134.394020223552
20
-4.72854746780547
30
0
41
1
10
134.591322418255
20
-3.62811226364639
30
0
41
1
10
134.689973515606
20
-3.06398239243293
30
0
41
1
10
134.887275710309
20
-1.937472596085
30
0
41
1
10
134.98592680766
20
-1.37519919147709
30
0
41
1
10
135.133903453688
20
-0.551527415339422
30
0
41
1
10
135.183229002363
20
-0.280208396537176
30
0
41
1
10
135.257217325377
20
0.120135305746345
30
0
41
1
10
135.281880099715
20
0.254407346787218
30
0
41
1
10
135.331205648391
20
0.525173324704014
30
0
41
1
10
135.355868422728
20
0.661527532577622
30
0
41
1
10
135.479182294418
20
1.34738181766511
30
0
41
1
10
135.577833391769
20
1.90939826308843
30
0
41
1
10
135.775135586472
20
3.03585299235957
30
0
41
1
10
135.873786683824
20
3.60018596611516
30
0
41
1
10
136.071088878526
20
4.70154650834419
30
0
41
1
10
136.169739975878
20
5.238408169791
30
0
41
1
10
136.367042170581
20
6.25383322609744
30
0
41
1
10
136.465693267932
20
6.73221761971769
30
0
41
1
10
136.662995462635
20
7.60381686790748
30
0
41
1
10
136.761646559987
20
7.99690315913907
30
0
41
1
10
136.860297657338
20
8.33845846376764
30
0
0
SPLINE
5
F1
100
AcDbEntity
8
1
62
256
6
ByLayer
370
13
48
1
60
0
100
AcDbSpline
70
4
71
3
72
10
73
6
40
0
40
0
40
0
40
0
40
0.5
40
0.5
40
1
40
1
40
1
40
1
41
1
10
126.4
20
9.48677082961606
30
0
41
1
10
126.493730049085
20
9.66466210208841
30
0
41
1
10
126.587460098171
20
9.79368335252167
30
0
41
1
10
126.774920196341
20
9.9613037617307
30
0
41
1
10
126.868650245426
20
10
30
0
41
1
10
126.962380294512
20
10
30
0
0
SPLINE
5
F2
100
AcDbEntity
8
1
62
256
6
ByLayer
370
13
48
1
60
0
100
AcDbSpline
70
4
71
3
72
130
73
126
40
0
40
0
40
0
40
0
40
0.0312499999999996
40
0.0312499999999996
40
0.0624999999999992
40
0.0624999999999992
40
0.078124999999999
40
0.078124999999999
40
0.0937499999999988
40
0.0937499999999988
40
0.109374999999999
40
0.109374999999999
40
0.124999999999998
40
0.124999999999998
40
0.140624999999998
40
0.140624999999998
40
0.156249999999998
40
0.156249999999998
40
0.171874999999998
40
0.171874999999998
40
0.187499999999998
40
0.187499999999998
40
0.203124999999997
40
0.203124999999997
40
0.218749999999997
40
0.218749999999997
40
0.249999999999997
40
0.249999999999997
40
0.257812499999997
40
0.257812499999997
40
0.261718749999997
40
0.261718749999997
40
0.265624999999997
40
0.265624999999997
40
0.281249999999997
40
0.281249999999997
40
0.312499999999998
40
0.312499999999998
40
0.328124999999998
40
0.328124999999998
40
0.343749999999999
40
0.343749999999999
40
0.359374999999999
40
0.359374999999999
40
0.375
40
0.375
40
0.390625
40
0.390625
40
0.406250000000001
40
0.406250000000001
40
0.421875000000001
40
0.421875000000001
40
0.437500000000002
40
0.437500000000002
40
0.453125000000002
40
0.453125000000002
40
0.468750000000003
40
0.468750000000003
40
0.500000000000004
40
0.500000000000004
40
0.515625000000005
40
0.515625000000005
40
0.523437500000005
40
0.523437500000005
40
0.527343750000005
40
0.527343750000005
40
0.531250000000005
40
0.531250000000005
40
0.562500000000005
40
0.562500000000005
40
0.578125000000006
40
0.578125000000006
40
0.593750000000006
40
0.593750000000006
40
0.609375000000007
40
0.609375000000007
40
0.625000000000007
40
0.625000000000007
40
0.640625000000008
40
0.640625000000008
40
0.656250000000008
40
0.656250000000008
40
0.671875000000009
40
0.671875000000009
40
0.687500000000009
40
0.687500000000009
40
0.70312500000001
40
0.70312500000001
40
0.71875000000001
40
0.71875000000001
40
0.734375000000011
40
0.734375000000011
40
0.750000000000011
40
0.750000000000011
40
0.781250000000012
40
0.781250000000012
40
0.785156250000012
40
0.785156250000012
40
0.789062500000011
40
0.789062500000011
40
0.796875000000011
40
0.796875000000011
40
0.81250000000001
40
0.81250000000001
40
0.843750000000009
40
0.843750000000009
40
0.859375000000008
40
0.859375000000008
40
0.875000000000007
40
0.875000000000007
40
0.890625000000006
40
0.890625000000006
40
0.906250000000005
40
0.906250000000005
40
0.921875000000004
40
0.921875000000004
40
0.937500000000003
40
0.937500000000003
40
0.953125000000002
40
0.953125000000002
40
0.968750000000002
40
0.968750000000002
40
0.984375000000001
40
0.984375000000001
40
1
40
1
40
1
40
1
41
1
10
126.894896417307
20
10
30
0
41
1
10
126.998702680224
20
10
30
0
41
1
10
127.102508943141
20
9.95248524966638
30
0
41
1
10
127.310121468975
20
9.74531446770271
30
0
41
1
10
127.413927731892
20
9.58549924509393
30
0
41
1
10
127.569637126267
20
9.25516585101897
30
0
41
1
10
127.621540257726
20
9.13003743110295
30
0
41
1
10
127.725346520643
20
8.84986255327101
30
0
41
1
10
127.777249652101
20
8.69481461313438
30
0
41
1
10
127.881055915018
20
8.35579337860861
30
0
41
1
10
127.932959046477
20
8.17182068050465
30
0
41
1
10
128.036765309394
20
7.77683964471862
30
0
41
1
10
128.088668440852
20
7.56583409262132
30
0
41
1
10
128.192474703769
20
7.11952352780756
30
0
41
1
10
128.244377835228
20
6.8842233099916
30
0
41
1
10
128.348184098145
20
6.39279135896214
30
0
41
1
10
128.400087229603
20
6.1366659726869
30
0
41
1
10
128.50389349252
20
5.60761423959323
30
0
41
1
10
128.555796623979
20
5.33469513050517
30
0
41
1
10
128.659602886896
20
4.77644261701067
30
0
41
1
10
128.711506018354
20
4.49111659154022
30
0
41
1
10
128.815312281271
20
3.9125708195082
30
0
41
1
10
128.86721541273
20
3.61935788296626
30
0
41
1
10
128.971021675647
20
3.02947725779688
30
0
41
1
10
129.022924807105
20
2.73281524770806
30
0
41
1
10
129.178634201481
20
1.84389911377531
30
0
41
1
10
129.282440464398
20
1.25298868023449
30
0
41
1
10
129.412198293044
20
0.533894398087199
30
0
41
1
10
129.438149858773
20
0.391032029160726
30
0
41
1
10
129.477077207367
20
0.178435036479101
30
0
41
1
10
129.490052990232
20
0.107851847795132
30
0
41
1
10
129.516004555961
20
-0.032709374321513
30
0
41
1
10
129.528980338826
20
-0.102921358808743
30
0
41
1
10
129.593859253149
20
-0.45622945862101
30
0
41
1
10
129.645762384607
20
-0.743535055775794
30
0
41
1
10
129.801471778983
20
-1.615100497524
30
0
41
1
10
129.9052780419
20
-2.2092471116043
30
0
41
1
10
130.060987436275
20
-3.09798638037
30
0
41
1
10
130.112890567734
20
-3.39375494797034
30
0
41
1
10
130.216696830651
20
-3.98004885327862
30
0
41
1
10
130.268599962109
20
-4.27056799228413
30
0
41
1
10
130.372406225026
20
-4.84186760301353
30
0
41
1
10
130.424309356485
20
-5.12264095248617
30
0
41
1
10
130.528115619401
20
-5.66995705258916
30
0
41
1
10
130.58001875086
20
-5.93649239131028
30
0
41
1
10
130.683825013777
20
-6.45106468879393
30
0
41
1
10
130.735728145235
20
-6.699094687187
30
0
41
1
10
130.839534408153
20
-7.17283120420919
30
0
41
1
10
130.891437539611
20
-7.39853194283461
30
0
41
1
10
130.995243802528
20
-7.82442139986586
30
0
41
1
10
131.047146933987
20
-8.02460610825673
30
0
41
1
10
131.150953196904
20
-8.39706048704241
30
0
41
1
10
131.202856328362
20
-8.56932826644265
30
0
41
1
10
131.306662591279
20
-8.88442090527937
30
0
41
1
10
131.358565722737
20
-9.02724605131181
30
0
41
1
10
131.462371985654
20
-9.28282468955933
30
0
41
1
10
131.514275117113
20
-9.39558042599984
30
0
41
1
10
131.669984511489
20
-9.68908718132766
30
0
41
1
10
131.773790774405
20
-9.8247699827038
30
0
41
1
10
131.929500168781
20
-9.94621400828092
30
0
41
1
10
131.981403300239
20
-9.97309881254972
30
0
41
1
10
132.059257997427
20
-9.99461724611675
30
0
41
1
10
132.085209563156
20
-9.99865857631332
30
0
41
1
10
132.12413691175
20
-10.0002465756845
30
0
41
1
10
132.137112694615
20
-10.0000360932287
30
0
41
1
10
132.163064260344
20
-9.99811947616061
30
0
41
1
10
132.176040043209
20
-9.99641017429613
30
0
41
1
10
132.292822088991
20
-9.97409896106123
30
0
41
1
10
132.396628351908
20
-9.90472221370911
30
0
41
1
10
132.552337746283
20
-9.71455972629829
30
0
41
1
10
132.604240877741
20
-9.63687649129321
30
0
41
1
10
132.708047140658
20
-9.45180298033702
30
0
41
1
10
132.759950272117
20
-9.34440871971816
30
0
41
1
10
132.863756535034
20
-9.09953392396554
30
0
41
1
10
132.915659666492
20
-8.96205083628246
30
0
41
1
10
133.019465929409
20
-8.65746539548189
30
0
41
1
10
133.071369060868
20
-8.49036238330177
30
0
41
1
10
133.175175323785
20
-8.12790017467105
30
0
41
1
10
133.227078455243
20
-7.93254247664743
30
0
41
1
10
133.33088471816
20
-7.51581825427078
30
0
41
1
10
133.382787849619
20
-7.29445537955846
30
0
41
1
10
133.486594112536
20
-6.82877490769417
30
0
41
1
10
133.538497243994
20
-6.58446281226213
30
0
41
1
10
133.642303506911
20
-6.07660603335916
30
0
41
1
10
133.69420663837
20
-5.81306815075385
30
0
41
1
10
133.798012901287
20
-5.27096305550501
30
0
41
1
10
133.849916032745
20
-4.99240322988999
30
0
41
1
10
133.953722295662
20
-4.42472292959042
30
0
41
1
10
134.005625427121
20
-4.13560967971196
30
0
41
1
10
134.109431690038
20
-3.55133456127783
30
0
41
1
10
134.161334821496
20
-3.25617909478103
30
0
41
1
10
134.265141084413
20
-2.66416807362015
30
0
41
1
10
134.317044215872
20
-2.36731761817433
30
0
41
1
10
134.472753610247
20
-1.48023237325435
30
0
41
1
10
134.576559873164
20
-0.89374952895156
30
0
41
1
10
134.693341918946
20
-0.254169497404632
30
0
41
1
10
134.70631770181
20
-0.183380077339223
30
0
41
1
10
134.73226926754
20
-0.0423923165307087
30
0
41
1
10
134.745245050404
20
0.0276339332729663
30
0
41
1
10
134.784172398998
20
0.238991191298169
30
0
41
1
10
134.810123964727
20
0.381084905773747
30
0
41
1
10
134.887978661915
20
0.810428571944129
30
0
41
1
10
134.939881793374
20
1.10075860235963
30
0
41
1
10
135.095591187749
20
1.97937065376004
30
0
41
1
10
135.199397450666
20
2.57548878457109
30
0
41
1
10
135.355106845042
20
3.46196177138052
30
0
41
1
10
135.4070099765
20
3.75610940573253
30
0
41
1
10
135.510816239417
20
4.33732772629779
30
0
41
1
10
135.562719370876
20
4.62439176861537
30
0
41
1
10
135.666525633793
20
5.18692298333175
30
0
41
1
10
135.718428765251
20
5.46238282925222
30
0
41
1
10
135.822235028168
20
5.99727871607874
30
0
41
1
10
135.874138159627
20
6.25670743864717
30
0
41
1
10
135.977944422544
20
6.75542961810248
30
0
41
1
10
136.029847554002
20
6.99471651652937
30
0
41
1
10
136.133653816919
20
7.44957015043587
30
0
41
1
10
136.185556948378
20
7.66513177359192
30
0
41
1
10
136.289363211295
20
8.06965414038621
30
0
41
1
10
136.341266342753
20
8.25861171840501
30
0
41
1
10
136.44507260567
20
8.60787535618044
30
0
41
1
10
136.496975737128
20
8.76818042926536
30
0
41
1
10
136.600782000046
20
9.05898140794611
30
0
41
1
10
136.652685131504
20
9.1894784450925
30
0
41
1
10
136.756491394421
20
9.42039600976628
30
0
41
1
10
136.808394525879
20
9.52081946925802
30
0
41
1
10
136.860297657338
20
9.60648495361531
30
0
0
SPLINE
5
F3
100
AcDbEntity
8
1
62
256
6
ByLayer
370
13
48
1
60
0
100
AcDbSpline
70
4
71
3
72
8
73
4
40
0
40
0
40
0
40
0
40
1
40
1
40
1
40
1
41
1
10
126.4
20
9.99324100775621
30
0
41
1
10
126.422494800073
20
9.99777978558868
30
0
41
1
10
126.444989600147
20
10
30
0
41
1
10
126.46748440022
20
10
30
0
0
SPLINE
5
F4
100
AcDbEntity
8
1
62
256
6
ByLayer
370
13
48
1
60
0
100
AcDbSpline
70
4
71
3
72
134
73
130
40
0
40
0
40
0
40
0
40
0.015625
40
0.015625
40
0.03125
40
0.03125
40
0.046875
40
0.046875
40
0.0625
40
0.0625
40
0.078125
40
0.078125
40
0.09375
40
0.09375
40
0.109375
40
0.109375
40
0.125
40
0.125
40
0.140625
40
0.140625
40
0.15625
40
0.15625
40
0.171875
40
0.171875
40
0.1875
40
0.1875
40
0.203125
40
0.203125
40
0.21875
40
0.21875
40
0.234375
40
0.234375
40
0.25
40
0.25
40
0.265625
40
0.265625
40
0.28125
40
0.28125
40
0.296875
40
0.296875
40
0.3125
40
0.3125
40
0.328125
40
0.328125
40
0.34375
40
0.34375
40
0.359375
40
0.359375
40
0.375
40
0.375
40
0.390625
40
0.390625
40
0.40625
40
0.40625
40
0.421875
40
0.421875
40
0.4375
40
0.4375
40
0.453125
40
0.453125
40
0.46875
40
0.46875
40
0.484375
40
0.484375
40
0.5
40
0.5
40
0.515625
40
0.515625
40
0.53125
40
0.53125
40
0.546875
40
0.546875
40
0.5625
40
0.5625
40
0.578125
40
0.578125
40
0.59375
40
0.59375
40
0.609375
40
0.609375
40
0.625
40
0.625
40
0.640625
40
0.640625
40
0.65625
40
0.65625
40
0.671875
40
0.671875
40
0.6875
40
0.6875
40
0.703125
40
0.703125
40
0.71875
40
0.71875
40
0.734375
40
0.734375
40
0.75
40
0.75
40
0.765625
40
0.765625
40
0.78125
40
0.78125
40
0.796875
40
0.796875
40
0.8125
40
0.8125
40
0.828125
40
0.828125
40
0.84375
40
0.84375
40
0.859375
40
0.859375
40
0.875
40
0.875
40
0.890625
40
0.890625
40
0.90625
40
0.90625
40
0.921875
40
0.921875
40
0.9375
40
0.9375
40
0.953125
40
0.953125
40
0.96875
40
0.96875
40
0.984375
40
0.984375
40
1
40
1
40
1
40
1
41
1
10
126.400000523015
20
10
30
0
41
1
10
126.454481237256
20
10
30
0
41
1
10
126.508961951497
20
9.98696366733486
30
0
41
1
10
126.61792337998
20
9.9321345131471
30
0
41
1
10
126.672404094221
20
9.89033511695919
30
0
41
1
10
126.781365522704
20
9.77577228574114
30
0
41
1
10
126.835846236945
20
9.70300246654818
30
0
41
1
10
126.944807665428
20
9.524976777304
30
0
41
1
10
126.999288379669
20
9.41971547132979
30
0
41
1
10
127.108249808151
20
9.17605069611767
30
0
41
1
10
127.162730522393
20
9.03764353487369
30
0
41
1
10
127.271691950875
20
8.72803683392641
30
0
41
1
10
127.326172665117
20
8.55683603329274
30
0
41
1
10
127.435134093599
20
8.18307452746564
30
0
41
1
10
127.48961480784
20
7.9805154149787
30
0
41
1
10
127.598576236323
20
7.54654879218313
30
0
41
1
10
127.653056950564
20
7.31514576478932
30
0
41
1
10
127.762018379046
20
6.82699044472804
30
0
41
1
10
127.816499093288
20
6.57024513116653
30
0
41
1
10
127.92546052177
20
6.03571811842957
30
0
41
1
10
127.979941236012
20
5.75794512414828
30
0
41
1
10
128.088902664494
20
5.18625080109609
30
0
41
1
10
128.143383378735
20
4.89233889946323
30
0
41
1
10
128.252344807218
20
4.29355394965205
30
0
41
1
10
128.306825521459
20
3.98869000666636
30
0
41
1
10
128.415786949942
20
3.3732052924436
30
0
41
1
10
128.470267664183
20
3.06259240680868
30
0
41
1
10
128.579229092666
20
2.44057310303637
30
0
41
1
10
128.633709806907
20
2.12917273350072
30
0
41
1
10
128.742671235389
20
1.51008961481671
30
0
41
1
10
128.797151949631
20
1.20241079489185
30
0
41
1
10
128.906113378113
20
0.594679330458035
30
0
41
1
10
128.960594092354
20
0.294628526499224
30
0
41
1
10
129.069555520837
20
-0.294627112285696
30
0
41
1
10
129.124036235078
20
-0.594677884016363
30
0
41
1
10
129.232997663561
20
-1.20240932422251
30
0
41
1
10
129.287478377802
20
-1.51008813489221
30
0
41
1
10
129.396439806285
20
-2.12917124182624
30
0
41
1
10
129.450920520526
20
-2.44057160887053
30
0
41
1
10
129.559881949008
20
-3.06259091528182
30
0
41
1
10
129.61436266325
20
-3.37320380605036
30
0
41
1
10
129.723324091732
20
-3.9886885387329
30
0
41
1
10
129.777804805973
20
-4.29355249504732
30
0
41
1
10
129.886766234456
20
-4.89233747990005
30
0
41
1
10
129.941246948697
20
-5.18624940324705
30
0
41
1
10
130.05020837718
20
-5.7579437778644
30
0
41
1
10
130.104689091421
20
-6.03571680199641
30
0
41
1
10
130.213650519904
20
-6.57024388186983
30
0
41
1
10
130.268131234145
20
-6.82698923271505
30
0
41
1
10
130.377092662627
20
-7.31514463365653
30
0
41
1
10
130.431573376868
20
-7.54654770464339
30
0
41
1
10
130.540534805351
20
-7.9805144194784
30
0
41
1
10
130.595015519592
20
-8.18307358040732
30
0
41
1
10
130.703976948075
20
-8.55683518629559
30
0
41
1
10
130.758457662316
20
-8.72803603854371
30
0
41
1
10
130.867419090799
20
-9.03764284414393
30
0
41
1
10
130.92189980504
20
-9.17605005842208
30
0
41
1
10
131.030861233522
20
-9.41971493943421
30
0
41
1
10
131.085341947764
20
-9.52497629817086
30
0
41
1
10
131.194303376246
20
-9.70300209115777
30
0
41
1
10
131.248784090488
20
-9.77577196132884
30
0
41
1
10
131.35774551897
20
-9.89033489146968
30
0
41
1
10
131.412226233211
20
-9.93213433560138
30
0
41
1
10
131.521187661694
20
-9.98696358170039
30
0
41
1
10
131.575668375935
20
-9.99999995833323
30
0
41
1
10
131.684629804418
20
-10.0000000416666
30
0
41
1
10
131.739110518659
20
-9.9869637529691
30
0
41
1
10
131.848071947142
20
-9.93213469069258
30
0
41
1
10
131.902552661383
20
-9.89033534244848
30
0
41
1
10
132.011514089865
20
-9.77577261015321
30
0
41
1
10
132.065994804107
20
-9.70300284193837
30
0
41
1
10
132.174956232589
20
-9.5249772564369
30
0
41
1
10
132.22943694683
20
-9.41971600322515
30
0
41
1
10
132.338398375313
20
-9.17605133381301
30
0
41
1
10
132.392879089554
20
-9.03764422560317
30
0
41
1
10
132.501840518037
20
-8.72803762930886
30
0
41
1
10
132.556321232278
20
-8.55683688028967
30
0
41
1
10
132.665282660761
20
-8.18307547452375
30
0
41
1
10
132.719763375002
20
-7.9805164104788
30
0
41
1
10
132.828724803484
20
-7.54654987972265
30
0
41
1
10
132.883205517725
20
-7.31514689592188
30
0
41
1
10
132.992166946208
20
-6.82699165674086
30
0
41
1
10
133.046647660449
20
-6.57024638046306
30
0
41
1
10
133.155609088932
20
-6.03571943486259
30
0
41
1
10
133.210089803173
20
-5.75794647043202
30
0
41
1
10
133.319051231656
20
-5.186252198945
30
0
41
1
10
133.373531945897
20
-4.89234031902629
30
0
41
1
10
133.482493374379
20
-4.29355540425669
30
0
41
1
10
133.536974088621
20
-3.98869147459976
30
0
41
1
10
133.645935517103
20
-3.37320677883684
30
0
41
1
10
133.700416231344
20
-3.06259389833551
30
0
41
1
10
133.809377659827
20
-2.44057459720222
30
0
41
1
10
133.863858374068
20
-2.12917422517523
30
0
41
1
10
133.972819802551
20
-1.51009109474126
30
0
41
1
10
134.027300516792
20
-1.20241226556121
30
0
41
1
10
134.136261945275
20
-0.594680776899793
30
0
41
1
10
134.190742659516
20
-0.294629957971694
30
0
41
1
10
134.299704087998
20
0.294625715330966
30
0
41
1
10
134.35418480224
20
0.594676437574748
30
0
41
1
10
134.463146230722
20
1.20240785355324
30
0
41
1
10
134.517626944964
20
1.51008665496775
30
0
41
1
10
134.626588373446
20
2.12916975015179
30
0
41
1
10
134.681069087687
20
2.44057011470468
30
0
41
1
10
134.79003051617
20
3.06258942375493
30
0
41
1
10
134.844511230411
20
3.37320231965705
30
0
41
1
10
134.953472658894
20
3.98868707079939
30
0
41
1
10
135.007953373135
20
4.29355104044254
30
0
41
1
10
135.116914801617
20
4.89233606033679
30
0
41
1
10
135.171395515859
20
5.18624800539791
30
0
41
1
10
135.280356944341
20
5.75794243158037
30
0
41
1
10
135.334837658583
20
6.03571548556312
30
0
41
1
10
135.443799087065
20
6.57024263257293
30
0
41
1
10
135.498279801306
20
6.82698802070189
30
0
41
1
10
135.607241229789
20
7.31514350252357
30
0
41
1
10
135.66172194403
20
7.54654661710345
30
0
41
1
10
135.770683372513
20
7.98051342397787
30
0
41
1
10
135.825164086754
20
8.18307263334876
30
0
41
1
10
135.934125515237
20
8.55683433929818
30
0
41
1
10
135.988606229478
20
8.72803524316078
30
0
41
1
10
136.09756765796
20
9.03764215341394
30
0
41
1
10
136.152048372202
20
9.17604942072623
30
0
41
1
10
136.261009800684
20
9.41971440753835
30
0
41
1
10
136.315490514925
20
9.52497581903745
30
0
41
1
10
136.424451943408
20
9.7030017157671
30
0
41
1
10
136.478932657649
20
9.77577163691626
30
0
41
1
10
136.587894086132
20
9.89033466597994
30
0
41
1
10
136.642374800373
20
9.93213415805545
30
0
41
1
10
136.751336228855
20
9.98696349606573
30
0
41
1
10
136.805816943097
20
9.99999991666624
30
0
41
1
10
136.860297657338
20
9.9999999999996
30
0
0
SPLINE
5
F5
100
AcDbEntity
8
1
62
256
6
ByLayer
370
13
48
1
60
0
100
AcDbSpline
70
4
71
3
72
129
73
125
40
0
40
0
40
0
40
0
40
0.0156249999999998
40
0.0156249999999998
40
0.0312499999999996
40
0.0312499999999996
40
0.0468749999999995
40
0.0468749999999995
40
0.0624999999999993
40
0.0624999999999993
40
0.0781249999999991
40
0.0781249999999991
40
0.093749999999999
40
0.093749999999999
40
0.109374999999999
40
0.109374999999999
40
0.124999999999999
40
0.124999999999999
40
0.140624999999999
40
0.140624999999999
40
0.156249999999998
40
0.156249999999998
40
0.187499999999998
40
0.187499999999998
40
0.203124999999998
40
0.203124999999998
40
0.210937499999998
40
0.210937499999998
40
0.214843749999998
40
0.214843749999998
40
0.218749999999998
40
0.218749999999998
40
0.249999999999998
40
0.249999999999998
40
0.265624999999998
40
0.265624999999998
40
0.281249999999998
40
0.281249999999998
40
0.296874999999998
40
0.296874999999998
40
0.312499999999998
40
0.312499999999998
40
0.328124999999998
40
0.328124999999998
40
0.343749999999998
40
0.343749999999998
40
0.359374999999999
40
0.359374999999999
40
0.374999999999999
40
0.374999999999999
40
0.390624999999999
40
0.390624999999999
40
0.406249999999999
40
0.406249999999999
40
0.421874999999999
40
0.421874999999999
40
0.437499999999999
40
0.437499999999999
40
0.46875
40
0.46875
40
0.47265625
40
0.47265625
40
0.4765625
40
0.4765625
40
0.484375
40
0.484375
40
0.5
40
0.5
40
0.53125
40
0.53125
40
0.546875
40
0.546875
40
0.5625
40
0.5625
40
0.578125
40
0.578125
40
0.59375
40
0.59375
40
0.609375
40
0.609375
40
0.625
40
0.625
40
0.640625
40
0.640625
40
0.65625
40
0.65625
40
0.671875
40
0.671875
40
0.6875
40
0.6875
40
0.71875
40
0.71875
40
0.734375
40
0.734375
40
0.73828125
40
0.73828125
40
0.7421875
40
0.75
40
0.75
40
0.78125
40
0.78125
40
0.796875
40
0.796875
40
0.8125
40
0.8125
40
0.828125
40
0.828125
40
0.84375
40
0.84375
40
0.859375
40
0.859375
40
0.875
40
0.875
40
0.890625
40
0.890625
40
0.90625
40
0.90625
40
0.921875
40
0.921875
40
0.9375
40
0.9375
40
0.96875
40
0.96875
40
1
40
1
40
1
40
1
41
1
10
126.4
20
9.60648668007264
30
0
41
1
10
126.451903136906
20
9.52082138457806
30
0
41
1
10
126.503806273813
20
9.42039811400511
30
0
41
1
10
126.607612547626
20
9.18948092193125
30
0
41
1
10
126.659515684533
20
9.05898406845398
30
0
41
1
10
126.763321958346
20
8.76818344626565
30
0
41
1
10
126.815225095253
20
8.60787854599042
30
0
41
1
10
126.919031369066
20
8.25861523752852
30
0
41
1
10
126.970934505972
20
8.06965781600002
30
0
41
1
10
127.074740779785
20
7.66513574098261
30
0
41
1
10
127.126643916692
20
7.44957425310147
30
0
41
1
10
127.230450190505
20
6.99472086459022
30
0
41
1
10
127.282353327412
20
6.75543407627561
30
0
41
1
10
127.386159601225
20
6.2567120891882
30
0
41
1
10
127.438062738131
20
5.99728344887205
30
0
41
1
10
127.541869011944
20
5.46238769741623
30
0
41
1
10
127.593772148851
20
5.18692790461574
30
0
41
1
10
127.697578422664
20
4.62439676718137
30
0
41
1
10
127.749481559571
20
4.33733274903173
30
0
41
1
10
127.853287833384
20
3.75611444935859
30
0
41
1
10
127.90519097029
20
3.46196681173981
30
0
41
1
10
128.06090038101
20
2.57549377789582
30
0
41
1
10
128.164706654823
20
1.97937556588013
30
0
41
1
10
128.320416065543
20
1.10076333981249
30
0
41
1
10
128.37231920245
20
0.810433242430292
30
0
41
1
10
128.45017390781
20
0.381089465713274
30
0
41
1
10
128.476125476263
20
0.238995712706355
30
0
41
1
10
128.515052828942
20
0.0276383947325201
30
0
41
1
10
128.528028613169
20
-0.0423878597173371
30
0
41
1
10
128.553980181623
20
-0.183375610391437
30
0
41
1
10
128.566955965849
20
-0.254165025872396
30
0
41
1
10
128.683738023889
20
-0.893745020662578
30
0
41
1
10
128.787544297702
20
-1.4802278646419
30
0
41
1
10
128.943253708422
20
-2.36731316827851
30
0
41
1
10
128.995156845328
20
-2.66416365310175
30
0
41
1
10
129.098963119142
20
-3.25617475340212
30
0
41
1
10
129.150866256048
20
-3.55133026966553
30
0
41
1
10
129.254672529861
20
-4.13560550790706
30
0
41
1
10
129.306575666768
20
-4.42471882782817
30
0
41
1
10
129.410381940581
20
-4.99239928737776
30
0
41
1
10
129.462285077488
20
-5.27095920219881
30
0
41
1
10
129.566091351301
20
-5.81306449290503
30
0
41
1
10
129.617994488207
20
-6.07660248175685
30
0
41
1
10
129.72180076202
20
-6.58445948716115
30
0
41
1
10
129.773703898927
20
-6.82877170284013
30
0
41
1
10
129.87751017274
20
-7.29445242544497
30
0
41
1
10
129.929413309646
20
-7.51581543064094
30
0
41
1
10
130.03321958346
20
-7.93253992001777
30
0
41
1
10
130.085122720366
20
-8.12789775454721
30
0
41
1
10
130.188928994179
20
-8.49036023787278
30
0
41
1
10
130.240832131086
20
-8.65746338823192
30
0
41
1
10
130.344638404899
20
-8.96204910290527
30
0
41
1
10
130.396541541806
20
-9.09953232627399
30
0
41
1
10
130.500347815619
20
-9.34440738720204
30
0
41
1
10
130.552250952525
20
-9.45180177730535
30
0
41
1
10
130.656057226339
20
-9.63687553798724
30
0
41
1
10
130.707960363245
20
-9.71455889323116
30
0
41
1
10
130.863669773965
20
-9.9047217240942
30
0
41
1
10
130.967476047778
20
-9.9740986770133
30
0
41
1
10
131.084258105818
20
-9.99641009036358
30
0
41
1
10
131.097233890044
20
-9.99811941403814
30
0
41
1
10
131.123185458498
20
-10.0000360738724
30
0
41
1
10
131.136161242724
20
-10.0002465771045
30
0
41
1
10
131.175088595404
20
-9.99865864047973
30
0
41
1
10
131.201040163857
20
-9.99461735256639
30
0
41
1
10
131.278894869217
20
-9.97309904687302
30
0
41
1
10
131.330798006124
20
-9.9462143292296
30
0
41
1
10
131.486507416843
20
-9.82477056456617
30
0
41
1
10
131.590313690657
20
-9.68908793860552
30
0
41
1
10
131.746023101376
20
-9.39558143373253
30
0
41
1
10
131.797926238283
20
-9.28282577863644
30
0
41
1
10
131.901732512096
20
-9.027247296192
30
0
41
1
10
131.953635649003
20
-8.88442222461171
30
0
41
1
10
132.057441922816
20
-8.56932972533059
30
0
41
1
10
132.109345059722
20
-8.39706201102737
30
0
41
1
10
132.213151333535
20
-8.02460775097424
30
0
41
1
10
132.265054470442
20
-7.82442309621365
30
0
41
1
10
132.368860744255
20
-7.39853373339631
30
0
41
1
10
132.420763881162
20
-7.17283303535115
30
0
41
1
10
132.524570154975
20
-6.69909658551683
30
0
41
1
10
132.576473291881
20
-6.45106661373038
30
0
41
1
10
132.680279565694
20
-5.93649435528579
30
0
41
1
10
132.732182702601
20
-5.66995902899868
30
0
41
1
10
132.835988976414
20
-5.12264294010308
30
0
41
1
10
132.887892113321
20
-4.84186958940754
30
0
41
1
10
132.991698387134
20
-4.27056996371977
30
0
41
1
10
133.04360152404
20
-3.98005081098398
30
0
41
1
10
133.147407797854
20
-3.39375686734863
30
0
41
1
10
133.19931093476
20
-3.09798827515735
30
0
41
1
10
133.35502034548
20
-2.20924891928175
30
0
41
1
10
133.458826619293
20
-1.61510222936701
30
0
41
1
10
133.614536030013
20
-0.743536659945704
30
0
41
1
10
133.666439166919
20
-0.456231017914519
30
0
41
1
10
133.731318088053
20
-0.1029228603403
30
0
41
1
10
133.744293872279
20
-0.032710860238069
30
0
41
1
10
133.770245440733
20
0.107850368123678
30
0
41
1
10
133.809172793412
20
0.31959937499596
30
0
41
1
10
133.848100146092
20
0.533892940179811
30
0
41
1
10
133.977857988359
20
1.25298726573095
30
0
41
1
10
134.081664262172
20
1.84389774729269
30
0
41
1
10
134.237373672891
20
2.73281397152127
30
0
41
1
10
134.289276809798
20
3.0294760147101
30
0
41
1
10
134.393083083611
20
3.61935671127071
30
0
41
1
10
134.444986220518
20
3.9125696861027
30
0
41
1
10
134.548792494331
20
4.49111553874775
30
0
41
1
10
134.600695631238
20
4.77644160653873
30
0
41
1
10
134.704501905051
20
5.33469420725578
30
0
41
1
10
134.756405041957
20
5.60761336124236
30
0
41
1
10
134.86021131577
20
6.13666518506207
30
0
41
1
10
134.912114452677
20
6.39279061716058
30
0
41
1
10
135.01592072649
20
6.88422265903273
30
0
41
1
10
135.067823863397
20
7.11952292186365
30
0
41
1
10
135.17163013721
20
7.56583357422517
30
0
41
1
10
135.223533274116
20
7.77683916885127
30
0
41
1
10
135.32733954793
20
8.17182028571958
30
0
41
1
10
135.379242684836
20
8.35579302237397
30
0
41
1
10
135.483048958649
20
8.69481432882543
30
0
41
1
10
135.534952095556
20
8.84986230233568
30
0
41
1
10
135.638758369369
20
9.13003724090512
30
0
41
1
10
135.690661506275
20
9.25516568818483
30
0
41
1
10
135.846370916995
20
9.58549915467628
30
0
41
1
10
135.950177190808
20
9.74531441249951
30
0
41
1
10
136.157789738435
20
9.95248523963181
30
0
41
1
10
136.261596012248
20
10
30
0
41
1
10
136.365402286061
20
10
30
0
0
SPLINE
5
F6
100
AcDbEntity
8
1
62
256
6
ByLayer
370
13
48
1
60
0
100
AcDbSpline
70
4
71
3
72
10
73
6
40
0
40
0
40
0
40
0
40
0.5
40
0.5
40
1
40
1
40
1
40
1
41
1
10
136.297918408856
20
10
30
0
41
1
10
136.391648283603
20
10
30
0
41
1
10
136.48537815835
20
9.96130390635415
30
0
41
1
10
136.672837907844
20
9.7936841432213
30
0
41
1
10
136.766567782591
20
9.66466339512084
30
0
41
1
10
136.860297657338
20
9.48677281488523
30
0
0
SPLINE
5
F7
100
AcDbEntity
8
1
62
256
6
ByLayer
370
13
48
1
60
0
100
AcDbSpline
70
4
71
3
72
86
73
82
40
0
40
0
40
0
40
0
40
0.0312500000000008
40
0.0312500000000008
40
0.0625000000000017
40
0.0625000000000017
40
0.0937500000000025
40
0.0937500000000025
40
0.125000000000003
40
0.125000000000003
40
0.156250000000004
40
0.156250000000004
40
0.164062500000004
40
0.164062500000004
40
0.171875000000005
40
0.171875000000005
40
0.187500000000005
40
0.187500000000005
40
0.218750000000006
40
0.218750000000006
40
0.250000000000007
40
0.250000000000007
40
0.281250000000007
40
0.281250000000007
40
0.312500000000008
40
0.312500000000008
40
0.343750000000009
40
0.343750000000009
40
0.37500000000001
40
0.37500000000001
40
0.406250000000011
40
0.406250000000011
40
0.437500000000011
40
0.437500000000011
40
0.445312500000012
40
0.445312500000012
40
0.449218750000012
40
0.449218750000012
40
0.453125000000012
40
0.453125000000012
40
0.468750000000012
40
0.468750000000012
40
0.500000000000013
40
0.500000000000013
40
0.531250000000013
40
0.531250000000013
40
0.562500000000014
40
0.562500000000014
40
0.593750000000014
40
0.593750000000014
40
0.625000000000015
40
0.625000000000015
40
0.656250000000015
40
0.656250000000015
40
0.687500000000016
40
0.687500000000016
40
0.718750000000016
40
0.718750000000016
40
0.722656250000016
40
0.722656250000016
40
0.726562500000016
40
0.726562500000016
40
0.734375000000015
40
0.734375000000015
40
0.750000000000014
40
0.750000000000014
40
0.781250000000013
40
0.781250000000013
40
0.812500000000011
40
0.812500000000011
40
0.843750000000009
40
0.843750000000009
40
0.875000000000007
40
0.875000000000007
40
0.906250000000006
40
0.906250000000006
40
0.937500000000004
40
0.937500000000004
40
0.968750000000002
40
0.968750000000002
40
1
40
1
40
1
40
1
41
1
10
126.4
20
8.33846208538802
30
0
41
1
10
126.498651108248
20
7.99690710410448
30
0
41
1
10
126.597302216495
20
7.60382110301279
30
0
41
1
10
126.79460443299
20
6.73222233765262
30
0
41
1
10
126.893255541238
20
6.25383813652363
30
0
41
1
10
127.090557757733
20
5.23841335331574
30
0
41
1
10
127.189208865981
20
4.70155177251203
30
0
41
1
10
127.386511082476
20
3.600191285211
30
0
41
1
10
127.485162190724
20
3.03585828596593
30
0
41
1
10
127.682464407219
20
1.90940342062811
30
0
41
1
10
127.781115515466
20
1.34738686491102
30
0
41
1
10
127.904429400776
20
0.661532406800632
30
0
41
1
10
127.929092177838
20
0.525178162571279
30
0
41
1
10
127.978417731962
20
0.254412108893774
30
0
41
1
10
128.003080509023
20
0.120139981868391
30
0
41
1
10
128.077068840209
20
-0.28020368730347
30
0
41
1
10
128.126394394333
20
-0.551522691252188
30
0
41
1
10
128.274371056704
20
-1.37519444745428
30
0
41
1
10
128.373022164952
20
-1.93746787189659
30
0
41
1
10
128.570324381447
20
-3.06397778478484
30
0
41
1
10
128.668975489695
20
-3.62810775284623
30
0
41
1
10
128.86627770619
20
-4.72854322740002
30
0
41
1
10
128.964928814437
20
-5.26468213526172
30
0
41
1
10
129.162231030933
20
-6.27816584815406
30
0
41
1
10
129.26088213918
20
-6.75533197404107
30
0
41
1
10
129.458184355675
20
-7.62411267799627
30
0
41
1
10
129.556835463923
20
-8.01560000546874
30
0
41
1
10
129.754137680418
20
-8.69530986175312
30
0
41
1
10
129.852788788666
20
-8.98349984862182
30
0
41
1
10
130.050091005161
20
-9.45047377450427
30
0
41
1
10
130.148742113409
20
-9.62931903312517
30
0
41
1
10
130.346044329904
20
-9.8825553380955
30
0
41
1
10
130.444695438151
20
-9.95706339858469
30
0
41
1
10
130.568009323461
20
-9.99316430572915
30
0
41
1
10
130.592672100523
20
-9.99754758022894
30
0
41
1
10
130.629666266115
20
-10.0000576234986
30
0
41
1
10
130.641997654646
20
-10.0002198931813
30
0
41
1
10
130.666660431708
20
-9.99920744165277
30
0
41
1
10
130.678991820239
20
-9.9980278661543
30
0
41
1
10
130.740648762894
20
-9.98868213987583
30
0
41
1
10
130.789974317018
20
-9.9701611336798
30
0
41
1
10
130.937950979389
20
-9.87859898553126
30
0
41
1
10
131.036602087637
20
-9.76930841532993
30
0
41
1
10
131.233904304132
20
-9.4436640815874
30
0
41
1
10
131.332555412379
20
-9.2272069313421
30
0
41
1
10
131.529857628875
20
-8.68572789322593
30
0
41
1
10
131.628508737122
20
-8.3606741156124
30
0
41
1
10
131.825810953617
20
-7.61202676333716
30
0
41
1
10
131.924462061865
20
-7.188500663513
30
0
41
1
10
132.12176427836
20
-6.263998865758
30
0
41
1
10
132.220415386608
20
-5.76317479198184
30
0
41
1
10
132.417717603103
20
-4.71284106591122
30
0
41
1
10
132.516368711351
20
-4.16351300692506
30
0
41
1
10
132.713670927846
20
-3.04737668141712
30
0
41
1
10
132.812322036093
20
-2.48071811311888
30
0
41
1
10
133.009624252589
20
-1.35837048597651
30
0
41
1
10
133.108275360836
20
-0.80276242929844
30
0
41
1
10
133.219257857615
20
-0.196318688209601
30
0
41
1
10
133.231589246146
20
-0.129189890966984
30
0
41
1
10
133.256252023208
20
0.0045253326966588
30
0
41
1
10
133.268583411738
20
0.0711371725213326
30
0
41
1
10
133.305577577331
20
0.272317066181728
30
0
41
1
10
133.330240354393
20
0.407496908771748
30
0
41
1
10
133.404228685579
20
0.81578020641976
30
0
41
1
10
133.453554239703
20
1.0916417547632
30
0
41
1
10
133.601530902074
20
1.92622844718596
30
0
41
1
10
133.700182010322
20
2.49213431206673
30
0
41
1
10
133.897484226817
20
3.61657157318953
30
0
41
1
10
133.996135335065
20
4.17497351533606
30
0
41
1
10
134.19343755156
20
5.25367877991954
30
0
41
1
10
134.292088659807
20
5.77380485510017
30
0
41
1
10
134.489390876302
20
6.74576189670495
30
0
41
1
10
134.58804198455
20
7.19742428224077
30
0
41
1
10
134.785344201045
20
8.00821199720681
30
0
41
1
10
134.883995309293
20
8.36723828381659
30
0
41
1
10
135.081297525788
20
8.97870106261956
30
0
41
1
10
135.179948634036
20
9.2311381262453
30
0
41
1
10
135.377250850531
20
9.6271096713852
30
0
41
1
10
135.475901958778
20
9.77072903749374
30
0
41
1
10
135.673204175273
20
9.95711195945938
30
0
41
1
10
135.771855283521
20
10
30
0
41
1
10
135.870506391769
20
10
30
0
0
SPLINE
5
F8
100
AcDbEntity
8
1
62
256
6
ByLayer
370
13
48
1
60
0
100
AcDbSpline
70
4
71
3
72
14
73
10
40
0
40
0
40
0
40
0
40
0.25
40
0.25
40
0.5
40
0.5
40
0.75
40
0.75
40
1
40
1
40
1
40
1
41
1
10
135.803022514564
20
10
30
0
41
1
10
135.891128776462
20
10
30
0
41
1
10
135.97923503836
20
9.96582637786977
30
0
41
1
10
136.155447562155
20
9.81836406736983
30
0
41
1
10
136.243553824053
20
9.70500363980469
30
0
41
1
10
136.419766347849
20
9.3924296032836
30
0
41
1
10
136.507872609747
20
9.19316028654245
30
0
41
1
10
136.684085133542
20
8.70819100842743
30
0
41
1
10
136.77219139544
20
8.42247313124813
30
0
41
1
10
136.860297657338
20
8.09692417867711
30
0
0
SPLINE
5
F9
100
AcDbEntity
8
1
62
256
6
ByLayer
370
13
48
1
60
0
100
AcDbSpline
70
4
71
3
72
87
73
83
40
0
40
0
40
0
40
0
40
0.0312500000000007
40
0.0312500000000007
40
0.0625000000000013
40
0.0625000000000013
40
0.093750000000002
40
0.093750000000002
40
0.125000000000003
40
0.125000000000003
40
0.128906250000003
40
0.128906250000003
40
0.132812500000002
40
0.140625000000002
40
0.140625000000002
40
0.156250000000001
40
0.156250000000001
40
0.187499999999999
40
0.187499999999999
40
0.218749999999997
40
0.218749999999997
40
0.249999999999995
40
0.249999999999995
40
0.281249999999993
40
0.281249999999993
40
0.31249999999999
40
0.31249999999999
40
0.343749999999988
40
0.343749999999988
40
0.374999999999986
40
0.374999999999986
40
0.406249999999984
40
0.406249999999984
40
0.414062499999983
40
0.414062499999983
40
0.417968749999983
40
0.417968749999983
40
0.421874999999983
40
0.421874999999983
40
0.437499999999983
40
0.437499999999983
40
0.468749999999983
40
0.468749999999983
40
0.499999999999983
40
0.499999999999983
40
0.531249999999982
40
0.531249999999982
40
0.562499999999982
40
0.562499999999982
40
0.593749999999981
40
0.593749999999981
40
0.624999999999981
40
0.624999999999981
40
0.656249999999981
40
0.656249999999981
40
0.68749999999998
40
0.68749999999998
40
0.70312499999998
40
0.70312499999998
40
0.70703124999998
40
0.70703124999998
40
0.71093749999998
40
0.71093749999998
40
0.718749999999981
40
0.718749999999981
40
0.749999999999983
40
0.749999999999983
40
0.781249999999985
40
0.781249999999985
40
0.812499999999987
40
0.812499999999987
40
0.843749999999989
40
0.843749999999989
40
0.874999999999992
40
0.874999999999992
40
0.906249999999994
40
0.906249999999994
40
0.937499999999996
40
0.937499999999996
40
0.968749999999998
40
0.968749999999998
40
1
40
1
40
1
40
1
41
1
10
126.4
20
6.23551553916684
30
0
41
1
10
126.493495942682
20
5.77386514144206
30
0
41
1
10
126.586991885364
20
5.28176346198114
30
0
41
1
10
126.773983770728
20
4.26204623722379
30
0
41
1
10
126.86747971341
20
3.73456704956865
30
0
41
1
10
127.054471598774
20
2.67040781533291
30
0
41
1
10
127.147967541456
20
2.13383125484896
30
0
41
1
10
127.334959426821
20
1.07471781946146
30
0
41
1
10
127.428455369503
20
0.552232153330294
30
0
41
1
10
127.53363830502
20
-0.0176571535256755
30
0
41
1
10
127.545325297855
20
-0.0808383067475518
30
0
41
1
10
127.568699283526
20
-0.207980540077926
30
0
41
1
10
127.603760262031
20
-0.399405456354259
30
0
41
1
10
127.638821240537
20
-0.592832053405687
30
0
41
1
10
127.708943197549
20
-0.981965668419406
30
0
41
1
10
127.75569116889
20
-1.24443999371633
30
0
41
1
10
127.895935082913
20
-2.03748784303133
30
0
41
1
10
127.989431025595
20
-2.57382602700073
30
0
41
1
10
128.176422910959
20
-3.63901914274518
30
0
41
1
10
128.269918853641
20
-4.16777342997366
30
0
41
1
10
128.456910739005
20
-5.19164470910312
30
0
41
1
10
128.550406681687
20
-5.68662634524952
30
0
41
1
10
128.737398567051
20
-6.61713666961478
30
0
41
1
10
128.830894509733
20
-7.05253400736962
30
0
41
1
10
129.017886395097
20
-7.84256336766086
30
0
41
1
10
129.111382337779
20
-8.19711086582848
30
0
41
1
10
129.298374223144
20
-8.8120274326721
30
0
41
1
10
129.391870165826
20
-9.07238330388338
30
0
41
1
10
129.57886205119
20
-9.49493678448846
30
0
41
1
10
129.672357993872
20
-9.65718717274956
30
0
41
1
10
129.859349879236
20
-9.88834093040811
30
0
41
1
10
129.952845821918
20
-9.95733498446182
30
0
41
1
10
130.06971575027
20
-9.99231602742881
30
0
41
1
10
130.093089735941
20
-9.99676098465346
30
0
41
1
10
130.128150714447
20
-9.999763172445
30
0
41
1
10
130.139837707282
20
-10.0001538254886
30
0
41
1
10
130.163211692953
20
-9.99973852045983
30
0
41
1
10
130.174898685788
20
-9.99892922126369
30
0
41
1
10
130.233333649964
20
-9.99180501248676
30
0
41
1
10
130.280081621305
20
-9.97624817453683
30
0
41
1
10
130.420325535328
20
-9.89753067512859
30
0
41
1
10
130.51382147801
20
-9.80212962509324
30
0
41
1
10
130.700813363374
20
-9.51593759312189
30
0
41
1
10
130.794309306056
20
-9.32506348809846
30
0
41
1
10
130.98130119142
20
-8.84541696832923
30
0
41
1
10
131.074797134102
20
-8.5566089240024
30
0
41
1
10
131.261789019467
20
-7.88772624879294
30
0
41
1
10
131.355284962149
20
-7.50768653161288
30
0
41
1
10
131.542276847513
20
-6.67219217628929
30
0
41
1
10
131.635772790195
20
-6.21683952649562
30
0
41
1
10
131.822764675559
20
-5.25369345478046
30
0
41
1
10
131.916260618241
20
-4.74603725382863
30
0
41
1
10
132.103252503605
20
-3.70464746087072
30
0
41
1
10
132.196748446287
20
-3.17104232608926
30
0
41
1
10
132.383740331651
20
-2.1033519050514
30
0
41
1
10
132.477236274333
20
-1.56935257983662
30
0
41
1
10
132.617480188356
20
-0.784120497771625
30
0
41
1
10
132.664228159697
20
-0.52496436382657
30
0
41
1
10
132.722663123874
20
-0.205588610271065
30
0
41
1
10
132.734350116709
20
-0.141941000184232
30
0
41
1
10
132.757724102379
20
-0.0151304789217193
30
0
41
1
10
132.769411095215
20
0.0479624463297057
30
0
41
1
10
132.80447207372
20
0.238428318620805
30
0
41
1
10
132.827846059391
20
0.366365691513011
30
0
41
1
10
132.944715987744
20
1.01024051329915
30
0
41
1
10
133.038211930425
20
1.53896788611618
30
0
41
1
10
133.22520381579
20
2.60427122766185
30
0
41
1
10
133.318699758472
20
3.14078008929187
30
0
41
1
10
133.505691643836
20
4.19728539845838
30
0
41
1
10
133.599187586518
20
4.71716562232095
30
0
41
1
10
133.786179471882
20
5.71391164989132
30
0
41
1
10
133.879675414564
20
6.19063839666646
30
0
41
1
10
134.066667299928
20
7.07638828164406
30
0
41
1
10
134.16016324261
20
7.48529223141901
30
0
41
1
10
134.347155127974
20
8.21656642782875
30
0
41
1
10
134.440651070656
20
8.53887603851896
30
0
41
1
10
134.62764295602
20
9.08682176399611
30
0
41
1
10
134.721138898702
20
9.31247009912315
30
0
41
1
10
134.908130784066
20
9.66639604556056
30
0
41
1
10
135.001626726748
20
9.79474369333803
30
0
41
1
10
135.188618612112
20
9.96149771887551
30
0
41
1
10
135.282114554795
20
10
30
0
41
1
10
135.375610497477
20
10
30
0
0
SPLINE
5
FA
100
AcDbEntity
8
1
62
256
6
ByLayer
370
13
48
1
60
0
100
AcDbSpline
70
4
71
3
72
22
73
18
40
0
40
0
40
0
40
0
40
0.125
40
0.125
40
0.25
40
0.25
40
0.375
40
0.375
40
0.5
40
0.5
40
0.625
40
0.625
40
0.75
40
0.75
40
0.875
40
0.875
40
1
40
1
40
1
40
1
41
1
10
135.308126620272
20
10
30
0
41
1
10
135.372800413483
20
10
30
0
41
1
10
135.437474206694
20
9.98161912714392
30
0
41
1
10
135.566821793116
20
9.9036719913131
30
0
41
1
10
135.631495586327
20
9.84409022063539
30
0
41
1
10
135.760843172749
20
9.68033184030764
30
0
41
1
10
135.825516965961
20
9.57614083329389
30
0
41
1
10
135.954864552383
20
9.3212552586653
30
0
41
1
10
136.019538345594
20
9.1705499960679
30
0
41
1
10
136.148885932016
20
8.82261462023263
30
0
41
1
10
136.213559725227
20
8.62537999188416
30
0
41
1
10
136.342907311649
20
8.18648936950788
30
0
41
1
10
136.40758110486
20
7.94483668578783
30
0
41
1
10
136.536928691282
20
7.42136152700846
30
0
41
1
10
136.601602484494
20
7.13955039036463
30
0
41
1
10
136.730950070916
20
6.5419374340949
30
0
41
1
10
136.795623864127
20
6.22615351440655
30
0
41
1
10
136.860297657338
20
5.89720464544058
30
0
0
SPLINE
5
FB
100
AcDbEntity
8
1
62
256
6
ByLayer
370
13
48
1
60
0
100
AcDbSpline
70
4
71
3
72
82
73
78
40
0
40
0
40
0
40
0
40
0.03125
40
0.03125
40
0.0625000000000001
40
0.0625000000000001
40
0.0703125000000001
40
0.0703125000000001
40
0.0781250000000001
40
0.0781250000000001
40
0.0937500000000001
40
0.0937500000000001
40
0.125
40
0.125
40
0.15625
40
0.15625
40
0.1875
40
0.1875
40
0.21875
40
0.21875
40
0.25
40
0.25
40
0.28125
40
0.28125
40
0.3125
40
0.3125
40
0.34375
40
0.34375
40
0.375
40
0.375
40
0.3828125
40
0.3828125
40
0.390625
40
0.390625
40
0.40625
40
0.40625
40
0.4375
40
0.4375
40
0.46875
40
0.46875
40
0.5
40
0.5
40
0.53125
40
0.53125
40
0.5625
40
0.5625
40
0.59375
40
0.59375
40
0.625
40
0.625
40
0.65625
40
0.65625
40
0.6875
40
0.6875
40
0.6953125
40
0.6953125
40
0.703125
40
0.703125
40
0.71875
40
0.71875
40
0.75
40
0.75
40
0.78125
40
0.78125
40
0.8125
40
0.8125
40
0.84375
40
0.84375
40
0.875
40
0.875
40
0.90625
40
0.90625
40
0.9375
40
0.9375
40
0.96875
40
0.96875
40
1
40
1
40
1
40
1
41
1
10
126.4
20
3.57760074112233
30
0
41
1
10
126.488340777117
20
3.07760042626768
30
0
41
1
10
126.576681554233
20
2.5708808109425
30
0
41
1
10
126.753363108466
20
1.56435110243808
30
0
41
1
10
126.841703885583
20
1.0645914518652
30
0
41
1
10
126.952129856978
20
0.45458144813503
30
0
41
1
10
126.974215051257
20
0.33330272273696
30
0
41
1
10
127.018385439816
20
0.0924033843227505
30
0
41
1
10
127.040470634095
20
-0.0266566973375859
30
0
41
1
10
127.106726216932
20
-0.387086049903644
30
0
41
1
10
127.15089660549
20
-0.630771341305405
30
0
41
1
10
127.283407771165
20
-1.36941319335025
30
0
41
1
10
127.371748548282
20
-1.87208913187664
30
0
41
1
10
127.548430102515
20
-2.88054314646067
30
0
41
1
10
127.636770879631
20
-3.38626293231837
30
0
41
1
10
127.813452433864
20
-4.37977173600791
30
0
41
1
10
127.901793210981
20
-4.86746924287064
30
0
41
1
10
128.078474765214
20
-5.80258266096666
30
0
41
1
10
128.16681554233
20
-6.24989361489227
30
0
41
1
10
128.343497096563
20
-7.08360275216191
30
0
41
1
10
128.43183787368
20
-7.46991182181378
30
0
41
1
10
128.608519427913
20
-8.1657338651811
30
0
41
1
10
128.696860205029
20
-8.47519951474808
30
0
41
1
10
128.873541759262
20
-9.0083359092977
30
0
41
1
10
128.961882536379
20
-9.23201140023477
30
0
41
1
10
129.138564090612
20
-9.59211299926395
30
0
41
1
10
129.226904867728
20
-9.72858717513193
30
0
41
1
10
129.403586421961
20
-9.91953389867595
30
0
41
1
10
129.491927199078
20
-9.97407701082895
30
0
41
1
10
129.602353170473
20
-9.99730731509661
30
0
41
1
10
129.624438364753
20
-9.99971464567312
30
0
41
1
10
129.668608753311
20
-10.0002375250708
30
0
41
1
10
129.69069394759
20
-9.99836333382615
30
0
41
1
10
129.756949530427
20
-9.9860598206308
30
0
41
1
10
129.801119918986
20
-9.96894065236879
30
0
41
1
10
129.93363108466
20
-9.88878174479933
30
0
41
1
10
130.021971861777
20
-9.79678540397762
30
0
41
1
10
130.19865341601
20
-9.52772105313019
30
0
41
1
10
130.286994193126
20
-9.35059013537412
30
0
41
1
10
130.463675747359
20
-8.90890416710022
30
0
41
1
10
130.552016524476
20
-8.64431927914603
30
0
41
1
10
130.728698078709
20
-8.03260308082048
30
0
41
1
10
130.817038855825
20
-7.68549148252416
30
0
41
1
10
130.993720410058
20
-6.9210334135322
30
0
41
1
10
131.082061187175
20
-6.50375633397042
30
0
41
1
10
131.258742741408
20
-5.61735733827896
30
0
41
1
10
131.347083518524
20
-5.14833575272155
30
0
41
1
10
131.523765072757
20
-4.18028196245405
30
0
41
1
10
131.612105849874
20
-3.68135170989535
30
0
41
1
10
131.788787404107
20
-2.67560773159366
30
0
41
1
10
131.877128181223
20
-2.1688714829709
30
0
41
1
10
132.053809735456
20
-1.16715230229428
30
0
41
1
10
132.142150512573
20
-0.672209552070484
30
0
41
1
10
132.252576483969
20
-0.0704683961808996
30
0
41
1
10
132.274661678248
20
0.0485527898517262
30
0
41
1
10
132.318832066806
20
0.28904488149837
30
0
41
1
10
132.340917261085
20
0.410132233933581
30
0
41
1
10
132.407172843922
20
0.775604379796164
30
0
41
1
10
132.451343232481
20
1.0222085233988
30
0
41
1
10
132.583854398155
20
1.76803807184063
30
0
41
1
10
132.672195175272
20
2.27340212477321
30
0
41
1
10
132.848876729505
20
3.28192904608232
30
0
41
1
10
132.937217506621
20
3.78502372805741
30
0
41
1
10
133.113899060854
20
4.76736579860287
30
0
41
1
10
133.202239837971
20
5.24651561597955
30
0
41
1
10
133.378921392204
20
6.1587615887743
30
0
41
1
10
133.46726216932
20
6.59175401055825
30
0
41
1
10
133.643943723553
20
7.39204013093777
30
0
41
1
10
133.73228450067
20
7.75925374542109
30
0
41
1
10
133.908966054903
20
8.41377116930954
30
0
41
1
10
133.997306832019
20
8.70104128117003
30
0
41
1
10
134.173988386252
20
9.18867587144877
30
0
41
1
10
134.262329163369
20
9.38905812420069
30
0
41
1
10
134.439010717602
20
9.7033759286777
30
0
41
1
10
134.527351494719
20
9.81736777928447
30
0
41
1
10
134.704033048952
20
9.96564347483567
30
0
41
1
10
134.792373826068
20
10
30
0
41
1
10
134.880714603185
20
10
30
0
0
SPLINE
5
FC
100
AcDbEntity
8
1
62
256
6
ByLayer
370
13
48
1
60
0
100
AcDbSpline
70
4
71
3
72
22
73
18
40
0
40
0
40
0
40
0
40
0.125
40
0.125
40
0.25
40
0.25
40
0.375
40
0.375
40
0.5
40
0.5
40
0.625
40
0.625
40
0.75
40
0.75
40
0.875
40
0.875
40
1
40
1
40
1
40
1
41
1
10
134.81323072598
20
10
30
0
41
1
10
134.898525181453
20
10
30
0
41
1
10
134.983819636926
20
9.96798085418621
30
0
41
1
10
135.154408547873
20
9.83008724505896
30
0
41
1
10
135.239703003346
20
9.72415160394058
30
0
41
1
10
135.410291914293
20
9.43209146147765
30
0
41
1
10
135.495586369766
20
9.24591808339056
30
0
41
1
10
135.666175280712
20
8.79236489062086
30
0
41
1
10
135.751469736186
20
8.52496606359639
30
0
41
1
10
135.922058647132
20
7.91434479261966
30
0
41
1
10
136.007353102605
20
7.57114454403768
30
0
41
1
10
136.177942013552
20
6.82068948497738
30
0
41
1
10
136.263236469025
20
6.41349624000071
30
0
41
1
10
136.433825379972
20
5.55193213448024
30
0
41
1
10
136.519119835445
20
5.09764632653557
30
0
41
1
10
136.689708746391
20
4.16160968329535
30
0
41
1
10
136.775003201865
20
3.67994419754447
30
0
41
1
10
136.860297657338
20
3.19449634900636
30
0
0
SPLINE
5
FD
100
AcDbEntity
8
1
62
256
6
ByLayer
370
13
48
1
60
0
100
AcDbSpline
70
4
71
3
72
84
73
80
40
0
40
0
40
0
40
0
40
0.0156250000000001
40
0.0156250000000001
40
0.0195312499999999
40
0.0195312499999999
40
0.0234374999999998
40
0.0312499999999998
40
0.0312499999999998
40
0.0625
40
0.0625
40
0.0937500000000002
40
0.0937500000000002
40
0.125
40
0.125
40
0.156250000000001
40
0.156250000000001
40
0.187500000000001
40
0.187500000000001
40
0.218750000000001
40
0.218750000000001
40
0.250000000000001
40
0.250000000000001
40
0.281250000000001
40
0.281250000000001
40
0.312500000000002
40
0.312500000000002
40
0.343750000000002
40
0.343750000000002
40
0.347656250000002
40
0.347656250000002
40
0.351562500000002
40
0.359375000000002
40
0.359375000000002
40
0.375000000000002
40
0.375000000000002
40
0.406250000000002
40
0.406250000000002
40
0.437500000000002
40
0.437500000000002
40
0.468750000000002
40
0.468750000000002
40
0.500000000000002
40
0.500000000000002
40
0.531250000000002
40
0.531250000000002
40
0.562500000000002
40
0.562500000000002
40
0.593750000000002
40
0.593750000000002
40
0.625000000000002
40
0.625000000000002
40
0.656250000000001
40
0.656250000000001
40
0.671875000000001
40
0.671875000000001
40
0.679687500000001
40
0.679687500000001
40
0.687500000000001
40
0.687500000000001
40
0.718750000000001
40
0.718750000000001
40
0.750000000000001
40
0.750000000000001
40
0.781250000000001
40
0.781250000000001
40
0.812500000000001
40
0.812500000000001
40
0.84375
40
0.84375
40
0.875
40
0.875
40
0.90625
40
0.90625
40
0.9375
40
0.9375
40
0.96875
40
0.96875
40
1
40
1
40
1
40
1
41
1
10
126.4
20
0.771343929830181
30
0
41
1
10
126.441592805776
20
0.540194738158647
30
0
41
1
10
126.483185611551
20
0.311405260108643
30
0
41
1
10
126.53517661877
20
0.0292583070667831
30
0
41
1
10
126.545574820214
20
-0.0268787575827503
30
0
41
1
10
126.566371223102
20
-0.13972675031286
30
0
41
1
10
126.597565827434
20
-0.309573152038638
30
0
41
1
10
126.628760431765
20
-0.481050710964325
30
0
41
1
10
126.732742446204
20
-1.05582273004052
30
0
41
1
10
126.815928057755
20
-1.52595813282855
30
0
41
1
10
126.982299280857
20
-2.47315169580324
30
0
41
1
10
127.065484892408
20
-2.95017379995582
30
0
41
1
10
127.23185611551
20
-3.8942651524892
30
0
41
1
10
127.315041727061
20
-4.36127309863659
30
0
41
1
10
127.481412950163
20
-5.26678975018729
30
0
41
1
10
127.564598561713
20
-5.70522197119192
30
0
41
1
10
127.730969784815
20
-6.53548537807399
30
0
41
1
10
127.814155396367
20
-6.92724275044196
30
0
41
1
10
127.980526619468
20
-7.64882819619228
30
0
41
1
10
128.063712231019
20
-7.97860439510779
30
0
41
1
10
128.230083454121
20
-8.56563000274821
30
0
41
1
10
128.313269065672
20
-8.82286200794488
30
0
41
1
10
128.479640288774
20
-9.2600103740684
30
0
41
1
10
128.562825900325
20
-9.43994461429514
30
0
41
1
10
128.729197123427
20
-9.72350153545449
30
0
41
1
10
128.812382734978
20
-9.82716753508913
30
0
41
1
10
128.97875395808
20
-9.96402109699861
30
0
41
1
10
129.061939569631
20
-9.99726261920938
30
0
41
1
10
129.155523382626
20
-10.0001588248042
30
0
41
1
10
129.16592158407
20
-10.0000058866987
30
0
41
1
10
129.186717986957
20
-9.99874127321303
30
0
41
1
10
129.217912591289
20
-9.99540186251539
30
0
41
1
10
129.24910719562
20
-9.98764676726145
30
0
41
1
10
129.311496404284
20
-9.96602491376501
30
0
41
1
10
129.353089210059
20
-9.94345594030042
30
0
41
1
10
129.477867627386
20
-9.84966675060289
30
0
41
1
10
129.561053238937
20
-9.75223532580014
30
0
41
1
10
129.727424462039
20
-9.48147548899368
30
0
41
1
10
129.810610073589
20
-9.3081022676281
30
0
41
1
10
129.976981296691
20
-8.8839499976165
30
0
41
1
10
130.060166908242
20
-8.63315042397147
30
0
41
1
10
130.226538131344
20
-8.05835937325193
30
0
41
1
10
130.309723742895
20
-7.73438217592155
30
0
41
1
10
130.476094965997
20
-7.02329926121834
30
0
41
1
10
130.559280577548
20
-6.6362428441065
30
0
41
1
10
130.72565180065
20
-5.81394947137269
30
0
41
1
10
130.808837412201
20
-5.37878517883652
30
0
41
1
10
130.975208635303
20
-4.47822369385156
30
0
41
1
10
131.058394246854
20
-4.01290352440483
30
0
41
1
10
131.224765469956
20
-3.0706553120213
30
0
41
1
10
131.307951081507
20
-2.59379037768403
30
0
41
1
10
131.474322304609
20
-1.64558676192056
30
0
41
1
10
131.55750791616
20
-1.17428641922069
30
0
41
1
10
131.682286333486
20
-0.482046721334996
30
0
41
1
10
131.723879139262
20
-0.253724710964605
30
0
41
1
10
131.786268347925
20
0.0840684377792513
30
0
41
1
10
131.807064750813
20
0.196961738409755
30
0
41
1
10
131.848657556588
20
0.424633294927901
30
0
41
1
10
131.869453959476
20
0.539179573544629
30
0
41
1
10
131.973435973915
20
1.11501221551592
30
0
41
1
10
132.056621585466
20
1.58574255848211
30
0
41
1
10
132.222992808568
20
2.53346891431801
30
0
41
1
10
132.306178420119
20
3.01042772906243
30
0
41
1
10
132.47254964322
20
3.95362957372478
30
0
41
1
10
132.555735254771
20
4.41981038876364
30
0
41
1
10
132.722106477873
20
5.32288250302003
30
0
41
1
10
132.805292089424
20
5.75969703188645
30
0
41
1
10
132.971663312526
20
6.58600537534767
30
0
41
1
10
133.054848924077
20
6.97542593389645
30
0
41
1
10
133.221220147179
20
7.69178308990462
30
0
41
1
10
133.30440575873
20
8.01866908881493
30
0
41
1
10
133.470776981832
20
8.59959072982662
30
0
41
1
10
133.553962593383
20
8.85361053014429
30
0
41
1
10
133.720333816485
20
9.28426364791326
30
0
41
1
10
133.803519428036
20
9.4609161770866
30
0
41
1
10
133.969890651138
20
9.73806785207697
30
0
41
1
10
134.053076262689
20
9.83861107568785
30
0
41
1
10
134.219447485791
20
9.96955010670163
30
0
41
1
10
134.302633097342
20
10
30
0
41
1
10
134.385818708892
20
10
30
0
0
SPLINE
5
FE
100
AcDbEntity
8
1
62
256
6
ByLayer
370
13
48
1
60
0
100
AcDbSpline
70
4
71
3
72
34
73
30
40
0
40
0
40
0
40
0
40
0.125
40
0.125
40
0.1875
40
0.1875
40
0.25
40
0.25
40
0.3125
40
0.3125
40
0.375
40
0.375
40
0.437500000000001
40
0.437500000000001
40
0.5
40
0.5
40
0.5625
40
0.5625
40
0.625
40
0.625
40
0.6875
40
0.6875
40
0.75
40
0.75
40
0.8125
40
0.8125
40
0.875
40
0.875
40
1
40
1
40
1
40
1
41
1
10
134.318334831688
20
10
30
0
41
1
10
134.424249949423
20
10
30
0
41
1
10
134.530165067158
20
9.95052288516942
30
0
41
1
10
134.689037743762
20
9.78851499992567
30
0
41
1
10
134.741995302629
20
9.71993019584596
30
0
41
1
10
134.847910420365
20
9.55216021929556
30
0
41
1
10
134.900867979232
20
9.45297023175215
30
0
41
1
10
135.006783096968
20
9.22330342369293
30
0
41
1
10
135.059740655836
20
9.09282319576235
30
0
41
1
10
135.165655773571
20
8.80077601350087
30
0
41
1
10
135.218613332439
20
8.63920764027296
30
0
41
1
10
135.324528450174
20
8.28614537517643
30
0
41
1
10
135.377486009042
20
8.09465243757631
30
0
41
1
10
135.483401126777
20
7.6838715757921
30
0
41
1
10
135.536358685645
20
7.46458706710317
30
0
41
1
10
135.642273803381
20
7.00125739239522
30
0
41
1
10
135.695231362248
20
6.75721784801215
30
0
41
1
10
135.801146479984
20
6.24817934072021
30
0
41
1
10
135.854104038851
20
5.98318763416501
30
0
41
1
10
135.960019156587
20
5.43661727940318
30
0
41
1
10
136.012976715454
20
5.15504673235887
30
0
41
1
10
136.11889183319
20
4.58002881747814
30
0
41
1
10
136.171849392058
20
4.28658953106464
30
0
41
1
10
136.277764509793
20
3.69263578944373
30
0
41
1
10
136.330722068661
20
3.39212860767097
30
0
41
1
10
136.436637186396
20
2.78869899378336
30
0
41
1
10
136.489594745264
20
2.48578243488512
30
0
41
1
10
136.648467421867
20
1.57988822886784
30
0
41
1
10
136.754382539603
20
0.980073225089797
30
0
41
1
10
136.860297657338
20
0.398488301776666
30
0
0
SPLINE
5
FF
100
AcDbEntity
8
1
62
256
6
ByLayer
370
13
48
1
60
0
100
AcDbSpline
70
4
71
3
72
82
73
78
40
0
40
0
40
0
40
0
40
0.0312499999999999
40
0.0312499999999999
40
0.0624999999999998
40
0.0624999999999998
40
0.0937499999999998
40
0.0937499999999998
40
0.125
40
0.125
40
0.15625
40
0.15625
40
0.1875
40
0.1875
40
0.21875
40
0.21875
40
0.249999999999999
40
0.249999999999999
40
0.281249999999999
40
0.281249999999999
40
0.296874999999999
40
0.296874999999999
40
0.300781249999999
40
0.300781249999999
40
0.304687499999999
40
0.304687499999999
40
0.312499999999999
40
0.312499999999999
40
0.343749999999999
40
0.343749999999999
40
0.374999999999999
40
0.374999999999999
40
0.406249999999999
40
0.406249999999999
40
0.437499999999999
40
0.437499999999999
40
0.468749999999998
40
0.468749999999998
40
0.499999999999998
40
0.499999999999998
40
0.531249999999998
40
0.531249999999998
40
0.562499999999998
40
0.562499999999998
40
0.593749999999998
40
0.593749999999998
40
0.624999999999998
40
0.624999999999998
40
0.640624999999998
40
0.640624999999998
40
0.648437499999998
40
0.648437499999998
40
0.652343749999998
40
0.652343749999998
40
0.656249999999998
40
0.656249999999998
40
0.687499999999998
40
0.687499999999998
40
0.718749999999998
40
0.718749999999998
40
0.749999999999998
40
0.749999999999998
40
0.781249999999998
40
0.781249999999998
40
0.812499999999998
40
0.812499999999998
40
0.843749999999999
40
0.843749999999999
40
0.874999999999999
40
0.874999999999999
40
0.906249999999999
40
0.906249999999999
40
0.937499999999999
40
0.937499999999999
40
0.96875
40
0.96875
40
1
40
1
40
1
40
1
41
1
10
126.4
20
-1.97554493012385
30
0
41
1
10
126.478030445985
20
-2.41968485109524
30
0
41
1
10
126.556060891971
20
-2.8669435098455
30
0
41
1
10
126.712121783942
20
-3.7539251524644
30
0
41
1
10
126.790152229927
20
-4.19360484932923
30
0
41
1
10
126.946213121898
20
-5.05019983241516
30
0
41
1
10
127.024243567883
20
-5.46706036246155
30
0
41
1
10
127.180304459854
20
-6.26288402127628
30
0
41
1
10
127.25833490584
20
-6.64179187893583
30
0
41
1
10
127.41439579781
20
-7.34836962101448
30
0
41
1
10
127.492426243796
20
-7.67599636611914
30
0
41
1
10
127.648487135767
20
-8.26998837368097
30
0
41
1
10
127.726517581752
20
-8.53633228966154
30
0
41
1
10
127.882578473723
20
-9.00205192807803
30
0
41
1
10
127.960608919709
20
-9.20143119357255
30
0
41
1
10
128.116669811679
20
-9.53210354987777
30
0
41
1
10
128.194700257665
20
-9.66342106332593
30
0
41
1
10
128.350761149636
20
-9.86099967330742
30
0
41
1
10
128.428791595621
20
-9.92729743307973
30
0
41
1
10
128.545837264599
20
-9.98262056998226
30
0
41
1
10
128.584852487592
20
-9.99372898886787
30
0
41
1
10
128.633621516333
20
-9.99905762082443
30
0
41
1
10
128.643375322081
20
-9.99969575824841
30
0
41
1
10
128.662882933577
20
-10.0001330263106
30
0
41
1
10
128.672636739325
20
-9.99993449785515
30
0
41
1
10
128.70189815657
20
-9.99807124315493
30
0
41
1
10
128.721405768066
20
-9.99513535137891
30
0
41
1
10
128.818943825548
20
-9.97167070370364
30
0
41
1
10
128.896974271534
20
-9.9247023645004
30
0
41
1
10
129.053035163504
20
-9.76745813350598
30
0
41
1
10
129.13106560949
20
-9.65714374818737
30
0
41
1
10
129.287126501461
20
-9.36903247441754
30
0
41
1
10
129.365156947446
20
-9.19120625451697
30
0
41
1
10
129.521217839417
20
-8.76776737825523
30
0
41
1
10
129.599248285402
20
-8.52214387285272
30
0
41
1
10
129.755309177373
20
-7.96731487040202
30
0
41
1
10
129.833339623359
20
-7.65812284819472
30
0
41
1
10
129.989400515329
20
-6.98484761756524
30
0
41
1
10
130.067430961315
20
-6.62080145721893
30
0
41
1
10
130.223491853286
20
-5.85022703864922
30
0
41
1
10
130.301522299271
20
-5.44375154414695
30
0
41
1
10
130.457583191242
20
-4.60306208356516
30
0
41
1
10
130.535613637227
20
-4.1689043859208
30
0
41
1
10
130.691674529198
20
-3.28824374877112
30
0
41
1
10
130.769704975184
20
-2.8417886310738
30
0
41
1
10
130.925765867154
20
-1.95097069094518
30
0
41
1
10
131.00379631314
20
-1.5066395063979
30
0
41
1
10
131.120841982118
20
-0.850910728631106
30
0
41
1
10
131.159857205111
20
-0.634109271718643
30
0
41
1
10
131.2183800396
20
-0.312518922591806
30
0
41
1
10
131.237887651096
20
-0.205922683607611
30
0
41
1
10
131.267149068341
20
-0.0470348014555384
30
0
41
1
10
131.276902874089
20
0.005646279025342
30
0
41
1
10
131.296410485585
20
0.111395212033273
30
0
41
1
10
131.306164291333
20
0.164439525133901
30
0
41
1
10
131.393948543067
20
0.643290228249782
30
0
41
1
10
131.471978989052
20
1.07937974513834
30
0
41
1
10
131.628039881023
20
1.96205485221677
30
0
41
1
10
131.706070327009
20
2.40862088472446
30
0
41
1
10
131.86213121898
20
3.29917187111036
30
0
41
1
10
131.940161664965
20
3.74311913137433
30
0
41
1
10
132.096222556936
20
4.61353476594067
30
0
41
1
10
132.174253002921
20
5.03995128417691
30
0
41
1
10
132.330313894892
20
5.85995152164176
30
0
41
1
10
132.408344340878
20
6.25347871388044
30
0
41
1
10
132.564405232848
20
6.99355764507169
30
0
41
1
10
132.642435678834
20
7.3400607566723
30
0
41
1
10
132.798496570805
20
7.97478727218154
30
0
41
1
10
132.87652701679
20
8.26298114411722
30
0
41
1
10
133.032587908761
20
8.77383548672958
30
0
41
1
10
133.110618354746
20
8.99649110045087
30
0
41
1
10
133.266679246717
20
9.37359649078513
30
0
41
1
10
133.344709692703
20
9.52806435700819
30
0
41
1
10
133.500770584673
20
9.7704911890965
30
0
41
1
10
133.578801030659
20
9.85848373217834
30
0
41
1
10
133.73486192263
20
9.97321841911273
30
0
41
1
10
133.812892368615
20
10
30
0
41
1
10
133.8909228146
20
10
30
0
0
SPLINE
5
100
100
AcDbEntity
8
1
62
256
6
ByLayer
370
13
48
1
60
0
100
AcDbSpline
70
4
71
3
72
42
73
38
40
0
40
0
40
0
40
0
40
0.0625000000000005
40
0.0625000000000005
40
0.125000000000001
40
0.125000000000001
40
0.187500000000002
40
0.187500000000002
40
0.250000000000002
40
0.250000000000002
40
0.312500000000003
40
0.312500000000003
40
0.375000000000003
40
0.375000000000003
40
0.437500000000003
40
0.437500000000003
40
0.500000000000004
40
0.500000000000004
40
0.562500000000004
40
0.562500000000004
40
0.625000000000005
40
0.625000000000005
40
0.687500000000005
40
0.687500000000005
40
0.750000000000006
40
0.750000000000006
40
0.812500000000006
40
0.812500000000006
40
0.843750000000006
40
0.843750000000006
40
0.859375000000006
40
0.859375000000006
40
0.875000000000006
40
0.875000000000006
40
0.937500000000003
40
0.937500000000003
40
1
40
1
40
1
40
1
41
1
10
133.823438937396
20
10
30
0
41
1
10
133.886706827395
20
10
30
0
41
1
10
133.949974717393
20
9.98241104995046
30
0
41
1
10
134.076510497391
20
9.90790515589208
30
0
41
1
10
134.13977838739
20
9.8509743158827
30
0
41
1
10
134.266314167387
20
9.69455475707736
30
0
41
1
10
134.329582057386
20
9.59505304431008
30
0
41
1
10
134.456117837384
20
9.3516190320255
30
0
41
1
10
134.519385727383
20
9.20767685743641
30
0
41
1
10
134.64592150738
20
8.87519827306926
30
0
41
1
10
134.709189397379
20
8.68665725964647
30
0
41
1
10
134.835725177376
20
8.26675163347724
30
0
41
1
10
134.898993067375
20
8.03538918850103
30
0
41
1
10
135.025528847373
20
7.53358706928714
30
0
41
1
10
135.088796737372
20
7.26315666091472
30
0
41
1
10
135.215332517369
20
6.68876915537004
30
0
41
1
10
135.278600407368
20
6.38482734529964
30
0
41
1
10
135.405136187366
20
5.75039790675169
30
0
41
1
10
135.468404077364
20
5.41992929954722
30
0
41
1
10
135.594939857362
20
4.74033298522772
30
0
41
1
10
135.658207747361
20
4.39122510887191
30
0
41
1
10
135.784743527358
20
3.68254838417658
30
0
41
1
10
135.848011417357
20
3.32299735316846
30
0
41
1
10
135.974547197355
20
2.60136857125391
30
0
41
1
10
136.037815087353
20
2.23930453653043
30
0
41
1
10
136.164350867351
20
1.51983989280194
30
0
41
1
10
136.22761875735
20
1.16244787643842
30
0
41
1
10
136.322520592348
20
0.634438768751124
30
0
41
1
10
136.354154537348
20
0.459772995788512
30
0
41
1
10
136.401605454847
20
0.200264206950067
30
0
41
1
10
136.417422427346
20
0.114175630220814
30
0
41
1
10
136.449056372346
20
-0.0570997219685978
30
0
41
1
10
136.464873344845
20
-0.14282556830392
30
0
41
1
10
136.543958207344
20
-0.5744103211847
30
0
41
1
10
136.607226097343
20
-0.926490924584016
30
0
41
1
10
136.73376187734
20
-1.63886932272831
30
0
41
1
10
136.797029767339
20
-1.99916141825511
30
0
41
1
10
136.860297657338
20
-2.36025695270101
30
0
0
SPLINE
5
101
100
AcDbEntity
8
1
62
256
6
ByLayer
370
13
48
1
60
0
100
AcDbSpline
70
4
71
3
72
80
73
76
40
0
40
0
40
0
40
0
40
0.0312499999999977
40
0.0312499999999977
40
0.0624999999999953
40
0.0624999999999953
40
0.093749999999993
40
0.093749999999993
40
0.124999999999991
40
0.124999999999991
40
0.156249999999988
40
0.156249999999988
40
0.187499999999986
40
0.187499999999986
40
0.218749999999984
40
0.218749999999984
40
0.249999999999981
40
0.249999999999981
40
0.253906249999981
40
0.253906249999981
40
0.257812499999981
40
0.265624999999981
40
0.265624999999981
40
0.281249999999982
40
0.281249999999982
40
0.312499999999982
40
0.312499999999982
40
0.343749999999983
40
0.343749999999983
40
0.374999999999984
40
0.374999999999984
40
0.406249999999984
40
0.406249999999984
40
0.437499999999985
40
0.437499999999985
40
0.468749999999986
40
0.468749999999986
40
0.499999999999987
40
0.499999999999987
40
0.531249999999987
40
0.531249999999987
40
0.562499999999988
40
0.562499999999988
40
0.593749999999989
40
0.593749999999989
40
0.62499999999999
40
0.62499999999999
40
0.62890624999999
40
0.62890624999999
40
0.63281249999999
40
0.64062499999999
40
0.64062499999999
40
0.656249999999991
40
0.656249999999991
40
0.687499999999992
40
0.687499999999992
40
0.718749999999992
40
0.718749999999992
40
0.749999999999993
40
0.749999999999993
40
0.781249999999994
40
0.781249999999994
40
0.812499999999995
40
0.812499999999995
40
0.843749999999996
40
0.843749999999996
40
0.874999999999997
40
0.874999999999997
40
0.906249999999998
40
0.906249999999998
40
0.937499999999998
40
0.937499999999998
40
0.968749999999999
40
0.968749999999999
40
1
40
1
40
1
40
1
41
1
10
126.4
20
-4.76807030244836
30
0
41
1
10
126.47287528042
20
-5.16554782696144
30
0
41
1
10
126.54575056084
20
-5.55228611792524
30
0
41
1
10
126.691501121679
20
-6.29210908308661
30
0
41
1
10
126.764376402099
20
-6.6451546415291
30
0
41
1
10
126.910126962939
20
-7.30676464587884
30
0
41
1
10
126.983002243359
20
-7.61529816919307
30
0
41
1
10
127.128752804199
20
-8.17956382406993
30
0
41
1
10
127.201628084619
20
-8.43527931085384
30
0
41
1
10
127.347378645458
20
-8.88883009035476
30
0
41
1
10
127.420253925878
20
-9.08666532900762
30
0
41
1
10
127.566004486718
20
-9.42287362385667
30
0
41
1
10
127.638879767138
20
-9.56126130811981
30
0
41
1
10
127.784630327978
20
-9.78025961408133
30
0
41
1
10
127.857505608398
20
-9.86089458077672
30
0
41
1
10
128.003256169237
20
-9.96873380706592
30
0
41
1
10
128.076131449657
20
-9.99596611924508
30
0
41
1
10
128.158116140129
20
-10.0000342127857
30
0
41
1
10
128.167225550182
20
-10.0001192900861
30
0
41
1
10
128.185444370287
20
-9.99956017186346
30
0
41
1
10
128.212772600445
20
-9.99762180743414
30
0
41
1
10
128.240100830602
20
-9.99232466213047
30
0
41
1
10
128.294757290917
20
-9.97709898493352
30
0
41
1
10
128.331194931127
20
-9.96077033551592
30
0
41
1
10
128.440507851757
20
-9.89212141746953
30
0
41
1
10
128.513383132177
20
-9.82006876235585
30
0
41
1
10
128.659133693016
20
-9.61875304489553
30
0
41
1
10
128.732008973436
20
-9.48946467506664
30
0
41
1
10
128.877759534276
20
-9.17151726438408
30
0
41
1
10
128.950634814696
20
-8.98284172076089
30
0
41
1
10
129.096385375536
20
-8.54714340106634
30
0
41
1
10
129.169260655955
20
-8.30011819152463
30
0
41
1
10
129.315011216795
20
-7.75223042492635
30
0
41
1
10
129.387886497215
20
-7.45138199320175
30
0
41
1
10
129.533637058055
20
-6.80367478330803
30
0
41
1
10
129.606512338475
20
-6.45684504334153
30
0
41
1
10
129.752262899314
20
-5.72766121292517
30
0
41
1
10
129.825138179734
20
-5.3453454723018
30
0
41
1
10
129.970888740574
20
-4.55729884845158
30
0
41
1
10
130.043764020994
20
-4.15160786610824
30
0
41
1
10
130.189514581834
20
-3.32933839296504
30
0
41
1
10
130.262389862254
20
-2.91279399963992
30
0
41
1
10
130.408140423093
20
-2.08062676022214
30
0
41
1
10
130.481015703513
20
-1.66502736690938
30
0
41
1
10
130.626766264353
20
-0.844961516803949
30
0
41
1
10
130.699641544773
20
-0.44050636538941
30
0
41
1
10
130.781626235245
20
0.0036930240091237
30
0
41
1
10
130.790735645298
20
0.0529152292779713
30
0
41
1
10
130.808954465403
20
0.151851817775537
30
0
41
1
10
130.83628269556
20
0.300694921111187
30
0
41
1
10
130.863610925718
20
0.450790494041115
30
0
41
1
10
130.918267386033
20
0.752473240596714
30
0
41
1
10
130.954705026242
20
0.955588180499461
30
0
41
1
10
131.064017946872
20
1.56932698756213
30
0
41
1
10
131.136893227292
20
1.98440469035046
30
0
41
1
10
131.282643788132
20
2.81638059199352
30
0
41
1
10
131.355519068552
20
3.23325626425066
30
0
41
1
10
131.501269629391
20
4.05713700785464
30
0
41
1
10
131.574144909812
20
4.4641086721513
30
0
41
1
10
131.719895470651
20
5.25568363599473
30
0
41
1
10
131.792770751071
20
5.64024724247275
30
0
41
1
10
131.938521311911
20
6.3748192664105
30
0
41
1
10
132.011396592331
20
6.72478892710856
30
0
41
1
10
132.157147153171
20
7.37950378701703
30
0
41
1
10
132.23002243359
20
7.68421898791337
30
0
41
1
10
132.37577299443
20
8.24033425757906
30
0
41
1
10
132.44864827485
20
8.49171893531934
30
0
41
1
10
132.59439883569
20
8.93636161325497
30
0
41
1
10
132.66727411611
20
9.1296208100558
30
0
41
1
10
132.813024676949
20
9.45669655937596
30
0
41
1
10
132.885899957369
20
9.59052869310068
30
0
41
1
10
133.031650518209
20
9.80066611899861
30
0
41
1
10
133.104525798629
20
9.87699625575749
30
0
41
1
10
133.250276359469
20
9.97664914489954
30
0
41
1
10
133.323151639889
20
10
30
0
41
1
10
133.396026920308
20
10
30
0
0
SPLINE
5
102
100
AcDbEntity
8
1
62
256
6
ByLayer
370
13
48
1
60
0
100
AcDbSpline
70
4
71
3
72
42
73
38
40
0
40
0
40
0
40
0
40
0.0625000000000008
40
0.0625000000000008
40
0.125000000000002
40
0.125000000000002
40
0.187500000000002
40
0.187500000000002
40
0.250000000000003
40
0.250000000000003
40
0.312500000000004
40
0.312500000000004
40
0.375000000000005
40
0.375000000000005
40
0.437500000000006
40
0.437500000000006
40
0.500000000000006
40
0.500000000000006
40
0.562500000000007
40
0.562500000000007
40
0.625000000000008
40
0.625000000000008
40
0.687500000000009
40
0.687500000000009
40
0.718750000000009
40
0.718750000000009
40
0.734375000000009
40
0.734375000000009
40
0.750000000000009
40
0.750000000000009
40
0.812500000000007
40
0.812500000000007
40
0.875000000000005
40
0.875000000000005
40
0.937500000000002
40
0.937500000000002
40
1
40
1
40
1
40
1
41
1
10
133.328543043104
20
10
30
0
41
1
10
133.402121264233
20
10
30
0
41
1
10
133.475699485363
20
9.97619530741468
30
0
41
1
10
133.622855927623
20
9.87455164501785
30
0
41
1
10
133.696434148753
20
9.79668320054026
30
0
41
1
10
133.843590591013
20
9.5822859598741
30
0
41
1
10
133.917168812143
20
9.44573123093119
30
0
41
1
10
134.064325254402
20
9.11204333176556
30
0
41
1
10
134.137903475532
20
8.91489419047844
30
0
41
1
10
134.285059917792
20
8.46146099310627
30
0
41
1
10
134.358638138922
20
8.20517633804559
30
0
41
1
10
134.505794581182
20
7.63854468421593
30
0
41
1
10
134.579372802312
20
7.32821465476439
30
0
41
1
10
134.726529244571
20
6.66195276516044
30
0
41
1
10
134.800107465701
20
6.30605310314354
30
0
41
1
10
134.947263907961
20
5.55974923655742
30
0
41
1
10
135.020842129091
20
5.16938601881853
30
0
41
1
10
135.167998571351
20
4.36676314398585
30
0
41
1
10
135.241576792481
20
3.9545448603256
30
0
41
1
10
135.38873323474
20
3.12106219210205
30
0
41
1
10
135.46231145587
20
2.69983200339217
30
0
41
1
10
135.60946789813
20
1.86025717040431
30
0
41
1
10
135.68304611926
20
1.4419349345491
30
0
41
1
10
135.793413450955
20
0.824227714951064
30
0
41
1
10
135.83020256152
20
0.619938699431856
30
0
41
1
10
135.885386227367
20
0.316717824486176
30
0
41
1
10
135.903780782649
20
0.216178509649325
30
0
41
1
10
135.940569893214
20
0.0162868371460547
30
0
41
1
10
135.958964448497
20
-0.0829413355437794
30
0
41
1
10
136.050937224909
20
-0.583978204848904
30
0
41
1
10
136.124515446039
20
-0.994189417147425
30
0
41
1
10
136.271671888299
20
-1.82479636110151
30
0
41
1
10
136.345250109429
20
-2.24517865920322
30
0
41
1
10
136.492406551689
20
-3.08539005031
30
0
41
1
10
136.565984772818
20
-3.50519286168441
30
0
41
1
10
136.713141215078
20
-4.33194621930011
30
0
41
1
10
136.786719436208
20
-4.73885972253416
30
0
41
1
10
136.860297657338
20
-5.13289770708232
30
0
0
SPLINE
5
103
100
AcDbEntity
8
1
62
256
6
ByLayer
370
13
48
1
60
0
100
AcDbSpline
70
4
71
3
72
8
73
4
40
0
40
0
40
0
40
0
40
1
40
1
40
1
40
1
41
1
10
136.860297657338
20
1.26893052350553
30
0
41
1
10
138.073531771559
20
0.833919414134641
30
0
41
1
10
139.286765885779
20
0.410939797861033
30
0
41
1
10
140.5
20
5.68E-14
30
0
0
SPLINE
5
104
100
AcDbEntity
8
1
62
256
6
ByLayer
370
13
48
1
60
0
100
AcDbSpline
70
4
71
3
72
8
73
4
40
0
40
0
40
0
40
0
40
1
40
1
40
1
40
1
41
1
10
136.860297657338
20
-7.55769701989172
30
0
41
1
10
138.073531771559
20
-5.03051996792797
30
0
41
1
10
139.286765885779
20
-2.51127095884249
30
0
41
1
10
140.5
20
5.116E-13
30
0
0
SPLINE
5
105
100
AcDbEntity
8
1
62
256
6
ByLayer
370
13
48
1
60
0
100
AcDbSpline
70
4
71
3
72
8
73
4
40
0
40
0
40
0
40
0
40
1
40
1
40
1
40
1
41
1
10
136.860297657338
20
8.78527686720602
30
0
41
1
10
138.073531771559
20
5.86264676021091
30
0
41
1
10
139.286765885779
20
2.93420172797306
30
0
41
1
10
140.5
20
8.53E-14
30
0
0
SPLINE
5
106
100
AcDbEntity
8
1
62
256
6
ByLayer
370
13
48
1
60
0
100
AcDbSpline
70
4
71
3
72
8
73
4
40
0
40
0
40
0
40
0
40
1
40
1
40
1
40
1
41
1
10
136.860297657338
20
-9.38627243372611
30
0
41
1
10
138.073531771559
20
-6.25333010881806
30
0
41
1
10
139.286765885779
20
-3.12455191616922
30
0
41
1
10
140.5
20
5.68E-14
30
0
0
SPLINE
5
107
100
AcDbEntity
8
1
62
256
6
ByLayer
370
13
48
1
60
0
100
AcDbSpline
70
4
71
3
72
8
73
4
40
0
40
0
40
0
40
0
40
1
40
1
40
1
40
1
41
1
10
136.860297657338
20
7.38990869936407
30
0
41
1
10
138.073531771559
20
4.93477954512738
30
0
41
1
10
139.286765885779
20
2.47146031109028
30
0
41
1
10
140.5
20
-5.68E-14
30
0
0
SPLINE
5
108
100
AcDbEntity
8
1
62
256
6
ByLayer
370
13
48
1
60
0
100
AcDbSpline
70
4
71
3
72
8
73
4
40
0
40
0
40
0
40
0
40
1
40
1
40
1
40
1
41
1
10
136.860297657338
20
9.99877931241008
30
0
41
1
10
138.073531771559
20
6.66604243577902
30
0
41
1
10
139.286765885779
20
3.33309392155476
30
0
41
1
10
140.5
20
0
30
0
0
SPLINE
5
109
100
AcDbEntity
8
1
62
256
6
ByLayer
370
13
48
1
60
0
100
AcDbSpline
70
4
71
3
72
8
73
4
40
0
40
0
40
0
40
0
40
1
40
1
40
1
40
1
41
1
10
136.860297657338
20
3.60156904144716
30
0
41
1
10
138.073531771559
20
2.38972786675512
30
0
41
1
10
139.286765885779
20
1.18919692601349
30
0
41
1
10
140.5
20
1.99E-13
30
0
0
SPLINE
5
10A
100
AcDbEntity
8
1
62
256
6
ByLayer
370
13
48
1
60
0
100
AcDbSpline
70
4
71
3
72
8
73
4
40
0
40
0
40
0
40
0
40
1
40
1
40
1
40
1
41
1
10
136.860297657338
20
-8.1813715998783
30
0
41
1
10
138.073531771559
20
-5.46122410989739
30
0
41
1
10
139.286765885779
20
-2.73408216419264
30
0
41
1
10
140.5
20
-4.547E-13
30
0
0
SPLINE
5
10B
100
AcDbEntity
8
1
62
256
6
ByLayer
370
13
48
1
60
0
100
AcDbSpline
70
4
71
3
72
8
73
4
40
0
40
0
40
0
40
0
40
1
40
1
40
1
40
1
41
1
10
136.860297657338
20
-9.91531739192897
30
0
41
1
10
138.073531771559
20
-6.61178715605467
30
0
41
1
10
139.286765885779
20
-3.30665946320664
30
0
41
1
10
140.5
20
-5.4E-13
30
0
0
SPLINE
5
10C
100
AcDbEntity
8
1
62
256
6
ByLayer
370
13
48
1
60
0
100
AcDbSpline
70
4
71
3
72
8
73
4
40
0
40
0
40
0
40
0
40
1
40
1
40
1
40
1
41
1
10
136.860297657338
20
9.67201321492718
30
0
41
1
10
138.073531771559
20
6.45109055842943
30
0
41
1
10
139.286765885779
20
3.22706479178169
30
0
41
1
10
140.5
20
0
30
0
0
SPLINE
5
10D
100
AcDbEntity
8
1
62
256
6
ByLayer
370
13
48
1
60
0
100
AcDbSpline
70
4
71
3
72
8
73
4
40
0
40
0
40
0
40
0
40
1
40
1
40
1
40
1
41
1
10
136.860297657338
20
-0.126283970480216
30
0
41
1
10
138.073531771559
20
-0.0720579399609562
30
0
41
1
10
139.286765885779
20
-0.0299630310963721
30
0
41
1
10
140.5
20
0
30
0
0
SPLINE
5
10E
100
AcDbEntity
8
1
62
256
6
ByLayer
370
13
48
1
60
0
100
AcDbSpline
70
4
71
3
72
8
73
4
40
0
40
0
40
0
40
0
40
1
40
1
40
1
40
1
41
1
10
136.860297657338
20
-5.61637761811707
30
0
41
1
10
138.073531771559
20
-3.7542898411248
30
0
41
1
10
139.286765885779
20
-1.88215154583858
30
0
41
1
10
140.5
20
-3.126E-13
30
0
0
SPLINE
5
10F
100
AcDbEntity
8
1
62
256
6
ByLayer
370
13
48
1
60
0
100
AcDbSpline
70
4
71
3
72
8
73
4
40
0
40
0
40
0
40
0
40
1
40
1
40
1
40
1
41
1
10
136.860297657338
20
-2.51111843520783
30
0
41
1
10
138.073531771559
20
-1.66233535918354
30
0
41
1
10
139.286765885779
20
-0.825290362403535
30
0
41
1
10
140.5
20
2.84E-14
30
0
0
SPLINE
5
110
100
AcDbEntity
8
1
62
256
6
ByLayer
370
13
48
1
60
0
100
AcDbSpline
70
4
71
3
72
8
73
4
40
0
40
0
40
0
40
0
40
1
40
1
40
1
40
1
41
1
10
136.860297657338
20
-9.31808409224871
30
0
41
1
10
138.073531771559
20
-6.21645950116806
30
0
41
1
10
139.286765885779
20
-3.11041088726947
30
0
41
1
10
140.5
20
5.68E-14
30
0
0
SPLINE
5
111
100
AcDbEntity
8
1
62
256
6
ByLayer
370
13
48
1
60
0
100
AcDbSpline
70
4
71
3
72
8
73
4
40
0
40
0
40
0
40
0
40
1
40
1
40
1
40
1
41
1
10
136.860297657338
20
-4.75056934975885
30
0
41
1
10
138.073531771559
20
-3.15637031818852
30
0
41
1
10
139.286765885779
20
-1.5728367363769
30
0
41
1
10
140.5
20
2.84E-14
30
0
0
SPLINE
5
112
100
AcDbEntity
8
1
62
256
6
ByLayer
370
13
48
1
60
0
100
AcDbSpline
70
4
71
3
72
8
73
4
40
0
40
0
40
0
40
0
40
1
40
1
40
1
40
1
41
1
10
136.860297657338
20
-8.29062372845519
30
0
41
1
10
138.073531771559
20
-5.52029861267013
30
0
41
1
10
139.286765885779
20
-2.75673907993612
30
0
41
1
10
140.5
20
5.68E-14
30
0
0
SPLINE
5
113
100
AcDbEntity
8
1
62
256
6
ByLayer
370
13
48
1
60
0
100
AcDbSpline
70
4
71
3
72
8
73
4
40
0
40
0
40
0
40
0
40
1
40
1
40
1
40
1
41
1
10
136.860297657338
20
6.67045536548821
30
0
41
1
10
138.073531771559
20
4.43793144389397
30
0
41
1
10
139.28676588578
20
2.21443161430224
30
0
41
1
10
140.5
20
-4.547E-13
30
0
0
SPLINE
5
114
100
AcDbEntity
8
1
62
256
6
ByLayer
370
13
48
1
60
0
100
AcDbSpline
70
4
71
3
72
8
73
4
40
0
40
0
40
0
40
0
40
1
40
1
40
1
40
1
41
1
10
136.860297657338
20
-7.43014919779631
30
0
41
1
10
138.073531771559
20
-4.96155266936665
30
0
41
1
10
139.286765885779
20
-2.48481984712413
30
0
41
1
10
140.5
20
-4.263E-13
30
0
0
SPLINE
5
115
100
AcDbEntity
8
1
62
256
6
ByLayer
370
13
48
1
60
0
100
AcDbSpline
70
4
71
3
72
8
73
4
40
0
40
0
40
0
40
0
40
1
40
1
40
1
40
1
41
1
10
136.860297657338
20
8.14676575869299
30
0
41
1
10
138.073531771559
20
5.43821290607877
30
0
41
1
10
139.286765885779
20
2.72260631704427
30
0
41
1
10
140.5
20
-5.68E-14
30
0
0
SPLINE
5
116
100
AcDbEntity
8
1
62
256
6
ByLayer
370
13
48
1
60
0
100
AcDbSpline
70
4
71
3
72
8
73
4
40
0
40
0
40
0
40
0
40
1
40
1
40
1
40
1
41
1
10
136.860297657338
20
9.9316794393678
30
0
41
1
10
138.073531771559
20
6.6197038576608
30
0
41
1
10
139.28676588578
20
3.30912211947816
30
0
41
1
10
140.5
20
-6.821E-13
30
0
0
SPLINE
5
117
100
AcDbEntity
8
1
62
256
6
ByLayer
370
13
48
1
60
0
100
AcDbSpline
70
4
71
3
72
8
73
4
40
0
40
0
40
0
40
0
40
1
40
1
40
1
40
1
41
1
10
136.860297657338
20
8.25696677332175
30
0
41
1
10
138.073531771559
20
5.49780048784069
30
0
41
1
10
139.28676588578
20
2.74546001459513
30
0
41
1
10
140.5
20
-5.684E-13
30
0
0
SPLINE
5
118
100
AcDbEntity
8
1
62
256
6
ByLayer
370
13
48
1
60
0
100
AcDbSpline
70
4
71
3
72
8
73
4
40
0
40
0
40
0
40
0
40
1
40
1
40
1
40
1
41
1
10
136.860297657338
20
-6.71498160912552
30
0
41
1
10
138.073531771559
20
-4.46766426581928
30
0
41
1
10
139.286765885779
20
-2.22932225659818
30
0
41
1
10
140.5
20
5.68E-14
30
0
0
SPLINE
5
119
100
AcDbEntity
8
1
62
256
6
ByLayer
370
13
48
1
60
0
100
AcDbSpline
70
4
71
3
72
8
73
4
40
0
40
0
40
0
40
0
40
1
40
1
40
1
40
1
41
1
10
136.860297657338
20
9.29616653982353
30
0
41
1
10
138.073531771559
20
6.20191546713184
30
0
41
1
10
139.286765885779
20
3.10317275228411
30
0
41
1
10
140.5
20
8.53E-14
30
0
0
SPLINE
5
11A
100
AcDbEntity
8
1
62
256
6
ByLayer
370
13
48
1
60
0
100
AcDbSpline
70
4
71
3
72
8
73
4
40
0
40
0
40
0
40
0
40
1
40
1
40
1
40
1
41
1
10
136.860297657338
20
2.26586182281773
30
0
41
1
10
138.073531771559
20
1.52239134108348
30
0
41
1
10
139.286765885779
20
0.767099037917234
30
0
41
1
10
140.5
20
-2.84E-14
30
0
0
SPLINE
5
11B
100
AcDbEntity
8
1
62
256
6
ByLayer
370
13
48
1
60
0
100
AcDbSpline
70
4
71
3
72
8
73
4
40
0
40
0
40
0
40
0
40
1
40
1
40
1
40
1
41
1
10
136.860297657338
20
7.51831940632252
30
0
41
1
10
138.073531771559
20
5.00421342035781
30
0
41
1
10
139.28676588578
20
2.49809036952502
30
0
41
1
10
140.5
20
-5.116E-13
30
0
0
SPLINE
5
11C
100
AcDbEntity
8
1
62
256
6
ByLayer
370
13
48
1
60
0
100
AcDbSpline
70
4
71
3
72
8
73
4
40
0
40
0
40
0
40
0
40
1
40
1
40
1
40
1
41
1
10
136.860297657338
20
9.36543336798962
30
0
41
1
10
138.073531771559
20
6.23936923106155
30
0
41
1
10
139.28676588578
20
3.11753743981913
30
0
41
1
10
140.5
20
-6.537E-13
30
0
0
SPLINE
5
11D
100
AcDbEntity
8
1
62
256
6
ByLayer
370
13
48
1
60
0
100
AcDbSpline
70
4
71
3
72
8
73
4
40
0
40
0
40
0
40
0
40
1
40
1
40
1
40
1
41
1
10
136.860297657338
20
6.52570035519739
30
0
41
1
10
138.073531771559
20
4.3596599230716
30
0
41
1
10
139.286765885779
20
2.1844120429279
30
0
41
1
10
140.5
20
5.68E-14
30
0
0
SPLINE
5
11E
100
AcDbEntity
8
1
62
256
6
ByLayer
370
13
48
1
60
0
100
AcDbSpline
70
4
71
3
72
8
73
4
40
0
40
0
40
0
40
0
40
1
40
1
40
1
40
1
41
1
10
136.860297657338
20
2.45306731846657
30
0
41
1
10
138.073531771559
20
1.6236165685996
30
0
41
1
10
139.286765885779
20
0.805922072277781
30
0
41
1
10
140.5
20
1.421E-13
30
0
0
SPLINE
5
11F
100
AcDbEntity
8
1
62
256
6
ByLayer
370
13
48
1
60
0
100
AcDbSpline
70
4
71
3
72
8
73
4
40
0
40
0
40
0
40
0
40
1
40
1
40
1
40
1
41
1
10
136.860297657338
20
-8.81374534107525
30
0
41
1
10
138.073531771559
20
-5.88156176582601
30
0
41
1
10
139.286765885779
20
-2.94362717958418
30
0
41
1
10
140.5
20
-4.832E-13
30
0
0
SPLINE
5
120
100
AcDbEntity
8
1
62
256
6
ByLayer
370
13
48
1
60
0
100
AcDbSpline
70
4
71
3
72
8
73
4
40
0
40
0
40
0
40
0
40
1
40
1
40
1
40
1
41
1
10
136.860297657338
20
4.52682342687467
30
0
41
1
10
138.073531771559
20
3.02870035171227
30
0
41
1
10
139.286765885779
20
1.51974919074806
30
0
41
1
10
140.5
20
-2.84E-14
30
0
0
SPLINE
5
121
100
AcDbEntity
8
1
62
256
6
ByLayer
370
13
48
1
60
0
100
AcDbSpline
70
4
71
3
72
8
73
4
40
0
40
0
40
0
40
0
40
1
40
1
40
1
40
1
41
1
10
136.860297657338
20
-4.58017662930067
30
0
41
1
10
138.073531771559
20
-3.06423604704614
30
0
41
1
10
139.286765885779
20
-1.53750036754772
30
0
41
1
10
140.5
20
-2.558E-13
30
0
0
SPLINE
5
122
100
AcDbEntity
8
1
62
256
6
ByLayer
370
13
48
1
60
0
100
AcDbSpline
70
4
71
3
72
8
73
4
40
0
40
0
40
0
40
0
40
1
40
1
40
1
40
1
41
1
10
136.860297657338
20
5.56669485641129
30
0
41
1
10
138.073531771559
20
3.72120865332738
30
0
41
1
10
139.286765885779
20
1.86563138821464
30
0
41
1
10
140.5
20
5.68E-14
30
0
0
SPLINE
5
123
100
AcDbEntity
8
1
62
256
6
ByLayer
370
13
48
1
60
0
100
AcDbSpline
70
4
71
3
72
8
73
4
40
0
40
0
40
0
40
0
40
1
40
1
40
1
40
1
41
1
10
136.860297657338
20
9.90735706545871
30
0
41
1
10
138.073531771559
20
6.60655233225239
30
0
41
1
10
139.286765885779
20
3.30407809897744
30
0
41
1
10
140.5
20
0
30
0
0
SPLINE
5
124
100
AcDbEntity
8
1
62
256
6
ByLayer
370
13
48
1
60
0
100
AcDbSpline
70
4
71
3
72
8
73
4
40
0
40
0
40
0
40
0
40
1
40
1
40
1
40
1
41
1
10
136.860297657338
20
-2.32418870171318
30
0
41
1
10
138.073531771559
20
-1.56125924100161
30
0
41
1
10
139.286765885779
20
-0.786524516127002
30
0
41
1
10
140.5
20
-1.421E-13
30
0
0
SPLINE
5
125
100
AcDbEntity
8
1
62
256
6
ByLayer
370
13
48
1
60
0
100
AcDbSpline
70
4
71
3
72
8
73
4
40
0
40
0
40
0
40
0
40
1
40
1
40
1
40
1
41
1
10
136.860297657338
20
9.71915018925807
30
0
41
1
10
138.073531771559
20
6.47657833021987
30
0
41
1
10
139.28676588578
20
3.2368401478291
30
0
41
1
10
140.5
20
-6.821E-13
30
0
0
SPLINE
5
126
100
AcDbEntity
8
1
62
256
6
ByLayer
370
13
48
1
60
0
100
AcDbSpline
70
4
71
3
72
8
73
4
40
0
40
0
40
0
40
0
40
1
40
1
40
1
40
1
41
1
10
136.860297657338
20
0.0663603043155661
30
0
41
1
10
138.073531771559
20
0.0321081288731477
30
0
41
1
10
139.286765885779
20
0.0099879077039589
30
0
41
1
10
140.5
20
0
30
0
0
SPLINE
5
127
100
AcDbEntity
8
1
62
256
6
ByLayer
370
13
48
1
60
0
100
AcDbSpline
70
4
71
3
72
8
73
4
40
0
40
0
40
0
40
0
40
1
40
1
40
1
40
1
41
1
10
136.860297657338
20
-6.57099094760451
30
0
41
1
10
138.073531771559
20
-4.38980604150734
30
0
41
1
10
139.286765885779
20
-2.19946119733578
30
0
41
1
10
140.5
20
5.68E-14
30
0
0
SPLINE
5
128
100
AcDbEntity
8
1
62
256
6
ByLayer
370
13
48
1
60
0
100
AcDbSpline
70
4
71
3
72
8
73
4
40
0
40
0
40
0
40
0
40
1
40
1
40
1
40
1
41
1
10
136.860297657338
20
4.69775170613346
30
0
41
1
10
138.073531771559
20
3.12112420869869
30
0
41
1
10
139.286765885779
20
1.5551966247877
30
0
41
1
10
140.5
20
2.558E-13
30
0
0
SPLINE
5
129
100
AcDbEntity
8
1
62
256
6
ByLayer
370
13
48
1
60
0
100
AcDbSpline
70
4
71
3
72
8
73
4
40
0
40
0
40
0
40
0
40
1
40
1
40
1
40
1
41
1
10
136.860297657338
20
-9.68706145531525
30
0
41
1
10
138.073531771559
20
-6.46105234348099
30
0
41
1
10
139.286765885779
20
-3.23201046363417
30
0
41
1
10
140.5
20
5.68E-14
30
0
0
SPLINE
5
12A
100
AcDbEntity
8
1
62
256
6
ByLayer
370
13
48
1
60
0
100
AcDbSpline
70
4
71
3
72
8
73
4
40
0
40
0
40
0
40
0
40
1
40
1
40
1
40
1
41
1
10
136.860297657338
20
-8.90311469882977
30
0
41
1
10
138.073531771559
20
-5.92988531284749
30
0
41
1
10
139.286765885779
20
-2.96216076822085
30
0
41
1
10
140.5
20
-4.832E-13
30
0
0
SPLINE
5
12B
100
AcDbEntity
8
1
62
256
6
ByLayer
370
13
48
1
60
0
100
AcDbSpline
70
4
71
3
72
8
73
4
40
0
40
0
40
0
40
0
40
1
40
1
40
1
40
1
41
1
10
136.860297657338
20
-1.13717391378427
30
0
41
1
10
138.073531771559
20
-0.770169582839429
30
0
41
1
10
139.286765885779
20
-0.39110907419493
30
0
41
1
10
140.5
20
-5.68E-14
30
0
0
SPLINE
5
12C
100
AcDbEntity
8
1
62
256
6
ByLayer
370
13
48
1
60
0
100
AcDbSpline
70
4
71
3
72
8
73
4
40
0
40
0
40
0
40
0
40
1
40
1
40
1
40
1
41
1
10
136.860297657338
20
-9.99953608736678
30
0
41
1
10
138.073531771559
20
-6.66647425340568
30
0
41
1
10
139.286765885779
20
-3.33327347935233
30
0
41
1
10
140.5
20
-5.4E-13
30
0
0
SPLINE
5
12D
100
AcDbEntity
8
1
62
256
6
ByLayer
370
13
48
1
60
0
100
AcDbSpline
70
4
71
3
72
8
73
4
40
0
40
0
40
0
40
0
40
1
40
1
40
1
40
1
41
1
10
136.860297657338
20
-9.73307822618443
30
0
41
1
10
138.073531771559
20
-6.48593440201589
30
0
41
1
10
139.286765885779
20
-3.24155350974198
30
0
41
1
10
140.5
20
5.68E-14
30
0
0
SPLINE
5
12E
100
AcDbEntity
8
1
62
256
6
ByLayer
370
13
48
1
60
0
100
AcDbSpline
70
4
71
3
72
8
73
4
40
0
40
0
40
0
40
0
40
1
40
1
40
1
40
1
41
1
10
136.860297657338
20
3.42119200883499
30
0
41
1
10
138.073531771559
20
2.29219490650965
30
0
41
1
10
139.286765885779
20
1.15178999140028
30
0
41
1
10
140.5
20
-2.84E-14
30
0
0
SPLINE
5
12F
100
AcDbEntity
8
1
62
256
6
ByLayer
370
13
48
1
60
0
100
AcDbSpline
70
4
71
3
72
8
73
4
40
0
40
0
40
0
40
0
40
1
40
1
40
1
40
1
41
1
10
136.860297657338
20
-5.7747194041122
30
0
41
1
10
138.073531771559
20
-3.83990796497886
30
0
41
1
10
139.286765885779
20
-1.91498876878976
30
0
41
1
10
140.5
20
3.979E-13
30
0
0
SPLINE
5
130
100
AcDbEntity
8
1
62
256
6
ByLayer
370
13
48
1
60
0
100
AcDbSpline
70
4
71
3
72
8
73
4
40
0
40
0
40
0
40
0
40
1
40
1
40
1
40
1
41
1
10
136.860297657338
20
5.72569135158656
30
0
41
1
10
138.073531771559
20
3.80718078968269
30
0
41
1
10
139.286765885779
20
1.89860438601053
30
0
41
1
10
140.5
20
3.126E-13
30
0
0
SPLINE
5
131
100
AcDbEntity
8
1
62
256
6
ByLayer
370
13
48
1
60
0
100
AcDbSpline
70
4
71
3
72
8
73
4
40
0
40
0
40
0
40
0
40
1
40
1
40
1
40
1
41
1
10
136.860297657338
20
-3.47744060386305
30
0
41
1
10
138.073531771559
20
-2.32966889156089
30
0
41
1
10
139.286765885779
20
-1.17051432063951
30
0
41
1
10
140.5
20
-1.99E-13
30
0
0
SPLINE
5
132
100
AcDbEntity
8
1
62
256
6
ByLayer
370
13
48
1
60
0
100
AcDbSpline
70
4
71
3
72
8
73
4
40
0
40
0
40
0
40
0
40
1
40
1
40
1
40
1
41
1
10
136.860297657338
20
-3.65740900797775
30
0
41
1
10
138.073531771559
20
-2.4269808993578
30
0
41
1
10
139.286765885779
20
-1.20783651309168
30
0
41
1
10
140.5
20
1.421E-13
30
0
0
SPLINE
5
133
100
AcDbEntity
8
1
62
256
6
ByLayer
370
13
48
1
60
0
100
AcDbSpline
70
4
71
3
72
8
73
4
40
0
40
0
40
0
40
0
40
1
40
1
40
1
40
1
41
1
10
136.860297657338
20
-1.32834949695788
30
0
41
1
10
138.073531771559
20
-0.873541504882581
30
0
41
1
10
139.286765885779
20
-0.430755432912662
30
0
41
1
10
140.5
20
5.68E-14
30
0
0
SPLINE
5
134
100
AcDbEntity
8
1
62
256
6
ByLayer
370
13
48
1
60
0
100
AcDbSpline
70
4
71
3
72
8
73
4
40
0
40
0
40
0
40
0
40
1
40
1
40
1
40
1
41
1
10
136.860297657338
20
-9.93849411850806
30
0
41
1
10
138.073531771559
20
-6.6243192102707
30
0
41
1
10
139.286765885779
20
-3.3114658971692
30
0
41
1
10
140.5
20
5.68E-14
30
0
0
SPLINE
5
135
100
AcDbEntity
8
1
62
256
6
ByLayer
370
13
48
1
60
0
100
AcDbSpline
70
4
71
3
72
8
73
4
40
0
40
0
40
0
40
0
40
1
40
1
40
1
40
1
41
1
10
136.860297657338
20
8.87566732798007
30
0
41
1
10
138.073531771559
20
5.91152243517638
30
0
41
1
10
139.28676588578
20
2.95294707490976
30
0
41
1
10
140.5
20
-6.253E-13
30
0
0
SPLINE
5
136
100
AcDbEntity
8
1
62
256
6
ByLayer
370
13
48
1
60
0
100
AcDbSpline
70
4
71
3
72
8
73
4
40
0
40
0
40
0
40
0
40
1
40
1
40
1
40
1
41
1
10
136.860297657338
20
1.07761605044615
30
0
41
1
10
138.073531771559
20
0.730472391944176
30
0
41
1
10
139.286765885779
20
0.371264635892572
30
0
41
1
10
140.5
20
-5.68E-14
30
0
0
LINE
5
7D
100
AcDbEntity
8
80
62
256
6
ByLayer
370
18
48
1
60
0
100
AcDbLine
10
0
20
0
30
0
11
-5
21
0
31
0
39
0
210
0
220
0
230
1
0
LINE
5
7E
100
AcDbEntity
8
4
62
256
6
ByLayer
370
18
48
0.05
60
0
100
AcDbLine
10
-5
20
0
30
0
11
145.5
21
0
31
0
39
0
210
0
220
0
230
1
0
LINE
5
80
100
AcDbEntity
8
81
62
256
6
ByLayer
370
18
48
1
60
0
100
AcDbLine
10
140.5
20
0
30
0
11
145.5
21
0
31
0
39
0
210
0
220
0
230
1
0
LINE
5
81
100
AcDbEntity
8
SK4
62
256
6
ByLayer
370
18
48
0.05
60
0
100
AcDbLine
10
-61
20
0
30
0
11
145.5
21
0
31
0
39
0
210
0
220
0
230
1
0
LINE
5
83
100
AcDbEntity
8
1
62
256
6
ByLayer
370
18
48
1
60
0
100
AcDbLine
10
43.913467
20
-9.7
30
0
11
89.454456
21
-9.7
31
0
39
0
210
0
220
0
230
1
0
LINE
5
84
100
AcDbEntity
8
1
62
256
6
ByLayer
370
18
48
1
60
0
100
AcDbLine
10
89.454456
20
9.7
30
0
11
43.913467
21
9.7
31
0
39
0
210
0
220
0
230
1
0
LINE
5
85
100
AcDbEntity
8
1
62
256
6
ByLayer
370
18
48
1
60
0
100
AcDbLine
10
140.5
20
0
30
0
11
136.860298
21
10
31
0
39
0
210
0
220
0
230
1
0
LINE
5
86
100
AcDbEntity
8
1
62
256
6
ByLayer
370
18
48
1
60
0
100
AcDbLine
10
136.860298
20
-10
30
0
11
140.5
21
0
31
0
39
0
210
0
220
0
230
1
0
LINE
5
87
100
AcDbEntity
8
1
62
256
6
ByLayer
370
18
48
1
60
0
100
AcDbLine
10
6.342185
20
10.724188
30
0
11
0
21
12.5
31
0
39
0
210
0
220
0
230
1
0
LINE
5
88
100
AcDbEntity
8
1
62
256
6
ByLayer
370
18
48
1
60
0
100
AcDbLine
10
0
20
-12.5
30
0
11
6.342185
21
-10.724188
31
0
39
0
210
0
220
0
230
1
0
LINE
5
89
100
AcDbEntity
8
1
62
256
6
ByLayer
370
18
48
1
60
0
100
AcDbLine
10
140.5
20
0
30
0
11
136.860298
21
10
31
0
39
0
210
0
220
0
230
1
0
LINE
5
8A
100
AcDbEntity
8
1
62
256
6
ByLayer
370
18
48
1
60
0
100
AcDbLine
10
136.860298
20
-10
30
0
11
140.5
21
0
31
0
39
0
210
0
220
0
230
1
0
LINE
5
8B
100
AcDbEntity
8
1
62
256
6
ByLayer
370
18
48
1
60
0
100
AcDbLine
10
126.4
20
-10
30
0
11
136.860298
21
-10
31
0
39
0
210
0
220
0
230
1
0
LINE
5
8C
100
AcDbEntity
8
SK1
62
256
6
ByLayer
370
18
48
1
60
0
100
AcDbLine
10
-56
20
-11.5
30
0
11
-55
21
-12.5
31
0
39
0
210
0
220
0
230
1
0
LINE
5
8E
100
AcDbEntity
8
SK1
62
256
6
ByLayer
370
18
48
1
60
0
100
AcDbLine
10
-55
20
12.5
30
0
11
-56
21
11.5
31
0
39
0
210
0
220
0
230
1
0
LINE
5
8F
100
AcDbEntity
8
SK1
62
256
6
ByLayer
370
18
48
1
60
0
100
AcDbLine
10
-55
20
-12.5
30
0
11
0
21
-12.5
31
0
39
0
210
0
220
0
230
1
0
LINE
5
90
100
AcDbEntity
8
SK1
62
256
6
ByLayer
370
18
48
1
60
0
100
AcDbLine
10
0
20
12.5
30
0
11
-55
21
12.5
31
0
39
0
210
0
220
0
230
1
0
LINE
5
91
100
AcDbEntity
8
1
62
256
6
ByLayer
370
18
48
1
60
0
100
AcDbLine
10
0
20
12.5
30
0
11
0
21
-12.5
31
0
39
0
210
0
220
0
230
1
0
LINE
5
92
100
AcDbEntity
8
1
62
256
6
ByLayer
370
18
48
1
60
0
100
AcDbLine
10
136.860298
20
10
30
0
11
136.860298
21
9.682458
31
0
39
0
210
0
220
0
230
1
0
LINE
5
93
100
AcDbEntity
8
1
62
256
6
ByLayer
370
18
48
1
60
0
100
AcDbLine
10
136.860298
20
-10
30
0
11
136.860298
21
-1.429451
31
0
39
0
210
0
220
0
230
1
0
LINE
5
94
100
AcDbEntity
8
1
62
256
6
ByLayer
370
18
48
1
60
0
100
AcDbLine
10
10
20
-5.008429
30
0
11
10
21
9.467796
31
0
39
0
210
0
220
0
230
1
0
LINE
5
95
100
AcDbEntity
8
SK1
62
256
6
ByLayer
370
13
48
1
60
0
100
AcDbLine
10
-15.162813
20
-7.237775
30
0
11
-15.162813
21
7.237775
31
0
39
0
210
0
220
0
230
1
0
LINE
5
96
100
AcDbEntity
8
SK1
62
256
6
ByLayer
370
13
48
1
60
0
100
AcDbLine
10
-51.386002
20
5.000227
30
0
11
-51.386002
21
-5.000227
31
0
39
0
210
0
220
0
230
1
0
LINE
5
97
100
AcDbEntity
8
SK1
62
256
6
ByLayer
370
18
48
1
60
0
100
AcDbLine
10
-56
20
-11.5
30
0
11
-56
21
11.5
31
0
39
0
210
0
220
0
230
1
0
LINE
5
98
100
AcDbEntity
8
SK1
62
256
6
ByLayer
370
13
48
1
60
0
100
AcDbLine
10
-52.500329
20
-3.620591
30
0
11
-52.500329
21
3.620591
31
0
39
0
210
0
220
0
230
1
0
LINE
5
99
100
AcDbEntity
8
SK1
62
256
6
ByLayer
370
18
48
1
60
0
100
AcDbLine
10
-55
20
-12.5
30
0
11
-55
21
12.5
31
0
39
0
210
0
220
0
230
1
0
LINE
5
9A
100
AcDbEntity
8
SK1
62
256
6
ByLayer
370
18
48
1
60
0
100
AcDbLine
10
0
20
12.5
30
0
11
0
21
-12.5
31
0
39
0
210
0
220
0
230
1
0
LINE
5
9B
100
AcDbEntity
8
SK1
62
256
6
ByLayer
370
13
48
1
60
0
100
AcDbLine
10
-14.015776
20
6.592429
30
0
11
-14.015776
21
-6.592429
31
0
39
0
210
0
220
0
230
1
0
LINE
5
9C
100
AcDbEntity
8
1
62
256
6
ByLayer
370
18
48
1
60
0
100
AcDbLine
10
136.860298
20
10
30
0
11
136.860298
21
-10
31
0
39
0
210
0
220
0
230
1
0
LINE
5
9D
100
AcDbEntity
8
1
62
256
6
ByLayer
370
18
48
1
60
0
100
AcDbLine
10
136.860298
20
10
30
0
11
136.860298
21
-10
31
0
39
0
210
0
220
0
230
1
0
LINE
5
9E
100
AcDbEntity
8
1
62
256
6
ByLayer
370
18
48
1
60
0
100
AcDbLine
10
136.860298
20
10
30
0
11
136.860298
21
-10
31
0
39
0
210
0
220
0
230
1
0
LINE
5
9F
100
AcDbEntity
8
1
62
256
6
ByLayer
370
18
48
1
60
0
100
AcDbLine
10
126.4
20
10
30
0
11
126.4
21
-10
31
0
39
0
210
0
220
0
230
1
0
LINE
5
A0
100
AcDbEntity
8
1
62
256
6
ByLayer
370
18
48
1
60
0
100
AcDbLine
10
126.4
20
10
30
0
11
126.4
21
-10
31
0
39
0
210
0
220
0
230
1
0
LINE
5
A1
100
AcDbEntity
8
1
62
256
6
ByLayer
370
18
48
1
60
0
100
AcDbLine
10
136.860298
20
10
30
0
11
136.860298
21
-10
31
0
39
0
210
0
220
0
230
1
0
LINE
5
A2
100
AcDbEntity
8
1
62
256
6
ByLayer
370
18
48
1
60
0
100
AcDbLine
10
126.4
20
10
30
0
11
126.4
21
-10
31
0
39
0
210
0
220
0
230
1
0
LINE
5
A3
100
AcDbEntity
8
1
62
256
6
ByLayer
370
18
48
1
60
0
100
AcDbLine
10
136.860298
20
10
30
0
11
136.860298
21
-10
31
0
39
0
210
0
220
0
230
1
0
LINE
5
A4
100
AcDbEntity
8
SK2
62
256
6
ByLayer
370
13
48
1
60
0
100
AcDbLine
10
-62.5
20
-12.5
30
0
11
-62.5
21
41.524569
31
0
39
0
210
0
220
0
230
1
0
LINE
5
A6
100
AcDbEntity
8
SK2
62
256
6
ByLayer
370
13
48
1
60
0
100
AcDbLine
10
-57.5875
20
12.5
30
0
11
-64.5
21
12.5
31
0
39
0
210
0
220
0
230
1
0
LINE
5
A7
100
AcDbEntity
8
SK2
62
256
6
ByLayer
370
13
48
1
60
0
100
AcDbLine
10
-57.5875
20
-12.5
30
0
11
-64.5
21
-12.5
31
0
39
0
210
0
220
0
230
1
0
LINE
5
A8
100
AcDbEntity
8
1
62
256
6
ByLayer
370
18
48
1
60
1
100
AcDbLine
10
-62.5
20
12.5
30
0
11
-62.039216
21
9.000002
31
0
39
0
210
0
220
0
230
1
0
LINE
5
A9
100
AcDbEntity
8
1
62
256
6
ByLayer
370
18
48
1
60
1
100
AcDbLine
10
-62.039216
20
9.000002
30
0
11
-62.960784
21
8.999998
31
0
39
0
210
0
220
0
230
1
0
LINE
5
AA
100
AcDbEntity
8
1
62
256
6
ByLayer
370
18
48
1
60
1
100
AcDbLine
10
-62.960784
20
8.999998
30
0
11
-62.5
21
12.5
31
0
39
0
210
0
220
0
230
1
0
LINE
5
AB
100
AcDbEntity
8
1
62
256
6
ByLayer
370
18
48
1
60
1
100
AcDbLine
10
-62.5
20
-12.5
30
0
11
-62.960784
21
-9.000002
31
0
39
0
210
0
220
0
230
1
0
LINE
5
AC
100
AcDbEntity
8
1
62
256
6
ByLayer
370
18
48
1
60
1
100
AcDbLine
10
-62.960784
20
-9.000002
30
0
11
-62.039216
21
-8.999998
31
0
39
0
210
0
220
0
230
1
0
LINE
5
AD
100
AcDbEntity
8
1
62
256
6
ByLayer
370
18
48
1
60
1
100
AcDbLine
10
-62.039216
20
-8.999998
30
0
11
-62.5
21
-12.5
31
0
39
0
210
0
220
0
230
1
0
LINE
5
AE
100
AcDbEntity
8
2
62
256
6
ByLayer
370
13
48
1
60
0
100
AcDbLine
10
148
20
-10
30
0
11
148
21
39.024569
31
0
39
0
210
0
220
0
230
1
0
LINE
5
B0
100
AcDbEntity
8
2
62
256
6
ByLayer
370
13
48
1
60
0
100
AcDbLine
10
138.447798
20
10
30
0
11
150
21
10
31
0
39
0
210
0
220
0
230
1
0
LINE
5
B1
100
AcDbEntity
8
2
62
256
6
ByLayer
370
13
48
1
60
0
100
AcDbLine
10
138.447798
20
-10
30
0
11
150
21
-10
31
0
39
0
210
0
220
0
230
1
0
LINE
5
B2
100
AcDbEntity
8
1
62
256
6
ByLayer
370
18
48
1
60
1
100
AcDbLine
10
148
20
10
30
0
11
148.460784
21
6.500002
31
0
39
0
210
0
220
0
230
1
0
LINE
5
B3
100
AcDbEntity
8
1
62
256
6
ByLayer
370
18
48
1
60
1
100
AcDbLine
10
148.460784
20
6.500002
30
0
11
147.539216
21
6.499998
31
0
39
0
210
0
220
0
230
1
0
LINE
5
B4
100
AcDbEntity
8
1
62
256
6
ByLayer
370
18
48
1
60
1
100
AcDbLine
10
147.539216
20
6.499998
30
0
11
148
21
10
31
0
39
0
210
0
220
0
230
1
0
LINE
5
B5
100
AcDbEntity
8
1
62
256
6
ByLayer
370
18
48
1
60
1
100
AcDbLine
10
148
20
-10
30
0
11
147.539216
21
-6.500002
31
0
39
0
210
0
220
0
230
1
0
LINE
5
B6
100
AcDbEntity
8
1
62
256
6
ByLayer
370
18
48
1
60
1
100
AcDbLine
10
147.539216
20
-6.500002
30
0
11
148.460784
21
-6.499998
31
0
39
0
210
0
220
0
230
1
0
LINE
5
B7
100
AcDbEntity
8
1
62
256
6
ByLayer
370
18
48
1
60
1
100
AcDbLine
10
148.460784
20
-6.499998
30
0
11
148
21
-10
31
0
39
0
210
0
220
0
230
1
0
LINE
5
B8
100
AcDbEntity
8
SK2
62
256
6
ByLayer
370
13
48
1
60
0
100
AcDbLine
10
141.042957
20
-1.491762
30
0
11
147.682423
21
-19.733545
31
0
39
0
210
0
220
0
230
1
0
LINE
5
B9
100
AcDbEntity
8
SK2
62
256
6
ByLayer
370
13
48
1
60
0
100
AcDbLine
10
141.042957
20
1.491762
30
0
11
147.682423
21
19.733545
31
0
39
0
210
0
220
0
230
1
0
LINE
5
BA
100
AcDbEntity
8
1
62
256
6
ByLayer
370
18
48
1
60
1
100
AcDbLine
10
146.998383
20
-17.85416
30
0
11
150.051575
21
-16.082064
31
0
39
0
210
0
220
0
230
1
0
LINE
5
BB
100
AcDbEntity
8
1
62
256
6
ByLayer
370
18
48
1
60
1
100
AcDbLine
10
150.051575
20
-16.082064
30
0
11
150.406196
21
-16.93267
31
0
39
0
210
0
220
0
230
1
0
LINE
5
BC
100
AcDbEntity
8
1
62
256
6
ByLayer
370
18
48
1
60
1
100
AcDbLine
10
150.406196
20
-16.93267
30
0
11
146.998383
21
-17.85416
31
0
39
0
210
0
220
0
230
1
0
LINE
5
BD
100
AcDbEntity
8
1
62
256
6
ByLayer
370
18
48
1
60
1
100
AcDbLine
10
146.998383
20
17.85416
30
0
11
150.406193
21
16.932671
31
0
39
0
210
0
220
0
230
1
0
LINE
5
BE
100
AcDbEntity
8
1
62
256
6
ByLayer
370
18
48
1
60
1
100
AcDbLine
10
150.406193
20
16.932671
30
0
11
150.051579
21
16.082063
31
0
39
0
210
0
220
0
230
1
0
LINE
5
BF
100
AcDbEntity
8
1
62
256
6
ByLayer
370
18
48
1
60
1
100
AcDbLine
10
150.051579
20
16.082063
30
0
11
146.998383
21
17.85416
31
0
39
0
210
0
220
0
230
1
0
LINE
5
13B
100
AcDbEntity
8
1
62
256
6
ByLayer
370
18
48
1
60
1
100
AcDbLine
10
-62.5
20
12.5
30
0
11
-62.039216
21
9.000002
31
0
39
0
210
0
220
0
230
1
0
LINE
5
13C
100
AcDbEntity
8
1
62
256
6
ByLayer
370
18
48
1
60
1
100
AcDbLine
10
-62.039216
20
9.000002
30
0
11
-62.960784
21
8.999998
31
0
39
0
210
0
220
0
230
1
0
LINE
5
13D
100
AcDbEntity
8
1
62
256
6
ByLayer
370
18
48
1
60
1
100
AcDbLine
10
-62.960784
20
8.999998
30
0
11
-62.5
21
12.5
31
0
39
0
210
0
220
0
230
1
0
LINE
5
13F
100
AcDbEntity
8
1
62
256
6
ByLayer
370
18
48
1
60
1
100
AcDbLine
10
-62.5
20
-12.5
30
0
11
-62.960784
21
-9.000002
31
0
39
0
210
0
220
0
230
1
0
LINE
5
140
100
AcDbEntity
8
1
62
256
6
ByLayer
370
18
48
1
60
1
100
AcDbLine
10
-62.960784
20
-9.000002
30
0
11
-62.039216
21
-8.999998
31
0
39
0
210
0
220
0
230
1
0
LINE
5
141
100
AcDbEntity
8
1
62
256
6
ByLayer
370
18
48
1
60
1
100
AcDbLine
10
-62.039216
20
-8.999998
30
0
11
-62.5
21
-12.5
31
0
39
0
210
0
220
0
230
1
0
LINE
5
145
100
AcDbEntity
8
1
62
256
6
ByLayer
370
18
48
1
60
1
100
AcDbLine
10
148
20
10
30
0
11
148.460784
21
6.500002
31
0
39
0
210
0
220
0
230
1
0
LINE
5
146
100
AcDbEntity
8
1
62
256
6
ByLayer
370
18
48
1
60
1
100
AcDbLine
10
148.460784
20
6.500002
30
0
11
147.539216
21
6.499998
31
0
39
0
210
0
220
0
230
1
0
LINE
5
147
100
AcDbEntity
8
1
62
256
6
ByLayer
370
18
48
1
60
1
100
AcDbLine
10
147.539216
20
6.499998
30
0
11
148
21
10
31
0
39
0
210
0
220
0
230
1
0
LINE
5
149
100
AcDbEntity
8
1
62
256
6
ByLayer
370
18
48
1
60
1
100
AcDbLine
10
148
20
-10
30
0
11
147.539216
21
-6.500002
31
0
39
0
210
0
220
0
230
1
0
LINE
5
14A
100
AcDbEntity
8
1
62
256
6
ByLayer
370
18
48
1
60
1
100
AcDbLine
10
147.539216
20
-6.500002
30
0
11
148.460784
21
-6.499998
31
0
39
0
210
0
220
0
230
1
0
LINE
5
14B
100
AcDbEntity
8
1
62
256
6
ByLayer
370
18
48
1
60
1
100
AcDbLine
10
148.460784
20
-6.499998
30
0
11
148
21
-10
31
0
39
0
210
0
220
0
230
1
0
LINE
5
14E
100
AcDbEntity
8
1
62
256
6
ByLayer
370
18
48
1
60
1
100
AcDbLine
10
146.998383
20
-17.85416
30
0
11
150.051575
21
-16.082064
31
0
39
0
210
0
220
0
230
1
0
LINE
5
14F
100
AcDbEntity
8
1
62
256
6
ByLayer
370
18
48
1
60
1
100
AcDbLine
10
150.051575
20
-16.082064
30
0
11
150.406196
21
-16.93267
31
0
39
0
210
0
220
0
230
1
0
LINE
5
150
100
AcDbEntity
8
1
62
256
6
ByLayer
370
18
48
1
60
1
100
AcDbLine
10
150.406196
20
-16.93267
30
0
11
146.998383
21
-17.85416
31
0
39
0
210
0
220
0
230
1
0
LINE
5
152
100
AcDbEntity
8
1
62
256
6
ByLayer
370
18
48
1
60
1
100
AcDbLine
10
146.998383
20
17.85416
30
0
11
150.406193
21
16.932671
31
0
39
0
210
0
220
0
230
1
0
LINE
5
153
100
AcDbEntity
8
1
62
256
6
ByLayer
370
18
48
1
60
1
100
AcDbLine
10
150.406193
20
16.932671
30
0
11
150.051579
21
16.082063
31
0
39
0
210
0
220
0
230
1
0
LINE
5
154
100
AcDbEntity
8
1
62
256
6
ByLayer
370
18
48
1
60
1
100
AcDbLine
10
150.051579
20
16.082063
30
0
11
146.998383
21
17.85416
31
0
39
0
210
0
220
0
230
1
0
MTEXT
5
137
100
AcDbEntity
8
SK2
62
256
6
ByLayer
370
18
48
1
60
0
100
AcDbMText
10
-63.841114
20
24.158438
30
0
210
0
220
0
230
1
1
%%c
40
3
41
0
44
1.084337
50
90
71
7
72
5
7
iso_b_vert
0
MTEXT
5
13A
100
AcDbEntity
8
SK2
62
256
6
ByLayer
370
18
48
1
60
0
100
AcDbMText
10
-63.841114
20
30.135
30
0
210
0
220
0
230
1
1
\W0.7513;25.000
40
3
41
0
44
1.084337
50
90
71
7
72
5
7
iso_b_vert
0
MTEXT
5
143
100
AcDbEntity
8
2
62
256
6
ByLayer
370
18
48
1
60
0
100
AcDbMText
10
146.658886
20
21.658438
30
0
210
0
220
0
230
1
1
%%c
40
3
41
0
44
1.084337
50
90
71
7
72
5
7
iso_b_vert
0
MTEXT
5
144
100
AcDbEntity
8
2
62
256
6
ByLayer
370
18
48
1
60
0
100
AcDbMText
10
146.658886
20
27.635
30
0
210
0
220
0
230
1
1
\W0.7513;20.000
40
3
41
0
44
1.084337
50
90
71
7
72
5
7
iso_b_vert
0
MTEXT
5
14D
100
AcDbEntity
8
SK2
62
256
6
ByLayer
370
18
48
1
60
0
100
AcDbMText
10
160.409114
20
3.734657
30
0
210
0
220
0
230
1
1
\W0.7071;140%%d
40
3
41
0
44
1.084337
50
270
71
7
72
5
7
iso_b_vert
0
MTEXT
5
156
100
AcDbEntity
8
SK6
62
256
6
ByLayer
370
18
48
1
60
0
100
AcDbMText
10
17.96286
20
-67.114886
30
0
210
0
220
0
230
1
1
\W0.7680;H85520.0
40
3
41
0
44
1.084337
50
0
71
7
72
5
7
iso_b_vert
0
HATCH
5
13E
100
AcDbEntity
8
SK2
62
256
6
ByLayer
370
13
48
1
60
0
100
AcDbHatch
10
0
20
0
30
0
210
0
220
0
230
1
2
ANSI31
70
0
71
0
91
1
92
5
93
3
72
1
10
-62.5
20
12.5
11
-62.0392162584472
21
9.00000169255318
72
1
10
-62.0392162584472
20
9.00000169255318
11
-62.9607837415528
21
8.99999830744682
72
1
10
-62.9607837415528
20
8.99999830744682
11
-62.5
21
12.5
97
0
75
0
76
1
52
0
41
0.0062
77
0
78
1
53
45
43
0
44
0
45
-0.0139193969876572
46
0.0139193969876572
79
0
47
0
98
1
10
0
20
0
0
HATCH
5
142
100
AcDbEntity
8
SK2
62
256
6
ByLayer
370
13
48
1
60
0
100
AcDbHatch
10
0
20
0
30
0
210
0
220
0
230
1
2
ANSI31
70
0
71
0
91
1
92
5
93
3
72
1
10
-62.5
20
-12.5
11
-62.9607837415528
21
-9.00000169255318
72
1
10
-62.9607837415528
20
-9.00000169255318
11
-62.0392162584472
21
-8.99999830744682
72
1
10
-62.0392162584472
20
-8.99999830744682
11
-62.5
21
-12.5
97
0
75
0
76
1
52
0
41
0.0062
77
0
78
1
53
45
43
0
44
0
45
-0.0139193969876572
46
0.0139193969876572
79
0
47
0
98
1
10
0
20
0
0
HATCH
5
148
100
AcDbEntity
8
2
62
256
6
ByLayer
370
13
48
1
60
0
100
AcDbHatch
10
0
20
0
30
0
210
0
220
0
230
1
2
ANSI31
70
0
71
0
91
1
92
5
93
3
72
1
10
148
20
10
11
148.460783741553
21
6.50000169255318
72
1
10
148.460783741553
20
6.50000169255318
11
147.539216258447
21
6.49999830744682
72
1
10
147.539216258447
20
6.49999830744682
11
148
21
10
97
0
75
0
76
1
52
0
41
0.0062
77
0
78
1
53
45
43
0
44
0
45
-0.0139193969876572
46
0.0139193969876572
79
0
47
0
98
1
10
0
20
0
0
HATCH
5
14C
100
AcDbEntity
8
2
62
256
6
ByLayer
370
13
48
1
60
0
100
AcDbHatch
10
0
20
0
30
0
210
0
220
0
230
1
2
ANSI31
70
0
71
0
91
1
92
5
93
3
72
1
10
148
20
-10
11
147.539216258447
21
-6.50000169255318
72
1
10
147.539216258447
20
-6.50000169255318
11
148.460783741553
21
-6.49999830744682
72
1
10
148.460783741553
20
-6.49999830744682
11
148
21
-10
97
0
75
0
76
1
52
0
41
0.0062
77
0
78
1
53
45
43
0
44
0
45
-0.0139193969876572
46
0.0139193969876572
79
0
47
0
98
1
10
0
20
0
0
HATCH
5
151
100
AcDbEntity
8
SK2
62
256
6
ByLayer
370
13
48
1
60
0
100
AcDbHatch
10
0
20
0
30
0
210
0
220
0
230
1
2
ANSI31
70
0
71
0
91
1
92
5
93
3
72
1
10
146.998382723188
20
-17.8541597949323
11
150.051575425693
21
-16.0820638240608
72
1
10
150.051575425693
20
-16.0820638240608
11
150.406195833975
21
-16.9326700737196
72
1
10
150.406195833975
20
-16.9326700737196
11
146.998382723188
21
-17.8541597949323
97
0
75
0
76
1
52
0
41
0.0062
77
0
78
1
53
45
43
0
44
0
45
-0.0139193969876572
46
0.0139193969876572
79
0
47
0
98
1
10
0
20
0
0
HATCH
5
155
100
AcDbEntity
8
SK2
62
256
6
ByLayer
370
13
48
1
60
0
100
AcDbHatch
10
0
20
0
30
0
210
0
220
0
230
1
2
ANSI31
70
0
71
0
91
1
92
5
93
3
72
1
10
146.998382723188
20
17.8541597949323
11
150.406192709519
21
16.9326713763016
72
1
10
150.406192709519
20
16.9326713763016
11
150.051578550149
21
16.0820625214788
72
1
10
150.051578550149
20
16.0820625214788
11
146.998382723188
21
17.8541597949323
97
0
75
0
76
1
52
0
41
0.0062
77
0
78
1
53
45
43
0
44
0
45
-0.0139193969876572
46
0.0139193969876572
79
0
47
0
98
1
10
0
20
0
0
DIMENSION
5
159
100
AcDbEntity
8
SK2
62
256
6
ByLayer
370
18
48
1
60
0
100
AcDbDimension
2
_U0
10
140.5
20
-45.952229
30
0
11
42.25
21
-45.952229
31
0
70
32
71
1
72
1
41
1
210
0
220
0
230
1
3
Standard
100
AcDbAlignedDimension
13
-56
23
-12.5
33
0
14
140.5
24
0
34
0
50
0
100
AcDbRotatedDimension
1001
ACAD
1000
DSTYLE
1002
{
1070
   371
1070
    13
1070
   372
1070
    13
1070
     3
1000

1070
   170
1070
     0
1070
   144
1040
1.0
1070
   277
1070
     2
1070
   284
1070
     8
1070
   278
1070
    46
1070
   146
1040
1.166667
1070
   345
1005
16
1070
   347
1005
16
1070
   346
1005
16
1070
   344
1005
0
1070
   343
1005
0
1070
   172
1070
     1
1070
    76
1070
     0
1070
    75
1070
     0
1070
   282
1070
     0
1070
   281
1070
     0
1070
    71
1070
     0
1070
    74
1070
     0
1070
   279
1070
     0
1070
   173
1070
     1
1070
   340
1005
138
1070
   271
1070
     2
1070
   272
1070
     3
1070
    77
1070
     1
1070
    73
1070
     1
1070
   171
1070
     3
1070
   274
1070
     4
1070
   177
1070
     2
1070
   176
1070
     2
1070
   178
1070
     2
1070
    78
1070
     8
1070
    48
1040
-0.1
1070
    41
1040
3.5
1070
   147
1040
1.5
1070
    42
1040
1.5875
1070
    44
1040
2.0
1070
   140
1040
3.0
1002
}
1001
ACAD_DSTYLE_DIM_LINETYPE
1070
   380
1005
16
1001
ACAD_DSTYLE_DIM_EXT1_LINETYPE
1070
   381
1005
16
1001
ACAD_DSTYLE_DIM_EXT2_LINETYPE
1070
   382
1005
16
0
DIMENSION
5
172
100
AcDbEntity
8
SK2
62
256
6
ByLayer
370
18
48
1
60
0
100
AcDbDimension
2
_U1
10
3
20
-35.952229
30
0
11
71.75
21
-35.952229
31
0
70
32
71
1
72
1
41
1
210
0
220
0
230
1
3
Standard
100
AcDbAlignedDimension
13
140.5
23
0
33
0
14
3
24
-10
34
0
50
0
100
AcDbRotatedDimension
1001
ACAD
1000
DSTYLE
1002
{
1070
   371
1070
    13
1070
   372
1070
    13
1070
     3
1000

1070
   170
1070
     0
1070
   144
1040
1.0
1070
   277
1070
     2
1070
   284
1070
     8
1070
   278
1070
    46
1070
   146
1040
1.166667
1070
   345
1005
16
1070
   347
1005
16
1070
   346
1005
16
1070
   344
1005
0
1070
   343
1005
0
1070
   172
1070
     1
1070
    76
1070
     0
1070
    75
1070
     0
1070
   282
1070
     0
1070
   281
1070
     0
1070
    71
1070
     0
1070
    74
1070
     0
1070
   279
1070
     0
1070
   173
1070
     1
1070
   340
1005
138
1070
   271
1070
     2
1070
   272
1070
     3
1070
    77
1070
     1
1070
    73
1070
     1
1070
   171
1070
     3
1070
   274
1070
     4
1070
   177
1070
     2
1070
   176
1070
     2
1070
   178
1070
     2
1070
    78
1070
     8
1070
    48
1040
-0.1
1070
    41
1040
3.5
1070
   147
1040
1.5
1070
    42
1040
1.5875
1070
    44
1040
2.0
1070
   140
1040
3.0
1002
}
1001
ACAD_DSTYLE_DIM_LINETYPE
1070
   380
1005
16
1001
ACAD_DSTYLE_DIM_EXT1_LINETYPE
1070
   381
1005
16
1001
ACAD_DSTYLE_DIM_EXT2_LINETYPE
1070
   382
1005
16
0
DIMENSION
5
18A
100
AcDbEntity
8
SK2
62
256
6
ByLayer
370
18
48
1
60
0
100
AcDbDimension
2
_U2
10
0
20
-35.952229
30
0
11
-28
21
-35.952229
31
0
70
32
71
1
72
1
41
1
210
0
220
0
230
1
3
Standard
100
AcDbAlignedDimension
13
-56
23
-12.5
33
0
14
0
24
-12.5
34
0
50
0
100
AcDbRotatedDimension
1001
ACAD
1000
DSTYLE
1002
{
1070
   371
1070
    13
1070
   372
1070
    13
1070
     3
1000

1070
   170
1070
     0
1070
   144
1040
1.0
1070
   277
1070
     2
1070
   284
1070
     8
1070
   278
1070
    46
1070
   146
1040
1.166667
1070
   345
1005
16
1070
   347
1005
16
1070
   346
1005
16
1070
   344
1005
0
1070
   343
1005
0
1070
   172
1070
     1
1070
    76
1070
     0
1070
    75
1070
     0
1070
   282
1070
     0
1070
   281
1070
     0
1070
    71
1070
     0
1070
    74
1070
     0
1070
   279
1070
     0
1070
   173
1070
     1
1070
   340
1005
138
1070
   271
1070
     2
1070
   272
1070
     3
1070
    77
1070
     1
1070
    73
1070
     1
1070
   171
1070
     3
1070
   274
1070
     4
1070
   177
1070
     2
1070
   176
1070
     2
1070
   178
1070
     2
1070
    78
1070
     8
1070
    48
1040
-0.1
1070
    41
1040
3.5
1070
   147
1040
1.5
1070
    42
1040
1.5875
1070
    44
1040
2.0
1070
   140
1040
3.0
1002
}
1001
ACAD_DSTYLE_DIM_LINETYPE
1070
   380
1005
16
1001
ACAD_DSTYLE_DIM_EXT1_LINETYPE
1070
   381
1005
16
1001
ACAD_DSTYLE_DIM_EXT2_LINETYPE
1070
   382
1005
16
0
DIMENSION
5
1A2
100
AcDbEntity
8
SK2
62
256
6
ByLayer
370
18
48
1
60
0
100
AcDbDimension
2
_U3
10
26
20
32.952229
30
0
11
83.25
21
32.952229
31
0
70
32
71
1
72
1
41
1
210
0
220
0
230
1
3
Standard
100
AcDbAlignedDimension
13
140.5
23
0
33
0
14
26
24
10
34
0
50
0
100
AcDbRotatedDimension
1001
ACAD
1000
DSTYLE
1002
{
1070
   371
1070
    13
1070
   372
1070
    13
1070
     3
1000

1070
   170
1070
     0
1070
   144
1040
1.0
1070
   277
1070
     2
1070
   284
1070
     8
1070
   278
1070
    46
1070
   146
1040
1.166667
1070
   345
1005
16
1070
   347
1005
16
1070
   346
1005
16
1070
   344
1005
0
1070
   343
1005
0
1070
   172
1070
     1
1070
    76
1070
     0
1070
    75
1070
     0
1070
   282
1070
     0
1070
   281
1070
     0
1070
    71
1070
     0
1070
    74
1070
     0
1070
   279
1070
     0
1070
   173
1070
     1
1070
   340
1005
138
1070
   271
1070
     2
1070
   272
1070
     3
1070
    77
1070
     1
1070
    73
1070
     1
1070
   171
1070
     3
1070
   274
1070
     4
1070
   177
1070
     2
1070
   176
1070
     2
1070
   178
1070
     2
1070
    78
1070
     8
1070
    48
1040
-0.1
1070
    41
1040
3.5
1070
   147
1040
1.5
1070
    42
1040
1.5875
1070
    44
1040
2.0
1070
   140
1040
3.0
1002
}
1001
ACAD_DSTYLE_DIM_LINETYPE
1070
   380
1005
16
1001
ACAD_DSTYLE_DIM_EXT1_LINETYPE
1070
   381
1005
16
1001
ACAD_DSTYLE_DIM_EXT2_LINETYPE
1070
   382
1005
16
0
ENDSEC
0
SECTION
2
OBJECTS
0
DICTIONARY
5
22a
330
0
100
AcDbDictionary
280
0
281
1
3
ACAD_GROUP
350
22b
3
ACAD_MLINESTYLE
350
22c
0
DICTIONARY
5
22b
330
0
100
AcDbDictionary
280
0
281
1
0
DICTIONARY
5
22c
330
0
100
AcDbDictionary
280
0
281
1
3
Standard
350
18
0
MLINESTYLE
5
18
330
22c
100
AcDbMlineStyle
2
Standard
70
0
3

62
256
51
90
52
90
71
2
49
-0.5
62
256
6
ByLayer
49
0.5
62
256
6
ByLayer
0
RASTERVARIABLES
5
218
330

100
AcDbRasterVariables
90
0
70
1
71
1
72
1
0
ENDSEC
0
EOF
