0
SECTION
2
HEADER
9
$ACADVER
1
AC1015
9
$DWGCODEPAGE
3
ANSI_1252
9
$HANDSEED
5
24c
9
$ANGBASE
50
0
9
$ANGDIR
70
0
9
$ATTMODE
70
1
9
$AUNITS
70
0
9
$AUPREC
70
0
9
$CECOLOR
62
256
9
$CELTSCALE
40
1
9
$CELTYPE
6
ByLayer
9
$CELWEIGHT
370
18
9
$CLAYER
8
0
9
$CMLJUST
70
0
9
$CMLSCALE
40
1
9
$CMLSTYLE
2
Standard
9
$DIMSTYLE
2
Standard
9
$TEXTSIZE
40
0.2
9
$TEXTSTYLE
7
Standard
9
$LUNITS
70
2
9
$LUPREC
70
4
9
$EXTNAMES
290
1
9
$INSUNITS
70
4
9
$LTSCALE
40
1
9
$LWDISPLAY
290
1
9
$PDMODE
70
0
9
$PDSIZE
40
0
9
$PLINEGEN
70
0
0
ENDSEC
0
SECTION
2
CLASSES
0
CLASS
1
RASTERVARIABLES
2
AcDbRasterVariables
3
ISM
90
0
280
0
281
0
0
ENDSEC
0
SECTION
2
TABLES
0
TABLE
2
VPORT
5
242
100
AcDbSymbolTable
0
VPORT
5
1
100
AcDbSymbolTableRecord
100
AcDbViewportTableRecord
2
*Active
70
0
10
0
20
0
11
1
21
1
12
-1
22
1
13
0
23
0
14
0.5
24
0.5
15
10
25
10
16
0
26
0
36
1
17
0
27
0
37
0
0
ENDTAB
0
TABLE
2
LTYPE
5
243
100
AcDbSymbolTable
0
LTYPE
5
14
100
AcDbSymbolTableRecord
100
AcDbLinetypeTableRecord
70
0
2
ByBlock
3

72
65
73
0
40
0
0
LTYPE
5
15
100
AcDbSymbolTableRecord
100
AcDbLinetypeTableRecord
70
0
2
ByLayer
3

72
65
73
0
40
0
0
LTYPE
5
16
100
AcDbSymbolTableRecord
100
AcDbLinetypeTableRecord
70
0
2
Continuous
3
Solid line
72
65
73
0
40
0
0
LTYPE
5
6E
100
AcDbSymbolTableRecord
100
AcDbLinetypeTableRecord
70
0
2
CENTER
3
____ _ ____ _ ____ _ ____
72
65
73
4
40
47.5
49
22
74
0
49
-8.5
74
0
49
8.5
74
0
49
-8.5
74
0
0
LTYPE
5
6F
100
AcDbSymbolTableRecord
100
AcDbLinetypeTableRecord
70
0
2
DASHED
3
__ __ __ __ __ __ __ __ __
72
65
73
2
40
25.72
49
12.86
74
0
49
-12.86
74
0
0
ENDTAB
0
TABLE
2
LAYER
5
244
100
AcDbSymbolTable
0
LAYER
5
10
100
AcDbSymbolTableRecord
100
AcDbLayerTableRecord
2
0
70
0
62
7
6
Continuous
290
1
370
-3
390
0
0
LAYER
5
71
100
AcDbSymbolTableRecord
100
AcDbLayerTableRecord
2
81
70
0
62
-3
6
Continuous
290
1
370
-3
390
0
0
LAYER
5
73
100
AcDbSymbolTableRecord
100
AcDbLayerTableRecord
2
80
70
0
62
-6
6
Continuous
290
1
370
-3
390
0
0
LAYER
5
75
100
AcDbSymbolTableRecord
100
AcDbLayerTableRecord
2
1
70
0
62
4
6
Continuous
290
1
370
-3
390
0
0
LAYER
5
7F
100
AcDbSymbolTableRecord
100
AcDbLayerTableRecord
2
4
70
0
62
-2
6
CENTER
290
1
370
-3
390
0
0
LAYER
5
B0
100
AcDbSymbolTableRecord
100
AcDbLayerTableRecord
2
2
70
0
62
7
6
Continuous
290
1
370
-3
390
0
0
LAYER
5
171
100
AcDbSymbolTableRecord
100
AcDbLayerTableRecord
2
Defpoints
70
0
62
7
6
Continuous
290
0
370
-3
390
0
0
LAYER
5
22e
100
AcDbSymbolTableRecord
100
AcDbLayerTableRecord
2
SK4
70
0
62
2
6
CENTER
290
1
370
-3
390
0
0
LAYER
5
22f
100
AcDbSymbolTableRecord
100
AcDbLayerTableRecord
2
SK1
70
0
62
4
6
Continuous
290
1
370
-3
390
0
0
LAYER
5
230
100
AcDbSymbolTableRecord
100
AcDbLayerTableRecord
2
SK2
70
0
62
7
6
Continuous
290
1
370
-3
390
0
0
LAYER
5
231
100
AcDbSymbolTableRecord
100
AcDbLayerTableRecord
2
SK6
70
0
62
5
6
Continuous
290
1
370
-3
390
0
0
ENDTAB
0
TABLE
2
STYLE
5
245
100
AcDbSymbolTable
0
STYLE
5
11
100
AcDbSymbolTableRecord
100
AcDbTextStyleTableRecord
2
Standard
3
txt
70
0
71
0
40
0
41
1
42
0
50
0
0
STYLE
5
14D
100
AcDbSymbolTableRecord
100
AcDbTextStyleTableRecord
2
iso_b_vert
3
simplex.shx
70
0
71
0
40
0
41
1
42
0
50
0
0
STYLE
5
14E
100
AcDbSymbolTableRecord
100
AcDbTextStyleTableRecord
2
DWGDirectTextStyle
3
simplex
70
0
71
0
40
0
41
1
42
0
50
0
0
ENDTAB
0
TABLE
2
DIMSTYLE
5
246
100
AcDbSymbolTable
100
AcDbDimStyleTable
0
DIMSTYLE
105
27
100
AcDbSymbolTableRecord
100
AcDbDimStyleTableRecord
2
Standard
70
0
3
<>
41
0.18
42
0.0625
44
0.18
140
0.18
147
0.09
73
0
74
0
77
1
271
2
275
0
278
52
280
0
340
11
0
ENDTAB
0
TABLE
2
VIEW
5
247
100
AcDbSymbolTable
0
ENDTAB
0
TABLE
2
UCS
5
248
100
AcDbSymbolTable
0
ENDTAB
0
TABLE
2
APPID
5
249
100
AcDbSymbolTable
0
APPID
5
12
100
AcDbSymbolTableRecord
100
AcDbRegAppTableRecord
2
ACAD
70
0
0
APPID
5
16D
100
AcDbSymbolTableRecord
100
AcDbRegAppTableRecord
2
ACAD_DSTYLE_DIMBREAK
70
0
0
APPID
5
1ED
100
AcDbSymbolTableRecord
100
AcDbRegAppTableRecord
2
ACAD_DSTYLE_DIM_LINETYPE
70
0
0
APPID
5
1EE
100
AcDbSymbolTableRecord
100
AcDbRegAppTableRecord
2
ACAD_DSTYLE_DIM_EXT1_LINETYPE
70
0
0
APPID
5
1EF
100
AcDbSymbolTableRecord
100
AcDbRegAppTableRecord
2
ACAD_DSTYLE_DIM_EXT2_LINETYPE
70
0
0
APPID
5
22A
100
AcDbSymbolTableRecord
100
AcDbRegAppTableRecord
2
ACAD_MLEADERVER
70
0
0
ENDTAB
0
TABLE
2
BLOCK_RECORD
5
24a
100
AcDbSymbolTable
0
BLOCK_RECORD
5
1F
100
AcDbSymbolTableRecord
100
AcDbBlockTableRecord
2
*Model_Space
340
0
70
0
0
BLOCK_RECORD
5
1B
100
AcDbSymbolTableRecord
100
AcDbBlockTableRecord
2
*Paper_Space
340
0
70
0
0
BLOCK_RECORD
5
23
100
AcDbSymbolTableRecord
100
AcDbBlockTableRecord
2
*Paper_Space0
340
0
70
0
0
BLOCK_RECORD
5
172
100
AcDbSymbolTableRecord
100
AcDbBlockTableRecord
2
*D1
340
0
70
0
0
BLOCK_RECORD
5
17E
100
AcDbSymbolTableRecord
100
AcDbBlockTableRecord
2
_U0
340
0
70
0
0
BLOCK_RECORD
5
18A
100
AcDbSymbolTableRecord
100
AcDbBlockTableRecord
2
*D3
340
0
70
0
0
BLOCK_RECORD
5
196
100
AcDbSymbolTableRecord
100
AcDbBlockTableRecord
2
_U1
340
0
70
0
0
BLOCK_RECORD
5
1A2
100
AcDbSymbolTableRecord
100
AcDbBlockTableRecord
2
*D5
340
0
70
0
0
BLOCK_RECORD
5
1AE
100
AcDbSymbolTableRecord
100
AcDbBlockTableRecord
2
_U2
340
0
70
0
0
BLOCK_RECORD
5
1BA
100
AcDbSymbolTableRecord
100
AcDbBlockTableRecord
2
*D7
340
0
70
0
0
BLOCK_RECORD
5
1C6
100
AcDbSymbolTableRecord
100
AcDbBlockTableRecord
2
_U3
340
0
70
0
0
ENDTAB
0
ENDSEC
0
SECTION
2
BLOCKS
0
BLOCK
5
20
100
AcDbEntity
8
0
100
AcDbBlockBegin
2
*Model_Space
70
0
10
0
20
0
30
0
3
*Model_Space
0
ENDBLK
5
21
100
AcDbEntity
8
0
100
AcDbBlockEnd
0
BLOCK
5
1C
100
AcDbEntity
8
0
100
AcDbBlockBegin
2
*Paper_Space
70
0
10
0
20
0
30
0
3
*Paper_Space
0
ENDBLK
5
1D
100
AcDbEntity
8
0
100
AcDbBlockEnd
0
BLOCK
5
24
100
AcDbEntity
8
0
100
AcDbBlockBegin
2
*Paper_Space0
70
0
10
0
20
0
30
0
3
*Paper_Space0
0
ENDBLK
5
25
100
AcDbEntity
8
0
100
AcDbBlockEnd
0
BLOCK
5
173
100
AcDbEntity
8
0
100
AcDbBlockBegin
2
*D1
70
1
10
0
20
0
30
0
3
*D1
0
LINE
5
175
100
AcDbEntity
8
0
62
256
6
ByLayer
370
-2
48
1
60
0
100
AcDbLine
10
-60
20
-17.4625
30
0
11
-60
21
-47.952229
31
0
39
0
210
0
220
0
230
1
0
LINE
5
176
100
AcDbEntity
8
0
62
256
6
ByLayer
370
-2
48
1
60
0
100
AcDbLine
10
170
20
-1.5875
30
0
11
170
21
-47.952229
31
0
39
0
210
0
220
0
230
1
0
LINE
5
177
100
AcDbEntity
8
0
62
256
6
ByLayer
370
-2
48
1
60
0
100
AcDbLine
10
-56.5
20
-45.952229
30
0
11
166.5
21
-45.952229
31
0
39
0
210
0
220
0
230
1
0
SOLID
5
178
100
AcDbEntity
8
0
62
256
6
ByLayer
370
-1
48
1
60
0
100
AcDbTrace
10
-56.5
20
-45.368896
30
0
11
-56.5
21
-46.535563
31
0
12
-60
22
-45.952229
32
0
13
-60
23
-45.952229
33
0
39
0
210
0
220
0
230
1
0
SOLID
5
179
100
AcDbEntity
8
0
62
256
6
ByLayer
370
-1
48
1
60
0
100
AcDbTrace
10
166.5
20
-46.535563
30
0
11
166.5
21
-45.368896
31
0
12
170
22
-45.952229
32
0
13
170
23
-45.952229
33
0
39
0
210
0
220
0
230
1
0
MTEXT
5
17A
100
AcDbEntity
8
0
62
256
6
ByLayer
370
18
48
1
60
0
100
AcDbMText
10
55
20
-39.952229
30
0
210
0
220
0
230
1
1
\A1;230
40
3
41
0
44
1
50
0
71
5
72
5
7
iso_b_vert
0
POINT
5
17B
100
AcDbEntity
8
Defpoints
62
0
6
ByLayer
370
-1
48
1
60
0
100
AcDbPoint
10
-60
20
-15.875
30
0
39
0
210
0
220
0
230
1
50
360
0
POINT
5
17C
100
AcDbEntity
8
Defpoints
62
0
6
ByLayer
370
-1
48
1
60
0
100
AcDbPoint
10
170
20
0
30
0
39
0
210
0
220
0
230
1
50
360
0
POINT
5
17D
100
AcDbEntity
8
Defpoints
62
0
6
ByLayer
370
-1
48
1
60
0
100
AcDbPoint
10
170
20
-45.952229
30
0
39
0
210
0
220
0
230
1
50
360
0
ENDBLK
5
174
100
AcDbEntity
8
0
100
AcDbBlockEnd
0
BLOCK
5
185
100
AcDbEntity
8
0
100
AcDbBlockBegin
2
_U0
70
0
10
0
20
0
30
0
3
_U0
0
MTEXT
5
17F
100
AcDbEntity
8
SK2
62
256
6
ByLayer
370
18
48
1
60
0
100
AcDbMText
10
49.396716
20
-45.067115
30
0
210
0
220
0
230
1
1
\W0.7513;230.00
40
3
41
0
44
1.084337
50
0
71
7
72
5
7
iso_b_vert
0
LINE
5
180
100
AcDbEntity
8
SK2
62
256
6
ByLayer
370
13
48
1
60
0
100
AcDbLine
10
-60
20
-17.4625
30
0
11
-60
21
-47.952229
31
0
39
0
210
0
220
0
230
1
0
LINE
5
181
100
AcDbEntity
8
SK2
62
256
6
ByLayer
370
13
48
1
60
0
100
AcDbLine
10
170
20
-1.5875
30
0
11
170
21
-47.952229
31
0
39
0
210
0
220
0
230
1
0
LINE
5
182
100
AcDbEntity
8
SK2
62
256
6
ByLayer
370
13
48
1
60
0
100
AcDbLine
10
-60
20
-45.952229
30
0
11
170
21
-45.952229
31
0
39
0
210
0
220
0
230
1
0
SOLID
5
183
100
AcDbEntity
8
SK2
62
256
6
ByLayer
370
18
48
1
60
0
100
AcDbTrace
10
-60
20
-45.952229
30
0
11
-56.500002
21
-45.491446
31
0
12
-56.499998
22
-46.413013
32
0
13
-56.499998
23
-46.413013
33
0
39
0
210
0
220
0
230
1
0
SOLID
5
184
100
AcDbEntity
8
SK2
62
256
6
ByLayer
370
18
48
1
60
0
100
AcDbTrace
10
170
20
-45.952229
30
0
11
166.500002
21
-46.413013
31
0
12
166.499998
22
-45.491446
32
0
13
166.499998
23
-45.491446
33
0
39
0
210
0
220
0
230
1
0
ENDBLK
5
186
100
AcDbEntity
8
0
100
AcDbBlockEnd
0
BLOCK
5
18B
100
AcDbEntity
8
0
100
AcDbBlockBegin
2
*D3
70
1
10
0
20
0
30
0
3
*D3
0
LINE
5
18D
100
AcDbEntity
8
0
62
256
6
ByLayer
370
-2
48
1
60
0
100
AcDbLine
10
170
20
-1.5875
30
0
11
170
21
-37.952229
31
0
39
0
210
0
220
0
230
1
0
LINE
5
18E
100
AcDbEntity
8
0
62
256
6
ByLayer
370
-2
48
1
60
0
100
AcDbLine
10
3
20
-14.883
30
0
11
3
21
-37.952229
31
0
39
0
210
0
220
0
230
1
0
LINE
5
18F
100
AcDbEntity
8
0
62
256
6
ByLayer
370
-2
48
1
60
0
100
AcDbLine
10
166.5
20
-35.952229
30
0
11
6.5
21
-35.952229
31
0
39
0
210
0
220
0
230
1
0
SOLID
5
190
100
AcDbEntity
8
0
62
256
6
ByLayer
370
-1
48
1
60
0
100
AcDbTrace
10
166.5
20
-36.535563
30
0
11
166.5
21
-35.368896
31
0
12
170
22
-35.952229
32
0
13
170
23
-35.952229
33
0
39
0
210
0
220
0
230
1
0
SOLID
5
191
100
AcDbEntity
8
0
62
256
6
ByLayer
370
-1
48
1
60
0
100
AcDbTrace
10
6.5
20
-35.368896
30
0
11
6.5
21
-36.535563
31
0
12
3
22
-35.952229
32
0
13
3
23
-35.952229
33
0
39
0
210
0
220
0
230
1
0
MTEXT
5
192
100
AcDbEntity
8
0
62
256
6
ByLayer
370
18
48
1
60
0
100
AcDbMText
10
86.5
20
-29.952229
30
0
210
0
220
0
230
1
1
\A1;167
40
3
41
0
44
1
50
0
71
5
72
5
7
iso_b_vert
0
POINT
5
193
100
AcDbEntity
8
Defpoints
62
0
6
ByLayer
370
-1
48
1
60
0
100
AcDbPoint
10
170
20
0
30
0
39
0
210
0
220
0
230
1
50
360
0
POINT
5
194
100
AcDbEntity
8
Defpoints
62
0
6
ByLayer
370
-1
48
1
60
0
100
AcDbPoint
10
3
20
-13.2955
30
0
39
0
210
0
220
0
230
1
50
360
0
POINT
5
195
100
AcDbEntity
8
Defpoints
62
0
6
ByLayer
370
-1
48
1
60
0
100
AcDbPoint
10
3
20
-35.952229
30
0
39
0
210
0
220
0
230
1
50
360
0
ENDBLK
5
18C
100
AcDbEntity
8
0
100
AcDbBlockEnd
0
BLOCK
5
19D
100
AcDbEntity
8
0
100
AcDbBlockBegin
2
_U1
70
0
10
0
20
0
30
0
3
_U1
0
MTEXT
5
197
100
AcDbEntity
8
SK2
62
256
6
ByLayer
370
18
48
1
60
0
100
AcDbMText
10
81.271658
20
-35.067115
30
0
210
0
220
0
230
1
1
\W0.7022;167.00
40
3
41
0
44
1.084337
50
0
71
7
72
5
7
iso_b_vert
0
LINE
5
198
100
AcDbEntity
8
SK2
62
256
6
ByLayer
370
13
48
1
60
0
100
AcDbLine
10
170
20
-1.5875
30
0
11
170
21
-37.952229
31
0
39
0
210
0
220
0
230
1
0
LINE
5
199
100
AcDbEntity
8
SK2
62
256
6
ByLayer
370
13
48
1
60
0
100
AcDbLine
10
3
20
-14.883
30
0
11
3
21
-37.952229
31
0
39
0
210
0
220
0
230
1
0
LINE
5
19A
100
AcDbEntity
8
SK2
62
256
6
ByLayer
370
13
48
1
60
0
100
AcDbLine
10
170
20
-35.952229
30
0
11
3
21
-35.952229
31
0
39
0
210
0
220
0
230
1
0
SOLID
5
19B
100
AcDbEntity
8
SK2
62
256
6
ByLayer
370
18
48
1
60
0
100
AcDbTrace
10
170
20
-35.952229
30
0
11
166.500002
21
-36.413013
31
0
12
166.499998
22
-35.491446
32
0
13
166.499998
23
-35.491446
33
0
39
0
210
0
220
0
230
1
0
SOLID
5
19C
100
AcDbEntity
8
SK2
62
256
6
ByLayer
370
18
48
1
60
0
100
AcDbTrace
10
3
20
-35.952229
30
0
11
6.499998
21
-35.491446
31
0
12
6.500002
22
-36.413013
32
0
13
6.500002
23
-36.413013
33
0
39
0
210
0
220
0
230
1
0
ENDBLK
5
19E
100
AcDbEntity
8
0
100
AcDbBlockEnd
0
BLOCK
5
1A3
100
AcDbEntity
8
0
100
AcDbBlockBegin
2
*D5
70
1
10
0
20
0
30
0
3
*D5
0
LINE
5
1A5
100
AcDbEntity
8
0
62
256
6
ByLayer
370
-2
48
1
60
0
100
AcDbLine
10
-60
20
-17.4625
30
0
11
-60
21
-37.952229
31
0
39
0
210
0
220
0
230
1
0
LINE
5
1A6
100
AcDbEntity
8
0
62
256
6
ByLayer
370
-2
48
1
60
0
100
AcDbLine
10
0
20
-17.4625
30
0
11
0
21
-37.952229
31
0
39
0
210
0
220
0
230
1
0
LINE
5
1A7
100
AcDbEntity
8
0
62
256
6
ByLayer
370
-2
48
1
60
0
100
AcDbLine
10
-56.5
20
-35.952229
30
0
11
-3.5
21
-35.952229
31
0
39
0
210
0
220
0
230
1
0
SOLID
5
1A8
100
AcDbEntity
8
0
62
256
6
ByLayer
370
-1
48
1
60
0
100
AcDbTrace
10
-56.5
20
-35.368896
30
0
11
-56.5
21
-36.535563
31
0
12
-60
22
-35.952229
32
0
13
-60
23
-35.952229
33
0
39
0
210
0
220
0
230
1
0
SOLID
5
1A9
100
AcDbEntity
8
0
62
256
6
ByLayer
370
-1
48
1
60
0
100
AcDbTrace
10
-3.5
20
-36.535563
30
0
11
-3.5
21
-35.368896
31
0
12
0
22
-35.952229
32
0
13
0
23
-35.952229
33
0
39
0
210
0
220
0
230
1
0
MTEXT
5
1AA
100
AcDbEntity
8
0
62
256
6
ByLayer
370
18
48
1
60
0
100
AcDbMText
10
-30
20
-29.952229
30
0
210
0
220
0
230
1
1
\A1;60
40
3
41
0
44
1
50
0
71
5
72
5
7
iso_b_vert
0
POINT
5
1AB
100
AcDbEntity
8
Defpoints
62
0
6
ByLayer
370
-1
48
1
60
0
100
AcDbPoint
10
-60
20
-15.875
30
0
39
0
210
0
220
0
230
1
50
360
0
POINT
5
1AC
100
AcDbEntity
8
Defpoints
62
0
6
ByLayer
370
-1
48
1
60
0
100
AcDbPoint
10
0
20
-15.875
30
0
39
0
210
0
220
0
230
1
50
360
0
POINT
5
1AD
100
AcDbEntity
8
Defpoints
62
0
6
ByLayer
370
-1
48
1
60
0
100
AcDbPoint
10
0
20
-35.952229
30
0
39
0
210
0
220
0
230
1
50
360
0
ENDBLK
5
1A4
100
AcDbEntity
8
0
100
AcDbBlockEnd
0
BLOCK
5
1B5
100
AcDbEntity
8
0
100
AcDbBlockBegin
2
_U2
70
0
10
0
20
0
30
0
3
_U2
0
MTEXT
5
1AF
100
AcDbEntity
8
SK2
62
256
6
ByLayer
370
18
48
1
60
0
100
AcDbMText
10
-34.48237
20
-35.067115
30
0
210
0
220
0
230
1
1
\W0.7468;60.00
40
3
41
0
44
1.084337
50
0
71
7
72
5
7
iso_b_vert
0
LINE
5
1B0
100
AcDbEntity
8
SK2
62
256
6
ByLayer
370
13
48
1
60
0
100
AcDbLine
10
-60
20
-17.4625
30
0
11
-60
21
-37.952229
31
0
39
0
210
0
220
0
230
1
0
LINE
5
1B1
100
AcDbEntity
8
SK2
62
256
6
ByLayer
370
13
48
1
60
0
100
AcDbLine
10
0
20
-17.4625
30
0
11
0
21
-37.952229
31
0
39
0
210
0
220
0
230
1
0
LINE
5
1B2
100
AcDbEntity
8
SK2
62
256
6
ByLayer
370
13
48
1
60
0
100
AcDbLine
10
-60
20
-35.952229
30
0
11
0
21
-35.952229
31
0
39
0
210
0
220
0
230
1
0
SOLID
5
1B3
100
AcDbEntity
8
SK2
62
256
6
ByLayer
370
18
48
1
60
0
100
AcDbTrace
10
-60
20
-35.952229
30
0
11
-56.500002
21
-35.491446
31
0
12
-56.499998
22
-36.413013
32
0
13
-56.499998
23
-36.413013
33
0
39
0
210
0
220
0
230
1
0
SOLID
5
1B4
100
AcDbEntity
8
SK2
62
256
6
ByLayer
370
18
48
1
60
0
100
AcDbTrace
10
0
20
-35.952229
30
0
11
-3.499998
21
-36.413013
31
0
12
-3.500002
22
-35.491446
32
0
13
-3.500002
23
-35.491446
33
0
39
0
210
0
220
0
230
1
0
ENDBLK
5
1B6
100
AcDbEntity
8
0
100
AcDbBlockEnd
0
BLOCK
5
1BB
100
AcDbEntity
8
0
100
AcDbBlockBegin
2
*D7
70
1
10
0
20
0
30
0
3
*D7
0
LINE
5
1BD
100
AcDbEntity
8
0
62
256
6
ByLayer
370
-2
48
1
60
0
100
AcDbLine
10
170
20
1.5875
30
0
11
170
21
34.952229
31
0
39
0
210
0
220
0
230
1
0
LINE
5
1BE
100
AcDbEntity
8
0
62
256
6
ByLayer
370
-2
48
1
60
0
100
AcDbLine
10
24
20
14.883
30
0
11
24
21
34.952229
31
0
39
0
210
0
220
0
230
1
0
LINE
5
1BF
100
AcDbEntity
8
0
62
256
6
ByLayer
370
-2
48
1
60
0
100
AcDbLine
10
166.5
20
32.952229
30
0
11
27.5
21
32.952229
31
0
39
0
210
0
220
0
230
1
0
SOLID
5
1C0
100
AcDbEntity
8
0
62
256
6
ByLayer
370
-1
48
1
60
0
100
AcDbTrace
10
166.5
20
32.368896
30
0
11
166.5
21
33.535563
31
0
12
170
22
32.952229
32
0
13
170
23
32.952229
33
0
39
0
210
0
220
0
230
1
0
SOLID
5
1C1
100
AcDbEntity
8
0
62
256
6
ByLayer
370
-1
48
1
60
0
100
AcDbTrace
10
27.5
20
33.535563
30
0
11
27.5
21
32.368896
31
0
12
24
22
32.952229
32
0
13
24
23
32.952229
33
0
39
0
210
0
220
0
230
1
0
MTEXT
5
1C2
100
AcDbEntity
8
0
62
256
6
ByLayer
370
18
48
1
60
0
100
AcDbMText
10
97
20
38.952229
30
0
210
0
220
0
230
1
1
\A1;146
40
3
41
0
44
1
50
0
71
5
72
5
7
iso_b_vert
0
POINT
5
1C3
100
AcDbEntity
8
Defpoints
62
0
6
ByLayer
370
-1
48
1
60
0
100
AcDbPoint
10
170
20
0
30
0
39
0
210
0
220
0
230
1
50
360
0
POINT
5
1C4
100
AcDbEntity
8
Defpoints
62
0
6
ByLayer
370
-1
48
1
60
0
100
AcDbPoint
10
24
20
13.2955
30
0
39
0
210
0
220
0
230
1
50
360
0
POINT
5
1C5
100
AcDbEntity
8
Defpoints
62
0
6
ByLayer
370
-1
48
1
60
0
100
AcDbPoint
10
24
20
32.952229
30
0
39
0
210
0
220
0
230
1
50
360
0
ENDBLK
5
1BC
100
AcDbEntity
8
0
100
AcDbBlockEnd
0
BLOCK
5
1CD
100
AcDbEntity
8
0
100
AcDbBlockBegin
2
_U3
70
0
10
0
20
0
30
0
3
_U3
0
MTEXT
5
1C7
100
AcDbEntity
8
SK2
62
256
6
ByLayer
370
18
48
1
60
0
100
AcDbMText
10
91.613715
20
33.837344
30
0
210
0
220
0
230
1
1
\W0.7237;146.00
40
3
41
0
44
1.084337
50
0
71
7
72
5
7
iso_b_vert
0
LINE
5
1C8
100
AcDbEntity
8
SK2
62
256
6
ByLayer
370
13
48
1
60
0
100
AcDbLine
10
170
20
1.5875
30
0
11
170
21
34.952229
31
0
39
0
210
0
220
0
230
1
0
LINE
5
1C9
100
AcDbEntity
8
SK2
62
256
6
ByLayer
370
13
48
1
60
0
100
AcDbLine
10
24
20
14.883
30
0
11
24
21
34.952229
31
0
39
0
210
0
220
0
230
1
0
LINE
5
1CA
100
AcDbEntity
8
SK2
62
256
6
ByLayer
370
13
48
1
60
0
100
AcDbLine
10
170
20
32.952229
30
0
11
24
21
32.952229
31
0
39
0
210
0
220
0
230
1
0
SOLID
5
1CB
100
AcDbEntity
8
SK2
62
256
6
ByLayer
370
18
48
1
60
0
100
AcDbTrace
10
170
20
32.952229
30
0
11
166.500002
21
32.491446
31
0
12
166.499998
22
33.413013
32
0
13
166.499998
23
33.413013
33
0
39
0
210
0
220
0
230
1
0
SOLID
5
1CC
100
AcDbEntity
8
SK2
62
256
6
ByLayer
370
18
48
1
60
0
100
AcDbTrace
10
24
20
32.952229
30
0
11
27.499998
21
33.413013
31
0
12
27.500002
22
32.491446
32
0
13
27.500002
23
32.491446
33
0
39
0
210
0
220
0
230
1
0
ENDBLK
5
1CE
100
AcDbEntity
8
0
100
AcDbBlockEnd
0
ENDSEC
0
SECTION
2
ENTITIES
0
ARC
5
C1
100
AcDbEntity
8
SK2
62
256
6
ByLayer
370
13
48
1
60
0
100
AcDbCircle
39
0
10
170
20
0
30
0
40
19
210
0
220
0
230
1
100
AcDbArc
50
290
51
70
0
ELLIPSE
5
C2
100
AcDbEntity
8
SK1
62
256
6
ByLayer
370
18
48
1
60
0
100
AcDbEllipse
10
-38.196323
20
0
30
0
11
-2.91609388003954E-15
21
-15.875
31
0
210
0
220
0
230
1
40
0.932515
41
-2.04476529460845
42
-1.09682735898134
0
ELLIPSE
5
C3
100
AcDbEntity
8
SK1
62
256
6
ByLayer
370
18
48
1
60
0
100
AcDbEllipse
10
-24.023853
20
0
30
0
11
17.0238532716365
21
-1.92897228726061E-14
31
0
210
0
220
0
230
1
40
0.932515
41
-0.473968967813626
42
0.473968967813628
0
POINT
5
70
100
AcDbEntity
8
81
62
256
6
ByLayer
370
18
48
1
60
0
100
AcDbPoint
10
170
20
0
30
0
39
0
210
0
220
0
230
1
50
360
0
POINT
5
72
100
AcDbEntity
8
80
62
256
6
ByLayer
370
18
48
1
60
0
100
AcDbPoint
10
0
20
0
30
0
39
0
210
0
220
0
230
1
50
360
0
POINT
5
74
100
AcDbEntity
8
1
62
256
6
ByLayer
370
18
48
1
60
1
100
AcDbPoint
10
-60
20
-15.875
30
0
39
0
210
0
220
0
230
1
50
360
0
POINT
5
76
100
AcDbEntity
8
1
62
256
6
ByLayer
370
18
48
1
60
1
100
AcDbPoint
10
170
20
0
30
0
39
0
210
0
220
0
230
1
50
360
0
POINT
5
77
100
AcDbEntity
8
1
62
256
6
ByLayer
370
18
48
1
60
1
100
AcDbPoint
10
170
20
0
30
0
39
0
210
0
220
0
230
1
50
360
0
POINT
5
78
100
AcDbEntity
8
1
62
256
6
ByLayer
370
18
48
1
60
1
100
AcDbPoint
10
3
20
-13.2955
30
0
39
0
210
0
220
0
230
1
50
360
0
POINT
5
79
100
AcDbEntity
8
1
62
256
6
ByLayer
370
18
48
1
60
1
100
AcDbPoint
10
-60
20
-15.875
30
0
39
0
210
0
220
0
230
1
50
360
0
POINT
5
7A
100
AcDbEntity
8
1
62
256
6
ByLayer
370
18
48
1
60
1
100
AcDbPoint
10
0
20
-15.875
30
0
39
0
210
0
220
0
230
1
50
360
0
POINT
5
7B
100
AcDbEntity
8
1
62
256
6
ByLayer
370
18
48
1
60
1
100
AcDbPoint
10
170
20
0
30
0
39
0
210
0
220
0
230
1
50
360
0
POINT
5
7C
100
AcDbEntity
8
1
62
256
6
ByLayer
370
18
48
1
60
1
100
AcDbPoint
10
24
20
13.2955
30
0
39
0
210
0
220
0
230
1
50
360
0
SPLINE
5
C4
100
AcDbEntity
8
1
62
256
6
ByLayer
370
18
48
1
60
0
100
AcDbSpline
70
4
71
3
72
27
73
23
40
0
40
0
40
0
40
0
40
0.125000000000012
40
0.125000000000012
40
0.250000000000023
40
0.250000000000023
40
0.375000000000035
40
0.375000000000035
40
0.437500000000041
40
0.437500000000041
40
0.45312500000004
40
0.45312500000004
40
0.46875000000004
40
0.500000000000034
40
0.500000000000034
40
0.625000000000026
40
0.625000000000026
40
0.750000000000017
40
0.750000000000017
40
0.875000000000009
40
0.875000000000009
40
1
40
1
40
1
40
1
41
1
10
10
20
-10.6910475199843
30
0
41
1
10
10.4089115648931
20
-10.6086977269985
30
0
41
1
10
10.821297076025
20
-10.5388812162225
30
0
41
1
10
11.6525238294694
20
-10.4252270773468
30
0
41
1
10
12.0713689756899
20
-10.3813941064981
30
0
41
1
10
12.9152514075092
20
-10.3202596691702
30
0
41
1
10
13.3402917739513
20
-10.3029665755302
30
0
41
1
10
13.9823867627263
20
-10.2969237311129
30
0
41
1
10
14.197174818823
20
-10.2982204525508
30
0
41
1
10
14.466595719978
20
-10.3039305261818
30
0
41
1
10
14.520526408791
20
-10.3052772322738
30
0
41
1
10
14.6281679078231
20
-10.3083668325946
30
0
41
1
10
14.7894186159945
20
-10.3135976995361
30
0
41
1
10
14.9500446608513
20
-10.3205857493764
30
0
41
1
10
15.4841197568275
20
-10.347637099955
30
0
41
1
10
15.9070763463278
20
-10.3813234503417
30
0
41
1
10
16.7454525658159
20
-10.468718438163
30
0
41
1
10
17.1608688692513
20
-10.5224255167755
30
0
41
1
10
17.9852776349361
20
-10.6452710831687
30
0
41
1
10
18.3942715151384
20
-10.7143954815445
30
0
41
1
10
19.2070413198536
20
-10.8631658485665
30
0
41
1
10
19.6108253677756
20
-10.9427844212889
30
0
41
1
10
20.012580836122
20
-11.025364378828
30
0
0
SPLINE
5
C5
100
AcDbEntity
8
1
62
256
6
ByLayer
370
18
48
1
60
0
100
AcDbSpline
70
4
71
3
72
14
73
10
40
0
40
0
40
0
40
0
40
0.25
40
0.25
40
0.5
40
0.5
40
0.75
40
0.75
40
1
40
1
40
1
40
1
41
1
10
14.1706357108978
20
9.88175143439003
30
0
41
1
10
13.8123422606042
20
9.9705512691128
30
0
41
1
10
13.4571820041069
20
10.0623223203398
30
0
41
1
10
12.7519918048801
20
10.249229943207
30
0
41
1
10
12.4019554425829
20
10.3443646168905
30
0
41
1
10
11.7066836420241
20
10.5366670554415
30
0
41
1
10
11.3614503126795
20
10.633847511759
30
0
41
1
10
10.6763584601849
20
10.8300207008653
30
0
41
1
10
10.336507695616
20
10.929033804077
30
0
41
1
10
10
20
11.02913347077
30
0
0
SPLINE
5
C6
100
AcDbEntity
8
1
62
256
6
ByLayer
370
18
48
1
60
0
100
AcDbSpline
70
4
71
3
72
12
73
8
40
0
40
0
40
0
40
0
40
0.115680043379956
40
0.115680043379956
40
0.557840021689978
40
0.557840021689978
40
1
40
1
40
1
40
1
41
1
10
12.3276658774791
20
-10.365269824226
30
0
41
1
10
12.2363842370799
20
-10.3902743172603
30
0
41
1
10
12.1452697367975
20
-10.4153602866761
30
0
41
1
10
11.7066836420241
20
-10.5366670554415
30
0
41
1
10
11.3614503126795
20
-10.6338475117591
30
0
41
1
10
10.6763584601849
20
-10.8300207008654
30
0
41
1
10
10.336507695616
20
-10.9290338040771
30
0
41
1
10
10
20
-11.02913347077
30
0
0
SPLINE
5
C7
100
AcDbEntity
8
1
62
256
6
ByLayer
370
18
48
1
60
0
100
AcDbSpline
70
4
71
3
72
25
73
21
40
0
40
0
40
0
40
0
40
0.0210275588541653
40
0.0210275588541653
40
0.184189632378466
40
0.184189632378466
40
0.265770669140614
40
0.265770669140614
40
0.286165928331148
40
0.286165928331148
40
0.306561187521682
40
0.347351705902756
40
0.347351705902756
40
0.510513779427067
40
0.510513779427067
40
0.673675852951378
40
0.673675852951378
40
0.836837926475689
40
0.836837926475689
40
1
40
1
40
1
40
1
41
1
10
12.3303313640822
20
10.3633053697288
30
0
41
1
10
12.3846060241566
20
10.358925934662
30
0
41
1
10
12.4389323968161
20
10.354766246875
30
0
41
1
10
12.9152514075092
20
10.3202596691702
30
0
41
1
10
13.3402917739513
20
10.3029665755302
30
0
41
1
10
13.9823867627262
20
10.2969237311129
30
0
41
1
10
14.197174818823
20
10.2982204525508
30
0
41
1
10
14.4665957199779
20
10.3039305261819
30
0
41
1
10
14.520526408791
20
10.3052772322738
30
0
41
1
10
14.628167907823
20
10.3083668325945
30
0
41
1
10
14.7894186159945
20
10.3135976995361
30
0
41
1
10
14.9500446608513
20
10.3205857493764
30
0
41
1
10
15.4841197568275
20
10.347637099955
30
0
41
1
10
15.9070763463278
20
10.3813234503417
30
0
41
1
10
16.7454525658159
20
10.4687184381631
30
0
41
1
10
17.1608688692513
20
10.5224255167755
30
0
41
1
10
17.9852776349361
20
10.6452710831687
30
0
41
1
10
18.3942715151384
20
10.7143954815445
30
0
41
1
10
19.2070413198536
20
10.8631658485665
30
0
41
1
10
19.6108253677755
20
10.9427844212889
30
0
41
1
10
20.012580836122
20
11.025364378828
30
0
0
SPLINE
5
C8
100
AcDbEntity
8
1
62
256
6
ByLayer
370
18
48
1
60
0
100
AcDbSpline
70
4
71
3
72
12
73
8
40
0
40
0
40
0
40
0
40
0.505209898303233
40
0.505209898303233
40
0.757814847454837
40
0.757814847454837
40
1
40
1
40
1
40
1
41
1
10
152.9
20
-13.2471578209203
30
0
41
1
10
153.411587052763
20
-13.2627232337118
30
0
41
1
10
153.922850009924
20
-13.2744267111532
30
0
41
1
10
154.689201143184
20
-13.2861270994068
30
0
41
1
10
154.944552214601
20
-13.2890512346276
30
0
41
1
10
155.444577686184
20
-13.2928472368022
30
0
41
1
10
155.6893107482
20
-13.293795051194
30
0
41
1
10
155.934091252871
20
-13.2938391804708
30
0
0
SPLINE
5
C9
100
AcDbEntity
8
1
62
256
6
ByLayer
370
18
48
1
60
0
100
AcDbSpline
70
4
71
3
72
212
73
208
40
0
40
0
40
0
40
0
40
0.0156249999999989
40
0.0156249999999989
40
0.0312499999999977
40
0.0312499999999977
40
0.0468749999999966
40
0.0468749999999966
40
0.054687499999996
40
0.054687499999996
40
0.0585937499999959
40
0.0585937499999959
40
0.0624999999999958
40
0.0624999999999958
40
0.0781249999999949
40
0.0781249999999949
40
0.0937499999999941
40
0.0937499999999941
40
0.109374999999993
40
0.109374999999993
40
0.117187499999993
40
0.117187499999993
40
0.121093749999993
40
0.121093749999993
40
0.124999999999993
40
0.124999999999993
40
0.132812499999992
40
0.132812499999992
40
0.140624999999992
40
0.140624999999992
40
0.156249999999992
40
0.156249999999992
40
0.171874999999991
40
0.171874999999991
40
0.179687499999991
40
0.179687499999991
40
0.183593749999991
40
0.183593749999991
40
0.187499999999991
40
0.187499999999991
40
0.203124999999992
40
0.203124999999992
40
0.218749999999992
40
0.218749999999992
40
0.234374999999993
40
0.234374999999993
40
0.238281249999993
40
0.238281249999993
40
0.242187499999993
40
0.242187499999993
40
0.249999999999992
40
0.249999999999992
40
0.253906249999992
40
0.253906249999992
40
0.257812499999992
40
0.265624999999993
40
0.265624999999993
40
0.281249999999993
40
0.281249999999993
40
0.296874999999993
40
0.296874999999993
40
0.300781249999993
40
0.300781249999993
40
0.304687499999993
40
0.304687499999993
40
0.312499999999992
40
0.312499999999992
40
0.328124999999992
40
0.328124999999992
40
0.343749999999991
40
0.343749999999991
40
0.351562499999991
40
0.351562499999991
40
0.359374999999991
40
0.359374999999991
40
0.363281249999991
40
0.363281249999991
40
0.367187499999991
40
0.374999999999991
40
0.374999999999991
40
0.382812499999992
40
0.382812499999992
40
0.390624999999993
40
0.390624999999993
40
0.406249999999994
40
0.406249999999994
40
0.414062499999995
40
0.414062499999995
40
0.417968749999995
40
0.417968749999995
40
0.421874999999995
40
0.421874999999995
40
0.437499999999998
40
0.437499999999998
40
0.453125
40
0.453125
40
0.468750000000002
40
0.468750000000002
40
0.476562500000003
40
0.476562500000003
40
0.480468750000003
40
0.480468750000003
40
0.484375000000004
40
0.484375000000004
40
0.500000000000004
40
0.500000000000004
40
0.507812500000005
40
0.507812500000005
40
0.515625000000005
40
0.515625000000005
40
0.531250000000007
40
0.531250000000007
40
0.539062500000007
40
0.539062500000007
40
0.546875000000008
40
0.546875000000008
40
0.562500000000009
40
0.562500000000009
40
0.57031250000001
40
0.57031250000001
40
0.578125000000011
40
0.578125000000011
40
0.593750000000012
40
0.593750000000012
40
0.597656250000012
40
0.597656250000012
40
0.601562500000012
40
0.601562500000012
40
0.609375000000011
40
0.609375000000011
40
0.62500000000001
40
0.62500000000001
40
0.632812500000009
40
0.632812500000009
40
0.640625000000007
40
0.640625000000007
40
0.656250000000006
40
0.656250000000006
40
0.660156250000006
40
0.660156250000006
40
0.664062500000005
40
0.671875000000005
40
0.671875000000005
40
0.687500000000004
40
0.687500000000004
40
0.703125000000004
40
0.703125000000004
40
0.710937500000003
40
0.714843750000003
40
0.714843750000003
40
0.718750000000003
40
0.718750000000003
40
0.726562500000002
40
0.726562500000002
40
0.734375000000002
40
0.734375000000002
40
0.750000000000001
40
0.750000000000001
40
0.757812500000001
40
0.757812500000001
40
0.765625
40
0.765625
40
0.7734375
40
0.7734375
40
0.77734375
40
0.77734375
40
0.78125
40
0.78125
40
0.796875
40
0.796875
40
0.812499999999999
40
0.812499999999999
40
0.828124999999999
40
0.828124999999999
40
0.835937499999998
40
0.835937499999998
40
0.839843749999998
40
0.839843749999998
40
0.843749999999997
40
0.843749999999997
40
0.859374999999997
40
0.859374999999997
40
0.874999999999996
40
0.874999999999996
40
0.890624999999996
40
0.890624999999996
40
0.894531249999996
40
0.894531249999996
40
0.898437499999996
40
0.898437499999996
40
0.906249999999996
40
0.906249999999996
40
0.921874999999997
40
0.921874999999997
40
0.937499999999998
40
0.937499999999998
40
0.953124999999998
40
0.953124999999998
40
0.957031249999998
40
0.957031249999998
40
0.960937499999998
40
0.960937499999998
40
0.968749999999999
40
0.968749999999999
40
0.984374999999999
40
0.984374999999999
40
1
40
1
40
1
40
1
41
1
10
20.0125808361219
20
11.025364378828
30
0
41
1
10
20.7053249116503
20
11.1640944233762
30
0
41
1
10
21.3980393104991
20
11.2959150994971
30
0
41
1
10
22.7831403258538
20
11.5465268327521
30
0
41
1
10
23.4755260722068
20
11.6653174840912
30
0
41
1
10
24.859730373154
20
11.8903142123825
30
0
41
1
10
25.5515469507533
20
11.9965227544391
30
0
41
1
10
26.5886571720567
20
12.1465375284847
30
0
41
1
10
26.9342591193096
20
12.1949894121816
30
0
41
1
10
27.4524942181539
20
12.2653283004475
30
0
41
1
10
27.6252102884684
20
12.2883856568168
30
0
41
1
10
27.9705886246457
20
12.3337128348909
30
0
41
1
10
28.1432548732044
20
12.355977909265
30
0
41
1
10
29.0067772835336
20
12.4650136185713
30
0
41
1
10
29.6980729334526
20
12.5450720857944
30
0
41
1
10
31.0812336706217
20
12.6914745379504
30
0
41
1
10
31.7731092669194
20
12.7578059767176
30
0
41
1
10
33.1572205443525
20
12.8769255541518
30
0
41
1
10
33.8494496966784
20
12.9297181527794
30
0
41
1
10
34.8878910900096
20
12.9986926892562
30
0
41
1
10
35.2340557704619
20
13.0199789409143
30
0
41
1
10
35.7533160107619
20
13.0493207886481
30
0
41
1
10
35.9263969996297
20
13.0586728622721
30
0
41
1
10
36.2726514132202
20
13.0764730373963
30
0
41
1
10
36.4458378774531
20
13.084916549831
30
0
41
1
10
36.9655760488158
20
13.1088856406633
30
0
41
1
10
37.3121619629472
20
13.1230455288295
30
0
41
1
10
38.0051274253959
20
13.1477754815644
30
0
41
1
10
38.3515595113674
20
13.1583481071433
30
0
41
1
10
39.3906573954244
20
13.1847455243305
30
0
41
1
10
40.0831284489831
20
13.1952579813781
30
0
41
1
10
41.4673153804915
20
13.2021901422692
30
0
41
1
10
42.1590237400075
20
13.1986093718793
30
0
41
1
10
43.1958489535865
20
13.1825127869691
30
0
41
1
10
43.541316363777
20
13.175353648567
30
0
41
1
10
44.0593866459152
20
13.1619076730635
30
0
41
1
10
44.2320804431486
20
13.156979430103
30
0
41
1
10
44.5775374844331
20
13.1462496242022
30
0
41
1
10
44.7502917673738
20
13.1404463733628
30
0
41
1
10
45.6141757149132
20
13.1092496688497
30
0
41
1
10
46.3056320264638
20
13.0773244919727
30
0
41
1
10
47.6889367484524
20
12.9996319393388
30
0
41
1
10
48.3807968127977
20
12.9538680469128
30
0
41
1
10
49.7646884355499
20
12.848328027644
30
0
41
1
10
50.4567135538887
20
12.7885468601009
30
0
41
1
10
51.3217326710042
20
12.7047934380878
30
0
41
1
10
51.4947349231569
20
12.6875899757142
30
0
41
1
10
51.8407419412934
20
12.652275097194
30
0
41
1
10
52.0137514515586
20
12.6341666680636
30
0
41
1
10
52.5329783624621
20
12.5786379675591
30
0
41
1
10
52.8793593863954
20
12.5399894763268
30
0
41
1
10
53.3992353359483
20
12.4795686870974
30
0
41
1
10
53.5725948260889
20
12.4590181515635
30
0
41
1
10
53.9192497439365
20
12.4171176987843
30
0
41
1
10
54.4391820247466
20
12.3530622426101
30
0
41
1
10
54.958947655111
20
12.2853936499342
30
0
41
1
10
55.9982155732306
20
12.145222572935
30
0
41
1
10
56.6907130739302
20
12.0453415988057
30
0
41
1
10
58.0747612558649
20
11.8324042112983
30
0
41
1
10
58.7663080307212
20
11.7193414320334
30
0
41
1
10
59.6300312518608
20
11.569482914304
30
0
41
1
10
59.8027328131047
20
11.5390734490697
30
0
41
1
10
60.1481587262944
20
11.4775250481934
30
0
41
1
10
60.3208946649644
20
11.446402602401
30
0
41
1
10
60.8391690260849
20
11.3519962232598
30
0
41
1
10
61.1847706706822
20
11.2876693454249
30
0
41
1
10
62.2217564696506
20
11.090465548259
30
0
41
1
10
62.9133146079479
20
10.9533619842422
30
0
41
1
10
64.2966602497625
20
10.6676194204528
30
0
41
1
10
64.9884500236546
20
10.518984390878
30
0
41
1
10
66.0261235814066
20
10.2869915712589
30
0
41
1
10
66.3720132722177
20
10.2081524670249
30
0
41
1
10
67.063769208194
20
10.0473882414792
30
0
41
1
10
67.4096155772001
20
9.96542566908769
30
0
41
1
10
67.9284247354937
20
9.84024133085583
30
0
41
1
10
68.1013937929945
20
9.79818862435434
30
0
41
1
10
68.4474553306514
20
9.71354815874986
30
0
41
1
10
68.9667071226604
20
9.5857367021444
30
0
41
1
10
69.4864061441342
20
9.45533597931882
30
0
41
1
10
70.1796861351579
20
9.27909275528077
30
0
41
1
10
70.5265241260099
20
9.18977792303585
30
0
41
1
10
71.2198402398325
20
9.00890286433614
30
0
41
1
10
71.5664022569943
20
8.91732175757753
30
0
41
1
10
72.6057599884608
20
8.63907198603593
30
0
41
1
10
73.2982235388167
20
8.44889361383542
30
0
41
1
10
74.3360732206024
20
8.15617103598967
30
0
41
1
10
74.6818830847792
20
8.05735508546721
30
0
41
1
10
75.2003713248378
20
7.90721791362608
30
0
41
1
10
75.3731613587244
20
7.85684958773015
30
0
41
1
10
75.718670799216
20
7.75548315390049
30
0
41
1
10
75.8913962849858
20
7.70449839879333
30
0
41
1
10
76.7551726479331
20
7.44874075949809
30
0
41
1
10
77.4465133330173
20
7.24112303745289
30
0
41
1
10
78.8294561165137
20
6.81915127725759
30
0
41
1
10
79.521069001887
20
6.60482055309529
30
0
41
1
10
80.9043472875042
20
6.16893715572434
30
0
41
1
10
81.5960060034959
20
5.94736812509012
30
0
41
1
10
82.6333576553043
20
5.60907938951888
30
0
41
1
10
82.9791200336541
20
5.49532918901673
30
0
41
1
10
83.4977174323879
20
5.32316863493674
30
0
41
1
10
83.6705680872492
20
5.26550629039164
30
0
41
1
10
84.0163497087522
20
5.14991495836694
30
0
41
1
10
84.1892914247025
20
5.09201423704377
30
0
41
1
10
85.0542470917393
20
4.80197431139024
30
0
41
1
10
85.7469831811349
20
4.56818370918532
30
0
41
1
10
86.786981375819
20
4.21424228721344
30
0
41
1
10
87.1338491923887
20
4.09570813798274
30
0
41
1
10
87.8273844561182
20
3.85765678612967
30
0
41
1
10
88.1740984477667
20
3.7381251450492
30
0
41
1
10
89.2140296517928
20
3.37787837338968
30
0
41
1
10
89.9070316481366
20
3.1355011629577
30
0
41
1
10
90.9459472863034
20
2.76815508967164
30
0
41
1
10
91.2921325528928
20
2.64501578846571
30
0
41
1
10
91.9843997607686
20
2.39771845068768
30
0
41
1
10
92.3306307615762
20
2.27396646721289
30
0
41
1
10
93.3697353866052
20
1.90274124202438
30
0
41
1
10
94.0629273469823
20
1.65504657092058
30
0
41
1
10
95.1031675603893
20
1.28257998540502
30
0
41
1
10
95.4500284416521
20
1.15826302244568
30
0
41
1
10
96.1435658400369
20
0.90936632957866
30
0
41
1
10
96.4902687322236
20
0.78477539634676
30
0
41
1
10
97.5301309793816
20
0.410438961347211
30
0
41
1
10
98.2230393876789
20
0.1601171022877
30
0
41
1
10
99.0886372780357
20
-0.154073512980602
30
0
41
1
10
99.2617277208348
20
-0.216982287228404
30
0
41
1
10
99.6078643496727
20
-0.342902137751679
30
0
41
1
10
99.7809190251124
20
-0.405889656186758
30
0
41
1
10
100.300211592598
20
-0.594465233068462
30
0
41
1
10
100.646534908704
20
-0.719785937377708
30
0
41
1
10
101.685810559238
20
-1.09477983640542
30
0
41
1
10
102.379057772875
20
-1.34351499542828
30
0
41
1
10
103.419322795166
20
-1.71528544465812
30
0
41
1
10
103.766203313165
20
-1.83900258888079
30
0
41
1
10
104.459617482427
20
-2.08590767485236
30
0
41
1
10
104.806184016154
20
-2.20910895633458
30
0
41
1
10
105.845415265811
20
-2.5780848643623
30
0
41
1
10
106.537608311057
20
-2.82324348749063
30
0
41
1
10
107.401950282181
20
-3.1289189717757
30
0
41
1
10
107.574768311636
20
-3.19002969661131
30
0
41
1
10
107.920424574508
20
-3.31187198256069
30
0
41
1
10
108.438953279647
20
-3.49402929236405
30
0
41
1
10
108.957585820794
20
-3.67446026307371
30
0
41
1
10
109.99491560934
20
-4.03324257865566
30
0
41
1
10
110.686549331684
20
-4.26967615821707
30
0
41
1
10
112.069743857112
20
-4.73770205123517
30
0
41
1
10
112.761306059281
20
-4.96929083009499
30
0
41
1
10
113.798408658399
20
-5.31349454426319
30
0
41
1
10
114.316900444178
20
-5.48479853283555
30
0
41
1
10
114.835279234978
20
-5.65495114595032
30
0
41
1
10
115.180837698305
20
-5.76813386562657
30
0
41
1
10
115.353595562503
20
-5.82461828125022
30
0
41
1
10
115.871904954785
20
-5.99349664127715
30
0
41
1
10
116.217596941449
20
-6.10505336660231
30
0
41
1
10
116.909334295954
20
-6.32600407297664
30
0
41
1
10
117.255363454728
20
-6.43543875970536
30
0
41
1
10
118.293859276469
20
-6.7608169705739
30
0
41
1
10
118.986736671404
20
-6.97383160508019
30
0
41
1
10
120.026702589414
20
-7.28791930924734
30
0
41
1
10
120.373548938554
20
-7.39173399298471
30
0
41
1
10
121.066952068643
20
-7.5974763912605
30
0
41
1
10
121.413495647627
20
-7.69940125413825
30
0
41
1
10
122.106238728123
20
-7.90140852337467
30
0
41
1
10
122.452438624306
20
-8.00148996568785
30
0
41
1
10
122.97146426697
20
-8.15024764221715
30
0
41
1
10
123.144424062006
20
-8.19961272811577
30
0
41
1
10
123.490264536427
20
-8.29785688226673
30
0
41
1
10
123.663155150918
20
-8.34671368320889
30
0
41
1
10
124.527722983811
20
-8.58910504756906
30
0
41
1
10
125.219564252798
20
-8.77737228794149
30
0
41
1
10
126.60325298473
20
-9.143627048138
30
0
41
1
10
127.295111743213
20
-9.3215884056678
30
0
41
1
10
128.678627176644
20
-9.66767700174904
30
0
41
1
10
129.370276896443
20
-9.83581760941033
30
0
41
1
10
130.407422707431
20
-10.0808781150564
30
0
41
1
10
130.753084377864
20
-10.1613693812765
30
0
41
1
10
131.27148204303
20
-10.2803134553293
30
0
41
1
10
131.444260498089
20
-10.3196707311288
30
0
41
1
10
131.789899216675
20
-10.3975873359034
30
0
41
1
10
131.962762778111
20
-10.4361415721865
30
0
41
1
10
132.827284525599
20
-10.626933638554
30
0
41
1
10
133.519545243397
20
-10.7732599592537
30
0
41
1
10
134.90500846638
20
-11.0540222979019
30
0
41
1
10
135.598223912667
20
-11.1884358276935
30
0
41
1
10
136.985388576756
20
-11.4456490759175
30
0
41
1
10
137.67839356041
20
-11.568284894529
30
0
41
1
10
138.543688327465
20
-11.7141731847105
30
0
41
1
10
138.716701220405
20
-11.7429798991088
30
0
41
1
10
139.062632205142
20
-11.7998501128955
30
0
41
1
10
139.2355422865
20
-11.8279233663855
30
0
41
1
10
139.754215751601
20
-11.9109151160851
30
0
41
1
10
140.100020781583
20
-11.9644853579358
30
0
41
1
10
141.137550736235
20
-12.1199451020138
30
0
41
1
10
141.829328603153
20
-12.2166687469601
30
0
41
1
10
143.212776641056
20
-12.3968131386494
30
0
41
1
10
143.904457783003
20
-12.4802214391385
30
0
41
1
10
145.287486833698
20
-12.6339127464601
30
0
41
1
10
145.978828700542
20
-12.7041995805235
30
0
41
1
10
146.842674626386
20
-12.7837860387673
30
0
41
1
10
147.015424070037
20
-12.7992912215141
30
0
41
1
10
147.36090457378
20
-12.8294571692079
30
0
41
1
10
147.53364633328
20
-12.8441102300734
30
0
41
1
10
148.052029874183
20
-12.8866843993493
30
0
41
1
10
148.397785302269
20
-12.9132522780125
30
0
41
1
10
149.435471750177
20
-12.9876200870862
30
0
41
1
10
150.127812272286
20
-13.030098166582
30
0
41
1
10
151.513329454094
20
-13.1010952961254
30
0
41
1
10
152.206512866668
20
-13.1296115543376
30
0
41
1
10
152.9
20
-13.1511207534538
30
0
0
SPLINE
5
CA
100
AcDbEntity
8
1
62
256
6
ByLayer
370
18
48
1
60
0
100
AcDbSpline
70
4
71
4
72
10
73
5
40
0
40
0
40
0
40
0
40
0
40
1
40
1
40
1
40
1
40
1
41
0.997302691446342
10
20.0125808361218
20
11.0253643788279
30
0
41
0.996339818023042
10
19.9500641794925
20
10.3567127201017
30
0
41
0.995543132845079
10
19.8636718066836
20
9.69419239459175
30
0
41
0.995336012377957
10
19.7536788234954
20
9.05473807499773
30
0
41
0.995620343481993
10
19.6233111907306
20
8.45199731773105
30
0
0
SPLINE
5
CB
100
AcDbEntity
8
1
62
256
6
ByLayer
370
18
48
1
60
0
100
AcDbSpline
70
4
71
3
72
173
73
169
40
0
40
0
40
0
40
0
40
0.0015635926191473
40
0.0015635926191473
40
0.0204020153999169
40
0.0204020153999169
40
0.0298212267903017
40
0.0298212267903017
40
0.0345308324854945
40
0.0345308324854945
40
0.0392404381806872
40
0.0580788609614568
40
0.0580788609614568
40
0.0769172837422265
40
0.0769172837422265
40
0.0863364951326113
40
0.0863364951326113
40
0.0957557065229962
40
0.0957557065229962
40
0.100465312218188
40
0.100465312218188
40
0.10517491791338
40
0.10517491791338
40
0.114594129303765
40
0.114594129303765
40
0.133432552084535
40
0.133432552084535
40
0.152270974865306
40
0.152270974865306
40
0.161690186255691
40
0.161690186255691
40
0.171109397646076
40
0.171109397646076
40
0.180528609036461
40
0.180528609036461
40
0.189947820426846
40
0.189947820426846
40
0.208786243207617
40
0.208786243207617
40
0.227624665988388
40
0.227624665988388
40
0.237043877378774
40
0.237043877378774
40
0.241753483073966
40
0.241753483073966
40
0.246463088769159
40
0.265301511549932
40
0.265301511549932
40
0.284139934330705
40
0.284139934330705
40
0.302978357111478
40
0.302978357111478
40
0.307687962806671
40
0.307687962806671
40
0.312397568501865
40
0.312397568501865
40
0.321816779892251
40
0.321816779892251
40
0.340655202673023
40
0.340655202673023
40
0.359493625453795
40
0.359493625453795
40
0.368912836844182
40
0.373622442539374
40
0.373622442539374
40
0.378332048234567
40
0.378332048234567
40
0.387751259624952
40
0.387751259624952
40
0.397170471015338
40
0.397170471015338
40
0.416008893796108
40
0.416008893796108
40
0.434847316576879
40
0.434847316576879
40
0.444266527967264
40
0.444266527967264
40
0.448976133662456
40
0.448976133662456
40
0.453685739357649
40
0.472524162138419
40
0.472524162138419
40
0.491362584919189
40
0.491362584919189
40
0.510201007699959
40
0.510201007699959
40
0.514910613395152
40
0.514910613395152
40
0.519620219090345
40
0.519620219090345
40
0.52903943048073
40
0.52903943048073
40
0.547877853261501
40
0.547877853261501
40
0.566716276042272
40
0.566716276042272
40
0.576135487432658
40
0.576135487432658
40
0.585554698823043
40
0.585554698823043
40
0.594973910213429
40
0.594973910213429
40
0.604393121603814
40
0.604393121603814
40
0.623231544384586
40
0.623231544384586
40
0.642069967165357
40
0.642069967165357
40
0.651489178555742
40
0.651489178555742
40
0.656198784250935
40
0.656198784250935
40
0.660908389946127
40
0.679746812726899
40
0.679746812726899
40
0.69858523550767
40
0.69858523550767
40
0.717423658288442
40
0.717423658288442
40
0.722133263983635
40
0.722133263983635
40
0.726842869678827
40
0.726842869678827
40
0.736262081069213
40
0.736262081069213
40
0.745681292459598
40
0.745681292459598
40
0.755100503849983
40
0.755100503849983
40
0.773938926630753
40
0.773938926630753
40
0.783358138021138
40
0.783358138021138
40
0.792777349411524
40
0.792777349411524
40
0.802196560801909
40
0.802196560801909
40
0.811615772192294
40
0.811615772192294
40
0.830454194973065
40
0.830454194973065
40
0.849292617753836
40
0.849292617753836
40
0.858711829144221
40
0.858711829144221
40
0.863421434839414
40
0.863421434839414
40
0.868131040534607
40
0.868131040534607
40
0.877550251924992
40
0.877550251924992
40
0.886969463315377
40
0.886969463315377
40
0.905807886096147
40
0.905807886096147
40
0.924646308876917
40
0.924646308876917
40
0.92935591457211
40
0.92935591457211
40
0.934065520267302
40
0.934065520267302
40
0.943484731657688
40
0.943484731657688
40
0.962323154438458
40
0.962323154438458
40
0.981161577219229
40
0.981161577219229
40
1
40
1
40
1
40
1
41
1
10
129.238586881565
20
-9.80740955662637
30
0
41
1
10
129.178660489592
20
-9.82186140479448
30
0
41
1
10
129.118734859383
20
-9.83627393946213
30
0
41
1
10
128.33682570939
20
-10.0238192489452
30
0
41
1
10
127.614955760799
20
-10.1912958035391
30
0
41
1
10
126.532448814183
20
-10.43411299552
30
0
41
1
10
126.171662839002
20
-10.5136508463291
30
0
41
1
10
125.630574874496
20
-10.6308601176627
30
0
41
1
10
125.450232890482
20
-10.6695888061552
30
0
41
1
10
125.089488049219
20
-10.7461939970169
30
0
41
1
10
124.187459881331
20
-10.9355547216045
30
0
41
1
10
123.284619517699
20
-11.1142508021995
30
0
41
1
10
121.839159598348
20
-11.3868406733182
30
0
41
1
10
121.115971186492
20
-11.5164728147499
30
0
41
1
10
120.030597017443
20
-11.7010332449935
30
0
41
1
10
119.66865781224
20
-11.7609123397634
30
0
41
1
10
118.944819571159
20
-11.8773414306559
30
0
41
1
10
118.583092691785
20
-11.9338639822056
30
0
41
1
10
118.040807977975
20
-12.0161113710284
30
0
41
1
10
117.860099393163
20
-12.0431066423498
30
0
41
1
10
117.498777716545
20
-12.0962394652178
30
0
41
1
10
117.318157062628
20
-12.122367779925
30
0
41
1
10
116.776281375144
20
-12.1992916268859
30
0
41
1
10
116.415048028821
20
-12.2486682740532
30
0
41
1
10
115.33141649878
20
-12.391162161702
30
0
41
1
10
114.609087454646
20
-12.4786515420448
30
0
41
1
10
113.164728236923
20
-12.6388964008537
30
0
41
1
10
112.442696150917
20
-12.7116509222312
30
0
41
1
10
111.359982151064
20
-12.8097806331608
30
0
41
1
10
110.99913402743
20
-12.8406555132389
30
0
41
1
10
110.27757205191
20
-12.8987205510159
30
0
41
1
10
109.916878170645
20
-12.925921314428
30
0
41
1
10
109.195551962924
20
-12.9765565609006
30
0
41
1
10
108.834797963425
20
-12.9999258847421
30
0
41
1
10
108.113035945096
20
-13.042765888059
30
0
41
1
10
107.752041217304
20
-13.0622438522611
30
0
41
1
10
106.668739863626
20
-13.1148985101577
30
0
41
1
10
105.94611543407
20
-13.1423031805674
30
0
41
1
10
104.500143698889
20
-13.1817860522962
30
0
41
1
10
103.776795095586
20
-13.1938653511128
30
0
41
1
10
102.691344720153
20
-13.2003577657396
30
0
41
1
10
102.329450792233
20
-13.2005806612579
30
0
41
1
10
101.787082672108
20
-13.1979752172989
30
0
41
1
10
101.606354879918
20
-13.196615921764
30
0
41
1
10
101.244925321725
20
-13.1929208987635
30
0
41
1
10
100.341390475791
20
-13.1812453975546
30
0
41
1
10
99.4380604075066
20
-13.1574831745512
30
0
41
1
10
97.9931020897863
20
-13.1042264101591
30
0
41
1
10
97.2708070783478
20
-13.0699797830903
30
0
41
1
10
95.8267159110726
20
-12.9862345523388
30
0
41
1
10
95.104921946658
20
-12.936736116838
30
0
41
1
10
94.2031033649718
20
-12.865146896468
30
0
41
1
10
94.0227623379017
20
-12.850341601252
30
0
41
1
10
93.6621188385366
20
-12.8197550917118
30
0
41
1
10
93.4818104478225
20
-12.8039771331373
30
0
41
1
10
92.9407814977159
20
-12.7552884160155
30
0
41
1
10
92.5799912544983
20
-12.7210022961393
30
0
41
1
10
91.4973282006483
20
-12.6126999238511
30
0
41
1
10
90.7751641530103
20
-12.5332462880093
30
0
41
1
10
89.3301816082078
20
-12.3598444633723
30
0
41
1
10
88.6073612626365
20
-12.2658988437421
30
0
41
1
10
87.5227447676662
20
-12.1139224156718
30
0
41
1
10
86.9803411551229
20
-12.0351654809739
30
0
41
1
10
86.4378158266844
20
-11.9521896453332
30
0
41
1
10
86.0761076504284
20
-11.8959254254292
30
0
41
1
10
85.8952301248976
20
-11.8673100704049
30
0
41
1
10
85.3526967063087
20
-11.78012466378
30
0
41
1
10
84.9910150689369
20
-11.7203259840677
30
0
41
1
10
84.267574758341
20
-11.5975290476523
30
0
41
1
10
83.9058319971851
20
-11.5345112762205
30
0
41
1
10
82.8205584886845
20
-11.3406095069682
30
0
41
1
10
82.0969815641931
20
-11.204884836092
30
0
41
1
10
80.6498301623889
20
-10.9204102394852
30
0
41
1
10
79.9262542489438
20
-10.7716635494076
30
0
41
1
10
78.8410162027131
20
-10.5384829132318
30
0
41
1
10
78.4792911600782
20
-10.4590774609428
30
0
41
1
10
77.9367512636324
20
-10.3373968795475
30
0
41
1
10
77.7559151860971
20
-10.2963949091987
30
0
41
1
10
77.394191929349
20
-10.2136795452674
30
0
41
1
10
76.4899495573775
20
-10.0052255556355
30
0
41
1
10
75.5860416902614
20
-9.78850105756482
30
0
41
1
10
74.1403212983792
20
-9.43112981458236
30
0
41
1
10
73.4177264487176
20
-9.24713969682514
30
0
41
1
10
71.9731966951964
20
-8.86832177503615
30
0
41
1
10
71.2512639425346
20
-8.67349029763304
30
0
41
1
10
70.3493734757579
20
-8.42286750612936
30
0
41
1
10
70.1690229816542
20
-8.37238548363214
30
0
41
1
10
69.8083716333714
20
-8.27071523164483
30
0
41
1
10
69.6280654553884
20
-8.21953814986381
30
0
41
1
10
69.0870595217801
20
-8.06530071224407
30
0
41
1
10
68.7263055051884
20
-7.96146346713152
30
0
41
1
10
67.6438132653871
20
-7.64690440938685
30
0
41
1
10
66.9218458562617
20
-7.43313771887404
30
0
41
1
10
65.477421539574
20
-6.99728069578168
30
0
41
1
10
64.7549628012445
20
-6.77519515744038
30
0
41
1
10
63.6710136041821
20
-6.43552458034108
30
0
41
1
10
63.3096544719991
20
-6.32120752358131
30
0
41
1
10
62.586870186088
20
-6.0903161515711
30
0
41
1
10
62.2254612182538
20
-5.9737004367127
30
0
41
1
10
61.5025214678838
20
-5.73832288104276
30
0
41
1
10
61.1408351336425
20
-5.61985401685405
30
0
41
1
10
60.4171572698905
20
-5.38169941100657
30
0
41
1
10
60.0553880328429
20
-5.26203757366233
30
0
41
1
10
58.9703088614892
20
-4.90125920910114
30
0
41
1
10
58.2472262120053
20
-4.65835469299992
30
0
41
1
10
56.8017840800552
20
-4.16749424637388
30
0
41
1
10
56.0794231040755
20
-3.91954251204803
30
0
41
1
10
54.996549335159
20
-3.54347597181774
30
0
41
1
10
54.6357027977492
20
-3.41742993121935
30
0
41
1
10
54.0946173017342
20
-3.22727309588978
30
0
41
1
10
53.9142931830033
20
-3.16368709634105
30
0
41
1
10
53.5536297129869
20
-3.03635970029967
30
0
41
1
10
52.6518861023093
20
-2.71778007666183
30
0
41
1
10
51.7497202003199
20
-2.39790725255313
30
0
41
1
10
50.3058345157119
20
-1.88416832619683
30
0
41
1
10
49.5836808671624
20
-1.62632960240819
30
0
41
1
10
48.1390826579834
20
-1.10834845579674
30
0
41
1
10
47.4166401785814
20
-0.84820049669375
30
0
41
1
10
46.5135097988428
20
-0.52125041687043
30
0
41
1
10
46.3328806399176
20
-0.455769790886734
30
0
41
1
10
45.9716136100564
20
-0.324633222219859
30
0
41
1
10
45.7909722335937
20
-0.258987067976619
30
0
41
1
10
45.2488737271502
20
-0.0622429301722605
30
0
41
1
10
44.8872717064203
20
0.0687438277986985
30
0
41
1
10
44.163676234771
20
0.330400838669561
30
0
41
1
10
43.8016619587823
20
0.461079221100419
30
0
41
1
10
43.0779601481131
20
0.721910581498435
30
0
41
1
10
42.7161855484622
20
0.852094697830921
30
0
41
1
10
41.6311122151752
20
1.24201964970774
30
0
41
1
10
40.9080613768506
20
1.5011277682986
30
0
41
1
10
39.82409377054
20
1.88883499189404
30
0
41
1
10
39.4628736141462
20
2.01791371738585
30
0
41
1
10
38.7406598343631
20
2.27581147094904
30
0
41
1
10
38.3796809333979
20
2.40467076710053
30
0
41
1
10
37.6579049432138
20
2.66199816329436
30
0
41
1
10
37.2969883852566
20
2.79013918195818
30
0
41
1
10
36.57498084281
20
3.045064185277
30
0
41
1
10
36.2139095842642
20
3.17190219655771
30
0
41
1
10
35.1305166546474
20
3.55061565858324
30
0
41
1
10
34.4080151045163
20
3.80069031130191
30
0
41
1
10
32.9626576179595
20
4.29638621394051
30
0
41
1
10
32.2398001474117
20
4.54200367848983
30
0
41
1
10
31.1553672387086
20
4.90737549681907
30
0
41
1
10
30.7938651297128
20
5.02865649364787
30
0
41
1
10
30.2515904534448
20
5.20984550707479
30
0
41
1
10
30.0708358523257
20
5.27013836297718
30
0
41
1
10
29.7092481122858
20
5.39029334692933
30
0
41
1
10
29.5284041086653
20
5.45012742266493
30
0
41
1
10
28.9857173508424
20
5.62888965147613
30
0
41
1
10
28.6239196245359
20
5.74702021641409
30
0
41
1
10
27.9004892966809
20
5.98119417037424
30
0
41
1
10
27.5388300991321
20
6.09724703037031
30
0
41
1
10
26.4540404248241
20
6.44237822536348
30
0
41
1
10
25.7310967757524
20
6.66843120672004
30
0
41
1
10
24.2858375748836
20
7.11281194417583
30
0
41
1
10
23.5635240114244
20
7.33114515304646
30
0
41
1
10
22.661137632394
20
7.59942695868693
30
0
41
1
10
22.4806862938777
20
7.65285266890788
30
0
41
1
10
22.1198343656836
20
7.75923701657595
30
0
41
1
10
21.9394310518307
20
7.81218906812347
30
0
41
1
10
21.3981350544585
20
7.96997913568205
30
0
41
1
10
21.0371840120072
20
8.07381508265738
30
0
41
1
10
19.9540912840079
20
8.38133109512751
30
0
41
1
10
19.2317128528344
20
8.58102988111452
30
0
41
1
10
17.7864305949175
20
8.97011022599727
30
0
41
1
10
17.0635236738804
20
9.15948602552132
30
0
41
1
10
15.6173220875454
20
9.52814529804957
30
0
41
1
10
14.8940284773616
20
9.70743204052908
30
0
41
1
10
14.1706357108977
20
9.88175143439003
30
0
0
SPLINE
5
CC
100
AcDbEntity
8
1
62
256
6
ByLayer
370
18
48
1
60
0
100
AcDbSpline
70
4
71
3
72
20
73
16
40
0
40
0
40
0
40
0
40
0.125000000000004
40
0.125000000000004
40
0.250000000000009
40
0.250000000000009
40
0.500000000000012
40
0.500000000000012
40
0.62500000000001
40
0.62500000000001
40
0.687500000000007
40
0.687500000000007
40
0.750000000000003
40
0.750000000000003
40
1
40
1
40
1
40
1
41
1
10
165.160833750309
20
-1.89520989447939
30
0
41
1
10
164.649731871294
20
-1.71012872331585
30
0
41
1
10
164.1386698354
20
-1.52503797804823
30
0
41
1
10
163.116602415123
20
-1.15489804611843
30
0
41
1
10
162.605607136562
20
-0.969820842781218
30
0
41
1
10
161.072798831491
20
-0.414392636718077
30
0
41
1
10
160.051154792058
20
-0.0438678158270136
30
0
41
1
10
158.51936294986
20
0.513193154744812
30
0
41
1
10
158.008882423978
20
0.699104330119923
30
0
41
1
10
157.24337317271
20
0.978405731699837
30
0
41
1
10
156.988215172507
20
1.07151375360888
30
0
41
1
10
156.477728498502
20
1.25720973219245
30
0
41
1
10
156.222422919529
20
1.34986139281597
30
0
41
1
10
154.945596908321
20
1.81217490302637
30
0
41
1
10
153.923183808421
20
2.17900798453854
30
0
41
1
10
152.9
20
2.54332575994056
30
0
0
SPLINE
5
CD
100
AcDbEntity
8
1
62
256
6
ByLayer
370
18
48
1
60
0
100
AcDbSpline
70
4
71
3
72
95
73
91
40
0
40
0
40
0
40
0
40
0.031249999999998
40
0.031249999999998
40
0.0624999999999959
40
0.0624999999999959
40
0.0937499999999939
40
0.0937499999999939
40
0.124999999999992
40
0.124999999999992
40
0.140624999999991
40
0.140624999999991
40
0.148437499999991
40
0.148437499999991
40
0.156249999999991
40
0.187499999999992
40
0.187499999999992
40
0.218749999999992
40
0.218749999999992
40
0.249999999999993
40
0.249999999999993
40
0.281249999999993
40
0.281249999999993
40
0.296874999999994
40
0.296874999999994
40
0.304687499999994
40
0.304687499999994
40
0.312499999999995
40
0.312499999999995
40
0.343749999999997
40
0.343749999999997
40
0.374999999999999
40
0.374999999999999
40
0.406250000000001
40
0.406250000000001
40
0.437500000000003
40
0.437500000000003
40
0.445312500000003
40
0.445312500000003
40
0.453125000000004
40
0.468750000000005
40
0.468750000000005
40
0.500000000000007
40
0.500000000000007
40
0.531250000000009
40
0.531250000000009
40
0.539062500000009
40
0.539062500000009
40
0.54687500000001
40
0.562500000000011
40
0.562500000000011
40
0.593750000000013
40
0.593750000000013
40
0.625000000000015
40
0.625000000000015
40
0.632812500000015
40
0.632812500000015
40
0.640625000000015
40
0.656250000000017
40
0.656250000000017
40
0.687500000000018
40
0.687500000000018
40
0.71875000000002
40
0.71875000000002
40
0.72656250000002
40
0.72656250000002
40
0.73437500000002
40
0.73437500000002
40
0.750000000000018
40
0.750000000000018
40
0.781250000000014
40
0.781250000000014
40
0.81250000000001
40
0.81250000000001
40
0.843750000000006
40
0.843750000000006
40
0.851562500000005
40
0.851562500000005
40
0.859375000000004
40
0.875000000000003
40
0.875000000000003
40
0.906250000000002
40
0.906250000000002
40
0.9375
40
0.968749999999999
40
0.968749999999999
40
0.976562499999999
40
0.976562499999999
40
0.984374999999999
40
1
40
1
40
1
40
1
41
1
10
165.160833750314
20
12.8733267690274
30
0
41
1
10
165.243878311523
20
12.667407148957
30
0
41
1
10
165.327053446339
20
12.4583993103185
30
0
41
1
10
165.493805674786
20
12.0346952301313
30
0
41
1
10
165.57738262103
20
11.8199979039104
30
0
41
1
10
165.74503720364
20
11.3852670148119
30
0
41
1
10
165.829114899979
20
11.1652328409764
30
0
41
1
10
165.997829639576
20
10.7200727839408
30
0
41
1
10
166.082466970856
20
10.4949466487584
30
0
41
1
10
166.209852602428
20
10.1535507711326
30
0
41
1
10
166.25238570592
20
10.0391336448344
30
0
41
1
10
166.316289487915
20
9.86658775086747
30
0
41
1
10
166.337622844609
20
9.80887897913894
30
0
41
1
10
166.380247559283
20
9.69336086463116
30
0
41
1
10
166.486653038177
20
9.4044508469587
30
0
41
1
10
166.592287506787
20
9.11497626236672
30
0
41
1
10
166.760246808893
20
8.65108945323857
30
0
41
1
10
166.843699575595
20
8.41878265171817
30
0
41
1
10
167.009359817817
20
7.95338802284729
30
0
41
1
10
167.091569189301
20
7.7203008585372
30
0
41
1
10
167.254389374581
20
7.25322855086549
30
0
41
1
10
167.335003462956
20
7.01924458186269
30
0
41
1
10
167.454281471511
20
6.66743985148366
30
0
41
1
10
167.493764788972
20
6.55003266796629
30
0
41
1
10
167.552495288394
20
6.37368480713059
30
0
41
1
10
167.571998981465
20
6.31483383850372
30
0
41
1
10
167.610780149872
20
6.19718358488817
30
0
41
1
10
167.630044384845
20
6.13842478785423
30
0
41
1
10
167.725694224744
20
5.84494896105753
30
0
41
1
10
167.800089228332
20
5.61118936754593
30
0
41
1
10
167.943269552359
20
5.1453251783588
30
0
41
1
10
168.012064244353
20
4.91322209473998
30
0
41
1
10
168.14195366139
20
4.4501852151175
30
0
41
1
10
168.203059288429
20
4.21925239028016
30
0
41
1
10
168.314423770079
20
3.75792793132359
30
0
41
1
10
168.364687491806
20
3.52753437938102
30
0
41
1
10
168.417938163822
20
3.23940074649804
30
0
41
1
10
168.428113335633
20
3.18172274561152
30
0
41
1
10
168.447383829162
20
3.06653629965558
30
0
41
1
10
168.47461398054
20
2.89436241323409
30
0
41
1
10
168.496526586645
20
2.72402624988445
30
0
41
1
10
168.532552000743
20
2.38589433768007
30
0
41
1
10
168.546093291337
20
2.16384768022411
30
0
41
1
10
168.549695559031
20
1.72728893673559
30
0
41
1
10
168.539733880516
20
1.51278223384438
30
0
41
1
10
168.512691868411
20
1.25006563144379
30
0
41
1
10
168.506553534162
20
1.19773805500492
30
0
41
1
10
168.492894260245
20
1.09389448541617
30
0
41
1
10
168.470394663287
20
0.939783835137746
30
0
41
1
10
168.442210982665
20
0.79057716309805
30
0
41
1
10
168.379209796833
20
0.498545880249395
30
0
41
1
10
168.328400173235
20
0.312356068270247
30
0
41
1
10
168.213741543844
20
-0.0436870017150852
30
0
41
1
10
168.149902259496
20
-0.213545169886686
30
0
41
1
10
168.064073497594
20
-0.415811944075216
30
0
41
1
10
168.046589002002
20
-0.455792487849749
30
0
41
1
10
168.011115190564
20
-0.534602683623575
30
0
41
1
10
167.95724019193
20
-0.650888120677251
30
0
41
1
10
167.901578703012
20
-0.761497636552178
30
0
41
1
10
167.788306205985
20
-0.975376109354045
30
0
41
1
10
167.710217641276
20
-1.10819474128178
30
0
41
1
10
167.550409109935
20
-1.35495128332315
30
0
41
1
10
167.468678341583
20
-1.46888566681076
30
0
41
1
10
167.364737262902
20
-1.5995221767532
30
0
41
1
10
167.34385884399
20
-1.62505902239556
30
0
41
1
10
167.301929371589
20
-1.6749469261884
30
0
41
1
10
167.28086211134
20
-1.69931495625494
30
0
41
1
10
167.217678925001
20
-1.77033567337693
30
0
41
1
10
167.175507083758
20
-1.81499990438468
30
0
41
1
10
167.048908418263
20
-1.94112496329481
30
0
41
1
10
166.964404738871
20
-2.01473440777113
30
0
41
1
10
166.795341806416
20
-2.14153612832993
30
0
41
1
10
166.710779915516
20
-2.19472629994772
30
0
41
1
10
166.541574431712
20
-2.28071631176584
30
0
41
1
10
166.45692963373
20
-2.31351617825496
30
0
41
1
10
166.350984062306
20
-2.34149815743248
30
0
41
1
10
166.329772400551
20
-2.34644427265565
30
0
41
1
10
166.287520652663
20
-2.35498785715174
30
0
41
1
10
166.224337319715
20
-2.36579938670803
30
0
41
1
10
166.161716105525
20
-2.37066625629262
30
0
41
1
10
166.037168175278
20
-2.37260837706944
30
0
41
1
10
165.9550620216
20
-2.36352756459979
30
0
41
1
10
165.79241227557
20
-2.32498983750091
30
0
41
1
10
165.631325116365
20
-2.26607331287266
30
0
41
1
10
165.472795038036
20
-2.16632155147872
30
0
41
1
10
165.374333952687
20
-2.0909365704934
30
0
41
1
10
165.354686161289
20
-2.07521591050275
30
0
41
1
10
165.315553427128
20
-2.04255269777843
30
0
41
1
10
165.257063765876
20
-1.99169831366257
30
0
41
1
10
165.199177487982
20
-1.93528433227783
30
0
41
1
10
165.160833750314
20
-1.89520989448118
30
0
0
SPLINE
5
CE
100
AcDbEntity
8
1
62
256
6
ByLayer
370
18
48
1
60
0
100
AcDbSpline
70
4
71
3
72
20
73
16
40
0
40
0
40
0
40
0
40
0.0034256911698416
40
0.0034256911698416
40
0.169521409308204
40
0.169521409308204
40
0.335617127446566
40
0.335617127446566
40
0.667808563723291
40
0.667808563723291
40
0.750856422792466
40
0.750856422792466
40
0.833904281861642
40
0.833904281861642
40
1
40
1
40
1
40
1
41
1
10
155.934091079676
20
13.2938391804397
30
0
41
1
10
155.944622596685
20
13.2938410790905
30
0
41
1
10
155.955154201515
20
13.2938413049363
30
0
41
1
10
156.476318582764
20
13.2937697274382
30
0
41
1
10
156.987078026222
20
13.2897779165697
30
0
41
1
10
158.008696204811
20
13.2740646493716
30
0
41
1
10
158.519558340484
20
13.2623423165413
30
0
41
1
10
160.052165218085
20
13.2156152531315
30
0
41
1
10
161.073922847456
20
13.1690908941399
30
0
41
1
10
162.350679078519
20
13.0912085094189
30
0
41
1
10
162.606009551845
20
13.0746429212198
30
0
41
1
10
163.116621510177
20
13.0395101616982
30
0
41
1
10
163.371888423436
20
13.0209319898479
30
0
41
1
10
164.138078435271
20
12.9624438152393
30
0
41
1
10
164.649289450844
20
12.919739011878
30
0
41
1
10
165.160833750309
20
12.8733267690279
30
0
0
SPLINE
5
CF
100
AcDbEntity
8
1
62
256
6
ByLayer
370
18
48
1
60
0
100
AcDbSpline
70
4
71
3
72
38
73
34
40
0
40
0
40
0
40
0
40
0.0976085880666679
40
0.0976085880666679
40
0.195217176133336
40
0.195217176133336
40
0.292825764200004
40
0.292825764200004
40
0.341630058233337
40
0.341630058233337
40
0.366032205250005
40
0.366032205250005
40
0.390434352266671
40
0.390434352266671
40
0.488042940333334
40
0.488042940333334
40
0.585651528399997
40
0.585651528399997
40
0.68326011646666
40
0.68326011646666
40
0.732064410499991
40
0.732064410499991
40
0.756466557516657
40
0.756466557516657
40
0.780868704533324
40
0.780868704533324
40
0.829672998566655
40
0.829672998566655
40
0.878477292599987
40
0.878477292599987
40
0.976085880666648
40
0.976085880666648
40
1
40
1
40
1
40
1
41
1
10
20.0125808361219
20
-11.025364378828
30
0
41
1
10
20.7053249116503
20
-11.1640944233762
30
0
41
1
10
21.398039310499
20
-11.2959150994971
30
0
41
1
10
22.7831403258537
20
-11.5465268327521
30
0
41
1
10
23.4755260722067
20
-11.6653174840911
30
0
41
1
10
24.8597303731538
20
-11.8903142123824
30
0
41
1
10
25.5515469507531
20
-11.996522754439
30
0
41
1
10
26.5886571720565
20
-12.1465375284847
30
0
41
1
10
26.9342591193094
20
-12.1949894121815
30
0
41
1
10
27.4524942181537
20
-12.2653283004475
30
0
41
1
10
27.6252102884682
20
-12.2883856568168
30
0
41
1
10
27.9705886246454
20
-12.3337128348909
30
0
41
1
10
28.1432548732042
20
-12.3559779092649
30
0
41
1
10
29.0067772835333
20
-12.4650136185713
30
0
41
1
10
29.6980729334524
20
-12.5450720857943
30
0
41
1
10
31.0812336706214
20
-12.6914745379504
30
0
41
1
10
31.7731092669191
20
-12.7578059767175
30
0
41
1
10
33.157220544352
20
-12.8769255541517
30
0
41
1
10
33.849449696678
20
-12.9297181527794
30
0
41
1
10
34.8878910900091
20
-12.9986926892562
30
0
41
1
10
35.2340557704615
20
-13.0199789409143
30
0
41
1
10
35.7533160107615
20
-13.0493207886481
30
0
41
1
10
35.9263969996292
20
-13.0586728622721
30
0
41
1
10
36.2726514132197
20
-13.0764730373963
30
0
41
1
10
36.4458378774526
20
-13.084916549831
30
0
41
1
10
36.9655760488153
20
-13.1088856406633
30
0
41
1
10
37.3121619629467
20
-13.1230455288295
30
0
41
1
10
38.0051274253954
20
-13.1477754815644
30
0
41
1
10
38.3515595113669
20
-13.1583481071433
30
0
41
1
10
39.3906573954238
20
-13.1847455243305
30
0
41
1
10
40.0831284489825
20
-13.1952579813781
30
0
41
1
10
40.9447849220264
20
-13.1995732520746
30
0
41
1
10
41.1143248132846
20
-13.1999994545644
30
0
41
1
10
41.2838400231263
20
-13.2000011481565
30
0
0
SPLINE
5
D0
100
AcDbEntity
8
1
62
256
6
ByLayer
370
18
48
1
60
0
100
AcDbSpline
70
4
71
3
72
42
73
38
40
0
40
0
40
0
40
0
40
0.0348337254814381
40
0.0348337254814381
40
0.0787049197777355
40
0.0787049197777355
40
0.100640516925884
40
0.100640516925884
40
0.122576114074034
40
0.122576114074034
40
0.210318502666638
40
0.210318502666638
40
0.298060891259243
40
0.298060891259243
40
0.385803279851848
40
0.385803279851848
40
0.407738876999998
40
0.407738876999998
40
0.429674474148148
40
0.429674474148148
40
0.473545668444446
40
0.473545668444446
40
0.561288057037041
40
0.561288057037041
40
0.649030445629637
40
0.649030445629637
40
0.736772834222232
40
0.736772834222232
40
0.758708431370379
40
0.758708431370379
40
0.780644028518525
40
0.780644028518525
40
0.824515222814821
40
0.824515222814821
40
0.912257611407411
40
0.912257611407411
40
1
40
1
40
1
40
1
41
1
10
129.238117052084
20
9.80235076092387
30
0
41
1
10
129.512677087185
20
9.86872128381771
30
0
41
1
10
129.787209534441
20
9.93433193787376
30
0
41
1
10
130.407422707428
20
10.0808781150555
30
0
41
1
10
130.75308437786
20
10.1613693812757
30
0
41
1
10
131.271482043027
20
10.2803134553285
30
0
41
1
10
131.444260498086
20
10.319670731128
30
0
41
1
10
131.789899216671
20
10.3975873359026
30
0
41
1
10
131.962762778107
20
10.4361415721857
30
0
41
1
10
132.827284525596
20
10.6269336385532
30
0
41
1
10
133.519545243394
20
10.773259959253
30
0
41
1
10
134.905008466377
20
11.0540222979012
30
0
41
1
10
135.598223912663
20
11.1884358276928
30
0
41
1
10
136.985388576752
20
11.4456490759169
30
0
41
1
10
137.678393560406
20
11.5682848945284
30
0
41
1
10
138.543688327461
20
11.7141731847099
30
0
41
1
10
138.716701220401
20
11.7429798991082
30
0
41
1
10
139.062632205139
20
11.7998501128948
30
0
41
1
10
139.235542286496
20
11.8279233663848
30
0
41
1
10
139.754215751597
20
11.9109151160845
30
0
41
1
10
140.100020781579
20
11.9644853579353
30
0
41
1
10
141.137550736231
20
12.1199451020132
30
0
41
1
10
141.829328603149
20
12.2166687469596
30
0
41
1
10
143.212776641052
20
12.3968131386489
30
0
41
1
10
143.904457782999
20
12.4802214391381
30
0
41
1
10
145.287486833694
20
12.6339127464597
30
0
41
1
10
145.978828700538
20
12.7041995805232
30
0
41
1
10
146.842674626382
20
12.7837860387669
30
0
41
1
10
147.015424070033
20
12.7992912215138
30
0
41
1
10
147.360904573777
20
12.8294571692076
30
0
41
1
10
147.533646333277
20
12.844110230073
30
0
41
1
10
148.052029874179
20
12.886684399349
30
0
41
1
10
148.397785302266
20
12.9132522780122
30
0
41
1
10
149.435471750173
20
12.987620087086
30
0
41
1
10
150.127812272282
20
13.0300981665817
30
0
41
1
10
151.51332945409
20
13.1010952961252
30
0
41
1
10
152.206512866668
20
13.1296115543376
30
0
41
1
10
152.9
20
13.1511207534538
30
0
0
SPLINE
5
D1
100
AcDbEntity
8
1
62
256
6
ByLayer
370
18
48
1
60
0
100
AcDbSpline
70
4
71
3
72
80
73
76
40
0
40
0
40
0
40
0
40
0.0429590167213667
40
0.0429590167213667
40
0.06443852508205
40
0.06443852508205
40
0.0751782792623917
40
0.0751782792623917
40
0.0859180334427333
40
0.128877050164102
40
0.128877050164102
40
0.17183606688547
40
0.17183606688547
40
0.214795083606838
40
0.214795083606838
40
0.225534837787181
40
0.225534837787181
40
0.236274591967523
40
0.236274591967523
40
0.257754100328209
40
0.257754100328209
40
0.30071311704958
40
0.30071311704958
40
0.322192625410265
40
0.322192625410265
40
0.343672133770951
40
0.343672133770951
40
0.365151642131636
40
0.365151642131636
40
0.386631150492322
40
0.386631150492322
40
0.408110658853008
40
0.408110658853008
40
0.429590167213693
40
0.429590167213693
40
0.472549183935066
40
0.472549183935066
40
0.515508200656438
40
0.515508200656438
40
0.536987709017124
40
0.536987709017124
40
0.547727463197468
40
0.547727463197468
40
0.558467217377812
40
0.601426234099191
40
0.601426234099191
40
0.644385250820569
40
0.644385250820569
40
0.665864759181258
40
0.665864759181258
40
0.687344267541948
40
0.687344267541948
40
0.698084021722292
40
0.698084021722292
40
0.708823775902636
40
0.708823775902636
40
0.730303284263322
40
0.730303284263322
40
0.773262300984693
40
0.773262300984693
40
0.816221317706064
40
0.816221317706064
40
0.83770082606675
40
0.83770082606675
40
0.859180334427436
40
0.859180334427436
40
0.880659842788121
40
0.880659842788121
40
0.902139351148807
40
0.902139351148807
40
0.94509836787018
40
0.94509836787018
40
0.988057384591552
40
0.988057384591552
40
1
40
1
40
1
40
1
41
1
10
152.9
20
2.48988897904044
30
0
41
1
10
152.175902605879
20
2.74612108544713
30
0
41
1
10
151.452393998862
20
3.00078486042281
30
0
41
1
10
150.368142466468
20
3.38075858293192
30
0
41
1
10
150.006893975085
20
3.50707895865051
30
0
41
1
10
149.465292084814
20
3.69609138726247
30
0
41
1
10
149.284807181549
20
3.75902776432631
30
0
41
1
10
148.923830461264
20
3.88448120199564
30
0
41
1
10
148.021374113204
20
4.19707441702658
30
0
41
1
10
147.118858301917
20
4.50454193752503
30
0
41
1
10
145.674871005704
20
4.99032554005535
30
0
41
1
10
144.952895536256
20
5.23013307148821
30
0
41
1
10
143.509113376504
20
5.70392368341493
30
0
41
1
10
142.787309071224
20
5.93791332510571
30
0
41
1
10
141.88526888284
20
6.22697673890067
30
0
41
1
10
141.704874068676
20
6.28462400959867
30
0
41
1
10
141.344096868415
20
6.39955084245273
30
0
41
1
10
141.163705698387
20
6.4568086172315
30
0
41
1
10
140.622395488727
20
6.62765047704312
30
0
41
1
10
140.261376099769
20
6.74039297646311
30
0
41
1
10
139.177901704063
20
7.075236233639
30
0
41
1
10
138.455031699062
20
7.29395885298106
30
0
41
1
10
137.369988551814
20
7.61553105018922
30
0
41
1
10
137.008184440736
20
7.7216356311765
30
0
41
1
10
136.284345848451
20
7.93170503325496
30
0
41
1
10
135.92225820176
20
8.03568446896858
30
0
41
1
10
135.198597074793
20
8.24133316221167
30
0
41
1
10
134.836941591345
20
8.34302714149558
30
0
41
1
10
134.114002888436
20
8.54418586710182
30
0
41
1
10
133.752742686416
20
8.6436991420137
30
0
41
1
10
133.030507401929
20
8.84028399223536
30
0
41
1
10
132.66941289276
20
8.93710370515785
30
0
41
1
10
131.947217192776
20
9.12772110137684
30
0
41
1
10
131.586126042434
20
9.22154009714723
30
0
41
1
10
130.502894308795
20
9.49860924458619
30
0
41
1
10
129.780794342388
20
9.6774752470084
30
0
41
1
10
128.33682570939
20
10.0238192489453
30
0
41
1
10
127.614955760799
20
10.1912958035391
30
0
41
1
10
126.532448814183
20
10.43411299552
30
0
41
1
10
126.171662839002
20
10.5136508463291
30
0
41
1
10
125.630574874495
20
10.6308601176627
30
0
41
1
10
125.450232890482
20
10.6695888061552
30
0
41
1
10
125.089488049219
20
10.746193997017
30
0
41
1
10
124.187459881331
20
10.9355547216045
30
0
41
1
10
123.284619517699
20
11.1142508021995
30
0
41
1
10
121.839159598348
20
11.3868406733183
30
0
41
1
10
121.115971186492
20
11.51647281475
30
0
41
1
10
120.030597017443
20
11.7010332449935
30
0
41
1
10
119.66865781224
20
11.7609123397634
30
0
41
1
10
118.944819571159
20
11.8773414306559
30
0
41
1
10
118.583092691785
20
11.9338639822056
30
0
41
1
10
118.040807977975
20
12.0161113710284
30
0
41
1
10
117.860099393163
20
12.0431066423498
30
0
41
1
10
117.498777716545
20
12.0962394652178
30
0
41
1
10
117.318157062628
20
12.122367779925
30
0
41
1
10
116.776281375144
20
12.1992916268859
30
0
41
1
10
116.415048028821
20
12.2486682740532
30
0
41
1
10
115.33141649878
20
12.391162161702
30
0
41
1
10
114.609087454646
20
12.4786515420448
30
0
41
1
10
113.164728236923
20
12.6388964008537
30
0
41
1
10
112.442696150917
20
12.7116509222312
30
0
41
1
10
111.359982151064
20
12.8097806331608
30
0
41
1
10
110.99913402743
20
12.8406555132389
30
0
41
1
10
110.27757205191
20
12.8987205510159
30
0
41
1
10
109.916878170645
20
12.925921314428
30
0
41
1
10
109.195551962924
20
12.9765565609006
30
0
41
1
10
108.834797963425
20
12.9999258847421
30
0
41
1
10
108.113035945096
20
13.042765888059
30
0
41
1
10
107.752041217304
20
13.0622438522611
30
0
41
1
10
106.668739863626
20
13.1148985101577
30
0
41
1
10
105.94611543407
20
13.1423031805675
30
0
41
1
10
104.500143698888
20
13.1817860522962
30
0
41
1
10
103.776795095586
20
13.1938653511128
30
0
41
1
10
102.851991228158
20
13.1993968892575
30
0
41
1
10
102.65079709877
20
13.2000000421035
30
0
41
1
10
102.44964655529
20
13.1999998864423
30
0
0
SPLINE
5
D2
100
AcDbEntity
8
1
62
256
6
ByLayer
370
18
48
1
60
0
100
AcDbSpline
70
4
71
3
72
57
73
53
40
0
40
0
40
0
40
0
40
0.119703148527667
40
0.119703148527667
40
0.179554722791502
40
0.179554722791502
40
0.239406297055337
40
0.239406297055337
40
0.299257871319172
40
0.299257871319172
40
0.359109445583007
40
0.359109445583007
40
0.374072339148963
40
0.374072339148963
40
0.38903523271492
40
0.418961019846836
40
0.418961019846836
40
0.478812594110667
40
0.478812594110667
40
0.538664168374496
40
0.538664168374496
40
0.56858995550641
40
0.56858995550641
40
0.583552849072367
40
0.583552849072367
40
0.598515742638325
40
0.598515742638325
40
0.658367316902159
40
0.658367316902159
40
0.718218891165993
40
0.718218891165993
40
0.74814467829791
40
0.74814467829791
40
0.75562612508089
40
0.75562612508089
40
0.763107571863869
40
0.763107571863869
40
0.778070465429829
40
0.778070465429829
40
0.837922039693668
40
0.837922039693668
40
0.897773613957507
40
0.897773613957507
40
0.927699401089427
40
0.927699401089427
40
0.935180847872406
40
0.935180847872406
40
0.942662294655386
40
0.942662294655386
40
0.957625188221346
40
0.957625188221346
40
1
40
1
40
1
40
1
41
1
10
10
20
-10.6910475199843
30
0
41
1
10
9.54305377256719
20
-10.8894773383741
30
0
41
1
10
9.09919967724431
20
-11.0968821080747
30
0
41
1
10
8.45265353084287
20
-11.4185271395385
30
0
41
1
10
8.24035036395253
20
-11.527497508701
30
0
41
1
10
7.82219160120647
20
-11.7484401336766
30
0
41
1
10
7.61633540200012
20
-11.86041282583
30
0
41
1
10
7.21117030512926
20
-12.0868250836793
30
0
41
1
10
7.0118604451774
20
-12.2012653213439
30
0
41
1
10
6.61998795516104
20
-12.432034664577
30
0
41
1
10
6.42742373361133
20
-12.548364839027
30
0
41
1
10
6.19114621401479
20
-12.6945541230473
30
0
41
1
10
6.14410871314735
20
-12.7238334844637
30
0
41
1
10
6.05091734444059
20
-12.7821851839933
30
0
41
1
10
5.91229155402829
20
-12.8695034075959
30
0
41
1
10
5.77715305222478
20
-12.9561295568195
30
0
41
1
10
5.51155652009564
20
-13.1282809441132
30
0
41
1
10
5.34072327336733
20
-13.2415849991804
30
0
41
1
10
5.01188986653614
20
-13.4642318375127
30
0
41
1
10
4.85388604777103
20
-13.5735775420095
30
0
41
1
10
4.6270400020951
20
-13.7337228660639
30
0
41
1
10
4.55312096541803
20
-13.7864574912887
30
0
41
1
10
4.44488738568003
20
-13.8644566844503
30
0
41
1
10
4.40921261304004
20
-13.890300178065
30
0
41
1
10
4.33894579142299
20
-13.9414637514363
30
0
41
1
10
4.30440707635017
20
-13.9667446570121
30
0
41
1
10
4.13469241746839
20
-14.0916024773416
30
0
41
1
10
4.00843033923653
20
-14.1865492542501
30
0
41
1
10
3.77541663643865
20
-14.3653351718411
30
0
41
1
10
3.668658660993
20
-14.4491794075992
30
0
41
1
10
3.52402385362234
20
-14.5654501304105
30
0
41
1
10
3.47840177085845
20
-14.6026213927779
30
0
41
1
10
3.42475504301507
20
-14.6469522483235
30
0
41
1
10
3.41419490197308
20
-14.6557116657045
30
0
41
1
10
3.39341730138162
20
-14.6730128229346
30
0
41
1
10
3.3831969583739
20
-14.6815570543758
30
0
41
1
10
3.35316710444687
20
-14.7067637029709
30
0
41
1
10
3.3339502886995
20
-14.7230319470148
30
0
41
1
10
3.24186075248249
20
-14.8016789781026
30
0
41
1
10
3.18093569913464
20
-14.855990673839
30
0
41
1
10
3.08461783729379
20
-14.9468227792961
30
0
41
1
10
3.04922107269493
20
-14.983346561206
30
0
41
1
10
3.01602736746332
20
-15.0240243737048
30
0
41
1
10
3.00828759090706
20
-15.0352285695707
30
0
41
1
10
3.00291403617655
20
-15.0461770731585
30
0
41
1
10
3.00205457584178
20
-15.0482138391393
30
0
41
1
10
3.0007705803992
20
-15.051978273478
30
0
41
1
10
3.00034652194967
20
-15.0537060149739
30
0
41
1
10
2.99973327480018
20
-15.0584027618715
30
0
41
1
10
3.00019935135862
20
-15.0608938499568
30
0
41
1
10
3.00528864235088
20
-15.0680242915051
30
0
41
1
10
3.01594273898218
20
-15.0682490867029
30
0
41
1
10
3.03332090337057
20
-15.0635879177742
30
0
0
SPLINE
5
D3
100
AcDbEntity
8
1
62
256
6
ByLayer
370
18
48
1
60
0
100
AcDbSpline
70
4
71
3
72
52
73
48
40
0
40
0
40
0
40
0
40
0.0033884175055799
40
0.0033884175055799
40
0.0698291896718835
40
0.0698291896718835
40
0.0864393827134591
40
0.0864393827134591
40
0.103049575755035
40
0.103049575755035
40
0.136269961838187
40
0.136269961838187
40
0.202710734004492
40
0.202710734004492
40
0.235931120087644
40
0.235931120087644
40
0.25254131312922
40
0.25254131312922
40
0.269151506170796
40
0.269151506170796
40
0.335592278337095
40
0.335592278337095
40
0.402033050503395
40
0.402033050503395
40
0.468473822669693
40
0.468473822669693
40
0.485084015711266
40
0.485084015711266
40
0.501694208752839
40
0.501694208752839
40
0.534914594835982
40
0.534914594835982
40
0.601355367002271
40
0.601355367002271
40
0.667796139168559
40
0.667796139168559
40
0.734236911334847
40
0.734236911334847
40
0.800677683501136
40
0.800677683501136
40
0.867118455667424
40
0.867118455667424
40
0.900338841750568
40
0.900338841750568
40
0.933559227833712
40
0.933559227833712
40
1
40
1
40
1
40
1
41
1
10
3.05339822505738
20
-15.057135757405
30
0
41
1
10
3.05497836056102
20
-15.0565617197318
30
0
41
1
10
3.05659308713945
20
-15.0559626108523
30
0
41
1
10
3.0905812566516
20
-15.0431006061159
30
0
41
1
10
3.13620044606424
20
-15.0212429721723
30
0
41
1
10
3.20982951569641
20
-14.9821617114135
30
0
41
1
10
3.22538775722927
20
-14.9737564635096
30
0
41
1
10
3.25817779865005
20
-14.9557705773143
30
0
41
1
10
3.27534392669301
20
-14.9462258459957
30
0
41
1
10
3.3290176483851
20
-14.9160349947872
30
0
41
1
10
3.36773543754509
20
-14.8938133157428
30
0
41
1
10
3.49234525616188
20
-14.8212329307586
30
0
41
1
10
3.58667316024628
20
-14.7649721919005
30
0
41
1
10
3.74410535191905
20
-14.6699438429449
30
0
41
1
10
3.79924508624941
20
-14.6364912050398
30
0
41
1
10
3.88587334790509
20
-14.5837664872768
30
0
41
1
10
3.91540280255757
20
-14.5657671229063
30
0
41
1
10
3.97575881255648
20
-14.5289374961157
30
0
41
1
10
4.00653509635868
20
-14.5101378880829
30
0
41
1
10
4.16277799185468
20
-14.4146322464823
30
0
41
1
10
4.29583390450034
20
-14.3331014112021
30
0
41
1
10
4.57646230466395
20
-14.1614866150458
30
0
41
1
10
4.72404244753221
20
-14.0713972551486
30
0
41
1
10
5.03254606392758
20
-13.883960630796
30
0
41
1
10
5.19347439696122
20
-13.7866103302861
30
0
41
1
10
5.40238381962064
20
-13.6610301111238
30
0
41
1
10
5.44455353845518
20
-13.6357189047964
30
0
41
1
10
5.52965504310458
20
-13.5847202970839
30
0
41
1
10
5.57262551057494
20
-13.5590098034899
30
0
41
1
10
5.70236425873043
20
-13.48151078349
30
0
41
1
10
5.78984648409121
20
-13.4294224174829
30
0
41
1
10
6.05507565541447
20
-13.2720390793049
30
0
41
1
10
6.23560148066087
20
-13.1656322843292
30
0
41
1
10
6.60318527113662
20
-12.9504652092687
30
0
41
1
10
6.79024482867121
20
-12.8417032987498
30
0
41
1
10
7.17011767616671
20
-12.6222506979266
30
0
41
1
10
7.36293145955025
20
-12.5115587672608
30
0
41
1
10
7.7536003619644
20
-12.2885261161464
30
0
41
1
10
7.95145504567938
20
-12.1761841781858
30
0
41
1
10
8.35155906738356
20
-11.9500223561353
30
0
41
1
10
8.55380718171847
20
-11.836201049857
30
0
41
1
10
8.86005874995396
20
-11.6644360268415
30
0
41
1
10
8.96266610673172
20
-11.6069845502632
30
0
41
1
10
9.1684945566096
20
-11.4919089010833
30
0
41
1
10
9.27172970221579
20
-11.43427666799
30
0
41
1
10
9.58234032026382
20
-11.2611035832354
30
0
41
1
10
9.79061528245779
20
-11.1452836340949
30
0
41
1
10
10
20
-11.02913347077
30
0
0
SPLINE
5
D4
100
AcDbEntity
8
1
62
256
6
ByLayer
370
18
48
1
60
0
100
AcDbSpline
70
4
71
3
72
52
73
48
40
0
40
0
40
0
40
0
40
0.0190950519721011
40
0.0190950519721011
40
0.0844887151739594
40
0.0844887151739594
40
0.100837130974423
40
0.100837130974423
40
0.117185546774888
40
0.117185546774888
40
0.149882378375817
40
0.149882378375817
40
0.215276041577677
40
0.215276041577677
40
0.247972873178607
40
0.247972873178607
40
0.264321288979072
40
0.264321288979072
40
0.280669704779537
40
0.280669704779537
40
0.346063367981392
40
0.346063367981392
40
0.411457031183247
40
0.411457031183247
40
0.476850694385103
40
0.476850694385103
40
0.493199110185567
40
0.493199110185567
40
0.509547525986033
40
0.509547525986033
40
0.542244357586965
40
0.542244357586965
40
0.607638020788827
40
0.607638020788827
40
0.67303168399069
40
0.67303168399069
40
0.738425347192553
40
0.738425347192553
40
0.803819010394415
40
0.803819010394415
40
0.869212673596278
40
0.869212673596278
40
0.901909505197209
40
0.901909505197209
40
0.93460633679814
40
0.93460633679814
40
1
40
1
40
1
40
1
41
1
10
3.03332091463324
20
15.0635879147533
30
0
41
1
10
3.04048823716246
20
15.0616654959135
30
0
41
1
10
3.04879932791761
20
15.0589119714523
30
0
41
1
10
3.0905812566516
20
15.0431006061159
30
0
41
1
10
3.13620044606427
20
15.0212429721723
30
0
41
1
10
3.20982951569641
20
14.9821617114135
30
0
41
1
10
3.22538775722927
20
14.9737564635096
30
0
41
1
10
3.25817779865011
20
14.9557705773143
30
0
41
1
10
3.27534392669304
20
14.9462258459957
30
0
41
1
10
3.32901764838513
20
14.9160349947872
30
0
41
1
10
3.36773543754509
20
14.8938133157428
30
0
41
1
10
3.49234525616191
20
14.8212329307586
30
0
41
1
10
3.58667316024625
20
14.7649721919005
30
0
41
1
10
3.74410535191908
20
14.6699438429449
30
0
41
1
10
3.79924508624944
20
14.6364912050398
30
0
41
1
10
3.88587334790506
20
14.5837664872768
30
0
41
1
10
3.91540280255754
20
14.5657671229062
30
0
41
1
10
3.97575881255651
20
14.5289374961157
30
0
41
1
10
4.0065350963587
20
14.5101378880829
30
0
41
1
10
4.16277799185474
20
14.4146322464823
30
0
41
1
10
4.2958339045004
20
14.3331014112021
30
0
41
1
10
4.57646230466401
20
14.1614866150458
30
0
41
1
10
4.72404244753221
20
14.0713972551486
30
0
41
1
10
5.03254606392755
20
13.883960630796
30
0
41
1
10
5.19347439696128
20
13.7866103302861
30
0
41
1
10
5.4023838196207
20
13.6610301111238
30
0
41
1
10
5.44455353845518
20
13.6357189047963
30
0
41
1
10
5.52965504310458
20
13.5847202970839
30
0
41
1
10
5.57262551057499
20
13.5590098034899
30
0
41
1
10
5.70236425873048
20
13.48151078349
30
0
41
1
10
5.78984648409127
20
13.4294224174829
30
0
41
1
10
6.0550756554145
20
13.2720390793048
30
0
41
1
10
6.23560148066087
20
13.1656322843292
30
0
41
1
10
6.60318527113662
20
12.9504652092687
30
0
41
1
10
6.79024482867123
20
12.8417032987498
30
0
41
1
10
7.17011767616674
20
12.6222506979266
30
0
41
1
10
7.36293145955028
20
12.5115587672608
30
0
41
1
10
7.75360036196446
20
12.2885261161465
30
0
41
1
10
7.95145504567938
20
12.1761841781858
30
0
41
1
10
8.35155906738359
20
11.9500223561352
30
0
41
1
10
8.55380718171847
20
11.836201049857
30
0
41
1
10
8.86005874995396
20
11.6644360268415
30
0
41
1
10
8.96266610673172
20
11.6069845502632
30
0
41
1
10
9.16849455660957
20
11.4919089010833
30
0
41
1
10
9.27172970221579
20
11.43427666799
30
0
41
1
10
9.58234032026382
20
11.2611035832354
30
0
41
1
10
9.79061528245779
20
11.1452836340949
30
0
41
1
10
10
20
11.02913347077
30
0
0
SPLINE
5
D5
100
AcDbEntity
8
1
62
256
6
ByLayer
370
13
48
1
60
0
100
AcDbSpline
70
4
71
3
72
80
73
76
40
0
40
0
40
0
40
0
40
0.0312500000000001
40
0.0312500000000001
40
0.0625000000000002
40
0.0625000000000002
40
0.0937500000000003
40
0.0937500000000003
40
0.125
40
0.125
40
0.156250000000001
40
0.156250000000001
40
0.187500000000001
40
0.187500000000001
40
0.218750000000001
40
0.218750000000001
40
0.250000000000001
40
0.250000000000001
40
0.265625000000001
40
0.265625000000001
40
0.269531250000001
40
0.269531250000001
40
0.273437500000001
40
0.281250000000001
40
0.281250000000001
40
0.3125
40
0.3125
40
0.34375
40
0.34375
40
0.374999999999999
40
0.374999999999999
40
0.406249999999998
40
0.406249999999998
40
0.437499999999997
40
0.437499999999997
40
0.468749999999997
40
0.468749999999997
40
0.499999999999996
40
0.499999999999996
40
0.531249999999995
40
0.531249999999995
40
0.562499999999995
40
0.562499999999995
40
0.593749999999994
40
0.593749999999994
40
0.624999999999993
40
0.624999999999993
40
0.632812499999993
40
0.632812499999993
40
0.636718749999993
40
0.636718749999993
40
0.640624999999993
40
0.656249999999994
40
0.656249999999994
40
0.687499999999994
40
0.687499999999994
40
0.718749999999995
40
0.718749999999995
40
0.749999999999995
40
0.749999999999995
40
0.781249999999996
40
0.781249999999996
40
0.812499999999996
40
0.812499999999996
40
0.843749999999997
40
0.843749999999997
40
0.874999999999998
40
0.874999999999998
40
0.906249999999998
40
0.906249999999998
40
0.937499999999999
40
0.937499999999999
40
0.968749999999999
40
0.968749999999999
40
1
40
1
40
1
40
1
41
1
10
152.9
20
-5.28199991381396
30
0
41
1
10
152.987172604299
20
-5.83675049135925
30
0
41
1
10
153.074345208599
20
-6.3823408398431
30
0
41
1
10
153.248690417197
20
-7.43759558462113
30
0
41
1
10
153.335863021496
20
-7.94720078716458
30
0
41
1
10
153.510208230095
20
-8.91372226963313
30
0
41
1
10
153.597380834394
20
-9.37058432826831
30
0
41
1
10
153.771726042993
20
-10.2175524812065
30
0
41
1
10
153.858898647292
20
-10.6076207744867
30
0
41
1
10
154.033243855891
20
-11.3110527834223
30
0
41
1
10
154.12041646019
20
-11.6244023471065
30
0
41
1
10
154.294761668789
20
-12.1693684815474
30
0
41
1
10
154.381934273088
20
-12.4009952712593
30
0
41
1
10
154.556279481687
20
-12.7824629767309
30
0
41
1
10
154.643452085986
20
-12.9323331482611
30
0
41
1
10
154.817797294584
20
-13.1545927131087
30
0
41
1
10
154.904969898884
20
-13.2270216584744
30
0
41
1
10
155.035728805333
20
-13.2832510248476
30
0
41
1
10
155.079315107482
20
-13.2932802566518
30
0
41
1
10
155.13379798517
20
-13.2956422741541
30
0
41
1
10
155.144694560707
20
-13.2956087184346
30
0
41
1
10
155.166487711782
20
-13.2945278073229
30
0
41
1
10
155.199177438394
20
-13.2913792643025
30
0
41
1
10
155.231867165006
20
-13.2835650529514
30
0
41
1
10
155.34083292038
20
-13.2467908354309
30
0
41
1
10
155.428005524679
20
-13.1829503894351
30
0
41
1
10
155.602350733278
20
-12.9786087119102
30
0
41
1
10
155.689523337577
20
-12.8380673329425
30
0
41
1
10
155.863868546176
20
-12.4755556638854
30
0
41
1
10
155.951041150475
20
-12.2535544356951
30
0
41
1
10
156.125386359074
20
-11.7275885223232
30
0
41
1
10
156.212558963373
20
-11.4236110280609
30
0
41
1
10
156.386904171972
20
-10.7380811661984
30
0
41
1
10
156.474076776271
20
-10.3565400142582
30
0
41
1
10
156.648421984869
20
-9.52523673661472
30
0
41
1
10
156.735594589169
20
-9.07550991200898
30
0
41
1
10
156.909939797767
20
-8.12145040238499
30
0
41
1
10
156.997112402067
20
-7.61717056506956
30
0
41
1
10
157.171457610665
20
-6.57052781627323
30
0
41
1
10
157.258630214965
20
-6.02822415441099
30
0
41
1
10
157.432975423563
20
-4.92323672467819
30
0
41
1
10
157.520148027862
20
-4.36060672546699
30
0
41
1
10
157.694493236461
20
-3.23210962308647
30
0
41
1
10
157.78166584076
20
-2.66628197365281
30
0
41
1
10
157.956011049359
20
-1.54654414217481
30
0
41
1
10
158.043183653658
20
-0.992655322397667
30
0
41
1
10
158.152149409032
20
-0.315395314569372
30
0
41
1
10
158.173942560107
20
-0.180690601725672
30
0
41
1
10
158.206632286719
20
0.0201262095282573
30
0
41
1
10
158.217528862257
20
0.0869546902739273
30
0
41
1
10
158.239322013332
20
0.221267875990691
30
0
41
1
10
158.293804891019
20
0.558056162620119
30
0
41
1
10
158.348287768706
20
0.899643999398251
30
0
41
1
10
158.479046675155
20
1.72656728569916
30
0
41
1
10
158.566219279454
20
2.28742380871571
30
0
41
1
10
158.740564488053
20
3.41473689859723
30
0
41
1
10
158.827737092352
20
3.98116398479127
30
0
41
1
10
159.00208230095
20
5.10347324482657
30
0
41
1
10
159.08925490525
20
5.65930885837022
30
0
41
1
10
159.263600113848
20
6.74286593346426
30
0
41
1
10
159.350772718148
20
7.27052986358547
30
0
41
1
10
159.525117926746
20
8.28034040080956
30
0
41
1
10
159.612290531046
20
8.76242906588863
30
0
41
1
10
159.786635739644
20
9.6656284148346
30
0
41
1
10
159.873808343943
20
10.0866928235168
30
0
41
1
10
160.048153552542
20
10.8559352244192
30
0
41
1
10
160.135326156841
20
11.2040881231211
30
0
41
1
10
160.30967136544
20
11.8202544053308
30
0
41
1
10
160.396843969739
20
12.0882675851959
30
0
41
1
10
160.571189178338
20
12.5419440934536
30
0
41
1
10
160.658361782637
20
12.7276292222472
30
0
41
1
10
160.832706991236
20
13.0191411420177
30
0
41
1
10
160.919879595535
20
13.1250040948031
30
0
41
1
10
161.094224804133
20
13.2631628593413
30
0
41
1
10
161.181397408433
20
13.2955
30
0
41
1
10
161.268570012732
20
13.2955
30
0
0
SPLINE
5
D6
100
AcDbEntity
8
1
62
256
6
ByLayer
370
13
48
1
60
0
100
AcDbSpline
70
4
71
3
72
74
73
70
40
0
40
0
40
0
40
0
40
0.0312499999999997
40
0.0312499999999997
40
0.0624999999999994
40
0.0624999999999994
40
0.0937499999999991
40
0.0937499999999991
40
0.124999999999999
40
0.124999999999999
40
0.156249999999999
40
0.156249999999999
40
0.187499999999998
40
0.187499999999998
40
0.218749999999998
40
0.218749999999998
40
0.249999999999998
40
0.249999999999998
40
0.281249999999998
40
0.281249999999998
40
0.312499999999997
40
0.312499999999997
40
0.343749999999997
40
0.343749999999997
40
0.374999999999997
40
0.374999999999997
40
0.406249999999997
40
0.406249999999997
40
0.437499999999996
40
0.437499999999996
40
0.468749999999996
40
0.468749999999996
40
0.499999999999996
40
0.499999999999996
40
0.515624999999996
40
0.515624999999996
40
0.523437499999996
40
0.523437499999996
40
0.531249999999996
40
0.531249999999996
40
0.562499999999997
40
0.562499999999997
40
0.593749999999997
40
0.593749999999997
40
0.624999999999997
40
0.624999999999997
40
0.656249999999997
40
0.656249999999997
40
0.687499999999997
40
0.687499999999997
40
0.718749999999998
40
0.718749999999998
40
0.749999999999998
40
0.749999999999998
40
0.781249999999998
40
0.781249999999998
40
0.812499999999999
40
0.812499999999999
40
0.843749999999999
40
0.843749999999999
40
0.874999999999999
40
0.874999999999999
40
0.906249999999999
40
0.906249999999999
40
0.9375
40
0.9375
40
0.96875
40
0.96875
40
1
40
1
40
1
40
1
41
1
10
159.224930182805
20
13.2955
30
0
41
1
10
159.286762511633
20
13.2955
30
0
41
1
10
159.348594840461
20
13.2792513094436
30
0
41
1
10
159.472259498117
20
13.2110094340103
30
0
41
1
10
159.534091826946
20
13.159008812867
30
0
41
1
10
159.657756484602
20
13.016565742348
30
0
41
1
10
159.71958881343
20
12.9261160282242
30
0
41
1
10
159.843253471087
20
12.7048643679117
30
0
41
1
10
159.905085799915
20
12.5740561263879
30
0
41
1
10
160.028750457571
20
12.2711705669565
30
0
41
1
10
160.0905827864
20
12.0990887709123
30
0
41
1
10
160.214247444056
20
11.7138977169708
30
0
41
1
10
160.276079772884
20
11.5007865525592
30
0
41
1
10
160.399744430541
20
11.0350353823825
30
0
41
1
10
160.461576759369
20
10.7823965458651
30
0
41
1
10
160.585241417025
20
10.240358368112
30
0
41
1
10
160.647073745854
20
9.95096339584569
30
0
41
1
10
160.77073840351
20
9.33936799330164
30
0
41
1
10
160.832570732338
20
9.01717481368874
30
0
41
1
10
160.956235389995
20
8.34494878456113
30
0
41
1
10
161.018067718823
20
7.99492533915759
30
0
41
1
10
161.141732376479
20
7.2727622901362
30
0
41
1
10
161.203564705308
20
6.90063322880181
30
0
41
1
10
161.327229362964
20
6.14043682686324
30
0
41
1
10
161.389061691792
20
5.75238004790296
30
0
41
1
10
161.512726349449
20
4.96663952401863
30
0
41
1
10
161.574558678277
20
4.56896533224483
30
0
41
1
10
161.698223335933
20
3.77012916385095
30
0
41
1
10
161.760055664762
20
3.36897495127172
30
0
41
1
10
161.883720322418
20
2.56888327027161
30
0
41
1
10
161.945552651246
20
2.1699513290794
30
0
41
1
10
162.069217308903
20
1.3793732786271
30
0
41
1
10
162.131049637731
20
0.987730352584862
30
0
41
1
10
162.223798130973
20
0.408957491565047
30
0
41
1
10
162.254714295387
20
0.217475525563145
30
0
41
1
10
162.301088542009
20
-0.0672388280325436
30
0
41
1
10
162.316546624216
20
-0.162263596946929
30
0
41
1
10
162.34746278863
20
-0.353382877067219
30
0
41
1
10
162.362920870837
20
-0.449337824630788
30
0
41
1
10
162.440211281872
20
-0.930942814272555
30
0
41
1
10
162.5020436107
20
-1.32211529427613
30
0
41
1
10
162.625708268357
20
-2.11197985640328
30
0
41
1
10
162.687540597185
20
-2.51066886667155
30
0
41
1
10
162.811205254841
20
-3.31053687771129
30
0
41
1
10
162.873037583669
20
-3.71171046531262
30
0
41
1
10
162.996702241326
20
-4.51087439516522
30
0
41
1
10
163.058534570154
20
-4.90885707458932
30
0
41
1
10
163.182199227811
20
-5.69551914346422
30
0
41
1
10
163.244031556639
20
-6.08418905115937
30
0
41
1
10
163.367696214295
20
-6.8459179221131
30
0
41
1
10
163.429528543123
20
-7.21896635045937
30
0
41
1
10
163.55319320078
20
-7.94326054472177
30
0
41
1
10
163.615025529608
20
-8.29449574153867
30
0
41
1
10
163.738690187265
20
-8.96940841634424
30
0
41
1
10
163.800522516093
20
-9.29307640980383
30
0
41
1
10
163.924187173749
20
-9.90784146423078
30
0
41
1
10
163.986019502578
20
-10.1989311500873
30
0
41
1
10
164.109684160234
20
-10.7445249294979
30
0
41
1
10
164.171516489062
20
-10.9990245030601
30
0
41
1
10
164.295181146719
20
-11.4686029471679
30
0
41
1
10
164.357013475547
20
-11.6836804923379
30
0
41
1
10
164.480678133203
20
-12.0728479006982
30
0
41
1
10
164.542510462031
20
-12.2469395299173
30
0
41
1
10
164.666175119688
20
-12.5538288366052
30
0
41
1
10
164.728007448516
20
-12.6866308832445
30
0
41
1
10
164.851672106173
20
-12.9118012152402
30
0
41
1
10
164.913504435001
20
-13.0041757270673
30
0
41
1
10
165.037169092657
20
-13.1503556211179
30
0
41
1
10
165.099001421485
20
-13.2041682403045
30
0
41
1
10
165.160833750314
20
-13.2400281899709
30
0
0
SPLINE
5
D7
100
AcDbEntity
8
1
62
256
6
ByLayer
370
13
48
1
60
0
100
AcDbSpline
70
4
71
3
72
79
73
75
40
0
40
0
40
0
40
0
40
0.0312499999999994
40
0.0312499999999994
40
0.0624999999999988
40
0.0624999999999988
40
0.0937499999999981
40
0.0937499999999981
40
0.124999999999998
40
0.124999999999998
40
0.156249999999997
40
0.156249999999997
40
0.187499999999996
40
0.187499999999996
40
0.218749999999996
40
0.218749999999996
40
0.226562499999996
40
0.226562499999996
40
0.234374999999996
40
0.234374999999996
40
0.249999999999996
40
0.249999999999996
40
0.281249999999997
40
0.281249999999997
40
0.312499999999998
40
0.312499999999998
40
0.343749999999999
40
0.343749999999999
40
0.375
40
0.375
40
0.406250000000001
40
0.406250000000001
40
0.437500000000002
40
0.437500000000002
40
0.468750000000003
40
0.468750000000003
40
0.500000000000004
40
0.500000000000004
40
0.531250000000005
40
0.531250000000005
40
0.562500000000006
40
0.562500000000006
40
0.593750000000007
40
0.593750000000007
40
0.609375000000007
40
0.609375000000007
40
0.613281250000007
40
0.613281250000007
40
0.617187500000007
40
0.625000000000007
40
0.625000000000007
40
0.656250000000007
40
0.656250000000007
40
0.687500000000006
40
0.687500000000006
40
0.718750000000006
40
0.718750000000006
40
0.750000000000005
40
0.750000000000005
40
0.781250000000004
40
0.781250000000004
40
0.812500000000004
40
0.812500000000004
40
0.843750000000003
40
0.843750000000003
40
0.875000000000002
40
0.875000000000002
40
0.906250000000002
40
0.906250000000002
40
0.937500000000001
40
0.937500000000001
40
0.968750000000001
40
0.968750000000001
40
1
40
1
40
1
40
1
41
1
10
152.9
20
-8.22658776365222
30
0
41
1
10
152.982104551759
20
-8.68851342576184
30
0
41
1
10
153.064209103519
20
-9.12801647015078
30
0
41
1
10
153.228418207038
20
-9.95003949776529
30
0
41
1
10
153.310522758797
20
-10.3325284624362
30
0
41
1
10
153.474731862316
20
-11.0313568860851
30
0
41
1
10
153.556836414075
20
-11.3476811071288
30
0
41
1
10
153.721045517594
20
-11.9087796346545
30
0
41
1
10
153.803150069354
20
-12.1535561010724
30
0
41
1
10
153.967359172872
20
-12.5701231460984
30
0
41
1
10
154.049463724632
20
-12.7419308666649
30
0
41
1
10
154.213672828151
20
-13.0147865391199
30
0
41
1
10
154.29577737991
20
-13.1158614138922
30
0
41
1
10
154.459986483429
20
-13.2524566504098
30
0
41
1
10
154.542091035188
20
-13.2880076419463
30
0
41
1
10
154.644721724888
20
-13.2960357736793
30
0
41
1
10
154.665247862828
20
-13.2958419837958
30
0
41
1
10
154.706300138707
20
-13.2918351901388
30
0
41
1
10
154.726826276647
20
-13.2880082662239
30
0
41
1
10
154.788404690467
20
-13.2708748692178
30
0
41
1
10
154.829456966346
20
-13.2519124626073
30
0
41
1
10
154.952613793986
20
-13.1710531717817
30
0
41
1
10
155.034718345745
20
-13.08510815802
30
0
41
1
10
155.198927449264
20
-12.8434455583297
30
0
41
1
10
155.281032001023
20
-12.6876997051808
30
0
41
1
10
155.445241104542
20
-12.3034598073107
30
0
41
1
10
155.527345656301
20
-12.0749459306108
30
0
41
1
10
155.69155475982
20
-11.5457204207831
30
0
41
1
10
155.77365931158
20
-11.2450029570219
30
0
41
1
10
155.937868415099
20
-10.5758519536298
30
0
41
1
10
156.019972966858
20
-10.2074297666045
30
0
41
1
10
156.184182070377
20
-9.41120854192715
30
0
41
1
10
156.266286622136
20
-8.98343736430814
30
0
41
1
10
156.430495725655
20
-8.08011995811938
30
0
41
1
10
156.512600277414
20
-7.60461336661541
30
0
41
1
10
156.676809380933
20
-6.61965511753834
30
0
41
1
10
156.758913932693
20
-6.11024742214008
30
0
41
1
10
156.923123036212
20
-5.07226057291766
30
0
41
1
10
157.005227587971
20
-4.54372184421229
30
0
41
1
10
157.16943669149
20
-3.48189454841662
30
0
41
1
10
157.251541243249
20
-2.94863683908522
30
0
41
1
10
157.415750346768
20
-1.89035104712534
30
0
41
1
10
157.497854898527
20
-1.36534132646179
30
0
41
1
10
157.621011726167
20
-0.592092002842833
30
0
41
1
10
157.662064002046
20
-0.336701034088264
30
0
41
1
10
157.713379346896
20
-0.0211041796918892
30
0
41
1
10
157.723642415866
20
0.0417644636560226
30
0
41
1
10
157.744168553806
20
0.168082426939236
30
0
41
1
10
157.774957760716
20
0.358101669295451
30
0
41
1
10
157.805746967625
20
0.549674857707515
30
0
41
1
10
157.908377657325
20
1.19135747078207
30
0
41
1
10
157.990482209084
20
1.71473705474236
30
0
41
1
10
158.154691312603
20
2.77107936717772
30
0
41
1
10
158.236795864362
20
3.30402516400704
30
0
41
1
10
158.401004967881
20
4.36675946974168
30
0
41
1
10
158.48310951964
20
4.89651842859621
30
0
41
1
10
158.647318623159
20
5.93858964656485
30
0
41
1
10
158.729423174919
20
6.45086229798011
30
0
41
1
10
158.893632278438
20
7.44317315831188
30
0
41
1
10
158.975736830197
20
7.92316742642413
30
0
41
1
10
159.139945933716
20
8.83691375993462
30
0
41
1
10
159.222050485475
20
9.27062530879871
30
0
41
1
10
159.386259588994
20
10.0798765261037
30
0
41
1
10
159.468364140753
20
10.4553867226815
30
0
41
1
10
159.632573244272
20
11.1394617614939
30
0
41
1
10
159.714677796032
20
11.44801330138
30
0
41
1
10
159.878886899551
20
11.9932119479959
30
0
41
1
10
159.96099145131
20
12.22986306817
30
0
41
1
10
160.125200554829
20
12.6302559227988
30
0
41
1
10
160.207305106588
20
12.7940161787156
30
0
41
1
10
160.371514210107
20
13.0512242652881
30
0
41
1
10
160.453618761867
20
13.1446997293958
30
0
41
1
10
160.617827865385
20
13.2668222515267
30
0
41
1
10
160.699932417145
20
13.2955
30
0
41
1
10
160.782036968904
20
13.2955
30
0
0
SPLINE
5
D8
100
AcDbEntity
8
1
62
256
6
ByLayer
370
13
48
1
60
0
100
AcDbSpline
70
4
71
3
72
78
73
74
40
0
40
0
40
0
40
0
40
0.0312499999999998
40
0.0312499999999998
40
0.0624999999999996
40
0.0624999999999996
40
0.0937499999999994
40
0.0937499999999994
40
0.124999999999999
40
0.124999999999999
40
0.156249999999999
40
0.156249999999999
40
0.187499999999999
40
0.187499999999999
40
0.218749999999999
40
0.218749999999999
40
0.249999999999999
40
0.249999999999999
40
0.281249999999998
40
0.281249999999998
40
0.312499999999998
40
0.312499999999998
40
0.343749999999998
40
0.343749999999998
40
0.374999999999998
40
0.374999999999998
40
0.406249999999998
40
0.406249999999998
40
0.437499999999997
40
0.437499999999997
40
0.468749999999997
40
0.468749999999997
40
0.476562499999997
40
0.476562499999997
40
0.484374999999997
40
0.484374999999997
40
0.499999999999997
40
0.499999999999997
40
0.531249999999997
40
0.531249999999997
40
0.562499999999998
40
0.562499999999998
40
0.593749999999998
40
0.593749999999998
40
0.624999999999998
40
0.624999999999998
40
0.656249999999998
40
0.656249999999998
40
0.687499999999998
40
0.687499999999998
40
0.718749999999998
40
0.718749999999998
40
0.749999999999998
40
0.749999999999998
40
0.781249999999999
40
0.781249999999999
40
0.812499999999999
40
0.812499999999999
40
0.843749999999999
40
0.843749999999999
40
0.874999999999999
40
0.874999999999999
40
0.906249999999999
40
0.906249999999999
40
0.937499999999999
40
0.937499999999999
40
0.953124999999999
40
0.953124999999999
40
0.960937499999999
40
0.960937499999999
40
0.96875
40
0.96875
40
1
40
1
40
1
40
1
41
1
10
158.738397138977
20
13.2955
30
0
41
1
10
158.805297520345
20
13.2955
30
0
41
1
10
158.872197901713
20
13.2764745135938
30
0
41
1
10
159.005998664449
20
13.1962847488399
30
0
41
1
10
159.072899045817
20
13.1351094335173
30
0
41
1
10
159.206699808553
20
12.9673090232105
30
0
41
1
10
159.273600189921
20
12.8606733167778
30
0
41
1
10
159.407400952658
20
12.5997681434869
30
0
41
1
10
159.474301334026
20
12.4454898999573
30
0
41
1
10
159.608102096762
20
12.0885391751804
30
0
41
1
10
159.67500247813
20
11.8858612028324
30
0
41
1
10
159.808803240866
20
11.4329936281389
30
0
41
1
10
159.875703622234
20
11.1828030105386
30
0
41
1
10
160.009504384971
20
10.6375376631613
30
0
41
1
10
160.076404766339
20
10.3424670163368
30
0
41
1
10
160.210205529075
20
9.71176976396183
30
0
41
1
10
160.277105910443
20
9.37615218057971
30
0
41
1
10
160.410906673179
20
8.67019183040679
30
0
41
1
10
160.477807054547
20
8.29986205021979
30
0
41
1
10
160.611607817283
20
7.5314760256974
30
0
41
1
10
160.678508198651
20
7.13343511604961
30
0
41
1
10
160.812308961387
20
6.31736189203318
30
0
41
1
10
160.879209342756
20
5.89934533987321
30
0
41
1
10
161.013010105492
20
5.05131818046272
30
0
41
1
10
161.07991048686
20
4.62132193397443
30
0
41
1
10
161.213711249596
20
3.75713630880077
30
0
41
1
10
161.280611630964
20
3.3229584870636
30
0
41
1
10
161.4144123937
20
2.457620489448
30
0
41
1
10
161.481312775068
20
2.02646827993288
30
0
41
1
10
161.615113537805
20
1.17350683329889
30
0
41
1
10
161.682013919173
20
0.751701819818493
30
0
41
1
10
161.765639395883
20
0.233570527251345
30
0
41
1
10
161.782364491225
20
0.130397780230254
30
0
41
1
10
161.815814681909
20
-0.0749697299892489
30
0
41
1
10
161.832539777251
20
-0.177818359442426
30
0
41
1
10
161.882715063277
20
-0.48820397584899
30
0
41
1
10
161.916165253961
20
-0.696970187762389
30
0
41
1
10
162.016515826013
20
-1.32787417714951
30
0
41
1
10
162.083416207381
20
-1.7546506448432
30
0
41
1
10
162.217216970118
20
-2.61480446551255
30
0
41
1
10
162.284117351486
20
-3.04817590999696
30
0
41
1
10
162.417918114222
20
-3.91476944009301
30
0
41
1
10
162.48481849559
20
-4.34798187005154
30
0
41
1
10
162.618619258326
20
-5.2067416251129
30
0
41
1
10
162.685519639694
20
-5.63227598063435
30
0
41
1
10
162.81932040243
20
-6.46774004551199
30
0
41
1
10
162.886220783799
20
-6.87765455059284
30
0
41
1
10
163.020021546535
20
-7.67394302257699
30
0
41
1
10
163.086921927903
20
-8.06030118050325
30
0
41
1
10
163.220722690639
20
-8.80201671714008
30
0
41
1
10
163.287623072007
20
-9.15735960057876
30
0
41
1
10
163.421423834743
20
-9.8305221598458
30
0
41
1
10
163.488324216111
20
-10.1483304846759
30
0
41
1
10
163.622124978848
20
-10.741233867821
30
0
41
1
10
163.689025360216
20
-11.0163220777916
30
0
41
1
10
163.822826122952
20
-11.5202052169187
30
0
41
1
10
163.88972650432
20
-11.7489984132235
30
0
41
1
10
164.023527267056
20
-12.1584518745405
30
0
41
1
10
164.090427648424
20
-12.3391153091459
30
0
41
1
10
164.22422841116
20
-12.6521868180949
30
0
41
1
10
164.291128792528
20
-12.7846020492456
30
0
41
1
10
164.424929555265
20
-13.0026129212167
30
0
41
1
10
164.491829936633
20
-13.0882183572772
30
0
41
1
10
164.625630699369
20
-13.215343803778
30
0
41
1
10
164.692531080737
20
-13.256874782092
30
0
41
1
10
164.792881652789
20
-13.2888937465995
30
0
41
1
10
164.826331843473
20
-13.2945270930348
30
0
41
1
10
164.876507129499
20
-13.2958129972517
30
0
41
1
10
164.893232224841
20
-13.2950561610606
30
0
41
1
10
164.926682415526
20
-13.2911155294759
30
0
41
1
10
164.943407510868
20
-13.2879299084309
30
0
41
1
10
165.027032987578
20
-13.2657612738031
30
0
41
1
10
165.093933368946
20
-13.2280269276918
30
0
41
1
10
165.160833750314
20
-13.1684104593575
30
0
0
SPLINE
5
D9
100
AcDbEntity
8
1
62
256
6
ByLayer
370
13
48
1
60
0
100
AcDbSpline
70
4
71
3
72
78
73
74
40
0
40
0
40
0
40
0
40
0.0312499999999999
40
0.0312499999999999
40
0.0624999999999999
40
0.0624999999999999
40
0.0937499999999998
40
0.0937499999999998
40
0.125
40
0.125
40
0.15625
40
0.15625
40
0.1640625
40
0.1640625
40
0.171875
40
0.171875
40
0.1875
40
0.1875
40
0.218750000000001
40
0.218750000000001
40
0.250000000000001
40
0.250000000000001
40
0.281250000000002
40
0.281250000000002
40
0.312500000000002
40
0.312500000000002
40
0.343750000000003
40
0.343750000000003
40
0.375000000000003
40
0.375000000000003
40
0.406250000000003
40
0.406250000000003
40
0.437500000000004
40
0.437500000000004
40
0.468750000000004
40
0.468750000000004
40
0.500000000000005
40
0.500000000000005
40
0.531250000000005
40
0.531250000000005
40
0.562500000000005
40
0.562500000000005
40
0.578125000000006
40
0.578125000000006
40
0.585937500000006
40
0.585937500000006
40
0.593750000000006
40
0.593750000000006
40
0.625000000000005
40
0.625000000000005
40
0.656250000000005
40
0.656250000000005
40
0.687500000000005
40
0.687500000000005
40
0.718750000000004
40
0.718750000000004
40
0.750000000000004
40
0.750000000000004
40
0.781250000000003
40
0.781250000000003
40
0.812500000000003
40
0.812500000000003
40
0.843750000000002
40
0.843750000000002
40
0.875000000000002
40
0.875000000000002
40
0.906250000000001
40
0.906250000000001
40
0.937500000000001
40
0.937500000000001
40
0.96875
40
0.96875
40
1
40
1
40
1
40
1
41
1
10
152.9
20
-10.6559467491602
30
0
41
1
10
152.97703649922
20
-10.9853194281176
30
0
41
1
10
153.054072998439
20
-11.2856586798562
30
0
41
1
10
153.208145996878
20
-11.8236543735952
30
0
41
1
10
153.285182496098
20
-12.0613113327761
30
0
41
1
10
153.439255494537
20
-12.4723790364727
30
0
41
1
10
153.516291993756
20
-12.6458008575166
30
0
41
1
10
153.670364992195
20
-12.9297289094328
30
0
41
1
10
153.747401491415
20
-13.0402536173033
30
0
41
1
10
153.901474489854
20
-13.2021552681123
30
0
41
1
10
153.978510989074
20
-13.2535541964054
30
0
41
1
10
154.074806613098
20
-13.2843247311595
30
0
41
1
10
154.094065737903
20
-13.2888084233397
30
0
41
1
10
154.132583987513
20
-13.2945341274514
30
0
41
1
10
154.151843112318
20
-13.2957771733846
30
0
41
1
10
154.209620486732
20
-13.2947918722063
30
0
41
1
10
154.248138736342
20
-13.28781224368
30
0
41
1
10
154.363693485171
20
-13.2467017060829
30
0
41
1
10
154.440729984391
20
-13.1923498935103
30
0
41
1
10
154.59480298283
20
-13.0242956029415
30
0
41
1
10
154.67183948205
20
-12.9105712273131
30
0
41
1
10
154.825912480489
20
-12.6201090037301
30
0
41
1
10
154.902948979708
20
-12.44335296957
30
0
41
1
10
155.057021978147
20
-12.0256229550654
30
0
41
1
10
155.134058477367
20
-11.7846383813217
30
0
41
1
10
155.288131475806
20
-11.2401517356953
30
0
41
1
10
155.365167975025
20
-10.9366497530736
30
0
41
1
10
155.519240973464
20
-10.271901913212
30
0
41
1
10
155.596277472684
20
-9.91066806733897
30
0
41
1
10
155.750350471123
20
-9.13812437357035
30
0
41
1
10
155.827386970343
20
-8.7268372224367
30
0
41
1
10
155.981459968782
20
-7.86422110626535
30
0
41
1
10
156.058496468001
20
-7.41292196016207
30
0
41
1
10
156.21256946644
20
-6.48187883111592
30
0
41
1
10
156.28960596566
20
-6.00216683451777
30
0
41
1
10
156.443678964099
20
-5.02651068563921
30
0
41
1
10
156.520715463319
20
-4.53059569807044
30
0
41
1
10
156.674788461758
20
-3.53442587794879
30
0
41
1
10
156.751824960977
20
-3.03419360116459
30
0
41
1
10
156.905897959416
20
-2.04017215477964
30
0
41
1
10
156.982934458636
20
-1.54639703121967
30
0
41
1
10
157.098489207465
20
-0.817405953194339
30
0
41
1
10
157.137007457075
20
-0.576339933283521
30
0
41
1
10
157.19478483149
20
-0.218354823476034
30
0
41
1
10
157.214043956294
20
-0.0997530070422386
30
0
41
1
10
157.252562205904
20
0.136662104667067
30
0
41
1
10
157.271821330709
20
0.255519501306878
30
0
41
1
10
157.368116954734
20
0.852784038340502
30
0
41
1
10
157.445153453953
20
1.34020034202854
30
0
41
1
10
157.599226452392
20
2.32604944050928
30
0
41
1
10
157.676262951612
20
2.82447232549606
30
0
41
1
10
157.830335950051
20
3.82230469453731
30
0
41
1
10
157.90737244927
20
4.32169554236077
30
0
41
1
10
158.06144544771
20
5.31002749985083
30
0
41
1
10
158.138481946929
20
5.79894221271309
30
0
41
1
10
158.292554945368
20
6.75416031139755
30
0
41
1
10
158.369591444588
20
7.22043247595315
30
0
41
1
10
158.523664443027
20
8.11835625283683
30
0
41
1
10
158.600700942246
20
8.54997636618214
30
0
41
1
10
158.754773940685
20
9.3676988845321
30
0
41
1
10
158.831810439905
20
9.75377465839193
30
0
41
1
10
158.985883438344
20
10.4715153406482
30
0
41
1
10
159.062919937563
20
10.8031628629064
30
0
41
1
10
159.216992936003
20
11.4058337844175
30
0
41
1
10
159.294029435222
20
11.6768514532024
30
0
41
1
10
159.448102433661
20
12.1550831521729
30
0
41
1
10
159.525138932881
20
12.3623030062771
30
0
41
1
10
159.67921193132
20
12.7127891119746
30
0
41
1
10
159.75624843054
20
12.8560704129871
30
0
41
1
10
159.910321428979
20
13.0812350826654
30
0
41
1
10
159.987357928198
20
13.1631390792089
30
0
41
1
10
160.141430926637
20
13.2702603663726
30
0
41
1
10
160.218467425857
20
13.2955
30
0
41
1
10
160.295503925076
20
13.2955
30
0
0
SPLINE
5
DA
100
AcDbEntity
8
1
62
256
6
ByLayer
370
13
48
1
60
0
100
AcDbSpline
70
4
71
3
72
79
73
75
40
0
40
0
40
0
40
0
40
0.0312499999999983
40
0.0312499999999983
40
0.0624999999999967
40
0.0624999999999967
40
0.093749999999995
40
0.093749999999995
40
0.124999999999993
40
0.124999999999993
40
0.156249999999992
40
0.156249999999992
40
0.18749999999999
40
0.18749999999999
40
0.218749999999988
40
0.218749999999988
40
0.249999999999987
40
0.249999999999987
40
0.281249999999985
40
0.281249999999985
40
0.312499999999983
40
0.312499999999983
40
0.343749999999982
40
0.343749999999982
40
0.37499999999998
40
0.37499999999998
40
0.406249999999978
40
0.406249999999978
40
0.437499999999977
40
0.437499999999977
40
0.441406249999977
40
0.441406249999977
40
0.445312499999977
40
0.445312499999977
40
0.453124999999977
40
0.468749999999977
40
0.468749999999977
40
0.499999999999979
40
0.499999999999979
40
0.53124999999998
40
0.53124999999998
40
0.562499999999981
40
0.562499999999981
40
0.593749999999983
40
0.593749999999983
40
0.624999999999984
40
0.624999999999984
40
0.656249999999985
40
0.656249999999985
40
0.687499999999987
40
0.687499999999987
40
0.718749999999988
40
0.718749999999988
40
0.749999999999989
40
0.749999999999989
40
0.781249999999991
40
0.781249999999991
40
0.812499999999992
40
0.812499999999992
40
0.843749999999993
40
0.843749999999993
40
0.874999999999995
40
0.874999999999995
40
0.882812499999995
40
0.882812499999995
40
0.890624999999995
40
0.890624999999995
40
0.906249999999996
40
0.906249999999996
40
0.937499999999997
40
0.937499999999997
40
0.968749999999999
40
0.968749999999999
40
1
40
1
40
1
40
1
41
1
10
158.251864095149
20
13.2955
30
0
41
1
10
158.323832529057
20
13.2955
30
0
41
1
10
158.395800962965
20
13.2734776574274
30
0
41
1
10
158.539737830781
20
13.1803310803356
30
0
41
1
10
158.611706264689
20
13.1091909403326
30
0
41
1
10
158.755643132505
20
12.9138232572335
30
0
41
1
10
158.827611566412
20
12.7895807062478
30
0
41
1
10
158.971548434228
20
12.4855959915667
30
0
41
1
10
159.043516868136
20
12.3058420974025
30
0
41
1
10
159.187453735952
20
11.8904063894796
30
0
41
1
10
159.25942216986
20
11.6547184787999
30
0
41
1
10
159.403359037676
20
11.1292466270305
30
0
41
1
10
159.475327471584
20
10.8394639600982
30
0
41
1
10
159.6192643394
20
10.209972886928
30
0
41
1
10
159.691232773308
20
9.87027369277405
30
0
41
1
10
159.835169641124
20
9.14730181901942
30
0
41
1
10
159.907138075032
20
8.76404539420861
30
0
41
1
10
160.051074942848
20
7.9621063375312
30
0
41
1
10
160.123043376756
20
7.54344476365387
30
0
41
1
10
160.266980244572
20
6.68006818014095
30
0
41
1
10
160.33894867848
20
6.23537596522249
30
0
41
1
10
160.482885546296
20
5.32986616304308
30
0
41
1
10
160.554853980204
20
4.8690699531351
30
0
41
1
10
160.69879084802
20
3.9411609171753
30
0
41
1
10
160.770759281928
20
3.47406550890952
30
0
41
1
10
160.914696149743
20
2.54265652849085
30
0
41
1
10
160.986664583651
20
2.07835492365683
30
0
41
1
10
161.130601451467
20
1.16047619505184
30
0
41
1
10
161.202569885375
20
0.706905239741246
30
0
41
1
10
161.283534373522
20
0.206334814322247
30
0
41
1
10
161.29253042776
20
0.150849592781896
30
0
41
1
10
161.310522536237
20
0.0401576137030588
30
0
41
1
10
161.319518590476
20
-0.0149612913197643
30
0
41
1
10
161.346506753191
20
-0.180871865183491
30
0
41
1
10
161.400483078622
20
-0.514372754432401
30
0
41
1
10
161.454459404053
20
-0.852521256643541
30
0
41
1
10
161.562412054915
20
-1.53383719256141
30
0
41
1
10
161.634380488823
20
-1.99478333176924
30
0
41
1
10
161.778317356639
20
-2.92276327667415
30
0
41
1
10
161.850285790547
20
-3.38978741728693
30
0
41
1
10
161.994222658363
20
-4.32124792269082
30
0
41
1
10
162.066191092271
20
-4.78566890424139
30
0
41
1
10
162.210127960087
20
-5.70234006131787
30
0
41
1
10
162.282096393995
20
-6.15457016828591
30
0
41
1
10
162.426033261811
20
-7.03690592540818
30
0
41
1
10
162.498001695719
20
-7.46698898311229
30
0
41
1
10
162.641938563535
20
-8.29535574534623
30
0
41
1
10
162.713906997443
20
-8.69361731936868
30
0
41
1
10
162.857843865259
20
-9.44962801133656
30
0
41
1
10
162.929812299167
20
-9.80735865373472
30
0
41
1
10
163.073749166983
20
-10.4751775493018
30
0
41
1
10
163.145717600891
20
-10.7852536267112
30
0
41
1
10
163.289654468706
20
-11.3526858277171
30
0
41
1
10
163.361622902615
20
-11.6100375386363
30
0
41
1
10
163.50555977043
20
-12.0692489956196
30
0
41
1
10
163.577528204338
20
-12.2711120873145
30
0
41
1
10
163.721465072154
20
-12.6188944318301
30
0
41
1
10
163.793433506062
20
-12.7648234562335
30
0
41
1
10
163.937370373878
20
-13.0024029026515
30
0
41
1
10
164.009338807786
20
-13.094067336292
30
0
41
1
10
164.153275675602
20
-13.2265341550259
30
0
41
1
10
164.22524410951
20
-13.2673523561375
30
0
41
1
10
164.315204651895
20
-13.2895307000851
30
0
41
1
10
164.333196760372
20
-13.2925266400055
30
0
41
1
10
164.369180977326
20
-13.29572118071
30
0
41
1
10
164.387173085803
20
-13.2959286021905
30
0
41
1
10
164.441149411234
20
-13.2924099045622
30
0
41
1
10
164.477133628188
20
-13.284493369555
30
0
41
1
10
164.58508627905
20
-13.2430592237387
30
0
41
1
10
164.657054712958
20
-13.1918195396205
30
0
41
1
10
164.800991580774
20
-13.0376608460369
30
0
41
1
10
164.872960014682
20
-12.9347262069615
30
0
41
1
10
165.016896882498
20
-12.6740914650267
30
0
41
1
10
165.088865316406
20
-12.5163780453542
30
0
41
1
10
165.160833750314
20
-12.3306558839189
30
0
0
SPLINE
5
DB
100
AcDbEntity
8
1
62
256
6
ByLayer
370
13
48
1
60
0
100
AcDbSpline
70
4
71
3
72
80
73
76
40
0
40
0
40
0
40
0
40
0.03125
40
0.03125
40
0.0625
40
0.0625
40
0.09375
40
0.09375
40
0.109375
40
0.109375
40
0.1171875
40
0.1171875
40
0.125
40
0.125
40
0.15625
40
0.15625
40
0.1875
40
0.1875
40
0.21875
40
0.21875
40
0.25
40
0.25
40
0.28125
40
0.28125
40
0.3125
40
0.3125
40
0.34375
40
0.34375
40
0.375
40
0.375
40
0.40625
40
0.40625
40
0.4375
40
0.4375
40
0.46875
40
0.46875
40
0.5
40
0.5
40
0.53125
40
0.53125
40
0.546875
40
0.546875
40
0.5546875
40
0.5546875
40
0.55859375
40
0.55859375
40
0.5625
40
0.5625
40
0.59375
40
0.59375
40
0.625
40
0.625
40
0.65625
40
0.65625
40
0.6875
40
0.6875
40
0.71875
40
0.71875
40
0.75
40
0.75
40
0.78125
40
0.78125
40
0.8125
40
0.8125
40
0.84375
40
0.84375
40
0.875
40
0.875
40
0.90625
40
0.90625
40
0.9375
40
0.9375
40
0.96875
40
0.96875
40
1
40
1
40
1
40
1
41
1
10
152.9
20
-12.3306527198783
30
0
41
1
10
152.97196844668
20
-12.5163752314128
30
0
41
1
10
153.043936893359
20
-12.674088990618
30
0
41
1
10
153.187873786719
20
-12.934724379845
30
0
41
1
10
153.259842233398
20
-13.037659326672
30
0
41
1
10
153.403779126758
20
-13.1918185968155
30
0
41
1
10
153.475747573437
20
-13.2430585497497
30
0
41
1
10
153.583700243457
20
-13.2844930668349
30
0
41
1
10
153.619684466797
20
-13.2924097202991
30
0
41
1
10
153.673660801807
20
-13.2959285875407
30
0
41
1
10
153.691652913476
20
-13.2957212209923
30
0
41
1
10
153.727637136816
20
-13.2925267919027
30
0
41
1
10
153.745629248486
20
-13.2895309081315
30
0
41
1
10
153.835589806836
20
-13.2673528463809
30
0
41
1
10
153.907558253515
20
-13.2265348757341
30
0
41
1
10
154.051495146875
20
-13.0940685197202
30
0
41
1
10
154.123463593554
20
-13.0024043183178
30
0
41
1
10
154.267400486914
20
-12.7648253291571
30
0
41
1
10
154.339368933593
20
-12.6188965297463
30
0
41
1
10
154.483305826953
20
-12.2711146182706
30
0
41
1
10
154.555274273633
20
-12.0692517345903
30
0
41
1
10
154.699211166992
20
-11.6100406671467
30
0
41
1
10
154.771179613671
20
-11.3526891377188
30
0
41
1
10
154.915116507031
20
-10.7852572648664
30
0
41
1
10
154.987084953711
20
-10.4751813340904
30
0
41
1
10
155.13102184707
20
-9.80736269079168
30
0
41
1
10
155.20299029375
20
-9.44963215401094
30
0
41
1
10
155.346927187109
20
-8.69362162899841
30
0
41
1
10
155.418895633789
20
-8.295360116311
30
0
41
1
10
155.562832527148
20
-7.46699343239086
30
0
41
1
10
155.634800973828
20
-7.03691039167762
30
0
41
1
10
155.778737867187
20
-6.15457462716415
30
0
41
1
10
155.850706313867
20
-5.70234449583782
30
0
41
1
10
155.994643207226
20
-4.7856732541602
30
0
41
1
10
156.066611653905
20
-4.32125221239664
30
0
41
1
10
156.210548547265
20
-3.3897915578481
30
0
41
1
10
156.282516993945
20
-2.92276732833358
30
0
41
1
10
156.426453887304
20
-1.99478718483084
30
0
41
1
10
156.498422333984
20
-1.5338409359521
30
0
41
1
10
156.606375004003
20
-0.85252482581123
30
0
41
1
10
156.642359227343
20
-0.627092431306977
30
0
41
1
10
156.696335562353
20
-0.292042738009968
30
0
41
1
10
156.714327674023
20
-0.180875252636724
30
0
41
1
10
156.741315841527
20
-0.0149646323315551
30
0
41
1
10
156.750311897362
20
0.0401542798609853
30
0
41
1
10
156.768304009032
20
0.15084626741654
30
0
41
1
10
156.777300064867
20
0.206331493353417
30
0
41
1
10
156.858264567382
20
0.706901959772125
30
0
41
1
10
156.930233014062
20
1.16047296175446
30
0
41
1
10
157.074169907421
20
2.07835180427955
30
0
41
1
10
157.146138354101
20
2.5426534763694
30
0
41
1
10
157.29007524746
20
3.47406261058342
30
0
41
1
10
157.36204369414
20
3.94115810539048
30
0
41
1
10
157.505980587499
20
4.86906733083947
30
0
41
1
10
157.577949034179
20
5.32986364368946
30
0
41
1
10
157.721885927538
20
6.23537366375365
30
0
41
1
10
157.793854374217
20
6.680065993601
30
0
41
1
10
157.937791267577
20
7.54344281333439
30
0
41
1
10
158.009759714257
20
7.96210450848301
30
0
41
1
10
158.153696607616
20
8.76404380771703
30
0
41
1
10
158.225665054295
20
9.14730035378983
30
0
41
1
10
158.369601947655
20
9.87027246369436
30
0
41
1
10
158.441570394335
20
10.2099717727142
30
0
41
1
10
158.585507287694
20
10.8394630635122
30
0
41
1
10
158.657475734374
20
11.1292458331901
30
0
41
1
10
158.801412627733
20
11.6547178738666
30
0
41
1
10
158.873381074413
20
11.8904058706997
30
0
41
1
10
159.017317967772
20
12.3058417314911
30
0
41
1
10
159.089286414452
20
12.4855956923711
30
0
41
1
10
159.233223307811
20
12.7895805199302
30
0
41
1
10
159.305191754491
20
12.913823117086
30
0
41
1
10
159.44912864785
20
13.1091908724575
30
0
41
1
10
159.52109709453
20
13.1803310385753
30
0
41
1
10
159.665033987889
20
13.2734776495976
30
0
41
1
10
159.737002434569
20
13.2955
30
0
41
1
10
159.808970881248
20
13.2955
30
0
0
SPLINE
5
DC
100
AcDbEntity
8
1
62
256
6
ByLayer
370
13
48
1
60
0
100
AcDbSpline
70
4
71
3
72
78
73
74
40
0
40
0
40
0
40
0
40
0.0312499999999999
40
0.0312499999999999
40
0.0624999999999997
40
0.0624999999999997
40
0.0937499999999996
40
0.0937499999999996
40
0.125
40
0.125
40
0.156249999999999
40
0.156249999999999
40
0.187499999999999
40
0.187499999999999
40
0.218749999999999
40
0.218749999999999
40
0.249999999999999
40
0.249999999999999
40
0.281249999999999
40
0.281249999999999
40
0.312499999999999
40
0.312499999999999
40
0.343749999999999
40
0.343749999999999
40
0.374999999999998
40
0.374999999999998
40
0.406249999999998
40
0.406249999999998
40
0.414062499999998
40
0.414062499999998
40
0.421874999999998
40
0.421874999999998
40
0.437499999999998
40
0.437499999999998
40
0.468749999999998
40
0.468749999999998
40
0.499999999999998
40
0.499999999999998
40
0.531249999999999
40
0.531249999999999
40
0.562499999999999
40
0.562499999999999
40
0.593749999999999
40
0.593749999999999
40
0.624999999999999
40
0.624999999999999
40
0.656249999999999
40
0.656249999999999
40
0.687499999999999
40
0.687499999999999
40
0.718749999999999
40
0.718749999999999
40
0.749999999999999
40
0.749999999999999
40
0.781249999999999
40
0.781249999999999
40
0.812499999999999
40
0.812499999999999
40
0.828124999999999
40
0.828124999999999
40
0.835937499999999
40
0.835937499999999
40
0.84375
40
0.84375
40
0.875
40
0.875
40
0.90625
40
0.90625
40
0.9375
40
0.9375
40
0.96875
40
0.96875
40
1
40
1
40
1
40
1
41
1
10
157.765331051321
20
13.2955
30
0
41
1
10
157.842367537769
20
13.2955
30
0
41
1
10
157.919404024217
20
13.2702603747583
30
0
41
1
10
158.073476997112
20
13.1631391241013
30
0
41
1
10
158.15051348356
20
13.0812351556972
30
0
41
1
10
158.304586456456
20
12.8560705639325
30
0
41
1
10
158.381622942904
20
12.71278931271
30
0
41
1
10
158.535695915799
20
12.3623033284981
30
0
41
1
10
158.612732402247
20
12.1550835460979
30
0
41
1
10
158.766805375143
20
11.6768520106963
30
0
41
1
10
158.843841861591
20
11.405834433774
30
0
41
1
10
158.997914834486
20
10.8031637122809
30
0
41
1
10
159.074951320934
20
10.4715162981633
30
0
41
1
10
159.22902429383
20
9.75377584274258
30
0
41
1
10
159.306060780278
20
9.36770018755243
30
0
41
1
10
159.460133753173
20
8.54997791009612
30
0
41
1
10
159.537170239621
20
8.11835791894433
30
0
41
1
10
159.691243212517
20
7.22043438259803
30
0
41
1
10
159.768279698965
20
6.75416233635724
30
0
41
1
10
159.92235267186
20
5.79894446356457
30
0
41
1
10
159.999389158308
20
5.31002985825765
30
0
41
1
10
160.153462131204
20
4.32169809955144
30
0
41
1
10
160.230498617652
20
3.82230734294561
30
0
41
1
10
160.384571590547
20
2.82447513622176
30
0
41
1
10
160.461608076995
20
2.32605232233496
30
0
41
1
10
160.615681049891
20
1.34020334410144
30
0
41
1
10
160.692717536339
20
0.852787089569546
30
0
41
1
10
160.789013144399
20
0.255522600244518
30
0
41
1
10
160.808272266011
20
0.136665212463527
30
0
41
1
10
160.846790509234
20
-0.0997498828794789
30
0
41
1
10
160.866049630846
20
-0.218351649146768
30
0
41
1
10
160.923826995682
20
-0.576336667320703
30
0
41
1
10
160.962345238906
20
-0.817402627343625
30
0
41
1
10
161.077899968578
20
-1.54639353087194
30
0
41
1
10
161.154936455026
20
-2.04016854497502
30
0
41
1
10
161.309009427922
20
-3.03418979512685
30
0
41
1
10
161.386045914369
20
-3.53442198516837
30
0
41
1
10
161.540118887265
20
-4.5305916635225
30
0
41
1
10
161.617155373713
20
-5.02650659610597
30
0
41
1
10
161.771228346609
20
-6.00216267471086
30
0
41
1
10
161.848264833056
20
-6.48187465605878
30
0
41
1
10
162.002337805952
20
-7.41291780002302
30
0
41
1
10
162.0793742924
20
-7.86421697632241
30
0
41
1
10
162.233447265296
20
-8.72683320074484
30
0
41
1
10
162.310483751744
20
-9.13812042994314
30
0
41
1
10
162.464556724639
20
-9.91066432627147
30
0
41
1
10
162.541593211087
20
-10.2718982966277
30
0
41
1
10
162.695666183983
20
-10.9366464266151
30
0
41
1
10
162.772702670431
20
-11.2401485748485
30
0
41
1
10
162.926775643326
20
-11.7846355844006
30
0
41
1
10
163.003812129774
20
-12.0256203564159
30
0
41
1
10
163.15788510267
20
-12.4433507896572
30
0
41
1
10
163.234921589118
20
-12.6201070442381
30
0
41
1
10
163.388994562013
20
-12.9105697196382
30
0
41
1
10
163.466031048461
20
-13.0242943266254
30
0
41
1
10
163.620104021357
20
-13.1923490802236
30
0
41
1
10
163.697140507805
20
-13.2467011244412
30
0
41
1
10
163.812695237476
20
-13.2878120028802
30
0
41
1
10
163.8512134807
20
-13.2947917439303
30
0
41
1
10
163.908990845536
20
-13.2957772115476
30
0
41
1
10
163.928249967148
20
-13.294534221831
30
0
41
1
10
163.966768210372
20
-13.2888086336666
30
0
41
1
10
163.986027331984
20
-13.2843250008952
30
0
41
1
10
164.082322940044
20
-13.2535547703
30
0
41
1
10
164.159359426492
20
-13.202156108258
30
0
41
1
10
164.313432399387
20
-13.0402550318228
30
0
41
1
10
164.390468885835
20
-12.9297306320858
30
0
41
1
10
164.544541858731
20
-12.6458032301033
30
0
41
1
10
164.621578345179
20
-12.4723817508485
30
0
41
1
10
164.775651318074
20
-12.0613147518916
30
0
41
1
10
164.852687804522
20
-11.8236581556246
30
0
41
1
10
165.006760777418
20
-11.2856631927757
30
0
41
1
10
165.083797263866
20
-10.9853243089541
30
0
41
1
10
165.160833750314
20
-10.6559519913269
30
0
0
SPLINE
5
DD
100
AcDbEntity
8
1
62
256
6
ByLayer
370
13
48
1
60
0
100
AcDbSpline
70
4
71
3
72
78
73
74
40
0
40
0
40
0
40
0
40
0.0312499999999996
40
0.0312499999999996
40
0.0390624999999995
40
0.0390624999999995
40
0.0468749999999993
40
0.0468749999999993
40
0.0624999999999991
40
0.0624999999999991
40
0.093749999999999
40
0.093749999999999
40
0.124999999999999
40
0.124999999999999
40
0.156249999999999
40
0.156249999999999
40
0.187499999999999
40
0.187499999999999
40
0.218749999999999
40
0.218749999999999
40
0.249999999999999
40
0.249999999999999
40
0.281249999999999
40
0.281249999999999
40
0.312499999999999
40
0.312499999999999
40
0.343749999999999
40
0.343749999999999
40
0.374999999999999
40
0.374999999999999
40
0.406249999999999
40
0.406249999999999
40
0.437499999999999
40
0.437499999999999
40
0.468749999999999
40
0.468749999999999
40
0.499999999999999
40
0.499999999999999
40
0.515624999999999
40
0.515624999999999
40
0.523437499999999
40
0.523437499999999
40
0.531249999999999
40
0.531249999999999
40
0.562499999999999
40
0.562499999999999
40
0.593749999999999
40
0.593749999999999
40
0.624999999999999
40
0.624999999999999
40
0.656249999999999
40
0.656249999999999
40
0.687499999999999
40
0.687499999999999
40
0.718749999999999
40
0.718749999999999
40
0.749999999999999
40
0.749999999999999
40
0.781249999999999
40
0.781249999999999
40
0.812499999999999
40
0.812499999999999
40
0.843749999999999
40
0.843749999999999
40
0.875
40
0.875
40
0.90625
40
0.90625
40
0.9375
40
0.9375
40
0.96875
40
0.96875
40
1
40
1
40
1
40
1
41
1
10
152.9
20
-13.168409366764
30
0
41
1
10
152.96690039414
20
-13.2280261134195
30
0
41
1
10
153.03380078828
20
-13.2657607191977
30
0
41
1
10
153.117426280954
20
-13.2879296534914
30
0
41
1
10
153.134151379489
20
-13.29111533323
30
0
41
1
10
153.167601576559
20
-13.295056079707
30
0
41
1
10
153.184326675094
20
-13.295812971679
30
0
41
1
10
153.234501970699
20
-13.2945272340227
30
0
41
1
10
153.267952167769
20
-13.2888939999752
30
0
41
1
10
153.368302758979
20
-13.2568753756063
30
0
41
1
10
153.435203153118
20
-13.2153446280567
30
0
41
1
10
153.569003941398
20
-13.0882196444012
30
0
41
1
10
153.635904335538
20
-13.0026144404086
30
0
41
1
10
153.769705123817
20
-12.7846040260995
30
0
41
1
10
153.836605517957
20
-12.6521890205233
30
0
41
1
10
153.970406306237
20
-12.3391179478659
30
0
41
1
10
154.037306700377
20
-12.1584547239535
30
0
41
1
10
154.171107488656
20
-11.7490016608509
30
0
41
1
10
154.238007882796
20
-11.5202086520419
30
0
41
1
10
154.371808671076
20
-11.0163258572487
30
0
41
1
10
154.438709065215
20
-10.7412378040934
30
0
41
1
10
154.572509853495
20
-10.1483346980065
30
0
41
1
10
154.639410247635
20
-9.83052649340317
30
0
41
1
10
154.773211035914
20
-9.15736413427459
30
0
41
1
10
154.840111430054
20
-8.80202133074116
30
0
41
1
10
154.973912218334
20
-8.06030591237777
30
0
41
1
10
155.040812612474
20
-7.67394779282398
30
0
41
1
10
155.174613400753
20
-6.87765935738139
30
0
41
1
10
155.241513794893
20
-6.4677448504834
30
0
41
1
10
155.375314583172
20
-5.63228074538154
30
0
41
1
10
155.442214977312
20
-5.20674635147321
30
0
41
1
10
155.576015765592
20
-4.34798648841993
30
0
41
1
10
155.642916159732
20
-3.91477398887912
30
0
41
1
10
155.776716948011
20
-3.04818029486989
30
0
41
1
10
155.843617342151
20
-2.61480875607631
30
0
41
1
10
155.977418130431
20
-1.75465472892588
30
0
41
1
10
156.044318524571
20
-1.32787814907815
30
0
41
1
10
156.14466911578
20
-0.696973983087389
30
0
41
1
10
156.17811931285
20
-0.488207710907545
30
0
41
1
10
156.228294608455
20
-0.177822002587277
30
0
41
1
10
156.24501970699
20
-0.0749733255512979
30
0
41
1
10
156.27846990406
20
0.13039420110502
30
0
41
1
10
156.295195002595
20
0.233566956931469
30
0
41
1
10
156.37882049527
20
0.75169829648749
30
0
41
1
10
156.445720889409
20
1.17350335707854
30
0
41
1
10
156.579521677689
20
2.02646491705482
30
0
41
1
10
156.646422071829
20
2.45761719280728
30
0
41
1
10
156.780222860108
20
3.32295534096517
30
0
41
1
10
156.847123254248
20
3.75713324700905
30
0
41
1
10
156.980924042528
20
4.62131905654201
30
0
41
1
10
157.047824436667
20
5.05131540307937
30
0
41
1
10
157.181625224947
20
5.89934277476448
30
0
41
1
10
157.248525619087
20
6.31735943914094
30
0
41
1
10
157.382326407366
20
7.13343289513699
30
0
41
1
10
157.449226801506
20
7.53147392453394
30
0
41
1
10
157.583027589786
20
8.29986019076102
30
0
41
1
10
157.649927983925
20
8.67019009288657
30
0
41
1
10
157.783728772205
20
9.3761506835657
30
0
41
1
10
157.850629166345
20
9.7117683854982
30
0
41
1
10
157.984429954624
20
10.3424658663151
30
0
41
1
10
158.051330348764
20
10.6375366230163
30
0
41
1
10
158.185131137044
20
11.1828021769811
30
0
41
1
10
158.252031531184
20
11.4329928912822
30
0
41
1
10
158.385832319463
20
11.8858606428601
30
0
41
1
10
158.452732713603
20
12.0885386953881
30
0
41
1
10
158.586533501883
20
12.44548956202
30
0
41
1
10
158.653433896023
20
12.5997678672266
30
0
41
1
10
158.787234684302
20
12.8606731447622
30
0
41
1
10
158.854135078442
20
12.9673088937694
30
0
41
1
10
158.987935866721
20
13.1351093707535
30
0
41
1
10
159.054836260861
20
13.1962847101885
30
0
41
1
10
159.188637049141
20
13.2764745063191
30
0
41
1
10
159.255537443281
20
13.2955
30
0
41
1
10
159.32243783742
20
13.2955
30
0
0
SPLINE
5
DE
100
AcDbEntity
8
1
62
256
6
ByLayer
370
13
48
1
60
0
100
AcDbSpline
70
4
71
3
72
79
73
75
40
0
40
0
40
0
40
0
40
0.0312500000000013
40
0.0312500000000013
40
0.0625000000000026
40
0.0625000000000026
40
0.0937500000000038
40
0.0937500000000038
40
0.125000000000005
40
0.125000000000005
40
0.156250000000006
40
0.156250000000006
40
0.187500000000008
40
0.187500000000008
40
0.218750000000009
40
0.218750000000009
40
0.25000000000001
40
0.25000000000001
40
0.281250000000012
40
0.281250000000012
40
0.312500000000013
40
0.312500000000013
40
0.343750000000014
40
0.343750000000014
40
0.375000000000016
40
0.375000000000016
40
0.382812500000016
40
0.386718750000016
40
0.386718750000016
40
0.390625000000016
40
0.390625000000016
40
0.406250000000016
40
0.406250000000016
40
0.437500000000015
40
0.437500000000015
40
0.468750000000014
40
0.468750000000014
40
0.500000000000013
40
0.500000000000013
40
0.531250000000013
40
0.531250000000013
40
0.562500000000012
40
0.562500000000012
40
0.593750000000011
40
0.593750000000011
40
0.62500000000001
40
0.62500000000001
40
0.656250000000009
40
0.656250000000009
40
0.687500000000008
40
0.687500000000008
40
0.718750000000008
40
0.718750000000008
40
0.750000000000007
40
0.750000000000007
40
0.765625000000006
40
0.765625000000006
40
0.773437500000006
40
0.773437500000006
40
0.781250000000006
40
0.781250000000006
40
0.812500000000005
40
0.812500000000005
40
0.843750000000004
40
0.843750000000004
40
0.875000000000003
40
0.875000000000003
40
0.906250000000003
40
0.906250000000003
40
0.937500000000002
40
0.937500000000002
40
0.968750000000001
40
0.968750000000001
40
1
40
1
40
1
40
1
41
1
10
157.278798007493
20
13.2955
30
0
41
1
10
157.360902546481
20
13.2955
30
0
41
1
10
157.443007085468
20
13.2668222604695
30
0
41
1
10
157.607216163444
20
13.144699777443
30
0
41
1
10
157.689320702432
20
13.0512243435206
30
0
41
1
10
157.853529780407
20
12.7940163405417
30
0
41
1
10
157.935634319395
20
12.6302561380528
30
0
41
1
10
158.09984339737
20
12.2298634134607
30
0
41
1
10
158.181947936358
20
11.993212369904
30
0
41
1
10
158.346157014333
20
11.4480138971666
30
0
41
1
10
158.428261553321
20
11.1394624545343
30
0
41
1
10
158.592470631296
20
10.4553876258015
30
0
41
1
10
158.674575170284
20
10.0798775420256
30
0
41
1
10
158.838784248259
20
9.2706265587592
30
0
41
1
10
158.920888787247
20
8.83691513109562
30
0
41
1
10
159.085097865223
20
7.92316904014015
30
0
41
1
10
159.16720240421
20
7.4431748933429
30
0
41
1
10
159.331411482186
20
6.45086426754204
30
0
41
1
10
159.413516021174
20
5.93859172930948
30
0
41
1
10
159.577725099149
20
4.89652072251033
30
0
41
1
10
159.659829638137
20
4.36676186162262
30
0
41
1
10
159.824038716112
20
3.30402773150721
30
0
41
1
10
159.9061432551
20
2.77108201232579
30
0
41
1
10
160.070352333075
20
1.71473983210168
30
0
41
1
10
160.152456872063
20
1.19136030271349
30
0
41
1
10
160.255087545798
20
0.549677743114358
30
0
41
1
10
160.285876747918
20
0.358104569646997
30
0
41
1
10
160.316665950038
20
0.168085340601152
30
0
41
1
10
160.337192084785
20
0.0417673858305534
30
0
41
1
10
160.347455152159
20
-0.0211012496189369
30
0
41
1
10
160.398770489026
20
-0.3366980266631
30
0
41
1
10
160.43982275852
20
-0.592088934627498
30
0
41
1
10
160.562979567002
20
-1.36533808088731
30
0
41
1
10
160.645084105989
20
-1.89034768997243
30
0
41
1
10
160.809293183965
20
-2.948633282168
30
0
41
1
10
160.891397722952
20
-3.4818909033558
30
0
41
1
10
161.055606800928
20
-4.54371805655035
30
0
41
1
10
161.137711339916
20
-5.07225673084918
30
0
41
1
10
161.301920417891
20
-6.11024351397768
30
0
41
1
10
161.384024956879
20
-6.61965119773734
30
0
41
1
10
161.548234034854
20
-7.60460947248549
30
0
41
1
10
161.630338573842
20
-8.08011610133261
30
0
41
1
10
161.794547651817
20
-8.98343363329741
30
0
41
1
10
161.876652190805
20
-9.41120489935673
30
0
41
1
10
162.040861268781
20
-10.2074263494102
30
0
41
1
10
162.122965807768
20
-10.5758486733492
30
0
41
1
10
162.287174885743
20
-11.2449999919486
30
0
41
1
10
162.369279424731
20
-11.5457176339577
30
0
41
1
10
162.533488502707
20
-12.0749435310715
30
0
41
1
10
162.615593041694
20
-12.3034576167527
30
0
41
1
10
162.77980211967
20
-12.6876979509097
30
0
41
1
10
162.861906658658
20
-12.8434440313099
30
0
41
1
10
163.026115736633
20
-13.0851070912158
30
0
41
1
10
163.108220275621
20
-13.1710523379006
30
0
41
1
10
163.231377084102
20
-13.2519119739301
30
0
41
1
10
163.272429353596
20
-13.270874494926
30
0
41
1
10
163.334007757837
20
-13.2880080615878
30
0
41
1
10
163.354533892584
20
-13.2918350417354
30
0
41
1
10
163.395586162078
20
-13.2958419470845
30
0
41
1
10
163.416112296825
20
-13.2960357918428
30
0
41
1
10
163.518742970559
20
-13.2880079439284
30
0
41
1
10
163.600847509547
20
-13.2524572041516
30
0
41
1
10
163.765056587523
20
-13.1158625174875
30
0
41
1
10
163.84716112651
20
-13.0147879408293
30
0
41
1
10
164.011370204486
20
-12.7419329029016
30
0
41
1
10
164.093474743473
20
-12.5701255187405
30
0
41
1
10
164.257683821449
20
-12.1535591715187
30
0
41
1
10
164.339788360437
20
-11.9087830664575
30
0
41
1
10
164.503997438412
20
-11.347685268785
30
0
41
1
10
164.5861019774
20
-11.0313614161636
30
0
41
1
10
164.750311055375
20
-10.3325337158613
30
0
41
1
10
164.832415594363
20
-9.950045106022
30
0
41
1
10
164.996624672338
20
-9.12802275371379
30
0
41
1
10
165.078729211326
20
-8.68852002970996
30
0
41
1
10
165.160833750314
20
-8.22659466167698
30
0
0
SPLINE
5
DF
100
AcDbEntity
8
1
62
256
6
ByLayer
370
13
48
1
60
0
100
AcDbSpline
70
4
71
3
72
74
73
70
40
0
40
0
40
0
40
0
40
0.0312500000000002
40
0.0312500000000002
40
0.0625000000000004
40
0.0625000000000004
40
0.0937500000000006
40
0.0937500000000006
40
0.125000000000001
40
0.125000000000001
40
0.156250000000001
40
0.156250000000001
40
0.187500000000001
40
0.187500000000001
40
0.218750000000001
40
0.218750000000001
40
0.250000000000001
40
0.250000000000001
40
0.281250000000001
40
0.281250000000001
40
0.312500000000001
40
0.312500000000001
40
0.343750000000001
40
0.343750000000001
40
0.375000000000001
40
0.375000000000001
40
0.406250000000002
40
0.406250000000002
40
0.437500000000002
40
0.437500000000002
40
0.468750000000002
40
0.468750000000002
40
0.476562500000001
40
0.476562500000001
40
0.484375000000001
40
0.484375000000001
40
0.500000000000001
40
0.500000000000001
40
0.531250000000001
40
0.531250000000001
40
0.562500000000001
40
0.562500000000001
40
0.593750000000001
40
0.593750000000001
40
0.625000000000001
40
0.625000000000001
40
0.656250000000001
40
0.656250000000001
40
0.687500000000001
40
0.687500000000001
40
0.718750000000001
40
0.718750000000001
40
0.750000000000001
40
0.750000000000001
40
0.781250000000001
40
0.781250000000001
40
0.812500000000001
40
0.812500000000001
40
0.843750000000001
40
0.843750000000001
40
0.875000000000001
40
0.875000000000001
40
0.906250000000001
40
0.906250000000001
40
0.9375
40
0.9375
40
0.96875
40
0.96875
40
1
40
1
40
1
40
1
41
1
10
152.9
20
-13.2400289010413
30
0
41
1
10
152.9618323416
20
-13.2041691809259
30
0
41
1
10
153.0236646832
20
-13.1503567937408
30
0
41
1
10
153.1473293664
20
-13.0041773624826
30
0
41
1
10
153.209161708
20
-12.9118030814353
30
0
41
1
10
153.332826391199
20
-12.6866332029254
30
0
41
1
10
153.394658732799
20
-12.5538313789769
30
0
41
1
10
153.518323415999
20
-12.2469425023971
30
0
41
1
10
153.580155757599
20
-12.0728510805772
30
0
41
1
10
153.703820440799
20
-11.6836840647111
30
0
41
1
10
153.765652782399
20
-11.4686067046175
30
0
41
1
10
153.889317465599
20
-10.9990286020564
30
0
41
1
10
153.951149807199
20
-10.7445291849479
30
0
41
1
10
154.074814490398
20
-10.1989356848021
30
0
41
1
10
154.136646831998
20
-9.90784612174477
30
0
41
1
10
154.260311515198
20
-9.29308127594101
30
0
41
1
10
154.322143856798
20
-8.96941336829994
30
0
41
1
10
154.445808539998
20
-8.29450082679631
30
0
41
1
10
154.507640881598
20
-7.94326567746452
30
0
41
1
10
154.631305564798
20
-7.21897154050905
30
0
41
1
10
154.693137906398
20
-6.84592312199303
30
0
41
1
10
154.816802589598
20
-6.08419423558536
30
0
41
1
10
154.878634931198
20
-5.69552430261953
30
0
41
1
10
155.002299614397
20
-4.90886215217935
30
0
41
1
10
155.064131955997
20
-4.51087941647691
30
0
41
1
10
155.187796639197
20
-3.71171534822096
30
0
41
1
10
155.249628980797
20
-3.31054167851113
30
0
41
1
10
155.373293663997
20
-2.51067348317053
30
0
41
1
10
155.435126005597
20
-2.11198437072468
30
0
41
1
10
155.558790688797
20
-1.3221195900289
30
0
41
1
10
155.620623030397
20
-0.930946993645989
30
0
41
1
10
155.697913457397
20
-0.449341853131756
30
0
41
1
10
155.713371542797
20
-0.353386875122624
30
0
41
1
10
155.744287713596
20
-0.162267533650635
30
0
41
1
10
155.759745798997
20
-0.067242717633178
30
0
41
1
10
155.806120055196
20
0.217471660617179
30
0
41
1
10
155.837036225996
20
0.408953645226774
30
0
41
1
10
155.929784738396
20
0.987726568680216
30
0
41
1
10
155.991617079996
20
1.37936954518631
30
0
41
1
10
156.115281763196
20
2.16994771416032
30
0
41
1
10
156.177114104796
20
2.56887972341414
30
0
41
1
10
156.300778787996
20
3.36897155712666
30
0
41
1
10
156.362611129596
20
3.77012585435767
30
0
41
1
10
156.486275812795
20
4.56896220663523
30
0
41
1
10
156.548108154395
20
4.96663649763846
30
0
41
1
10
156.671772837595
20
5.75237723156644
30
0
41
1
10
156.733605179195
20
6.14043412133466
30
0
41
1
10
156.857269862395
20
6.90063075262245
30
0
41
1
10
156.919102203995
20
7.27275993248833
30
0
41
1
10
157.042766887195
20
7.99492322183977
30
0
41
1
10
157.104599228795
20
8.34494678902976
30
0
41
1
10
157.228263911995
20
9.01717306024736
30
0
41
1
10
157.290096253595
20
9.33936636015096
30
0
41
1
10
157.413760936794
20
9.95096199713979
30
0
41
1
10
157.475593278394
20
10.2403570835485
30
0
41
1
10
157.599257961594
20
10.7823954792676
30
0
41
1
10
157.661090303194
20
11.0350344195997
30
0
41
1
10
157.784754986394
20
11.5007857836938
30
0
41
1
10
157.846587327994
20
11.713897038203
30
0
41
1
10
157.970252011194
20
12.09908825624
30
0
41
1
10
158.032084352793
20
12.2711701262809
30
0
41
1
10
158.155749035993
20
12.5740558163174
30
0
41
1
10
158.217581377593
20
12.7048641144524
30
0
41
1
10
158.341246060793
20
12.9261158703802
30
0
41
1
10
158.403078402393
20
13.0165656235139
30
0
41
1
10
158.526743085593
20
13.1590087551681
30
0
41
1
10
158.588575427193
20
13.2110093984441
30
0
41
1
10
158.712240110393
20
13.2792513027229
30
0
41
1
10
158.774072451993
20
13.2955
30
0
41
1
10
158.835904793593
20
13.2955
30
0
0
SPLINE
5
E0
100
AcDbEntity
8
1
62
256
6
ByLayer
370
13
48
1
60
0
100
AcDbSpline
70
4
71
3
72
81
73
77
40
0
40
0
40
0
40
0
40
0.0312500000000006
40
0.0312500000000006
40
0.0625000000000012
40
0.0625000000000012
40
0.0937500000000018
40
0.0937500000000018
40
0.125000000000002
40
0.125000000000002
40
0.156250000000003
40
0.156250000000003
40
0.187500000000004
40
0.187500000000004
40
0.218750000000004
40
0.218750000000004
40
0.250000000000005
40
0.250000000000005
40
0.281250000000006
40
0.281250000000006
40
0.312500000000006
40
0.312500000000006
40
0.343750000000007
40
0.343750000000007
40
0.359375000000007
40
0.359375000000007
40
0.363281250000007
40
0.363281250000007
40
0.367187500000007
40
0.367187500000007
40
0.375000000000008
40
0.375000000000008
40
0.406250000000008
40
0.406250000000008
40
0.437500000000008
40
0.437500000000008
40
0.468750000000009
40
0.468750000000009
40
0.500000000000009
40
0.500000000000009
40
0.531250000000009
40
0.531250000000009
40
0.56250000000001
40
0.56250000000001
40
0.59375000000001
40
0.59375000000001
40
0.625000000000011
40
0.625000000000011
40
0.656250000000011
40
0.656250000000011
40
0.687500000000011
40
0.687500000000011
40
0.718750000000012
40
0.718750000000012
40
0.726562500000012
40
0.730468750000012
40
0.730468750000012
40
0.734375000000012
40
0.734375000000012
40
0.750000000000011
40
0.750000000000011
40
0.78125000000001
40
0.78125000000001
40
0.812500000000008
40
0.812500000000008
40
0.843750000000007
40
0.843750000000007
40
0.875000000000006
40
0.875000000000006
40
0.906250000000004
40
0.906250000000004
40
0.937500000000003
40
0.937500000000003
40
0.968750000000001
40
0.968750000000001
40
1
40
1
40
1
40
1
41
1
10
156.792264963665
20
13.2955
30
0
41
1
10
156.879437555193
20
13.2955
30
0
41
1
10
156.96661014672
20
13.2631628688423
30
0
41
1
10
157.140955329775
20
13.1250041460272
30
0
41
1
10
157.228127921303
20
13.0191412254939
30
0
41
1
10
157.402473104358
20
12.7276293950284
30
0
41
1
10
157.489645695886
20
12.5419443233112
30
0
41
1
10
157.663990878941
20
12.0882679535536
30
0
41
1
10
157.751163470468
20
11.8202548551197
30
0
41
1
10
157.925508653524
20
11.20408875663
30
0
41
1
10
158.012681245051
20
10.8559359602024
30
0
41
1
10
158.187026428106
20
10.0866937782649
30
0
41
1
10
158.274199019634
20
9.66562948623718
30
0
41
1
10
158.448544202689
20
8.76243037639324
30
0
41
1
10
158.535716794217
20
8.28034183371275
30
0
41
1
10
158.710061977272
20
7.27053153758686
30
0
41
1
10
158.7972345688
20
6.7428677261172
30
0
41
1
10
158.971579751855
20
5.65931087577687
30
0
41
1
10
159.058752343382
20
5.10347536830074
30
0
41
1
10
159.233097526437
20
3.98116630092946
30
0
41
1
10
159.320270117965
20
3.41473930131755
30
0
41
1
10
159.49461530102
20
2.28742636089146
30
0
41
1
10
159.581787892548
20
1.72656990075347
30
0
41
1
10
159.712546779839
20
0.899646689918313
30
0
41
1
10
159.756133075603
20
0.626376442530244
30
0
41
1
10
159.810615945308
20
0.28862866718876
30
0
41
1
10
159.821512519249
20
0.221270616762467
30
0
41
1
10
159.843305667131
20
0.0869574397457598
30
0
41
1
10
159.854202241072
20
0.0201289596774359
30
0
41
1
10
159.886891962894
20
-0.180687805084972
30
0
41
1
10
159.908685110776
20
-0.315392487217508
30
0
41
1
10
160.017650850186
20
-0.992652343304684
30
0
41
1
10
160.104823441714
20
-1.54654104744716
30
0
41
1
10
160.279168624769
20
-2.66627867030007
30
0
41
1
10
160.366341216296
20
-3.2321062267938
30
0
41
1
10
160.540686399351
20
-4.36060317761937
30
0
41
1
10
160.627858990879
20
-4.92323311827948
30
0
41
1
10
160.802204173934
20
-6.02822047565778
30
0
41
1
10
160.889376765462
20
-6.57052412377922
30
0
41
1
10
161.063721948517
20
-7.61716689704375
30
0
41
1
10
161.150894540045
20
-8.12144677261085
30
0
41
1
10
161.3252397231
20
-9.07550641301572
30
0
41
1
10
161.412412314627
20
-9.52523333015824
30
0
41
1
10
161.586757497682
20
-10.3565368438018
30
0
41
1
10
161.67393008921
20
-10.7380781391735
30
0
41
1
10
161.848275272265
20
-11.4236083301567
30
0
41
1
10
161.935447863793
20
-11.7275860100463
30
0
41
1
10
162.109793046848
20
-12.2535523243981
30
0
41
1
10
162.196965638376
20
-12.4755537678675
30
0
41
1
10
162.371310821431
20
-12.8380658829168
30
0
41
1
10
162.458483412958
20
-12.9786074925324
30
0
41
1
10
162.632828596014
20
-13.1829496328893
30
0
41
1
10
162.720001187541
20
-13.2467903110251
30
0
41
1
10
162.828966926951
20
-13.2835648122925
30
0
41
1
10
162.861656648773
20
-13.2913791082955
30
0
41
1
10
162.894346370596
20
-13.2945277350846
30
0
41
1
10
162.916139518478
20
-13.2956087018279
30
0
41
1
10
162.927036092419
20
-13.2956422851098
30
0
41
1
10
162.981518962124
20
-13.2932804080017
30
0
41
1
10
163.025105257888
20
-13.2832512950383
30
0
41
1
10
163.155864145179
20
-13.2270223043887
30
0
41
1
10
163.243036736707
20
-13.1545936352991
30
0
41
1
10
163.417381919762
20
-12.9323346683197
30
0
41
1
10
163.504554511289
20
-12.7824648183899
30
0
41
1
10
163.678899694345
20
-12.4009977889405
30
0
41
1
10
163.766072285872
20
-12.169371353615
30
0
41
1
10
163.940417468927
20
-11.6244059423391
30
0
41
1
10
164.027590060455
20
-11.311056747352
30
0
41
1
10
164.20193524351
20
-10.6076254676077
30
0
41
1
10
164.289107835038
20
-10.2175575347084
30
0
41
1
10
164.463453018093
20
-9.37059007056905
30
0
41
1
10
164.550625609621
20
-8.9137283402352
30
0
41
1
10
164.724970792676
20
-7.94720746105838
30
0
41
1
10
164.812143384203
20
-7.43760253341705
30
0
41
1
10
164.986488567258
20
-6.38234826939345
30
0
41
1
10
165.073661158786
20
-5.83675812672408
30
0
41
1
10
165.160833750314
20
-5.28200771638453
30
0
0
SPLINE
5
E1
100
AcDbEntity
8
1
62
256
6
ByLayer
370
13
48
1
60
0
100
AcDbSpline
70
4
71
3
72
58
73
54
40
0
40
0
40
0
40
0
40
0.0312500000000001
40
0.0312500000000001
40
0.0625000000000002
40
0.0625000000000002
40
0.0937500000000003
40
0.0937500000000003
40
0.125
40
0.125
40
0.156250000000001
40
0.156250000000001
40
0.187500000000001
40
0.187500000000001
40
0.218750000000001
40
0.218750000000001
40
0.250000000000001
40
0.250000000000001
40
0.281250000000001
40
0.281250000000001
40
0.312500000000001
40
0.312500000000001
40
0.375000000000001
40
0.375000000000001
40
0.437500000000001
40
0.437500000000001
40
0.500000000000001
40
0.500000000000001
40
0.5625
40
0.5625
40
0.59375
40
0.59375
40
0.625
40
0.625
40
0.65625
40
0.65625
40
0.6875
40
0.6875
40
0.71875
40
0.71875
40
0.75
40
0.75
40
0.78125
40
0.78125
40
0.8125
40
0.8125
40
0.84375
40
0.84375
40
0.875
40
0.875
40
0.9375
40
0.9375
40
1
40
1
40
1
40
1
41
1
10
152.9
20
-12.5652184464269
30
0
41
1
10
152.95676428906
20
-12.4385846723545
30
0
41
1
10
153.01352857812
20
-12.2946385384095
30
0
41
1
10
153.12705715624
20
-11.9719730228901
30
0
41
1
10
153.1838214453
20
-11.7932516553328
30
0
41
1
10
153.29735002342
20
-11.4017513407367
30
0
41
1
10
153.35411431248
20
-11.188972139707
30
0
41
1
10
153.467642890601
20
-10.7309775856431
30
0
41
1
10
153.524407179661
20
-10.4857638898422
30
0
41
1
10
153.637935757781
20
-9.96540699452828
30
0
41
1
10
153.694700046841
20
-9.69026732985091
30
0
41
1
10
153.808228624961
20
-9.11337213332462
30
0
41
1
10
153.864992914021
20
-8.81162175622526
30
0
41
1
10
153.978521492141
20
-8.18549419841105
30
0
41
1
10
154.035285781201
20
-7.86112334090609
30
0
41
1
10
154.148814359321
20
-7.1942452181483
30
0
41
1
10
154.205578648381
20
-6.85174486618627
30
0
41
1
10
154.319107226501
20
-6.15339859225676
30
0
41
1
10
154.375871515561
20
-5.79755955688375
30
0
41
1
10
154.489400093681
20
-5.07741779374831
30
0
41
1
10
154.546164382741
20
-4.71312136077594
30
0
41
1
10
154.716457249922
20
-3.61469613594446
30
0
41
1
10
154.829985828042
20
-2.87525865070043
30
0
41
1
10
155.057042984282
20
-1.41627254288718
30
0
41
1
10
155.170571562402
20
-0.696805693728066
30
0
41
1
10
155.397628718642
20
0.696030670721029
30
0
41
1
10
155.511157296762
20
1.41546787205738
30
0
41
1
10
155.738214453002
20
2.87443965760974
30
0
41
1
10
155.851743031123
20
3.61387569094734
30
0
41
1
10
156.022035898303
20
4.71230916665942
30
0
41
1
10
156.078800187363
20
5.07661007768579
30
0
41
1
10
156.192328765483
20
5.79676440074877
30
0
41
1
10
156.249093054543
20
6.15261151861691
30
0
41
1
10
156.362621632663
20
6.8509775709868
30
0
41
1
10
156.419385921723
20
7.19348961913522
30
0
41
1
10
156.532914499843
20
7.86039460355212
30
0
41
1
10
156.589678788903
20
8.18478062632201
30
0
41
1
10
156.703207367023
20
8.81094168528057
30
0
41
1
10
156.759971656083
20
9.11271039759663
30
0
41
1
10
156.873500234203
20
9.6896449950915
30
0
41
1
10
156.930264523263
20
9.96480572446586
30
0
41
1
10
157.043793101384
20
10.4852069242954
30
0
41
1
10
157.100557390444
20
10.7304438585907
30
0
41
1
10
157.214085968564
20
11.1884864302321
30
0
41
1
10
157.270850257624
20
11.4012904089111
30
0
41
1
10
157.384378835744
20
11.7928411477548
30
0
41
1
10
157.441143124804
20
11.9715881605344
30
0
41
1
10
157.554671702924
20
12.2943051694831
30
0
41
1
10
157.611435991984
20
12.4382771504613
30
0
41
1
10
157.781728859164
20
12.8182553859764
30
0
41
1
10
157.895257437284
20
13.0019976775263
30
0
41
1
10
158.122314593524
20
13.2405442797013
30
0
41
1
10
158.235843171645
20
13.2955
30
0
41
1
10
158.349371749765
20
13.2955
30
0
0
SPLINE
5
E2
100
AcDbEntity
8
1
62
256
6
ByLayer
370
13
48
1
60
0
100
AcDbSpline
70
4
71
3
72
81
73
77
40
0
40
0
40
0
40
0
40
0.0312499999999996
40
0.0312499999999996
40
0.0624999999999992
40
0.0624999999999992
40
0.0937499999999988
40
0.0937499999999988
40
0.124999999999998
40
0.124999999999998
40
0.156249999999998
40
0.156249999999998
40
0.187499999999998
40
0.187499999999998
40
0.218749999999997
40
0.218749999999997
40
0.249999999999997
40
0.249999999999997
40
0.281249999999997
40
0.281249999999997
40
0.312499999999996
40
0.312499999999996
40
0.343749999999996
40
0.343749999999996
40
0.347656249999996
40
0.347656249999996
40
0.351562499999996
40
0.359374999999996
40
0.359374999999996
40
0.374999999999997
40
0.374999999999997
40
0.406249999999997
40
0.406249999999997
40
0.437499999999998
40
0.437499999999998
40
0.468749999999999
40
0.468749999999999
40
0.499999999999999
40
0.499999999999999
40
0.53125
40
0.53125
40
0.5625
40
0.5625
40
0.593750000000001
40
0.593750000000001
40
0.625000000000002
40
0.625000000000002
40
0.656250000000002
40
0.656250000000002
40
0.687500000000003
40
0.687500000000003
40
0.691406250000003
40
0.691406250000003
40
0.695312500000003
40
0.695312500000003
40
0.703125000000003
40
0.703125000000003
40
0.718750000000003
40
0.718750000000003
40
0.750000000000003
40
0.750000000000003
40
0.781250000000002
40
0.781250000000002
40
0.812500000000002
40
0.812500000000002
40
0.843750000000002
40
0.843750000000002
40
0.875000000000001
40
0.875000000000001
40
0.906250000000001
40
0.906250000000001
40
0.937500000000001
40
0.937500000000001
40
0.96875
40
0.96875
40
1
40
1
40
1
40
1
41
1
10
156.305731919837
20
13.2955
30
0
41
1
10
156.397972563904
20
13.2955
30
0
41
1
10
156.490213207972
20
13.2592817118947
30
0
41
1
10
156.674694496107
20
13.1040435505332
30
0
41
1
10
156.766935140174
20
12.9849689979642
30
0
41
1
10
156.951416428309
20
12.656882075141
30
0
41
1
10
157.043657072377
20
12.4478233953105
30
0
41
1
10
157.228138360512
20
11.9375276351781
30
0
41
1
10
157.320379004579
20
11.6362661798395
30
0
41
1
10
157.504860292714
20
10.9453324317624
30
0
41
1
10
157.597100936781
20
10.5556680604886
30
0
41
1
10
157.781582224916
20
9.69798524248674
30
0
41
1
10
157.873822868984
20
9.23000910888933
30
0
41
1
10
158.058304157119
20
8.23129337266582
30
0
41
1
10
158.150544801186
20
7.70062218944673
30
0
41
1
10
158.335026089321
20
6.59593799543433
30
0
41
1
10
158.427266733389
20
6.02200346683088
30
0
41
1
10
158.611748021524
20
4.85177464882588
30
0
41
1
10
158.703988665591
20
4.25555128274766
30
0
41
1
10
158.888469953726
20
3.06097962986831
30
0
41
1
10
158.980710597793
20
2.46268178848175
30
0
41
1
10
159.165191885928
20
1.28158473943481
30
0
41
1
10
159.257432529996
20
0.698810517716737
30
0
41
1
10
159.361203254572
20
0.0597088738207958
30
0
41
1
10
159.37273333508
20
-0.0109235150029008
30
0
41
1
10
159.395793496097
20
-0.152736545540165
30
0
41
1
10
159.430383737622
20
-0.366144241325912
30
0
41
1
10
159.464973979148
20
-0.581513387160328
30
0
41
1
10
159.534154462198
20
-1.01456964338084
30
0
41
1
10
159.580274784232
20
-1.30637220778323
30
0
41
1
10
159.718635750333
20
-2.18841026956054
30
0
41
1
10
159.810876394401
20
-2.78538196143671
30
0
41
1
10
159.995357682536
20
-3.98021007791914
30
0
41
1
10
160.087598326603
20
-4.57801985377645
30
0
41
1
10
160.272079614738
20
-5.7546290817483
30
0
41
1
10
160.364320258805
20
-6.33336009927967
30
0
41
1
10
160.54880154694
20
-7.45082076260417
30
0
41
1
10
160.641042191008
20
-7.98947199668027
30
0
41
1
10
160.825523479143
20
-9.00694207409509
30
0
41
1
10
160.91776412321
20
-9.48568978715392
30
0
41
1
10
161.102245411345
20
-10.366994780864
30
0
41
1
10
161.194486055413
20
-10.769504948513
30
0
41
1
10
161.378967343548
20
-11.4872844567335
30
0
41
1
10
161.471207987615
20
-11.8025404685411
30
0
41
1
10
161.65568927575
20
-12.3410043318263
30
0
41
1
10
161.747929919818
20
-12.5642321122366
30
0
41
1
10
161.932411207952
20
-12.9199643031258
30
0
41
1
10
162.02465185202
20
-13.0525125184578
30
0
41
1
10
162.209133140155
20
-13.2333436993105
30
0
41
1
10
162.301373784222
20
-13.2816809148883
30
0
41
1
10
162.405144508798
20
-13.2943239487588
30
0
41
1
10
162.416674589307
20
-13.2951507351939
30
0
41
1
10
162.439734750324
20
-13.2956703835099
30
0
41
1
10
162.451264830832
20
-13.2953662969854
30
0
41
1
10
162.485855072357
20
-13.292737901369
30
0
41
1
10
162.508915233374
20
-13.2886935615783
30
0
41
1
10
162.578095716425
20
-13.2694255433958
30
0
41
1
10
162.624216038458
20
-13.2470614892886
30
0
41
1
10
162.76257700456
20
-13.1495108358612
30
0
41
1
10
162.854817648627
20
-13.0437384254052
30
0
41
1
10
163.039298936762
20
-12.7430702648863
30
0
41
1
10
163.131539580829
20
-12.5481260311128
30
0
41
1
10
163.316020868964
20
-12.0660326588096
30
0
41
1
10
163.408261513032
20
-11.7788549545724
30
0
41
1
10
163.592742801167
20
-11.1150960181759
30
0
41
1
10
163.684983445234
20
-10.7385173542886
30
0
41
1
10
163.869464733369
20
-9.90506917913669
30
0
41
1
10
163.961705377437
20
-9.44823698000596
30
0
41
1
10
164.146186665572
20
-8.46911194036792
30
0
41
1
10
164.238427309639
20
-7.94688441645948
30
0
41
1
10
164.422908597774
20
-6.85594083156221
30
0
41
1
10
164.515149241841
20
-6.28730289393147
30
0
41
1
10
164.699630529976
20
-5.12443612606847
30
0
41
1
10
164.791871174044
20
-4.5302803962642
30
0
41
1
10
164.976352462179
20
-3.33686451308049
30
0
41
1
10
165.068593106246
20
-2.73765848569755
30
0
41
1
10
165.160833750314
20
-2.14495967354762
30
0
0
SPLINE
5
E3
100
AcDbEntity
8
1
62
256
6
ByLayer
370
13
48
1
60
0
100
AcDbSpline
70
4
71
3
72
42
73
38
40
0
40
0
40
0
40
0
40
0.0624999999999996
40
0.0624999999999996
40
0.124999999999999
40
0.124999999999999
40
0.187499999999999
40
0.187499999999999
40
0.249999999999998
40
0.249999999999998
40
0.312499999999998
40
0.312499999999998
40
0.374999999999998
40
0.374999999999998
40
0.390624999999998
40
0.390624999999998
40
0.406249999999998
40
0.406249999999998
40
0.437499999999998
40
0.437499999999998
40
0.499999999999998
40
0.499999999999998
40
0.562499999999998
40
0.562499999999998
40
0.624999999999999
40
0.624999999999999
40
0.687499999999999
40
0.687499999999999
40
0.749999999999999
40
0.749999999999999
40
0.812499999999999
40
0.812499999999999
40
0.875
40
0.875
40
0.9375
40
0.9375
40
1
40
1
40
1
40
1
41
1
10
152.9
20
-11.0571940951166
30
0
41
1
10
153.00339247304
20
-10.6485549244708
30
0
41
1
10
153.106784946081
20
-10.1853723213545
30
0
41
1
10
153.313569892161
20
-9.16637475190581
30
0
41
1
10
153.416962365202
20
-8.61065262814239
30
0
41
1
10
153.623747311283
20
-7.43105711876146
30
0
41
1
10
153.727139784323
20
-6.80731659900431
30
0
41
1
10
153.933924730403
20
-5.52063301744087
30
0
41
1
10
154.037317203444
20
-4.8578241622879
30
0
41
1
10
154.244102149525
20
-3.52226017611673
30
0
41
1
10
154.347494622565
20
-2.84960649711104
30
0
41
1
10
154.554279568646
20
-1.5202621095568
30
0
41
1
10
154.657672041686
20
-0.863623592997101
30
0
41
1
10
154.786912632986
20
-0.0654351940265485
30
0
41
1
10
154.812760751246
20
0.0925733283411034
30
0
41
1
10
154.864456987767
20
0.412101406632104
30
0
41
1
10
154.890305106027
20
0.572972949674124
30
0
41
1
10
154.967849460807
20
1.05849251226925
30
0
41
1
10
155.019545697327
20
1.38605768180918
30
0
41
1
10
155.174634406888
20
2.37661967201157
30
0
41
1
10
155.278026879928
20
3.04764275830777
30
0
41
1
10
155.484811826009
20
4.38644611973063
30
0
41
1
10
155.588204299049
20
5.05413583839987
30
0
41
1
10
155.79498924513
20
6.35759255485257
30
0
41
1
10
155.89838171817
20
6.99323051539116
30
0
41
1
10
156.105166664251
20
8.2032041480376
30
0
41
1
10
156.208559137291
20
8.77740302535858
30
0
41
1
10
156.415344083372
20
9.83854146647408
30
0
41
1
10
156.518736556412
20
10.3253757101147
30
0
41
1
10
156.725521502493
20
11.1930338356864
30
0
41
1
10
156.828913975533
20
11.5738136590778
30
0
41
1
10
157.035698921614
20
12.2201560643645
30
0
41
1
10
157.139091394654
20
12.4857423851752
30
0
41
1
10
157.345876340735
20
12.9023401695661
30
0
41
1
10
157.449268813775
20
13.0534260432435
30
0
41
1
10
157.656053759856
20
13.2499579947285
30
0
41
1
10
157.759446232896
20
13.2955
30
0
41
1
10
157.862838705937
20
13.2955
30
0
0
SPLINE
5
E4
100
AcDbEntity
8
1
62
256
6
ByLayer
370
13
48
1
60
0
100
AcDbSpline
70
4
71
3
72
74
73
70
40
0
40
0
40
0
40
0
40
0.0312499999999999
40
0.0312499999999999
40
0.0624999999999999
40
0.0624999999999999
40
0.0937499999999998
40
0.0937499999999998
40
0.125
40
0.125
40
0.15625
40
0.15625
40
0.1875
40
0.1875
40
0.21875
40
0.21875
40
0.25
40
0.25
40
0.28125
40
0.28125
40
0.3125
40
0.3125
40
0.328125
40
0.328125
40
0.34375
40
0.34375
40
0.375
40
0.375
40
0.40625
40
0.40625
40
0.437499999999999
40
0.437499999999999
40
0.468749999999999
40
0.468749999999999
40
0.499999999999999
40
0.499999999999999
40
0.531249999999999
40
0.531249999999999
40
0.562499999999999
40
0.562499999999999
40
0.593749999999999
40
0.593749999999999
40
0.624999999999999
40
0.624999999999999
40
0.65625
40
0.65625
40
0.6875
40
0.6875
40
0.71875
40
0.71875
40
0.75
40
0.75
40
0.78125
40
0.78125
40
0.8125
40
0.8125
40
0.84375
40
0.84375
40
0.875
40
0.875
40
0.90625
40
0.90625
40
0.9375
40
0.9375
40
0.96875
40
0.96875
40
0.984375
40
0.984375
40
1
40
1
40
1
40
1
41
1
10
155.819198876009
20
13.2955
30
0
41
1
10
155.916507572616
20
13.2955
30
0
41
1
10
156.013816269224
20
13.2551782577274
30
0
41
1
10
156.208433662438
20
13.0818095332951
30
0
41
1
10
156.305742359046
20
12.9486913494768
30
0
41
1
10
156.50035975226
20
12.5817503929549
30
0
41
1
10
156.597668448868
20
12.3478695054378
30
0
41
1
10
156.792285842082
20
11.7776725751197
30
0
41
1
10
156.88959453869
20
11.441330994072
30
0
41
1
10
157.084211931904
20
10.6720596576852
30
0
41
1
10
157.181520628512
20
10.2391503636296
30
0
41
1
10
157.376138021726
20
9.2902858649567
30
0
41
1
10
157.473446718334
20
8.77439686114542
30
0
41
1
10
157.668064111549
20
7.67949378446676
30
0
41
1
10
157.765372808156
20
7.10057592300043
30
0
41
1
10
157.959990201371
20
5.90340411986011
30
0
41
1
10
158.057298897978
20
5.28525134820234
30
0
41
1
10
158.251916291193
20
4.03420501377559
30
0
41
1
10
158.3492249878
20
3.40139379474832
30
0
41
1
10
158.543842381015
20
2.14359340629542
30
0
41
1
10
158.641151077622
20
1.51865384166834
30
0
41
1
10
158.787114122533
20
0.600992567110154
30
0
41
1
10
158.835768470837
20
0.298362460708745
30
0
41
1
10
158.933077167444
20
-0.298552690071062
30
0
41
1
10
158.981731515748
20
-0.601186155059935
30
0
41
1
10
159.127694560659
20
-1.51885156220024
30
0
41
1
10
159.225003257266
20
-2.14379302822411
30
0
41
1
10
159.419620650481
20
-3.40159501885682
30
0
41
1
10
159.516929347088
20
-4.03440593489952
30
0
41
1
10
159.711546740303
20
-5.28544911992307
30
0
41
1
10
159.80885543691
20
-5.90359904220281
30
0
41
1
10
160.003472830125
20
-7.10076252351627
30
0
41
1
10
160.100781526732
20
-7.67967491168082
30
0
41
1
10
160.295398919947
20
-8.77456466418568
30
0
41
1
10
160.392707616554
20
-9.29044581905828
30
0
41
1
10
160.587325009769
20
-10.2392927983841
30
0
41
1
10
160.684633706376
20
-10.6721924263003
30
0
41
1
10
160.879251099591
20
-11.4414433796864
30
0
41
1
10
160.976559796198
20
-11.7777742490321
30
0
41
1
10
161.171177189413
20
-12.347949542948
30
0
41
1
10
161.26848588602
20
-12.581819510125
30
0
41
1
10
161.463103279235
20
-12.9487391685608
30
0
41
1
10
161.560411975842
20
-13.0818469770859
30
0
41
1
10
161.755029369057
20
-13.2551960613243
30
0
41
1
10
161.852338065664
20
-13.29550853922
30
0
41
1
10
162.046955458879
20
-13.2954914580582
30
0
41
1
10
162.144264155486
20
-13.255160451117
30
0
41
1
10
162.338881548701
20
-13.0817720862589
30
0
41
1
10
162.436190245308
20
-12.9486435270553
30
0
41
1
10
162.630807638523
20
-12.5816812723346
30
0
41
1
10
162.72811633513
20
-12.3477894644572
30
0
41
1
10
162.922733728345
20
-11.7775708977825
30
0
41
1
10
163.020042424952
20
-11.4412186050992
30
0
41
1
10
163.214659818167
20
-10.6719268859328
30
0
41
1
10
163.311968514774
20
-10.2390079258923
30
0
41
1
10
163.506585907989
20
-9.29012590825474
30
0
41
1
10
163.603894604596
20
-8.77422905573241
30
0
41
1
10
163.798511997811
20
-7.67931265537928
30
0
41
1
10
163.895820694418
20
-7.10038932088273
30
0
41
1
10
164.090438087633
20
-5.90320919646737
30
0
41
1
10
164.18774678424
20
-5.2850535757116
30
0
41
1
10
164.382364177455
20
-4.03400409241806
30
0
41
1
10
164.479672874062
20
-3.40119257066237
30
0
41
1
10
164.674290267277
20
-2.14339378485485
30
0
41
1
10
164.771598963884
20
-1.51845612183388
30
0
41
1
10
164.917562008795
20
-0.600798980128673
30
0
41
1
10
164.966216357099
20
-0.298173999221461
30
0
41
1
10
165.063525053706
20
0.298744688999477
30
0
41
1
10
165.11217940201
20
0.601379743977986
30
0
41
1
10
165.160833750314
20
0.907269590461851
30
0
0
SPLINE
5
E5
100
AcDbEntity
8
1
62
256
6
ByLayer
370
13
48
1
60
0
100
AcDbSpline
70
4
71
3
72
43
73
39
40
0
40
0
40
0
40
0
40
0.0625000000000003
40
0.0625000000000003
40
0.125000000000001
40
0.125000000000001
40
0.187500000000001
40
0.187500000000001
40
0.250000000000001
40
0.250000000000001
40
0.312500000000002
40
0.312500000000002
40
0.320312500000002
40
0.320312500000002
40
0.328125000000001
40
0.343750000000002
40
0.343750000000002
40
0.375000000000002
40
0.375000000000002
40
0.437500000000001
40
0.437500000000001
40
0.500000000000001
40
0.500000000000001
40
0.562500000000001
40
0.562500000000001
40
0.625000000000001
40
0.625000000000001
40
0.687500000000001
40
0.687500000000001
40
0.750000000000001
40
0.750000000000001
40
0.812500000000001
40
0.812500000000001
40
0.875
40
0.875
40
0.9375
40
0.9375
40
1
40
1
40
1
40
1
41
1
10
152.9
20
-8.76427877264933
30
0
41
1
10
152.993256367961
20
-8.26084436179138
30
0
41
1
10
153.086512735921
20
-7.7251957869243
30
0
41
1
10
153.273025471842
20
-6.60935004815542
30
0
41
1
10
153.366281839803
20
-6.02923575091299
30
0
41
1
10
153.552794575724
20
-4.84614134123285
30
0
41
1
10
153.646050943685
20
-4.24323613658336
30
0
41
1
10
153.832563679606
20
-3.03546358574062
30
0
41
1
10
153.925820047567
20
-2.43064924701537
30
0
41
1
10
154.112332783488
20
-1.23721738217742
30
0
41
1
10
154.205589151448
20
-0.648625675711571
30
0
41
1
10
154.310502565404
20
-0.003569257604795
30
0
41
1
10
154.322159611399
20
0.0678529794525673
30
0
41
1
10
154.345473703389
20
0.211477939396616
30
0
41
1
10
154.380444841374
20
0.427609223274516
30
0
41
1
10
154.41541597936
20
0.645714314745902
30
0
41
1
10
154.48535825533
20
1.08424535936641
30
0
41
1
10
154.53198643931
20
1.37970195241198
30
0
41
1
10
154.671870991251
20
2.27259412202733
30
0
41
1
10
154.765127359212
20
2.87666086552903
30
0
41
1
10
154.951640095133
20
4.08465683071424
30
0
41
1
10
155.044896463094
20
4.68853534595118
30
0
41
1
10
155.231409199015
20
5.87546838296234
30
0
41
1
10
155.324665566976
20
6.45844947171148
30
0
41
1
10
155.511178302897
20
7.58189833638352
30
0
41
1
10
155.604434670857
20
8.12228321406107
30
0
41
1
10
155.790947406779
20
9.14025187971853
30
0
41
1
10
155.884203774739
20
9.61776213355125
30
0
41
1
10
156.07071651066
20
10.4935174222762
30
0
41
1
10
156.163972878621
20
10.8917159300476
30
0
41
1
10
156.350485614542
20
11.5980717046646
30
0
41
1
10
156.443741982503
20
11.9062189694852
30
0
41
1
10
156.630254718424
20
12.4282589477201
30
0
41
1
10
156.723511086385
20
12.6421764088585
30
0
41
1
10
156.910023822306
20
12.9778675513975
30
0
41
1
10
157.003280190267
20
13.0996897755813
30
0
41
1
10
157.189792926188
20
13.2584771393291
30
0
41
1
10
157.283049294148
20
13.2955
30
0
41
1
10
157.376305662109
20
13.2955
30
0
0
SPLINE
5
E6
100
AcDbEntity
8
1
62
256
6
ByLayer
370
13
48
1
60
0
100
AcDbSpline
70
4
71
3
72
85
73
81
40
0
40
0
40
0
40
0
40
0.0312499999999999
40
0.0312499999999999
40
0.0624999999999998
40
0.0624999999999998
40
0.0937499999999997
40
0.0937499999999997
40
0.125
40
0.125
40
0.15625
40
0.15625
40
0.1875
40
0.1875
40
0.218749999999999
40
0.218749999999999
40
0.249999999999999
40
0.249999999999999
40
0.281249999999999
40
0.281249999999999
40
0.296874999999999
40
0.296874999999999
40
0.304687499999999
40
0.308593749999999
40
0.308593749999999
40
0.312499999999999
40
0.312499999999999
40
0.343749999999999
40
0.343749999999999
40
0.374999999999999
40
0.374999999999999
40
0.406249999999999
40
0.406249999999999
40
0.437499999999999
40
0.437499999999999
40
0.468749999999999
40
0.468749999999999
40
0.499999999999998
40
0.499999999999998
40
0.531249999999998
40
0.531249999999998
40
0.562499999999998
40
0.562499999999998
40
0.593749999999998
40
0.593749999999998
40
0.609374999999998
40
0.609374999999998
40
0.617187499999998
40
0.621093749999998
40
0.621093749999998
40
0.624999999999998
40
0.624999999999998
40
0.656249999999998
40
0.656249999999998
40
0.687499999999998
40
0.687499999999998
40
0.718749999999998
40
0.718749999999998
40
0.749999999999999
40
0.749999999999999
40
0.781249999999999
40
0.781249999999999
40
0.812499999999999
40
0.812499999999999
40
0.843749999999999
40
0.843749999999999
40
0.874999999999999
40
0.874999999999999
40
0.906249999999999
40
0.906249999999999
40
0.921874999999999
40
0.921874999999999
40
0.929687499999999
40
0.933593749999999
40
0.933593749999999
40
0.9375
40
0.9375
40
0.96875
40
0.96875
40
1
40
1
40
1
40
1
41
1
10
155.332665832181
20
13.2955
30
0
41
1
10
155.435042581329
20
13.2955
30
0
41
1
10
155.537419330476
20
13.250851928883
30
0
41
1
10
155.74217282877
20
13.058293864926
30
0
41
1
10
155.844549577917
20
12.9102924790271
30
0
41
1
10
156.049303076212
20
12.5022141443743
30
0
41
1
10
156.151679825359
20
12.2420656592922
30
0
41
1
10
156.356433323653
20
11.6087526852027
30
0
41
1
10
156.458810072801
20
11.2355638388234
30
0
41
1
10
156.663563571095
20
10.3846432778203
30
0
41
1
10
156.765940320242
20
9.90695092108831
30
0
41
1
10
156.970693818537
20
8.86473159584469
30
0
41
1
10
157.073070567684
20
8.30030255453286
30
0
41
1
10
157.277824065978
20
7.10945023601272
30
0
41
1
10
157.380200815126
20
6.48315646862406
30
0
41
1
10
157.58495431342
20
5.1970142772706
30
0
41
1
10
157.687331062567
20
4.53729032167857
30
0
41
1
10
157.892084560862
20
3.21237417236634
30
0
41
1
10
157.994461310009
20
2.54727172326775
30
0
41
1
10
158.14802643373
20
1.56383060901891
30
0
41
1
10
158.199214808303
20
1.23834863096218
30
0
41
1
10
158.275997370164
20
0.755514443802412
30
0
41
1
10
158.314388651094
20
0.515440203073922
30
0
41
1
10
158.352779932024
20
0.277694543186783
30
0
41
1
10
158.378374119311
20
0.119746969937182
30
0
41
1
10
158.391171212954
20
0.0411873843583805
30
0
41
1
10
158.506345055745
20
-0.666134140925635
30
0
41
1
10
158.608721804892
20
-1.31339494477123
30
0
41
1
10
158.813475303186
20
-2.62608631894938
30
0
41
1
10
158.915852052334
20
-3.29147241301257
30
0
41
1
10
159.120605550628
20
-4.61589645925145
30
0
41
1
10
159.222982299775
20
-5.27484292569142
30
0
41
1
10
159.42773579807
20
-6.55828472750767
30
0
41
1
10
159.530112547217
20
-7.18265473591393
30
0
41
1
10
159.734866045511
20
-8.36857786718204
30
0
41
1
10
159.837242794659
20
-8.93000204376068
30
0
41
1
10
160.041996292953
20
-9.96534954298477
30
0
41
1
10
160.1443730421
20
-10.4391768665668
30
0
41
1
10
160.349126540395
20
-11.2818423758269
30
0
41
1
10
160.451503289542
20
-11.6506437959369
30
0
41
1
10
160.656256787836
20
-12.2750405808429
30
0
41
1
10
160.758633536984
20
-12.5306626060804
30
0
41
1
10
160.963387035278
20
-12.9298997911651
30
0
41
1
10
161.065763784425
20
-13.0735878197075
30
0
41
1
10
161.219328908146
20
-13.2118945487378
30
0
41
1
10
161.27051728272
20
-13.2451795684673
30
0
41
1
10
161.34729984458
20
-13.2771117162359
30
0
41
1
10
161.38569112551
20
-13.2885823690368
30
0
41
1
10
161.42408240644
20
-13.2935674131529
30
0
41
1
10
161.449676593727
20
-13.2954796638401
30
0
41
1
10
161.462473687371
20
-13.2957322685727
30
0
41
1
10
161.577647530161
20
-13.2917455558705
30
0
41
1
10
161.680024279308
20
-13.2432393265646
30
0
41
1
10
161.884777777603
20
-13.0424952884519
30
0
41
1
10
161.98715452675
20
-12.8901663470483
30
0
41
1
10
162.191908025045
20
-12.4732309990445
30
0
41
1
10
162.294284774192
20
-12.2085544333605
30
0
41
1
10
162.499038272486
20
-11.5663370876766
30
0
41
1
10
162.601415021633
20
-11.1887742810229
30
0
41
1
10
162.806168519928
20
-10.3296404093544
30
0
41
1
10
162.908545269075
20
-9.84811128651086
30
0
41
1
10
163.113298767369
20
-8.79908809827501
30
0
41
1
10
163.215675516517
20
-8.23169384395717
30
0
41
1
10
163.420429014811
20
-7.03599736530859
30
0
41
1
10
163.522805763958
20
-6.4078251542692
30
0
41
1
10
163.727559262253
20
-5.11907255651786
30
0
41
1
10
163.8299360114
20
-4.45861573140604
30
0
41
1
10
164.034689509694
20
-3.13329076094243
30
0
41
1
10
164.137066258841
20
-2.46851059965633
30
0
41
1
10
164.290631382562
20
-1.48619800885291
30
0
41
1
10
164.341819757136
20
-1.16119906582577
30
0
41
1
10
164.418602318996
20
-0.679227522851676
30
0
41
1
10
164.456993599927
20
-0.439619099381275
30
0
41
1
10
164.495384880857
20
-0.202386664831607
30
0
41
1
10
164.520979068144
20
-0.044791289555576
30
0
41
1
10
164.533776161787
20
0.0335698030845606
30
0
41
1
10
164.648950004578
20
0.742508941621736
30
0
41
1
10
164.751326753725
20
1.39089087641156
30
0
41
1
10
164.956080252019
20
2.70494995574009
30
0
41
1
10
165.058457001166
20
3.37058073895881
30
0
41
1
10
165.160833750314
20
4.03250484251336
30
0
0
SPLINE
5
E7
100
AcDbEntity
8
1
62
256
6
ByLayer
370
13
48
1
60
0
100
AcDbSpline
70
4
71
3
72
44
73
40
40
0
40
0
40
0
40
0
40
0.0625
40
0.0625
40
0.125
40
0.125
40
0.1875
40
0.1875
40
0.21875
40
0.21875
40
0.2265625
40
0.2265625
40
0.234375
40
0.234375
40
0.25
40
0.25
40
0.3125
40
0.3125
40
0.375
40
0.375
40
0.4375
40
0.4375
40
0.5
40
0.5
40
0.5625
40
0.5625
40
0.625
40
0.625
40
0.6875
40
0.6875
40
0.75
40
0.75
40
0.8125
40
0.8125
40
0.875
40
0.875
40
0.9375
40
0.9375
40
1
40
1
40
1
40
1
41
1
10
152.9
20
-5.89825216718393
30
0
41
1
10
152.983120262881
20
-5.3769693146179
30
0
41
1
10
153.066240525762
20
-4.84440136724757
30
0
41
1
10
153.232481051524
20
-3.77173845122945
30
0
41
1
10
153.315601314404
20
-3.2316785218878
30
0
41
1
10
153.481841840166
20
-2.15783697387306
30
0
41
1
10
153.564962103047
20
-1.62407725256014
30
0
41
1
10
153.689642497368
20
-0.836856297027538
30
0
41
1
10
153.731202628809
20
-0.576666650408157
30
0
41
1
10
153.783152793109
20
-0.254953561488406
30
0
41
1
10
153.793542825969
20
-0.190786730489606
30
0
41
1
10
153.81432289169
20
-0.0628217956304695
30
0
41
1
10
153.824712924549
20
0.0008497874425188
30
0
41
1
10
153.85588302313
20
0.19243643996046
30
0
41
1
10
153.87666308885
20
0.320909484819509
30
0
41
1
10
153.980563417451
20
0.966672344938331
30
0
41
1
10
154.063683680332
20
1.49425796892126
30
0
41
1
10
154.229924206094
20
2.56086634356143
30
0
41
1
10
154.313044468975
20
3.09987293615632
30
0
41
1
10
154.479284994736
20
4.17637434050684
30
0
41
1
10
154.562405257617
20
4.71383931556377
30
0
41
1
10
154.728645783379
20
5.77256917086919
30
0
41
1
10
154.81176604626
20
6.29379288500596
30
0
41
1
10
154.978006572021
20
7.3046903099941
30
0
41
1
10
155.061126834902
20
7.79431741208109
30
0
41
1
10
155.227367360664
20
8.72735286711247
30
0
41
1
10
155.310487623545
20
9.17071748847741
30
0
41
1
10
155.476728149306
20
9.99862927191268
30
0
41
1
10
155.559848412187
20
10.3831439959361
30
0
41
1
10
155.726088937949
20
11.0840013301476
30
0
41
1
10
155.80920920083
20
11.4003286505814
30
0
41
1
10
155.975449726592
20
11.9594356882536
30
0
41
1
10
156.058569989472
20
12.2022187983784
30
0
41
1
10
156.224810515234
20
12.6130210332213
30
0
41
1
10
156.307930778115
20
12.7810593658321
30
0
41
1
10
156.474171303877
20
13.0449609304435
30
0
41
1
10
156.557291566758
20
13.1408533792991
30
0
41
1
10
156.723532092519
20
13.2661066010473
30
0
41
1
10
156.8066523554
20
13.2955
30
0
41
1
10
156.889772618281
20
13.2955
30
0
0
SPLINE
5
E8
100
AcDbEntity
8
1
62
256
6
ByLayer
370
13
48
1
60
0
100
AcDbSpline
70
4
71
3
72
84
73
80
40
0
40
0
40
0
40
0
40
0.0312499999999996
40
0.0312499999999996
40
0.0624999999999993
40
0.0624999999999993
40
0.093749999999999
40
0.093749999999999
40
0.124999999999999
40
0.124999999999999
40
0.156249999999998
40
0.156249999999998
40
0.187499999999998
40
0.187499999999998
40
0.218749999999998
40
0.218749999999998
40
0.249999999999997
40
0.249999999999997
40
0.281249999999997
40
0.281249999999997
40
0.296874999999997
40
0.296874999999997
40
0.304687499999997
40
0.304687499999997
40
0.312499999999997
40
0.312499999999997
40
0.343749999999996
40
0.343749999999996
40
0.374999999999996
40
0.374999999999996
40
0.406249999999996
40
0.406249999999996
40
0.437499999999996
40
0.437499999999996
40
0.468749999999995
40
0.468749999999995
40
0.499999999999995
40
0.499999999999995
40
0.531249999999995
40
0.531249999999995
40
0.562499999999994
40
0.562499999999994
40
0.593749999999994
40
0.593749999999994
40
0.597656249999994
40
0.597656249999994
40
0.601562499999994
40
0.609374999999994
40
0.609374999999994
40
0.624999999999994
40
0.624999999999994
40
0.656249999999995
40
0.656249999999995
40
0.687499999999995
40
0.687499999999995
40
0.718749999999996
40
0.718749999999996
40
0.749999999999996
40
0.749999999999996
40
0.781249999999997
40
0.781249999999997
40
0.812499999999997
40
0.812499999999997
40
0.843749999999998
40
0.843749999999998
40
0.874999999999998
40
0.874999999999998
40
0.890624999999998
40
0.890624999999998
40
0.894531249999998
40
0.894531249999998
40
0.898437499999998
40
0.906249999999999
40
0.906249999999999
40
0.937499999999999
40
0.937499999999999
40
0.968749999999999
40
0.968749999999999
40
1
40
1
40
1
40
1
41
1
10
154.846132788353
20
13.2955
30
0
41
1
10
154.953577590041
20
13.2955
30
0
41
1
10
155.061022391728
20
13.2463021007186
30
0
41
1
10
155.275911995102
20
13.0334885509199
30
0
41
1
10
155.383356796789
20
12.8697571150657
30
0
41
1
10
155.598246400163
20
12.4182570230549
30
0
41
1
10
155.70569120185
20
12.1304019359025
30
0
41
1
10
155.920580805224
20
11.4308379449656
30
0
41
1
10
156.028025606911
20
11.0191093934208
30
0
41
1
10
156.242915210286
20
10.0835129130855
30
0
41
1
10
156.350360011972
20
9.55971131238303
30
0
41
1
10
156.565249615347
20
8.42256018575634
30
0
41
1
10
156.672694417034
20
7.80934913537794
30
0
41
1
10
156.887584020408
20
6.52368768037059
30
0
41
1
10
156.995028822095
20
5.85140488931285
30
0
41
1
10
157.209918425469
20
4.48084847200599
30
0
41
1
10
157.317363227156
20
3.78272115779708
30
0
41
1
10
157.532252830531
20
2.39176605953338
30
0
41
1
10
157.639697632218
20
1.69902928948085
30
0
41
1
10
157.800864834748
20
0.683146859429741
30
0
41
1
10
157.854587235592
20
0.348337617145887
30
0
41
1
10
157.935170836857
20
-0.146266063901066
30
0
41
1
10
157.962032037279
20
-0.312038197729407
30
0
41
1
10
158.015754438122
20
-0.646196618903417
30
0
41
1
10
158.042615638544
20
-0.814402742731346
30
0
41
1
10
158.176921640653
20
-1.66025206229909
30
0
41
1
10
158.28436644234
20
-2.35262044435109
30
0
41
1
10
158.499256045714
20
-3.74337971583324
30
0
41
1
10
158.606700847401
20
-4.4416807839587
30
0
41
1
10
158.821590450776
20
-5.81320381880016
30
0
41
1
10
158.929035252463
20
-6.48628027909189
30
0
41
1
10
159.143924855837
20
-7.77414360331804
30
0
41
1
10
159.251369657524
20
-8.38876280831272
30
0
41
1
10
159.466259260898
20
-9.52924446170826
30
0
41
1
10
159.573704062585
20
-10.0549674249733
30
0
41
1
10
159.788593665959
20
-10.9947406658677
30
0
41
1
10
159.896038467646
20
-11.4087230192532
30
0
41
1
10
160.110928071021
20
-12.1129095702096
30
0
41
1
10
160.218372872708
20
-12.4031318862903
30
0
41
1
10
160.433262476082
20
-12.8592728837718
30
0
41
1
10
160.540707277769
20
-13.0252770612391
30
0
41
1
10
160.755596881143
20
-13.2423833093959
30
0
41
1
10
160.86304168283
20
-13.2936009736508
30
0
41
1
10
160.983917084728
20
-13.2956787860035
30
0
41
1
10
160.997347684939
20
-13.295145038247
30
0
41
1
10
161.024208885361
20
-13.2925175349553
30
0
41
1
10
161.064500685994
20
-13.2862344883752
30
0
41
1
10
161.104792486626
20
-13.2727700674242
30
0
41
1
10
161.185376087892
20
-13.235872839177
30
0
41
1
10
161.239098488735
20
-13.1979720312102
30
0
41
1
10
161.400265691266
20
-13.041574372491
30
0
41
1
10
161.507710492953
20
-12.8801121862913
30
0
41
1
10
161.722600096327
20
-12.4332495279606
30
0
41
1
10
161.830044898014
20
-12.1477617037996
30
0
41
1
10
162.044934501388
20
-11.4528244946092
30
0
41
1
10
162.152379303075
20
-11.0433539398595
30
0
41
1
10
162.367268906449
20
-10.1119465368361
30
0
41
1
10
162.474713708136
20
-9.59007441548772
30
0
41
1
10
162.689603311511
20
-8.45627283003248
30
0
41
1
10
162.797048113198
20
-7.84448081594806
30
0
41
1
10
163.011937716572
20
-6.56104403657733
30
0
41
1
10
163.119382518259
20
-5.88956682087107
30
0
41
1
10
163.334272121633
20
-4.5200001010773
30
0
41
1
10
163.44171692332
20
-3.82205770230789
30
0
41
1
10
163.656606526695
20
-2.43092705111931
30
0
41
1
10
163.764051328381
20
-1.73783100303325
30
0
41
1
10
163.925218530912
20
-0.721096981898114
30
0
41
1
10
163.978940931756
20
-0.38595205091076
30
0
41
1
10
164.04609393281
20
0.0266909750620812
30
0
41
1
10
164.059524533021
20
0.109065020198074
30
0
41
1
10
164.086385733443
20
0.274798529674598
30
0
41
1
10
164.126677534075
20
0.524308214659811
30
0
41
1
10
164.166969334708
20
0.776379511709052
30
0
41
1
10
164.301275336817
20
1.62149980797378
30
0
41
1
10
164.408720138504
20
2.31349073881216
30
0
41
1
10
164.623609741878
20
3.70403398511749
30
0
41
1
10
164.731054543565
20
4.40249767416412
30
0
41
1
10
164.945944146939
20
5.77496427376011
30
0
41
1
10
165.053388948627
20
6.44882249566402
30
0
41
1
10
165.160833750314
20
7.0938436702813
30
0
0
SPLINE
5
E9
100
AcDbEntity
8
1
62
256
6
ByLayer
370
13
48
1
60
0
100
AcDbSpline
70
4
71
3
72
38
73
34
40
0
40
0
40
0
40
0
40
0.0625
40
0.0625
40
0.125
40
0.125
40
0.1875
40
0.1875
40
0.25
40
0.25
40
0.3125
40
0.3125
40
0.375
40
0.375
40
0.4375
40
0.4375
40
0.5
40
0.5
40
0.5625
40
0.5625
40
0.625
40
0.625
40
0.6875
40
0.6875
40
0.75
40
0.75
40
0.8125
40
0.8125
40
0.875
40
0.875
40
0.9375
40
0.9375
40
1
40
1
40
1
40
1
41
1
10
152.9
20
-2.77351156647274
30
0
41
1
10
152.972984157801
20
-2.30181633882665
30
0
41
1
10
153.045968315602
20
-1.83229800560832
30
0
41
1
10
153.191936631204
20
-0.905630115085984
30
0
41
1
10
153.264920789006
20
-0.448486085630719
30
0
41
1
10
153.410889104608
20
0.446937910573979
30
0
41
1
10
153.483873262409
20
0.904042046757553
30
0
41
1
10
153.629841578011
20
1.83068169354075
30
0
41
1
10
153.702825735812
20
2.30019010837711
30
0
41
1
10
153.848794051414
20
3.24357078540495
30
0
41
1
10
153.921778209215
20
3.71743127062254
30
0
41
1
10
154.067746524818
20
4.66020699147694
30
0
41
1
10
154.140730682619
20
5.12910438132477
30
0
41
1
10
154.286698998221
20
6.05180633377708
30
0
41
1
10
154.359683156022
20
6.50558842760671
30
0
41
1
10
154.505651471624
20
7.38768538557946
30
0
41
1
10
154.578635629425
20
7.81597581767795
30
0
41
1
10
154.724603945028
20
8.63720315863955
30
0
41
1
10
154.797588102829
20
9.03011710149534
30
0
41
1
10
154.943556418431
20
9.77191803872762
30
0
41
1
10
155.016540576232
20
10.1207869660555
30
0
41
1
10
155.162508891834
20
10.7676657707596
30
0
41
1
10
155.235493049635
20
11.0656650696026
30
0
41
1
10
155.381461365238
20
11.6062524374021
30
0
41
1
10
155.454445523039
20
11.8488385406153
30
0
41
1
10
155.600413838641
20
12.2765182292643
30
0
41
1
10
155.673397996442
20
12.4616179455724
30
0
41
1
10
155.819366312044
20
12.7746484855773
30
0
41
1
10
155.892350469845
20
12.9025916807647
30
0
41
1
10
156.038318785448
20
13.1037519389177
30
0
41
1
10
156.111302943249
20
13.1769850326339
30
0
41
1
10
156.257271258851
20
13.272850533375
30
0
41
1
10
156.330255416652
20
13.2955
30
0
41
1
10
156.403239574453
20
13.2955
30
0
0
SPLINE
5
EA
100
AcDbEntity
8
1
62
256
6
ByLayer
370
13
48
1
60
0
100
AcDbSpline
70
4
71
3
72
121
73
117
40
0
40
0
40
0
40
0
40
0.0312500000000005
40
0.0312500000000005
40
0.062500000000001
40
0.062500000000001
40
0.0781250000000013
40
0.0781250000000013
40
0.0937500000000015
40
0.0937500000000015
40
0.109375000000002
40
0.109375000000002
40
0.125000000000002
40
0.125000000000002
40
0.140625000000002
40
0.140625000000002
40
0.156250000000002
40
0.156250000000002
40
0.171875000000003
40
0.171875000000003
40
0.187500000000003
40
0.187500000000003
40
0.203125000000003
40
0.203125000000003
40
0.218750000000003
40
0.218750000000003
40
0.250000000000004
40
0.250000000000004
40
0.281250000000004
40
0.281250000000004
40
0.285156250000004
40
0.285156250000004
40
0.289062500000004
40
0.296875000000004
40
0.296875000000004
40
0.312500000000004
40
0.312500000000004
40
0.343750000000005
40
0.343750000000005
40
0.359375000000005
40
0.359375000000005
40
0.375000000000005
40
0.375000000000005
40
0.390625000000005
40
0.390625000000005
40
0.406250000000004
40
0.406250000000004
40
0.421875000000004
40
0.421875000000004
40
0.437500000000004
40
0.437500000000004
40
0.453125000000004
40
0.453125000000004
40
0.468750000000004
40
0.468750000000004
40
0.484375000000004
40
0.484375000000004
40
0.500000000000004
40
0.500000000000004
40
0.531250000000004
40
0.531250000000004
40
0.562500000000004
40
0.562500000000004
40
0.566406250000004
40
0.566406250000004
40
0.570312500000004
40
0.570312500000004
40
0.578125000000004
40
0.578125000000004
40
0.593750000000004
40
0.593750000000004
40
0.625000000000004
40
0.625000000000004
40
0.640625000000004
40
0.640625000000004
40
0.656250000000004
40
0.656250000000004
40
0.671875000000004
40
0.671875000000004
40
0.687500000000004
40
0.687500000000004
40
0.703125000000004
40
0.703125000000004
40
0.718750000000004
40
0.718750000000004
40
0.734375000000004
40
0.734375000000004
40
0.750000000000004
40
0.750000000000004
40
0.765625000000004
40
0.765625000000004
40
0.781250000000004
40
0.781250000000004
40
0.812500000000003
40
0.812500000000003
40
0.843750000000003
40
0.843750000000003
40
0.851562500000003
40
0.851562500000003
40
0.859375000000003
40
0.859375000000003
40
0.875000000000002
40
0.875000000000002
40
0.906250000000002
40
0.906250000000002
40
0.921875000000001
40
0.921875000000001
40
0.937500000000001
40
0.937500000000001
40
0.953125000000001
40
0.953125000000001
40
0.968750000000001
40
0.968750000000001
40
0.984375
40
0.984375
40
1
40
1
40
1
40
1
41
1
10
154.359599744525
20
13.2955
30
0
41
1
10
154.472112598752
20
13.2955
30
0
41
1
10
154.584625452979
20
13.2415280997953
30
0
41
1
10
154.809651161433
20
13.0073858382258
30
0
41
1
10
154.92216401566
20
12.8270705352933
30
0
41
1
10
155.090933297001
20
12.4541676799825
30
0
41
1
10
155.147189724114
20
12.3128733298689
30
0
41
1
10
155.259702578341
20
11.9961211803421
30
0
41
1
10
155.315959005455
20
11.8206614157208
30
0
41
1
10
155.428471859682
20
11.4362328568853
30
0
41
1
10
155.484728286795
20
11.2272637260883
30
0
41
1
10
155.597241141022
20
10.777344151806
30
0
41
1
10
155.653497568135
20
10.5363951783765
30
0
41
1
10
155.766010422363
20
10.0249004517808
30
0
41
1
10
155.822266849476
20
9.75435795683461
30
0
41
1
10
155.934779703703
20
9.18684633564197
30
0
41
1
10
155.991036130816
20
8.88988202816586
30
0
41
1
10
156.103548985043
20
8.27336030358998
30
0
41
1
10
156.159805412157
20
7.95380885433653
30
0
41
1
10
156.272318266384
20
7.29644617892646
30
0
41
1
10
156.328574693497
20
6.95864153376854
30
0
41
1
10
156.441087547724
20
6.26941519898611
30
0
41
1
10
156.497343974838
20
5.91800012380622
30
0
41
1
10
156.609856829065
20
5.20630486195589
30
0
41
1
10
156.666113256178
20
4.84603078352495
30
0
41
1
10
156.834882537518
20
3.758913267862
30
0
41
1
10
156.947395391745
20
3.02598621178396
30
0
41
1
10
157.1724211002
20
1.57748392629639
30
0
41
1
10
157.284933954426
20
0.861992914018941
30
0
41
1
10
157.411510915432
20
0.0815591742078539
30
0
41
1
10
157.42557502221
20
-0.0045900134782642
30
0
41
1
10
157.453703235767
20
-0.17761878205701
30
0
41
1
10
157.495895556102
20
-0.438183493536826
30
0
41
1
10
157.538087876437
20
-0.701625374424992
30
0
41
1
10
157.622472517107
20
-1.23179533408228
30
0
41
1
10
157.678728944221
20
-1.58964044526181
30
0
41
1
10
157.847498225561
20
-2.67134333822108
30
0
41
1
10
157.960011079788
20
-3.40357655927767
30
0
41
1
10
158.128780361129
20
-4.49407838963151
30
0
41
1
10
158.185036788242
20
-4.85621379799949
30
0
41
1
10
158.297549642469
20
-5.57316285022108
30
0
41
1
10
158.353806069583
20
-5.92797064912284
30
0
41
1
10
158.466318923809
20
-6.6255206733733
30
0
41
1
10
158.522575350923
20
-6.96825639339121
30
0
41
1
10
158.63508820515
20
-7.63696250645387
30
0
41
1
10
158.691344632264
20
-7.9629262444532
30
0
41
1
10
158.80385748649
20
-8.59363219670513
30
0
41
1
10
158.860113913604
20
-8.89836818172407
30
0
41
1
10
158.972626767831
20
-9.48260152862738
30
0
41
1
10
159.028883194944
20
-9.76209364658774
30
0
41
1
10
159.141396049171
20
-10.2924354851886
30
0
41
1
10
159.197652476285
20
-10.5432814069094
30
0
41
1
10
159.310165330512
20
-11.0136777105949
30
0
41
1
10
159.366421757625
20
-11.2332260304666
30
0
41
1
10
159.478934611852
20
-11.6392134903563
30
0
41
1
10
159.535191038966
20
-11.8256523918098
30
0
41
1
10
159.647703893193
20
-12.1644815232706
30
0
41
1
10
159.703960320306
20
-12.3168732203801
30
0
41
1
10
159.872729601647
20
-12.7228486815261
30
0
41
1
10
159.985242455873
20
-12.92489897253
30
0
41
1
10
160.210268164327
20
-13.200164948211
30
0
41
1
10
160.322781018555
20
-13.2735224048223
30
0
41
1
10
160.44935797956
20
-13.2934304198568
30
0
41
1
10
160.463422086338
20
-13.2947767343574
30
0
41
1
10
160.491550299895
20
-13.2957778316742
30
0
41
1
10
160.505614406673
20
-13.2954385801703
30
0
41
1
10
160.547806727008
20
-13.2918666409809
30
0
41
1
10
160.575934940565
20
-13.2860691061159
30
0
41
1
10
160.660319581235
20
-13.2579616153018
30
0
41
1
10
160.716576008349
20
-13.2249239277426
30
0
41
1
10
160.885345289689
20
-13.0795759576478
30
0
41
1
10
160.997858143916
20
-12.9207152217394
30
0
41
1
10
161.166627425257
20
-12.5807056946281
30
0
41
1
10
161.22288385237
20
-12.4504889305896
30
0
41
1
10
161.335396706597
20
-12.1558626538466
30
0
41
1
10
161.39165313371
20
-11.9914507130211
30
0
41
1
10
161.504165987937
20
-11.6288106582421
30
0
41
1
10
161.560422415051
20
-11.4305816516381
30
0
41
1
10
161.672935269278
20
-11.0015511942161
30
0
41
1
10
161.729191696391
20
-10.7707506195806
30
0
41
1
10
161.841704550618
20
-10.2786889085115
30
0
41
1
10
161.897960977732
20
-10.0174304654661
30
0
41
1
10
162.010473831959
20
-9.46737950070479
30
0
41
1
10
162.066730259072
20
-9.17859132886542
30
0
41
1
10
162.179243113299
20
-8.57711550919055
30
0
41
1
10
162.235499540413
20
-8.26443351081761
30
0
41
1
10
162.34801239464
20
-7.61936120295044
30
0
41
1
10
162.404268821753
20
-7.2869773387844
30
0
41
1
10
162.51678167598
20
-6.60706552669316
30
0
41
1
10
162.573038103093
20
-6.25954424503368
30
0
41
1
10
162.685550957321
20
-5.55409593824311
30
0
41
1
10
162.741807384434
20
-5.19617523906359
30
0
41
1
10
162.910576665774
20
-4.11387766743687
30
0
41
1
10
163.023089520001
20
-3.38115769066994
30
0
41
1
10
163.248115228455
20
-1.92801346255302
30
0
41
1
10
163.360628082682
20
-1.20768711751026
30
0
41
1
10
163.501269150466
20
-0.332225979402097
30
0
41
1
10
163.529397364023
20
-0.158505505578489
30
0
41
1
10
163.585653791136
20
0.186735519053656
30
0
41
1
10
163.613782004693
20
0.36074436345956
30
0
41
1
10
163.698166645363
20
0.886420114335863
30
0
41
1
10
163.754423072477
20
1.24175355522146
30
0
41
1
10
163.923192353817
20
2.31764171256029
30
0
41
1
10
164.035705208044
20
3.04830951752453
30
0
41
1
10
164.204474489384
20
4.14078857538286
30
0
41
1
10
164.260730916498
20
4.50430020910412
30
0
41
1
10
164.373243770725
20
5.22551761433718
30
0
41
1
10
164.429500197838
20
5.58321784483419
30
0
41
1
10
164.542013052065
20
6.28809550417259
30
0
41
1
10
164.598269479179
20
6.6352665909792
30
0
41
1
10
164.710782333406
20
7.31435036215649
30
0
41
1
10
164.767038760519
20
7.64625637859507
30
0
41
1
10
164.879551614746
20
8.29025287149281
30
0
41
1
10
164.93580804186
20
8.60233691683069
30
0
41
1
10
165.048320896087
20
9.20250953094532
30
0
41
1
10
165.1045773232
20
9.49059247952448
30
0
41
1
10
165.160833750314
20
9.76486781429463
30
0
0
SPLINE
5
EB
100
AcDbEntity
8
1
62
256
6
ByLayer
370
13
48
1
60
0
100
AcDbSpline
70
4
71
3
72
10
73
6
40
0
40
0
40
0
40
0
40
0.5
40
0.5
40
1
40
1
40
1
40
1
41
1
10
164.576793664911
20
13.2955
30
0
41
1
10
164.674133679145
20
13.2955
30
0
41
1
10
164.771473693379
20
13.2551522085051
30
0
41
1
10
164.966153721846
20
13.0816681639141
30
0
41
1
10
165.06349373608
20
12.9484605961849
30
0
41
1
10
165.160833750314
20
12.7648665223962
30
0
0
SPLINE
5
EC
100
AcDbEntity
8
1
62
256
6
ByLayer
370
13
48
1
60
0
100
AcDbSpline
70
4
71
3
72
38
73
34
40
0
40
0
40
0
40
0
40
0.0624999999999999
40
0.0624999999999999
40
0.125
40
0.125
40
0.1875
40
0.1875
40
0.25
40
0.25
40
0.3125
40
0.3125
40
0.375
40
0.375
40
0.4375
40
0.4375
40
0.5
40
0.5
40
0.5625
40
0.5625
40
0.625
40
0.625
40
0.6875
40
0.6875
40
0.75
40
0.75
40
0.8125
40
0.8125
40
0.875
40
0.875
40
0.9375
40
0.9375
40
1
40
1
40
1
40
1
41
1
10
152.9
20
0.298869117701571
30
0
41
1
10
152.962848052721
20
0.687844163816692
30
0
41
1
10
153.025696105443
20
1.08332038831435
30
0
41
1
10
153.151392210885
20
1.88298026665783
30
0
41
1
10
153.214240263607
20
2.28716107361788
30
0
41
1
10
153.339936369049
20
3.09909390897991
30
0
41
1
10
153.402784421771
20
3.50684052816672
30
0
41
1
10
153.528480527214
20
4.32005165890328
30
0
41
1
10
153.591328579935
20
4.72550823844475
30
0
41
1
10
153.717024685378
20
5.52776946077142
30
0
41
1
10
153.779872738099
20
5.92456406701265
30
0
41
1
10
153.905568843542
20
6.702886570842
30
0
41
1
10
153.968416896263
20
7.08440313315495
30
0
41
1
10
154.094113001706
20
7.82563391905873
30
0
41
1
10
154.156961054427
20
8.18533662087367
30
0
41
1
10
154.28265715987
20
8.8768306299101
30
0
41
1
10
154.345505212591
20
9.20861147957174
30
0
41
1
10
154.471201318034
20
9.83891391018417
30
0
41
1
10
154.534049370755
20
10.1374272658592
30
0
41
1
10
154.659745476198
20
10.6968926288561
30
0
41
1
10
154.722593528919
20
10.9578395108394
30
0
41
1
10
154.848289634362
20
11.4391189093308
30
0
41
1
10
154.911137687083
20
11.6594498134466
30
0
41
1
10
155.036833792526
20
12.0577955007139
30
0
41
1
10
155.099681845247
20
12.2358120930739
30
0
41
1
10
155.22537795069
20
12.5491748845494
30
0
41
1
10
155.288226003411
20
12.684525780331
30
0
41
1
10
155.413922108854
20
12.913450353517
30
0
41
1
10
155.476770161576
20
13.0070307833613
30
0
41
1
10
155.602466267018
20
13.1543798643093
30
0
41
1
10
155.66531431974
20
13.2081563752474
30
0
41
1
10
155.791010425182
20
13.2787124083482
30
0
41
1
10
155.853858477904
20
13.2955
30
0
41
1
10
155.916706530625
20
13.2955
30
0
0
SPLINE
5
ED
100
AcDbEntity
8
1
62
256
6
ByLayer
370
13
48
1
60
0
100
AcDbSpline
70
4
71
3
72
143
73
139
40
0
40
0
40
0
40
0
40
0.03125
40
0.03125
40
0.046875
40
0.046875
40
0.0624999999999999
40
0.0624999999999999
40
0.0781249999999999
40
0.0781249999999999
40
0.0937499999999999
40
0.0937499999999999
40
0.109375
40
0.109375
40
0.125
40
0.125
40
0.140625
40
0.140625
40
0.15625
40
0.15625
40
0.171875
40
0.171875
40
0.1875
40
0.1875
40
0.203125
40
0.203125
40
0.21875
40
0.21875
40
0.234375
40
0.234375
40
0.25
40
0.25
40
0.265625
40
0.265625
40
0.26953125
40
0.26953125
40
0.2734375
40
0.2734375
40
0.28125
40
0.28125
40
0.296875
40
0.296875
40
0.3125
40
0.3125
40
0.328125
40
0.328125
40
0.34375
40
0.34375
40
0.359375
40
0.359375
40
0.375
40
0.375
40
0.390625
40
0.390625
40
0.40625
40
0.40625
40
0.421875
40
0.421875
40
0.4375
40
0.4375
40
0.453125
40
0.453125
40
0.46875
40
0.46875
40
0.484375
40
0.484375
40
0.5
40
0.5
40
0.515625
40
0.515625
40
0.53125
40
0.53125
40
0.5390625
40
0.5390625
40
0.54296875
40
0.54296875
40
0.546875
40
0.546875
40
0.5625
40
0.5625
40
0.578124999999999
40
0.578124999999999
40
0.593749999999999
40
0.593749999999999
40
0.609374999999999
40
0.609374999999999
40
0.624999999999999
40
0.624999999999999
40
0.640624999999999
40
0.640624999999999
40
0.656249999999999
40
0.656249999999999
40
0.671874999999999
40
0.671874999999999
40
0.687499999999999
40
0.687499999999999
40
0.703124999999999
40
0.703124999999999
40
0.718749999999999
40
0.718749999999999
40
0.734374999999999
40
0.734374999999999
40
0.749999999999999
40
0.749999999999999
40
0.765624999999999
40
0.765624999999999
40
0.781249999999999
40
0.781249999999999
40
0.796874999999999
40
0.796874999999999
40
0.812499999999999
40
0.812499999999999
40
0.816406249999999
40
0.816406249999999
40
0.820312499999999
40
0.828124999999999
40
0.828124999999999
40
0.843749999999999
40
0.843749999999999
40
0.859374999999999
40
0.859374999999999
40
0.874999999999999
40
0.874999999999999
40
0.890624999999999
40
0.890624999999999
40
0.906249999999999
40
0.906249999999999
40
0.921874999999999
40
0.921874999999999
40
0.937499999999999
40
0.937499999999999
40
0.953125
40
0.953125
40
0.96875
40
0.96875
40
0.984375
40
0.984375
40
1
40
1
40
1
40
1
41
1
10
153.873066700698
20
13.2955
30
0
41
1
10
153.990647607464
20
13.2955
30
0
41
1
10
154.108228514231
20
13.2365292022869
30
0
41
1
10
154.284599874382
20
13.0441159669127
30
0
41
1
10
154.343390327765
20
12.9627043659832
30
0
41
1
10
154.460971234532
20
12.7636102598472
30
0
41
1
10
154.519761687915
20
12.6459227069072
30
0
41
1
10
154.637342594682
20
12.3733309461632
30
0
41
1
10
154.696133048065
20
12.218422927486
30
0
41
1
10
154.813713954832
20
11.8713685198387
30
0
41
1
10
154.872504408216
20
11.6792201099378
30
0
41
1
10
154.990085314983
20
11.2586767860373
30
0
41
1
10
155.048875768366
20
11.0302820494476
30
0
41
1
10
155.166456675133
20
10.5392805788133
30
0
41
1
10
155.225247128516
20
10.2766763943643
30
0
41
1
10
155.342828035283
20
9.72029268503314
30
0
41
1
10
155.401618488666
20
9.42651796645842
30
0
41
1
10
155.519199395433
20
8.81172091359218
30
0
41
1
10
155.577989848817
20
8.4907052362868
30
0
41
1
10
155.695570755583
20
7.82607125831231
30
0
41
1
10
155.754361208967
20
7.48246082579294
30
0
41
1
10
155.871942115734
20
6.77777903936794
30
0
41
1
10
155.930732569117
20
6.4167159953584
30
0
41
1
10
156.048313475884
20
5.68252165379005
30
0
41
1
10
156.107103929268
20
5.30939833353304
30
0
41
1
10
156.224684836034
20
4.55647979331647
30
0
41
1
10
156.283475289418
20
4.17669155520261
30
0
41
1
10
156.401056196184
20
3.41561639331985
30
0
41
1
10
156.459846649568
20
3.03433498736419
30
0
41
1
10
156.577427556335
20
2.27503444634326
30
0
41
1
10
156.636218009718
20
1.89701912698476
30
0
41
1
10
156.753798916485
20
1.14845874393205
30
0
41
1
10
156.812589369869
20
0.777915776780588
30
0
41
1
10
156.886077436598
20
0.321635011059044
30
0
41
1
10
156.900775049943
20
0.230722123069398
30
0
41
1
10
156.930170276635
20
0.0496319548872464
30
0
41
1
10
156.944867889981
20
-0.0403431021292988
30
0
41
1
10
156.988960730019
20
-0.311902612759752
30
0
41
1
10
157.01835595671
20
-0.494418102360669
30
0
41
1
10
157.106541636786
20
-1.04578823835254
30
0
41
1
10
157.165332090169
20
-1.41848696727789
30
0
41
1
10
157.282912996936
20
-2.17040002170648
30
0
41
1
10
157.341703450319
20
-2.54961184452486
30
0
41
1
10
157.459284357086
20
-3.31020297925764
30
0
41
1
10
157.518074810469
20
-3.69157805511966
30
0
41
1
10
157.635655717236
20
-4.45162370886706
30
0
41
1
10
157.69444617062
20
-4.83028838479171
30
0
41
1
10
157.812027077386
20
-5.57966991858075
30
0
41
1
10
157.87081753077
20
-5.95037950303097
30
0
41
1
10
157.988398437537
20
-6.67843521471809
30
0
41
1
10
158.04718889092
20
-7.03577321773614
30
0
41
1
10
158.164769797687
20
-7.73173101614771
30
0
41
1
10
158.22356025107
20
-8.0703425354709
30
0
41
1
10
158.341141157837
20
-8.72380237781564
30
0
41
1
10
158.399931611221
20
-9.0386430575364
30
0
41
1
10
158.517512517988
20
-9.64006787867459
30
0
41
1
10
158.576302971371
20
-9.92664575874744
30
0
41
1
10
158.693883878138
20
-10.4678146869463
30
0
41
1
10
158.752674331521
20
-10.7224014468948
30
0
41
1
10
158.870255238288
20
-11.196781237765
30
0
41
1
10
158.929045691671
20
-11.4165722926515
30
0
41
1
10
159.046626598438
20
-11.8195721876537
30
0
41
1
10
159.105417051822
20
-12.0027814071583
30
0
41
1
10
159.222997958589
20
-12.331871390566
30
0
41
1
10
159.281788411972
20
-12.4777546520813
30
0
41
1
10
159.399369318739
20
-12.7324443985998
30
0
41
1
10
159.458159772122
20
-12.8412550470622
30
0
41
1
10
159.575740678889
20
-13.0229473203364
30
0
41
1
10
159.634531132273
20
-13.0958342016062
30
0
41
1
10
159.752112039039
20
-13.2075791634099
30
0
41
1
10
159.810902492423
20
-13.2464429993456
30
0
41
1
10
159.899088172498
20
-13.2810810643382
30
0
41
1
10
159.92848339919
20
-13.2886881565619
30
0
41
1
10
159.972576239227
20
-13.2944530032378
30
0
41
1
10
159.987273852573
20
-13.2954338370759
30
0
41
1
10
160.016669079265
20
-13.2955596899058
30
0
41
1
10
160.031366692611
20
-13.2947061922268
30
0
41
1
10
160.10485475934
20
-13.2857428078973
30
0
41
1
10
160.163645212723
20
-13.2635289197585
30
0
41
1
10
160.28122611949
20
-13.1863071495231
30
0
41
1
10
160.340016572873
20
-13.1312934692965
30
0
41
1
10
160.45759747964
20
-12.9862472320354
30
0
41
1
10
160.516387933024
20
-12.8962090886004
30
0
41
1
10
160.633968839791
20
-12.6795556096654
30
0
41
1
10
160.692759293174
20
-12.5529354703909
30
0
41
1
10
160.810340199941
20
-12.2623844013332
30
0
41
1
10
160.869130653324
20
-12.0984500459734
30
0
41
1
10
160.986711560091
20
-11.7334874136582
30
0
41
1
10
161.045502013474
20
-11.5324576166844
30
0
41
1
10
161.163082920241
20
-11.094547565769
30
0
41
1
10
161.221873373625
20
-10.8576680564312
30
0
41
1
10
161.339454280392
20
-10.3503414644981
30
0
41
1
10
161.398244733775
20
-10.0798974983372
30
0
41
1
10
161.515825640542
20
-9.50870652282038
30
0
41
1
10
161.574616093925
20
-9.20796481396701
30
0
41
1
10
161.692197000692
20
-8.58029725039876
30
0
41
1
10
161.750987454075
20
-8.2533784105465
30
0
41
1
10
161.868568360842
20
-7.57814303509392
30
0
41
1
10
161.927358814226
20
-7.22983454705459
30
0
41
1
10
162.044939720992
20
-6.51704512192157
30
0
41
1
10
162.103730174376
20
-6.15257248286761
30
0
41
1
10
162.221311081143
20
-5.41287052162431
30
0
41
1
10
162.280101534526
20
-5.03764899079695
30
0
41
1
10
162.397682441293
20
-4.2818113119568
30
0
41
1
10
162.456472894676
20
-3.9012018267446
30
0
41
1
10
162.574053801443
20
-3.13967753204611
30
0
41
1
10
162.632844254827
20
-2.75876784239989
30
0
41
1
10
162.750425161594
20
-2.00128151465006
30
0
41
1
10
162.809215614977
20
-1.62470827112293
30
0
41
1
10
162.926796521744
20
-0.879954080850382
30
0
41
1
10
162.985586975127
20
-0.511774834145172
30
0
41
1
10
163.059075041856
20
-0.0589234583760003
30
0
41
1
10
163.073772655202
20
0.0310569057659791
30
0
41
1
10
163.103167881894
20
0.212045973003256
30
0
41
1
10
163.147260721932
20
0.48463722969845
30
0
41
1
10
163.191353561969
20
0.760336037451339
30
0
41
1
10
163.279539242044
20
1.31524303914659
30
0
41
1
10
163.338329695428
20
1.68988018153988
30
0
41
1
10
163.455910602195
20
2.44467456723822
30
0
41
1
10
163.514701055578
20
2.82482889428241
30
0
41
1
10
163.632281962345
20
3.58617184823277
30
0
41
1
10
163.691072415728
20
3.96735582249454
30
0
41
1
10
163.808653322495
20
4.72578056442839
30
0
41
1
10
163.867443775879
20
5.10301506315241
30
0
41
1
10
163.985024682645
20
5.84823615625649
30
0
41
1
10
164.043815136029
20
6.21621521622114
30
0
41
1
10
164.161396042796
20
6.93750219542713
30
0
41
1
10
164.220186496179
20
7.29080188470624
30
0
41
1
10
164.337767402946
20
7.9774272360317
30
0
41
1
10
164.396557856329
20
8.31074470213753
30
0
41
1
10
164.514138763096
20
8.95247242375137
30
0
41
1
10
164.57292921648
20
9.26087530505461
30
0
41
1
10
164.690510123246
20
9.84844700586106
30
0
41
1
10
164.74930057663
20
10.1276099945665
30
0
41
1
10
164.866881483397
20
10.6531821617993
30
0
41
1
10
164.92567193678
20
10.8995875902407
30
0
41
1
10
165.043252843547
20
11.3570775783461
30
0
41
1
10
165.10204329693
20
11.568160737983
30
0
41
1
10
165.160833750314
20
11.760815290272
30
0
0
SPLINE
5
EE
100
AcDbEntity
8
1
62
256
6
ByLayer
370
13
48
1
60
0
100
AcDbSpline
70
4
71
3
72
14
73
10
40
0
40
0
40
0
40
0
40
0.25
40
0.25
40
0.5
40
0.5
40
0.75
40
0.75
40
1
40
1
40
1
40
1
41
1
10
164.090260621084
20
13.2955
30
0
41
1
10
164.179475048519
20
13.2955
30
0
41
1
10
164.268689475955
20
13.2616259176385
30
0
41
1
10
164.447118330827
20
13.1167120991331
30
0
41
1
10
164.536332758263
20
13.0056260066588
30
0
41
1
10
164.714761613134
20
12.6996523680428
30
0
41
1
10
164.80397604057
20
12.5047247701948
30
0
41
1
10
164.982404895442
20
12.0286358607503
30
0
41
1
10
165.071619322878
20
11.7474515917175
30
0
41
1
10
165.160833750314
20
11.4245296029854
30
0
0
SPLINE
5
EF
100
AcDbEntity
8
1
62
256
6
ByLayer
370
13
48
1
60
0
100
AcDbSpline
70
4
71
3
72
22
73
18
40
0
40
0
40
0
40
0
40
0.125
40
0.125
40
0.25
40
0.25
40
0.375
40
0.375
40
0.5
40
0.5
40
0.625
40
0.625
40
0.75
40
0.75
40
0.875
40
0.875
40
1
40
1
40
1
40
1
41
1
10
152.9
20
3.40130823361997
30
0
41
1
10
153.005423895283
20
4.08411215783164
30
0
41
1
10
153.110847790566
20
4.76733560618345
30
0
41
1
10
153.321695581133
20
6.10483961636356
30
0
41
1
10
153.427119476416
20
6.75898225085285
30
0
41
1
10
153.637967266983
20
8.00703175270658
30
0
41
1
10
153.743391162266
20
8.60078670583272
30
0
41
1
10
153.954238952832
20
9.69993343931307
30
0
41
1
10
154.059662848115
20
10.2052040217031
30
0
41
1
10
154.270510638682
20
11.1066920977015
30
0
41
1
10
154.375934533965
20
11.502855101537
30
0
41
1
10
154.586782324531
20
12.1756310810073
30
0
41
1
10
154.692206219815
20
12.4522660923572
30
0
41
1
10
154.903054010381
20
12.8861778209019
30
0
41
1
10
155.008477905664
20
13.0435348673205
30
0
41
1
10
155.219325696231
20
13.2481431969372
30
0
41
1
10
155.324749591514
20
13.2955
30
0
41
1
10
155.430173486797
20
13.2955
30
0
0
SPLINE
5
F0
100
AcDbEntity
8
1
62
256
6
ByLayer
370
13
48
1
60
0
100
AcDbSpline
70
4
71
3
72
144
73
140
40
0
40
0
40
0
40
0
40
0.015625
40
0.015625
40
0.0312499999999999
40
0.0312499999999999
40
0.0468749999999998
40
0.0468749999999998
40
0.0624999999999998
40
0.0624999999999998
40
0.0781249999999997
40
0.0781249999999997
40
0.0937499999999997
40
0.0937499999999997
40
0.109375
40
0.109375
40
0.125
40
0.125
40
0.140625
40
0.140625
40
0.15625
40
0.15625
40
0.171874999999999
40
0.171874999999999
40
0.187499999999999
40
0.187499999999999
40
0.203124999999999
40
0.203124999999999
40
0.218749999999999
40
0.218749999999999
40
0.234374999999999
40
0.234374999999999
40
0.249999999999999
40
0.249999999999999
40
0.257812499999999
40
0.257812499999999
40
0.261718749999999
40
0.261718749999999
40
0.265624999999999
40
0.265624999999999
40
0.281249999999999
40
0.281249999999999
40
0.296875
40
0.296875
40
0.3125
40
0.3125
40
0.328125
40
0.328125
40
0.34375
40
0.34375
40
0.359375
40
0.359375
40
0.375
40
0.375
40
0.390625
40
0.390625
40
0.40625
40
0.40625
40
0.421875000000001
40
0.421875000000001
40
0.437500000000001
40
0.437500000000001
40
0.453125000000001
40
0.453125000000001
40
0.468750000000001
40
0.468750000000001
40
0.484375000000001
40
0.484375000000001
40
0.500000000000001
40
0.500000000000001
40
0.515625000000001
40
0.515625000000001
40
0.519531250000001
40
0.519531250000001
40
0.523437500000001
40
0.523437500000001
40
0.531250000000001
40
0.531250000000001
40
0.546875000000001
40
0.546875000000001
40
0.562500000000001
40
0.562500000000001
40
0.578125000000001
40
0.578125000000001
40
0.593750000000001
40
0.593750000000001
40
0.609375000000001
40
0.609375000000001
40
0.625000000000001
40
0.625000000000001
40
0.640625000000001
40
0.640625000000001
40
0.656250000000001
40
0.656250000000001
40
0.671875000000001
40
0.671875000000001
40
0.687500000000001
40
0.687500000000001
40
0.703125000000001
40
0.703125000000001
40
0.718750000000001
40
0.718750000000001
40
0.734375000000001
40
0.734375000000001
40
0.750000000000001
40
0.750000000000001
40
0.765625000000001
40
0.765625000000001
40
0.773437500000001
40
0.773437500000001
40
0.781250000000001
40
0.781250000000001
40
0.796875000000001
40
0.796875000000001
40
0.8125
40
0.8125
40
0.828125
40
0.828125
40
0.84375
40
0.84375
40
0.859375
40
0.859375
40
0.875
40
0.875
40
0.890625
40
0.890625
40
0.90625
40
0.90625
40
0.921875
40
0.921875
40
0.9375
40
0.9375
40
0.953125
40
0.953125
40
0.96875
40
0.96875
40
0.984375
40
0.984375
40
1
40
1
40
1
40
1
41
1
10
153.38653365687
20
13.2955
30
0
41
1
10
153.447858136523
20
13.2955
30
0
41
1
10
153.509182616176
20
13.2795174434837
30
0
41
1
10
153.631831575483
20
13.2124175544594
30
0
41
1
10
153.693156055137
20
13.1612930870684
30
0
41
1
10
153.815805014443
20
13.0212699963861
30
0
41
1
10
153.877129494096
20
12.9323643926261
30
0
41
1
10
153.999778453403
20
12.7148975781767
30
0
41
1
10
154.061102933057
20
12.5863302930699
30
0
41
1
10
154.183751892363
20
12.2886154593446
30
0
41
1
10
154.245076372017
20
12.1194635432257
30
0
41
1
10
154.367725331323
20
11.7407713326884
30
0
41
1
10
154.429049810977
20
11.5312290953891
30
0
41
1
10
154.551698770283
20
11.0731619751323
30
0
41
1
10
154.613023249937
20
10.8246380624774
30
0
41
1
10
154.735672209243
20
10.2912433760992
30
0
41
1
10
154.796996688897
20
10.0063766227164
30
0
41
1
10
154.919645648203
20
9.40408737882376
30
0
41
1
10
154.980970127857
20
9.08667168251705
30
0
41
1
10
155.103619087164
20
8.42406731292076
30
0
41
1
10
155.164943566817
20
8.07888754276789
30
0
41
1
10
155.287592526124
20
7.36629102747085
30
0
41
1
10
155.348917005777
20
6.99888435024477
30
0
41
1
10
155.471565965084
20
6.24783481571146
30
0
41
1
10
155.532890444737
20
5.86420213556775
30
0
41
1
10
155.655539404044
20
5.08685836515235
30
0
41
1
10
155.716863883697
20
4.69315657612034
30
0
41
1
10
155.839512843004
20
3.90169345489881
30
0
41
1
10
155.900837322657
20
3.50393978319698
30
0
41
1
10
156.023486281964
20
2.70999570815067
30
0
41
1
10
156.084810761617
20
2.31381086678954
30
0
41
1
10
156.207459720924
20
1.52803139032576
30
0
41
1
10
156.268784200577
20
1.13844008241529
30
0
41
1
10
156.360770920057
20
0.56221888666613
30
0
41
1
10
156.391433159884
20
0.371500121125535
30
0
41
1
10
156.437426519624
20
0.0878012592798143
30
0
41
1
10
156.452757639537
20
-0.0060945750590236
30
0
41
1
10
156.483419879364
20
-0.194764527217473
30
0
41
1
10
156.498750999277
20
-0.289503495420064
30
0
41
1
10
156.575406598844
20
-0.765079987942386
30
0
41
1
10
156.636731078497
20
-1.15159338962377
30
0
41
1
10
156.759380037804
20
-1.93268490510431
30
0
41
1
10
156.820704517457
20
-2.32726039349302
30
0
41
1
10
156.943353476764
20
-3.11967734618497
30
0
41
1
10
157.004677956418
20
-3.51751396851793
30
0
41
1
10
157.127326915724
20
-4.31100805459957
30
0
41
1
10
157.188651395378
20
-4.70665850003815
30
0
41
1
10
157.311300354684
20
-5.48986704876171
30
0
41
1
10
157.372624834338
20
-5.87741630980059
30
0
41
1
10
157.495273793644
20
-6.63828086725951
30
0
41
1
10
157.556598273298
20
-7.01158616931085
30
0
41
1
10
157.679247232604
20
-7.73787821900737
30
0
41
1
10
157.740571712258
20
-8.09085474809098
30
0
41
1
10
157.863220671565
20
-8.77076871188461
30
0
41
1
10
157.924545151218
20
-9.09769675586068
30
0
41
1
10
158.047194110524
20
-9.72045554875444
30
0
41
1
10
158.108518590178
20
-10.016278734798
30
0
41
1
10
158.231167549485
20
-10.5726900209008
30
0
41
1
10
158.292492029138
20
-10.8332731564012
30
0
41
1
10
158.415140988445
20
-11.3161775846142
30
0
41
1
10
158.476465468098
20
-11.5384969195775
30
0
41
1
10
158.599114427405
20
-11.9430630660122
30
0
41
1
10
158.660438907058
20
-12.1253109199367
30
0
41
1
10
158.783087866365
20
-12.4491528092999
30
0
41
1
10
158.844412346018
20
-12.590750501048
30
0
41
1
10
158.967061305325
20
-12.8338678463142
30
0
41
1
10
159.028385784978
20
-12.9353931105175
30
0
41
1
10
159.151034744285
20
-13.0999566811412
30
0
41
1
10
159.212359223938
20
-13.1630017627967
30
0
41
1
10
159.335008183245
20
-13.2530224204857
30
0
41
1
10
159.396332662898
20
-13.2800051563712
30
0
41
1
10
159.472988262465
20
-13.2930850203812
30
0
41
1
10
159.488319382378
20
-13.2946697665069
30
0
41
1
10
159.518981622205
20
-13.2958283298614
30
0
41
1
10
159.534312742118
20
-13.295409840198
30
0
41
1
10
159.580306101858
20
-13.2911145176831
30
0
41
1
10
159.610968341685
20
-13.2841844744572
30
0
41
1
10
159.702955061165
20
-13.2505939780258
30
0
41
1
10
159.764279540819
20
-13.2111142963928
30
0
41
1
10
159.886928500125
20
-13.0951588732019
30
0
41
1
10
159.948252979778
20
-13.0186760247521
30
0
41
1
10
160.070901939085
20
-12.8265656195444
30
0
41
1
10
160.132226418739
20
-12.7109316088782
30
0
41
1
10
160.254875378045
20
-12.4392660339012
30
0
41
1
10
160.316199857699
20
-12.2832294666203
30
0
41
1
10
160.438848817005
20
-11.9305767381264
30
0
41
1
10
160.500173296659
20
-11.7339577853446
30
0
41
1
10
160.622822255965
20
-11.3011488332767
30
0
41
1
10
160.684146735619
20
-11.064958831564
30
0
41
1
10
160.806795694926
20
-10.5552508327758
30
0
41
1
10
160.868120174579
20
-10.2817358829469
30
0
41
1
10
160.990769133885
20
-9.70081052415179
30
0
41
1
10
161.052093613539
20
-9.39340607077131
30
0
41
1
10
161.174742572846
20
-8.74918772186464
30
0
41
1
10
161.236067052499
20
-8.41238214245661
30
0
41
1
10
161.358716011806
20
-7.71468445540097
30
0
41
1
10
161.420040491459
20
-7.35380215392777
30
0
41
1
10
161.542689450766
20
-6.61383535219966
30
0
41
1
10
161.604013930419
20
-6.2347611083743
30
0
41
1
10
161.726662889726
20
-5.46455108986618
30
0
41
1
10
161.787987369379
20
-5.07342499529005
30
0
41
1
10
161.910636328686
20
-4.28520532072943
30
0
41
1
10
161.971960808339
20
-3.8881199957639
30
0
41
1
10
162.094609767646
20
-3.09375717217847
30
0
41
1
10
162.155934247299
20
-2.69648594178293
30
0
41
1
10
162.278583206606
20
-1.90698814247881
30
0
41
1
10
162.339907686259
20
-1.51476561765111
30
0
41
1
10
162.431894405739
20
-0.933622611654386
30
0
41
1
10
162.462556645566
20
-0.741100955258077
30
0
41
1
10
162.523881125219
20
-0.35893764616111
30
0
41
1
10
162.554543365046
20
-0.169504163780374
30
0
41
1
10
162.646530084526
20
0.395090859795601
30
0
41
1
10
162.70785456418
20
0.778106043641657
30
0
41
1
10
162.830503523486
20
1.5535897574938
30
0
41
1
10
162.891828003139
20
1.94605634122715
30
0
41
1
10
163.014476962446
20
2.73587939671387
30
0
41
1
10
163.0758014421
20
3.13323175018817
30
0
41
1
10
163.198450401406
20
3.9275732592377
30
0
41
1
10
163.25977488106
20
4.32455607521089
30
0
41
1
10
163.382423840366
20
5.1123727367922
30
0
41
1
10
163.44374832002
20
5.50319826942302
30
0
41
1
10
163.566397279326
20
6.27260298191703
30
0
41
1
10
163.62772175898
20
6.65117244764292
30
0
41
1
10
163.750370718286
20
7.38992899069473
30
0
41
1
10
163.81169519794
20
7.75010580950303
30
0
41
1
10
163.934344157247
20
8.44620554457174
30
0
41
1
10
163.9956686369
20
8.78211868780474
30
0
41
1
10
164.118317596207
20
9.42438867117642
30
0
41
1
10
164.17964207586
20
9.73073726086267
30
0
41
1
10
164.302291035167
20
10.3094191713792
30
0
41
1
10
164.36361551482
20
10.5817466262854
30
0
41
1
10
164.486264474127
20
11.0889855972761
30
0
41
1
10
164.54758895378
20
11.3238941671847
30
0
41
1
10
164.670237913087
20
11.7540868984962
30
0
41
1
10
164.73156239274
20
11.9493711609286
30
0
41
1
10
164.854211352047
20
12.2993417812201
30
0
41
1
10
164.9155358317
20
12.4540310145468
30
0
41
1
10
165.038184791007
20
12.7230269901296
30
0
41
1
10
165.09950927066
20
12.8373387961785
30
0
41
1
10
165.160833750314
20
12.9321007100468
30
0
0
SPLINE
5
F1
100
AcDbEntity
8
1
62
256
6
ByLayer
370
13
48
1
60
0
100
AcDbSpline
70
4
71
3
72
22
73
18
40
0
40
0
40
0
40
0
40
0.125
40
0.125
40
0.25
40
0.25
40
0.375
40
0.375
40
0.5
40
0.5
40
0.625
40
0.625
40
0.75
40
0.75
40
0.875
40
0.875
40
1
40
1
40
1
40
1
41
1
10
163.603727577256
20
13.2955
30
0
41
1
10
163.668607001133
20
13.2955
30
0
41
1
10
163.733486425011
20
13.2776081608088
30
0
41
1
10
163.863245272765
20
13.2023032234223
30
0
41
1
10
163.928124696643
20
13.1448806605422
30
0
41
1
10
164.057883544398
20
12.9874555709903
30
0
41
1
10
164.122762968275
20
12.8874438834046
30
0
41
1
10
164.25252181603
20
12.6427616541703
30
0
41
1
10
164.317401239907
20
12.4980833850765
30
0
41
1
10
164.447160087662
20
12.163226800742
30
0
41
1
10
164.51203951154
20
11.9730433702659
30
0
41
1
10
164.641798359295
20
11.5477701576332
30
0
41
1
10
164.706677783172
20
11.3126788739547
30
0
41
1
10
164.836436630927
20
10.7997214021257
30
0
41
1
10
164.901316054804
20
10.5218579128294
30
0
41
1
10
165.031074902559
20
9.92700904827441
30
0
41
1
10
165.095954326436
20
9.6100305656407
30
0
41
1
10
165.160833750314
20
9.27600616972035
30
0
0
SPLINE
5
F2
100
AcDbEntity
8
1
62
256
6
ByLayer
370
13
48
1
60
0
100
AcDbSpline
70
4
71
3
72
22
73
18
40
0
40
0
40
0
40
0
40
0.125
40
0.125
40
0.25
40
0.25
40
0.375
40
0.375
40
0.5
40
0.5
40
0.625
40
0.625
40
0.75
40
0.75
40
0.875
40
0.875
40
1
40
1
40
1
40
1
41
1
10
152.9
20
6.50101922397704
30
0
41
1
10
152.985151685124
20
7.02484086259415
30
0
41
1
10
153.070303370248
20
7.53362579315433
30
0
41
1
10
153.240606740495
20
8.50520443691678
30
0
41
1
10
153.325758425619
20
8.96794756520694
30
0
41
1
10
153.496061795866
20
9.83344705372355
30
0
41
1
10
153.58121348099
20
10.2361644502261
30
0
41
1
10
153.751516851237
20
10.9710250263419
30
0
41
1
10
153.836668536361
20
11.3031483957947
30
0
41
1
10
154.006971906608
20
11.890548456316
30
0
41
1
10
154.092123591732
20
12.1458269787077
30
0
41
1
10
154.262426961979
20
12.577853823632
30
0
41
1
10
154.347578647103
20
12.7546226908687
30
0
41
1
10
154.517882017351
20
13.0321840011471
30
0
41
1
10
154.603033702475
20
13.1330090154252
30
0
41
1
10
154.773337072722
20
13.2646486218182
30
0
41
1
10
154.858488757846
20
13.2955
30
0
41
1
10
154.943640442969
20
13.2955
30
0
0
SPLINE
5
F3
100
AcDbEntity
8
1
62
256
6
ByLayer
370
13
48
1
60
0
100
AcDbSpline
70
4
71
3
72
134
73
130
40
0
40
0
40
0
40
0
40
0.015625
40
0.015625
40
0.03125
40
0.03125
40
0.0468750000000001
40
0.0468750000000001
40
0.0625000000000001
40
0.0625000000000001
40
0.0781250000000001
40
0.0781250000000001
40
0.0937500000000002
40
0.0937500000000002
40
0.109375
40
0.109375
40
0.125
40
0.125
40
0.140625
40
0.140625
40
0.15625
40
0.15625
40
0.171875
40
0.171875
40
0.187500000000001
40
0.187500000000001
40
0.203125000000001
40
0.203125000000001
40
0.218750000000001
40
0.218750000000001
40
0.234375000000001
40
0.234375000000001
40
0.250000000000001
40
0.250000000000001
40
0.265625000000001
40
0.265625000000001
40
0.281250000000001
40
0.281250000000001
40
0.296875000000001
40
0.296875000000001
40
0.312500000000001
40
0.312500000000001
40
0.328125000000001
40
0.328125000000001
40
0.343750000000001
40
0.343750000000001
40
0.359375000000001
40
0.359375000000001
40
0.375000000000001
40
0.375000000000001
40
0.390625000000001
40
0.390625000000001
40
0.406250000000001
40
0.406250000000001
40
0.421875000000001
40
0.421875000000001
40
0.437500000000001
40
0.437500000000001
40
0.453125
40
0.453125
40
0.46875
40
0.46875
40
0.484375
40
0.484375
40
0.5
40
0.5
40
0.515625
40
0.515625
40
0.53125
40
0.53125
40
0.546875
40
0.546875
40
0.5625
40
0.5625
40
0.578125
40
0.578125
40
0.59375
40
0.59375
40
0.609375
40
0.609375
40
0.625
40
0.625
40
0.640625
40
0.640625
40
0.65625
40
0.65625
40
0.671875
40
0.671875
40
0.6875
40
0.6875
40
0.703125
40
0.703125
40
0.718749999999999
40
0.718749999999999
40
0.734375
40
0.734375
40
0.75
40
0.75
40
0.765625
40
0.765625
40
0.78125
40
0.78125
40
0.796875
40
0.796875
40
0.8125
40
0.8125
40
0.828125
40
0.828125
40
0.84375
40
0.84375
40
0.859375
40
0.859375
40
0.875
40
0.875
40
0.890625
40
0.890625
40
0.90625
40
0.90625
40
0.921875
40
0.921875
40
0.9375
40
0.9375
40
0.953125
40
0.953125
40
0.96875
40
0.96875
40
0.984375
40
0.984375
40
1
40
1
40
1
40
1
41
1
10
152.900000613042
20
13.2955
30
0
41
1
10
152.963859118965
20
13.2955
30
0
41
1
10
153.027717624888
20
13.2781675439051
30
0
41
1
10
153.155434636735
20
13.2052694419547
30
0
41
1
10
153.219293142658
20
13.1496950547531
30
0
41
1
10
153.347010154505
20
12.9973780425071
30
0
41
1
10
153.410868660428
20
12.9006269293992
30
0
41
1
10
153.538585672275
20
12.6639328742645
30
0
41
1
10
153.602444178198
20
12.5239827049066
30
0
41
1
10
153.730161190044
20
12.2000182030233
30
0
41
1
10
153.794019695968
20
12.0159989617913
30
0
41
1
10
153.921736707814
20
11.6043613725469
30
0
41
1
10
153.985595213738
20
11.3767413480644
30
0
41
1
10
154.113312225584
20
10.8798067379919
30
0
41
1
10
154.177170731507
20
10.6104942699849
30
0
41
1
10
154.304887743354
20
10.0335139466471
30
0
41
1
10
154.368746249277
20
9.72585205157563
30
0
41
1
10
154.496463261124
20
9.07682514578818
30
0
41
1
10
154.560321767047
20
8.73546941414244
30
0
41
1
10
154.688038778894
20
8.02478902435803
30
0
41
1
10
154.751897284817
20
7.65547593981134
30
0
41
1
10
154.879614296664
20
6.89537975259731
30
0
41
1
10
154.943472802587
20
6.50460918378133
30
0
41
1
10
155.071189814434
20
5.70849465375989
30
0
41
1
10
155.135048320357
20
5.30316279836325
30
0
41
1
10
155.262765332203
20
4.48484509656839
30
0
41
1
10
155.326623838127
20
4.07186973447247
30
0
41
1
10
155.454340849973
20
3.24486396914202
30
0
41
1
10
155.518199355897
20
2.8308416078259
30
0
41
1
10
155.645916367743
20
2.00773964737957
30
0
41
1
10
155.709774873667
20
1.59866527234845
30
0
41
1
10
155.837491885513
20
0.790655903810489
30
0
41
1
10
155.901350391436
20
0.391723357407045
30
0
41
1
10
156.029067403283
20
-0.391721477139441
30
0
41
1
10
156.092925909206
20
-0.790653980693946
30
0
41
1
10
156.220642921053
20
-1.59866331702006
30
0
41
1
10
156.284501426976
20
-2.00773767974596
30
0
41
1
10
156.412218438823
20
-2.8308396245701
30
0
41
1
10
156.476076944746
20
-3.24486198257381
30
0
41
1
10
156.603793956593
20
-4.07186775141292
30
0
41
1
10
156.667652462516
20
-4.48484312033423
30
0
41
1
10
156.795369474363
20
-5.30316084667231
30
0
41
1
10
156.859227980286
20
-5.70849271979017
30
0
41
1
10
156.986944992132
20
-6.5046072964011
30
0
41
1
10
157.050803498056
20
-6.89537789408712
30
0
41
1
10
157.178520509902
20
-7.6554741498596
30
0
41
1
10
157.242379015825
20
-8.02478727409434
30
0
41
1
10
157.370096027672
20
-8.73546775314003
30
0
41
1
10
157.433954533595
20
-9.07682353435632
30
0
41
1
10
157.561671545442
20
-9.72585054767805
30
0
41
1
10
157.625530051365
20
-10.0335125007086
30
0
41
1
10
157.753247063212
20
-10.6104929464175
30
0
41
1
10
157.817105569135
20
-10.8798054788305
30
0
41
1
10
157.944822580982
20
-11.3767402219393
30
0
41
1
10
158.008681086905
20
-11.6043603150458
30
0
41
1
10
158.136398098752
20
-12.0159980434316
30
0
41
1
10
158.200256604675
20
-12.2000173551751
30
0
41
1
10
158.327973616521
20
-12.5239819977248
30
0
41
1
10
158.391832122445
20
-12.6639322372331
30
0
41
1
10
158.519549134291
20
-12.9006264302988
30
0
41
1
10
158.583407640215
20
-12.9973776111847
30
0
41
1
10
158.711124652062
20
-13.1496947549535
30
0
41
1
10
158.774983157985
20
-13.2052692058988
30
0
41
1
10
158.902700169831
20
-13.2781674300498
30
0
41
1
10
158.966558675754
20
-13.295499944602
30
0
41
1
10
159.094275687601
20
-13.2955000553978
30
0
41
1
10
159.158134193524
20
-13.2781676577601
30
0
41
1
10
159.285851205371
20
-13.2052696780103
30
0
41
1
10
159.349709711294
20
-13.1496953545524
30
0
41
1
10
159.477426723141
20
-12.9973784738292
30
0
41
1
10
159.541285229064
20
-12.9006274284991
30
0
41
1
10
159.669002240911
20
-12.6639335112957
30
0
41
1
10
159.732860746834
20
-12.523983412088
30
0
41
1
10
159.860577758681
20
-12.2000190508711
30
0
41
1
10
159.924436264604
20
-12.0159998801507
30
0
41
1
10
160.05215327645
20
-11.6043624300476
30
0
41
1
10
160.116011782374
20
-11.3767424741891
30
0
41
1
10
160.24372879422
20
-10.879807997153
30
0
41
1
10
160.307587300143
20
-10.6104955935521
30
0
41
1
10
160.43530431199
20
-10.0335153925853
30
0
41
1
10
160.499162817913
20
-9.72585355547292
30
0
41
1
10
160.62687982976
20
-9.07682675721981
30
0
41
1
10
160.690738335683
20
-8.73547107514466
30
0
41
1
10
160.81845534753
20
-8.02479077462155
30
0
41
1
10
160.882313853453
20
-7.65547772976288
30
0
41
1
10
161.0100308653
20
-6.89538161110735
30
0
41
1
10
161.073889371223
20
-6.50461107116138
30
0
41
1
10
161.20160638307
20
-5.70849658772948
30
0
41
1
10
161.265464888993
20
-5.30316475005409
30
0
41
1
10
161.393181900839
20
-4.48484707280252
30
0
41
1
10
161.457040406763
20
-4.07187171753199
30
0
41
1
10
161.584757418609
20
-3.24486595571023
30
0
41
1
10
161.648615924533
20
-2.83084359108173
30
0
41
1
10
161.776332936379
20
-2.00774161501326
30
0
41
1
10
161.840191442303
20
-1.59866722767694
30
0
41
1
10
161.967908454149
20
-0.790657826927145
30
0
41
1
10
162.031766960072
20
-0.391725260621285
30
0
41
1
10
162.159483971919
20
0.391719619818304
30
0
41
1
10
162.223342477842
20
0.790652057577489
30
0
41
1
10
162.351059489689
20
1.59866136169171
30
0
41
1
10
162.414917995612
20
2.00773571211238
30
0
41
1
10
162.542635007459
20
2.8308376413143
30
0
41
1
10
162.606493513382
20
3.2448599960056
30
0
41
1
10
162.734210525229
20
4.07186576835335
30
0
41
1
10
162.798069031152
20
4.48484114410005
30
0
41
1
10
162.925786042998
20
5.30315889498132
30
0
41
1
10
162.989644548922
20
5.70849078582035
30
0
41
1
10
163.117361560768
20
6.5046054090208
30
0
41
1
10
163.181220066692
20
6.89537603557679
30
0
41
1
10
163.308937078538
20
7.65547235990769
30
0
41
1
10
163.372795584462
20
8.02478552383045
30
0
41
1
10
163.500512596308
20
8.73546609213736
30
0
41
1
10
163.564371102231
20
9.07682192292418
30
0
41
1
10
163.692088114078
20
9.72584904378019
30
0
41
1
10
163.755946620001
20
10.0335110547699
30
0
41
1
10
163.883663631848
20
10.6104916228498
30
0
41
1
10
163.947522137771
20
10.8798042196688
30
0
41
1
10
164.075239149618
20
11.3767390958139
30
0
41
1
10
164.139097655541
20
11.6043592575444
30
0
41
1
10
164.266814667388
20
12.0159971250715
30
0
41
1
10
164.330673173311
20
12.2000165073266
30
0
41
1
10
164.458390185157
20
12.5239812905426
30
0
41
1
10
164.522248691081
20
12.6639316002013
30
0
41
1
10
164.649965702927
20
12.9006259311981
30
0
41
1
10
164.713824208851
20
12.997377179862
30
0
41
1
10
164.841541220697
20
13.1496944551536
30
0
41
1
10
164.90539972662
20
13.2052689698426
30
0
41
1
10
165.033116738467
20
13.2781673161942
30
0
41
1
10
165.09697524439
20
13.2954998892036
30
0
41
1
10
165.160833750314
20
13.2954999999995
30
0
0
SPLINE
5
F4
100
AcDbEntity
8
1
62
256
6
ByLayer
370
13
48
1
60
0
100
AcDbSpline
70
4
71
3
72
22
73
18
40
0
40
0
40
0
40
0
40
0.125
40
0.125
40
0.25
40
0.25
40
0.375
40
0.375
40
0.5
40
0.5
40
0.625
40
0.625
40
0.75
40
0.75
40
0.875
40
0.875
40
1
40
1
40
1
40
1
41
1
10
163.117194533428
20
13.2955
30
0
41
1
10
163.202346167465
20
13.2955
30
0
41
1
10
163.287497801502
20
13.2646486589314
30
0
41
1
10
163.457801069576
20
13.1330092152438
30
0
41
1
10
163.542952703612
20
13.0321843266676
30
0
41
1
10
163.713255971686
20
12.7546233644864
30
0
41
1
10
163.798407605723
20
12.5778547197327
30
0
41
1
10
163.968710873797
20
12.1458284153594
30
0
41
1
10
164.053862507834
20
11.8905502110685
30
0
41
1
10
164.224165775908
20
11.3031508699733
30
0
41
1
10
164.309317409945
20
10.9710279018005
30
0
41
1
10
164.479620678018
20
10.2361681879665
30
0
41
1
10
164.564772312055
20
9.83345125234229
30
0
41
1
10
164.735075580129
20
8.96795271321119
30
0
41
1
10
164.820227214166
20
8.50521007325386
30
0
41
1
10
164.99053048224
20
7.5336323976984
30
0
41
1
10
165.075682116277
20
7.02484794683309
30
0
41
1
10
165.160833750314
20
6.5010267663869
30
0
0
SPLINE
5
F5
100
AcDbEntity
8
1
62
256
6
ByLayer
370
13
48
1
60
0
100
AcDbSpline
70
4
71
3
72
22
73
18
40
0
40
0
40
0
40
0
40
0.125
40
0.125
40
0.25
40
0.25
40
0.375
40
0.375
40
0.5
40
0.5
40
0.625
40
0.625
40
0.75
40
0.75
40
0.875
40
0.875
40
1
40
1
40
1
40
1
41
1
10
152.9
20
9.27599985736637
30
0
41
1
10
152.964879474964
20
9.61002473041063
30
0
41
1
10
153.029758949928
20
9.9270036810027
30
0
41
1
10
153.159517899857
20
10.5218534438895
30
0
41
1
10
153.224397374821
20
10.7997173635102
30
0
41
1
10
153.35415632475
20
11.3126756422119
30
0
41
1
10
153.419035799714
20
11.5477673024078
30
0
41
1
10
153.548794749642
20
11.9730412025137
30
0
41
1
10
153.613674224607
20
12.1632249439359
30
0
41
1
10
153.743433174535
20
12.498082077842
30
0
41
1
10
153.808312649499
20
12.6427605855715
30
0
41
1
10
153.938071599428
20
12.8874432180121
30
0
41
1
10
154.002951074392
20
12.987455070194
30
0
41
1
10
154.13271002432
20
13.1448804175882
30
0
41
1
10
154.197589499285
20
13.2023030737491
30
0
41
1
10
154.327348449213
20
13.2776081325939
30
0
41
1
10
154.392227924177
20
13.2955
30
0
41
1
10
154.457107399141
20
13.2955
30
0
0
SPLINE
5
F6
100
AcDbEntity
8
1
62
256
6
ByLayer
370
13
48
1
60
0
100
AcDbSpline
70
4
71
3
72
144
73
140
40
0
40
0
40
0
40
0
40
0.0156250000000003
40
0.0156250000000003
40
0.0312500000000005
40
0.0312500000000005
40
0.0468750000000008
40
0.0468750000000008
40
0.0625000000000011
40
0.0625000000000011
40
0.0781250000000013
40
0.0781250000000013
40
0.0937500000000016
40
0.0937500000000016
40
0.109375000000002
40
0.109375000000002
40
0.125000000000002
40
0.125000000000002
40
0.140625000000002
40
0.140625000000002
40
0.156250000000003
40
0.156250000000003
40
0.171875000000003
40
0.171875000000003
40
0.187500000000003
40
0.187500000000003
40
0.203125000000003
40
0.203125000000003
40
0.218750000000004
40
0.218750000000004
40
0.226562500000004
40
0.226562500000004
40
0.234375000000004
40
0.234375000000004
40
0.250000000000004
40
0.250000000000004
40
0.265625000000004
40
0.265625000000004
40
0.281250000000004
40
0.281250000000004
40
0.296875000000003
40
0.296875000000003
40
0.312500000000003
40
0.312500000000003
40
0.328125000000003
40
0.328125000000003
40
0.343750000000003
40
0.343750000000003
40
0.359375000000003
40
0.359375000000003
40
0.375000000000003
40
0.375000000000003
40
0.390625000000003
40
0.390625000000003
40
0.406250000000003
40
0.406250000000003
40
0.421875000000003
40
0.421875000000003
40
0.437500000000003
40
0.437500000000003
40
0.453125000000003
40
0.453125000000003
40
0.468750000000003
40
0.468750000000003
40
0.476562500000003
40
0.476562500000003
40
0.480468750000003
40
0.480468750000003
40
0.484375000000003
40
0.484375000000003
40
0.500000000000002
40
0.500000000000002
40
0.515625000000002
40
0.515625000000002
40
0.531250000000001
40
0.531250000000001
40
0.546875000000001
40
0.546875000000001
40
0.5625
40
0.5625
40
0.578125
40
0.578125
40
0.59375
40
0.59375
40
0.609374999999999
40
0.609374999999999
40
0.624999999999999
40
0.624999999999999
40
0.640624999999998
40
0.640624999999998
40
0.656249999999998
40
0.656249999999998
40
0.671874999999998
40
0.671874999999998
40
0.687499999999997
40
0.687499999999997
40
0.703124999999997
40
0.703124999999997
40
0.718749999999996
40
0.718749999999996
40
0.734374999999996
40
0.734374999999996
40
0.738281249999996
40
0.738281249999996
40
0.742187499999996
40
0.742187499999996
40
0.749999999999996
40
0.749999999999996
40
0.765624999999996
40
0.765624999999996
40
0.781249999999996
40
0.781249999999996
40
0.796874999999997
40
0.796874999999997
40
0.812499999999997
40
0.812499999999997
40
0.828124999999997
40
0.828124999999997
40
0.843749999999998
40
0.843749999999998
40
0.859374999999998
40
0.859374999999998
40
0.874999999999998
40
0.874999999999998
40
0.890624999999998
40
0.890624999999998
40
0.906249999999999
40
0.906249999999999
40
0.921874999999999
40
0.921874999999999
40
0.937499999999999
40
0.937499999999999
40
0.953124999999999
40
0.953124999999999
40
0.96875
40
0.96875
40
0.984375
40
0.984375
40
1
40
1
40
1
40
1
41
1
10
152.9
20
12.9321026046548
30
0
41
1
10
152.961324486039
20
12.8373409409617
30
0
41
1
10
153.022648972078
20
12.7230293868757
30
0
41
1
10
153.145297944157
20
12.4540339118997
30
0
41
1
10
153.206622430196
20
12.2993449272025
30
0
41
1
10
153.329271402274
20
11.949374793376
30
0
41
1
10
153.390595888314
20
11.7540907687614
30
0
41
1
10
153.513244860392
20
11.3238984947474
30
0
41
1
10
153.574569346431
20
11.0889901442995
30
0
41
1
10
153.69721831851
20
10.5817515868381
30
0
41
1
10
153.758542804549
20
10.3094243259828
30
0
41
1
10
153.881191776627
20
9.73074277216901
30
0
41
1
10
153.942516262666
20
9.42439434512096
30
0
41
1
10
154.065165234745
20
8.78212465114464
30
0
41
1
10
154.126489720784
20
8.44621163466101
30
0
41
1
10
154.249138692862
20
7.75011211458084
30
0
41
1
10
154.310463178902
20
7.38993538401073
30
0
41
1
10
154.43311215098
20
6.65117897828245
30
0
41
1
10
154.494436637019
20
6.27260956164747
30
0
41
1
10
154.617085609098
20
5.50320490945475
30
0
41
1
10
154.678410095137
20
5.11237938804513
30
0
41
1
10
154.801059067215
20
4.32456271396015
30
0
41
1
10
154.862383553255
20
3.92757987427623
30
0
41
1
10
154.985032525333
20
3.13323828707323
30
0
41
1
10
155.046357011372
20
2.73588587917141
30
0
41
1
10
155.169005983451
20
1.94606268914362
30
0
41
1
10
155.23033046949
20
1.55359602531104
30
0
41
1
10
155.352979441568
20
0.778112131003269
30
0
41
1
10
155.414303927608
20
0.395096846812834
30
0
41
1
10
155.506290656666
20
-0.169498338412893
30
0
41
1
10
155.536952899686
20
-0.35893174628066
30
0
41
1
10
155.598277385725
20
-0.741095035878118
30
0
41
1
10
155.628939628745
20
-0.933616685246733
30
0
41
1
10
155.720926357804
20
-1.51475967885787
30
0
41
1
10
155.782250843843
20
-1.90698220704971
30
0
41
1
10
155.904899815921
20
-2.69648003866786
30
0
41
1
10
155.96622430196
20
-3.09375129802243
30
0
41
1
10
156.088873274039
20
-3.88811420658038
30
0
41
1
10
156.150197760078
20
-4.28519958756675
30
0
41
1
10
156.272846732156
20
-5.07341940154743
30
0
41
1
10
156.334171218196
20
-5.46454557952688
30
0
41
1
10
156.456820190274
20
-6.23475579122191
30
0
41
1
10
156.518144676313
20
-6.61383014483064
30
0
41
1
10
156.640793648392
20
-7.35379719012209
30
0
41
1
10
156.702118134431
20
-7.71467962537031
30
0
41
1
10
156.824767106509
20
-8.41237760027846
30
0
41
1
10
156.886091592548
20
-8.74918333375456
30
0
41
1
10
157.008740564627
20
-9.39340200631446
30
0
41
1
10
157.070065050666
20
-9.70080662926725
30
0
41
1
10
157.192714022744
20
-10.2817323371887
30
0
41
1
10
157.254038508784
20
-10.5552474665571
30
0
41
1
10
157.376687480862
20
-11.0649558285411
30
0
41
1
10
157.438011966901
20
-11.3011460138959
30
0
41
1
10
157.56066093898
20
-11.7339553316116
30
0
41
1
10
157.621985425019
20
-11.9305744663871
30
0
41
1
10
157.744634397097
20
-12.2832275519937
30
0
41
1
10
157.805958883136
20
-12.439264294385
30
0
41
1
10
157.928607855215
20
-12.7109302082998
30
0
41
1
10
157.989932341254
20
-12.8265643827889
30
0
41
1
10
158.112581313332
20
-13.0186751009797
30
0
41
1
10
158.173905799372
20
-13.0951580985892
30
0
41
1
10
158.29655477145
20
-13.2111138031616
30
0
41
1
10
158.357879257489
20
-13.250593617019
30
0
41
1
10
158.449865986548
20
-13.2841842981789
30
0
41
1
10
158.480528229568
20
-13.2911144007209
30
0
41
1
10
158.526521594097
20
-13.2954098087747
30
0
41
1
10
158.541852715607
20
-13.2958283261407
30
0
41
1
10
158.572514958626
20
-13.2946698183633
30
0
41
1
10
158.587846080136
20
-13.2930851001785
30
0
41
1
10
158.664501687685
20
-13.2800053765447
30
0
41
1
10
158.725826173724
20
-13.2530227551287
30
0
41
1
10
158.848475145803
20
-13.1630023280609
30
0
41
1
10
158.909799631842
20
-13.0999573625532
30
0
41
1
10
159.032448603921
20
-12.9353940227858
30
0
41
1
10
159.09377308996
20
-12.8338688732849
30
0
41
1
10
159.216422062038
20
-12.5907517525463
30
0
41
1
10
159.277746548077
20
-12.4491541706156
30
0
41
1
10
159.400395520156
20
-12.1253124924649
30
0
41
1
10
159.461720006195
20
-11.9430647399266
30
0
41
1
10
159.584368978273
20
-11.5384987844433
30
0
41
1
10
159.645693464313
20
-11.3161795390364
30
0
41
1
10
159.768342436391
20
-10.8332752751346
30
0
41
1
10
159.82966692243
20
-10.5726922143814
30
0
41
1
10
159.952315894509
20
-10.0162810606609
30
0
41
1
10
160.013640380548
20
-9.72045793224748
30
0
41
1
10
160.136289352626
20
-9.09769923605856
30
0
41
1
10
160.197613838665
20
-8.77077123115532
30
0
41
1
10
160.320262810744
20
-8.09085732648549
30
0
41
1
10
160.381587296783
20
-7.73788081745437
30
0
41
1
10
160.504236268861
20
-7.01158878935857
30
0
41
1
10
160.565560754901
20
-6.63828348886008
30
0
41
1
10
160.688209726979
20
-5.87741891741103
30
0
41
1
10
160.749534213018
20
-5.48986964083593
30
0
41
1
10
160.872183185097
20
-4.70666104606752
30
0
41
1
10
160.933507671136
20
-4.31101057012825
30
0
41
1
10
161.056156643214
20
-3.51751641068466
30
0
41
1
10
161.117481129254
20
-3.11967974549839
30
0
41
1
10
161.240130101332
20
-2.32726269759692
30
0
41
1
10
161.301454587371
20
-1.93268715685897
30
0
41
1
10
161.42410355945
20
-1.1515955300537
30
0
41
1
10
161.485428045489
20
-0.765082069402212
30
0
41
1
10
161.562083653038
20
-0.289505500718491
30
0
41
1
10
161.577414774548
20
-0.194766517160559
30
0
41
1
10
161.608077017567
20
-0.0060965340847758
30
0
41
1
10
161.623408139077
20
0.0877993050923465
30
0
41
1
10
161.669401503606
20
0.371498180149672
30
0
41
1
10
161.700063746626
20
0.562216955580169
30
0
41
1
10
161.792050475685
20
1.13843818428393
30
0
41
1
10
161.853374961724
20
1.52802951855759
30
0
41
1
10
161.976023933802
20
2.31380905643647
30
0
41
1
10
162.037348419842
20
2.70999393285121
30
0
41
1
10
162.15999739192
20
3.5039380861416
30
0
41
1
10
162.221321877959
20
3.90169180103422
30
0
41
1
10
162.343970850037
20
4.69315501573092
30
0
41
1
10
162.405295336077
20
5.08685685504591
30
0
41
1
10
162.527944308155
20
5.8642007316005
30
0
41
1
10
162.589268794195
20
6.24783346759725
30
0
41
1
10
162.711917766273
20
6.99888311748123
30
0
41
1
10
162.773242252312
20
7.36628985420015
30
0
41
1
10
162.89589122439
20
8.07888648991198
30
0
41
1
10
162.95721571043
20
8.42406632098093
30
0
41
1
10
163.079864682508
20
9.08667081149929
30
0
41
1
10
163.141189168547
20
9.40408656780582
30
0
41
1
10
163.263838140626
20
10.0063759285099
30
0
41
1
10
163.325162626665
20
10.2912427386986
30
0
41
1
10
163.447811598743
20
10.8246375334635
30
0
41
1
10
163.509136084783
20
11.073161497695
30
0
41
1
10
163.631785056861
20
11.5312287142351
30
0
41
1
10
163.6931095429
20
11.7407709962387
30
0
41
1
10
163.815758514979
20
12.1194632881648
30
0
41
1
10
163.877083001018
20
12.2886152409675
30
0
41
1
10
163.999731973096
20
12.5863301394267
30
0
41
1
10
164.061056459135
20
12.7148974525848
30
0
41
1
10
164.183705431214
20
12.9323643144103
30
0
41
1
10
164.245029917253
20
13.0212699374976
30
0
41
1
10
164.367678889331
20
13.1612930584714
30
0
41
1
10
164.429003375371
20
13.2124175368302
30
0
41
1
10
164.551652347449
20
13.2795174401511
30
0
41
1
10
164.612976833488
20
13.2955
30
0
41
1
10
164.674301319527
20
13.2955
30
0
0
SPLINE
5
F7
100
AcDbEntity
8
1
62
256
6
ByLayer
370
13
48
1
60
0
100
AcDbSpline
70
4
71
3
72
22
73
18
40
0
40
0
40
0
40
0
40
0.125
40
0.125
40
0.25
40
0.25
40
0.375
40
0.375
40
0.5
40
0.5
40
0.625
40
0.625
40
0.75
40
0.75
40
0.875
40
0.875
40
1
40
1
40
1
40
1
41
1
10
162.6306614896
20
13.2955
30
0
41
1
10
162.736085333796
20
13.2955
30
0
41
1
10
162.841509177993
20
13.2481432430284
30
0
41
1
10
163.052356866385
20
13.0435351186794
30
0
41
1
10
163.157780710582
20
12.8861782316876
30
0
41
1
10
163.368628398975
20
12.452266943173
30
0
41
1
10
163.474052243171
20
12.1756322125781
30
0
41
1
10
163.684899931564
20
11.502856904118
30
0
41
1
10
163.79032377576
20
11.1066942904863
30
0
41
1
10
164.001171464153
20
10.2052070710851
30
0
41
1
10
164.10659530835
20
9.69993695480807
30
0
41
1
10
164.317442996742
20
8.60079117978157
30
0
41
1
10
164.422866840939
20
8.00703671857835
30
0
41
1
10
164.633714529332
20
6.7589881711221
30
0
41
1
10
164.739138373528
20
6.10484599871842
30
0
41
1
10
164.949986061921
20
4.76734283464128
30
0
41
1
10
165.055409906117
20
4.08411977008839
30
0
41
1
10
165.160833750314
20
3.40131617465207
30
0
0
SPLINE
5
F8
100
AcDbEntity
8
1
62
256
6
ByLayer
370
13
48
1
60
0
100
AcDbSpline
70
4
71
3
72
14
73
10
40
0
40
0
40
0
40
0
40
0.25
40
0.25
40
0.5
40
0.5
40
0.75
40
0.75
40
1
40
1
40
1
40
1
41
1
10
152.9
20
11.4245251650315
30
0
41
1
10
152.98921452961
20
11.7474479039067
30
0
41
1
10
153.078429059219
20
12.0286328396346
30
0
41
1
10
153.256858118438
20
12.5047228841021
30
0
41
1
10
153.346072648047
20
12.6996509503327
30
0
41
1
10
153.524501707266
20
13.0056253218535
30
0
41
1
10
153.613716236876
20
13.1167116790516
30
0
41
1
10
153.792145296095
20
13.2616258398282
30
0
41
1
10
153.881359825704
20
13.2955
30
0
41
1
10
153.970574355313
20
13.2955
30
0
0
SPLINE
5
F9
100
AcDbEntity
8
1
62
256
6
ByLayer
370
13
48
1
60
0
100
AcDbSpline
70
4
71
3
72
143
73
139
40
0
40
0
40
0
40
0
40
0.0156249999999998
40
0.0156249999999998
40
0.0312499999999996
40
0.0312499999999996
40
0.0468749999999994
40
0.0468749999999994
40
0.0624999999999992
40
0.0624999999999992
40
0.078124999999999
40
0.078124999999999
40
0.0937499999999988
40
0.0937499999999988
40
0.109374999999999
40
0.109374999999999
40
0.124999999999998
40
0.124999999999998
40
0.140624999999998
40
0.140624999999998
40
0.156249999999998
40
0.156249999999998
40
0.171874999999998
40
0.171874999999998
40
0.179687499999998
40
0.179687499999998
40
0.183593749999998
40
0.183593749999998
40
0.187499999999998
40
0.187499999999998
40
0.203124999999997
40
0.203124999999997
40
0.218749999999997
40
0.218749999999997
40
0.234374999999997
40
0.234374999999997
40
0.249999999999996
40
0.249999999999996
40
0.265624999999996
40
0.265624999999996
40
0.281249999999995
40
0.281249999999995
40
0.296874999999995
40
0.296874999999995
40
0.312499999999995
40
0.312499999999995
40
0.328124999999994
40
0.328124999999994
40
0.343749999999994
40
0.343749999999994
40
0.359374999999994
40
0.359374999999994
40
0.374999999999993
40
0.374999999999993
40
0.390624999999993
40
0.390624999999993
40
0.406249999999992
40
0.406249999999992
40
0.421874999999992
40
0.421874999999992
40
0.437499999999992
40
0.437499999999992
40
0.453124999999991
40
0.453124999999991
40
0.457031249999991
40
0.457031249999991
40
0.460937499999991
40
0.468749999999992
40
0.468749999999992
40
0.484374999999992
40
0.484374999999992
40
0.499999999999993
40
0.499999999999993
40
0.515624999999993
40
0.515624999999993
40
0.531249999999994
40
0.531249999999994
40
0.546874999999994
40
0.546874999999994
40
0.562499999999995
40
0.562499999999995
40
0.578124999999995
40
0.578124999999995
40
0.593749999999996
40
0.593749999999996
40
0.609374999999996
40
0.609374999999996
40
0.624999999999997
40
0.624999999999997
40
0.640624999999997
40
0.640624999999997
40
0.656249999999997
40
0.656249999999997
40
0.671874999999998
40
0.671874999999998
40
0.687499999999998
40
0.687499999999998
40
0.703124999999999
40
0.703124999999999
40
0.718749999999999
40
0.718749999999999
40
0.7265625
40
0.7265625
40
0.73046875
40
0.73046875
40
0.734375
40
0.734375
40
0.75
40
0.75
40
0.765625
40
0.765625
40
0.781249999999999
40
0.781249999999999
40
0.796874999999999
40
0.796874999999999
40
0.812499999999999
40
0.812499999999999
40
0.828125
40
0.828125
40
0.84375
40
0.84375
40
0.859375
40
0.859375
40
0.875
40
0.875
40
0.890625
40
0.890625
40
0.90625
40
0.90625
40
0.921875
40
0.921875
40
0.9375
40
0.9375
40
0.953125
40
0.953125
40
0.96875
40
0.96875
40
1
40
1
40
1
40
1
41
1
10
152.9
20
11.7608193081078
30
0
41
1
10
152.958790459769
20
11.5681649905099
30
0
41
1
10
153.017580919538
20
11.3570820580307
30
0
41
1
10
153.135161839077
20
10.8995925024924
30
0
41
1
10
153.193952298846
20
10.6531872794448
30
0
41
1
10
153.311533218385
20
10.127615495272
30
0
41
1
10
153.370323678154
20
9.84845268421944
30
0
41
1
10
153.487904597693
20
9.26088130618348
30
0
41
1
10
153.546695057462
20
8.95247856998878
30
0
41
1
10
153.664275977
20
8.31075110276313
30
0
41
1
10
153.72306643677
20
7.97743374593313
30
0
41
1
10
153.840647356308
20
7.29080857574854
30
0
41
1
10
153.899437816078
20
6.93750895833622
30
0
41
1
10
154.017018735616
20
6.2162220856155
30
0
41
1
10
154.075809195385
20
5.84824306027602
30
0
41
1
10
154.193390114924
20
5.10302200095219
30
0
41
1
10
154.252180574693
20
4.72578750139365
30
0
41
1
10
154.369761494232
20
3.96736272545377
30
0
41
1
10
154.428551954001
20
3.58617871803287
30
0
41
1
10
154.546132873539
20
2.82483566956714
30
0
41
1
10
154.604923333309
20
2.44468128117941
30
0
41
1
10
154.722504252847
20
1.68988674935946
30
0
41
1
10
154.781294712617
20
1.31524952219979
30
0
41
1
10
154.869480402271
20
0.760342379538884
30
0
41
1
10
154.898875632155
20
0.576543125079951
30
0
41
1
10
154.942968476982
20
0.302916160650938
30
0
41
1
10
154.957666091924
20
0.21205216273944
30
0
41
1
10
154.987061321809
20
0.0310630423056466
30
0
41
1
10
155.001758936751
20
-0.0589173263340115
30
0
41
1
10
155.075247011463
20
-0.511768668404102
30
0
41
1
10
155.134037471232
20
-0.879947898089029
30
0
41
1
10
155.251618390771
20
-1.62470207685786
30
0
41
1
10
155.31040885054
20
-2.00127532590955
30
0
41
1
10
155.427989770079
20
-2.75876168935463
30
0
41
1
10
155.486780229848
20
-3.1396714091791
30
0
41
1
10
155.604361149386
20
-3.90119579018605
30
0
41
1
10
155.663151609156
20
-4.28180533153451
30
0
41
1
10
155.780732528694
20
-5.03764314889119
30
0
41
1
10
155.839522988463
20
-5.41286476210232
30
0
41
1
10
155.957103908002
20
-6.15256691348614
30
0
41
1
10
156.015894367771
20
-6.51703966029697
30
0
41
1
10
156.13347528731
20
-7.22982932422494
30
0
41
1
10
156.192265747079
20
-7.57813794329849
30
0
41
1
10
156.309846666617
20
-8.25337360084211
30
0
41
1
10
156.368637126387
20
-8.58029259174364
30
0
41
1
10
156.486218045925
20
-9.20796047317845
30
0
41
1
10
156.545008505695
20
-9.5087023488386
30
0
41
1
10
156.662589425233
20
-10.0798936687607
30
0
41
1
10
156.721379885002
20
-10.3503378125077
30
0
41
1
10
156.838960804541
20
-10.8576647650523
30
0
41
1
10
156.89775126431
20
-11.0945444574029
30
0
41
1
10
157.015332183849
20
-11.5324548744272
30
0
41
1
10
157.074122643618
20
-11.7334848544861
30
0
41
1
10
157.191703563157
20
-12.0984478480508
30
0
41
1
10
157.250494022926
20
-12.2623823815666
30
0
41
1
10
157.368074942464
20
-12.5529337976573
30
0
41
1
10
157.426865402234
20
-12.6795541058036
30
0
41
1
10
157.544446321772
20
-12.8962079096963
30
0
41
1
10
157.603236781542
20
-12.9862462092155
30
0
41
1
10
157.72081770108
20
-13.1312927433096
30
0
41
1
10
157.779608160849
20
-13.1863065642861
30
0
41
1
10
157.897189080388
20
-13.2635285991039
30
0
41
1
10
157.955979540157
20
-13.2857426110786
30
0
41
1
10
158.029467614869
20
-13.2947061392018
30
0
41
1
10
158.044165229811
20
-13.2955596650461
30
0
41
1
10
158.073560459696
20
-13.2954338676348
30
0
41
1
10
158.117653304523
20
-13.2924918168112
30
0
41
1
10
158.16174614935
20
-13.2810812632623
30
0
41
1
10
158.249931839003
20
-13.2464433690261
30
0
41
1
10
158.308722298773
20
-13.2075796485187
30
0
41
1
10
158.426303218311
20
-13.0958349181381
30
0
41
1
10
158.485093678081
20
-13.0229481528594
30
0
41
1
10
158.602674597619
20
-12.8412561091473
30
0
41
1
10
158.661465057388
20
-12.7324455742503
30
0
41
1
10
158.779045976927
20
-12.4777560492315
30
0
41
1
10
158.837836436696
20
-12.3318728956436
30
0
41
1
10
158.955417356235
20
-12.0027831192134
30
0
41
1
10
159.014207816004
20
-11.8195739987512
30
0
41
1
10
159.131788735543
20
-11.4165742898967
30
0
41
1
10
159.190579195312
20
-11.1967833221081
30
0
41
1
10
159.30816011485
20
-10.7224036908515
30
0
41
1
10
159.36695057462
20
-10.4678170034124
30
0
41
1
10
159.484531494158
20
-9.92664820362742
30
0
41
1
10
159.543321953927
20
-9.64007037945484
30
0
41
1
10
159.660902873466
20
-9.03864565226846
30
0
41
1
10
159.719693333235
20
-8.72380501059777
30
0
41
1
10
159.837274252774
20
-8.07034522612534
30
0
41
1
10
159.896064712543
20
-7.73173372662578
30
0
41
1
10
160.013645632082
20
-7.03577595012018
30
0
41
1
10
160.072436091851
20
-6.67843794918841
30
0
41
1
10
160.190017011389
20
-5.95038222520498
30
0
41
1
10
160.248807471159
20
-5.57967262637783
30
0
41
1
10
160.366388390697
20
-4.83029104927749
30
0
41
1
10
160.425178850466
20
-4.45162634442511
30
0
41
1
10
160.542759770005
20
-3.6915806206255
30
0
41
1
10
160.601550229774
20
-3.31020550364576
30
0
41
1
10
160.719131149313
20
-2.54961427708602
30
0
41
1
10
160.777921609082
20
-2.17040240356448
30
0
41
1
10
160.895502528621
20
-1.41848924079252
30
0
41
1
10
160.95429298839
20
-1.04579045423188
30
0
41
1
10
161.042478678044
20
-0.494420228487712
30
0
41
1
10
161.071873907928
20
-0.311904708418098
30
0
41
1
10
161.115966752755
20
-0.0403451514790163
30
0
41
1
10
161.130664367698
20
0.0496299147072534
30
0
41
1
10
161.160059597582
20
0.230720091536313
30
0
41
1
10
161.174757212524
20
0.321632984108305
30
0
41
1
10
161.248245287236
20
0.77791377404526
30
0
41
1
10
161.307035747005
20
1.14845676475503
30
0
41
1
10
161.424616666544
20
1.89701720332826
30
0
41
1
10
161.483407126313
20
2.27503255465075
30
0
41
1
10
161.600988045852
20
3.03433316765313
30
0
41
1
10
161.659778505621
20
3.41561461362704
30
0
41
1
10
161.77735942516
20
4.1766898628228
30
0
41
1
10
161.836149884929
20
4.55647814823089
30
0
41
1
10
161.953730804467
20
5.30939678910423
30
0
41
1
10
162.012521264237
20
5.68252016272177
30
0
41
1
10
162.130102183775
20
6.4167146154775
30
0
41
1
10
162.188892643545
20
6.77777771731039
30
0
41
1
10
162.306473563083
20
7.48245962193417
30
0
41
1
10
162.365264022852
20
7.8260701148244
30
0
41
1
10
162.482844942391
20
8.49070421398756
30
0
41
1
10
162.54163540216
20
8.81171995210556
30
0
41
1
10
162.659216321698
20
9.42651712489607
30
0
41
1
10
162.718006781468
20
9.72029190257732
30
0
41
1
10
162.835587701006
20
10.2766757263873
30
0
41
1
10
162.894378160776
20
10.5392799662041
30
0
41
1
10
163.011959080314
20
11.030281542067
30
0
41
1
10
163.070749540084
20
11.2586763285143
30
0
41
1
10
163.188330459622
20
11.6792197452271
30
0
41
1
10
163.247120919391
20
11.8713681980811
30
0
41
1
10
163.36470183893
20
12.2184226837851
30
0
41
1
10
163.423492298699
20
12.3733307375659
30
0
41
1
10
163.541073218238
20
12.6459225601956
30
0
41
1
10
163.599863678007
20
12.7636101399191
30
0
41
1
10
163.717444597545
20
12.9627042912799
30
0
41
1
10
163.776235057315
20
13.0441159106533
30
0
41
1
10
163.952606436622
20
13.2365291894055
30
0
41
1
10
164.070187356161
20
13.2955
30
0
41
1
10
164.1877682757
20
13.2955
30
0
0
SPLINE
5
FA
100
AcDbEntity
8
1
62
256
6
ByLayer
370
13
48
1
60
0
100
AcDbSpline
70
4
71
3
72
38
73
34
40
0
40
0
40
0
40
0
40
0.0625000000000001
40
0.0625000000000001
40
0.125
40
0.125
40
0.1875
40
0.1875
40
0.25
40
0.25
40
0.3125
40
0.3125
40
0.375
40
0.375
40
0.4375
40
0.4375
40
0.5
40
0.5
40
0.5625
40
0.5625
40
0.625
40
0.625
40
0.6875
40
0.6875
40
0.75
40
0.75
40
0.8125
40
0.8125
40
0.875
40
0.875
40
0.9375
40
0.9375
40
1
40
1
40
1
40
1
41
1
10
162.144128445772
20
13.2955
30
0
41
1
10
162.20697647295
20
13.2955
30
0
41
1
10
162.269824500128
20
13.2787124220114
30
0
41
1
10
162.395520554484
20
13.2081564476126
30
0
41
1
10
162.458368581662
20
13.1543799817296
30
0
41
1
10
162.584064636018
20
13.0070310252644
30
0
41
1
10
162.646912663196
20
12.9134506748632
30
0
41
1
10
162.772608717551
20
12.6845262963633
30
0
41
1
10
162.835456744729
20
12.5491755158366
30
0
41
1
10
162.961152799085
20
12.235812990111
30
0
41
1
10
163.024000826263
20
12.0577965482514
30
0
41
1
10
163.149696880619
20
11.6594511944097
30
0
41
1
10
163.212544907797
20
11.4391204732161
30
0
41
1
10
163.338240962153
20
10.9578414678779
30
0
41
1
10
163.401088989331
20
10.6968947961135
30
0
41
1
10
163.526785043687
20
10.1374298736675
30
0
41
1
10
163.589633070865
20
9.83891674830443
30
0
41
1
10
163.715329125221
20
9.20861478963877
30
0
41
1
10
163.778177152399
20
8.87683418158639
30
0
41
1
10
163.903873206755
20
8.18534065740246
30
0
41
1
10
163.966721233933
20
7.8256381988034
30
0
41
1
10
164.092417288288
20
7.0844078911866
30
0
41
1
10
164.155265315466
20
6.70289156391965
30
0
41
1
10
164.280961369822
20
5.92456951297174
30
0
41
1
10
164.343809397
20
5.52777512454648
30
0
41
1
10
164.469505451356
20
4.72551431296998
30
0
41
1
10
164.532353478534
20
4.32005792635096
30
0
41
1
10
164.65804953289
20
3.50684715077648
30
0
41
1
10
164.720897560068
20
3.09910069382576
30
0
41
1
10
164.846593614424
20
2.28716814855224
30
0
41
1
10
164.909441641602
20
1.88298746944838
30
0
41
1
10
165.035137695958
20
1.08332781082387
30
0
41
1
10
165.097985723136
20
0.687851678198285
30
0
41
1
10
165.160833750314
20
0.298876706097133
30
0
0
SPLINE
5
FB
100
AcDbEntity
8
1
62
256
6
ByLayer
370
13
48
1
60
0
100
AcDbSpline
70
4
71
3
72
10
73
6
40
0
40
0
40
0
40
0
40
0.5
40
0.5
40
1
40
1
40
1
40
1
41
1
10
152.9
20
12.7648642098642
30
0
41
1
10
152.997340218581
20
12.9484590902557
30
0
41
1
10
153.094680437162
20
13.0816672413194
30
0
41
1
10
153.289360874324
20
13.2551520385062
30
0
41
1
10
153.386701092905
20
13.2955
30
0
41
1
10
153.484041311486
20
13.2955
30
0
0
SPLINE
5
FC
100
AcDbEntity
8
1
62
256
6
ByLayer
370
13
48
1
60
0
100
AcDbSpline
70
4
71
3
72
122
73
118
40
0
40
0
40
0
40
0
40
0.0156249999999999
40
0.0156249999999999
40
0.0312499999999997
40
0.0312499999999997
40
0.0468749999999996
40
0.0468749999999996
40
0.0624999999999994
40
0.0624999999999994
40
0.0781249999999993
40
0.0781249999999993
40
0.0937499999999991
40
0.0937499999999991
40
0.124999999999999
40
0.124999999999999
40
0.140624999999999
40
0.140624999999999
40
0.148437499999999
40
0.148437499999999
40
0.156249999999999
40
0.156249999999999
40
0.187499999999999
40
0.187499999999999
40
0.218749999999999
40
0.218749999999999
40
0.234374999999999
40
0.234374999999999
40
0.249999999999999
40
0.249999999999999
40
0.265624999999999
40
0.265624999999999
40
0.281249999999999
40
0.281249999999999
40
0.296874999999999
40
0.296874999999999
40
0.312499999999999
40
0.312499999999999
40
0.328124999999999
40
0.328124999999999
40
0.343749999999999
40
0.343749999999999
40
0.359374999999999
40
0.359374999999999
40
0.374999999999999
40
0.374999999999999
40
0.406249999999999
40
0.406249999999999
40
0.421874999999999
40
0.421874999999999
40
0.429687499999999
40
0.429687499999999
40
0.433593749999999
40
0.433593749999999
40
0.437499999999999
40
0.437499999999999
40
0.468749999999999
40
0.468749999999999
40
0.499999999999999
40
0.499999999999999
40
0.515624999999999
40
0.515624999999999
40
0.531249999999999
40
0.531249999999999
40
0.546874999999999
40
0.546874999999999
40
0.562499999999999
40
0.562499999999999
40
0.578124999999999
40
0.578124999999999
40
0.593749999999999
40
0.593749999999999
40
0.609374999999999
40
0.609374999999999
40
0.624999999999999
40
0.624999999999999
40
0.640624999999999
40
0.640624999999999
40
0.65625
40
0.65625
40
0.6875
40
0.6875
40
0.703125
40
0.703125
40
0.7109375
40
0.7109375
40
0.71484375
40
0.71484375
40
0.71875
40
0.71875
40
0.75
40
0.75
40
0.78125
40
0.78125
40
0.796875
40
0.796875
40
0.8125
40
0.8125
40
0.828125000000001
40
0.828125000000001
40
0.84375
40
0.84375
40
0.859375
40
0.859375
40
0.875
40
0.875
40
0.890625
40
0.890625
40
0.90625
40
0.90625
40
0.921875
40
0.921875
40
0.9375
40
0.9375
40
0.96875
40
0.96875
40
1
40
1
40
1
40
1
41
1
10
152.9
20
9.76487379199921
30
0
41
1
10
152.956256433499
20
9.49059862631913
30
0
41
1
10
153.012512866999
20
9.20251583175335
30
0
41
1
10
153.125025733997
20
8.60234349212675
30
0
41
1
10
153.181282167497
20
8.29025956725897
30
0
41
1
10
153.293795034495
20
7.64626327982506
30
0
41
1
10
153.350051467995
20
7.31435734838018
30
0
41
1
10
153.462564334993
20
6.63527371131147
30
0
41
1
10
153.518820768493
20
6.28810267362394
30
0
41
1
10
153.631333635491
20
5.58322507771521
30
0
41
1
10
153.687590068991
20
5.22552486153637
30
0
41
1
10
153.800102935989
20
4.5043074524948
30
0
41
1
10
153.856359369489
20
4.14079580065663
30
0
41
1
10
154.025128669986
20
3.04831664486756
30
0
41
1
10
154.137641536985
20
2.31764871634502
30
0
41
1
10
154.306410837483
20
1.24176031204638
30
0
41
1
10
154.362667270983
20
0.88642677862623
30
0
41
1
10
154.447051921232
20
0.360750877058592
30
0
41
1
10
154.475180137981
20
0.18674198044053
30
0
41
1
10
154.53143657148
20
-0.158499152018351
30
0
41
1
10
154.55956478823
20
-0.33221954996273
30
0
41
1
10
154.700205871979
20
-1.20768063729943
30
0
41
1
10
154.812718738977
20
-1.92800698179889
30
0
41
1
10
155.037744472975
20
-3.38115130523479
30
0
41
1
10
155.150257339973
20
-4.11387137805778
30
0
41
1
10
155.319026640471
20
-5.19616916961775
30
0
41
1
10
155.375283073971
20
-5.55408995463662
30
0
41
1
10
155.487795940969
20
-6.25953845721114
30
0
41
1
10
155.544052374469
20
-6.60705984881483
30
0
41
1
10
155.656565241467
20
-7.28697190288381
30
0
41
1
10
155.712821674967
20
-7.61935589907986
30
0
41
1
10
155.825334541965
20
-8.26442849006514
30
0
41
1
10
155.881590975464
20
-8.57711063951973
30
0
41
1
10
155.994103842463
20
-9.17858677651734
30
0
41
1
10
156.050360275963
20
-9.467375114589
30
0
41
1
10
156.162873142961
20
-10.0174264224387
30
0
41
1
10
156.21912957646
20
-10.2786850423298
30
0
41
1
10
156.331642443459
20
-10.7707471128296
30
0
41
1
10
156.387898876958
20
-11.0015478700396
30
0
41
1
10
156.500411743957
20
-11.4305786934286
30
0
41
1
10
156.556668177457
20
-11.6288078834157
30
0
41
1
10
156.669181044455
20
-11.9914483011236
30
0
41
1
10
156.725437477955
20
-12.1558604214872
30
0
41
1
10
156.837950344953
20
-12.4504870493359
30
0
41
1
10
156.894206778453
20
-12.5807039849369
30
0
41
1
10
157.062976078951
20
-12.9207140096477
30
0
41
1
10
157.175488945949
20
-13.0795750540716
30
0
41
1
10
157.344258246447
20
-13.2249234390908
30
0
41
1
10
157.400514679947
20
-13.2579612570914
30
0
41
1
10
157.484899330196
20
-13.2860689310664
30
0
41
1
10
157.513027546945
20
-13.2918665249076
30
0
41
1
10
157.55521987207
20
-13.2954385494096
30
0
41
1
10
157.569283980444
20
-13.2957778286063
30
0
41
1
10
157.597412197194
20
-13.2947767868563
30
0
41
1
10
157.611476305569
20
-13.2934305002793
30
0
41
1
10
157.738053280942
20
-13.2735227376802
30
0
41
1
10
157.850566147941
20
-13.2001655136946
30
0
41
1
10
158.075591881938
20
-12.9249000006082
30
0
41
1
10
158.188104748937
20
-12.7228499394471
30
0
41
1
10
158.356874049435
20
-12.3168748034314
30
0
41
1
10
158.413130482934
20
-12.1644832114054
30
0
41
1
10
158.525643349933
20
-11.8256542806026
30
0
41
1
10
158.581899783432
20
-11.6392154747173
30
0
41
1
10
158.694412650431
20
-11.2332281937511
30
0
41
1
10
158.750669083931
20
-11.0136799572289
30
0
41
1
10
158.863181950929
20
-10.5432838057457
30
0
41
1
10
158.919438384428
20
-10.292437952873
30
0
41
1
10
159.031951251427
20
-9.76209623577262
30
0
41
1
10
159.088207684926
20
-9.48260417046163
30
0
41
1
10
159.200720551925
20
-8.89837091166621
30
0
41
1
10
159.256976985424
20
-8.593634962105
30
0
41
1
10
159.369489852423
20
-7.96292906334526
30
0
41
1
10
159.425746285922
20
-7.6369653433818
30
0
41
1
10
159.538259152921
20
-6.96825924948905
30
0
41
1
10
159.59451558642
20
-6.62552353060852
30
0
41
1
10
159.707028453419
20
-5.9279734929325
30
0
41
1
10
159.763284886918
20
-5.57316567947262
30
0
41
1
10
159.875797753917
20
-4.85621658419061
30
0
41
1
10
159.932054187416
20
-4.49408114732594
30
0
41
1
10
160.100823487914
20
-3.4035792137928
30
0
41
1
10
160.213336354913
20
-2.67134590035221
30
0
41
1
10
160.382105655411
20
-1.58964284782519
30
0
41
1
10
160.43836208891
20
-1.23179767996817
30
0
41
1
10
160.522746739159
20
-0.701627631817615
30
0
41
1
10
160.550874955909
20
-0.525999681147226
30
0
41
1
10
160.593067281034
20
-0.264476051851687
30
0
41
1
10
160.607131389408
20
-0.177620948218674
30
0
41
1
10
160.635259606158
20
-0.0045921487090368
30
0
41
1
10
160.649323714533
20
0.0815570436809026
30
0
41
1
10
160.775900689906
20
0.861990822885076
30
0
41
1
10
160.888413556905
20
1.57748188625169
30
0
41
1
10
161.113439290903
20
3.02598430564726
30
0
41
1
10
161.225952157901
20
3.75891144457285
30
0
41
1
10
161.394721458399
20
4.84602910372203
30
0
41
1
10
161.450977891898
20
5.20630323313571
30
0
41
1
10
161.563490758897
20
5.91799860193905
30
0
41
1
10
161.619747192396
20
6.26941373308676
30
0
41
1
10
161.732260059395
20
6.95864018315984
30
0
41
1
10
161.788516492895
20
7.29644488763711
30
0
41
1
10
161.901029359893
20
7.95380768318606
30
0
41
1
10
161.957285793392
20
8.27335919325489
30
0
41
1
10
162.069798660391
20
8.88988103899899
30
0
41
1
10
162.12605509389
20
9.18684540682364
30
0
41
1
10
162.238567960889
20
9.75435714631024
30
0
41
1
10
162.294824394388
20
10.0248996991977
30
0
41
1
10
162.407337261387
20
10.5363945374849
30
0
41
1
10
162.463593694886
20
10.7773435646611
30
0
41
1
10
162.576106561885
20
11.2272632407245
30
0
41
1
10
162.632362995384
20
11.4362324195534
30
0
41
1
10
162.744875862383
20
11.8206610675732
30
0
41
1
10
162.801132295882
20
11.9961208733458
30
0
41
1
10
162.913645162881
20
12.3128730975316
30
0
41
1
10
162.96990159638
20
12.4541674811532
30
0
41
1
10
163.138670896878
20
12.8270704249988
30
0
41
1
10
163.251183763877
20
13.0073857708048
30
0
41
1
10
163.476209497874
20
13.2415280874816
30
0
41
1
10
163.588722364873
20
13.2955
30
0
41
1
10
163.701235231872
20
13.2955
30
0
0
SPLINE
5
FD
100
AcDbEntity
8
1
62
256
6
ByLayer
370
13
48
1
60
0
100
AcDbSpline
70
4
71
3
72
38
73
34
40
0
40
0
40
0
40
0
40
0.0625
40
0.0625
40
0.125
40
0.125
40
0.1875
40
0.1875
40
0.25
40
0.25
40
0.3125
40
0.3125
40
0.375
40
0.375
40
0.4375
40
0.4375
40
0.5
40
0.5
40
0.5625
40
0.5625
40
0.625
40
0.625
40
0.6875
40
0.6875
40
0.75
40
0.75
40
0.8125
40
0.8125
40
0.875
40
0.875
40
0.9375
40
0.9375
40
1
40
1
40
1
40
1
41
1
10
161.657595401944
20
13.2955
30
0
41
1
10
161.730579534202
20
13.2955
30
0
41
1
10
161.80356366646
20
13.2728505492572
30
0
41
1
10
161.949531930975
20
13.1769851174062
30
0
41
1
10
162.022516063233
20
13.1037520767277
30
0
41
1
10
162.168484327748
20
12.9025919653738
30
0
41
1
10
162.241468460006
20
12.7746488639739
30
0
41
1
10
162.387436724521
20
12.4616185531812
30
0
41
1
10
162.460420856779
20
12.2765189723138
30
0
41
1
10
162.606389121294
20
11.8488395937462
30
0
41
1
10
162.679373253552
20
11.6062536651738
30
0
41
1
10
162.825341518067
20
11.0656666797972
30
0
41
1
10
162.898325650325
20
10.7676675887176
30
0
41
1
10
163.04429391484
20
10.1207892232656
30
0
41
1
10
163.117278047098
20
9.77192052739036
30
0
41
1
10
163.263246311613
20
9.03012006484417
30
0
41
1
10
163.336230443871
20
8.63720636517454
30
0
41
1
10
163.482198708387
20
7.81597950916776
30
0
41
1
10
163.555182840644
20
7.38768931878877
30
0
41
1
10
163.70115110516
20
6.50559282986967
30
0
41
1
10
163.774135237417
20
6.05181096333254
30
0
41
1
10
163.920103501933
20
5.12910943974032
30
0
41
1
10
163.99308763419
20
4.66021225143297
30
0
41
1
10
164.139055898706
20
3.71743689927749
30
0
41
1
10
164.212040030964
20
3.24357658120863
30
0
41
1
10
164.358008295479
20
2.30019619868077
30
0
41
1
10
164.430992427737
20
1.83068791120178
30
0
41
1
10
164.576960692252
20
0.904048477207681
30
0
41
1
10
164.64994482451
20
0.446944243201898
30
0
41
1
10
164.795913089025
20
-0.44847925606922
30
0
41
1
10
164.868897221283
20
-0.90562304433297
30
0
41
1
10
165.014865485798
20
-1.83229048194403
30
0
41
1
10
165.087849618056
20
-2.30180860348372
30
0
41
1
10
165.160833750314
20
-2.77350364231938
30
0
0
SPLINE
5
FE
100
AcDbEntity
8
1
62
256
6
ByLayer
370
13
48
1
60
0
100
AcDbSpline
70
4
71
3
72
8
73
4
40
0
40
0
40
0
40
0
40
1
40
1
40
1
40
1
41
1
10
152.9
20
13.2817982970983
30
0
41
1
10
152.932502755886
20
13.2910139238179
30
0
41
1
10
152.965005511772
20
13.2955
30
0
41
1
10
152.997508267658
20
13.2955
30
0
0
SPLINE
5
FF
100
AcDbEntity
8
1
62
256
6
ByLayer
370
13
48
1
60
0
100
AcDbSpline
70
4
71
3
72
86
73
82
40
0
40
0
40
0
40
0
40
0.0312500000000013
40
0.0312500000000013
40
0.0625000000000026
40
0.0625000000000026
40
0.0937500000000039
40
0.0937500000000039
40
0.101562500000004
40
0.101562500000004
40
0.105468750000004
40
0.105468750000004
40
0.109375000000004
40
0.109375000000004
40
0.125000000000004
40
0.125000000000004
40
0.156250000000004
40
0.156250000000004
40
0.187500000000004
40
0.187500000000004
40
0.218750000000004
40
0.218750000000004
40
0.250000000000004
40
0.250000000000004
40
0.281250000000003
40
0.281250000000003
40
0.312500000000003
40
0.312500000000003
40
0.343750000000003
40
0.343750000000003
40
0.375000000000003
40
0.375000000000003
40
0.390625000000003
40
0.390625000000003
40
0.398437500000003
40
0.398437500000003
40
0.402343750000003
40
0.402343750000003
40
0.406250000000003
40
0.406250000000003
40
0.437500000000003
40
0.437500000000003
40
0.468750000000003
40
0.468750000000003
40
0.500000000000002
40
0.500000000000002
40
0.531250000000002
40
0.531250000000002
40
0.562500000000002
40
0.562500000000002
40
0.593750000000002
40
0.593750000000002
40
0.625000000000002
40
0.625000000000002
40
0.656250000000002
40
0.656250000000002
40
0.687500000000001
40
0.687500000000001
40
0.695312500000001
40
0.695312500000001
40
0.703125000000001
40
0.703125000000001
40
0.718750000000001
40
0.718750000000001
40
0.750000000000001
40
0.750000000000001
40
0.781250000000001
40
0.781250000000001
40
0.812500000000001
40
0.812500000000001
40
0.843750000000001
40
0.843750000000001
40
0.875000000000001
40
0.875000000000001
40
0.90625
40
0.90625
40
0.9375
40
0.9375
40
0.96875
40
0.96875
40
1
40
1
40
1
40
1
41
1
10
152.9
20
7.09385103080115
30
0
41
1
10
153.007444814459
20
6.44882999867483
30
0
41
1
10
153.114889628918
20
5.77497185012859
30
0
41
1
10
153.329779257835
20
4.40250526997815
30
0
41
1
10
153.437224072294
20
3.70404152726636
30
0
41
1
10
153.652113701212
20
2.31349807280719
30
0
41
1
10
153.75955851567
20
1.62150698775949
30
0
41
1
10
153.893864533744
20
0.776386456556168
30
0
41
1
10
153.920725737359
20
0.608338876098799
30
0
41
1
10
153.961017542781
20
0.357975396965429
30
0
41
1
10
153.974448144588
20
0.274805323099088
30
0
41
1
10
154.001309348203
20
0.109071760907284
30
0
41
1
10
154.01473995001
20
0.0266976779184347
30
0
41
1
10
154.081892959047
20
-0.385945312228245
30
0
41
1
10
154.135615366276
20
-0.721090223520093
30
0
41
1
10
154.296782587964
20
-1.73782421586614
30
0
41
1
10
154.404227402423
20
-2.43092028545647
30
0
41
1
10
154.619117031341
20
-3.82205107378581
30
0
41
1
10
154.726561845799
20
-4.51999358833993
30
0
41
1
10
154.941451474717
20
-5.88956063543725
30
0
41
1
10
155.048896289176
20
-6.56103806270471
30
0
41
1
10
155.263785918093
20
-7.84447534789402
30
0
41
1
10
155.371230732552
20
-8.45626765612525
30
0
41
1
10
155.58612036147
20
-9.59006988579222
30
0
41
1
10
155.693565175929
20
-10.1119423569675
30
0
41
1
10
155.908454804846
20
-11.0433504804507
30
0
41
1
10
156.015899619305
20
-11.4528214055621
30
0
41
1
10
156.230789248222
20
-12.1477593408818
30
0
41
1
10
156.338234062681
20
-12.4332475206118
30
0
41
1
10
156.553123691599
20
-12.8801108472369
30
0
41
1
10
156.660568506058
20
-13.0415733460921
30
0
41
1
10
156.821735727746
20
-13.1979714289717
30
0
41
1
10
156.875458134975
20
-13.2358723709487
30
0
41
1
10
156.956041745819
20
-13.2727697883886
30
0
41
1
10
156.982902949434
20
-13.281746130122
30
0
41
1
10
157.023194754856
20
-13.2904229661154
30
0
41
1
10
157.036625356663
20
-13.2925174347248
30
0
41
1
10
157.063486560278
20
-13.2951449951188
30
0
41
1
10
157.076917162085
20
-13.2956787707765
30
0
41
1
10
157.197792578352
20
-13.2936012080852
30
0
41
1
10
157.30523739281
20
-13.2423837746781
30
0
41
1
10
157.520127021728
20
-13.0252779895274
30
0
41
1
10
157.627571836187
20
-12.8592740441275
30
0
41
1
10
157.842461465104
20
-12.4031334911718
30
0
41
1
10
157.949906279563
20
-12.1129113873981
30
0
41
1
10
158.164795908481
20
-11.4087252199005
30
0
41
1
10
158.27224072294
20
-10.9947430375012
30
0
41
1
10
158.487130351857
20
-10.0549700802237
30
0
41
1
10
158.594575166316
20
-9.52924722947836
30
0
41
1
10
158.809464795233
20
-8.38876573432538
30
0
41
1
10
158.916909609692
20
-7.77414657504727
30
0
41
1
10
159.13179923861
20
-6.48628327768401
30
0
41
1
10
159.239244053069
20
-5.8132067986347
30
0
41
1
10
159.454133681986
20
-4.44168367318957
30
0
41
1
10
159.561578496445
20
-3.74338253336569
30
0
41
1
10
159.776468125362
20
-2.35262308225211
30
0
41
1
10
159.883912939821
20
-1.66025459240348
30
0
41
1
10
160.018218957895
20
-0.814405126526736
30
0
41
1
10
160.04508016151
20
-0.6461989728557
30
0
41
1
10
160.098802568739
20
-0.312040491087089
30
0
41
1
10
160.125663772354
20
-0.146268306193377
30
0
41
1
10
160.206247383198
20
0.348335399404675
30
0
41
1
10
160.259969790427
20
0.68314466183466
30
0
41
1
10
160.421137012115
20
1.69902716387588
30
0
41
1
10
160.528581826574
20
2.39176399748442
30
0
41
1
10
160.743471455492
20
3.78271925169943
30
0
41
1
10
160.85091626995
20
4.4808466583099
30
0
41
1
10
161.065805898868
20
5.85140328180017
30
0
41
1
10
161.173250713327
20
6.52368618658863
30
0
41
1
10
161.388140342244
20
7.8093478783378
30
0
41
1
10
161.495585156703
20
8.42255905162619
30
0
41
1
10
161.710474785621
20
9.55971041895734
30
0
41
1
10
161.817919600079
20
10.0835121373403
30
0
41
1
10
162.032809228997
20
11.0191088346211
30
0
41
1
10
162.140254043456
20
11.4308374853509
30
0
41
1
10
162.355143672373
20
12.1304016471179
30
0
41
1
10
162.462588486832
20
12.4182568058979
30
0
41
1
10
162.67747811575
20
12.8697570102104
30
0
41
1
10
162.784922930209
20
13.0334884867779
30
0
41
1
10
162.999812559126
20
13.2463020889706
30
0
41
1
10
163.107257373585
20
13.2955
30
0
41
1
10
163.214702188044
20
13.2955
30
0
0
SPLINE
5
100
100
AcDbEntity
8
1
62
256
6
ByLayer
370
13
48
1
60
0
100
AcDbSpline
70
4
71
3
72
43
73
39
40
0
40
0
40
0
40
0
40
0.0625
40
0.0625
40
0.125
40
0.125
40
0.1875
40
0.1875
40
0.25
40
0.25
40
0.3125
40
0.3125
40
0.375
40
0.375
40
0.4375
40
0.4375
40
0.5
40
0.5
40
0.5625
40
0.5625
40
0.625
40
0.625
40
0.6875
40
0.6875
40
0.75
40
0.75
40
0.765625
40
0.765625
40
0.7734375
40
0.7734375
40
0.78125
40
0.8125
40
0.8125
40
0.875
40
0.875
40
0.9375
40
0.9375
40
1
40
1
40
1
40
1
41
1
10
161.171062358116
20
13.2955
30
0
41
1
10
161.254182595454
20
13.2955
30
0
41
1
10
161.337302832791
20
13.2661066191565
30
0
41
1
10
161.503543307466
20
13.1408534766633
30
0
41
1
10
161.586663544803
20
13.0449610890034
30
0
41
1
10
161.752904019478
20
12.7810596938642
30
0
41
1
10
161.836024256816
20
12.6130214695703
30
0
41
1
10
162.002264731491
20
12.2022194982092
30
0
41
1
10
162.085384968828
20
11.9594365432664
30
0
41
1
10
162.251625443503
20
11.4003298573756
30
0
41
1
10
162.334745680841
20
11.0840027335244
30
0
41
1
10
162.500986155515
20
10.3831458232298
30
0
41
1
10
162.584106392853
20
9.99863132648858
30
0
41
1
10
162.750346867528
20
9.17072001351016
30
0
41
1
10
162.833467104865
20
8.72735563524284
30
0
41
1
10
162.99970757954
20
7.79432066523663
30
0
41
1
10
163.082827816878
20
7.30469380499451
30
0
41
1
10
163.249068291553
20
6.29379684573522
30
0
41
1
10
163.33218852889
20
5.77257335541475
30
0
41
1
10
163.498429003565
20
4.71384391559332
30
0
41
1
10
163.581549240902
20
4.17637913216564
30
0
41
1
10
163.747789715577
20
3.09987806897632
30
0
41
1
10
163.830909952915
20
2.56087162590791
30
0
41
1
10
163.997150427589
20
1.49426350317555
30
0
41
1
10
164.080270664927
20
0.966677981595382
30
0
41
1
10
164.184170961599
20
0.320915219754084
30
0
41
1
10
164.204951020933
20
0.192442193074356
30
0
41
1
10
164.236121109934
20
0.0008555656345663
30
0
41
1
10
164.246511139602
20
-0.062815986826223
30
0
41
1
10
164.267291198936
20
-0.190780859928424
30
0
41
1
10
164.319241347272
20
-0.511613214514227
30
0
41
1
10
164.371191495608
20
-0.836850123116022
30
0
41
1
10
164.495871851614
20
-1.62407073076662
30
0
41
1
10
164.578992088952
20
-2.15783023523645
30
0
41
1
10
164.745232563627
20
-3.23167140058479
30
0
41
1
10
164.828352800964
20
-3.77173116419638
30
0
41
1
10
164.994593275639
20
-4.84439382064355
30
0
41
1
10
165.077713512976
20
-5.37696167428126
30
0
41
1
10
165.160833750314
20
-5.89824447788797
30
0
0
SPLINE
5
101
100
AcDbEntity
8
1
62
256
6
ByLayer
370
13
48
1
60
0
100
AcDbSpline
70
4
71
3
72
85
73
81
40
0
40
0
40
0
40
0
40
0.0312500000000006
40
0.0312500000000006
40
0.0625000000000012
40
0.0625000000000012
40
0.0664062500000012
40
0.0664062500000012
40
0.0703125000000012
40
0.0781250000000014
40
0.0781250000000014
40
0.0937500000000019
40
0.0937500000000019
40
0.125000000000002
40
0.125000000000002
40
0.156250000000003
40
0.156250000000003
40
0.187500000000004
40
0.187500000000004
40
0.218750000000005
40
0.218750000000005
40
0.250000000000005
40
0.250000000000005
40
0.281250000000006
40
0.281250000000006
40
0.312500000000007
40
0.312500000000007
40
0.343750000000007
40
0.343750000000007
40
0.375000000000008
40
0.375000000000008
40
0.378906250000008
40
0.378906250000008
40
0.382812500000008
40
0.390625000000008
40
0.390625000000008
40
0.406250000000008
40
0.406250000000008
40
0.437500000000007
40
0.437500000000007
40
0.468750000000007
40
0.468750000000007
40
0.500000000000006
40
0.500000000000006
40
0.531250000000006
40
0.531250000000006
40
0.562500000000005
40
0.562500000000005
40
0.593750000000005
40
0.593750000000005
40
0.625000000000004
40
0.625000000000004
40
0.656250000000004
40
0.656250000000004
40
0.687500000000003
40
0.687500000000003
40
0.691406250000003
40
0.691406250000003
40
0.695312500000003
40
0.703125000000003
40
0.703125000000003
40
0.718750000000003
40
0.718750000000003
40
0.750000000000002
40
0.750000000000002
40
0.781250000000002
40
0.781250000000002
40
0.812500000000002
40
0.812500000000002
40
0.843750000000001
40
0.843750000000001
40
0.875000000000001
40
0.875000000000001
40
0.906250000000001
40
0.906250000000001
40
0.937500000000001
40
0.937500000000001
40
0.96875
40
0.96875
40
1
40
1
40
1
40
1
41
1
10
152.9
20
4.0325127698417
30
0
41
1
10
153.002376761919
20
3.37058861478823
30
0
41
1
10
153.104753523838
20
2.70495772547403
30
0
41
1
10
153.309507047676
20
1.39089835230462
30
0
41
1
10
153.411883809595
20
0.742516229982357
30
0
41
1
10
153.527057666753
20
0.0335768517805093
30
0
41
1
10
153.539854761993
20
-0.044784248184385
30
0
41
1
10
153.565448952473
20
-0.202379609744611
30
0
41
1
10
153.603840238193
20
-0.439612025334583
30
0
41
1
10
153.642231523912
20
-0.67922043483992
30
0
41
1
10
153.719014095351
20
-1.16119195692784
30
0
41
1
10
153.770202476311
20
-1.4861908954351
30
0
41
1
10
153.923767619189
20
-2.46850350358733
30
0
41
1
10
154.026144381108
20
-3.13328371795708
30
0
41
1
10
154.230897904946
20
-4.45860888609099
30
0
41
1
10
154.333274666865
20
-5.11906585589048
30
0
41
1
10
154.538028190703
20
-6.40781883216653
30
0
41
1
10
154.640404952622
20
-7.03599127704524
30
0
41
1
10
154.845158476459
20
-8.23168829730989
30
0
41
1
10
154.947535238378
20
-8.79908285928511
30
0
41
1
10
155.152288762216
20
-9.8481067104197
30
0
41
1
10
155.254665524135
20
-10.3296361882964
30
0
41
1
10
155.459419047973
20
-11.1887707852156
30
0
41
1
10
155.561795809892
20
-11.566333961866
30
0
41
1
10
155.76654933373
20
-12.2085520310345
30
0
41
1
10
155.868926095649
20
-12.4732289500504
30
0
41
1
10
156.073679619486
20
-12.8901649631484
30
0
41
1
10
156.176056381405
20
-13.0424942162608
30
0
41
1
10
156.380809905243
20
-13.243238821031
30
0
41
1
10
156.483186667162
20
-13.2917453053236
30
0
41
1
10
156.598360524321
20
-13.2957322700491
30
0
41
1
10
156.611157619561
20
-13.2954796928625
30
0
41
1
10
156.63675181004
20
-13.2935674979206
30
0
41
1
10
156.67514309576
20
-13.2885825377911
30
0
41
1
10
156.713534381479
20
-13.2771119699704
30
0
41
1
10
156.790316952919
20
-13.2451799931578
30
0
41
1
10
156.841505333878
20
-13.2118950887352
30
0
41
1
10
156.995070476757
20
-13.0735887066704
30
0
41
1
10
157.097447238675
20
-12.929900910911
30
0
41
1
10
157.302200762513
20
-12.5306641758368
30
0
41
1
10
157.404577524432
20
-12.2750423677077
30
0
41
1
10
157.60933104827
20
-11.650645981702
30
0
41
1
10
157.711707810189
20
-11.2818447432453
30
0
41
1
10
157.916461334027
20
-10.4391795451082
30
0
41
1
10
158.018838095946
20
-9.96535235088803
30
0
41
1
10
158.223591619784
20
-8.93000504813057
30
0
41
1
10
158.325968381702
20
-8.36858093862423
30
0
41
1
10
158.53072190554
20
-7.1826578782138
30
0
41
1
10
158.633098667459
20
-6.55828787364672
30
0
41
1
10
158.837852191297
20
-5.27484602391618
30
0
41
1
10
158.940228953216
20
-4.61589950583459
30
0
41
1
10
159.144982477054
20
-3.29147531451193
30
0
41
1
10
159.247359238973
20
-2.62608912712869
30
0
41
1
10
159.45211276281
20
-1.31339754069975
30
0
41
1
10
159.554489524729
20
-0.666136618016225
30
0
41
1
10
159.669663381888
20
0.0411850468018997
30
0
41
1
10
159.682460477128
20
0.119744630546052
30
0
41
1
10
159.708054667608
20
0.277692212665698
30
0
41
1
10
159.746445953328
20
0.515437886535011
30
0
41
1
10
159.784837239047
20
0.7555121432909
30
0
41
1
10
159.861619810486
20
1.23834636525027
30
0
41
1
10
159.912808191446
20
1.56382837017449
30
0
41
1
10
160.066373334324
20
2.54726957590077
30
0
41
1
10
160.168750096243
20
3.2123721006291
30
0
41
1
10
160.373503620081
20
4.53728842655403
30
0
41
1
10
160.475880382
20
5.19701248311728
30
0
41
1
10
160.680633905838
20
6.48315489335292
30
0
41
1
10
160.783010667756
20
7.1094487785947
30
0
41
1
10
160.987764191594
20
8.30030133784956
30
0
41
1
10
161.090140953513
20
8.86473050195255
30
0
41
1
10
161.294894477351
20
9.90695006469656
30
0
41
1
10
161.39727123927
20
10.384642536047
30
0
41
1
10
161.602024763108
20
11.2355633067483
30
0
41
1
10
161.704401525027
20
11.6087522481502
30
0
41
1
10
161.909155048864
20
12.2420653852813
30
0
41
1
10
162.011531810783
20
12.5022139383753
30
0
41
1
10
162.216285334621
20
12.9102923795746
30
0
41
1
10
162.31866209654
20
13.0582938040439
30
0
41
1
10
162.523415620378
20
13.2508519176991
30
0
41
1
10
162.625792382297
20
13.2955
30
0
41
1
10
162.728169144216
20
13.2955
30
0
0
SPLINE
5
102
100
AcDbEntity
8
1
62
256
6
ByLayer
370
13
48
1
60
0
100
AcDbSpline
70
4
71
3
72
43
73
39
40
0
40
0
40
0
40
0
40
0.0625
40
0.0625
40
0.125
40
0.125
40
0.1875
40
0.1875
40
0.25
40
0.25
40
0.3125
40
0.3125
40
0.375
40
0.375
40
0.4375
40
0.4375
40
0.5
40
0.5
40
0.5625
40
0.5625
40
0.625
40
0.625
40
0.65625
40
0.65625
40
0.671875
40
0.6796875
40
0.6796875
40
0.6875
40
0.6875
40
0.75
40
0.75
40
0.8125
40
0.8125
40
0.875
40
0.875
40
0.9375
40
0.9375
40
1
40
1
40
1
40
1
41
1
10
160.684529314288
20
13.2955
30
0
41
1
10
160.777785656706
20
13.2955
30
0
41
1
10
160.871041999123
20
13.2584771596748
30
0
41
1
10
161.057554683957
20
13.0996898857136
30
0
41
1
10
161.150811026374
20
12.9778677310489
30
0
41
1
10
161.337323711209
20
12.6421767808923
30
0
41
1
10
161.430580053626
20
12.4282594426739
30
0
41
1
10
161.61709273846
20
11.9062197614363
30
0
41
1
10
161.710349080877
20
11.5980726707014
30
0
41
1
10
161.896861765712
20
10.8917172857047
30
0
41
1
10
161.990118108129
20
10.4935189934131
30
0
41
1
10
162.176630792963
20
9.61776416052271
30
0
41
1
10
162.269887135381
20
9.14025414693532
30
0
41
1
10
162.456399820215
20
8.12228596572805
30
0
41
1
10
162.549656162632
20
7.58190133212381
30
0
41
1
10
162.736168847467
20
6.45845293805871
30
0
41
1
10
162.829425189884
20
5.87547207573112
30
0
41
1
10
163.015937874718
20
4.68853945575302
30
0
41
1
10
163.109194217135
20
4.08466113106559
30
0
41
1
10
163.29570690197
20
2.87666549883954
30
0
41
1
10
163.388963244387
20
2.27259889774342
30
0
41
1
10
163.528847758013
20
1.37970690158824
30
0
41
1
10
163.575475929221
20
1.08425035972536
30
0
41
1
10
163.645418186034
20
0.645719381870464
30
0
41
1
10
163.680389314441
20
0.42761432128421
30
0
41
1
10
163.715360442847
20
0.21148306457269
30
0
41
1
10
163.738674528451
20
0.0678581219186469
30
0
41
1
10
163.750331571254
20
-0.0035641058194926
30
0
41
1
10
163.855244956473
20
-0.648620245341789
30
0
41
1
10
163.94850129889
20
-1.23721171391688
30
0
41
1
10
164.135013983725
20
-2.43064314733778
30
0
41
1
10
164.228270326142
20
-3.03545729266077
30
0
41
1
10
164.414783010976
20
-4.24322952787142
30
0
41
1
10
164.508039353393
20
-4.84613461045632
30
0
41
1
10
164.694552038228
20
-6.02922887134903
30
0
41
1
10
164.787808380645
20
-6.60934314203311
30
0
41
1
10
164.974321065479
20
-7.72518893942703
30
0
41
1
10
165.067577407896
20
-8.26083759958547
30
0
41
1
10
165.160833750314
20
-8.76427215376913
30
0
0
SPLINE
5
103
100
AcDbEntity
8
1
62
256
6
ByLayer
370
13
48
1
60
0
100
AcDbSpline
70
4
71
3
72
74
73
70
40
0
40
0
40
0
40
0
40
0.0156249999999998
40
0.0156249999999998
40
0.0312499999999996
40
0.0312499999999996
40
0.0624999999999994
40
0.0624999999999994
40
0.0937499999999993
40
0.0937499999999993
40
0.124999999999999
40
0.124999999999999
40
0.156249999999999
40
0.156249999999999
40
0.187499999999999
40
0.187499999999999
40
0.218749999999999
40
0.218749999999999
40
0.249999999999999
40
0.249999999999999
40
0.281249999999998
40
0.281249999999998
40
0.312499999999998
40
0.312499999999998
40
0.343749999999998
40
0.343749999999998
40
0.374999999999998
40
0.374999999999998
40
0.406249999999998
40
0.406249999999998
40
0.437499999999998
40
0.437499999999998
40
0.468749999999998
40
0.468749999999998
40
0.499999999999998
40
0.499999999999998
40
0.531249999999998
40
0.531249999999998
40
0.562499999999998
40
0.562499999999998
40
0.593749999999997
40
0.593749999999997
40
0.624999999999997
40
0.624999999999997
40
0.656249999999997
40
0.656249999999997
40
0.671874999999997
40
0.671874999999997
40
0.687499999999997
40
0.687499999999997
40
0.718749999999997
40
0.718749999999997
40
0.749999999999998
40
0.749999999999998
40
0.781249999999998
40
0.781249999999998
40
0.812499999999998
40
0.812499999999998
40
0.843749999999999
40
0.843749999999999
40
0.874999999999999
40
0.874999999999999
40
0.906249999999999
40
0.906249999999999
40
0.937499999999999
40
0.937499999999999
40
0.96875
40
0.96875
40
1
40
1
40
1
40
1
41
1
10
152.9
20
0.907277298847561
30
0
41
1
10
152.948654354689
20
0.601387357758114
30
0
41
1
10
152.997308709379
20
0.29875220062803
30
0
41
1
10
153.094617418758
20
-0.298166703609212
30
0
41
1
10
153.143271773448
20
-0.600791525351383
30
0
41
1
10
153.289234837516
20
-1.5184486291991
30
0
41
1
10
153.386543546895
20
-2.14338630318218
30
0
41
1
10
153.581160965653
20
-3.40118519466259
30
0
41
1
10
153.678469675032
20
-4.03399681123614
30
0
41
1
10
153.87308709379
20
-5.28504657154406
30
0
41
1
10
153.970395803169
20
-5.90320237454858
30
0
41
1
10
154.165013221927
20
-7.10038294395599
30
0
41
1
10
154.262321931307
20
-7.67930654115935
30
0
41
1
10
154.456939350064
20
-8.77422352967903
30
0
41
1
10
154.554248059444
20
-9.29012070753384
30
0
41
1
10
154.748865478202
20
-10.23900341248
30
0
41
1
10
154.846174187581
20
-10.6719227343161
30
0
41
1
10
155.040791606339
20
-11.4412151840358
30
0
41
1
10
155.138100315718
20
-11.7775678453038
30
0
41
1
10
155.332717734476
20
-12.3477871283947
30
0
41
1
10
155.430026443855
20
-12.581679283991
30
0
41
1
10
155.624643862613
20
-12.9486421921111
30
0
41
1
10
155.721952571992
20
-13.0817710569636
30
0
41
1
10
155.91656999075
20
-13.2551599784408
30
0
41
1
10
156.013878700129
20
-13.2954912363888
30
0
41
1
10
156.208496118887
20
-13.2955087607464
30
0
41
1
10
156.305804828266
20
-13.2551965125991
30
0
41
1
10
156.500422247024
20
-13.0818478909262
30
0
41
1
10
156.597730956403
20
-12.9487403151547
30
0
41
1
10
156.792348375162
20
-12.5818211085331
30
0
41
1
10
156.88965708454
20
-12.3479513603214
30
0
41
1
10
157.084274503299
20
-11.7777764727539
30
0
41
1
10
157.181583212678
20
-11.441445790678
30
0
41
1
10
157.376200631436
20
-10.6721951644548
30
0
41
1
10
157.473509340815
20
-10.2392956763369
30
0
41
1
10
157.668126759573
20
-9.29044891880994
30
0
41
1
10
157.765435468952
20
-8.77456784589663
30
0
41
1
10
157.96005288771
20
-7.67967819662891
30
0
41
1
10
158.057361597089
20
-7.10076582976919
30
0
41
1
10
158.251979015847
20
-5.90360233527966
30
0
41
1
10
158.349287725226
20
-5.28545237859987
30
0
41
1
10
158.543905143984
20
-4.03440907996742
30
0
41
1
10
158.641213853363
20
-3.40159808481729
30
0
41
1
10
158.835831272122
20
-2.14379590534793
30
0
41
1
10
158.9331399815
20
-1.51885432968328
30
0
41
1
10
159.079103045569
20
-0.601188745936696
30
0
41
1
10
159.127757400259
20
-0.298555220048257
30
0
41
1
10
159.225066109638
20
0.298360054968612
30
0
41
1
10
159.273720464327
20
0.600990135134424
30
0
41
1
10
159.419683528396
20
1.51865147907409
30
0
41
1
10
159.516992237775
20
2.14359110400818
30
0
41
1
10
159.711609656533
20
3.40139163972807
30
0
41
1
10
159.808918365912
20
4.0342029457247
30
0
41
1
10
160.00353578467
20
5.2852494754772
30
0
41
1
10
160.100844494049
20
5.90340235546677
30
0
41
1
10
160.295461912807
20
7.10057438770565
30
0
41
1
10
160.392770622186
20
7.67949236988008
30
0
41
1
10
160.587388040944
20
8.7743956890366
30
0
41
1
10
160.684696750323
20
9.29028481454043
30
0
41
1
10
160.879314169081
20
10.2391495459783
30
0
41
1
10
160.97662287846
20
10.6720589510366
30
0
41
1
10
161.171240297219
20
11.4413304891243
30
0
41
1
10
161.268549006598
20
11.7776721608313
30
0
41
1
10
161.463166425356
20
12.3478692461845
30
0
41
1
10
161.560475134735
20
12.5817501980777
30
0
41
1
10
161.755092553493
20
12.9486912553894
30
0
41
1
10
161.852401262872
20
13.081809475653
30
0
41
1
10
162.04701868163
20
13.255178247106
30
0
41
1
10
162.144327391009
20
13.2955
30
0
41
1
10
162.241636100388
20
13.2955
30
0
0
SPLINE
5
104
100
AcDbEntity
8
1
62
256
6
ByLayer
370
13
48
1
60
0
100
AcDbSpline
70
4
71
3
72
42
73
38
40
0
40
0
40
0
40
0
40
0.0625000000000001
40
0.0625000000000001
40
0.125
40
0.125
40
0.1875
40
0.1875
40
0.25
40
0.25
40
0.3125
40
0.3125
40
0.375000000000001
40
0.375000000000001
40
0.437500000000001
40
0.437500000000001
40
0.500000000000001
40
0.500000000000001
40
0.5625
40
0.5625
40
0.593750000000001
40
0.593750000000001
40
0.609375000000001
40
0.609375000000001
40
0.625000000000001
40
0.625000000000001
40
0.687500000000001
40
0.687500000000001
40
0.750000000000001
40
0.750000000000001
40
0.812500000000001
40
0.812500000000001
40
0.875
40
0.875
40
0.9375
40
0.9375
40
1
40
1
40
1
40
1
41
1
10
160.19799627046
20
13.2955
30
0
41
1
10
160.301388717957
20
13.2955
30
0
41
1
10
160.404781165454
20
13.2499580173221
30
0
41
1
10
160.611566060448
20
13.0534261663112
30
0
41
1
10
160.714958507945
20
12.9023403706307
30
0
41
1
10
160.921743402939
20
12.4857428016405
30
0
41
1
10
161.025135850436
20
12.2201566183068
30
0
41
1
10
161.23192074543
20
11.5738145422619
30
0
41
1
10
161.335313192927
20
11.193034910618
30
0
41
1
10
161.542098087921
20
10.3253772074716
30
0
41
1
10
161.645490535418
20
9.83854319438649
30
0
41
1
10
161.852275430412
20
8.77740522980466
30
0
41
1
10
161.955667877908
20
8.20320659827144
30
0
41
1
10
162.162452772902
20
6.99323344585036
30
0
41
1
10
162.265845220399
20
6.35759571956382
30
0
41
1
10
162.472630115393
20
5.05413943616452
30
0
41
1
10
162.57602256289
20
4.38644991618264
30
0
41
1
10
162.782807457884
20
3.04764689997964
30
0
41
1
10
162.886199905381
20
2.37662396019883
30
0
41
1
10
163.041288576626
20
1.38606214518674
30
0
41
1
10
163.092984800375
20
1.05849702668729
30
0
41
1
10
163.170529135997
20
0.572977529557534
30
0
41
1
10
163.196377247872
20
0.41210600649211
30
0
41
1
10
163.24807347162
20
0.092577964498787
30
0
41
1
10
163.273921583494
20
-0.0654305228099474
30
0
41
1
10
163.403162142866
20
-0.863618614500496
30
0
41
1
10
163.506554590363
20
-1.52025689713057
30
0
41
1
10
163.713339485356
20
-2.84960087173383
30
0
41
1
10
163.816731932853
20
-3.52225437192061
30
0
41
1
10
164.023516827847
20
-4.85781808810859
30
0
41
1
10
164.126909275344
20
-5.52062685235396
30
0
41
1
10
164.333694170338
20
-6.8073103668159
30
0
41
1
10
164.437086617835
20
-7.43105091060153
30
0
41
1
10
164.643871512829
20
-8.61064659655858
30
0
41
1
10
164.747263960326
20
-9.16636887295863
30
0
41
1
10
164.95404885532
20
-10.1853668717173
30
0
41
1
10
165.057441302817
20
-10.6485497514126
30
0
41
1
10
165.160833750314
20
-11.0571892492518
30
0
0
SPLINE
5
105
100
AcDbEntity
8
1
62
256
6
ByLayer
370
13
48
1
60
0
100
AcDbSpline
70
4
71
3
72
81
73
77
40
0
40
0
40
0
40
0
40
0.0312500000000004
40
0.0312500000000004
40
0.0625000000000007
40
0.0625000000000007
40
0.0937500000000011
40
0.0937500000000011
40
0.125000000000001
40
0.125000000000001
40
0.156250000000002
40
0.156250000000002
40
0.187500000000002
40
0.187500000000002
40
0.218750000000002
40
0.218750000000002
40
0.250000000000003
40
0.250000000000003
40
0.281250000000003
40
0.281250000000003
40
0.296875000000003
40
0.296875000000003
40
0.304687500000003
40
0.304687500000003
40
0.308593750000003
40
0.308593750000003
40
0.312500000000003
40
0.312500000000003
40
0.343750000000004
40
0.343750000000004
40
0.375000000000004
40
0.375000000000004
40
0.406250000000004
40
0.406250000000004
40
0.437500000000005
40
0.437500000000005
40
0.468750000000005
40
0.468750000000005
40
0.500000000000005
40
0.500000000000005
40
0.531250000000006
40
0.531250000000006
40
0.562500000000006
40
0.562500000000006
40
0.593750000000006
40
0.593750000000006
40
0.625000000000007
40
0.625000000000007
40
0.640625000000007
40
0.640625000000007
40
0.648437500000007
40
0.652343750000007
40
0.652343750000007
40
0.656250000000007
40
0.656250000000007
40
0.687500000000006
40
0.687500000000006
40
0.718750000000006
40
0.718750000000006
40
0.750000000000005
40
0.750000000000005
40
0.781250000000004
40
0.781250000000004
40
0.812500000000004
40
0.812500000000004
40
0.843750000000003
40
0.843750000000003
40
0.875000000000002
40
0.875000000000002
40
0.906250000000002
40
0.906250000000002
40
0.937500000000001
40
0.937500000000001
40
0.968750000000001
40
0.968750000000001
40
1
40
1
40
1
40
1
41
1
10
152.9
20
-2.14495179526224
30
0
41
1
10
152.992240656839
20
-2.73765063299788
30
0
41
1
10
153.084481313678
20
-3.33685672424352
30
0
41
1
10
153.268962627357
20
-4.53027281767237
30
0
41
1
10
153.361203284196
20
-5.12442869392251
30
0
41
1
10
153.545684597874
20
-6.28729583505771
30
0
41
1
10
153.637925254713
20
-6.85593399951878
30
0
41
1
10
153.822406568392
20
-7.94687810690857
30
0
41
1
10
153.914647225231
20
-8.46910592641032
30
0
41
1
10
154.099128538909
20
-9.44823160605438
30
0
41
1
10
154.191369195748
20
-9.90506414946978
30
0
41
1
10
154.375850509427
20
-10.7385130365688
30
0
41
1
10
154.468091166266
20
-11.1150920679689
30
0
41
1
10
154.652572479944
20
-11.7788517362242
30
0
41
1
10
154.744813136783
20
-12.0660298046811
30
0
41
1
10
154.929294450462
20
-12.5481238789151
30
0
41
1
10
155.021535107301
20
-12.7430684503279
30
0
41
1
10
155.206016420979
20
-13.0437372425491
30
0
41
1
10
155.298257077818
20
-13.1495099470581
30
0
41
1
10
155.436618063077
20
-13.2470610017103
30
0
41
1
10
155.482738391497
20
-13.2694251829755
30
0
41
1
10
155.551918884126
20
-13.2886933816254
30
0
41
1
10
155.574979048336
20
-13.2927377798635
30
0
41
1
10
155.609569294651
20
-13.2953662605675
30
0
41
1
10
155.621099376755
20
-13.295670374859
30
0
41
1
10
155.644159540965
20
-13.2951507820487
30
0
41
1
10
155.65568962307
20
-13.2943240234825
30
0
41
1
10
155.759460362014
20
-13.2816812413867
30
0
41
1
10
155.851701018853
20
-13.2333442565361
30
0
41
1
10
156.036182332532
20
-13.0525135386245
30
0
41
1
10
156.128422989371
20
-12.9199655554582
30
0
41
1
10
156.312904303049
20
-12.5642338151972
30
0
41
1
10
156.405144959888
20
-12.3410062531711
30
0
41
1
10
156.589626273567
20
-11.8025427968904
30
0
41
1
10
156.681866930406
20
-11.4872869736115
30
0
41
1
10
156.866348244084
20
-10.769507798382
30
0
41
1
10
156.958588900923
20
-10.3669977751167
30
0
41
1
10
157.143070214602
20
-9.48569301623007
30
0
41
1
10
157.235310871441
20
-9.00694539357153
30
0
41
1
10
157.419792185119
20
-7.98947543942336
30
0
41
1
10
157.512032841958
20
-7.45082423822649
30
0
41
1
10
157.696514155637
20
-6.33336358625286
30
0
41
1
10
157.788754812476
20
-5.75463254725099
30
0
41
1
10
157.973236126154
20
-4.57802323066599
30
0
41
1
10
158.065476782993
20
-3.98021338774646
30
0
41
1
10
158.249958096672
20
-2.78538510364092
30
0
41
1
10
158.342198753511
20
-2.18841331128112
30
0
41
1
10
158.48055973877
20
-1.30637508351606
30
0
41
1
10
158.526680067189
20
-1.01457246124082
30
0
41
1
10
158.595860559819
20
-0.581516115557491
30
0
41
1
10
158.630450806133
20
-0.366146924327211
30
0
41
1
10
158.665041052448
20
-0.15273918235539
30
0
41
1
10
158.688101216658
20
-0.0109261208737905
30
0
41
1
10
158.699631298763
20
0.0597062737957685
30
0
41
1
10
158.803402037707
20
0.69880795644076
30
0
41
1
10
158.895642694546
20
1.28158222570445
30
0
41
1
10
159.080124008224
20
2.46267939614742
30
0
41
1
10
159.172364665063
20
3.06097731140213
30
0
41
1
10
159.356845978742
20
4.25554913538156
30
0
41
1
10
159.449086635581
20
4.85177259868729
30
0
41
1
10
159.633567949259
20
6.02200162823331
30
0
41
1
10
159.725808606098
20
6.59593627111821
30
0
41
1
10
159.910289919777
20
7.70062070170107
30
0
41
1
10
160.002530576616
20
8.23129200715414
30
0
41
1
10
160.187011890294
20
9.23000798530953
30
0
41
1
10
160.279252547133
20
9.69798423854192
30
0
41
1
10
160.463733860812
20
10.5556672831033
30
0
41
1
10
160.555974517651
20
10.9453317612502
30
0
41
1
10
160.740455831329
20
11.6362657023457
30
0
41
1
10
160.832696488168
20
11.9375272438047
30
0
41
1
10
161.017177801847
20
12.4478231507808
30
0
41
1
10
161.109418458686
20
12.6568818913397
30
0
41
1
10
161.293899772364
20
12.9849689092026
30
0
41
1
10
161.386140429203
20
13.1040434961106
30
0
41
1
10
161.570621742882
20
13.2592817018341
30
0
41
1
10
161.662862399721
20
13.2955
30
0
41
1
10
161.75510305656
20
13.2955
30
0
0
SPLINE
5
106
100
AcDbEntity
8
1
62
256
6
ByLayer
370
13
48
1
60
0
100
AcDbSpline
70
4
71
3
72
58
73
54
40
0
40
0
40
0
40
0
40
0.0624999999999998
40
0.0624999999999998
40
0.125
40
0.125
40
0.15625
40
0.15625
40
0.1875
40
0.1875
40
0.218749999999999
40
0.218749999999999
40
0.249999999999999
40
0.249999999999999
40
0.281249999999999
40
0.281249999999999
40
0.312499999999999
40
0.312499999999999
40
0.343749999999999
40
0.343749999999999
40
0.374999999999999
40
0.374999999999999
40
0.406249999999999
40
0.406249999999999
40
0.437499999999999
40
0.437499999999999
40
0.499999999999999
40
0.499999999999999
40
0.562499999999999
40
0.562499999999999
40
0.624999999999999
40
0.624999999999999
40
0.6875
40
0.6875
40
0.71875
40
0.71875
40
0.75
40
0.75
40
0.78125
40
0.78125
40
0.8125
40
0.8125
40
0.84375
40
0.84375
40
0.875
40
0.875
40
0.90625
40
0.90625
40
0.9375
40
0.9375
40
0.96875
40
0.96875
40
1
40
1
40
1
40
1
41
1
10
159.711463226632
20
13.2955
30
0
41
1
10
159.824991779209
20
13.2955
30
0
41
1
10
159.938520331786
20
13.2405443045561
30
0
41
1
10
160.165577436939
20
13.0019978136872
30
0
41
1
10
160.279105989516
20
12.8182556087542
30
0
41
1
10
160.449398818381
20
12.4382775520324
30
0
41
1
10
160.506163094669
20
12.294305638712
30
0
41
1
10
160.619691647246
20
11.9715887804528
30
0
41
1
10
160.676455923534
20
11.7928418507054
30
0
41
1
10
160.789984476111
20
11.4012912917081
30
0
41
1
10
160.846748752399
20
11.1884874098411
30
0
41
1
10
160.960277304976
20
10.730445043188
30
0
41
1
10
161.017041581264
20
10.4852082170641
30
0
41
1
10
161.130570133841
20
9.9648072418054
30
0
41
1
10
161.187334410129
20
9.68964662882334
30
0
41
1
10
161.300862962706
20
9.11271226866984
30
0
41
1
10
161.357627238994
20
8.8109436772942
30
0
41
1
10
161.471155791571
20
8.18478286080804
30
0
41
1
10
161.52792006786
20
7.86039695956103
30
0
41
1
10
161.641448620436
20
7.19349221479339
30
0
41
1
10
161.698212896725
20
6.85098028476287
30
0
41
1
10
161.811741449301
20
6.15261446148892
30
0
41
1
10
161.86850572559
20
5.79676745459201
30
0
41
1
10
161.982034278166
20
5.07661334306621
30
0
41
1
10
162.038798554455
20
4.71231253260123
30
0
41
1
10
162.20909138332
20
3.61387933904587
30
0
41
1
10
162.322619935896
20
2.87444346737874
30
0
41
1
10
162.54967704105
20
1.41547194057372
30
0
41
1
10
162.663205593626
20
0.696034652902938
30
0
41
1
10
162.89026269878
20
-0.696801214604108
30
0
41
1
10
163.003791251356
20
-1.4162678264646
30
0
41
1
10
163.23084835651
20
-2.87525351917017
30
0
41
1
10
163.344376909087
20
-3.61469082689643
30
0
41
1
10
163.514669737952
20
-4.71311585966063
30
0
41
1
10
163.57143401424
20
-5.07741224096497
30
0
41
1
10
163.684962566817
20
-5.79755392969608
30
0
41
1
10
163.741726843105
20
-6.15339294234417
30
0
41
1
10
163.855255395682
20
-6.85173920312135
30
0
41
1
10
163.91201967197
20
-7.19423956466548
30
0
41
1
10
164.025548224547
20
-7.86111774105092
30
0
41
1
10
164.082312500835
20
-8.18548864260762
30
0
41
1
10
164.195841053412
20
-8.81161632371436
30
0
41
1
10
164.2526053297
20
-9.11336678005637
30
0
41
1
10
164.366133882277
20
-9.69026216941808
30
0
41
1
10
164.422898158565
20
-9.96540194768534
30
0
41
1
10
164.536426711142
20
-10.4857591021391
30
0
41
1
10
164.59319098743
20
-10.7309729434826
30
0
41
1
10
164.706719540007
20
-11.1889678168048
30
0
41
1
10
164.763483816295
20
-11.4017471915392
30
0
41
1
10
164.877012368872
20
-11.7932478768078
30
0
41
1
10
164.93377664516
20
-11.9719694413198
30
0
41
1
10
165.047305197737
20
-12.294635368338
30
0
41
1
10
165.104069474025
20
-12.4385817168137
30
0
41
1
10
165.160833750314
20
-12.5652157111911
30
0
0
SPLINE
5
107
100
AcDbEntity
8
1
62
256
6
ByLayer
370
13
48
1
60
0
100
AcDbSpline
70
4
71
3
72
8
73
4
40
0
40
0
40
0
40
0
40
1
40
1
40
1
40
1
41
1
10
165.160833750314
20
1.61721092030123
30
0
41
1
10
166.773889166876
20
1.05685347933016
30
0
41
1
10
168.386944583438
20
0.517776943809793
30
0
41
1
10
170
20
2.84E-14
30
0
0
SPLINE
5
108
100
AcDbEntity
8
1
62
256
6
ByLayer
370
13
48
1
60
0
100
AcDbSpline
70
4
71
3
72
8
73
4
40
0
40
0
40
0
40
0
40
1
40
1
40
1
40
1
41
1
10
165.160833750314
20
-2.30730149458017
30
0
41
1
10
166.773889166876
20
-1.51708002794197
30
0
41
1
10
168.386944583438
20
-0.747970606982534
30
0
41
1
10
170
20
0
30
0
0
SPLINE
5
109
100
AcDbEntity
8
1
62
256
6
ByLayer
370
13
48
1
60
0
100
AcDbSpline
70
4
71
3
72
8
73
4
40
0
40
0
40
0
40
0
40
1
40
1
40
1
40
1
41
1
10
165.160833750314
20
-12.1359109700048
30
0
41
1
10
166.773889166876
20
-8.09936695952672
30
0
41
1
10
168.386944583438
20
-4.05401590325295
30
0
41
1
10
170
20
-2.842E-13
30
0
0
SPLINE
5
10A
100
AcDbEntity
8
1
62
256
6
ByLayer
370
13
48
1
60
0
100
AcDbSpline
70
4
71
3
72
8
73
4
40
0
40
0
40
0
40
0
40
1
40
1
40
1
40
1
41
1
10
165.160833750314
20
-4.33776761128476
30
0
41
1
10
166.773889166876
20
-2.9121179205508
30
0
41
1
10
168.386944583438
20
-1.46617837439854
30
0
41
1
10
170
20
-1.137E-13
30
0
0
SPLINE
5
10B
100
AcDbEntity
8
1
62
256
6
ByLayer
370
13
48
1
60
0
100
AcDbSpline
70
4
71
3
72
8
73
4
40
0
40
0
40
0
40
0
40
1
40
1
40
1
40
1
41
1
10
165.160833750314
20
-9.41284720451262
30
0
41
1
10
166.773889166876
20
-6.29037776179496
30
0
41
1
10
168.386944583438
20
-3.15272523030916
30
0
41
1
10
170
20
-2.274E-13
30
0
0
SPLINE
5
10C
100
AcDbEntity
8
1
62
256
6
ByLayer
370
13
48
1
60
0
100
AcDbSpline
70
4
71
3
72
8
73
4
40
0
40
0
40
0
40
0
40
1
40
1
40
1
40
1
41
1
10
165.160833750314
20
-3.48579724054798
30
0
41
1
10
166.773889166876
20
-2.30316865732507
30
0
41
1
10
168.386944583438
20
-1.14122271981751
30
0
41
1
10
170
20
0
30
0
0
SPLINE
5
10D
100
AcDbEntity
8
1
62
256
6
ByLayer
370
13
48
1
60
0
100
AcDbSpline
70
4
71
3
72
8
73
4
40
0
40
0
40
0
40
0
40
1
40
1
40
1
40
1
41
1
10
165.160833750314
20
8.2257966603849
30
0
41
1
10
166.773889166876
20
5.4670154151178
30
0
41
1
10
168.386944583438
20
2.72505115617258
30
0
41
1
10
170
20
1.99E-13
30
0
0
SPLINE
5
10E
100
AcDbEntity
8
1
62
256
6
ByLayer
370
13
48
1
60
0
100
AcDbSpline
70
4
71
3
72
8
73
4
40
0
40
0
40
0
40
0
40
1
40
1
40
1
40
1
41
1
10
165.160833750314
20
9.76612596559738
30
0
41
1
10
166.773889166876
20
6.52530332752809
30
0
41
1
10
168.386944583438
20
3.2698898325142
30
0
41
1
10
170
20
1.137E-13
30
0
0
SPLINE
5
10F
100
AcDbEntity
8
1
62
256
6
ByLayer
370
13
48
1
60
0
100
AcDbSpline
70
4
71
3
72
8
73
4
40
0
40
0
40
0
40
0
40
1
40
1
40
1
40
1
41
1
10
165.160833750314
20
11.4016323749224
30
0
41
1
10
166.773889166876
20
7.5900564249815
30
0
41
1
10
168.386944583438
20
3.78946784347258
30
0
41
1
10
170
20
2.842E-13
30
0
0
SPLINE
5
110
100
AcDbEntity
8
1
62
256
6
ByLayer
370
13
48
1
60
0
100
AcDbSpline
70
4
71
3
72
8
73
4
40
0
40
0
40
0
40
0
40
1
40
1
40
1
40
1
41
1
10
165.160833750314
20
-13.1927764180814
30
0
41
1
10
166.773889166876
20
-8.79252348495069
30
0
41
1
10
168.386944583438
20
-4.39487986570276
30
0
41
1
10
170
20
-3.126E-13
30
0
0
SPLINE
5
111
100
AcDbEntity
8
1
62
256
6
ByLayer
370
13
48
1
60
0
100
AcDbSpline
70
4
71
3
72
8
73
4
40
0
40
0
40
0
40
0
40
1
40
1
40
1
40
1
41
1
10
165.160833750314
20
-13.1497991583226
30
0
41
1
10
166.773889166876
20
-8.76969909043714
30
0
41
1
10
168.386944583438
20
-4.38638136943598
30
0
41
1
10
170
20
-3.126E-13
30
0
0
SPLINE
5
112
100
AcDbEntity
8
1
62
256
6
ByLayer
370
13
48
1
60
0
100
AcDbSpline
70
4
71
3
72
8
73
4
40
0
40
0
40
0
40
0
40
1
40
1
40
1
40
1
41
1
10
165.160833750314
20
13.246344251514
30
0
41
1
10
166.773889166876
20
8.82905369102588
30
0
41
1
10
168.386944583438
20
4.41355391503592
30
0
41
1
10
170
20
3.126E-13
30
0
0
SPLINE
5
113
100
AcDbEntity
8
1
62
256
6
ByLayer
370
13
48
1
60
0
100
AcDbSpline
70
4
71
3
72
8
73
4
40
0
40
0
40
0
40
0
40
1
40
1
40
1
40
1
41
1
10
165.160833750314
20
-1.99514151904111
30
0
41
1
10
166.773889166876
20
-1.35129788005656
30
0
41
1
10
168.386944583438
20
-0.686242837421389
30
0
41
1
10
170
20
-5.68E-14
30
0
0
SPLINE
5
114
100
AcDbEntity
8
1
62
256
6
ByLayer
370
13
48
1
60
0
100
AcDbSpline
70
4
71
3
72
8
73
4
40
0
40
0
40
0
40
0
40
1
40
1
40
1
40
1
41
1
10
165.160833750314
20
10.7340872906631
30
0
41
1
10
166.773889166876
20
7.14340319160993
30
0
41
1
10
168.386944583438
20
3.56533224989366
30
0
41
1
10
170
20
2.558E-13
30
0
0
SPLINE
5
115
100
AcDbEntity
8
1
62
256
6
ByLayer
370
13
48
1
60
0
100
AcDbSpline
70
4
71
3
72
8
73
4
40
0
40
0
40
0
40
0
40
1
40
1
40
1
40
1
41
1
10
165.160833750314
20
8.90728536023693
30
0
41
1
10
166.773889166876
20
5.95411221557646
30
0
41
1
10
168.386944583438
20
2.98498226898616
30
0
41
1
10
170
20
0
30
0
0
SPLINE
5
116
100
AcDbEntity
8
1
62
256
6
ByLayer
370
13
48
1
60
0
100
AcDbSpline
70
4
71
3
72
8
73
4
40
0
40
0
40
0
40
0
40
1
40
1
40
1
40
1
41
1
10
165.160833750314
20
-6.81113308615406
30
0
41
1
10
166.773889166876
20
-4.52233695453674
30
0
41
1
10
168.386944583438
20
-2.25193274777064
30
0
41
1
10
170
20
1.421E-13
30
0
0
SPLINE
5
117
100
AcDbEntity
8
1
62
256
6
ByLayer
370
13
48
1
60
0
100
AcDbSpline
70
4
71
3
72
8
73
4
40
0
40
0
40
0
40
0
40
1
40
1
40
1
40
1
41
1
10
165.160833750314
20
-5.46018336591462
30
0
41
1
10
166.773889166876
20
-3.65967662210602
30
0
41
1
10
168.386944583438
20
-1.83959411318904
30
0
41
1
10
170
20
-1.421E-13
30
0
0
SPLINE
5
118
100
AcDbEntity
8
1
62
256
6
ByLayer
370
13
48
1
60
0
100
AcDbSpline
70
4
71
3
72
8
73
4
40
0
40
0
40
0
40
0
40
1
40
1
40
1
40
1
41
1
10
165.160833750314
20
0.0969112534794476
30
0
41
1
10
166.773889166876
20
0.0860533108808852
30
0
41
1
10
168.386944583438
20
0.053749097783566
30
0
41
1
10
170
20
0
30
0
0
SPLINE
5
119
100
AcDbEntity
8
1
62
256
6
ByLayer
370
13
48
1
60
0
100
AcDbSpline
70
4
71
3
72
8
73
4
40
0
40
0
40
0
40
0
40
1
40
1
40
1
40
1
41
1
10
165.160833750314
20
-11.1308824043382
30
0
41
1
10
166.773889166876
20
-7.40885904081534
30
0
41
1
10
168.386944583438
20
-3.69852150893678
30
0
41
1
10
170
20
2.558E-13
30
0
0
SPLINE
5
11A
100
AcDbEntity
8
1
62
256
6
ByLayer
370
13
48
1
60
0
100
AcDbSpline
70
4
71
3
72
8
73
4
40
0
40
0
40
0
40
0
40
1
40
1
40
1
40
1
41
1
10
165.160833750314
20
-7.5610017674513
30
0
41
1
10
166.773889166876
20
-5.05830862289091
30
0
41
1
10
168.386944583438
20
-2.53794512161667
30
0
41
1
10
170
20
-1.99E-13
30
0
0
SPLINE
5
11B
100
AcDbEntity
8
1
62
256
6
ByLayer
370
13
48
1
60
0
100
AcDbSpline
70
4
71
3
72
8
73
4
40
0
40
0
40
0
40
0
40
1
40
1
40
1
40
1
41
1
10
165.160833750314
20
-11.59314282565
30
0
41
1
10
166.773889166876
20
-7.739261543819
30
0
41
1
10
168.386944583438
20
-3.87483531391646
30
0
41
1
10
170
20
-2.842E-13
30
0
0
SPLINE
5
11C
100
AcDbEntity
8
1
62
256
6
ByLayer
370
13
48
1
60
0
100
AcDbSpline
70
4
71
3
72
8
73
4
40
0
40
0
40
0
40
0
40
1
40
1
40
1
40
1
41
1
10
165.160833750314
20
6.20273454759607
30
0
41
1
10
166.773889166876
20
4.11618691536353
30
0
41
1
10
168.386944583438
20
2.04858459812775
30
0
41
1
10
170
20
-4.263E-13
30
0
0
SPLINE
5
11D
100
AcDbEntity
8
1
62
256
6
ByLayer
370
13
48
1
60
0
100
AcDbSpline
70
4
71
3
72
8
73
4
40
0
40
0
40
0
40
0
40
1
40
1
40
1
40
1
41
1
10
165.160833750314
20
4.81670109890737
30
0
41
1
10
166.773889166876
20
3.23112357237406
30
0
41
1
10
168.386944583438
20
1.62553766221717
30
0
41
1
10
170
20
0
30
0
0
SPLINE
5
11E
100
AcDbEntity
8
1
62
256
6
ByLayer
370
13
48
1
60
0
100
AcDbSpline
70
4
71
3
72
8
73
4
40
0
40
0
40
0
40
0
40
1
40
1
40
1
40
1
41
1
10
165.160833750314
20
-12.261669537989
30
0
41
1
10
166.773889166876
20
-8.1661549116954
30
0
41
1
10
168.386944583438
20
-4.07888390848399
30
0
41
1
10
170
20
8.527E-13
30
0
0
SPLINE
5
11F
100
AcDbEntity
8
1
62
256
6
ByLayer
370
13
48
1
60
0
100
AcDbSpline
70
4
71
3
72
8
73
4
40
0
40
0
40
0
40
0
40
1
40
1
40
1
40
1
41
1
10
165.160833750314
20
7.24414463727496
30
0
41
1
10
166.773889166876
20
4.81144634679646
30
0
41
1
10
168.386944583438
20
2.39670326461874
30
0
41
1
10
170
20
1.705E-13
30
0
0
SPLINE
5
120
100
AcDbEntity
8
1
62
256
6
ByLayer
370
13
48
1
60
0
100
AcDbSpline
70
4
71
3
72
8
73
4
40
0
40
0
40
0
40
0
40
1
40
1
40
1
40
1
41
1
10
165.160833750314
20
-7.81904037953279
30
0
41
1
10
166.773889166876
20
-5.19534795752787
30
0
41
1
10
168.386944583438
20
-2.58897071500613
30
0
41
1
10
170
20
5.4E-13
30
0
0
SPLINE
5
121
100
AcDbEntity
8
1
62
256
6
ByLayer
370
13
48
1
60
0
100
AcDbSpline
70
4
71
3
72
8
73
4
40
0
40
0
40
0
40
0
40
1
40
1
40
1
40
1
41
1
10
165.160833750314
20
12.3352989102003
30
0
41
1
10
166.773889166876
20
8.23153484466931
30
0
41
1
10
168.386944583438
20
4.11972036642572
30
0
41
1
10
170
20
0
30
0
0
SPLINE
5
122
100
AcDbEntity
8
1
62
256
6
ByLayer
370
13
48
1
60
0
100
AcDbSpline
70
4
71
3
72
8
73
4
40
0
40
0
40
0
40
0
40
1
40
1
40
1
40
1
41
1
10
165.160833750314
20
12.4498302528641
30
0
41
1
10
166.773889166876
20
8.29236023381227
30
0
41
1
10
168.386944583438
20
4.1423682549493
30
0
41
1
10
170
20
3.126E-13
30
0
0
SPLINE
5
123
100
AcDbEntity
8
1
62
256
6
ByLayer
370
13
48
1
60
0
100
AcDbSpline
70
4
71
3
72
8
73
4
40
0
40
0
40
0
40
0
40
1
40
1
40
1
40
1
41
1
10
165.160833750314
20
-12.9174627067591
30
0
41
1
10
166.773889166876
20
-8.61671959367743
30
0
41
1
10
168.386944583438
20
-4.31084825585924
30
0
41
1
10
170
20
9.095E-13
30
0
0
SPLINE
5
124
100
AcDbEntity
8
1
62
256
6
ByLayer
370
13
48
1
60
0
100
AcDbSpline
70
4
71
3
72
8
73
4
40
0
40
0
40
0
40
0
40
1
40
1
40
1
40
1
41
1
10
165.160833750314
20
13.2931119641966
30
0
41
1
10
166.773889166876
20
8.86248110254024
30
0
41
1
10
168.386944583438
20
4.43139189768158
30
0
41
1
10
170
20
0
30
0
0
SPLINE
5
125
100
AcDbEntity
8
1
62
256
6
ByLayer
370
13
48
1
60
0
100
AcDbSpline
70
4
71
3
72
8
73
4
40
0
40
0
40
0
40
0
40
1
40
1
40
1
40
1
41
1
10
165.160833750314
20
-8.76244720268332
30
0
41
1
10
166.773889166876
20
-5.82550173380167
30
0
41
1
10
168.386944583438
20
-2.90465186344858
30
0
41
1
10
170
20
1.99E-13
30
0
0
SPLINE
5
126
100
AcDbEntity
8
1
62
256
6
ByLayer
370
13
48
1
60
0
100
AcDbSpline
70
4
71
3
72
8
73
4
40
0
40
0
40
0
40
0
40
1
40
1
40
1
40
1
41
1
10
165.160833750314
20
0.413181727339293
30
0
41
1
10
166.773889166876
20
0.254018465217797
30
0
41
1
10
168.386944583438
20
0.116289693821614
30
0
41
1
10
170
20
0
30
0
0
SPLINE
5
127
100
AcDbEntity
8
1
62
256
6
ByLayer
370
13
48
1
60
0
100
AcDbSpline
70
4
71
3
72
8
73
4
40
0
40
0
40
0
40
0
40
1
40
1
40
1
40
1
41
1
10
165.160833750314
20
13.2154209480287
30
0
41
1
10
166.773889166876
20
8.81263092041704
30
0
41
1
10
168.386944583438
20
4.40743901658243
30
0
41
1
10
170
20
0
30
0
0
SPLINE
5
128
100
AcDbEntity
8
1
62
256
6
ByLayer
370
13
48
1
60
0
100
AcDbSpline
70
4
71
3
72
8
73
4
40
0
40
0
40
0
40
0
40
1
40
1
40
1
40
1
41
1
10
165.160833750314
20
7.97496718393364
30
0
41
1
10
166.773889166876
20
5.33380471349838
30
0
41
1
10
168.386944583438
20
2.67545112626863
30
0
41
1
10
170
20
1.137E-13
30
0
0
SPLINE
5
129
100
AcDbEntity
8
1
62
256
6
ByLayer
370
13
48
1
60
0
100
AcDbSpline
70
4
71
3
72
8
73
4
40
0
40
0
40
0
40
0
40
1
40
1
40
1
40
1
41
1
10
165.160833750314
20
-4.63553810737181
30
0
41
1
10
166.773889166876
20
-3.07025809317534
30
0
41
1
10
168.386944583438
20
-1.52506071039579
30
0
41
1
10
170
20
-1.137E-13
30
0
0
SPLINE
5
12A
100
AcDbEntity
8
1
62
256
6
ByLayer
370
13
48
1
60
0
100
AcDbSpline
70
4
71
3
72
8
73
4
40
0
40
0
40
0
40
0
40
1
40
1
40
1
40
1
41
1
10
165.160833750314
20
-10.2259719411433
30
0
41
1
10
166.773889166876
20
-6.83102083610285
30
0
41
1
10
168.386944583438
20
-3.42232355780442
30
0
41
1
10
170
20
7.105E-13
30
0
0
SPLINE
5
12B
100
AcDbEntity
8
1
62
256
6
ByLayer
370
13
48
1
60
0
100
AcDbSpline
70
4
71
3
72
8
73
4
40
0
40
0
40
0
40
0
40
1
40
1
40
1
40
1
41
1
10
165.160833750314
20
3.6724643382135
30
0
41
1
10
166.773889166876
20
2.46892156227591
30
0
41
1
10
168.386944583438
20
1.24475236911181
30
0
41
1
10
170
20
0
30
0
0
SPLINE
5
12C
100
AcDbEntity
8
1
62
256
6
ByLayer
370
13
48
1
60
0
100
AcDbSpline
70
4
71
3
72
8
73
4
40
0
40
0
40
0
40
0
40
1
40
1
40
1
40
1
41
1
10
165.160833750314
20
-6.53755722569051
30
0
41
1
10
166.773889166876
20
-4.37704608667676
30
0
41
1
10
168.386944583438
20
-2.19783475637061
30
0
41
1
10
170
20
-1.705E-13
30
0
0
SPLINE
5
12D
100
AcDbEntity
8
1
62
256
6
ByLayer
370
13
48
1
60
0
100
AcDbSpline
70
4
71
3
72
8
73
4
40
0
40
0
40
0
40
0
40
1
40
1
40
1
40
1
41
1
10
165.160833750314
20
3.97542526549435
30
0
41
1
10
166.773889166876
20
2.62981827289119
30
0
41
1
10
168.386944583438
20
1.30466108185743
30
0
41
1
10
170
20
8.53E-14
30
0
0
SPLINE
5
12E
100
AcDbEntity
8
1
62
256
6
ByLayer
370
13
48
1
60
0
100
AcDbSpline
70
4
71
3
72
8
73
4
40
0
40
0
40
0
40
0
40
1
40
1
40
1
40
1
41
1
10
165.160833750314
20
12.8218363005601
30
0
41
1
10
166.773889166876
20
8.54221739681753
30
0
41
1
10
168.386944583438
20
4.26822194291566
30
0
41
1
10
170
20
3.126E-13
30
0
0
SPLINE
5
12F
100
AcDbEntity
8
1
62
256
6
ByLayer
370
13
48
1
60
0
100
AcDbSpline
70
4
71
3
72
8
73
4
40
0
40
0
40
0
40
0
40
1
40
1
40
1
40
1
41
1
10
165.160833750314
20
5.11015714382225
30
0
41
1
10
166.773889166876
20
3.38697242311778
30
0
41
1
10
168.386944583438
20
1.68356684128017
30
0
41
1
10
170
20
1.137E-13
30
0
0
SPLINE
5
130
100
AcDbEntity
8
1
62
256
6
ByLayer
370
13
48
1
60
0
100
AcDbSpline
70
4
71
3
72
8
73
4
40
0
40
0
40
0
40
0
40
1
40
1
40
1
40
1
41
1
10
165.160833750314
20
-12.6774727062527
30
0
41
1
10
166.773889166876
20
-8.44518577159943
30
0
41
1
10
168.386944583438
20
-4.21931208231879
30
0
41
1
10
170
20
2.842E-13
30
0
0
SPLINE
5
131
100
AcDbEntity
8
1
62
256
6
ByLayer
370
13
48
1
60
0
100
AcDbSpline
70
4
71
3
72
8
73
4
40
0
40
0
40
0
40
0
40
1
40
1
40
1
40
1
41
1
10
165.160833750314
20
2.80789949091638
30
0
41
1
10
166.773889166876
20
1.85097034606508
30
0
41
1
10
168.386944583438
20
0.914992971918082
30
0
41
1
10
170
20
5.68E-14
30
0
0
SPLINE
5
132
100
AcDbEntity
8
1
62
256
6
ByLayer
370
13
48
1
60
0
100
AcDbSpline
70
4
71
3
72
8
73
4
40
0
40
0
40
0
40
0
40
1
40
1
40
1
40
1
41
1
10
165.160833750314
20
-10.4252264764479
30
0
41
1
10
166.773889166876
20
-6.93684108029561
30
0
41
1
10
168.386944583438
20
-3.46172495133081
30
0
41
1
10
170
20
2.274E-13
30
0
0
SPLINE
5
133
100
AcDbEntity
8
1
62
256
6
ByLayer
370
13
48
1
60
0
100
AcDbSpline
70
4
71
3
72
8
73
4
40
0
40
0
40
0
40
0
40
1
40
1
40
1
40
1
41
1
10
165.160833750314
20
11.23570019962
30
0
41
1
10
166.773889166876
20
7.50193304408543
30
0
41
1
10
168.386944583438
20
3.75665574748814
30
0
41
1
10
170
20
0
30
0
0
SPLINE
5
134
100
AcDbEntity
8
1
62
256
6
ByLayer
370
13
48
1
60
0
100
AcDbSpline
70
4
71
3
72
8
73
4
40
0
40
0
40
0
40
0
40
1
40
1
40
1
40
1
41
1
10
165.160833750314
20
-10.9547410578093
30
0
41
1
10
166.773889166876
20
-7.31531376580497
30
0
41
1
10
168.386944583438
20
-3.66369061035644
30
0
41
1
10
170
20
7.674E-13
30
0
0
SPLINE
5
135
100
AcDbEntity
8
1
62
256
6
ByLayer
370
13
48
1
60
0
100
AcDbSpline
70
4
71
3
72
8
73
4
40
0
40
0
40
0
40
0
40
1
40
1
40
1
40
1
41
1
10
165.160833750314
20
-8.52207443929953
30
0
41
1
10
166.773889166876
20
-5.69784439099809
30
0
41
1
10
168.386944583438
20
-2.85711958605972
30
0
41
1
10
170
20
5.969E-13
30
0
0
SPLINE
5
136
100
AcDbEntity
8
1
62
256
6
ByLayer
370
13
48
1
60
0
100
AcDbSpline
70
4
71
3
72
8
73
4
40
0
40
0
40
0
40
0
40
1
40
1
40
1
40
1
41
1
10
165.160833750314
20
-1.10977246266742
30
0
41
1
10
166.773889166876
20
-0.718476771388964
30
0
41
1
10
168.386944583438
20
-0.34854836923131
30
0
41
1
10
170
20
-2.84E-14
30
0
0
SPLINE
5
137
100
AcDbEntity
8
1
62
256
6
ByLayer
370
13
48
1
60
0
100
AcDbSpline
70
4
71
3
72
8
73
4
40
0
40
0
40
0
40
0
40
1
40
1
40
1
40
1
41
1
10
165.160833750314
20
9.13959281796113
30
0
41
1
10
166.773889166876
20
6.07748622995746
30
0
41
1
10
168.386944583438
20
3.03091968038243
30
0
41
1
10
170
20
2.274E-13
30
0
0
SPLINE
5
138
100
AcDbEntity
8
1
62
256
6
ByLayer
370
13
48
1
60
0
100
AcDbSpline
70
4
71
3
72
8
73
4
40
0
40
0
40
0
40
0
40
1
40
1
40
1
40
1
41
1
10
165.160833750314
20
11.9751236349456
30
0
41
1
10
166.773889166876
20
7.97409811208823
30
0
41
1
10
168.386944583438
20
3.98234353226084
30
0
41
1
10
170
20
2.842E-13
30
0
0
SPLINE
5
139
100
AcDbEntity
8
1
62
256
6
ByLayer
370
13
48
1
60
0
100
AcDbSpline
70
4
71
3
72
8
73
4
40
0
40
0
40
0
40
0
40
1
40
1
40
1
40
1
41
1
10
165.160833750314
20
-0.794255865427402
30
0
41
1
10
166.773889166876
20
-0.550911986398148
30
0
41
1
10
168.386944583438
20
-0.286156847789357
30
0
41
1
10
170
20
-2.84E-14
30
0
0
SPLINE
5
13A
100
AcDbEntity
8
1
62
256
6
ByLayer
370
13
48
1
60
0
100
AcDbSpline
70
4
71
3
72
8
73
4
40
0
40
0
40
0
40
0
40
1
40
1
40
1
40
1
41
1
10
165.160833750314
20
9.97799506454086
30
0
41
1
10
166.773889166876
20
6.63782292339474
30
0
41
1
10
168.386944583438
20
3.31178568060986
30
0
41
1
10
170
20
2.558E-13
30
0
0
SPLINE
5
13B
100
AcDbEntity
8
1
62
256
6
ByLayer
370
13
48
1
60
0
100
AcDbSpline
70
4
71
3
72
8
73
4
40
0
40
0
40
0
40
0
40
1
40
1
40
1
40
1
41
1
10
165.160833750314
20
13.0287138858965
30
0
41
1
10
166.773889166876
20
8.69008398642615
30
0
41
1
10
168.386944583438
20
4.34712849115959
30
0
41
1
10
170
20
0
30
0
0
SPLINE
5
13C
100
AcDbEntity
8
1
62
256
6
ByLayer
370
13
48
1
60
0
100
AcDbSpline
70
4
71
3
72
8
73
4
40
0
40
0
40
0
40
0
40
1
40
1
40
1
40
1
41
1
10
165.160833750314
20
2.4979328526924
30
0
41
1
10
166.773889166876
20
1.68635303736352
30
0
41
1
10
168.386944583438
20
0.85369892170263
30
0
41
1
10
170
20
5.68E-14
30
0
0
SPLINE
5
13D
100
AcDbEntity
8
1
62
256
6
ByLayer
370
13
48
1
60
0
100
AcDbSpline
70
4
71
3
72
8
73
4
40
0
40
0
40
0
40
0
40
1
40
1
40
1
40
1
41
1
10
165.160833750314
20
5.92120414922914
30
0
41
1
10
166.773889166876
20
3.96667154570201
30
0
41
1
10
168.386944583438
20
1.99291364439719
30
0
41
1
10
170
20
0
30
0
0
SPLINE
5
13E
100
AcDbEntity
8
1
62
256
6
ByLayer
370
13
48
1
60
0
100
AcDbSpline
70
4
71
3
72
8
73
4
40
0
40
0
40
0
40
0
40
1
40
1
40
1
40
1
41
1
10
165.160833750314
20
-11.7447179662647
30
0
41
1
10
166.773889166876
20
-7.81976018024292
30
0
41
1
10
168.386944583438
20
-3.90480839209434
30
0
41
1
10
170
20
8.242E-13
30
0
0
SPLINE
5
13F
100
AcDbEntity
8
1
62
256
6
ByLayer
370
13
48
1
60
0
100
AcDbSpline
70
4
71
3
72
8
73
4
40
0
40
0
40
0
40
0
40
1
40
1
40
1
40
1
41
1
10
165.160833750314
20
1.30279553374717
30
0
41
1
10
166.773889166876
20
0.889873526115025
30
0
41
1
10
168.386944583438
20
0.455603180199688
30
0
41
1
10
170
20
0
30
0
0
SPLINE
5
140
100
AcDbEntity
8
1
62
256
6
ByLayer
370
13
48
1
60
0
100
AcDbSpline
70
4
71
3
72
8
73
4
40
0
40
0
40
0
40
0
40
1
40
1
40
1
40
1
41
1
10
165.160833750314
20
-12.5785681127255
30
0
41
1
10
166.773889166876
20
-8.39265944780547
30
0
41
1
10
168.386944583438
20
-4.19975429004498
30
0
41
1
10
170
20
2.842E-13
30
0
0
SPLINE
5
141
100
AcDbEntity
8
1
62
256
6
ByLayer
370
13
48
1
60
0
100
AcDbSpline
70
4
71
3
72
8
73
4
40
0
40
0
40
0
40
0
40
1
40
1
40
1
40
1
41
1
10
165.160833750314
20
13.0880730427618
30
0
41
1
10
166.773889166876
20
8.72160849082428
30
0
41
1
10
168.386944583438
20
4.35886640967414
30
0
41
1
10
170
20
3.126E-13
30
0
0
SPLINE
5
142
100
AcDbEntity
8
1
62
256
6
ByLayer
370
13
48
1
60
0
100
AcDbSpline
70
4
71
3
72
8
73
4
40
0
40
0
40
0
40
0
40
1
40
1
40
1
40
1
41
1
10
165.160833750314
20
-13.2880261418385
30
0
41
1
10
166.773889166876
20
-8.85796509602099
30
0
41
1
10
168.386944583438
20
-4.42857118952347
30
0
41
1
10
170
20
9.379E-13
30
0
0
SPLINE
5
143
100
AcDbEntity
8
1
62
256
6
ByLayer
370
13
48
1
60
0
100
AcDbSpline
70
4
71
3
72
8
73
4
40
0
40
0
40
0
40
0
40
1
40
1
40
1
40
1
41
1
10
165.160833750314
20
6.97686227313997
30
0
41
1
10
166.773889166876
20
4.66949783356483
30
0
41
1
10
168.386944583438
20
2.34384977450486
30
0
41
1
10
170
20
8.53E-14
30
0
0
SPLINE
5
144
100
AcDbEntity
8
1
62
256
6
ByLayer
370
13
48
1
60
0
100
AcDbSpline
70
4
71
3
72
8
73
4
40
0
40
0
40
0
40
0
40
1
40
1
40
1
40
1
41
1
10
165.160833750314
20
11.8343110837344
30
0
41
1
10
166.773889166876
20
7.89931527950787
30
0
41
1
10
168.386944583438
20
3.95449869181479
30
0
41
1
10
170
20
0
30
0
0
SPLINE
5
145
100
AcDbEntity
8
1
62
256
6
ByLayer
370
13
48
1
60
0
100
AcDbSpline
70
4
71
3
72
8
73
4
40
0
40
0
40
0
40
0
40
1
40
1
40
1
40
1
41
1
10
165.160833750314
20
-13.2736608881878
30
0
41
1
10
166.773889166876
20
-8.85033598661639
30
0
41
1
10
168.386944583438
20
-4.42573054646695
30
0
41
1
10
170
20
9.095E-13
30
0
0
SPLINE
5
146
100
AcDbEntity
8
1
62
256
6
ByLayer
370
13
48
1
60
0
100
AcDbSpline
70
4
71
3
72
8
73
4
40
0
40
0
40
0
40
0
40
1
40
1
40
1
40
1
41
1
10
165.160833750314
20
-3.17956894250079
30
0
41
1
10
166.773889166876
20
-2.14053670905599
30
0
41
1
10
168.386944583438
20
-1.08066790403012
30
0
41
1
10
170
20
-8.53E-14
30
0
0
SPLINE
5
147
100
AcDbEntity
8
1
62
256
6
ByLayer
370
13
48
1
60
0
100
AcDbSpline
70
4
71
3
72
8
73
4
40
0
40
0
40
0
40
0
40
1
40
1
40
1
40
1
41
1
10
165.160833750314
20
-9.63357124719491
30
0
41
1
10
166.773889166876
20
-6.40760004765201
30
0
41
1
10
168.386944583438
20
-3.19637209060792
30
0
41
1
10
170
20
2.274E-13
30
0
0
SPLINE
5
148
100
AcDbEntity
8
1
62
256
6
ByLayer
370
13
48
1
60
0
100
AcDbSpline
70
4
71
3
72
8
73
4
40
0
40
0
40
0
40
0
40
1
40
1
40
1
40
1
41
1
10
165.160833750314
20
10.5444042913797
30
0
41
1
10
166.773889166876
20
7.04266620576075
30
0
41
1
10
168.386944583438
20
3.52782357041207
30
0
41
1
10
170
20
0
30
0
0
SPLINE
5
149
100
AcDbEntity
8
1
62
256
6
ByLayer
370
13
48
1
60
0
100
AcDbSpline
70
4
71
3
72
8
73
4
40
0
40
0
40
0
40
0
40
1
40
1
40
1
40
1
41
1
10
165.160833750314
20
-12.9886974465807
30
0
41
1
10
166.773889166876
20
-8.65455099134914
30
0
41
1
10
168.386944583438
20
-4.32493449993046
30
0
41
1
10
170
20
-3.126E-13
30
0
0
SPLINE
5
14A
100
AcDbEntity
8
1
62
256
6
ByLayer
370
13
48
1
60
0
100
AcDbSpline
70
4
71
3
72
8
73
4
40
0
40
0
40
0
40
0
40
1
40
1
40
1
40
1
41
1
10
165.160833750314
20
12.7345309531565
30
0
41
1
10
166.773889166876
20
8.49585120912971
30
0
41
1
10
168.386944583438
20
4.25095783224057
30
0
41
1
10
170
20
0
30
0
0
SPLINE
5
14B
100
AcDbEntity
8
1
62
256
6
ByLayer
370
13
48
1
60
0
100
AcDbSpline
70
4
71
3
72
8
73
4
40
0
40
0
40
0
40
0
40
1
40
1
40
1
40
1
41
1
10
165.160833750314
20
-5.74703970528628
30
0
41
1
10
166.773889166876
20
-3.8120204964078
30
0
41
1
10
168.386944583438
20
-1.89631823992343
30
0
41
1
10
170
20
0
30
0
0
LINE
5
7D
100
AcDbEntity
8
80
62
256
6
ByLayer
370
18
48
1
60
0
100
AcDbLine
10
0
20
0
30
0
11
-5
21
0
31
0
39
0
210
0
220
0
230
1
0
LINE
5
7E
100
AcDbEntity
8
4
62
256
6
ByLayer
370
18
48
0.05
60
0
100
AcDbLine
10
-5
20
0
30
0
11
175
21
0
31
0
39
0
210
0
220
0
230
1
0
LINE
5
80
100
AcDbEntity
8
81
62
256
6
ByLayer
370
18
48
1
60
0
100
AcDbLine
10
170
20
0
30
0
11
175
21
0
31
0
39
0
210
0
220
0
230
1
0
LINE
5
81
100
AcDbEntity
8
SK4
62
256
6
ByLayer
370
18
48
0.05
60
0
100
AcDbLine
10
-65
20
0
30
0
11
175
21
0
31
0
39
0
210
0
220
0
230
1
0
LINE
5
83
100
AcDbEntity
8
1
62
256
6
ByLayer
370
18
48
1
60
0
100
AcDbLine
10
41.282464
20
-13.2
30
0
11
102.449816
21
-13.2
31
0
39
0
210
0
220
0
230
1
0
LINE
5
84
100
AcDbEntity
8
1
62
256
6
ByLayer
370
18
48
1
60
0
100
AcDbLine
10
102.449816
20
13.2
30
0
11
41.282464
21
13.2
31
0
39
0
210
0
220
0
230
1
0
LINE
5
85
100
AcDbEntity
8
1
62
256
6
ByLayer
370
18
48
1
60
0
100
AcDbLine
10
170
20
0
30
0
11
165.160834
21
13.2955
31
0
39
0
210
0
220
0
230
1
0
LINE
5
86
100
AcDbEntity
8
1
62
256
6
ByLayer
370
18
48
1
60
0
100
AcDbLine
10
165.160834
20
-13.2955
30
0
11
170
21
0
31
0
39
0
210
0
220
0
230
1
0
LINE
5
87
100
AcDbEntity
8
1
62
256
6
ByLayer
370
18
48
1
60
0
100
AcDbLine
10
3.044669
20
15.060551
30
0
11
0
21
15.875
31
0
39
0
210
0
220
0
230
1
0
LINE
5
88
100
AcDbEntity
8
1
62
256
6
ByLayer
370
18
48
1
60
0
100
AcDbLine
10
0
20
-15.875
30
0
11
3.044669
21
-15.060551
31
0
39
0
210
0
220
0
230
1
0
LINE
5
89
100
AcDbEntity
8
1
62
256
6
ByLayer
370
18
48
1
60
0
100
AcDbLine
10
170
20
0
30
0
11
165.160834
21
13.2955
31
0
39
0
210
0
220
0
230
1
0
LINE
5
8A
100
AcDbEntity
8
1
62
256
6
ByLayer
370
18
48
1
60
0
100
AcDbLine
10
165.160834
20
-13.2955
30
0
11
170
21
0
31
0
39
0
210
0
220
0
230
1
0
LINE
5
8B
100
AcDbEntity
8
1
62
256
6
ByLayer
370
18
48
1
60
0
100
AcDbLine
10
165.160834
20
13.2955
30
0
11
152.9
21
13.2955
31
0
39
0
210
0
220
0
230
1
0
LINE
5
8C
100
AcDbEntity
8
1
62
256
6
ByLayer
370
18
48
1
60
0
100
AcDbLine
10
152.9
20
-13.2955
30
0
11
165.160834
21
-13.2955
31
0
39
0
210
0
220
0
230
1
0
LINE
5
8D
100
AcDbEntity
8
SK1
62
256
6
ByLayer
370
18
48
1
60
0
100
AcDbLine
10
-60
20
-14.875
30
0
11
-59
21
-15.875
31
0
39
0
210
0
220
0
230
1
0
LINE
5
8F
100
AcDbEntity
8
SK1
62
256
6
ByLayer
370
18
48
1
60
0
100
AcDbLine
10
-59
20
15.875
30
0
11
-60
21
14.875
31
0
39
0
210
0
220
0
230
1
0
LINE
5
90
100
AcDbEntity
8
SK1
62
256
6
ByLayer
370
18
48
1
60
0
100
AcDbLine
10
-59
20
-15.875
30
0
11
0
21
-15.875
31
0
39
0
210
0
220
0
230
1
0
LINE
5
91
100
AcDbEntity
8
SK1
62
256
6
ByLayer
370
18
48
1
60
0
100
AcDbLine
10
0
20
15.875
30
0
11
-59
21
15.875
31
0
39
0
210
0
220
0
230
1
0
LINE
5
92
100
AcDbEntity
8
1
62
256
6
ByLayer
370
18
48
1
60
0
100
AcDbLine
10
0
20
15.875
30
0
11
0
21
-15.875
31
0
39
0
210
0
220
0
230
1
0
LINE
5
93
100
AcDbEntity
8
1
62
256
6
ByLayer
370
18
48
1
60
0
100
AcDbLine
10
165.160834
20
13.2955
30
0
11
165.160834
21
12.873327
31
0
39
0
210
0
220
0
230
1
0
LINE
5
94
100
AcDbEntity
8
1
62
256
6
ByLayer
370
18
48
1
60
0
100
AcDbLine
10
165.160834
20
-13.2955
30
0
11
165.160834
21
-1.89521
31
0
39
0
210
0
220
0
230
1
0
LINE
5
95
100
AcDbEntity
8
1
62
256
6
ByLayer
370
18
48
1
60
0
100
AcDbLine
10
10
20
-10.691048
30
0
11
10
21
11.029133
31
0
39
0
210
0
220
0
230
1
0
LINE
5
96
100
AcDbEntity
8
SK1
62
256
6
ByLayer
370
18
48
1
60
0
100
AcDbLine
10
-60
20
-14.875
30
0
11
-60
21
14.875
31
0
39
0
210
0
220
0
230
1
0
LINE
5
97
100
AcDbEntity
8
SK1
62
256
6
ByLayer
370
18
48
1
60
0
100
AcDbLine
10
-51.368099
20
-7.245688
30
0
11
-51.368099
21
7.245688
31
0
39
0
210
0
220
0
230
1
0
LINE
5
98
100
AcDbEntity
8
SK1
62
256
6
ByLayer
370
18
48
1
60
0
100
AcDbLine
10
0
20
15.875
30
0
11
0
21
-15.875
31
0
39
0
210
0
220
0
230
1
0
LINE
5
99
100
AcDbEntity
8
SK1
62
256
6
ByLayer
370
18
48
1
60
0
100
AcDbLine
10
-59
20
-15.875
30
0
11
-59
21
15.875
31
0
39
0
210
0
220
0
230
1
0
LINE
5
9A
100
AcDbEntity
8
SK1
62
256
6
ByLayer
370
18
48
1
60
0
100
AcDbLine
10
-8.876645
20
-7.245688
30
0
11
-51.368099
21
-7.245688
31
0
39
0
210
0
220
0
230
1
0
LINE
5
9B
100
AcDbEntity
8
SK1
62
256
6
ByLayer
370
18
48
1
60
0
100
AcDbLine
10
-51.368099
20
7.245688
30
0
11
-8.876645
21
7.245688
31
0
39
0
210
0
220
0
230
1
0
LINE
5
9C
100
AcDbEntity
8
SK1
62
256
6
ByLayer
370
18
48
1
60
0
100
AcDbLine
10
-8.876645
20
-7.245688
30
0
11
-8.876645
21
7.245688
31
0
39
0
210
0
220
0
230
1
0
LINE
5
9D
100
AcDbEntity
8
1
62
256
6
ByLayer
370
18
48
1
60
0
100
AcDbLine
10
165.160834
20
13.2955
30
0
11
165.160834
21
-13.2955
31
0
39
0
210
0
220
0
230
1
0
LINE
5
9E
100
AcDbEntity
8
1
62
256
6
ByLayer
370
18
48
1
60
0
100
AcDbLine
10
165.160834
20
13.2955
30
0
11
165.160834
21
-13.2955
31
0
39
0
210
0
220
0
230
1
0
LINE
5
9F
100
AcDbEntity
8
1
62
256
6
ByLayer
370
18
48
1
60
0
100
AcDbLine
10
165.160834
20
13.2955
30
0
11
165.160834
21
-13.2955
31
0
39
0
210
0
220
0
230
1
0
LINE
5
A0
100
AcDbEntity
8
1
62
256
6
ByLayer
370
18
48
1
60
0
100
AcDbLine
10
152.9
20
13.2955
30
0
11
152.9
21
-13.2955
31
0
39
0
210
0
220
0
230
1
0
LINE
5
A1
100
AcDbEntity
8
1
62
256
6
ByLayer
370
18
48
1
60
0
100
AcDbLine
10
152.9
20
13.2955
30
0
11
152.9
21
-13.2955
31
0
39
0
210
0
220
0
230
1
0
LINE
5
A2
100
AcDbEntity
8
1
62
256
6
ByLayer
370
18
48
1
60
0
100
AcDbLine
10
165.160834
20
13.2955
30
0
11
165.160834
21
-13.2955
31
0
39
0
210
0
220
0
230
1
0
LINE
5
A3
100
AcDbEntity
8
1
62
256
6
ByLayer
370
18
48
1
60
0
100
AcDbLine
10
152.9
20
13.2955
30
0
11
152.9
21
-13.2955
31
0
39
0
210
0
220
0
230
1
0
LINE
5
A4
100
AcDbEntity
8
1
62
256
6
ByLayer
370
18
48
1
60
0
100
AcDbLine
10
165.160834
20
13.2955
30
0
11
165.160834
21
-13.2955
31
0
39
0
210
0
220
0
230
1
0
LINE
5
A5
100
AcDbEntity
8
SK2
62
256
6
ByLayer
370
13
48
1
60
0
100
AcDbLine
10
-66.5
20
-15.875
30
0
11
-66.5
21
44.149683
31
0
39
0
210
0
220
0
230
1
0
LINE
5
A7
100
AcDbEntity
8
SK2
62
256
6
ByLayer
370
13
48
1
60
0
100
AcDbLine
10
-61.5875
20
15.875
30
0
11
-68.5
21
15.875
31
0
39
0
210
0
220
0
230
1
0
LINE
5
A8
100
AcDbEntity
8
SK2
62
256
6
ByLayer
370
13
48
1
60
0
100
AcDbLine
10
-61.5875
20
-15.875
30
0
11
-68.5
21
-15.875
31
0
39
0
210
0
220
0
230
1
0
LINE
5
A9
100
AcDbEntity
8
1
62
256
6
ByLayer
370
18
48
1
60
1
100
AcDbLine
10
-66.5
20
15.875
30
0
11
-66.039216
21
12.375002
31
0
39
0
210
0
220
0
230
1
0
LINE
5
AA
100
AcDbEntity
8
1
62
256
6
ByLayer
370
18
48
1
60
1
100
AcDbLine
10
-66.039216
20
12.375002
30
0
11
-66.960784
21
12.374998
31
0
39
0
210
0
220
0
230
1
0
LINE
5
AB
100
AcDbEntity
8
1
62
256
6
ByLayer
370
18
48
1
60
1
100
AcDbLine
10
-66.960784
20
12.374998
30
0
11
-66.5
21
15.875
31
0
39
0
210
0
220
0
230
1
0
LINE
5
AC
100
AcDbEntity
8
1
62
256
6
ByLayer
370
18
48
1
60
1
100
AcDbLine
10
-66.5
20
-15.875
30
0
11
-66.960784
21
-12.375002
31
0
39
0
210
0
220
0
230
1
0
LINE
5
AD
100
AcDbEntity
8
1
62
256
6
ByLayer
370
18
48
1
60
1
100
AcDbLine
10
-66.960784
20
-12.375002
30
0
11
-66.039216
21
-12.374998
31
0
39
0
210
0
220
0
230
1
0
LINE
5
AE
100
AcDbEntity
8
1
62
256
6
ByLayer
370
18
48
1
60
1
100
AcDbLine
10
-66.039216
20
-12.374998
30
0
11
-66.5
21
-15.875
31
0
39
0
210
0
220
0
230
1
0
LINE
5
AF
100
AcDbEntity
8
2
62
256
6
ByLayer
370
13
48
1
60
0
100
AcDbLine
10
177.5
20
-13.2955
30
0
11
177.5
21
41.570183
31
0
39
0
210
0
220
0
230
1
0
LINE
5
B1
100
AcDbEntity
8
2
62
256
6
ByLayer
370
13
48
1
60
0
100
AcDbLine
10
166.748334
20
13.2955
30
0
11
179.5
21
13.2955
31
0
39
0
210
0
220
0
230
1
0
LINE
5
B2
100
AcDbEntity
8
2
62
256
6
ByLayer
370
13
48
1
60
0
100
AcDbLine
10
166.748334
20
-13.2955
30
0
11
179.5
21
-13.2955
31
0
39
0
210
0
220
0
230
1
0
LINE
5
B3
100
AcDbEntity
8
1
62
256
6
ByLayer
370
18
48
1
60
1
100
AcDbLine
10
177.5
20
13.2955
30
0
11
177.960784
21
9.795502
31
0
39
0
210
0
220
0
230
1
0
LINE
5
B4
100
AcDbEntity
8
1
62
256
6
ByLayer
370
18
48
1
60
1
100
AcDbLine
10
177.960784
20
9.795502
30
0
11
177.039216
21
9.795498
31
0
39
0
210
0
220
0
230
1
0
LINE
5
B5
100
AcDbEntity
8
1
62
256
6
ByLayer
370
18
48
1
60
1
100
AcDbLine
10
177.039216
20
9.795498
30
0
11
177.5
21
13.2955
31
0
39
0
210
0
220
0
230
1
0
LINE
5
B6
100
AcDbEntity
8
1
62
256
6
ByLayer
370
18
48
1
60
1
100
AcDbLine
10
177.5
20
-13.2955
30
0
11
177.039216
21
-9.795502
31
0
39
0
210
0
220
0
230
1
0
LINE
5
B7
100
AcDbEntity
8
1
62
256
6
ByLayer
370
18
48
1
60
1
100
AcDbLine
10
177.039216
20
-9.795502
30
0
11
177.960784
21
-9.795498
31
0
39
0
210
0
220
0
230
1
0
LINE
5
B8
100
AcDbEntity
8
1
62
256
6
ByLayer
370
18
48
1
60
1
100
AcDbLine
10
177.960784
20
-9.795498
30
0
11
177.5
21
-13.2955
31
0
39
0
210
0
220
0
230
1
0
LINE
5
B9
100
AcDbEntity
8
SK2
62
256
6
ByLayer
370
13
48
1
60
0
100
AcDbLine
10
170.542957
20
-1.491762
30
0
11
177.182423
21
-19.733545
31
0
39
0
210
0
220
0
230
1
0
LINE
5
BA
100
AcDbEntity
8
SK2
62
256
6
ByLayer
370
13
48
1
60
0
100
AcDbLine
10
170.542957
20
1.491762
30
0
11
177.182423
21
19.733545
31
0
39
0
210
0
220
0
230
1
0
LINE
5
BB
100
AcDbEntity
8
1
62
256
6
ByLayer
370
18
48
1
60
1
100
AcDbLine
10
176.498383
20
-17.85416
30
0
11
179.551575
21
-16.082064
31
0
39
0
210
0
220
0
230
1
0
LINE
5
BC
100
AcDbEntity
8
1
62
256
6
ByLayer
370
18
48
1
60
1
100
AcDbLine
10
179.551575
20
-16.082064
30
0
11
179.906196
21
-16.93267
31
0
39
0
210
0
220
0
230
1
0
LINE
5
BD
100
AcDbEntity
8
1
62
256
6
ByLayer
370
18
48
1
60
1
100
AcDbLine
10
179.906196
20
-16.93267
30
0
11
176.498383
21
-17.85416
31
0
39
0
210
0
220
0
230
1
0
LINE
5
BE
100
AcDbEntity
8
1
62
256
6
ByLayer
370
18
48
1
60
1
100
AcDbLine
10
176.498383
20
17.85416
30
0
11
179.906193
21
16.932671
31
0
39
0
210
0
220
0
230
1
0
LINE
5
BF
100
AcDbEntity
8
1
62
256
6
ByLayer
370
18
48
1
60
1
100
AcDbLine
10
179.906193
20
16.932671
30
0
11
179.551579
21
16.082063
31
0
39
0
210
0
220
0
230
1
0
LINE
5
C0
100
AcDbEntity
8
1
62
256
6
ByLayer
370
18
48
1
60
1
100
AcDbLine
10
179.551579
20
16.082063
30
0
11
176.498383
21
17.85416
31
0
39
0
210
0
220
0
230
1
0
LINE
5
150
100
AcDbEntity
8
1
62
256
6
ByLayer
370
18
48
1
60
1
100
AcDbLine
10
-66.5
20
15.875
30
0
11
-66.039216
21
12.375002
31
0
39
0
210
0
220
0
230
1
0
LINE
5
151
100
AcDbEntity
8
1
62
256
6
ByLayer
370
18
48
1
60
1
100
AcDbLine
10
-66.039216
20
12.375002
30
0
11
-66.960784
21
12.374998
31
0
39
0
210
0
220
0
230
1
0
LINE
5
152
100
AcDbEntity
8
1
62
256
6
ByLayer
370
18
48
1
60
1
100
AcDbLine
10
-66.960784
20
12.374998
30
0
11
-66.5
21
15.875
31
0
39
0
210
0
220
0
230
1
0
LINE
5
154
100
AcDbEntity
8
1
62
256
6
ByLayer
370
18
48
1
60
1
100
AcDbLine
10
-66.5
20
-15.875
30
0
11
-66.960784
21
-12.375002
31
0
39
0
210
0
220
0
230
1
0
LINE
5
155
100
AcDbEntity
8
1
62
256
6
ByLayer
370
18
48
1
60
1
100
AcDbLine
10
-66.960784
20
-12.375002
30
0
11
-66.039216
21
-12.374998
31
0
39
0
210
0
220
0
230
1
0
LINE
5
156
100
AcDbEntity
8
1
62
256
6
ByLayer
370
18
48
1
60
1
100
AcDbLine
10
-66.039216
20
-12.374998
30
0
11
-66.5
21
-15.875
31
0
39
0
210
0
220
0
230
1
0
LINE
5
15A
100
AcDbEntity
8
1
62
256
6
ByLayer
370
18
48
1
60
1
100
AcDbLine
10
177.5
20
13.2955
30
0
11
177.960784
21
9.795502
31
0
39
0
210
0
220
0
230
1
0
LINE
5
15B
100
AcDbEntity
8
1
62
256
6
ByLayer
370
18
48
1
60
1
100
AcDbLine
10
177.960784
20
9.795502
30
0
11
177.039216
21
9.795498
31
0
39
0
210
0
220
0
230
1
0
LINE
5
15C
100
AcDbEntity
8
1
62
256
6
ByLayer
370
18
48
1
60
1
100
AcDbLine
10
177.039216
20
9.795498
30
0
11
177.5
21
13.2955
31
0
39
0
210
0
220
0
230
1
0
LINE
5
15E
100
AcDbEntity
8
1
62
256
6
ByLayer
370
18
48
1
60
1
100
AcDbLine
10
177.5
20
-13.2955
30
0
11
177.039216
21
-9.795502
31
0
39
0
210
0
220
0
230
1
0
LINE
5
15F
100
AcDbEntity
8
1
62
256
6
ByLayer
370
18
48
1
60
1
100
AcDbLine
10
177.039216
20
-9.795502
30
0
11
177.960784
21
-9.795498
31
0
39
0
210
0
220
0
230
1
0
LINE
5
160
100
AcDbEntity
8
1
62
256
6
ByLayer
370
18
48
1
60
1
100
AcDbLine
10
177.960784
20
-9.795498
30
0
11
177.5
21
-13.2955
31
0
39
0
210
0
220
0
230
1
0
LINE
5
163
100
AcDbEntity
8
1
62
256
6
ByLayer
370
18
48
1
60
1
100
AcDbLine
10
176.498383
20
-17.85416
30
0
11
179.551575
21
-16.082064
31
0
39
0
210
0
220
0
230
1
0
LINE
5
164
100
AcDbEntity
8
1
62
256
6
ByLayer
370
18
48
1
60
1
100
AcDbLine
10
179.551575
20
-16.082064
30
0
11
179.906196
21
-16.93267
31
0
39
0
210
0
220
0
230
1
0
LINE
5
165
100
AcDbEntity
8
1
62
256
6
ByLayer
370
18
48
1
60
1
100
AcDbLine
10
179.906196
20
-16.93267
30
0
11
176.498383
21
-17.85416
31
0
39
0
210
0
220
0
230
1
0
LINE
5
167
100
AcDbEntity
8
1
62
256
6
ByLayer
370
18
48
1
60
1
100
AcDbLine
10
176.498383
20
17.85416
30
0
11
179.906193
21
16.932671
31
0
39
0
210
0
220
0
230
1
0
LINE
5
168
100
AcDbEntity
8
1
62
256
6
ByLayer
370
18
48
1
60
1
100
AcDbLine
10
179.906193
20
16.932671
30
0
11
179.551579
21
16.082063
31
0
39
0
210
0
220
0
230
1
0
LINE
5
169
100
AcDbEntity
8
1
62
256
6
ByLayer
370
18
48
1
60
1
100
AcDbLine
10
179.551579
20
16.082063
30
0
11
176.498383
21
17.85416
31
0
39
0
210
0
220
0
230
1
0
MTEXT
5
14C
100
AcDbEntity
8
SK2
62
256
6
ByLayer
370
18
48
1
60
0
100
AcDbMText
10
-67.841114
20
27.533438
30
0
210
0
220
0
230
1
1
%%c
40
3
41
0
44
1.084337
50
90
71
7
72
5
7
iso_b_vert
0
MTEXT
5
14F
100
AcDbEntity
8
SK2
62
256
6
ByLayer
370
18
48
1
60
0
100
AcDbMText
10
-67.841114
20
33.51
30
0
210
0
220
0
230
1
1
\W0.7022;31.750
40
3
41
0
44
1.084337
50
90
71
7
72
5
7
iso_b_vert
0
MTEXT
5
158
100
AcDbEntity
8
2
62
256
6
ByLayer
370
18
48
1
60
0
100
AcDbMText
10
176.158886
20
24.953938
30
0
210
0
220
0
230
1
1
%%c
40
3
41
0
44
1.084337
50
90
71
7
72
5
7
iso_b_vert
0
MTEXT
5
159
100
AcDbEntity
8
2
62
256
6
ByLayer
370
18
48
1
60
0
100
AcDbMText
10
176.158886
20
30.9305
30
0
210
0
220
0
230
1
1
\W0.7440;26.591
40
3
41
0
44
1.084337
50
90
71
7
72
5
7
iso_b_vert
0
MTEXT
5
162
100
AcDbEntity
8
SK2
62
256
6
ByLayer
370
18
48
1
60
0
100
AcDbMText
10
189.909114
20
3.734657
30
0
210
0
220
0
230
1
1
\W0.7071;140%%d
40
3
41
0
44
1.084337
50
270
71
7
72
5
7
iso_b_vert
0
MTEXT
5
16B
100
AcDbEntity
8
SK6
62
256
6
ByLayer
370
18
48
1
60
0
100
AcDbMText
10
25.99206
20
-67.114886
30
0
210
0
220
0
230
1
1
\W0.7696;H8551.3/64
40
3
41
0
44
1.084337
50
0
71
7
72
5
7
iso_b_vert
0
HATCH
5
153
100
AcDbEntity
8
SK2
62
256
6
ByLayer
370
13
48
1
60
0
100
AcDbHatch
10
0
20
0
30
0
210
0
220
0
230
1
2
ANSI31
70
0
71
0
91
1
92
5
93
3
72
1
10
-66.5
20
15.875
11
-66.0392162584472
21
12.3750016925532
72
1
10
-66.0392162584472
20
12.3750016925532
11
-66.9607837415528
21
12.3749983074468
72
1
10
-66.9607837415528
20
12.3749983074468
11
-66.5
21
15.875
97
0
75
0
76
1
52
0
41
0.0062
77
0
78
1
53
45
43
0
44
0
45
-0.0139193969876572
46
0.0139193969876572
79
0
47
0
98
1
10
0
20
0
0
HATCH
5
157
100
AcDbEntity
8
SK2
62
256
6
ByLayer
370
13
48
1
60
0
100
AcDbHatch
10
0
20
0
30
0
210
0
220
0
230
1
2
ANSI31
70
0
71
0
91
1
92
5
93
3
72
1
10
-66.5
20
-15.875
11
-66.9607837415528
21
-12.3750016925532
72
1
10
-66.9607837415528
20
-12.3750016925532
11
-66.0392162584472
21
-12.3749983074468
72
1
10
-66.0392162584472
20
-12.3749983074468
11
-66.5
21
-15.875
97
0
75
0
76
1
52
0
41
0.0062
77
0
78
1
53
45
43
0
44
0
45
-0.0139193969876572
46
0.0139193969876572
79
0
47
0
98
1
10
0
20
0
0
HATCH
5
15D
100
AcDbEntity
8
2
62
256
6
ByLayer
370
13
48
1
60
0
100
AcDbHatch
10
0
20
0
30
0
210
0
220
0
230
1
2
ANSI31
70
0
71
0
91
1
92
5
93
3
72
1
10
177.5
20
13.2955
11
177.960783741553
21
9.79550169255319
72
1
10
177.960783741553
20
9.79550169255319
11
177.039216258447
21
9.79549830744682
72
1
10
177.039216258447
20
9.79549830744682
11
177.5
21
13.2955
97
0
75
0
76
1
52
0
41
0.0062
77
0
78
1
53
45
43
0
44
0
45
-0.0139193969876572
46
0.0139193969876572
79
0
47
0
98
1
10
0
20
0
0
HATCH
5
161
100
AcDbEntity
8
2
62
256
6
ByLayer
370
13
48
1
60
0
100
AcDbHatch
10
0
20
0
30
0
210
0
220
0
230
1
2
ANSI31
70
0
71
0
91
1
92
5
93
3
72
1
10
177.5
20
-13.2955
11
177.039216258447
21
-9.79550169255316
72
1
10
177.039216258447
20
-9.79550169255316
11
177.960783741553
21
-9.79549830744679
72
1
10
177.960783741553
20
-9.79549830744679
11
177.5
21
-13.2955
97
0
75
0
76
1
52
0
41
0.0062
77
0
78
1
53
45
43
0
44
0
45
-0.0139193969876572
46
0.0139193969876572
79
0
47
0
98
1
10
0
20
0
0
HATCH
5
166
100
AcDbEntity
8
SK2
62
256
6
ByLayer
370
13
48
1
60
0
100
AcDbHatch
10
0
20
0
30
0
210
0
220
0
230
1
2
ANSI31
70
0
71
0
91
1
92
5
93
3
72
1
10
176.498382723188
20
-17.8541597949323
11
179.551575425693
21
-16.0820638240608
72
1
10
179.551575425693
20
-16.0820638240608
11
179.906195833975
21
-16.9326700737196
72
1
10
179.906195833975
20
-16.9326700737196
11
176.498382723188
21
-17.8541597949323
97
0
75
0
76
1
52
0
41
0.0062
77
0
78
1
53
45
43
0
44
0
45
-0.0139193969876572
46
0.0139193969876572
79
0
47
0
98
1
10
0
20
0
0
HATCH
5
16A
100
AcDbEntity
8
SK2
62
256
6
ByLayer
370
13
48
1
60
0
100
AcDbHatch
10
0
20
0
30
0
210
0
220
0
230
1
2
ANSI31
70
0
71
0
91
1
92
5
93
3
72
1
10
176.498382723188
20
17.8541597949323
11
179.906192709519
21
16.9326713763016
72
1
10
179.906192709519
20
16.9326713763016
11
179.551578550149
21
16.0820625214788
72
1
10
179.551578550149
20
16.0820625214788
11
176.498382723188
21
17.8541597949323
97
0
75
0
76
1
52
0
41
0.0062
77
0
78
1
53
45
43
0
44
0
45
-0.0139193969876572
46
0.0139193969876572
79
0
47
0
98
1
10
0
20
0
0
DIMENSION
5
16E
100
AcDbEntity
8
SK2
62
256
6
ByLayer
370
18
48
1
60
0
100
AcDbDimension
2
_U0
10
170
20
-45.952229
30
0
11
55
21
-45.952229
31
0
70
32
71
1
72
1
41
1
210
0
220
0
230
1
3
Standard
100
AcDbAlignedDimension
13
-60
23
-15.875
33
0
14
170
24
0
34
0
50
0
100
AcDbRotatedDimension
1001
ACAD
1000
DSTYLE
1002
{
1070
   371
1070
    13
1070
   372
1070
    13
1070
     3
1000

1070
   170
1070
     0
1070
   144
1040
1.0
1070
   277
1070
     2
1070
   284
1070
     8
1070
   278
1070
    46
1070
   146
1040
1.166667
1070
   345
1005
16
1070
   347
1005
16
1070
   346
1005
16
1070
   344
1005
0
1070
   343
1005
0
1070
   172
1070
     1
1070
    76
1070
     0
1070
    75
1070
     0
1070
   282
1070
     0
1070
   281
1070
     0
1070
    71
1070
     0
1070
    74
1070
     0
1070
   279
1070
     0
1070
   173
1070
     1
1070
   340
1005
14D
1070
   271
1070
     2
1070
   272
1070
     3
1070
    77
1070
     1
1070
    73
1070
     1
1070
   171
1070
     3
1070
   274
1070
     4
1070
   177
1070
     2
1070
   176
1070
     2
1070
   178
1070
     2
1070
    78
1070
     8
1070
    48
1040
-0.1
1070
    41
1040
3.5
1070
   147
1040
1.5
1070
    42
1040
1.5875
1070
    44
1040
2.0
1070
   140
1040
3.0
1002
}
1001
ACAD_DSTYLE_DIM_LINETYPE
1070
   380
1005
16
1001
ACAD_DSTYLE_DIM_EXT1_LINETYPE
1070
   381
1005
16
1001
ACAD_DSTYLE_DIM_EXT2_LINETYPE
1070
   382
1005
16
0
DIMENSION
5
187
100
AcDbEntity
8
SK2
62
256
6
ByLayer
370
18
48
1
60
0
100
AcDbDimension
2
_U1
10
3
20
-35.952229
30
0
11
86.5
21
-35.952229
31
0
70
32
71
1
72
1
41
1
210
0
220
0
230
1
3
Standard
100
AcDbAlignedDimension
13
170
23
0
33
0
14
3
24
-13.2955
34
0
50
0
100
AcDbRotatedDimension
1001
ACAD
1000
DSTYLE
1002
{
1070
   371
1070
    13
1070
   372
1070
    13
1070
     3
1000

1070
   170
1070
     0
1070
   144
1040
1.0
1070
   277
1070
     2
1070
   284
1070
     8
1070
   278
1070
    46
1070
   146
1040
1.166667
1070
   345
1005
16
1070
   347
1005
16
1070
   346
1005
16
1070
   344
1005
0
1070
   343
1005
0
1070
   172
1070
     1
1070
    76
1070
     0
1070
    75
1070
     0
1070
   282
1070
     0
1070
   281
1070
     0
1070
    71
1070
     0
1070
    74
1070
     0
1070
   279
1070
     0
1070
   173
1070
     1
1070
   340
1005
14D
1070
   271
1070
     2
1070
   272
1070
     3
1070
    77
1070
     1
1070
    73
1070
     1
1070
   171
1070
     3
1070
   274
1070
     4
1070
   177
1070
     2
1070
   176
1070
     2
1070
   178
1070
     2
1070
    78
1070
     8
1070
    48
1040
-0.1
1070
    41
1040
3.5
1070
   147
1040
1.5
1070
    42
1040
1.5875
1070
    44
1040
2.0
1070
   140
1040
3.0
1002
}
1001
ACAD_DSTYLE_DIM_LINETYPE
1070
   380
1005
16
1001
ACAD_DSTYLE_DIM_EXT1_LINETYPE
1070
   381
1005
16
1001
ACAD_DSTYLE_DIM_EXT2_LINETYPE
1070
   382
1005
16
0
DIMENSION
5
19F
100
AcDbEntity
8
SK2
62
256
6
ByLayer
370
18
48
1
60
0
100
AcDbDimension
2
_U2
10
0
20
-35.952229
30
0
11
-30
21
-35.952229
31
0
70
32
71
1
72
1
41
1
210
0
220
0
230
1
3
Standard
100
AcDbAlignedDimension
13
-60
23
-15.875
33
0
14
0
24
-15.875
34
0
50
0
100
AcDbRotatedDimension
1001
ACAD
1000
DSTYLE
1002
{
1070
   371
1070
    13
1070
   372
1070
    13
1070
     3
1000

1070
   170
1070
     0
1070
   144
1040
1.0
1070
   277
1070
     2
1070
   284
1070
     8
1070
   278
1070
    46
1070
   146
1040
1.166667
1070
   345
1005
16
1070
   347
1005
16
1070
   346
1005
16
1070
   344
1005
0
1070
   343
1005
0
1070
   172
1070
     1
1070
    76
1070
     0
1070
    75
1070
     0
1070
   282
1070
     0
1070
   281
1070
     0
1070
    71
1070
     0
1070
    74
1070
     0
1070
   279
1070
     0
1070
   173
1070
     1
1070
   340
1005
14D
1070
   271
1070
     2
1070
   272
1070
     3
1070
    77
1070
     1
1070
    73
1070
     1
1070
   171
1070
     3
1070
   274
1070
     4
1070
   177
1070
     2
1070
   176
1070
     2
1070
   178
1070
     2
1070
    78
1070
     8
1070
    48
1040
-0.1
1070
    41
1040
3.5
1070
   147
1040
1.5
1070
    42
1040
1.5875
1070
    44
1040
2.0
1070
   140
1040
3.0
1002
}
1001
ACAD_DSTYLE_DIM_LINETYPE
1070
   380
1005
16
1001
ACAD_DSTYLE_DIM_EXT1_LINETYPE
1070
   381
1005
16
1001
ACAD_DSTYLE_DIM_EXT2_LINETYPE
1070
   382
1005
16
0
DIMENSION
5
1B7
100
AcDbEntity
8
SK2
62
256
6
ByLayer
370
18
48
1
60
0
100
AcDbDimension
2
_U3
10
24
20
32.952229
30
0
11
97
21
32.952229
31
0
70
32
71
1
72
1
41
1
210
0
220
0
230
1
3
Standard
100
AcDbAlignedDimension
13
170
23
0
33
0
14
24
24
13.2955
34
0
50
0
100
AcDbRotatedDimension
1001
ACAD
1000
DSTYLE
1002
{
1070
   371
1070
    13
1070
   372
1070
    13
1070
     3
1000

1070
   170
1070
     0
1070
   144
1040
1.0
1070
   277
1070
     2
1070
   284
1070
     8
1070
   278
1070
    46
1070
   146
1040
1.166667
1070
   345
1005
16
1070
   347
1005
16
1070
   346
1005
16
1070
   344
1005
0
1070
   343
1005
0
1070
   172
1070
     1
1070
    76
1070
     0
1070
    75
1070
     0
1070
   282
1070
     0
1070
   281
1070
     0
1070
    71
1070
     0
1070
    74
1070
     0
1070
   279
1070
     0
1070
   173
1070
     1
1070
   340
1005
14D
1070
   271
1070
     2
1070
   272
1070
     3
1070
    77
1070
     1
1070
    73
1070
     1
1070
   171
1070
     3
1070
   274
1070
     4
1070
   177
1070
     2
1070
   176
1070
     2
1070
   178
1070
     2
1070
    78
1070
     8
1070
    48
1040
-0.1
1070
    41
1040
3.5
1070
   147
1040
1.5
1070
    42
1040
1.5875
1070
    44
1040
2.0
1070
   140
1040
3.0
1002
}
1001
ACAD_DSTYLE_DIM_LINETYPE
1070
   380
1005
16
1001
ACAD_DSTYLE_DIM_EXT1_LINETYPE
1070
   381
1005
16
1001
ACAD_DSTYLE_DIM_EXT2_LINETYPE
1070
   382
1005
16
0
ENDSEC
0
SECTION
2
OBJECTS
0
DICTIONARY
5
23f
330
0
100
AcDbDictionary
280
0
281
1
3
ACAD_GROUP
350
240
3
ACAD_MLINESTYLE
350
241
0
DICTIONARY
5
240
330
0
100
AcDbDictionary
280
0
281
1
0
DICTIONARY
5
241
330
0
100
AcDbDictionary
280
0
281
1
3
Standard
350
18
0
MLINESTYLE
5
18
330
241
100
AcDbMlineStyle
2
Standard
70
0
3

62
256
51
90
52
90
71
2
49
-0.5
62
256
6
ByLayer
49
0.5
62
256
6
ByLayer
0
RASTERVARIABLES
5
22d
330

100
AcDbRasterVariables
90
0
70
1
71
1
72
1
0
ENDSEC
0
EOF
