0
SECTION
2
HEADER
9
$ACADVER
1
AC1015
9
$DWGCODEPAGE
3
ANSI_1252
9
$HANDSEED
5
233
9
$ANGBASE
50
0
9
$ANGDIR
70
0
9
$ATTMODE
70
1
9
$AUNITS
70
0
9
$AUPREC
70
0
9
$CECOLOR
62
256
9
$CELTSCALE
40
1
9
$CELTYPE
6
ByLayer
9
$CELWEIGHT
370
18
9
$CLAYER
8
0
9
$CMLJUST
70
0
9
$CMLSCALE
40
1
9
$CMLSTYLE
2
Standard
9
$DIMSTYLE
2
Standard
9
$TEXTSIZE
40
0.2
9
$TEXTSTYLE
7
Standard
9
$LUNITS
70
2
9
$LUPREC
70
4
9
$EXTNAMES
290
1
9
$INSUNITS
70
4
9
$LTSCALE
40
1
9
$LWDISPLAY
290
1
9
$PDMODE
70
0
9
$PDSIZE
40
0
9
$PLINEGEN
70
0
0
ENDSEC
0
SECTION
2
CLASSES
0
CLASS
1
RASTERVARIABLES
2
AcDbRasterVariables
3
ISM
90
0
280
0
281
0
0
ENDSEC
0
SECTION
2
TABLES
0
TABLE
2
VPORT
5
229
100
AcDbSymbolTable
0
VPORT
5
1
100
AcDbSymbolTableRecord
100
AcDbViewportTableRecord
2
*Active
70
0
10
0
20
0
11
1
21
1
12
-1
22
1
13
0
23
0
14
0.5
24
0.5
15
10
25
10
16
0
26
0
36
1
17
0
27
0
37
0
0
ENDTAB
0
TABLE
2
LTYPE
5
22a
100
AcDbSymbolTable
0
LTYPE
5
14
100
AcDbSymbolTableRecord
100
AcDbLinetypeTableRecord
70
0
2
ByBlock
3

72
65
73
0
40
0
0
LTYPE
5
15
100
AcDbSymbolTableRecord
100
AcDbLinetypeTableRecord
70
0
2
ByLayer
3

72
65
73
0
40
0
0
LTYPE
5
16
100
AcDbSymbolTableRecord
100
AcDbLinetypeTableRecord
70
0
2
Continuous
3
Solid line
72
65
73
0
40
0
0
LTYPE
5
6E
100
AcDbSymbolTableRecord
100
AcDbLinetypeTableRecord
70
0
2
CENTER
3
____ _ ____ _ ____ _ ____
72
65
73
4
40
47.5
49
22
74
0
49
-8.5
74
0
49
8.5
74
0
49
-8.5
74
0
0
LTYPE
5
6F
100
AcDbSymbolTableRecord
100
AcDbLinetypeTableRecord
70
0
2
DASHED
3
__ __ __ __ __ __ __ __ __
72
65
73
2
40
25.72
49
12.86
74
0
49
-12.86
74
0
0
ENDTAB
0
TABLE
2
LAYER
5
22b
100
AcDbSymbolTable
0
LAYER
5
10
100
AcDbSymbolTableRecord
100
AcDbLayerTableRecord
2
0
70
0
62
7
6
Continuous
290
1
370
-3
390
0
0
LAYER
5
71
100
AcDbSymbolTableRecord
100
AcDbLayerTableRecord
2
81
70
0
62
-3
6
Continuous
290
1
370
-3
390
0
0
LAYER
5
73
100
AcDbSymbolTableRecord
100
AcDbLayerTableRecord
2
80
70
0
62
-6
6
Continuous
290
1
370
-3
390
0
0
LAYER
5
75
100
AcDbSymbolTableRecord
100
AcDbLayerTableRecord
2
1
70
0
62
4
6
Continuous
290
1
370
-3
390
0
0
LAYER
5
7E
100
AcDbSymbolTableRecord
100
AcDbLayerTableRecord
2
4
70
0
62
-2
6
CENTER
290
1
370
-3
390
0
0
LAYER
5
AF
100
AcDbSymbolTableRecord
100
AcDbLayerTableRecord
2
2
70
0
62
7
6
Continuous
290
1
370
-3
390
0
0
LAYER
5
158
100
AcDbSymbolTableRecord
100
AcDbLayerTableRecord
2
Defpoints
70
0
62
7
6
Continuous
290
0
370
-3
390
0
0
LAYER
5
215
100
AcDbSymbolTableRecord
100
AcDbLayerTableRecord
2
SK4
70
0
62
2
6
CENTER
290
1
370
-3
390
0
0
LAYER
5
216
100
AcDbSymbolTableRecord
100
AcDbLayerTableRecord
2
SK1
70
0
62
4
6
Continuous
290
1
370
-3
390
0
0
LAYER
5
217
100
AcDbSymbolTableRecord
100
AcDbLayerTableRecord
2
SK2
70
0
62
7
6
Continuous
290
1
370
-3
390
0
0
LAYER
5
218
100
AcDbSymbolTableRecord
100
AcDbLayerTableRecord
2
SK6
70
0
62
5
6
Continuous
290
1
370
-3
390
0
0
ENDTAB
0
TABLE
2
STYLE
5
22c
100
AcDbSymbolTable
0
STYLE
5
11
100
AcDbSymbolTableRecord
100
AcDbTextStyleTableRecord
2
Standard
3
txt
70
0
71
0
40
0
41
1
42
0
50
0
0
STYLE
5
134
100
AcDbSymbolTableRecord
100
AcDbTextStyleTableRecord
2
iso_b_vert
3
simplex.shx
70
0
71
0
40
0
41
1
42
0
50
0
0
STYLE
5
135
100
AcDbSymbolTableRecord
100
AcDbTextStyleTableRecord
2
DWGDirectTextStyle
3
simplex
70
0
71
0
40
0
41
1
42
0
50
0
0
ENDTAB
0
TABLE
2
DIMSTYLE
5
22d
100
AcDbSymbolTable
100
AcDbDimStyleTable
0
DIMSTYLE
105
27
100
AcDbSymbolTableRecord
100
AcDbDimStyleTableRecord
2
Standard
70
0
3
<>
41
0.18
42
0.0625
44
0.18
140
0.18
147
0.09
73
0
74
0
77
1
271
2
275
0
278
52
280
0
340
11
0
ENDTAB
0
TABLE
2
VIEW
5
22e
100
AcDbSymbolTable
0
ENDTAB
0
TABLE
2
UCS
5
22f
100
AcDbSymbolTable
0
ENDTAB
0
TABLE
2
APPID
5
230
100
AcDbSymbolTable
0
APPID
5
12
100
AcDbSymbolTableRecord
100
AcDbRegAppTableRecord
2
ACAD
70
0
0
APPID
5
154
100
AcDbSymbolTableRecord
100
AcDbRegAppTableRecord
2
ACAD_DSTYLE_DIMBREAK
70
0
0
APPID
5
1D4
100
AcDbSymbolTableRecord
100
AcDbRegAppTableRecord
2
ACAD_DSTYLE_DIM_LINETYPE
70
0
0
APPID
5
1D5
100
AcDbSymbolTableRecord
100
AcDbRegAppTableRecord
2
ACAD_DSTYLE_DIM_EXT1_LINETYPE
70
0
0
APPID
5
1D6
100
AcDbSymbolTableRecord
100
AcDbRegAppTableRecord
2
ACAD_DSTYLE_DIM_EXT2_LINETYPE
70
0
0
APPID
5
211
100
AcDbSymbolTableRecord
100
AcDbRegAppTableRecord
2
ACAD_MLEADERVER
70
0
0
ENDTAB
0
TABLE
2
BLOCK_RECORD
5
231
100
AcDbSymbolTable
0
BLOCK_RECORD
5
1F
100
AcDbSymbolTableRecord
100
AcDbBlockTableRecord
2
*Model_Space
340
0
70
0
0
BLOCK_RECORD
5
1B
100
AcDbSymbolTableRecord
100
AcDbBlockTableRecord
2
*Paper_Space
340
0
70
0
0
BLOCK_RECORD
5
23
100
AcDbSymbolTableRecord
100
AcDbBlockTableRecord
2
*Paper_Space0
340
0
70
0
0
BLOCK_RECORD
5
159
100
AcDbSymbolTableRecord
100
AcDbBlockTableRecord
2
*D1
340
0
70
0
0
BLOCK_RECORD
5
165
100
AcDbSymbolTableRecord
100
AcDbBlockTableRecord
2
_U0
340
0
70
0
0
BLOCK_RECORD
5
171
100
AcDbSymbolTableRecord
100
AcDbBlockTableRecord
2
*D3
340
0
70
0
0
BLOCK_RECORD
5
17D
100
AcDbSymbolTableRecord
100
AcDbBlockTableRecord
2
_U1
340
0
70
0
0
BLOCK_RECORD
5
189
100
AcDbSymbolTableRecord
100
AcDbBlockTableRecord
2
*D5
340
0
70
0
0
BLOCK_RECORD
5
195
100
AcDbSymbolTableRecord
100
AcDbBlockTableRecord
2
_U2
340
0
70
0
0
BLOCK_RECORD
5
1A1
100
AcDbSymbolTableRecord
100
AcDbBlockTableRecord
2
*D7
340
0
70
0
0
BLOCK_RECORD
5
1AD
100
AcDbSymbolTableRecord
100
AcDbBlockTableRecord
2
_U3
340
0
70
0
0
ENDTAB
0
ENDSEC
0
SECTION
2
BLOCKS
0
BLOCK
5
20
100
AcDbEntity
8
0
100
AcDbBlockBegin
2
*Model_Space
70
0
10
0
20
0
30
0
3
*Model_Space
0
ENDBLK
5
21
100
AcDbEntity
8
0
100
AcDbBlockEnd
0
BLOCK
5
1C
100
AcDbEntity
8
0
100
AcDbBlockBegin
2
*Paper_Space
70
0
10
0
20
0
30
0
3
*Paper_Space
0
ENDBLK
5
1D
100
AcDbEntity
8
0
100
AcDbBlockEnd
0
BLOCK
5
24
100
AcDbEntity
8
0
100
AcDbBlockBegin
2
*Paper_Space0
70
0
10
0
20
0
30
0
3
*Paper_Space0
0
ENDBLK
5
25
100
AcDbEntity
8
0
100
AcDbBlockEnd
0
BLOCK
5
15A
100
AcDbEntity
8
0
100
AcDbBlockBegin
2
*D1
70
1
10
0
20
0
30
0
3
*D1
0
LINE
5
15C
100
AcDbEntity
8
0
62
256
6
ByLayer
370
-2
48
1
60
0
100
AcDbLine
10
-56
20
-14.0875
30
0
11
-56
21
-47.952229
31
0
39
0
210
0
220
0
230
1
0
LINE
5
15D
100
AcDbEntity
8
0
62
256
6
ByLayer
370
-2
48
1
60
0
100
AcDbLine
10
135.5
20
-1.5875
30
0
11
135.5
21
-47.952229
31
0
39
0
210
0
220
0
230
1
0
LINE
5
15E
100
AcDbEntity
8
0
62
256
6
ByLayer
370
-2
48
1
60
0
100
AcDbLine
10
-52.5
20
-45.952229
30
0
11
132
21
-45.952229
31
0
39
0
210
0
220
0
230
1
0
SOLID
5
15F
100
AcDbEntity
8
0
62
256
6
ByLayer
370
-1
48
1
60
0
100
AcDbTrace
10
-52.5
20
-45.368896
30
0
11
-52.5
21
-46.535563
31
0
12
-56
22
-45.952229
32
0
13
-56
23
-45.952229
33
0
39
0
210
0
220
0
230
1
0
SOLID
5
160
100
AcDbEntity
8
0
62
256
6
ByLayer
370
-1
48
1
60
0
100
AcDbTrace
10
132
20
-46.535563
30
0
11
132
21
-45.368896
31
0
12
135.5
22
-45.952229
32
0
13
135.5
23
-45.952229
33
0
39
0
210
0
220
0
230
1
0
MTEXT
5
161
100
AcDbEntity
8
0
62
256
6
ByLayer
370
18
48
1
60
0
100
AcDbMText
10
39.75
20
-39.952229
30
0
210
0
220
0
230
1
1
\A1;191.5
40
3
41
0
44
1
50
0
71
5
72
5
7
iso_b_vert
0
POINT
5
162
100
AcDbEntity
8
Defpoints
62
0
6
ByLayer
370
-1
48
1
60
0
100
AcDbPoint
10
-56
20
-12.5
30
0
39
0
210
0
220
0
230
1
50
360
0
POINT
5
163
100
AcDbEntity
8
Defpoints
62
0
6
ByLayer
370
-1
48
1
60
0
100
AcDbPoint
10
135.5
20
0
30
0
39
0
210
0
220
0
230
1
50
360
0
POINT
5
164
100
AcDbEntity
8
Defpoints
62
0
6
ByLayer
370
-1
48
1
60
0
100
AcDbPoint
10
135.5
20
-45.952229
30
0
39
0
210
0
220
0
230
1
50
360
0
ENDBLK
5
15B
100
AcDbEntity
8
0
100
AcDbBlockEnd
0
BLOCK
5
16C
100
AcDbEntity
8
0
100
AcDbBlockBegin
2
_U0
70
0
10
0
20
0
30
0
3
_U0
0
MTEXT
5
166
100
AcDbEntity
8
SK2
62
256
6
ByLayer
370
18
48
1
60
0
100
AcDbMText
10
34.896601
20
-45.067115
30
0
210
0
220
0
230
1
1
\W0.6532;191.50
40
3
41
0
44
1.084337
50
0
71
7
72
5
7
iso_b_vert
0
LINE
5
167
100
AcDbEntity
8
SK2
62
256
6
ByLayer
370
13
48
1
60
0
100
AcDbLine
10
-56
20
-14.0875
30
0
11
-56
21
-47.952229
31
0
39
0
210
0
220
0
230
1
0
LINE
5
168
100
AcDbEntity
8
SK2
62
256
6
ByLayer
370
13
48
1
60
0
100
AcDbLine
10
135.5
20
-1.5875
30
0
11
135.5
21
-47.952229
31
0
39
0
210
0
220
0
230
1
0
LINE
5
169
100
AcDbEntity
8
SK2
62
256
6
ByLayer
370
13
48
1
60
0
100
AcDbLine
10
-56
20
-45.952229
30
0
11
135.5
21
-45.952229
31
0
39
0
210
0
220
0
230
1
0
SOLID
5
16A
100
AcDbEntity
8
SK2
62
256
6
ByLayer
370
18
48
1
60
0
100
AcDbTrace
10
-56
20
-45.952229
30
0
11
-52.500002
21
-45.491446
31
0
12
-52.499998
22
-46.413013
32
0
13
-52.499998
23
-46.413013
33
0
39
0
210
0
220
0
230
1
0
SOLID
5
16B
100
AcDbEntity
8
SK2
62
256
6
ByLayer
370
18
48
1
60
0
100
AcDbTrace
10
135.5
20
-45.952229
30
0
11
132.000002
21
-46.413013
31
0
12
131.999998
22
-45.491446
32
0
13
131.999998
23
-45.491446
33
0
39
0
210
0
220
0
230
1
0
ENDBLK
5
16D
100
AcDbEntity
8
0
100
AcDbBlockEnd
0
BLOCK
5
172
100
AcDbEntity
8
0
100
AcDbBlockBegin
2
*D3
70
1
10
0
20
0
30
0
3
*D3
0
LINE
5
174
100
AcDbEntity
8
0
62
256
6
ByLayer
370
-2
48
1
60
0
100
AcDbLine
10
135.5
20
-1.5875
30
0
11
135.5
21
-37.952229
31
0
39
0
210
0
220
0
230
1
0
LINE
5
175
100
AcDbEntity
8
0
62
256
6
ByLayer
370
-2
48
1
60
0
100
AcDbLine
10
3
20
-11.0875
30
0
11
3
21
-37.952229
31
0
39
0
210
0
220
0
230
1
0
LINE
5
176
100
AcDbEntity
8
0
62
256
6
ByLayer
370
-2
48
1
60
0
100
AcDbLine
10
132
20
-35.952229
30
0
11
6.5
21
-35.952229
31
0
39
0
210
0
220
0
230
1
0
SOLID
5
177
100
AcDbEntity
8
0
62
256
6
ByLayer
370
-1
48
1
60
0
100
AcDbTrace
10
132
20
-36.535563
30
0
11
132
21
-35.368896
31
0
12
135.5
22
-35.952229
32
0
13
135.5
23
-35.952229
33
0
39
0
210
0
220
0
230
1
0
SOLID
5
178
100
AcDbEntity
8
0
62
256
6
ByLayer
370
-1
48
1
60
0
100
AcDbTrace
10
6.5
20
-35.368896
30
0
11
6.5
21
-36.535563
31
0
12
3
22
-35.952229
32
0
13
3
23
-35.952229
33
0
39
0
210
0
220
0
230
1
0
MTEXT
5
179
100
AcDbEntity
8
0
62
256
6
ByLayer
370
18
48
1
60
0
100
AcDbMText
10
69.25
20
-29.952229
30
0
210
0
220
0
230
1
1
\A1;132.5
40
3
41
0
44
1
50
0
71
5
72
5
7
iso_b_vert
0
POINT
5
17A
100
AcDbEntity
8
Defpoints
62
0
6
ByLayer
370
-1
48
1
60
0
100
AcDbPoint
10
135.5
20
0
30
0
39
0
210
0
220
0
230
1
50
360
0
POINT
5
17B
100
AcDbEntity
8
Defpoints
62
0
6
ByLayer
370
-1
48
1
60
0
100
AcDbPoint
10
3
20
-9.5
30
0
39
0
210
0
220
0
230
1
50
360
0
POINT
5
17C
100
AcDbEntity
8
Defpoints
62
0
6
ByLayer
370
-1
48
1
60
0
100
AcDbPoint
10
3
20
-35.952229
30
0
39
0
210
0
220
0
230
1
50
360
0
ENDBLK
5
173
100
AcDbEntity
8
0
100
AcDbBlockEnd
0
BLOCK
5
184
100
AcDbEntity
8
0
100
AcDbBlockBegin
2
_U1
70
0
10
0
20
0
30
0
3
_U1
0
MTEXT
5
17E
100
AcDbEntity
8
SK2
62
256
6
ByLayer
370
18
48
1
60
0
100
AcDbMText
10
64.021658
20
-35.067115
30
0
210
0
220
0
230
1
1
\W0.7022;132.50
40
3
41
0
44
1.084337
50
0
71
7
72
5
7
iso_b_vert
0
LINE
5
17F
100
AcDbEntity
8
SK2
62
256
6
ByLayer
370
13
48
1
60
0
100
AcDbLine
10
135.5
20
-1.5875
30
0
11
135.5
21
-37.952229
31
0
39
0
210
0
220
0
230
1
0
LINE
5
180
100
AcDbEntity
8
SK2
62
256
6
ByLayer
370
13
48
1
60
0
100
AcDbLine
10
3
20
-11.0875
30
0
11
3
21
-37.952229
31
0
39
0
210
0
220
0
230
1
0
LINE
5
181
100
AcDbEntity
8
SK2
62
256
6
ByLayer
370
13
48
1
60
0
100
AcDbLine
10
135.5
20
-35.952229
30
0
11
3
21
-35.952229
31
0
39
0
210
0
220
0
230
1
0
SOLID
5
182
100
AcDbEntity
8
SK2
62
256
6
ByLayer
370
18
48
1
60
0
100
AcDbTrace
10
135.5
20
-35.952229
30
0
11
132.000002
21
-36.413013
31
0
12
131.999998
22
-35.491446
32
0
13
131.999998
23
-35.491446
33
0
39
0
210
0
220
0
230
1
0
SOLID
5
183
100
AcDbEntity
8
SK2
62
256
6
ByLayer
370
18
48
1
60
0
100
AcDbTrace
10
3
20
-35.952229
30
0
11
6.499998
21
-35.491446
31
0
12
6.500002
22
-36.413013
32
0
13
6.500002
23
-36.413013
33
0
39
0
210
0
220
0
230
1
0
ENDBLK
5
185
100
AcDbEntity
8
0
100
AcDbBlockEnd
0
BLOCK
5
18A
100
AcDbEntity
8
0
100
AcDbBlockBegin
2
*D5
70
1
10
0
20
0
30
0
3
*D5
0
LINE
5
18C
100
AcDbEntity
8
0
62
256
6
ByLayer
370
-2
48
1
60
0
100
AcDbLine
10
-56
20
-14.0875
30
0
11
-56
21
-37.952229
31
0
39
0
210
0
220
0
230
1
0
LINE
5
18D
100
AcDbEntity
8
0
62
256
6
ByLayer
370
-2
48
1
60
0
100
AcDbLine
10
0
20
-14.0875
30
0
11
0
21
-37.952229
31
0
39
0
210
0
220
0
230
1
0
LINE
5
18E
100
AcDbEntity
8
0
62
256
6
ByLayer
370
-2
48
1
60
0
100
AcDbLine
10
-52.5
20
-35.952229
30
0
11
-3.5
21
-35.952229
31
0
39
0
210
0
220
0
230
1
0
SOLID
5
18F
100
AcDbEntity
8
0
62
256
6
ByLayer
370
-1
48
1
60
0
100
AcDbTrace
10
-52.5
20
-35.368896
30
0
11
-52.5
21
-36.535563
31
0
12
-56
22
-35.952229
32
0
13
-56
23
-35.952229
33
0
39
0
210
0
220
0
230
1
0
SOLID
5
190
100
AcDbEntity
8
0
62
256
6
ByLayer
370
-1
48
1
60
0
100
AcDbTrace
10
-3.5
20
-36.535563
30
0
11
-3.5
21
-35.368896
31
0
12
0
22
-35.952229
32
0
13
0
23
-35.952229
33
0
39
0
210
0
220
0
230
1
0
MTEXT
5
191
100
AcDbEntity
8
0
62
256
6
ByLayer
370
18
48
1
60
0
100
AcDbMText
10
-28
20
-29.952229
30
0
210
0
220
0
230
1
1
\A1;56
40
3
41
0
44
1
50
0
71
5
72
5
7
iso_b_vert
0
POINT
5
192
100
AcDbEntity
8
Defpoints
62
0
6
ByLayer
370
-1
48
1
60
0
100
AcDbPoint
10
-56
20
-12.5
30
0
39
0
210
0
220
0
230
1
50
360
0
POINT
5
193
100
AcDbEntity
8
Defpoints
62
0
6
ByLayer
370
-1
48
1
60
0
100
AcDbPoint
10
0
20
-12.5
30
0
39
0
210
0
220
0
230
1
50
360
0
POINT
5
194
100
AcDbEntity
8
Defpoints
62
0
6
ByLayer
370
-1
48
1
60
0
100
AcDbPoint
10
0
20
-35.952229
30
0
39
0
210
0
220
0
230
1
50
360
0
ENDBLK
5
18B
100
AcDbEntity
8
0
100
AcDbBlockEnd
0
BLOCK
5
19C
100
AcDbEntity
8
0
100
AcDbBlockBegin
2
_U2
70
0
10
0
20
0
30
0
3
_U2
0
MTEXT
5
196
100
AcDbEntity
8
SK2
62
256
6
ByLayer
370
18
48
1
60
0
100
AcDbMText
10
-32.48237
20
-35.067115
30
0
210
0
220
0
230
1
1
\W0.7468;56.00
40
3
41
0
44
1.084337
50
0
71
7
72
5
7
iso_b_vert
0
LINE
5
197
100
AcDbEntity
8
SK2
62
256
6
ByLayer
370
13
48
1
60
0
100
AcDbLine
10
-56
20
-14.0875
30
0
11
-56
21
-37.952229
31
0
39
0
210
0
220
0
230
1
0
LINE
5
198
100
AcDbEntity
8
SK2
62
256
6
ByLayer
370
13
48
1
60
0
100
AcDbLine
10
0
20
-14.0875
30
0
11
0
21
-37.952229
31
0
39
0
210
0
220
0
230
1
0
LINE
5
199
100
AcDbEntity
8
SK2
62
256
6
ByLayer
370
13
48
1
60
0
100
AcDbLine
10
-56
20
-35.952229
30
0
11
0
21
-35.952229
31
0
39
0
210
0
220
0
230
1
0
SOLID
5
19A
100
AcDbEntity
8
SK2
62
256
6
ByLayer
370
18
48
1
60
0
100
AcDbTrace
10
-56
20
-35.952229
30
0
11
-52.500002
21
-35.491446
31
0
12
-52.499998
22
-36.413013
32
0
13
-52.499998
23
-36.413013
33
0
39
0
210
0
220
0
230
1
0
SOLID
5
19B
100
AcDbEntity
8
SK2
62
256
6
ByLayer
370
18
48
1
60
0
100
AcDbTrace
10
0
20
-35.952229
30
0
11
-3.499998
21
-36.413013
31
0
12
-3.500002
22
-35.491446
32
0
13
-3.500002
23
-35.491446
33
0
39
0
210
0
220
0
230
1
0
ENDBLK
5
19D
100
AcDbEntity
8
0
100
AcDbBlockEnd
0
BLOCK
5
1A2
100
AcDbEntity
8
0
100
AcDbBlockBegin
2
*D7
70
1
10
0
20
0
30
0
3
*D7
0
LINE
5
1A4
100
AcDbEntity
8
0
62
256
6
ByLayer
370
-2
48
1
60
0
100
AcDbLine
10
135.5
20
1.5875
30
0
11
135.5
21
34.952229
31
0
39
0
210
0
220
0
230
1
0
LINE
5
1A5
100
AcDbEntity
8
0
62
256
6
ByLayer
370
-2
48
1
60
0
100
AcDbLine
10
27
20
11.0875
30
0
11
27
21
34.952229
31
0
39
0
210
0
220
0
230
1
0
LINE
5
1A6
100
AcDbEntity
8
0
62
256
6
ByLayer
370
-2
48
1
60
0
100
AcDbLine
10
132
20
32.952229
30
0
11
30.5
21
32.952229
31
0
39
0
210
0
220
0
230
1
0
SOLID
5
1A7
100
AcDbEntity
8
0
62
256
6
ByLayer
370
-1
48
1
60
0
100
AcDbTrace
10
132
20
32.368896
30
0
11
132
21
33.535563
31
0
12
135.5
22
32.952229
32
0
13
135.5
23
32.952229
33
0
39
0
210
0
220
0
230
1
0
SOLID
5
1A8
100
AcDbEntity
8
0
62
256
6
ByLayer
370
-1
48
1
60
0
100
AcDbTrace
10
30.5
20
33.535563
30
0
11
30.5
21
32.368896
31
0
12
27
22
32.952229
32
0
13
27
23
32.952229
33
0
39
0
210
0
220
0
230
1
0
MTEXT
5
1A9
100
AcDbEntity
8
0
62
256
6
ByLayer
370
18
48
1
60
0
100
AcDbMText
10
81.25
20
38.952229
30
0
210
0
220
0
230
1
1
\A1;108.5
40
3
41
0
44
1
50
0
71
5
72
5
7
iso_b_vert
0
POINT
5
1AA
100
AcDbEntity
8
Defpoints
62
0
6
ByLayer
370
-1
48
1
60
0
100
AcDbPoint
10
135.5
20
0
30
0
39
0
210
0
220
0
230
1
50
360
0
POINT
5
1AB
100
AcDbEntity
8
Defpoints
62
0
6
ByLayer
370
-1
48
1
60
0
100
AcDbPoint
10
27
20
9.5
30
0
39
0
210
0
220
0
230
1
50
360
0
POINT
5
1AC
100
AcDbEntity
8
Defpoints
62
0
6
ByLayer
370
-1
48
1
60
0
100
AcDbPoint
10
27
20
32.952229
30
0
39
0
210
0
220
0
230
1
50
360
0
ENDBLK
5
1A3
100
AcDbEntity
8
0
100
AcDbBlockEnd
0
BLOCK
5
1B4
100
AcDbEntity
8
0
100
AcDbBlockBegin
2
_U3
70
0
10
0
20
0
30
0
3
_U3
0
MTEXT
5
1AE
100
AcDbEntity
8
SK2
62
256
6
ByLayer
370
18
48
1
60
0
100
AcDbMText
10
76.021658
20
33.837344
30
0
210
0
220
0
230
1
1
\W0.7022;108.50
40
3
41
0
44
1.084337
50
0
71
7
72
5
7
iso_b_vert
0
LINE
5
1AF
100
AcDbEntity
8
SK2
62
256
6
ByLayer
370
13
48
1
60
0
100
AcDbLine
10
135.5
20
1.5875
30
0
11
135.5
21
34.952229
31
0
39
0
210
0
220
0
230
1
0
LINE
5
1B0
100
AcDbEntity
8
SK2
62
256
6
ByLayer
370
13
48
1
60
0
100
AcDbLine
10
27
20
11.0875
30
0
11
27
21
34.952229
31
0
39
0
210
0
220
0
230
1
0
LINE
5
1B1
100
AcDbEntity
8
SK2
62
256
6
ByLayer
370
13
48
1
60
0
100
AcDbLine
10
135.5
20
32.952229
30
0
11
27
21
32.952229
31
0
39
0
210
0
220
0
230
1
0
SOLID
5
1B2
100
AcDbEntity
8
SK2
62
256
6
ByLayer
370
18
48
1
60
0
100
AcDbTrace
10
135.5
20
32.952229
30
0
11
132.000002
21
32.491446
31
0
12
131.999998
22
33.413013
32
0
13
131.999998
23
33.413013
33
0
39
0
210
0
220
0
230
1
0
SOLID
5
1B3
100
AcDbEntity
8
SK2
62
256
6
ByLayer
370
18
48
1
60
0
100
AcDbTrace
10
27
20
32.952229
30
0
11
30.499998
21
33.413013
31
0
12
30.500002
22
32.491446
32
0
13
30.500002
23
32.491446
33
0
39
0
210
0
220
0
230
1
0
ENDBLK
5
1B5
100
AcDbEntity
8
0
100
AcDbBlockEnd
0
ENDSEC
0
SECTION
2
ENTITIES
0
ARC
5
C0
100
AcDbEntity
8
SK2
62
256
6
ByLayer
370
13
48
1
60
0
100
AcDbCircle
39
0
10
135.5
20
0
30
0
40
18.9999999999999
210
0
220
0
230
1
100
AcDbArc
50
290
51
70
0
ELLIPSE
5
C1
100
AcDbEntity
8
SK1
62
256
6
ByLayer
370
18
48
1
60
0
100
AcDbEllipse
10
-41.343561
20
0
30
0
11
-2.29613691341699E-15
21
-12.5000000000002
31
0
210
0
220
0
230
1
40
0.932515
41
-1.86465462472194
42
-1.27693802886786
0
ELLIPSE
5
C2
100
AcDbEntity
8
SK1
62
256
6
ByLayer
370
18
48
1
60
0
100
AcDbEllipse
10
276.680659
20
0
30
0
11
357.953166043254
21
-4.05596621644435E-13
31
0
210
0
220
0
230
1
40
0.034921
41
2.52406396812455
42
2.73005601344533
0
ELLIPSE
5
C3
100
AcDbEntity
8
SK1
62
256
6
ByLayer
370
18
48
1
60
0
100
AcDbEllipse
10
276.680659
20
0
30
0
11
357.953166032003
21
-4.05596621631686E-13
31
0
210
0
220
0
230
1
40
0.034921
41
-2.73005601344242
42
-2.52406396811705
0
ELLIPSE
5
C4
100
AcDbEntity
8
SK1
62
256
6
ByLayer
370
18
48
1
60
0
100
AcDbEllipse
10
-25.404609
20
0
30
0
11
13.4046088753088
21
-1.51887581674114E-14
31
0
210
0
220
0
230
1
40
0.932515
41
-0.555530755442636
42
0.555530755442635
0
POINT
5
70
100
AcDbEntity
8
81
62
256
6
ByLayer
370
18
48
1
60
0
100
AcDbPoint
10
135.5
20
0
30
0
39
0
210
0
220
0
230
1
50
360
0
POINT
5
72
100
AcDbEntity
8
80
62
256
6
ByLayer
370
18
48
1
60
0
100
AcDbPoint
10
0
20
0
30
0
39
0
210
0
220
0
230
1
50
360
0
POINT
5
74
100
AcDbEntity
8
1
62
256
6
ByLayer
370
18
48
1
60
1
100
AcDbPoint
10
-56
20
-12.5
30
0
39
0
210
0
220
0
230
1
50
360
0
POINT
5
76
100
AcDbEntity
8
1
62
256
6
ByLayer
370
18
48
1
60
1
100
AcDbPoint
10
135.5
20
0
30
0
39
0
210
0
220
0
230
1
50
360
0
POINT
5
77
100
AcDbEntity
8
1
62
256
6
ByLayer
370
18
48
1
60
1
100
AcDbPoint
10
135.5
20
0
30
0
39
0
210
0
220
0
230
1
50
360
0
POINT
5
78
100
AcDbEntity
8
1
62
256
6
ByLayer
370
18
48
1
60
1
100
AcDbPoint
10
3
20
-9.5
30
0
39
0
210
0
220
0
230
1
50
360
0
POINT
5
79
100
AcDbEntity
8
1
62
256
6
ByLayer
370
18
48
1
60
1
100
AcDbPoint
10
-56
20
-12.5
30
0
39
0
210
0
220
0
230
1
50
360
0
POINT
5
7A
100
AcDbEntity
8
1
62
256
6
ByLayer
370
18
48
1
60
1
100
AcDbPoint
10
0
20
-12.5
30
0
39
0
210
0
220
0
230
1
50
360
0
POINT
5
7B
100
AcDbEntity
8
1
62
256
6
ByLayer
370
18
48
1
60
1
100
AcDbPoint
10
135.5
20
0
30
0
39
0
210
0
220
0
230
1
50
360
0
POINT
5
7C
100
AcDbEntity
8
1
62
256
6
ByLayer
370
18
48
1
60
1
100
AcDbPoint
10
27
20
9.5
30
0
39
0
210
0
220
0
230
1
50
360
0
SPLINE
5
C5
100
AcDbEntity
8
1
62
256
6
ByLayer
370
18
48
1
60
0
100
AcDbSpline
70
4
71
3
72
14
73
10
40
0
40
0
40
0
40
0
40
0.25
40
0.25
40
0.5
40
0.5
40
0.75
40
0.75
40
1
40
1
40
1
40
1
41
1
10
13.944526604193
20
8.66425220235485
30
0
41
1
10
13.607891573844
20
8.70552818721009
30
0
41
1
10
13.2738021517407
20
8.74640794230393
30
0
41
1
10
12.6095001028929
20
8.82524382875235
30
0
41
1
10
12.2792808651763
20
8.86320444534761
30
0
41
1
10
11.62212459809
20
8.93477447728398
30
0
41
1
10
11.2951859137244
20
8.96839644506153
30
0
41
1
10
10.6447661263364
20
9.03031212596341
30
0
41
1
10
10.3212876286951
20
9.05862307127316
30
0
41
1
10
10
20
9.08377626127975
30
0
0
SPLINE
5
C6
100
AcDbEntity
8
1
62
256
6
ByLayer
370
18
48
1
60
0
100
AcDbSpline
70
4
71
3
72
23
73
19
40
0
40
0
40
0
40
0
40
0.125000000000005
40
0.125000000000005
40
0.187500000000003
40
0.187500000000003
40
0.250000000000002
40
0.250000000000002
40
0.499999999999996
40
0.499999999999996
40
0.624999999999994
40
0.624999999999994
40
0.749999999999991
40
0.749999999999991
40
0.812499999999993
40
0.812499999999993
40
0.874999999999996
40
1
40
1
40
1
40
1
41
1
10
132.042282774468
20
-1.35771297157979
30
0
41
1
10
131.623192404428
20
-1.20688001212105
30
0
41
1
10
131.204426443304
20
-1.05532769837185
30
0
41
1
10
130.57681507476
20
-0.826781956277472
30
0
41
1
10
130.367693734591
20
-0.750417195707485
30
0
41
1
10
129.949391185873
20
-0.597946149445391
30
0
41
1
10
129.740233690664
20
-0.521773886479451
30
0
41
1
10
128.694425426376
20
-0.141198188726634
30
0
41
1
10
127.857713100572
20
0.162352899902032
30
0
41
1
10
126.602790524618
20
0.617005869583295
30
0
41
1
10
126.184507312891
20
0.768444142616545
30
0
41
1
10
125.34805083881
20
1.07126151752158
30
0
41
1
10
124.929887638489
20
1.22266826472338
30
0
41
1
10
124.302739334514
20
1.44976777988313
30
0
41
1
10
124.093661918854
20
1.52534470602177
30
0
41
1
10
123.675320175995
20
1.67589370607337
30
0
41
1
10
123.04758196444
20
1.9009603795964
30
0
41
1
10
122.419193445652
20
2.12383229597688
30
0
41
1
10
122
20
2.2714974718202
30
0
0
SPLINE
5
C7
100
AcDbEntity
8
1
62
256
6
ByLayer
370
18
48
1
60
0
100
AcDbSpline
70
4
71
3
72
88
73
84
40
0
40
0
40
0
40
0
40
0.0312499999999998
40
0.0312499999999998
40
0.0624999999999996
40
0.0624999999999996
40
0.124999999999999
40
0.124999999999999
40
0.140624999999999
40
0.140624999999999
40
0.148437499999999
40
0.148437499999999
40
0.156249999999999
40
0.187500000000002
40
0.218750000000005
40
0.218750000000005
40
0.250000000000008
40
0.250000000000008
40
0.281250000000011
40
0.281250000000011
40
0.296875000000012
40
0.296875000000012
40
0.312500000000014
40
0.312500000000014
40
0.343750000000017
40
0.343750000000017
40
0.37500000000002
40
0.37500000000002
40
0.406250000000022
40
0.406250000000022
40
0.437500000000025
40
0.437500000000025
40
0.453125000000027
40
0.453125000000027
40
0.468750000000028
40
0.468750000000028
40
0.500000000000031
40
0.500000000000031
40
0.531250000000034
40
0.531250000000034
40
0.539062500000034
40
0.539062500000034
40
0.546875000000035
40
0.562500000000036
40
0.562500000000036
40
0.593750000000038
40
0.593750000000038
40
0.62500000000004
40
0.62500000000004
40
0.632812500000041
40
0.632812500000041
40
0.640625000000041
40
0.656250000000041
40
0.656250000000041
40
0.68750000000004
40
0.68750000000004
40
0.718750000000039
40
0.718750000000039
40
0.726562500000038
40
0.726562500000038
40
0.734375000000037
40
0.734375000000037
40
0.750000000000035
40
0.750000000000035
40
0.781250000000033
40
0.781250000000033
40
0.81250000000003
40
0.81250000000003
40
0.843750000000028
40
0.843750000000028
40
0.851562500000027
40
0.851562500000027
40
0.859375000000027
40
0.875000000000024
40
0.875000000000024
40
0.906250000000018
40
0.937500000000013
40
0.968750000000007
40
0.968750000000007
40
0.976562500000005
40
0.976562500000005
40
0.984375000000003
40
1
40
1
40
1
40
1
41
1
10
132.042282774471
20
9.19833989056437
30
0
41
1
10
132.101606543887
20
9.05126654449325
30
0
41
1
10
132.161023772733
20
8.90198202541643
30
0
41
1
10
132.280146456518
20
8.59933765931055
30
0
41
1
10
132.339851808926
20
8.44597703373154
30
0
41
1
10
132.519506964114
20
7.98015723082676
30
0
41
1
10
132.640012284288
20
7.66199258414267
30
0
41
1
10
132.791693705569
20
7.25546375387262
30
0
41
1
10
132.822081163585
20
7.17371420912195
30
0
41
1
10
132.867737157458
20
7.05042955828395
30
0
41
1
10
132.882978797529
20
7.00919602898787
30
0
41
1
10
132.913432674513
20
6.92665488155944
30
0
41
1
10
132.989454967252
20
6.72022049773341
30
0
41
1
10
133.125297133472
20
6.34791660485109
30
0
41
1
10
133.244528032409
20
6.01594583793437
30
0
41
1
10
133.362864261961
20
5.68341959775097
30
0
41
1
10
133.42158602839
20
5.516879094426
30
0
41
1
10
133.537880283661
20
5.18315832789773
30
0
41
1
10
133.595455116039
20
5.01597890451765
30
0
41
1
10
133.680636377552
20
4.76461850627922
30
0
41
1
10
133.70883163692
20
4.68073251723342
30
0
41
1
10
133.764749573611
20
4.51273558571233
30
0
41
1
10
133.792480340714
20
4.42859761801103
30
0
41
1
10
133.874426157177
20
4.17702391923282
30
0
41
1
10
133.927545965653
20
4.01002522836291
30
0
41
1
10
134.029798216803
20
3.67718587734973
30
0
41
1
10
134.078936499553
20
3.51134719549742
30
0
41
1
10
134.171731921957
20
3.18048986818573
30
0
41
1
10
134.215396884484
20
3.01547191668365
30
0
41
1
10
134.294999880645
20
2.6858152118337
30
0
41
1
10
134.330941483995
20
2.52117511311735
30
0
41
1
10
134.376659691453
20
2.27409411896264
30
0
41
1
10
134.39054079068
20
2.19156468910057
30
0
41
1
10
134.41485901198
20
2.02799939589596
30
0
41
1
10
134.425329176119
20
1.94680401212438
30
0
41
1
10
134.451163334018
20
1.70504873214551
30
0
41
1
10
134.460896030334
20
1.54631156801244
30
0
41
1
10
134.463571490217
20
1.23427126863376
30
0
41
1
10
134.456499101708
20
1.08097076890942
30
0
41
1
10
134.437233399872
20
0.893239745128597
30
0
41
1
10
134.432861662318
20
0.855870885153962
30
0
41
1
10
134.423116421683
20
0.78161146638331
30
0
41
1
10
134.407059645383
20
0.671410572217496
30
0
41
1
10
134.386936130224
20
0.564729681920142
30
0
41
1
10
134.341945059827
20
0.355945303121587
30
0
41
1
10
134.305651744519
20
0.222850376534666
30
0
41
1
10
134.223749167073
20
-0.0316379313700565
30
0
41
1
10
134.178146758925
20
-0.153034748881765
30
0
41
1
10
134.116839761099
20
-0.297585208168158
30
0
41
1
10
134.104354704638
20
-0.326148397998423
30
0
41
1
10
134.079005021221
20
-0.382494178499997
30
0
41
1
10
134.040506018777
20
-0.465631462069837
30
0
41
1
10
134.000731382954
20
-0.544706747401477
30
0
41
1
10
133.919790937952
20
-0.697605903162895
30
0
41
1
10
133.863994206325
20
-0.79255141662594
30
0
41
1
10
133.74981295859
20
-0.968943896502566
30
0
41
1
10
133.691420689631
20
-1.05038828306982
30
0
41
1
10
133.617165320604
20
-1.14377565498481
30
0
41
1
10
133.602250049826
20
-1.16203123516587
30
0
41
1
10
133.572296687176
20
-1.19769524956519
30
0
41
1
10
133.557243865472
20
-1.2151195846987
30
0
41
1
10
133.5120879346
20
-1.26591588544258
30
0
41
1
10
133.481949327762
20
-1.29786185714673
30
0
41
1
10
133.39147673295
20
-1.38807614066425
30
0
41
1
10
133.331090459526
20
-1.44073244307381
30
0
41
1
10
133.210285278916
20
-1.53145922133092
30
0
41
1
10
133.149864480397
20
-1.56952815828174
30
0
41
1
10
133.028971790775
20
-1.63110745157078
30
0
41
1
10
132.968499033528
20
-1.65461779143061
30
0
41
1
10
132.89281325102
20
-1.67471662030965
30
0
41
1
10
132.87765626433
20
-1.67827344614648
30
0
41
1
10
132.847457256989
20
-1.68442533259395
30
0
41
1
10
132.802298159609
20
-1.69222178238994
30
0
41
1
10
132.757542419658
20
-1.69577243702781
30
0
41
1
10
132.668529329255
20
-1.69731031191975
30
0
41
1
10
132.551173859172
20
-1.68454455785769
30
0
41
1
10
132.378506210464
20
-1.62176937320669
30
0
41
1
10
132.265231981186
20
-1.55079333837844
30
0
41
1
10
132.194882401469
20
-1.49713529075694
30
0
41
1
10
132.180837814414
20
-1.48593949788176
30
0
41
1
10
132.152867755405
20
-1.46267745744024
30
0
41
1
10
132.111062400945
20
-1.42645685188037
30
0
41
1
10
132.069688528969
20
-1.38626684050792
30
0
41
1
10
132.042282774471
20
-1.35771297158087
30
0
0
SPLINE
5
C8
100
AcDbEntity
8
1
62
256
6
ByLayer
370
18
48
1
60
0
100
AcDbSpline
70
4
71
3
72
16
73
12
40
0
40
0
40
0
40
0
40
0.238856345767085
40
0.238856345767085
40
0.429142259325316
40
0.429142259325316
40
0.524285216104432
40
0.524285216104432
40
0.619428172883548
40
0.619428172883548
40
1
40
1
40
1
40
1
41
1
10
125.446160819869
20
9.49882411138225
30
0
41
1
10
125.971407085443
20
9.49892666467261
30
0
41
1
10
126.496548561778
20
9.49329674536511
30
0
41
1
10
127.43967563846
20
9.47285310337375
30
0
41
1
10
127.857735368325
20
9.46012564912195
30
0
41
1
10
128.48457894846
20
9.43542184323792
30
0
41
1
10
128.693454630455
20
9.42623808634232
30
0
41
1
10
129.111385827781
20
9.40607561115826
30
0
41
1
10
129.320440278208
20
9.39510038105664
30
0
41
1
10
130.366098442975
20
9.33578618068546
30
0
41
1
10
131.203817050877
20
9.27418139691218
30
0
41
1
10
132.042282774468
20
9.19833989056468
30
0
0
SPLINE
5
C9
100
AcDbEntity
8
1
62
256
6
ByLayer
370
18
48
1
60
0
100
AcDbSpline
70
4
71
3
72
53
73
49
40
0
40
0
40
0
40
0
40
0.0632111253912607
40
0.0632111253912607
40
0.126422250782521
40
0.126422250782521
40
0.189633376173782
40
0.189633376173782
40
0.221238938869413
40
0.221238938869413
40
0.252844501565044
40
0.252844501565044
40
0.316055626956308
40
0.316055626956308
40
0.379266752347571
40
0.379266752347571
40
0.442477877738835
40
0.442477877738835
40
0.474083440434466
40
0.474083440434466
40
0.489886221782283
40
0.489886221782283
40
0.5056890031301
40
0.5056890031301
40
0.56890012852137
40
0.56890012852137
40
0.632111253912641
40
0.632111253912641
40
0.695322379303911
40
0.695322379303911
40
0.711125160651729
40
0.711125160651729
40
0.726927941999547
40
0.726927941999547
40
0.758533504695182
40
0.758533504695182
40
0.821744630086453
40
0.821744630086453
40
0.884955755477723
40
0.884955755477723
40
0.916561318173359
40
0.916561318173359
40
0.948166880868994
40
0.948166880868994
40
0.963969662216812
40
0.963969662216812
40
0.979772443564629
40
1
40
1
40
1
40
1
41
1
10
18.0694929669956
20
-5.09246838905156
30
0
41
1
10
18.6112430523831
20
-5.25296495289311
30
0
41
1
10
19.1530030135495
20
-5.40891724376726
30
0
41
1
10
20.2362953973932
20
-5.71261493542946
30
0
41
1
10
20.7778269321937
20
-5.86036097667031
30
0
41
1
10
21.8604437950428
20
-6.14822253529425
30
0
41
1
10
22.4015269130428
20
-6.28834265970272
30
0
41
1
10
23.21265053968
20
-6.49307766509935
30
0
41
1
10
23.4829426479272
20
-6.56041118232238
30
0
41
1
10
24.0233446772746
20
-6.69326195303981
30
0
41
1
10
24.2933994731471
20
-6.75888239865034
30
0
41
1
10
25.1039657411009
20
-6.95168248408359
30
0
41
1
10
25.6447900994421
20
-7.07500666063254
30
0
41
1
10
26.7269918090983
20
-7.31206972505478
30
0
41
1
10
27.2683793929824
20
-7.42578752664323
30
0
41
1
10
28.3515158422004
20
-7.64396403255958
30
0
41
1
10
28.8932580410527
20
-7.74843351473311
30
0
41
1
10
29.7059987908897
20
-7.89828373688272
30
0
41
1
10
29.9769953417598
20
-7.94710460958834
30
0
41
1
10
30.3832836225473
20
-8.01854165765144
30
0
41
1
10
30.5186741142542
20
-8.04203943013607
30
0
41
1
10
30.7894774751899
20
-8.08826632529497
30
0
41
1
10
30.924881451547
20
-8.11100875642899
30
0
41
1
10
31.6018989841336
20
-8.22290291524504
30
0
41
1
10
32.1434972344684
20
-8.30662508957357
30
0
41
1
10
33.2263852573964
20
-8.4630936003538
30
0
41
1
10
33.7676855176141
20
-8.5358252217776
30
0
41
1
10
34.849778589213
20
-8.6705283229457
30
0
41
1
10
35.3905647663226
20
-8.73250512553511
30
0
41
1
10
36.0661158218826
20
-8.80321062469162
30
0
41
1
10
36.2012043618176
20
-8.81701290045586
30
0
41
1
10
36.4713380809859
20
-8.8439341574454
30
0
41
1
10
36.6063847610487
20
-8.85705113471531
30
0
41
1
10
37.0116317489774
20
-8.89524222776134
30
0
41
1
10
37.2819178125904
20
-8.91917675096872
30
0
41
1
10
38.0930685715909
20
-8.98652059739231
30
0
41
1
10
38.6342162175463
20
-9.02548505186411
30
0
41
1
10
39.7170232987181
20
-9.09183749632652
30
0
41
1
10
40.2586894774915
20
-9.11922159429301
30
0
41
1
10
41.071417355837
20
-9.15159903092268
30
0
41
1
10
41.3423645509005
20
-9.16093942011221
30
0
41
1
10
41.8843162837781
20
-9.17668488092869
30
0
41
1
10
42.1553828917679
20
-9.18309048996184
30
0
41
1
10
42.561631032087
20
-9.19045583914436
30
0
41
1
10
42.6969947936253
20
-9.19253723994592
30
0
41
1
10
42.967727502539
20
-9.19593937337703
30
0
41
1
10
43.2763727102385
20
-9.19895196382896
30
0
41
1
10
43.5850258886912
20
-9.20001320536059
30
0
41
1
10
43.7583017218977
20
-9.19999995071026
30
0
0
SPLINE
5
CA
100
AcDbEntity
8
1
62
256
6
ByLayer
370
18
48
1
60
0
100
AcDbSpline
70
4
71
3
72
34
73
30
40
0
40
0
40
0
40
0
40
0.064643512673564
40
0.064643512673564
40
0.168572011265391
40
0.168572011265391
40
0.220536260561304
40
0.220536260561304
40
0.272500509857218
40
0.272500509857218
40
0.324464759153131
40
0.324464759153131
40
0.376429008449045
40
0.376429008449045
40
0.480357507040871
40
0.480357507040871
40
0.584286005632698
40
0.584286005632698
40
0.636250254928608
40
0.636250254928608
40
0.662232379576564
40
0.662232379576564
40
0.68821450422452
40
0.68821450422452
40
0.792143002816347
40
0.792143002816347
40
0.896071501408172
40
0.896071501408172
40
1
40
1
40
1
40
1
41
1
10
106.367234219922
20
6.77679723971272
30
0
41
1
10
106.704018391174
20
6.85677366851047
30
0
41
1
10
107.040822192924
20
6.93499566045395
30
0
41
1
10
107.919096313462
20
7.1345456389914
30
0
41
1
10
108.460552884162
20
7.25318949167277
30
0
41
1
10
109.272552404035
20
7.42475742275877
30
0
41
1
10
109.543189240199
20
7.48087655120136
30
0
41
1
10
110.084387351571
20
7.5909682969214
30
0
41
1
10
110.354911773303
20
7.64499479867558
30
0
41
1
10
110.896388514986
20
7.75008078825056
30
0
41
1
10
111.167292166842
20
7.80122413695764
30
0
41
1
10
111.709382118562
20
7.90081515285391
30
0
41
1
10
111.980624149861
20
7.9492737117271
30
0
41
1
10
112.794133759202
20
8.0906048944276
30
0
41
1
10
113.336268161068
20
8.1794535094696
30
0
41
1
10
114.419914631928
20
8.34674301899548
30
0
41
1
10
114.961419671712
20
8.42519198321699
30
0
41
1
10
115.773057079631
20
8.53509984090113
30
0
41
1
10
116.043486687718
20
8.57045222098924
30
0
41
1
10
116.449012713414
20
8.62146754475711
30
0
41
1
10
116.584188648034
20
8.63811628742789
30
0
41
1
10
116.854607750451
20
8.67064053445327
30
0
41
1
10
116.989841994677
20
8.68652519439121
30
0
41
1
10
117.666121751622
20
8.76409010480018
30
0
41
1
10
118.207483159986
20
8.82021646322792
30
0
41
1
10
119.290598963103
20
8.92104702314725
30
0
41
1
10
119.832363383234
20
8.96574199608148
30
0
41
1
10
120.916083940255
20
9.04378631681533
30
0
41
1
10
121.458033997318
20
9.07713781106028
30
0
41
1
10
122
20
9.10470951995495
30
0
0
SPLINE
5
CB
100
AcDbEntity
8
1
62
256
6
ByLayer
370
18
48
1
60
0
100
AcDbSpline
70
4
71
3
72
71
73
67
40
0
40
0
40
0
40
0
40
0.0482276350066846
40
0.0482276350066846
40
0.0964552700133691
40
0.0964552700133691
40
0.108512178765041
40
0.108512178765041
40
0.120569087516714
40
0.120569087516714
40
0.144682905020058
40
0.144682905020058
40
0.192910540026749
40
0.192910540026749
40
0.24113817503344
40
0.24113817503344
40
0.265251992536785
40
0.265251992536785
40
0.277308901288457
40
0.277308901288457
40
0.289365810040129
40
0.289365810040129
40
0.337593445046822
40
0.337593445046822
40
0.361707262550167
40
0.361707262550167
40
0.385821080053513
40
0.385821080053513
40
0.434048715060206
40
0.434048715060206
40
0.458162532563553
40
0.458162532563553
40
0.482276350066901
40
0.482276350066901
40
0.530503985073596
40
0.530503985073596
40
0.578731620080292
40
0.578731620080292
40
0.626959255086987
40
0.626959255086987
40
0.639016163838662
40
0.639016163838662
40
0.651073072590338
40
0.675186890093688
40
0.675186890093688
40
0.699300707597039
40
0.699300707597039
40
0.72341452510039
40
0.72341452510039
40
0.771642160107091
40
0.771642160107091
40
0.795755977610442
40
0.795755977610442
40
0.819869795113793
40
0.819869795113793
40
0.868097430120496
40
0.868097430120496
40
0.9163250651272
40
0.9163250651272
40
0.964552700133903
40
0.964552700133903
40
0.976609608885579
40
0.976609608885579
40
0.988666517637254
40
0.988666517637254
40
1
40
1
40
1
40
1
41
1
10
122
20
2.0940667974354
30
0
41
1
10
121.435944607992
20
2.28714173662723
30
0
41
1
10
120.872276207767
20
2.47840977882879
30
0
41
1
10
119.745801299757
20
2.85759511136237
30
0
41
1
10
119.182997010413
20
3.04551914017929
30
0
41
1
10
118.480120121032
20
3.27852281986097
30
0
41
1
10
118.339582333162
20
3.32504456194556
30
0
41
1
10
118.058512110745
20
3.41774184283989
30
0
41
1
10
117.917970098404
20
3.46389201843311
30
0
41
1
10
117.496318873442
20
3.60173863658233
30
0
41
1
10
117.215186694909
20
3.6928373115276
30
0
41
1
10
116.371710045348
20
3.96379440686908
30
0
41
1
10
115.809285917277
20
4.1413182147198
30
0
41
1
10
114.684311806964
20
4.49040578043451
30
0
41
1
10
114.121759016469
20
4.66196278701403
30
0
41
1
10
113.277913738911
20
4.91498710359124
30
0
41
1
10
112.99662974712
20
4.99861028722719
30
0
41
1
10
112.574712130807
20
5.12298430482338
30
0
41
1
10
112.434075785457
20
5.16426894963354
30
0
41
1
10
112.152801211613
20
5.24647081818986
30
0
41
1
10
112.01215749148
20
5.2873747052947
30
0
41
1
10
111.308714076921
20
5.49045312435857
30
0
41
1
10
110.745358201447
20
5.64859232645856
30
0
41
1
10
109.899488559446
20
5.87952729319008
30
0
41
1
10
109.617462066371
20
5.95543982934313
30
0
41
1
10
109.053726338587
20
6.10504719781807
30
0
41
1
10
108.771952291755
20
6.17875999401764
30
0
41
1
10
107.926926703771
20
6.39666396727935
30
0
41
1
10
107.363970643548
20
6.53762514210155
30
0
41
1
10
106.520227370508
20
6.74273049516356
30
0
41
1
10
106.239118495878
20
6.81008630844872
30
0
41
1
10
105.677032429284
20
6.94246583963797
30
0
41
1
10
105.395960071863
20
7.00730968645183
30
0
41
1
10
104.552624637205
20
7.19779149870934
30
0
41
1
10
103.990261090792
20
7.31941957799432
30
0
41
1
10
102.865339480188
20
7.55223050818435
30
0
41
1
10
102.302780938463
20
7.66341273629575
30
0
41
1
10
101.17756199469
20
7.87544007518881
30
0
41
1
10
100.614907053228
20
7.97629434802903
30
0
41
1
10
99.9115993972387
20
8.09587286232713
30
0
41
1
10
99.7709352849947
20
8.11945869961269
30
0
41
1
10
99.4895170086838
20
8.16585462861701
30
0
41
1
10
99.0672729753914
20
8.23431129001662
30
0
41
1
10
98.6446836051905
20
8.29937785674764
30
0
41
1
10
98.0809356347955
20
8.38315240786807
30
0
41
1
10
97.7988825800911
20
8.42355284436746
30
0
41
1
10
97.2350912170942
20
8.50131400718109
30
0
41
1
10
96.9532809901843
20
8.53868593787988
30
0
41
1
10
96.1081222370073
20
8.64630986685046
30
0
41
1
10
95.5450417307117
20
8.71207377100441
30
0
41
1
10
94.7010486300545
20
8.80177509651605
30
0
41
1
10
94.4198225805362
20
8.83018324101212
30
0
41
1
10
93.8575983477058
20
8.88399952260298
30
0
41
1
10
93.5766256695216
20
8.9094204780389
30
0
41
1
10
92.7334649987712
20
8.98074490347366
30
0
41
1
10
92.1711854666682
20
9.02184782261685
30
0
41
1
10
91.0463631758593
20
9.09141519906086
30
0
41
1
10
90.4838211065414
20
9.11988005760378
30
0
41
1
10
89.3585625788895
20
9.1642108540793
30
0
41
1
10
88.7958462865729
20
9.1800782928363
30
0
41
1
10
88.0924189477096
20
9.19192326407165
30
0
41
1
10
87.9517319534175
20
9.19389216931785
30
0
41
1
10
87.6703564838487
20
9.19702427518797
30
0
41
1
10
87.5296691852964
20
9.19818687798596
30
0
41
1
10
87.2566512444253
20
9.19965323845571
30
0
41
1
10
87.1243286327432
20
9.20000518121105
30
0
41
1
10
86.9919708765472
20
9.20000004676913
30
0
0
SPLINE
5
CC
100
AcDbEntity
8
1
62
256
6
ByLayer
370
18
48
1
60
0
100
AcDbSpline
70
4
71
3
72
24
73
20
40
0
40
0
40
0
40
0
40
0.0305380810149943
40
0.0305380810149943
40
0.192115067512498
40
0.192115067512498
40
0.353692054010002
40
0.353692054010002
40
0.394086300634376
40
0.394086300634376
40
0.434480547258752
40
0.434480547258752
40
0.515269040507502
40
0.515269040507502
40
0.676846027005001
40
0.676846027005001
40
0.8384230135025
40
0.8384230135025
40
1
40
1
40
1
40
1
41
1
10
24.3837697338877
20
-6.7766997141984
30
0
41
1
10
24.2774989754297
20
-6.80199670617125
30
0
41
1
10
24.1712326596151
20
-6.82711419569785
30
0
41
1
10
23.5027407241119
20
-6.98400648081983
30
0
41
1
10
22.9406421776289
20
-7.11096871401125
30
0
41
1
10
21.8167942938916
20
-7.35510390806701
30
0
41
1
10
21.2550449920041
20
-7.4722780405792
30
0
41
1
10
20.5531582584008
20
-7.61267676521931
30
0
41
1
10
20.412795937962
20
-7.64045260265678
30
0
41
1
10
20.1321035408447
20
-7.69539581784221
30
0
41
1
10
19.9917759617703
20
-7.72256658606503
30
0
41
1
10
19.5707171624949
20
-7.8029689829205
30
0
41
1
10
19.289917166059
20
-7.8551046016361
30
0
41
1
10
18.4472491161155
20
-8.00717532253378
30
0
41
1
10
17.8851158043888
20
-8.10278383719614
30
0
41
1
10
16.760214023179
20
-8.28264914814943
30
0
41
1
10
16.1974429744167
20
-8.36690337442909
30
0
41
1
10
15.0713565344284
20
-8.52409413275649
30
0
41
1
10
14.5080420427631
20
-8.59703367684494
30
0
41
1
10
13.944526604193
20
-8.66425220235485
30
0
0
SPLINE
5
CD
100
AcDbEntity
8
1
62
256
6
ByLayer
370
18
48
1
60
0
100
AcDbSpline
70
4
71
3
72
14
73
10
40
0
40
0
40
0
40
0
40
0.182165947313025
40
0.182165947313025
40
0.36433189462605
40
0.36433189462605
40
0.728663789252079
40
0.728663789252079
40
1
40
1
40
1
40
1
41
1
10
122
20
-9.41531470951332
30
0
41
1
10
122.209398827146
20
-9.42544922334244
30
0
41
1
10
122.418664107035
20
-9.43468893123017
30
0
41
1
10
122.837115233214
20
-9.45130469788216
30
0
41
1
10
123.046356242557
20
-9.45866635193087
30
0
41
1
10
123.674117352616
20
-9.47795553026515
30
0
41
1
10
124.092661997309
20
-9.48709508145069
30
0
41
1
10
124.822857800733
20
-9.49668450337532
30
0
41
1
10
125.134527653715
20
-9.49876326475976
30
0
41
1
10
125.446160619346
20
-9.49882411134311
30
0
0
SPLINE
5
CE
100
AcDbEntity
8
1
62
256
6
ByLayer
370
18
48
1
60
0
100
AcDbSpline
70
4
71
3
72
188
73
184
40
0
40
0
40
0
40
0
40
0.0018465838810806
40
0.0018465838810806
40
0.0184824741497268
40
0.0184824741497268
40
0.0351183644183731
40
0.0351183644183731
40
0.0517542546870194
40
0.0517542546870194
40
0.0600721998213425
40
0.0600721998213425
40
0.0642311723885041
40
0.0642311723885041
40
0.0683901449556657
40
0.0683901449556657
40
0.0850260352243123
40
0.0850260352243123
40
0.101661925492959
40
0.101661925492959
40
0.118297815761606
40
0.118297815761606
40
0.122456788328767
40
0.122456788328767
40
0.126615760895929
40
0.126615760895929
40
0.134933706030253
40
0.134933706030253
40
0.151569596298901
40
0.151569596298901
40
0.168205486567549
40
0.168205486567549
40
0.176523431701874
40
0.176523431701874
40
0.184841376836198
40
0.184841376836198
40
0.189000349403359
40
0.189000349403359
40
0.193159321970521
40
0.201477267104845
40
0.201477267104845
40
0.218113157373492
40
0.234749047642139
40
0.234749047642139
40
0.243066992776462
40
0.247225965343624
40
0.247225965343624
40
0.251384937910785
40
0.251384937910785
40
0.268020828179431
40
0.268020828179431
40
0.284656718448076
40
0.284656718448076
40
0.301292608716722
40
0.301292608716722
40
0.309610553851044
40
0.309610553851044
40
0.313769526418205
40
0.313769526418205
40
0.317928498985367
40
0.317928498985367
40
0.334564389254012
40
0.334564389254012
40
0.351200279522657
40
0.351200279522657
40
0.367836169791302
40
0.367836169791302
40
0.376154114925625
40
0.376154114925625
40
0.384472060059947
40
0.384472060059947
40
0.401107950328592
40
0.401107950328592
40
0.417743840597237
40
0.417743840597237
40
0.42606178573156
40
0.42606178573156
40
0.434379730865883
40
0.434379730865883
40
0.442697676000205
40
0.442697676000205
40
0.451015621134528
40
0.451015621134528
40
0.467651511403174
40
0.467651511403174
40
0.48428740167182
40
0.48428740167182
40
0.500923291940466
40
0.500923291940466
40
0.505082264507628
40
0.505082264507628
40
0.50924123707479
40
0.517559182209114
40
0.517559182209114
40
0.534195072477762
40
0.534195072477762
40
0.542513017612086
40
0.542513017612086
40
0.550830962746411
40
0.550830962746411
40
0.559148907880735
40
0.559148907880735
40
0.563307880447898
40
0.563307880447898
40
0.567466853015061
40
0.567466853015061
40
0.584102743283709
40
0.584102743283709
40
0.600738633552358
40
0.600738633552358
40
0.617374523821007
40
0.617374523821007
40
0.625692468955332
40
0.625692468955332
40
0.629851441522494
40
0.629851441522494
40
0.634010414089656
40
0.634010414089656
40
0.650646304358304
40
0.650646304358304
40
0.667282194626952
40
0.667282194626952
40
0.675600139761276
40
0.675600139761276
40
0.683918084895601
40
0.688077057462763
40
0.688077057462763
40
0.692236030029925
40
0.692236030029925
40
0.70055397516425
40
0.70055397516425
40
0.717189865432899
40
0.717189865432899
40
0.733825755701548
40
0.733825755701548
40
0.750461645970197
40
0.750461645970197
40
0.75462061853736
40
0.75462061853736
40
0.758779591104522
40
0.758779591104522
40
0.767097536238848
40
0.767097536238848
40
0.783733426507501
40
0.783733426507501
40
0.792051371641827
40
0.792051371641827
40
0.800369316776153
40
0.800369316776153
40
0.80868726191048
40
0.812846234477643
40
0.812846234477643
40
0.817005207044806
40
0.817005207044806
40
0.833641097313459
40
0.833641097313459
40
0.850276987582113
40
0.850276987582113
40
0.866912877850766
40
0.866912877850766
40
0.875230822985093
40
0.875230822985093
40
0.88354876811942
40
0.88354876811942
40
0.891866713253747
40
0.891866713253747
40
0.900184658388074
40
0.900184658388074
40
0.916820548656728
40
0.916820548656728
40
0.933456438925383
40
0.933456438925383
40
0.94177438405971
40
0.94177438405971
40
0.945933356626874
40
0.945933356626874
40
0.950092329194038
40
0.950092329194038
40
0.966728219462692
40
0.966728219462692
40
0.983364109731346
40
0.983364109731346
40
1
40
1
40
1
40
1
41
1
10
24.3836592524968
20
6.7801533232464
30
0
41
1
10
24.4436310195853
20
6.79454796196157
30
0
41
1
10
24.5036063233132
20
6.80888188699936
30
0
41
1
10
25.1039657411008
20
6.95168248408359
30
0
41
1
10
25.6447900994421
20
7.07500666063257
30
0
41
1
10
26.7269918090982
20
7.31206972505478
30
0
41
1
10
27.2683793929824
20
7.42578752664323
30
0
41
1
10
28.3515158422003
20
7.64396403255958
30
0
41
1
10
28.8932580410526
20
7.74843351473311
30
0
41
1
10
29.7059987908897
20
7.89828373688272
30
0
41
1
10
29.9769953417597
20
7.94710460958837
30
0
41
1
10
30.3832836225473
20
8.01854165765141
30
0
41
1
10
30.5186741142542
20
8.04203943013607
30
0
41
1
10
30.7894774751899
20
8.08826632529497
30
0
41
1
10
30.924881451547
20
8.11100875642899
30
0
41
1
10
31.6018989841336
20
8.22290291524507
30
0
41
1
10
32.1434972344684
20
8.3066250895736
30
0
41
1
10
33.2263852573964
20
8.46309360035383
30
0
41
1
10
33.7676855176141
20
8.53582522177763
30
0
41
1
10
34.849778589213
20
8.67052832294573
30
0
41
1
10
35.3905647663226
20
8.73250512553511
30
0
41
1
10
36.0661158218827
20
8.80321062469162
30
0
41
1
10
36.2012043618176
20
8.81701290045586
30
0
41
1
10
36.4713380809859
20
8.8439341574454
30
0
41
1
10
36.6063847610487
20
8.85705113471531
30
0
41
1
10
37.0116317489775
20
8.89524222776134
30
0
41
1
10
37.2819178125903
20
8.91917675096872
30
0
41
1
10
38.0930685715908
20
8.98652059739231
30
0
41
1
10
38.6342162175463
20
9.02548505186411
30
0
41
1
10
39.7170232987181
20
9.09183749632652
30
0
41
1
10
40.2586894774914
20
9.11922159429304
30
0
41
1
10
41.0714173558368
20
9.15159903092268
30
0
41
1
10
41.3423645509004
20
9.16093942011221
30
0
41
1
10
41.8843162837781
20
9.17668488092869
30
0
41
1
10
42.1553828917679
20
9.18309048996184
30
0
41
1
10
42.561631032087
20
9.19045583914436
30
0
41
1
10
42.6969947936253
20
9.19253723994592
30
0
41
1
10
42.9677275025391
20
9.19593937337703
30
0
41
1
10
43.3738396595225
20
9.19990330858818
30
0
41
1
10
43.7799656162896
20
9.20048886893784
30
0
41
1
10
44.5921713564413
20
9.19722386634172
30
0
41
1
10
45.674980993876
20
9.1810564354731
30
0
41
1
10
46.7571085387913
20
9.14149259984666
30
0
41
1
10
47.5682798944987
20
9.102914262219
30
0
41
1
10
47.9737603963783
20
9.08139543596852
30
0
41
1
10
48.3790626291944
20
9.05648299013919
30
0
41
1
10
48.6492225337621
20
9.03911349224538
30
0
41
1
10
48.7842745181482
20
9.03004377920678
30
0
41
1
10
49.4596344624817
20
8.98289522040776
30
0
41
1
10
50.0004308402667
20
8.9395490522447
30
0
41
1
10
51.0826991580955
20
8.84168620195993
30
0
41
1
10
51.624174571763
20
8.78716825436786
30
0
41
1
10
52.7075977602778
20
8.6668157636968
30
0
41
1
10
53.2495403244118
20
8.60097651995684
30
0
41
1
10
54.0626569635718
20
8.49341016704156
30
0
41
1
10
54.3337240124206
20
8.45608576147561
30
0
41
1
10
54.7399396654752
20
8.39791069624977
30
0
41
1
10
54.875290738872
20
8.3781424001794
30
0
41
1
10
55.1459609377668
20
8.33794217783617
30
0
41
1
10
55.2812953777305
20
8.31752931130166
30
0
41
1
10
55.9580007931806
20
8.21396171222517
30
0
41
1
10
56.4994162765708
20
8.12624180308831
30
0
41
1
10
57.5820446779167
20
7.94090981640164
30
0
41
1
10
58.1232684930086
20
7.84331030798762
30
0
41
1
10
59.2053207168185
20
7.63795171574347
30
0
41
1
10
59.7461420529006
20
7.53018091398434
30
0
41
1
10
60.5569296310837
20
7.36053135947742
30
0
41
1
10
60.8270971557795
20
7.30261025747632
30
0
41
1
10
61.3673758227662
20
7.18422417433578
30
0
41
1
10
61.6376175947196
20
7.12399084983164
30
0
41
1
10
62.4487322054491
20
6.94037465471831
30
0
41
1
10
62.9899205314906
20
6.81395255308252
30
0
41
1
10
64.0729117272349
20
6.55270189567256
30
0
41
1
10
64.6147240362884
20
6.41789093828254
30
0
41
1
10
65.4277540825379
20
6.20900885615075
30
0
41
1
10
65.6988156516389
20
6.13826778880551
30
0
41
1
10
66.2410206810754
20
5.9944837753105
30
0
41
1
10
66.5120227407758
20
5.92147896722915
30
0
41
1
10
67.053602099615
20
5.77323871283835
30
0
41
1
10
67.3241639073239
20
5.69788223559684
30
0
41
1
10
67.8654040871825
20
5.5460029204317
30
0
41
1
10
68.1360466432283
20
5.4694022218037
30
0
41
1
10
68.9479755031806
20
5.23749868379113
30
0
41
1
10
69.4892550796712
20
5.08007980329236
30
0
41
1
10
70.571576382261
20
4.75915252735746
30
0
41
1
10
71.1126223989154
20
4.59565443533515
30
0
41
1
10
72.1942571579221
20
4.26198796922594
30
0
41
1
10
72.7348272605908
20
4.09177029357696
30
0
41
1
10
73.4102081033037
20
3.87461868709448
30
0
41
1
10
73.545283665962
20
3.83101032376604
30
0
41
1
10
73.8155214671321
20
3.74366807618924
30
0
41
1
10
74.2209788750046
20
3.61239063578603
30
0
41
1
10
74.6267104645234
20
3.48026183868504
30
0
41
1
10
75.4384710621792
20
3.214711561228
30
0
41
1
10
75.9800408755496
20
3.03595688617548
30
0
41
1
10
76.7928308816377
20
2.76483171731283
30
0
41
1
10
77.0638334275184
20
2.67395675207169
30
0
41
1
10
77.6059557115965
20
2.49112146965749
30
0
41
1
10
77.8771220746836
20
2.39914472283166
30
0
41
1
10
78.419337229318
20
2.21409804938807
30
0
41
1
10
78.6902807434593
20
2.12106552519848
30
0
41
1
10
79.0964354433845
20
1.98071107909362
30
0
41
1
10
79.2317755662127
20
1.93378814473289
30
0
41
1
10
79.5023728374894
20
1.83968461674226
30
0
41
1
10
79.6376358284209
20
1.79252063291207
30
0
41
1
10
80.3140314790716
20
1.55687704251145
30
0
41
1
10
80.8552670172622
20
1.36853079158047
30
0
41
1
10
81.9376454421148
20
0.991242397517709
30
0
41
1
10
82.4787977927412
20
0.802327134076336
30
0
41
1
10
83.560818400245
20
0.423355390324247
30
0
41
1
10
84.1016802460558
20
0.233280576366582
30
0
41
1
10
84.9126029468673
20
-0.0531407009089548
30
0
41
1
10
85.182849782379
20
-0.148829990600291
30
0
41
1
10
85.5881180145535
20
-0.292719465090528
30
0
41
1
10
85.7231906215186
20
-0.340741334751129
30
0
41
1
10
85.9934147373403
20
-0.436580021049707
30
0
41
1
10
86.128562422144
20
-0.484407774916519
30
0
41
1
10
86.8044635775232
20
-0.723132310731756
30
0
41
1
10
87.3456964570216
20
-0.912811204472035
30
0
41
1
10
88.4288807945977
20
-1.29043806598989
30
0
41
1
10
88.9708431749104
20
-1.47835472221291
30
0
41
1
10
89.7841814940132
20
-1.75934743284367
30
0
41
1
10
90.0554293294778
20
-1.85288998923446
30
0
41
1
10
90.5975814222859
20
-2.03959752927685
30
0
41
1
10
91.0039588350492
20
-2.17935092977058
30
0
41
1
10
91.409959379365
20
-2.31873552319473
30
0
41
1
10
91.6805404456931
20
-2.41158049757186
30
0
41
1
10
91.8157829035392
20
-2.45797791959188
30
0
41
1
10
92.2215279161784
20
-2.59664225495524
30
0
41
1
10
92.4920635005755
20
-2.68834014383421
30
0
41
1
10
93.3037193597058
20
-2.96142054920293
30
0
41
1
10
93.8448793293754
20
-3.14081945883481
30
0
41
1
10
94.9270637942924
20
-3.49506345628973
30
0
41
1
10
95.4680959303401
20
-3.66988771590388
30
0
41
1
10
96.5498134395513
20
-4.01551519749506
30
0
41
1
10
97.0904944009996
20
-4.18632903802899
30
0
41
1
10
97.7660308433465
20
-4.39750575196368
30
0
41
1
10
97.9011150973381
20
-4.43964194598283
30
0
41
1
10
98.1713288719182
20
-4.52348514674486
30
0
41
1
10
98.3064705602529
20
-4.56516192803264
30
0
41
1
10
98.7120034491127
20
-4.68945338161521
30
0
41
1
10
98.9824969651106
20
-4.77134330058297
30
0
41
1
10
99.7943221189454
20
-5.01429701694971
30
0
41
1
10
100.335992068591
20
-5.17266358767958
30
0
41
1
10
101.149010545308
20
-5.40523759639785
30
0
41
1
10
101.420103189654
20
-5.48192988085043
30
0
41
1
10
101.962433006559
20
-5.63371110273951
30
0
41
1
10
102.233694644687
20
-5.7088065213039
30
0
41
1
10
102.77582661363
20
-5.85729952372171
30
0
41
1
10
103.182224330948
20
-5.9674217452565
30
0
41
1
10
103.58829818855
20
-6.07569450063303
30
0
41
1
10
103.858939915899
20
-6.14746591671877
30
0
41
1
10
103.994216059943
20
-6.183162440248
30
0
41
1
10
104.670555822241
20
-6.36030425689538
30
0
41
1
10
105.211852556215
20
-6.49699115216069
30
0
41
1
10
106.29465322051
20
-6.76107241511076
30
0
41
1
10
106.836144167202
20
-6.88849139181536
30
0
41
1
10
107.919096313462
20
-7.1345456389914
30
0
41
1
10
108.460552884162
20
-7.2531894916728
30
0
41
1
10
109.272552404035
20
-7.42475742275877
30
0
41
1
10
109.543189240199
20
-7.48087655120136
30
0
41
1
10
110.084387351571
20
-7.5909682969214
30
0
41
1
10
110.354911773303
20
-7.64499479867555
30
0
41
1
10
110.896388514986
20
-7.75008078825056
30
0
41
1
10
111.167292166842
20
-7.80122413695764
30
0
41
1
10
111.709382118561
20
-7.90081515285391
30
0
41
1
10
111.980624149861
20
-7.9492737117271
30
0
41
1
10
112.794133759202
20
-8.0906048944276
30
0
41
1
10
113.336268161068
20
-8.17945350946957
30
0
41
1
10
114.419914631928
20
-8.34674301899551
30
0
41
1
10
114.961419671712
20
-8.42519198321699
30
0
41
1
10
115.773057079631
20
-8.53509984090115
30
0
41
1
10
116.043486687718
20
-8.57045222098927
30
0
41
1
10
116.449012713414
20
-8.62146754475708
30
0
41
1
10
116.584188648034
20
-8.63811628742789
30
0
41
1
10
116.854607750451
20
-8.67064053445327
30
0
41
1
10
116.989841994677
20
-8.68652519439121
30
0
41
1
10
117.666121751622
20
-8.76409010480015
30
0
41
1
10
118.207483159986
20
-8.82021646322792
30
0
41
1
10
119.290598963103
20
-8.92104702314728
30
0
41
1
10
119.832363383234
20
-8.96574199608148
30
0
41
1
10
120.916083940255
20
-9.04378631681533
30
0
41
1
10
121.458033997318
20
-9.07713781106028
30
0
41
1
10
122
20
-9.10470951995498
30
0
0
SPLINE
5
CF
100
AcDbEntity
8
1
62
256
6
ByLayer
370
18
48
1
60
0
100
AcDbSpline
70
4
71
3
72
169
73
165
40
0
40
0
40
0
40
0
40
0.0044389242805813
40
0.0044389242805813
40
0.0135725121312186
40
0.0135725121312186
40
0.0318396878324939
40
0.0318396878324939
40
0.0501068635337691
40
0.0501068635337691
40
0.0683740392350444
40
0.0683740392350444
40
0.0729408331603632
40
0.0729408331603632
40
0.077507627085682
40
0.0866412149363205
40
0.0866412149363205
40
0.0957748027869589
40
0.0957748027869589
40
0.104908390637597
40
0.104908390637597
40
0.123175566338874
40
0.123175566338874
40
0.132309154189513
40
0.132309154189513
40
0.141442742040151
40
0.141442742040151
40
0.159709917741428
40
0.159709917741428
40
0.177977093442705
40
0.177977093442705
40
0.196244269143982
40
0.196244269143982
40
0.200811063069301
40
0.200811063069301
40
0.20537785699462
40
0.20537785699462
40
0.214511444845257
40
0.214511444845257
40
0.223645032695894
40
0.223645032695894
40
0.232778620546532
40
0.232778620546532
40
0.251045796247805
40
0.251045796247805
40
0.260179384098442
40
0.260179384098442
40
0.26931297194908
40
0.26931297194908
40
0.278446559799717
40
0.278446559799717
40
0.287580147650354
40
0.287580147650354
40
0.305847323351629
40
0.305847323351629
40
0.324114499052903
40
0.324114499052903
40
0.333248086903541
40
0.333248086903541
40
0.337814880828859
40
0.337814880828859
40
0.342381674754178
40
0.342381674754178
40
0.351515262604815
40
0.351515262604815
40
0.360648850455453
40
0.360648850455453
40
0.378916026156727
40
0.378916026156727
40
0.397183201858002
40
0.397183201858002
40
0.406316789708638
40
0.406316789708638
40
0.415450377559275
40
0.415450377559275
40
0.433717553260548
40
0.433717553260548
40
0.451984728961821
40
0.451984728961821
40
0.461118316812457
40
0.465685110737776
40
0.465685110737776
40
0.470251904663094
40
0.470251904663094
40
0.479385492513731
40
0.479385492513731
40
0.488519080364367
40
0.488519080364367
40
0.506786256065641
40
0.506786256065641
40
0.525053431766914
40
0.525053431766914
40
0.534187019617551
40
0.534187019617551
40
0.53875381354287
40
0.53875381354287
40
0.543320607468188
40
0.561587783169462
40
0.579854958870736
40
0.579854958870736
40
0.598122134572009
40
0.598122134572009
40
0.607255722422646
40
0.607255722422646
40
0.616389310273283
40
0.616389310273283
40
0.634656485974556
40
0.634656485974556
40
0.652923661675829
40
0.652923661675829
40
0.662057249526466
40
0.662057249526466
40
0.666624043451784
40
0.666624043451784
40
0.671190837377102
40
0.671190837377102
40
0.689458013078374
40
0.689458013078374
40
0.707725188779645
40
0.707725188779645
40
0.725992364480917
40
0.725992364480917
40
0.735125952331553
40
0.735125952331553
40
0.744259540182189
40
0.744259540182189
40
0.76252671588346
40
0.76252671588346
40
0.780793891584731
40
0.780793891584731
40
0.799061067286002
40
0.799061067286002
40
0.80362786121132
40
0.80362786121132
40
0.808194655136638
40
0.817328242987274
40
0.817328242987274
40
0.835595418688547
40
0.835595418688547
40
0.844729006539183
40
0.844729006539183
40
0.853862594389819
40
0.853862594389819
40
0.862996182240456
40
0.862996182240456
40
0.872129770091092
40
0.872129770091092
40
0.890396945792365
40
0.890396945792365
40
0.908664121493638
40
0.908664121493638
40
0.926931297194912
40
0.926931297194912
40
0.93149809112023
40
0.93149809112023
40
0.936064885045548
40
0.936064885045548
40
0.945198472896184
40
0.945198472896184
40
0.963465648597456
40
0.963465648597456
40
0.981732824298728
40
0.981732824298728
40
1
40
1
40
1
40
1
41
1
10
106.36789129809
20
-6.77896274559393
30
0
41
1
10
106.231264878421
20
-6.81166419753109
30
0
41
1
10
106.094662394769
20
-6.84410784372366
30
0
41
1
10
105.677032429284
20
-6.94246583963797
30
0
41
1
10
105.395960071864
20
-7.00730968645178
30
0
41
1
10
104.552624637205
20
-7.19779149870931
30
0
41
1
10
103.990261090792
20
-7.3194195779943
30
0
41
1
10
102.865339480188
20
-7.55223050818429
30
0
41
1
10
102.302780938463
20
-7.66341273629575
30
0
41
1
10
101.17756199469
20
-7.87544007518875
30
0
41
1
10
100.614907053228
20
-7.97629434802897
30
0
41
1
10
99.9115993972388
20
-8.0958728623271
30
0
41
1
10
99.7709352849947
20
-8.11945869961266
30
0
41
1
10
99.4895170086839
20
-8.16585462861696
30
0
41
1
10
99.0672729753915
20
-8.23431129001659
30
0
41
1
10
98.6446836051906
20
-8.29937785674761
30
0
41
1
10
98.0809356347955
20
-8.38315240786804
30
0
41
1
10
97.7988825800912
20
-8.42355284436744
30
0
41
1
10
97.2350912170943
20
-8.50131400718109
30
0
41
1
10
96.9532809901844
20
-8.53868593787988
30
0
41
1
10
96.1081222370073
20
-8.64630986685046
30
0
41
1
10
95.5450417307117
20
-8.71207377100438
30
0
41
1
10
94.7010486300546
20
-8.80177509651605
30
0
41
1
10
94.4198225805363
20
-8.83018324101212
30
0
41
1
10
93.8575983477059
20
-8.88399952260298
30
0
41
1
10
93.5766256695216
20
-8.90942047803887
30
0
41
1
10
92.7334649987712
20
-8.98074490347366
30
0
41
1
10
92.1711854666682
20
-9.02184782261682
30
0
41
1
10
91.0463631758594
20
-9.09141519906083
30
0
41
1
10
90.4838211065415
20
-9.11988005760378
30
0
41
1
10
89.3585625788896
20
-9.1642108540793
30
0
41
1
10
88.795846286573
20
-9.1800782928363
30
0
41
1
10
88.0924189477097
20
-9.19192326407165
30
0
41
1
10
87.9517319534175
20
-9.19389216931785
30
0
41
1
10
87.6703564838488
20
-9.19702427518797
30
0
41
1
10
87.5296691852965
20
-9.19818687798596
30
0
41
1
10
87.1074762790878
20
-9.20045444687278
30
0
41
1
10
86.8258530033535
20
-9.20034297173453
30
0
41
1
10
86.2622933114973
20
-9.19690223747054
30
0
41
1
10
85.9802827113081
20
-9.19357132874788
30
0
41
1
10
85.4164584235148
20
-9.18371669680911
30
0
41
1
10
85.1346235672695
20
-9.17719385003443
30
0
41
1
10
84.289365603838
20
-9.15286269330718
30
0
41
1
10
83.7261872541045
20
-9.13029941520347
30
0
41
1
10
82.8819843365575
20
-9.08690651525046
30
0
41
1
10
82.6006784085561
20
-9.07084877347566
30
0
41
1
10
82.0382733516695
20
-9.03551647073039
30
0
41
1
10
81.7571868688695
20
-9.01623421251341
30
0
41
1
10
81.1951803197913
20
-8.97444208808332
30
0
41
1
10
80.9141602811613
20
-8.95199200229132
30
0
41
1
10
80.3519974311342
20
-8.90407445093467
30
0
41
1
10
80.0708694127144
20
-8.87859824672358
30
0
41
1
10
79.2273618661555
20
-8.79764381713389
30
0
41
1
10
78.6648584613645
20
-8.73764680565364
30
0
41
1
10
77.5396096189966
20
-8.60557614220693
30
0
41
1
10
76.9768612768987
20
-8.53350638953984
30
0
41
1
10
76.13264056711
20
-8.41614358851024
30
0
41
1
10
75.8512174039512
20
-8.37547763273469
30
0
41
1
10
75.4290699526993
20
-8.31211668513066
30
0
41
1
10
75.2883564240623
20
-8.29059646789628
30
0
41
1
10
75.0068480596439
20
-8.24686224403948
30
0
41
1
10
74.8660521617231
20
-8.2246502639378
30
0
41
1
10
74.4435408968446
20
-8.15698356488335
30
0
41
1
10
74.1616424691375
20
-8.11048851923402
30
0
41
1
10
73.5978074828597
20
-8.01480560247222
30
0
41
1
10
73.3159594341808
20
-7.96563308626276
30
0
41
1
10
72.4706368135876
20
-7.81413187025959
30
0
41
1
10
71.9073836119557
20
-7.70782511464023
30
0
41
1
10
70.7815535154469
20
-7.48449801099807
30
0
41
1
10
70.2189778709867
20
-7.36747662841947
30
0
41
1
10
69.3757254678376
20
-7.18363331892854
30
0
41
1
10
69.0947841843107
20
-7.12088775056171
30
0
41
1
10
68.5327501563855
20
-6.99325246662428
30
0
41
1
10
68.2516788007531
20
-6.92832863068239
30
0
41
1
10
67.4083149385502
20
-6.73025112631885
30
0
41
1
10
66.8458735119779
20
-6.59379508445312
30
0
41
1
10
65.7206802890273
20
-6.31198447095181
30
0
41
1
10
65.1579266228381
20
-6.1666341737384
30
0
41
1
10
64.3136369217949
20
-5.94172376369249
30
0
41
1
10
63.891453292936
20
-5.82754304945348
30
0
41
1
10
63.4692281873045
20
-5.71070806595691
30
0
41
1
10
63.1877375471355
20
-5.63221913880588
30
0
41
1
10
63.0469943967824
20
-5.59266154279604
30
0
41
1
10
62.6246574975541
20
-5.47330930654815
30
0
41
1
10
62.3429276428207
20
-5.39290403073878
30
0
41
1
10
61.7791312360453
20
-5.23042454756603
30
0
41
1
10
61.4972681653635
20
-5.14840759462854
30
0
41
1
10
60.6519150302469
20
-4.90004507692851
30
0
41
1
10
60.0886089055864
20
-4.73137759499758
30
0
41
1
10
58.9626035988234
20
-4.38769256374763
30
0
41
1
10
58.3999022359924
20
-4.21268091111759
30
0
41
1
10
57.5563983933214
20
-3.94513107560954
30
0
41
1
10
57.2753272439192
20
-3.85509414080474
30
0
41
1
10
56.8538542312633
20
-3.71877813974109
30
0
41
1
10
56.7133755206681
20
-3.67315527556894
30
0
41
1
10
56.4323727426036
20
-3.58172553073371
30
0
41
1
10
55.7297909866526
20
-3.35258982330018
30
0
41
1
10
54.4644894679025
20
-2.93509854747293
30
0
41
1
10
53.3390193020128
20
-2.55647773839451
30
0
41
1
10
52.2132597000611
20
-2.17383576983735
30
0
41
1
10
51.6502373993851
20
-1.98049860264646
30
0
41
1
10
50.8055803384274
20
-1.68713728610353
30
0
41
1
10
50.5240141665741
20
-1.58876812334574
30
0
41
1
10
49.9604407411977
20
-1.39205560439922
30
0
41
1
10
49.6785297366176
20
-1.29360456379339
30
0
41
1
10
48.8331795863377
20
-0.99819148192222
30
0
41
1
10
48.2698432546508
20
-0.801070705648243
30
0
41
1
10
47.1437099741414
20
-0.406233233773719
30
0
41
1
10
46.5809102725558
20
-0.208524430171508
30
0
41
1
10
45.7371956922735
20
0.0887137988437416
30
0
41
1
10
45.4560388885943
20
0.187907185156376
30
0
41
1
10
45.0344386506852
20
0.336903536394573
30
0
41
1
10
44.8939288969097
20
0.386606685799819
30
0
41
1
10
44.6129515371155
20
0.486073224539325
30
0
41
1
10
44.4724795254974
20
0.535823969247303
30
0
41
1
10
43.7700014146389
20
0.784089703869881
30
0
41
1
10
43.2077541888419
20
0.981465036256992
30
0
41
1
10
42.0828113713157
20
1.37398863574694
30
0
41
1
10
41.5201167661911
20
1.56913971805057
30
0
41
1
10
40.3943682585846
20
1.95746829315394
30
0
41
1
10
39.8313132392838
20
2.15064273377584
30
0
41
1
10
38.986548404912
20
2.43915860070763
30
0
41
1
10
38.7049502817376
20
2.53518041956329
30
0
41
1
10
38.1416073608556
20
2.72656373842094
30
0
41
1
10
37.8597272411878
20
2.82166439205579
30
0
41
1
10
37.0143502607361
20
3.10476142382896
30
0
41
1
10
36.4508886325056
20
3.29071308690752
30
0
41
1
10
35.3242890755353
20
3.65736135654905
30
0
41
1
10
34.7611506823195
20
3.83805678415178
30
0
41
1
10
33.635291321288
20
4.19443102809672
30
0
41
1
10
33.0725748979819
20
4.37012201767382
30
0
41
1
10
32.3695240484369
20
4.58674145331295
30
0
41
1
10
32.2289292532281
20
4.62991038053863
30
0
41
1
10
31.9476833004104
20
4.71572321206298
30
0
41
1
10
31.525746510121
20
4.84369686111526
30
0
41
1
10
31.1036100236017
20
4.9694536338902
30
0
41
1
10
30.2590871864041
20
5.21806994865165
30
0
41
1
10
29.6957389898081
20
5.3799549869253
30
0
41
1
10
28.8502840412766
20
5.61717042960305
30
0
41
1
10
28.5683932753946
20
5.69530527289663
30
0
41
1
10
28.0044785369532
20
5.84972152613645
30
0
41
1
10
27.7224600950178
20
5.92600125929158
30
0
41
1
10
27.1589150798932
20
6.07656809241234
30
0
41
1
10
26.8773124062618
20
6.15087582913731
30
0
41
1
10
26.3144650516787
20
6.29755833513298
30
0
41
1
10
26.0332481473751
20
6.36998720713692
30
0
41
1
10
25.1895627115691
20
6.58315497351541
30
0
41
1
10
24.627201328218
20
6.72010024001369
30
0
41
1
10
23.5027407241119
20
6.98400648081983
30
0
41
1
10
22.9406421776289
20
7.11096871401125
30
0
41
1
10
21.8167942938916
20
7.35510390806698
30
0
41
1
10
21.2550449920041
20
7.47227804057917
30
0
41
1
10
20.5531582584009
20
7.61267676521931
30
0
41
1
10
20.4127959379621
20
7.64045260265678
30
0
41
1
10
20.1321035408447
20
7.69539581784218
30
0
41
1
10
19.9917759617704
20
7.722566586065
30
0
41
1
10
19.5707171624949
20
7.80296898292048
30
0
41
1
10
19.289917166059
20
7.85510460163607
30
0
41
1
10
18.4472491161155
20
8.00717532253375
30
0
41
1
10
17.8851158043889
20
8.10278383719611
30
0
41
1
10
16.760214023179
20
8.2826491481494
30
0
41
1
10
16.1974429744167
20
8.36690337442909
30
0
41
1
10
15.0713565344284
20
8.52409413275649
30
0
41
1
10
14.5080420427631
20
8.59703367684492
30
0
41
1
10
13.944526604193
20
8.66425220235482
30
0
0
SPLINE
5
D0
100
AcDbEntity
8
1
62
256
6
ByLayer
370
18
48
1
60
0
100
AcDbSpline
70
4
71
3
72
16
73
12
40
0
40
0
40
0
40
0
40
0.170124573736695
40
0.170124573736695
40
0.377593430302522
40
0.377593430302522
40
0.585062286868348
40
0.585062286868348
40
0.792531143434175
40
0.792531143434175
40
1
40
1
40
1
40
1
41
1
10
7.37296739067781
20
10.0669208295065
30
0
41
1
10
7.51856656805381
20
10.01885135315
30
0
41
1
10
7.66492647578761
20
9.96928169393937
30
0
41
1
10
7.99119386782101
20
9.85621930737236
30
0
41
1
10
8.17141252334164
20
9.79205745193434
30
0
41
1
10
8.53342881195252
20
9.65997512598551
30
0
41
1
10
8.71522578765018
20
9.59205338805074
30
0
41
1
10
9.08020856853531
20
9.45265942685029
30
0
41
1
10
9.26340279884141
20
9.38118231683961
30
0
41
1
10
9.63110679186167
20
9.23482838480001
30
0
41
1
10
9.81533608902964
20
9.16006196453503
30
0
41
1
10
10
20
9.08377626127981
30
0
0
SPLINE
5
D1
100
AcDbEntity
8
1
62
256
6
ByLayer
370
18
48
1
60
0
100
AcDbSpline
70
4
71
3
72
107
73
103
40
0
40
0
40
0
40
0
40
0.0624999999999996
40
0.0624999999999996
40
0.0937499999999993
40
0.0937499999999993
40
0.124999999999999
40
0.124999999999999
40
0.156249999999999
40
0.156249999999999
40
0.187499999999999
40
0.187499999999999
40
0.195312499999999
40
0.195312499999999
40
0.203124999999999
40
0.203124999999999
40
0.218749999999999
40
0.218749999999999
40
0.25
40
0.25
40
0.28125
40
0.28125
40
0.296875
40
0.296875
40
0.3046875
40
0.3046875
40
0.3125
40
0.3125
40
0.34375
40
0.34375
40
0.375
40
0.375
40
0.37890625
40
0.37890625
40
0.3828125
40
0.3828125
40
0.390625
40
0.390625
40
0.406249999999999
40
0.406249999999999
40
0.421874999999998
40
0.421874999999998
40
0.437499999999998
40
0.437499999999998
40
0.445312499999998
40
0.445312499999998
40
0.453124999999997
40
0.453124999999997
40
0.468749999999996
40
0.468749999999996
40
0.499999999999995
40
0.499999999999995
40
0.503906249999995
40
0.503906249999995
40
0.507812499999994
40
0.515624999999994
40
0.515624999999994
40
0.531249999999994
40
0.531249999999994
40
0.546874999999993
40
0.546874999999993
40
0.554687499999993
40
0.554687499999993
40
0.558593749999993
40
0.558593749999993
40
0.562499999999993
40
0.562499999999993
40
0.593749999999991
40
0.593749999999991
40
0.60937499999999
40
0.60937499999999
40
0.61718749999999
40
0.62109374999999
40
0.62109374999999
40
0.62499999999999
40
0.62499999999999
40
0.656249999999992
40
0.656249999999992
40
0.687499999999993
40
0.687499999999993
40
0.718749999999994
40
0.718749999999994
40
0.726562499999995
40
0.726562499999995
40
0.734374999999995
40
0.749999999999995
40
0.749999999999995
40
0.781249999999996
40
0.781249999999996
40
0.812499999999997
40
0.812499999999997
40
0.843749999999997
40
0.843749999999997
40
0.874999999999998
40
0.874999999999998
40
0.906249999999998
40
0.906249999999998
40
0.937499999999999
40
0.937499999999999
40
0.968749999999999
40
0.968749999999999
40
1
40
1
40
1
40
1
41
1
10
10
20
-4.32025748007979
30
0
41
1
10
9.59083554660211
20
-4.46699244875217
30
0
41
1
10
9.18845659987025
20
-4.62872073581821
30
0
41
1
10
8.59501617189892
20
-4.89415295641632
30
0
41
1
10
8.39889265384392
20
-4.98644280573333
30
0
41
1
10
8.01004837710911
20
-5.17879670510175
30
0
41
1
10
7.8173273044759
20
-5.27885986621357
30
0
41
1
10
7.43534038672681
20
-5.48699503866513
30
0
41
1
10
7.24607405238047
20
-5.59506565261637
30
0
41
1
10
6.87109083830376
20
-5.81957022434179
30
0
41
1
10
6.68537315009868
20
-5.9360018645186
30
0
41
1
10
6.45554118619305
20
-6.08709859215409
30
0
41
1
10
6.40969073719845
20
-6.11759633130609
30
0
41
1
10
6.31822499070745
20
-6.17915927380233
30
0
41
1
10
6.27256953946426
20
-6.21025226266499
30
0
41
1
10
6.13626737199792
20
-6.30418860042423
30
0
41
1
10
6.04640557632104
20
-6.36760265540377
30
0
41
1
10
5.77989957017155
20
-6.5602086510481
30
0
41
1
10
5.60632669230682
20
-6.69175992766591
30
0
41
1
10
5.26786353811923
20
-6.9612203605495
30
0
41
1
10
5.10296853873626
20
-7.09912708406023
30
0
41
1
10
4.86273257686852
20
-7.31092957894404
30
0
41
1
10
4.78384118077403
20
-7.38235569192651
30
0
41
1
10
4.66739351241546
20
-7.49077298667837
30
0
41
1
10
4.62885532618606
20
-7.52716215520576
30
0
41
1
10
4.55279818444862
20
-7.60001998057083
30
0
41
1
10
4.5152423508583
20
-7.63652196485495
30
0
41
1
10
4.32986619159789
20
-7.81937961702016
30
0
41
1
10
4.18922228288903
20
-7.96677682884354
30
0
41
1
10
3.92473015744838
20
-8.26336934199702
30
0
41
1
10
3.80086045174065
20
-8.41256466497356
30
0
41
1
10
3.67241085123888
20
-8.58120530126249
30
0
41
1
10
3.6582911451267
20
-8.59995423073752
30
0
41
1
10
3.63036376376266
20
-8.63747355070129
30
0
41
1
10
3.61654316634491
20
-8.65626180405624
30
0
41
1
10
3.5756605675956
20
-8.71252004859039
30
0
41
1
10
3.54921134889443
20
-8.74983506367224
30
0
41
1
10
3.47231858742777
20
-8.86118256837531
30
0
41
1
10
3.42432646212293
20
-8.9346182266589
30
0
41
1
10
3.33515723427951
20
-9.07974352235038
30
0
41
1
10
3.2939791365269
20
-9.15143344722199
30
0
41
1
10
3.2188350503211
20
-9.2928876484645
30
0
41
1
10
3.18486753126206
20
-9.36265234146734
30
0
41
1
10
3.1397430099563
20
-9.4656931350558
30
0
41
1
10
3.12564236821561
20
-9.49986115791373
30
0
41
1
10
3.09972220880556
20
-9.56696218929213
30
0
41
1
10
3.08787705349931
20
-9.59994244339075
30
0
41
1
10
3.05567814029703
20
-9.69716682951278
30
0
41
1
10
3.03865657229414
20
-9.75969617435433
30
0
41
1
10
3.00101553364146
20
-9.94032281489356
30
0
41
1
10
2.99374058520704
20
-10.0514890125228
30
0
41
1
10
3.00686948558194
20
-10.1654699349735
30
0
41
1
10
3.00862931146281
20
-10.1779987407174
30
0
41
1
10
3.01273313904233
20
-10.2026389806548
30
0
41
1
10
3.01975939486746
20
-10.2389604677779
30
0
41
1
10
3.02935795511132
20
-10.2733961082588
30
0
41
1
10
3.05189612262626
20
-10.3398249401317
30
0
41
1
10
3.07137189335947
20
-10.3808569808301
30
0
41
1
10
3.11887059823397
20
-10.4567224265704
30
0
41
1
10
3.14689448153558
20
-10.4915552102256
30
0
41
1
10
3.19517470161881
20
-10.5393254678545
30
0
41
1
10
3.21230976795431
20
-10.5545018268083
30
0
41
1
10
3.23956161358154
20
-10.5761624199567
30
0
41
1
10
3.24889976312446
20
-10.5831942463068
30
0
41
1
10
3.26799268764091
20
-10.5968279379654
30
0
41
1
10
3.27775836457911
20
-10.6034386799426
30
0
41
1
10
3.36757501105655
20
-10.661131228481
30
0
41
1
10
3.46101591757147
20
-10.6996714464935
30
0
41
1
10
3.6185581672998
20
-10.7417090382997
30
0
41
1
10
3.67398555130842
20
-10.7530765841918
30
0
41
1
10
3.76123217824707
20
-10.7664645482837
30
0
41
1
10
3.80588279634065
20
-10.7722417597457
30
0
41
1
10
3.85203202343058
20
-10.7766933875105
30
0
41
1
10
3.88312691333274
20
-10.7793716311778
30
0
41
1
10
3.89884485763795
20
-10.7805661541715
30
0
41
1
10
4.04127379969484
20
-10.7900087598428
30
0
41
1
10
4.17552484105448
20
-10.7892509919575
30
0
41
1
10
4.45657676373264
20
-10.7732940971804
30
0
41
1
10
4.60339548250965
20
-10.7580711187491
30
0
41
1
10
4.90769215037349
20
-10.7157657191919
30
0
41
1
10
5.06517879331676
20
-10.6886717145849
30
0
41
1
10
5.26777840070469
20
-10.648571078495
30
0
41
1
10
5.30861685031044
20
-10.6402311641425
30
0
41
1
10
5.39055150388964
20
-10.6230141175803
30
0
41
1
10
5.51392829627139
20
-10.5963658806279
30
0
41
1
10
5.63865587845021
20
-10.5673887829244
30
0
41
1
10
5.88973709230407
20
-10.5066439433652
30
0
41
1
10
6.05928791180057
20
-10.4624393975932
30
0
41
1
10
6.40192575932301
20
-10.3679073627015
30
0
41
1
10
6.57501424365856
20
-10.3175754253009
30
0
41
1
10
6.92407671151221
20
-10.2117073020158
30
0
41
1
10
7.10005114541474
20
-10.1561684612188
30
0
41
1
10
7.45434205846072
20
-10.040547522873
30
0
41
1
10
7.63265837791243
20
-9.98046365157535
30
0
41
1
10
7.99119386782104
20
-9.85621930737233
30
0
41
1
10
8.17141252334164
20
-9.79205745193431
30
0
41
1
10
8.53342881195252
20
-9.65997512598551
30
0
41
1
10
8.71522578765021
20
-9.59205338805074
30
0
41
1
10
9.08020856853534
20
-9.45265942685032
30
0
41
1
10
9.26340279884147
20
-9.38118231683958
30
0
41
1
10
9.63110679186161
20
-9.23482838480001
30
0
41
1
10
9.81533608902959
20
-9.16006196453503
30
0
41
1
10
10
20
-9.08377626127978
30
0
0
SPLINE
5
D2
100
AcDbEntity
8
1
62
256
6
ByLayer
370
18
48
1
60
0
100
AcDbSpline
70
4
71
3
72
14
73
10
40
0
40
0
40
0
40
0
40
0.25
40
0.25
40
0.5
40
0.5
40
0.75
40
0.75
40
1
40
1
40
1
40
1
41
1
10
13.944526604193
20
-8.66425220235485
30
0
41
1
10
13.607891573844
20
-8.70552818721009
30
0
41
1
10
13.2738021517407
20
-8.74640794230396
30
0
41
1
10
12.6095001028929
20
-8.82524382875235
30
0
41
1
10
12.2792808651763
20
-8.86320444534761
30
0
41
1
10
11.62212459809
20
-8.93477447728398
30
0
41
1
10
11.2951859137244
20
-8.96839644506153
30
0
41
1
10
10.6447661263364
20
-9.03031212596341
30
0
41
1
10
10.3212876286951
20
-9.05862307127319
30
0
41
1
10
10
20
-9.08377626127978
30
0
0
SPLINE
5
D3
100
AcDbEntity
8
1
62
256
6
ByLayer
370
18
48
1
60
0
100
AcDbSpline
70
4
71
4
72
13
73
8
40
0
40
0
40
0
40
0
40
0
40
0.0346587748304785
40
0.0346587748304785
40
0.0346587748304785
40
1
40
1
40
1
40
1
40
1
41
0.999956963029406
10
14.9715530934706
20
-4.33255575620246
30
0
41
0.999977927179634
10
14.9595289410853
20
-4.36112540019933
30
0
41
0.999992452854802
10
14.9475853929168
20
-4.38986794419544
30
0
41
1
10
14.9357239345744
20
-4.4187763792674
30
0
41
1
10
14.59589841461
20
-5.25744114277532
30
0
41
0.994145119994474
10
14.2877919374814
20
-6.30248068384614
30
0
41
0.994721668755302
10
14.067465535019
20
-7.49502761312154
30
0
41
0.996827628610383
10
13.944526604193
20
-8.66425220235484
30
0
0
SPLINE
5
D4
100
AcDbEntity
8
1
62
256
6
ByLayer
370
18
48
1
60
0
100
AcDbSpline
70
4
71
3
72
25
73
21
40
0
40
0
40
0
40
0
40
0.124999999999995
40
0.124999999999995
40
0.24999999999999
40
0.24999999999999
40
0.374999999999985
40
0.374999999999985
40
0.406249999999983
40
0.406249999999983
40
0.43749999999998
40
0.49999999999998
40
0.49999999999998
40
0.624999999999985
40
0.624999999999985
40
0.74999999999999
40
0.74999999999999
40
0.874999999999995
40
0.874999999999995
40
1
40
1
40
1
40
1
41
1
10
10
20
-4.32025748007982
30
0
41
1
10
10.3384089249044
20
-4.25533699482864
30
0
41
1
10
10.6780247159693
20
-4.20512737880097
30
0
41
1
10
11.359481473813
20
-4.13259940130732
30
0
41
1
10
11.7013239153993
20
-4.11029525559283
30
0
41
1
10
12.3871113099236
20
-4.09236427840366
30
0
41
1
10
12.7310574113304
20
-4.09674957107833
30
0
41
1
10
13.1622422886134
20
-4.11808007937216
30
0
41
1
10
13.2485901042406
20
-4.12314256625257
30
0
41
1
10
13.4207387739706
20
-4.13477522355129
30
0
41
1
10
13.6783747137916
20
-4.15449431192437
30
0
41
1
10
13.934303047355
20
-4.18079002338771
30
0
41
1
10
14.4440218771836
20
-4.24151998643526
30
0
41
1
10
14.7809829733578
20
-4.29286586732169
30
0
41
1
10
15.4499430341398
20
-4.41377671764582
30
0
41
1
10
15.7819410616647
20
-4.48334112740196
30
0
41
1
10
16.4417555643334
20
-4.63695092144445
30
0
41
1
10
16.7695732735561
20
-4.72098802438629
30
0
41
1
10
17.4218501114673
20
-4.89968336422857
30
0
41
1
10
17.7463127526388
20
-4.99432651159916
30
0
41
1
10
18.0694929669956
20
-5.09246838905156
30
0
0
SPLINE
5
D5
100
AcDbEntity
8
SK1
62
256
6
ByLayer
370
18
48
1
60
0
100
AcDbSpline
70
4
71
3
72
34
73
30
40
0
40
0
40
0
40
0
40
0.125000000000001
40
0.125000000000001
40
0.250000000000002
40
0.250000000000002
40
0.375000000000003
40
0.375000000000003
40
0.437500000000004
40
0.437500000000004
40
0.500000000000005
40
0.500000000000005
40
0.625000000000005
40
0.625000000000005
40
0.656250000000005
40
0.656250000000005
40
0.687500000000005
40
0.687500000000005
40
0.750000000000005
40
0.750000000000005
40
0.812500000000005
40
0.812500000000005
40
0.843750000000004
40
0.843750000000004
40
0.875000000000004
40
0.875000000000004
40
0.937500000000002
40
0.937500000000002
40
1
40
1
40
1
40
1
41
1
10
-52.5003287739481
20
-3.62059097355461
30
0
41
1
10
-52.4791023107682
20
-3.69580949914169
30
0
41
1
10
-52.456173666836
20
-3.7701328086529
30
0
41
1
10
-52.4062202513366
20
-3.91675156331095
30
0
41
1
10
-52.3792000011183
20
-3.98904864238443
30
0
41
1
10
-52.3201140822394
20
-4.13128549106548
30
0
41
1
10
-52.2880578558644
20
-4.20122868864783
30
0
41
1
10
-52.2351342019209
20
-4.30400502578081
30
0
41
1
10
-52.2166821098451
20
-4.33790583931534
30
0
41
1
10
-52.1779019271959
20
-4.40490146665846
30
0
41
1
10
-52.1575385793023
20
-4.43805147836142
30
0
41
1
10
-52.093380094742
20
-4.53574061166557
30
0
41
1
10
-52.0468993353633
20
-4.59806703723407
30
0
41
1
10
-51.9825062567773
20
-4.67139689881651
30
0
41
1
10
-51.9693089720826
20
-4.68583123022111
30
0
41
1
10
-51.9422155209833
20
-4.71419608571787
30
0
41
1
10
-51.9282893124733
20
-4.72815494045494
30
0
41
1
10
-51.8855899983215
20
-4.7689776324583
30
0
41
1
10
-51.8559681934236
20
-4.79473829352929
30
0
41
1
10
-51.7940523105194
20
-4.84293492664423
30
0
41
1
10
-51.7617609635258
20
-4.86537421079322
30
0
41
1
10
-51.710934585781
20
-4.89608972183805
30
0
41
1
10
-51.693592788252
20
-4.9058359097269
30
0
41
1
10
-51.6580214478988
20
-4.92423937407065
30
0
41
1
10
-51.6397301965266
20
-4.93292309713041
30
0
41
1
10
-51.583780125377
20
-4.9569645106269
30
0
41
1
10
-51.5455987975117
20
-4.97010157811332
30
0
41
1
10
-51.4673083175319
20
-4.99008231274206
30
0
41
1
10
-51.4272005227822
20
-4.99693051090844
30
0
41
1
10
-51.3860020460815
20
-5.00022676868039
30
0
0
SPLINE
5
D6
100
AcDbEntity
8
SK1
62
256
6
ByLayer
370
18
48
1
60
0
100
AcDbSpline
70
4
71
3
72
34
73
30
40
0
40
0
40
0
40
0
40
0.0625000000000001
40
0.0625000000000001
40
0.125
40
0.125
40
0.1875
40
0.1875
40
0.25
40
0.25
40
0.28125
40
0.28125
40
0.312499999999999
40
0.312499999999999
40
0.374999999999998
40
0.374999999999998
40
0.499999999999995
40
0.499999999999995
40
0.531249999999995
40
0.531249999999995
40
0.562499999999995
40
0.562499999999995
40
0.624999999999996
40
0.624999999999996
40
0.749999999999997
40
0.749999999999997
40
0.874999999999999
40
0.874999999999999
40
1
40
1
40
1
40
1
41
1
10
-51.3860020460815
20
5.00022676868039
30
0
41
1
10
-51.4271597094618
20
4.99693377635015
30
0
41
1
10
-51.4672462826171
20
4.9900941818546
30
0
41
1
10
-51.5455242136708
20
4.97012456894885
30
0
41
1
10
-51.5837142752675
20
4.95699014998107
30
0
41
1
10
-51.658355568598
20
4.92492253812571
30
0
41
1
10
-51.6938849422845
20
4.90639169663621
30
0
41
1
10
-51.7618166387264
20
4.86534206803361
30
0
41
1
10
-51.7942559781117
20
4.84279931421437
30
0
41
1
10
-51.8409760500773
20
4.80639681369991
30
0
41
1
10
-51.8562248159031
20
4.79382938651
30
0
41
1
10
-51.8861176712827
20
4.76788296468004
30
0
41
1
10
-51.9007110618413
20
4.75454548912128
30
0
41
1
10
-51.9432559764382
20
4.71379512925466
30
0
41
1
10
-51.9701014783725
20
4.68554212638855
30
0
41
1
10
-52.0468805903312
20
4.59805033156974
30
0
41
1
10
-52.0930959781036
20
4.5361050376323
30
0
41
1
10
-52.146279276313
20
4.45521167958731
30
0
41
1
10
-52.1566830990007
20
4.43885754119347
30
0
41
1
10
-52.1770537162702
20
4.4058167491863
30
0
41
1
10
-52.1870311208955
20
4.38911114781021
30
0
41
1
10
-52.2162315231511
20
4.33872068618709
30
0
41
1
10
-52.2347469485042
20
4.30473232112985
30
0
41
1
10
-52.2878314108395
20
4.20171722667834
30
0
41
1
10
-52.3199565384223
20
4.13164670884206
30
0
41
1
10
-52.3791390929746
20
3.98921323503123
30
0
41
1
10
-52.4061866509714
20
3.91684682729945
30
0
41
1
10
-52.4561716481468
20
3.77014208810513
30
0
41
1
10
-52.4791043925606
20
3.69580212206003
30
0
41
1
10
-52.5003287739482
20
3.62059097355464
30
0
0
SPLINE
5
D7
100
AcDbEntity
8
SK1
62
256
6
ByLayer
370
18
48
1
60
0
100
AcDbSpline
70
4
71
3
72
32
73
28
40
0
40
0
40
0
40
0
40
0.124999999999982
40
0.124999999999982
40
0.249999999999963
40
0.249999999999963
40
0.374999999999945
40
0.374999999999945
40
0.406249999999941
40
0.406249999999941
40
0.437499999999938
40
0.499999999999932
40
0.499999999999932
40
0.624999999999931
40
0.624999999999931
40
0.656249999999931
40
0.656249999999931
40
0.68749999999993
40
0.68749999999993
40
0.749999999999941
40
0.749999999999941
40
0.874999999999977
40
0.874999999999977
40
0.906249999999979
40
0.906249999999979
40
0.937499999999981
40
1
40
1
40
1
40
1
41
1
10
-14.0157764695459
20
6.59242894057729
30
0
41
1
10
-14.0458287908144
20
6.6375753796253
30
0
41
1
10
-14.0777095790597
20
6.68135165141678
30
0
41
1
10
-14.1456160664485
20
6.76590887596987
30
0
41
1
10
-14.1816386907667
20
6.80669170869109
30
0
41
1
10
-14.2584995514322
20
6.88489663469755
30
0
41
1
10
-14.2993317458756
20
6.92232243783545
30
0
41
1
10
-14.35399779722
20
6.96665617585003
30
0
41
1
10
-14.3651284778382
20
6.97541075031074
30
0
41
1
10
-14.3876400333972
20
6.9925614515505
30
0
41
1
10
-14.4218166346372
20
7.01777898878851
30
0
41
1
10
-14.4572545898122
20
7.04143848131534
30
0
41
1
10
-14.529923003083
20
7.08656817107874
30
0
41
1
10
-14.5807455844469
20
7.11375097789289
30
0
41
1
10
-14.6477689594914
20
7.14354340177493
30
0
41
1
10
-14.6613494138678
20
7.1492913738704
30
0
41
1
10
-14.6888796972728
20
7.1603468035685
30
0
41
1
10
-14.7028224503024
20
7.16564964334611
30
0
41
1
10
-14.7448319317882
20
7.18073146134719
30
0
41
1
10
-14.7732044950192
20
7.1897362156873
30
0
41
1
10
-14.8594560991353
20
7.21351895535656
30
0
41
1
10
-14.9184624466539
20
7.22508541231923
30
0
41
1
10
-14.9943023139084
20
7.23365556703433
30
0
41
1
10
-15.009604540326
20
7.23507501753883
30
0
41
1
10
-15.0401948935638
20
7.23728819114979
30
0
41
1
10
-15.0861089470591
20
7.23967813447453
30
0
41
1
10
-15.1321084232236
20
7.23928527151031
30
0
41
1
10
-15.1628130403699
20
7.23777548279986
30
0
0
SPLINE
5
D8
100
AcDbEntity
8
SK1
62
256
6
ByLayer
370
18
48
1
60
0
100
AcDbSpline
70
4
71
3
72
24
73
20
40
0
40
0
40
0
40
0
40
0.124999999999998
40
0.124999999999998
40
0.249999999999995
40
0.249999999999995
40
0.374999999999993
40
0.374999999999993
40
0.49999999999999
40
0.49999999999999
40
0.624999999999988
40
0.624999999999988
40
0.749999999999985
40
0.749999999999985
40
0.812499999999989
40
0.812499999999989
40
0.874999999999992
40
0.874999999999992
40
1
40
1
40
1
40
1
41
1
10
-15.1628130403699
20
-7.23777548279986
30
0
41
1
10
-15.1013368482927
20
-7.2407983526281
30
0
41
1
10
-15.0406973758297
20
-7.23880609117487
30
0
41
1
10
-14.920978556398
20
-7.22545942224767
30
0
41
1
10
-14.8618998887329
20
-7.21410077871741
30
0
41
1
10
-14.7452745335612
20
-7.18212437688828
30
0
41
1
10
-14.6895699451789
20
-7.16201960319464
30
0
41
1
10
-14.5827589175342
20
-7.11474711952985
30
0
41
1
10
-14.5316211412475
20
-7.08755690757022
30
0
41
1
10
-14.4334554488588
20
-7.02672282100497
30
0
41
1
10
-14.38751619038
20
-6.99376703919228
30
0
41
1
10
-14.3007925764322
20
-6.92357765523022
30
0
41
1
10
-14.2600161652162
20
-6.88633798514746
30
0
41
1
10
-14.2021759714483
20
-6.82763631844753
30
0
41
1
10
-14.1834523029509
20
-6.80759363972547
30
0
41
1
10
-14.1470479748901
20
-6.76660288333122
30
0
41
1
10
-14.1293429656042
20
-6.74562348347595
30
0
41
1
10
-14.0779142754528
20
-6.68164973874727
30
0
41
1
10
-14.0458764161971
20
-6.63764692539442
30
0
41
1
10
-14.0157764695459
20
-6.59242894057729
30
0
0
SPLINE
5
D9
100
AcDbEntity
8
1
62
256
6
ByLayer
370
13
48
1
60
0
100
AcDbSpline
70
4
71
3
72
22
73
18
40
0
40
0
40
0
40
0
40
0.125
40
0.125
40
0.25
40
0.25
40
0.375
40
0.375
40
0.5
40
0.5
40
0.625
40
0.625
40
0.75
40
0.75
40
0.875
40
0.875
40
1
40
1
40
1
40
1
41
1
10
122
20
4.95111144795362
30
0
41
1
10
122.067348571717
20
5.30643299503492
30
0
41
1
10
122.134697143433
20
5.65023493565872
30
0
41
1
10
122.269394286867
20
6.30479728291343
30
0
41
1
10
122.336742858583
20
6.615528467216
30
0
41
1
10
122.471440002017
20
7.1953682095486
30
0
41
1
10
122.538788573733
20
7.46445546032342
30
0
41
1
10
122.673485717167
20
7.95468915083836
30
0
41
1
10
122.740834288883
20
8.1758259206463
30
0
41
1
10
122.875531432317
20
8.56658009089006
30
0
41
1
10
122.942880004033
20
8.7362003092166
30
0
41
1
10
123.077577147467
20
9.02318559666134
30
0
41
1
10
123.144925719183
20
9.14056395946147
30
0
41
1
10
123.279622862617
20
9.32492066593102
30
0
41
1
10
123.346971434333
20
9.39191888883084
30
0
41
1
10
123.481668577767
20
9.47944750948753
30
0
41
1
10
123.549017149483
20
9.5
30
0
41
1
10
123.6163657212
20
9.5
30
0
0
SPLINE
5
DA
100
AcDbEntity
8
1
62
256
6
ByLayer
370
13
48
1
60
0
100
AcDbSpline
70
4
71
3
72
85
73
81
40
0
40
0
40
0
40
0
40
0.031250000000002
40
0.031250000000002
40
0.062500000000004
40
0.062500000000004
40
0.0937500000000059
40
0.0937500000000059
40
0.125000000000008
40
0.125000000000008
40
0.15625000000001
40
0.15625000000001
40
0.187500000000012
40
0.187500000000012
40
0.218750000000014
40
0.218750000000014
40
0.250000000000016
40
0.250000000000016
40
0.281250000000017
40
0.281250000000017
40
0.296875000000018
40
0.296875000000018
40
0.304687500000019
40
0.308593750000019
40
0.308593750000019
40
0.312500000000019
40
0.312500000000019
40
0.343750000000018
40
0.343750000000018
40
0.375000000000017
40
0.375000000000017
40
0.406250000000016
40
0.406250000000016
40
0.437500000000016
40
0.437500000000016
40
0.468750000000015
40
0.468750000000015
40
0.500000000000014
40
0.500000000000014
40
0.531250000000013
40
0.531250000000013
40
0.562500000000012
40
0.562500000000012
40
0.593750000000011
40
0.593750000000011
40
0.609375000000011
40
0.609375000000011
40
0.617187500000011
40
0.621093750000011
40
0.621093750000011
40
0.625000000000011
40
0.625000000000011
40
0.65625000000001
40
0.65625000000001
40
0.687500000000009
40
0.687500000000009
40
0.718750000000008
40
0.718750000000008
40
0.750000000000007
40
0.750000000000007
40
0.781250000000006
40
0.781250000000006
40
0.812500000000005
40
0.812500000000005
40
0.843750000000004
40
0.843750000000004
40
0.875000000000003
40
0.875000000000003
40
0.906250000000003
40
0.906250000000003
40
0.921875000000002
40
0.921875000000002
40
0.929687500000002
40
0.933593750000002
40
0.933593750000002
40
0.937500000000002
40
0.937500000000002
40
0.968750000000001
40
0.968750000000001
40
1
40
1
40
1
40
1
41
1
10
123.982569338675
20
9.5
30
0
41
1
10
124.066524686965
20
9.5
30
0
41
1
10
124.150480035254
20
9.46801877891789
30
0
41
1
10
124.318390731834
20
9.33007991268013
30
0
41
1
10
124.402346080123
20
9.22405656906352
30
0
41
1
10
124.570256776702
20
8.93172123449565
30
0
41
1
10
124.654212124992
20
8.74535787624569
30
0
41
1
10
124.822122821571
20
8.29168746423122
30
0
41
1
10
124.90607816986
20
8.02436305568943
30
0
41
1
10
125.073988866439
20
7.41487692217945
30
0
41
1
10
125.157944214729
20
7.07274372368593
30
0
41
1
10
125.325854911308
20
6.32637355410824
30
0
41
1
10
125.409810259598
20
5.92220719658607
30
0
41
1
10
125.577720956177
20
5.06961245549189
30
0
41
1
10
125.661676304466
20
4.62127724899787
30
0
41
1
10
125.829587001045
20
3.70075019505202
30
0
41
1
10
125.913542349335
20
3.22864769144212
30
0
41
1
10
126.081453045914
20
2.28071450131495
30
0
41
1
10
126.165408394203
20
1.80494802164284
30
0
41
1
10
126.291341416638
20
1.10160868332167
30
0
41
1
10
126.333319090782
20
0.868853917304222
30
0
41
1
10
126.396285602
20
0.523611032858241
30
0
41
1
10
126.427768857608
20
0.35195878306547
30
0
41
1
10
126.459252113217
20
0.18198480182582
30
0
41
1
10
126.480240950289
20
0.0690646563001849
30
0
41
1
10
126.490735368825
20
0.0129328850601667
30
0
41
1
10
126.585185135651
20
-0.493451620141371
30
0
41
1
10
126.669140483941
20
-0.956774819216491
30
0
41
1
10
126.83705118052
20
-1.89622377067815
30
0
41
1
10
126.921006528809
20
-2.37231708483176
30
0
41
1
10
127.088917225388
20
-3.31967363310616
30
0
41
1
10
127.172872573678
20
-3.79087063325051
30
0
41
1
10
127.340783270257
20
-4.70825686039859
30
0
41
1
10
127.424738618546
20
-5.15435574853342
30
0
41
1
10
127.592649315125
20
-6.00122292115756
30
0
41
1
10
127.676604663415
20
-6.40189869388462
30
0
41
1
10
127.844515359994
20
-7.14028890368417
30
0
41
1
10
127.928470708284
20
-7.47793498159703
30
0
41
1
10
128.096381404863
20
-8.07784059483714
30
0
41
1
10
128.180336753152
20
-8.34007462560993
30
0
41
1
10
128.348247449731
20
-8.78340399754197
30
0
41
1
10
128.432202798021
20
-8.96451936971749
30
0
41
1
10
128.6001134946
20
-9.24660819792192
30
0
41
1
10
128.68406884289
20
-9.34763456070104
30
0
41
1
10
128.810001865324
20
-9.44401114770062
30
0
41
1
10
128.851979539469
20
-9.46698105171623
30
0
41
1
10
128.914946050686
20
-9.48859209401635
30
0
41
1
10
128.946429306294
20
-9.49618908571375
30
0
41
1
10
128.977912561903
20
-9.49915902579585
30
0
41
1
10
128.998901398975
20
-9.50013246055192
30
0
41
1
10
129.009395817511
20
-9.50011868361526
30
0
41
1
10
129.103845584337
20
-9.49548615140964
30
0
41
1
10
129.187800932627
20
-9.45902285729886
30
0
41
1
10
129.355711629206
20
-9.31157797163189
30
0
41
1
10
129.439666977495
20
-9.20053100144986
30
0
41
1
10
129.607577674074
20
-8.89791946619727
30
0
41
1
10
129.691533022364
20
-8.70630515799195
30
0
41
1
10
129.859443718943
20
-8.24231612170266
30
0
41
1
10
129.943399067233
20
-7.96992676708496
30
0
41
1
10
130.111309763812
20
-7.35093882389049
30
0
41
1
10
130.195265112101
20
-7.00437176814589
30
0
41
1
10
130.36317580868
20
-6.25014961480463
30
0
41
1
10
130.44713115697
20
-5.84256730126137
30
0
41
1
10
130.615041853549
20
-4.98440493086738
30
0
41
1
10
130.698997201838
20
-4.53391860297435
30
0
41
1
10
130.866907898418
20
-3.61041979946123
30
0
41
1
10
130.950863246707
20
-3.13749558206501
30
0
41
1
10
131.118773943286
20
-2.18914204006742
30
0
41
1
10
131.202729291576
20
-1.71377485903827
30
0
41
1
10
131.32866231401
20
-1.01177865870764
30
0
41
1
10
131.370639988155
20
-0.779594887172465
30
0
41
1
10
131.433606499372
20
-0.435367524711268
30
0
41
1
10
131.465089754981
20
-0.264262762298784
30
0
41
1
10
131.496573010589
20
-0.0948908122508954
30
0
41
1
10
131.517561847662
20
0.0176164250090096
30
0
41
1
10
131.528056266198
20
0.073765733171939
30
0
41
1
10
131.622506033023
20
0.582005430846834
30
0
41
1
10
131.706461381313
20
1.04660634068614
30
0
41
1
10
131.874372077892
20
1.98758862207859
30
0
41
1
10
131.958327426181
20
2.46393535404985
30
0
41
1
10
132.042282774471
20
2.93724647202498
30
0
0
SPLINE
5
DB
100
AcDbEntity
8
1
62
256
6
ByLayer
370
13
48
1
60
0
100
AcDbSpline
70
4
71
3
72
14
73
10
40
0
40
0
40
0
40
0
40
0.25
40
0.25
40
0.5
40
0.5
40
0.75
40
0.75
40
1
40
1
40
1
40
1
41
1
10
122
20
7.28644875635416
30
0
41
1
10
122.093393626005
20
7.66141994819654
30
0
41
1
10
122.18678725201
20
7.99307682630081
30
0
41
1
10
122.37357450402
20
8.55764168040534
30
0
41
1
10
122.466968130025
20
8.79055382707068
30
0
41
1
10
122.653755382035
20
9.15588683787021
30
0
41
1
10
122.74714900804
20
9.28838452147167
30
0
41
1
10
122.93393626005
20
9.46038584859184
30
0
41
1
10
123.027329886055
20
9.5
30
0
41
1
10
123.12072351206
20
9.5
30
0
0
SPLINE
5
DC
100
AcDbEntity
8
1
62
256
6
ByLayer
370
13
48
1
60
0
100
AcDbSpline
70
4
71
3
72
86
73
82
40
0
40
0
40
0
40
0
40
0.0312499999999999
40
0.0312499999999999
40
0.0624999999999999
40
0.0624999999999999
40
0.0937499999999998
40
0.0937499999999998
40
0.125
40
0.125
40
0.15625
40
0.15625
40
0.1875
40
0.1875
40
0.21875
40
0.21875
40
0.25
40
0.25
40
0.28125
40
0.28125
40
0.2890625
40
0.2890625
40
0.296875
40
0.296875
40
0.3125
40
0.3125
40
0.34375
40
0.34375
40
0.375
40
0.375
40
0.40625
40
0.40625
40
0.4375
40
0.4375
40
0.46875
40
0.46875
40
0.5
40
0.5
40
0.53125
40
0.53125
40
0.5625
40
0.5625
40
0.578125
40
0.578125
40
0.5859375
40
0.5859375
40
0.58984375
40
0.58984375
40
0.593749999999999
40
0.593749999999999
40
0.624999999999999
40
0.624999999999999
40
0.656249999999999
40
0.656249999999999
40
0.687499999999999
40
0.687499999999999
40
0.718749999999999
40
0.718749999999999
40
0.749999999999999
40
0.749999999999999
40
0.781249999999999
40
0.781249999999999
40
0.812499999999999
40
0.812499999999999
40
0.843749999999999
40
0.843749999999999
40
0.874999999999999
40
0.874999999999999
40
0.878906249999999
40
0.878906249999999
40
0.882812499999999
40
0.882812499999999
40
0.890624999999999
40
0.890624999999999
40
0.906249999999999
40
0.906249999999999
40
0.937499999999999
40
0.937499999999999
40
0.96875
40
0.96875
40
1
40
1
40
1
40
1
41
1
10
123.486927129535
20
9.5
30
0
41
1
10
123.576045417503
20
9.5
30
0
41
1
10
123.665163705471
20
9.46394606337904
30
0
41
1
10
123.843400281407
20
9.30786610280683
30
0
41
1
10
123.932518569375
20
9.18775210167107
30
0
41
1
10
124.110755145312
20
8.85652940478664
30
0
41
1
10
124.19987343328
20
8.64535593550289
30
0
41
1
10
124.378110009216
20
8.13240693455822
30
0
41
1
10
124.467228297184
20
7.83061882729325
30
0
41
1
10
124.64546487312
20
7.14551415746402
30
0
41
1
10
124.734583161088
20
6.76225131724954
30
0
41
1
10
124.912819737024
20
5.9313664674726
30
0
41
1
10
125.001938024993
20
5.48385232869552
30
0
41
1
10
125.180174600929
20
4.54723208321951
30
0
41
1
10
125.269292888897
20
4.05825352887732
30
0
41
1
10
125.447529464833
20
3.06339077382503
30
0
41
1
10
125.536647752801
20
2.55761491007598
30
0
41
1
10
125.714884328737
20
1.55208029962014
30
0
41
1
10
125.804002616705
20
1.0523858981517
30
0
41
1
10
125.915400476665
20
0.443086164041063
30
0
41
1
10
125.937680048657
20
0.321979244710491
30
0
41
1
10
125.982239192641
20
0.0815051592693692
30
0
41
1
10
126.004518764633
20
-0.0373041792718709
30
0
41
1
10
126.071357480609
20
-0.397367682399477
30
0
41
1
10
126.115916624593
20
-0.640955088423226
30
0
41
1
10
126.249594056546
20
-1.3794484847987
30
0
41
1
10
126.338712344514
20
-1.88223710881556
30
0
41
1
10
126.51694892045
20
-2.889265167404
30
0
41
1
10
126.606067208418
20
-3.39342958322584
30
0
41
1
10
126.784303784354
20
-4.37970561373328
30
0
41
1
10
126.873422072322
20
-4.86170185913861
30
0
41
1
10
127.051658648258
20
-5.77906487476599
30
0
41
1
10
127.140776936226
20
-6.21430489798311
30
0
41
1
10
127.319013512163
20
-7.01626779949348
30
0
41
1
10
127.408131800131
20
-7.38289229004283
30
0
41
1
10
127.586368376067
20
-8.0319575314503
30
0
41
1
10
127.675486664035
20
-8.31435902800365
30
0
41
1
10
127.853723239971
20
-8.78769780570519
30
0
41
1
10
127.942841527939
20
-8.97866107988537
30
0
41
1
10
128.121078103875
20
-9.27042496090991
30
0
41
1
10
128.210196391844
20
-9.37129809896953
30
0
41
1
10
128.343873823796
20
-9.46122213401804
30
0
41
1
10
128.38843296778
20
-9.48101305412339
30
0
41
1
10
128.455271683756
20
-9.49653002466439
30
0
41
1
10
128.477551255748
20
-9.49934268242714
30
0
41
1
10
128.510970613736
20
-9.50017494474159
30
0
41
1
10
128.522110399732
20
-9.49989167090101
30
0
41
1
10
128.544389971724
20
-9.49818563041833
30
0
41
1
10
128.55552975772
20
-9.49676165927778
30
0
41
1
10
128.655787831684
20
-9.4786927748454
30
0
41
1
10
128.744906119652
20
-9.42511080227263
30
0
41
1
10
128.923142695588
20
-9.23191355085964
30
0
41
1
10
129.012260983556
20
-9.0922127416095
30
0
41
1
10
129.190497559492
20
-8.72120002992352
30
0
41
1
10
129.27961584746
20
-8.48983257218759
30
0
41
1
10
129.457852423397
20
-7.93773023387067
30
0
41
1
10
129.546970711365
20
-7.61699692232528
30
0
41
1
10
129.725207287301
20
-6.89713231530644
30
0
41
1
10
129.814325575269
20
-6.49806861091912
30
0
41
1
10
129.992562151205
20
-5.64021047630948
30
0
41
1
10
130.081680439173
20
-5.18153166779442
30
0
41
1
10
130.259917015109
20
-4.22796520216875
30
0
41
1
10
130.349035303078
20
-3.73320395615988
30
0
41
1
10
130.527271879014
20
-2.7320647834151
30
0
41
1
10
130.616390166982
20
-2.22578694433091
30
0
41
1
10
130.794626742918
20
-1.22374599173079
30
0
41
1
10
130.883745030886
20
-0.72803639883648
30
0
41
1
10
130.98400310485
20
-0.186013482837467
30
0
41
1
10
130.995142890846
20
-0.12600256006732
30
0
41
1
10
131.017422462838
20
-0.0064358735008625
30
0
41
1
10
131.028562248834
20
0.0530879517383767
30
0
41
1
10
131.061981606822
20
0.232790882224805
30
0
41
1
10
131.084261178814
20
0.353489807190044
30
0
41
1
10
131.15109989479
20
0.717935168078753
30
0
41
1
10
131.195659038774
20
0.964040930257823
30
0
41
1
10
131.329336470727
20
1.70865139575326
30
0
41
1
10
131.418454758695
20
2.21358829182034
30
0
41
1
10
131.596691334631
20
3.22002088024303
30
0
41
1
10
131.685809622599
20
3.72143125668731
30
0
41
1
10
131.864046198535
20
4.69678027283587
30
0
41
1
10
131.953164486503
20
5.17059794281744
30
0
41
1
10
132.042282774471
20
5.61851958224662
30
0
0
SPLINE
5
DD
100
AcDbEntity
8
1
62
256
6
ByLayer
370
13
48
1
60
0
100
AcDbSpline
70
4
71
3
72
12
73
8
40
0
40
0
40
0
40
0
40
0.25
40
0.25
40
0.5
40
0.5
40
1
40
1
40
1
40
1
41
1
10
122
20
8.83864427679762
30
0
41
1
10
122.052090108577
20
8.95340212072864
30
0
41
1
10
122.104180217153
20
9.05254734361381
30
0
41
1
10
122.208360434306
20
9.22023069066603
30
0
41
1
10
122.260450542883
20
9.28877389007585
30
0
41
1
10
122.416720868613
20
9.45064374598996
30
0
41
1
10
122.520901085766
20
9.5
30
0
41
1
10
122.625081302919
20
9.5
30
0
0
SPLINE
5
DE
100
AcDbEntity
8
1
62
256
6
ByLayer
370
13
48
1
60
0
100
AcDbSpline
70
4
71
3
72
82
73
78
40
0
40
0
40
0
40
0
40
0.0312500000000002
40
0.0312500000000002
40
0.0625000000000004
40
0.0625000000000004
40
0.0937500000000006
40
0.0937500000000006
40
0.125000000000001
40
0.125000000000001
40
0.156250000000001
40
0.156250000000001
40
0.187500000000001
40
0.187500000000001
40
0.218750000000001
40
0.218750000000001
40
0.250000000000001
40
0.250000000000001
40
0.265625000000002
40
0.265625000000002
40
0.273437500000002
40
0.273437500000002
40
0.281250000000002
40
0.281250000000002
40
0.312500000000002
40
0.312500000000002
40
0.343750000000002
40
0.343750000000002
40
0.375000000000002
40
0.375000000000002
40
0.406250000000002
40
0.406250000000002
40
0.437500000000002
40
0.437500000000002
40
0.468750000000002
40
0.468750000000002
40
0.500000000000002
40
0.500000000000002
40
0.531250000000003
40
0.531250000000003
40
0.546875000000003
40
0.546875000000003
40
0.554687500000003
40
0.554687500000003
40
0.562500000000003
40
0.562500000000003
40
0.593750000000003
40
0.593750000000003
40
0.625000000000003
40
0.625000000000003
40
0.656250000000003
40
0.656250000000003
40
0.687500000000003
40
0.687500000000003
40
0.718750000000003
40
0.718750000000003
40
0.750000000000003
40
0.750000000000003
40
0.781250000000003
40
0.781250000000003
40
0.812500000000003
40
0.812500000000003
40
0.828125000000003
40
0.828125000000003
40
0.835937500000003
40
0.835937500000003
40
0.843750000000003
40
0.843750000000003
40
0.875000000000002
40
0.875000000000002
40
0.906250000000002
40
0.906250000000002
40
0.937500000000001
40
0.937500000000001
40
0.968750000000001
40
0.968750000000001
40
1
40
1
40
1
40
1
41
1
10
122.991284920395
20
9.5
30
0
41
1
10
123.085566148041
20
9.5
30
0
41
1
10
123.179847375688
20
9.45962534302274
30
0
41
1
10
123.368409830981
20
9.28421594969211
30
0
41
1
10
123.462691058628
20
9.14906551772197
30
0
41
1
10
123.651253513921
20
8.77643462218524
30
0
41
1
10
123.745534741568
20
8.53887476466377
30
0
41
1
10
123.934097196861
20
7.96331518096136
30
0
41
1
10
124.028378424508
20
7.62531367233487
30
0
41
1
10
124.216940879801
20
6.86168451607332
30
0
41
1
10
124.311222107448
20
6.43614731862741
30
0
41
1
10
124.499784562741
20
5.51987224367153
30
0
41
1
10
124.594065790387
20
5.02929007489763
30
0
41
1
10
124.782628245681
20
4.01112636974858
30
0
41
1
10
124.876909473327
20
3.48371004107099
30
0
41
1
10
125.065471928621
20
2.42081318792287
30
0
41
1
10
125.159753156267
20
1.88545484588491
30
0
41
1
10
125.301174997737
20
1.09524967701697
30
0
41
1
10
125.34831561156
20
0.83394576250285
30
0
41
1
10
125.419026532295
20
0.447042478395531
30
0
41
1
10
125.442596839207
20
0.318913495835972
30
0
41
1
10
125.48973745303
20
0.064609834861443
30
0
41
1
10
125.513307759942
20
-0.0610356224679549
30
0
41
1
10
125.6311592945
20
-0.696702789485613
30
0
41
1
10
125.725440522147
20
-1.22115957129103
30
0
41
1
10
125.91400297744
20
-2.28162718050908
30
0
41
1
10
126.008284205087
20
-2.81756591374921
30
0
41
1
10
126.19684666038
20
-3.87468660532363
30
0
41
1
10
126.291127888027
20
-4.39573215523879
30
0
41
1
10
126.47969034332
20
-5.3939095180761
30
0
41
1
10
126.573971570967
20
-5.87087288481442
30
0
41
1
10
126.76253402626
20
-6.75361318361584
30
0
41
1
10
126.856815253907
20
-7.15924600942137
30
0
41
1
10
127.0453777092
20
-7.87885437155879
30
0
41
1
10
127.139658936846
20
-8.19276140944933
30
0
41
1
10
127.32822139214
20
-8.71861390233209
30
0
41
1
10
127.422502619786
20
-8.93058318146657
30
0
41
1
10
127.611065075079
20
-9.25311590897755
30
0
41
1
10
127.705346302726
20
-9.36377203584172
30
0
41
1
10
127.846768144196
20
-9.46086170820661
30
0
41
1
10
127.89390875802
20
-9.48180287558765
30
0
41
1
10
127.964619678754
20
-9.49739089315847
30
0
41
1
10
127.988189985666
20
-9.4999519988549
30
0
41
1
10
128.035330599489
20
-9.50004666379763
30
0
41
1
10
128.058900906401
20
-9.49758252398772
30
0
41
1
10
128.176752440959
20
-9.47209853314891
30
0
41
1
10
128.271033668606
20
-9.40937918588338
30
0
41
1
10
128.459596123899
20
-9.18664214419883
30
0
41
1
10
128.553877351546
20
-9.02651346511851
30
0
41
1
10
128.742439806839
20
-8.60341138155047
30
0
41
1
10
128.836721034486
20
-8.34037454288145
30
0
41
1
10
129.025283489779
20
-7.71601858003581
30
0
41
1
10
129.119564717426
20
-7.35472069637731
30
0
41
1
10
129.308127172719
20
-6.54926934943381
30
0
41
1
10
129.402408400365
20
-6.10522656611283
30
0
41
1
10
129.590970855659
20
-5.15857459564117
30
0
41
1
10
129.685252083305
20
-4.65612912636587
30
0
41
1
10
129.873814538599
20
-3.62153206876536
30
0
41
1
10
129.968095766245
20
-3.08953909603153
30
0
41
1
10
130.156658221538
20
-2.02421447441301
30
0
41
1
10
130.250939449185
20
-1.49098929969321
30
0
41
1
10
130.392361290655
20
-0.707953043917883
30
0
41
1
10
130.439501904478
20
-0.449695202846414
30
0
41
1
10
130.510212825214
20
-0.0681845900782605
30
0
41
1
10
130.533783132125
20
0.0574619535328793
30
0
41
1
10
130.580923745948
20
0.311691979589369
30
0
41
1
10
130.60449405286
20
0.439786617846892
30
0
41
1
10
130.722345587418
20
1.08446737840694
30
0
41
1
10
130.816626815065
20
1.61393286482689
30
0
41
1
10
131.005189270358
20
2.67837353310756
30
0
41
1
10
131.099470498005
20
3.21325953775778
30
0
41
1
10
131.288032953298
20
4.26115506086535
30
0
41
1
10
131.382314180945
20
4.77401596204948
30
0
41
1
10
131.570876636238
20
5.74869362897468
30
0
41
1
10
131.665157863885
20
6.21034232305715
30
0
41
1
10
131.853720319178
20
7.05658113395788
30
0
41
1
10
131.948001546825
20
7.44104205103042
30
0
41
1
10
132.042282774471
20
7.77788689124887
30
0
0
SPLINE
5
DF
100
AcDbEntity
8
1
62
256
6
ByLayer
370
13
48
1
60
0
100
AcDbSpline
70
4
71
3
72
8
73
4
40
0
40
0
40
0
40
0
40
1
40
1
40
1
40
1
41
1
10
122
20
9.47400250646544
30
0
41
1
10
122.043146364593
20
9.49157582673951
30
0
41
1
10
122.086292729186
20
9.5
30
0
41
1
10
122.129439093779
20
9.5
30
0
0
SPLINE
5
E0
100
AcDbEntity
8
1
62
256
6
ByLayer
370
13
48
1
60
0
100
AcDbSpline
70
4
71
3
72
120
73
116
40
0
40
0
40
0
40
0
40
0.0312500000000011
40
0.0312500000000011
40
0.0625000000000022
40
0.0625000000000022
40
0.0781250000000026
40
0.0781250000000026
40
0.093750000000003
40
0.093750000000003
40
0.109375000000003
40
0.109375000000003
40
0.125000000000004
40
0.125000000000004
40
0.140625000000004
40
0.140625000000004
40
0.156250000000005
40
0.156250000000005
40
0.171875000000005
40
0.171875000000005
40
0.187500000000005
40
0.187500000000005
40
0.218750000000006
40
0.218750000000006
40
0.250000000000007
40
0.250000000000007
40
0.257812500000007
40
0.257812500000007
40
0.261718750000007
40
0.261718750000007
40
0.265625000000007
40
0.265625000000007
40
0.281250000000006
40
0.281250000000006
40
0.312500000000006
40
0.312500000000006
40
0.343750000000005
40
0.343750000000005
40
0.359375000000005
40
0.359375000000005
40
0.375000000000004
40
0.375000000000004
40
0.390625000000004
40
0.390625000000004
40
0.406250000000004
40
0.406250000000004
40
0.421875000000004
40
0.421875000000004
40
0.437500000000004
40
0.437500000000004
40
0.453125000000003
40
0.453125000000003
40
0.468750000000003
40
0.468750000000003
40
0.500000000000003
40
0.500000000000003
40
0.515625000000003
40
0.515625000000003
40
0.523437500000003
40
0.523437500000003
40
0.527343750000003
40
0.527343750000003
40
0.531250000000003
40
0.531250000000003
40
0.562500000000002
40
0.562500000000002
40
0.593750000000001
40
0.593750000000001
40
0.609375000000001
40
0.609375000000001
40
0.625000000000001
40
0.625000000000001
40
0.640625000000001
40
0.640625000000001
40
0.656250000000001
40
0.656250000000001
40
0.671875
40
0.671875
40
0.6875
40
0.6875
40
0.703125
40
0.703125
40
0.71875
40
0.71875
40
0.749999999999999
40
0.749999999999999
40
0.781249999999999
40
0.781249999999999
40
0.789062499999999
40
0.789062499999999
40
0.796874999999999
40
0.796874999999999
40
0.812499999999999
40
0.812499999999999
40
0.843749999999999
40
0.843749999999999
40
0.859374999999999
40
0.859374999999999
40
0.874999999999999
40
0.874999999999999
40
0.890624999999999
40
0.890624999999999
40
0.90625
40
0.90625
40
0.921875
40
0.921875
40
0.9375
40
0.9375
40
0.953125
40
0.953125
40
0.96875
40
0.96875
40
0.984375
40
0.984375
40
1
40
1
40
1
40
1
41
1
10
122.495642711254
20
9.5
30
0
41
1
10
122.595086878579
20
9.5
30
0
41
1
10
122.694531045905
20
9.4550555949202
30
0
41
1
10
122.893419380555
20
9.25911927134752
30
0
41
1
10
122.99286354788
20
9.10797767599664
30
0
41
1
10
123.142029798868
20
8.79556532191046
30
0
41
1
10
123.191751882531
20
8.6772239996528
30
0
41
1
10
123.291196049856
20
8.41223584580206
30
0
41
1
10
123.340918133518
20
8.26558760158019
30
0
41
1
10
123.440362300844
20
7.94491258672144
30
0
41
1
10
123.490084384506
20
7.77088635011617
30
0
41
1
10
123.589528551831
20
7.39722743203205
30
0
41
1
10
123.639250635494
20
7.19759733828511
30
0
41
1
10
123.738694802819
20
6.77530122487195
30
0
41
1
10
123.788416886482
20
6.55263968233882
30
0
41
1
10
123.887861053807
20
6.08754274407622
30
0
41
1
10
123.937583137469
20
5.84511329093019
30
0
41
1
10
124.037027304795
20
5.34427597815056
30
0
41
1
10
124.086749388457
20
5.08587491042573
30
0
41
1
10
124.186193555782
20
4.55722962635878
30
0
41
1
10
124.235915639445
20
4.28699235020272
30
0
41
1
10
124.385081890433
20
3.46491528601129
30
0
41
1
10
124.484526057758
20
2.90185487619118
30
0
41
1
10
124.683414392408
20
1.77823886877283
30
0
41
1
10
124.782858559733
20
1.21781039472199
30
0
41
1
10
124.90716376889
20
0.535518963597895
30
0
41
1
10
124.932024810721
20
0.399953474079865
30
0
41
1
10
124.969316373468
20
0.198193373138651
30
0
41
1
10
124.981746894384
20
0.131204427397648
30
0
41
1
10
125.006607936215
20
-0.0022063634665983
30
0
41
1
10
125.019038457131
20
-0.0686407603757004
30
0
41
1
10
125.081191061709
20
-0.403160823127195
30
0
41
1
10
125.130913145372
20
-0.675228560574595
30
0
41
1
10
125.280079396359
20
-1.50073174045406
30
0
41
1
10
125.379523563684
20
-2.06369345531408
30
0
41
1
10
125.578411898335
20
-3.18716013158303
30
0
41
1
10
125.67785606566
20
-3.74752255068111
30
0
41
1
10
125.827022316648
20
-4.56117176464826
30
0
41
1
10
125.87674440031
20
-4.8278765440694
30
0
41
1
10
125.976188567636
20
-5.34803141251388
30
0
41
1
10
126.025910651298
20
-5.6014745327891
30
0
41
1
10
126.125354818623
20
-6.09106205764255
30
0
41
1
10
126.175076902286
20
-6.32719988116173
30
0
41
1
10
126.274521069611
20
-6.77853953295593
30
0
41
1
10
126.324243153274
20
-6.99373585354883
30
0
41
1
10
126.423687320599
20
-7.40014591182566
30
0
41
1
10
126.473409404261
20
-7.59135577677699
30
0
41
1
10
126.572853571587
20
-7.94747975535881
30
0
41
1
10
126.622575655249
20
-8.11239197217716
30
0
41
1
10
126.722019822574
20
-8.41442853514337
30
0
41
1
10
126.771741906237
20
-8.5515530311977
30
0
41
1
10
126.871186073562
20
-8.797369298056
30
0
41
1
10
126.920908157225
20
-8.90606307395055
30
0
41
1
10
127.070074408212
20
-9.18974897551738
30
0
41
1
10
127.169518575538
20
-9.32205108689888
30
0
41
1
10
127.318684826525
20
-9.44248980031247
30
0
41
1
10
127.368406910188
20
-9.46971336760018
30
0
41
1
10
127.442990035682
20
-9.4926413199874
30
0
41
1
10
127.467851077513
20
-9.49730260627163
30
0
41
1
10
127.50514264026
20
-9.50003130130548
30
0
41
1
10
127.517573161176
20
-9.50023342952503
30
0
41
1
10
127.542434203007
20
-9.49923815099638
30
0
41
1
10
127.554864723923
20
-9.49803535307854
30
0
41
1
10
127.666739412163
20
-9.48070328969263
30
0
41
1
10
127.766183579489
20
-9.41876704677836
30
0
41
1
10
127.965071914139
20
-9.18675098800935
30
0
41
1
10
128.064516081464
20
-9.01652614977749
30
0
41
1
10
128.213682332452
20
-8.67528737000151
30
0
41
1
10
128.263404416114
20
-8.54730912401567
30
0
41
1
10
128.36284858344
20
-8.26326605599419
30
0
41
1
10
128.412570667102
20
-8.10720045295722
30
0
41
1
10
128.512014834428
20
-7.7681971930655
30
0
41
1
10
128.56173691809
20
-7.58526076683808
30
0
41
1
10
128.661181085415
20
-7.19456664167393
30
0
41
1
10
128.710903169078
20
-6.98681220245211
30
0
41
1
10
128.810347336403
20
-6.54930153988474
30
0
41
1
10
128.860069420066
20
-6.31955034887079
30
0
41
1
10
128.959513587391
20
-5.84150873490856
30
0
41
1
10
129.009235671053
20
-5.59322461785695
30
0
41
1
10
129.108679838378
20
-5.08205054252133
30
0
41
1
10
129.158401922041
20
-4.8191675055669
30
0
41
1
10
129.257846089366
20
-4.28299873908495
30
0
41
1
10
129.307568173029
20
-4.00971984384282
30
0
41
1
10
129.456734424017
20
-3.18067488398091
30
0
41
1
10
129.556178591342
20
-2.61587053206577
30
0
41
1
10
129.755066925992
20
-1.49382751034369
30
0
41
1
10
129.854511093317
20
-0.936700099228716
30
0
41
1
10
129.978816302474
20
-0.260836802845518
30
0
41
1
10
130.003677344305
20
-0.126742955347311
30
0
41
1
10
130.053399427968
20
0.139412436615544
30
0
41
1
10
130.078260469799
20
0.273646869091124
30
0
41
1
10
130.152843595293
20
0.679355861185854
30
0
41
1
10
130.202565678955
20
0.95385280595616
30
0
41
1
10
130.351731929943
20
1.78508674907002
30
0
41
1
10
130.451176097268
20
2.34977520184967
30
0
41
1
10
130.600342348256
20
3.19092827284609
30
0
41
1
10
130.650064431919
20
3.47027540155855
30
0
41
1
10
130.749508599244
20
4.0227759815086
30
0
41
1
10
130.799230682907
20
4.29592330047112
30
0
41
1
10
130.898674850232
20
4.8317612053566
30
0
41
1
10
130.948396933894
20
5.09444495036087
30
0
41
1
10
131.047841101219
20
5.60515535253307
30
0
41
1
10
131.097563184882
20
5.85317509260989
30
0
41
1
10
131.197007352207
20
6.33062879253953
30
0
41
1
10
131.24672943587
20
6.56005646184653
30
0
41
1
10
131.346173603195
20
6.99686986475314
30
0
41
1
10
131.395895686858
20
7.20425059081012
30
0
41
1
10
131.495339854183
20
7.59415842144588
30
0
41
1
10
131.545061937845
20
7.77668229722167
30
0
41
1
10
131.64450610517
20
8.11483449051514
30
0
41
1
10
131.694228188833
20
8.27046161018419
30
0
41
1
10
131.793672356158
20
8.5536152302912
30
0
41
1
10
131.843394439821
20
8.68114254209286
30
0
41
1
10
131.942838607146
20
8.90773381551338
30
0
41
1
10
131.992560690808
20
9.00680032856647
30
0
41
1
10
132.042282774471
20
9.09184911579331
30
0
0
SPLINE
5
E1
100
AcDbEntity
8
1
62
256
6
ByLayer
370
13
48
1
60
0
100
AcDbSpline
70
4
71
3
72
118
73
114
40
0
40
0
40
0
40
0
40
0.0312499999999999
40
0.0312499999999999
40
0.0468749999999998
40
0.0468749999999998
40
0.0624999999999997
40
0.0624999999999997
40
0.0781249999999997
40
0.0781249999999997
40
0.0937499999999996
40
0.0937499999999996
40
0.109375
40
0.109375
40
0.124999999999999
40
0.124999999999999
40
0.140624999999999
40
0.140624999999999
40
0.156249999999999
40
0.156249999999999
40
0.171874999999999
40
0.171874999999999
40
0.187499999999999
40
0.187499999999999
40
0.203124999999999
40
0.203124999999999
40
0.218749999999999
40
0.218749999999999
40
0.249999999999999
40
0.249999999999999
40
0.281249999999999
40
0.281249999999999
40
0.296874999999999
40
0.296874999999999
40
0.312499999999999
40
0.312499999999999
40
0.328124999999999
40
0.328124999999999
40
0.343749999999999
40
0.343749999999999
40
0.359374999999999
40
0.359374999999999
40
0.374999999999999
40
0.374999999999999
40
0.390624999999999
40
0.390624999999999
40
0.406249999999999
40
0.406249999999999
40
0.421874999999999
40
0.421874999999999
40
0.437499999999999
40
0.437499999999999
40
0.453124999999999
40
0.453124999999999
40
0.468749999999999
40
0.468749999999999
40
0.499999999999999
40
0.499999999999999
40
0.531249999999999
40
0.531249999999999
40
0.546874999999999
40
0.546874999999999
40
0.562499999999999
40
0.562499999999999
40
0.578124999999999
40
0.578124999999999
40
0.593749999999999
40
0.593749999999999
40
0.609374999999999
40
0.609374999999999
40
0.624999999999999
40
0.624999999999999
40
0.640624999999999
40
0.640624999999999
40
0.656249999999999
40
0.656249999999999
40
0.671874999999999
40
0.671874999999999
40
0.687499999999999
40
0.687499999999999
40
0.703124999999999
40
0.703124999999999
40
0.718749999999999
40
0.718749999999999
40
0.749999999999999
40
0.749999999999999
40
0.781249999999999
40
0.781249999999999
40
0.796874999999999
40
0.796874999999999
40
0.812499999999999
40
0.812499999999999
40
0.828124999999999
40
0.828124999999999
40
0.84375
40
0.84375
40
0.859375
40
0.859375
40
0.875
40
0.875
40
0.890625
40
0.890625
40
0.90625
40
0.90625
40
0.921875
40
0.921875
40
0.9375
40
0.9375
40
0.953125
40
0.953125
40
0.96875
40
0.96875
40
1
40
1
40
1
40
1
41
1
10
122.000000502114
20
9.5
30
0
41
1
10
122.104607609118
20
9.5
30
0
41
1
10
122.209214716122
20
9.4502357059398
30
0
41
1
10
122.366125376627
20
9.2869836714541
30
0
41
1
10
122.418428930129
20
9.21785234322078
30
0
41
1
10
122.523036037133
20
9.04872793843882
30
0
41
1
10
122.575339590634
20
8.94872969776333
30
0
41
1
10
122.679946697638
20
8.71724816131177
30
0
41
1
10
122.73225025114
20
8.58576135813001
30
0
41
1
10
122.836857358144
20
8.29163499223009
30
0
41
1
10
122.889160911646
20
8.12899423162813
30
0
41
1
10
122.993768018649
20
7.77392080109237
30
0
41
1
10
123.046071572151
20
7.58148964422978
30
0
41
1
10
123.150678679155
20
7.16922135257397
30
0
41
1
10
123.202982232657
20
6.94938847654984
30
0
41
1
10
123.307589339661
20
6.48564092249165
30
0
41
1
10
123.359892893162
20
6.2417328746082
30
0
41
1
10
123.464500000166
20
5.73393221250811
30
0
41
1
10
123.516803553668
20
5.47004786794088
30
0
41
1
10
123.621410660672
20
4.92693826104127
30
0
41
1
10
123.673714214174
20
4.64772195449007
30
0
41
1
10
123.778321321177
20
4.07887625216944
30
0
41
1
10
123.830624874679
20
3.78925550633303
30
0
41
1
10
123.935231981683
20
3.20454502782144
30
0
41
1
10
123.987535535185
20
2.90946278646825
30
0
41
1
10
124.092142642189
20
2.31854444788456
30
0
41
1
10
124.14444619569
20
2.0227140968257
30
0
41
1
10
124.301356856196
20
1.14052065270099
30
0
41
1
10
124.4059639632
20
0.559793528597083
30
0
41
1
10
124.615178177207
20
-0.559792185094238
30
0
41
1
10
124.719785284211
20
-1.14051925235395
30
0
41
1
10
124.876695944716
20
-2.02271267973495
30
0
41
1
10
124.928999498218
20
-2.318543028427
30
0
41
1
10
125.033606605222
20
-2.90946136951771
30
0
41
1
10
125.085910158724
20
-3.20454361574784
30
0
41
1
10
125.190517265727
20
-3.78925411179625
30
0
41
1
10
125.242820819229
20
-4.07887487029495
30
0
41
1
10
125.347427926233
20
-4.64772060590505
30
0
41
1
10
125.399731479735
20
-4.9269369330847
30
0
41
1
10
125.504338586739
20
-5.47004658897117
30
0
41
1
10
125.556642140241
20
-5.73393096189662
30
0
41
1
10
125.661249247244
20
-6.24173168777634
30
0
41
1
10
125.713552800746
20
-6.48563977107929
30
0
41
1
10
125.81815990775
20
-6.94938740197372
30
0
41
1
10
125.870463461252
20
-7.16922031941121
30
0
41
1
10
125.975070568255
20
-7.5814886985045
30
0
41
1
10
126.027374121757
20
-7.77391990138696
30
0
41
1
10
126.131981228761
20
-8.1289934269808
30
0
41
1
10
126.184284782263
20
-8.29163423661652
30
0
41
1
10
126.288891889267
20
-8.58576070193675
30
0
41
1
10
126.341195442768
20
-8.71724755550099
30
0
41
1
10
126.445802549772
20
-8.94872919246251
30
0
41
1
10
126.498106103274
20
-9.04872748326233
30
0
41
1
10
126.602713210278
20
-9.21785198659987
30
0
41
1
10
126.65501676378
20
-9.28698336326238
30
0
41
1
10
126.811927424285
20
-9.45023553871312
30
0
41
1
10
126.916534531289
20
-9.49999992083323
30
0
41
1
10
127.125748745296
20
-9.50000007916657
30
0
41
1
10
127.2303558523
20
-9.45023587316632
30
0
41
1
10
127.387266512806
20
-9.28698397964556
30
0
41
1
10
127.439570066307
20
-9.21785269984144
30
0
41
1
10
127.544177173311
20
-9.04872839361505
30
0
41
1
10
127.596480726813
20
-8.94873020306389
30
0
41
1
10
127.701087833817
20
-8.71724876712236
30
0
41
1
10
127.753391387319
20
-8.58576201432302
30
0
41
1
10
127.857998494323
20
-8.2916357478434
30
0
41
1
10
127.910302047824
20
-8.12899503627517
30
0
41
1
10
128.014909154828
20
-7.77392170079756
30
0
41
1
10
128.06721270833
20
-7.58149058995485
30
0
41
1
10
128.171819815333
20
-7.1692223857365
30
0
41
1
10
128.224123368835
20
-6.94938955112579
30
0
41
1
10
128.328730475839
20
-6.48564207390382
30
0
41
1
10
128.381034029341
20
-6.2417340614399
30
0
41
1
10
128.485641136345
20
-5.73393346311946
30
0
41
1
10
128.537944689847
20
-5.47004914691041
30
0
41
1
10
128.64255179685
20
-4.92693958899776
30
0
41
1
10
128.694855350352
20
-4.64772330307497
30
0
41
1
10
128.799462457356
20
-4.07887763404386
30
0
41
1
10
128.851766010858
20
-3.78925690086976
30
0
41
1
10
128.956373117861
20
-3.20454643989498
30
0
41
1
10
129.008676671363
20
-2.90946420341874
30
0
41
1
10
129.113283778367
20
-2.31854586734209
30
0
41
1
10
129.165587331869
20
-2.02271551391647
30
0
41
1
10
129.322497992374
20
-1.14052205304805
30
0
41
1
10
129.427105099378
20
-0.559794904891874
30
0
41
1
10
129.636319313386
20
0.559790874383225
30
0
41
1
10
129.740926420389
20
1.14051785200695
30
0
41
1
10
129.897837080895
20
2.02271126264421
30
0
41
1
10
129.950140634397
20
2.31854160896947
30
0
41
1
10
130.0547477414
20
2.9094599525672
30
0
41
1
10
130.107051294902
20
3.20454220367421
30
0
41
1
10
130.211658401906
20
3.78925271725942
30
0
41
1
10
130.263961955408
20
4.07887348842041
30
0
41
1
10
130.368569062412
20
4.64771925731998
30
0
41
1
10
130.420872615914
20
4.92693560512802
30
0
41
1
10
130.525479722917
20
5.47004531000138
30
0
41
1
10
130.577783276419
20
5.73392971128499
30
0
41
1
10
130.682390383423
20
6.2417305009443
30
0
41
1
10
130.734693936925
20
6.48563861966679
30
0
41
1
10
130.839301043928
20
6.94938632739738
30
0
41
1
10
130.89160459743
20
7.16921928624828
30
0
41
1
10
130.996211704434
20
7.581487752779
30
0
41
1
10
131.048515257936
20
7.77391900168132
30
0
41
1
10
131.153122364939
20
8.12899262233327
30
0
41
1
10
131.205425918441
20
8.29163348100275
30
0
41
1
10
131.310033025445
20
8.58576004574326
30
0
41
1
10
131.362336578947
20
8.71724694968992
30
0
41
1
10
131.466943685951
20
8.94872868716143
30
0
41
1
10
131.519247239453
20
9.04872702808558
30
0
41
1
10
131.623854346456
20
9.21785162997875
30
0
41
1
10
131.676157899958
20
9.28698305507046
30
0
41
1
10
131.833068560464
20
9.45023537148617
30
0
41
1
10
131.937675667467
20
9.49999984166627
30
0
41
1
10
132.042282774471
20
9.49999999999963
30
0
0
SPLINE
5
E2
100
AcDbEntity
8
1
62
256
6
ByLayer
370
13
48
1
60
0
100
AcDbSpline
70
4
71
3
72
119
73
115
40
0
40
0
40
0
40
0
40
0.0156250000000007
40
0.0156250000000007
40
0.0312500000000013
40
0.0312500000000013
40
0.046875000000002
40
0.046875000000002
40
0.0625000000000026
40
0.0625000000000026
40
0.0781250000000032
40
0.0781250000000032
40
0.0937500000000039
40
0.0937500000000039
40
0.109375000000004
40
0.109375000000004
40
0.125000000000005
40
0.125000000000005
40
0.140625000000006
40
0.140625000000006
40
0.156250000000006
40
0.156250000000006
40
0.187500000000008
40
0.187500000000008
40
0.203125000000009
40
0.203125000000009
40
0.210937500000009
40
0.210937500000009
40
0.218750000000009
40
0.218750000000009
40
0.250000000000009
40
0.250000000000009
40
0.28125000000001
40
0.28125000000001
40
0.29687500000001
40
0.29687500000001
40
0.31250000000001
40
0.31250000000001
40
0.32812500000001
40
0.32812500000001
40
0.34375000000001
40
0.34375000000001
40
0.359375000000011
40
0.359375000000011
40
0.375000000000011
40
0.375000000000011
40
0.390625000000011
40
0.390625000000011
40
0.406250000000011
40
0.406250000000011
40
0.437500000000011
40
0.437500000000011
40
0.468750000000011
40
0.468750000000011
40
0.472656250000011
40
0.472656250000011
40
0.476562500000011
40
0.476562500000011
40
0.484375000000011
40
0.484375000000011
40
0.500000000000011
40
0.500000000000011
40
0.531250000000011
40
0.531250000000011
40
0.546875000000011
40
0.546875000000011
40
0.562500000000011
40
0.562500000000011
40
0.578125000000011
40
0.578125000000011
40
0.593750000000011
40
0.593750000000011
40
0.609375000000011
40
0.609375000000011
40
0.625000000000011
40
0.625000000000011
40
0.640625000000011
40
0.640625000000011
40
0.656250000000011
40
0.656250000000011
40
0.687500000000011
40
0.687500000000011
40
0.718750000000011
40
0.718750000000011
40
0.734375000000011
40
0.734375000000011
40
0.738281250000011
40
0.738281250000011
40
0.742187500000011
40
0.750000000000011
40
0.750000000000011
40
0.78125000000001
40
0.78125000000001
40
0.812500000000008
40
0.812500000000008
40
0.828125000000008
40
0.828125000000008
40
0.843750000000007
40
0.843750000000007
40
0.859375000000007
40
0.859375000000007
40
0.875000000000006
40
0.875000000000006
40
0.890625000000005
40
0.890625000000005
40
0.906250000000005
40
0.906250000000005
40
0.921875000000004
40
0.921875000000004
40
0.937500000000003
40
0.937500000000003
40
0.968750000000002
40
0.968750000000002
40
1
40
1
40
1
40
1
41
1
10
122
20
9.09185083350692
30
0
41
1
10
122.049722088893
20
9.00680222566351
30
0
41
1
10
122.099444177786
20
8.90773589170993
30
0
41
1
10
122.198888355572
20
8.68114497081035
30
0
41
1
10
122.248610444465
20
8.55361783241858
30
0
41
1
10
122.348054622251
20
8.27046454814484
30
0
41
1
10
122.397776711144
20
8.11483759088634
30
0
41
1
10
122.497220888929
20
7.77668570631047
30
0
41
1
10
122.546942977822
20
7.59416197682921
30
0
41
1
10
122.646387155608
20
7.20425441814297
30
0
41
1
10
122.696109244501
20
6.9968738177304
30
0
41
1
10
122.795553422287
20
6.56006064187301
30
0
41
1
10
122.84527551118
20
6.33063307396372
30
0
41
1
10
122.944719688966
20
5.85317955019687
30
0
41
1
10
122.994441777859
20
5.60515988488248
30
0
41
1
10
123.093885955645
20
5.09444960456531
30
0
41
1
10
123.143608044538
20
4.83176590665562
30
0
41
1
10
123.243052222323
20
4.2959280686176
30
0
41
1
10
123.292774311216
20
4.02278076941397
30
0
41
1
10
123.392218489002
20
3.47028020321008
30
0
41
1
10
123.441940577895
20
3.19093306849373
30
0
41
1
10
123.591106844574
20
2.34977994470376
30
0
41
1
10
123.69055102236
20
1.78509141017921
30
0
41
1
10
123.839717289039
20
0.953857295643473
30
0
41
1
10
123.889439377932
20
0.679360285656031
30
0
41
1
10
123.964022511271
20
0.273651186477196
30
0
41
1
10
123.988883555718
20
0.13941671676389
30
0
41
1
10
124.038605644611
20
-0.126738752293392
30
0
41
1
10
124.063466689057
20
-0.260832544067199
30
0
41
1
10
124.187771911289
20
-0.936695805760735
30
0
41
1
10
124.287216089075
20
-1.49382322025147
30
0
41
1
10
124.486104444647
20
-2.61586632401793
30
0
41
1
10
124.585548622433
20
-3.18067075478191
30
0
41
1
10
124.734714889112
20
-4.00971589103952
30
0
41
1
10
124.784436978005
20
-4.28299485466076
30
0
41
1
10
124.883881155791
20
-4.81916377591514
30
0
41
1
10
124.933603244684
20
-5.08204689926131
30
0
41
1
10
125.033047422469
20
-5.59322116330165
30
0
41
1
10
125.082769511363
20
-5.84150538266141
30
0
41
1
10
125.182213689148
20
-6.31954721421533
30
0
41
1
10
125.231935778041
20
-6.5492985205052
30
0
41
1
10
125.331379955827
20
-6.98680942299109
30
0
41
1
10
125.38110204472
20
-7.19456398684591
30
0
41
1
10
125.480546222506
20
-7.58525836663307
30
0
41
1
10
125.530268311399
20
-7.76819492284031
30
0
41
1
10
125.629712489185
20
-8.10719844393742
30
0
41
1
10
125.679434578078
20
-8.26326417819064
30
0
41
1
10
125.778878755864
20
-8.54730750597463
30
0
41
1
10
125.828600844756
20
-8.6752858804993
30
0
41
1
10
125.977767111435
20
-9.01652503669041
30
0
41
1
10
126.077211289221
20
-9.18675011321133
30
0
41
1
10
126.276099644793
20
-9.41876660364113
30
0
41
1
10
126.375543822579
20
-9.48070303994021
30
0
41
1
10
126.487418522588
20
-9.49803529131435
30
0
41
1
10
126.499849044811
20
-9.49923810971626
30
0
41
1
10
126.524710089258
20
-9.50023342840277
30
0
41
1
10
126.537140611481
20
-9.50003131983766
30
0
41
1
10
126.574432178151
20
-9.49730268459462
30
0
41
1
10
126.599293222597
20
-9.49264143858531
30
0
41
1
10
126.673876355937
20
-9.46971360794592
30
0
41
1
10
126.72359844483
20
-9.44249012306446
30
0
41
1
10
126.872764711508
20
-9.32205165763344
30
0
41
1
10
126.972208889294
20
-9.18974971267187
30
0
41
1
10
127.121375155973
20
-8.90606404823706
30
0
41
1
10
127.171097244866
20
-8.79737034927709
30
0
41
1
10
127.270541422652
20
-8.55155422960922
30
0
41
1
10
127.320263511545
20
-8.41442980380455
30
0
41
1
10
127.419707689331
20
-8.11239337234392
30
0
41
1
10
127.469429778224
20
-7.94748121677557
30
0
41
1
10
127.568873956009
20
-7.59135734972671
30
0
41
1
10
127.618596044902
20
-7.40014753505343
30
0
41
1
10
127.718040222688
20
-6.99373756489894
30
0
41
1
10
127.767762311581
20
-6.77854128214724
30
0
41
1
10
127.867206489367
20
-6.32720169276223
30
0
41
1
10
127.91692857826
20
-6.09106389381026
30
0
41
1
10
128.016372756046
20
-5.60147640466374
30
0
41
1
10
128.066094844939
20
-5.34803329552983
30
0
41
1
10
128.165539022725
20
-4.82787843645903
30
0
41
1
10
128.215261111618
20
-4.56117365527379
30
0
41
1
10
128.364427378297
20
-3.74752441831873
30
0
41
1
10
128.463871556082
20
-3.18716196016453
30
0
41
1
10
128.662759911654
20
-2.06369517211704
30
0
41
1
10
128.76220408944
20
-1.50073338470313
30
0
41
1
10
128.911370356119
20
-0.675230083026577
30
0
41
1
10
128.961092445012
20
-0.403162302819823
30
0
41
1
10
129.023245056128
20
-0.0686421850797387
30
0
41
1
10
129.035675578351
20
-0.0022077768768156
30
0
41
1
10
129.060536622798
20
0.13120302003
30
0
41
1
10
129.097828189467
20
0.33216933158883
30
0
41
1
10
129.135119756137
20
0.535517577232497
30
0
41
1
10
129.25942497837
20
1.21780905012327
30
0
41
1
10
129.358869156155
20
1.7782375701957
30
0
41
1
10
129.557757511727
20
2.90185369266931
30
0
41
1
10
129.657201689513
20
3.46491417152458
30
0
41
1
10
129.806367956192
20
4.28699135088226
30
0
41
1
10
129.856090045085
20
4.55722866732006
30
0
41
1
10
129.955534222871
20
5.08587403436249
30
0
41
1
10
130.005256311764
20
5.34427514477761
30
0
41
1
10
130.104700489549
20
5.8451125437837
30
0
41
1
10
130.154422578443
20
6.08754204046178
30
0
41
1
10
130.253866756228
20
6.55263906499485
30
0
41
1
10
130.303588845121
20
6.77530065026218
30
0
41
1
10
130.403033022907
20
7.19759684676472
30
0
41
1
10
130.4527551118
20
7.39722698086302
30
0
41
1
10
130.552199289586
20
7.77088597586223
30
0
41
1
10
130.601921378479
20
7.94491224902828
30
0
41
1
10
130.701365556265
20
8.26558733209043
30
0
41
1
10
130.751087645158
20
8.41223560795333
30
0
41
1
10
130.850531822944
20
8.67722381938279
30
0
41
1
10
130.900253911837
20
8.79556516757799
30
0
41
1
10
131.049420178515
20
9.10797759030291
30
0
41
1
10
131.148864356301
20
9.25911921902667
30
0
41
1
10
131.347752711873
20
9.45505558540833
30
0
41
1
10
131.447196889659
20
9.5
30
0
41
1
10
131.546641067445
20
9.5
30
0
0
SPLINE
5
E3
100
AcDbEntity
8
1
62
256
6
ByLayer
370
13
48
1
60
0
100
AcDbSpline
70
4
71
3
72
8
73
4
40
0
40
0
40
0
40
0
40
1
40
1
40
1
40
1
41
1
10
131.91284468492
20
9.5
30
0
41
1
10
131.955990714771
20
9.5
30
0
41
1
10
131.999136744621
20
9.49157595756463
30
0
41
1
10
132.042282774471
20
9.47400291548144
30
0
0
SPLINE
5
E4
100
AcDbEntity
8
1
62
256
6
ByLayer
370
13
48
1
60
0
100
AcDbSpline
70
4
71
3
72
82
73
78
40
0
40
0
40
0
40
0
40
0.0312499999999981
40
0.0312499999999981
40
0.0624999999999963
40
0.0624999999999963
40
0.0937499999999945
40
0.0937499999999945
40
0.124999999999993
40
0.124999999999993
40
0.156249999999991
40
0.156249999999991
40
0.164062499999991
40
0.164062499999991
40
0.17187499999999
40
0.17187499999999
40
0.18749999999999
40
0.18749999999999
40
0.218749999999989
40
0.218749999999989
40
0.249999999999989
40
0.249999999999989
40
0.281249999999988
40
0.281249999999988
40
0.312499999999987
40
0.312499999999987
40
0.343749999999987
40
0.343749999999987
40
0.374999999999986
40
0.374999999999986
40
0.406249999999985
40
0.406249999999985
40
0.437499999999985
40
0.437499999999985
40
0.445312499999985
40
0.445312499999985
40
0.453124999999984
40
0.453124999999984
40
0.468749999999985
40
0.468749999999985
40
0.499999999999985
40
0.499999999999985
40
0.531249999999985
40
0.531249999999985
40
0.562499999999985
40
0.562499999999985
40
0.593749999999986
40
0.593749999999986
40
0.624999999999986
40
0.624999999999986
40
0.656249999999986
40
0.656249999999986
40
0.687499999999986
40
0.687499999999986
40
0.718749999999987
40
0.718749999999987
40
0.726562499999987
40
0.726562499999987
40
0.734374999999987
40
0.734374999999987
40
0.749999999999988
40
0.749999999999988
40
0.781249999999989
40
0.781249999999989
40
0.812499999999991
40
0.812499999999991
40
0.843749999999992
40
0.843749999999992
40
0.874999999999994
40
0.874999999999994
40
0.906249999999995
40
0.906249999999995
40
0.937499999999997
40
0.937499999999997
40
0.968749999999998
40
0.968749999999998
40
1
40
1
40
1
40
1
41
1
10
122
20
7.77789047912046
30
0
41
1
10
122.094281238107
20
7.44104593674874
30
0
41
1
10
122.188562476215
20
7.05658528360084
30
0
41
1
10
122.377124952429
20
6.210346905374
30
0
41
1
10
122.471406190537
20
5.74869837988373
30
0
41
1
10
122.659968666751
20
4.77402094397681
30
0
41
1
10
122.754249904859
20
4.26116010528128
30
0
41
1
10
122.942812381073
20
3.21326460851176
30
0
41
1
10
123.037093619181
20
2.67837856793634
30
0
41
1
10
123.225656095395
20
1.61393775057042
30
0
41
1
10
123.319937333503
20
1.08447215125264
30
0
41
1
10
123.437788881137
20
0.439791218465331
30
0
41
1
10
123.461359190664
20
0.311696544211088
30
0
41
1
10
123.508499809717
20
0.0574664434823546
30
0
41
1
10
123.532070119244
20
-0.0681801119754653
30
0
41
1
10
123.602781047825
20
-0.449690698288947
30
0
41
1
10
123.649921666878
20
-0.70794852878953
30
0
41
1
10
123.791343524039
20
-1.49098477673209
30
0
41
1
10
123.885624762147
20
-2.02420997836035
30
0
41
1
10
124.074187238361
20
-3.08953472707472
30
0
41
1
10
124.168468476469
20
-3.62152780011928
30
0
41
1
10
124.357030952684
20
-4.65612513007122
30
0
41
1
10
124.451312190791
20
-5.15857077138742
30
0
41
1
10
124.639874667005
20
-6.10522314307934
30
0
41
1
10
124.734155905113
20
-6.54926615542615
30
0
41
1
10
124.922718381327
20
-7.35471799218723
30
0
41
1
10
125.016999619435
20
-7.71601613638771
30
0
41
1
10
125.205562095649
20
-8.34037262228634
30
0
41
1
10
125.299843333757
20
-8.60340972323533
30
0
41
1
10
125.488405809971
20
-9.02651230678538
30
0
41
1
10
125.582687048079
20
-9.18664122344822
30
0
41
1
10
125.771249524294
20
-9.40937869798211
30
0
41
1
10
125.865530762401
20
-9.47209824052365
30
0
41
1
10
125.983382310035
20
-9.49758244445812
30
0
41
1
10
126.006952619562
20
-9.5000466253245
30
0
41
1
10
126.054093238616
20
-9.49995203956431
30
0
41
1
10
126.077663548142
20
-9.49739097388135
30
0
41
1
10
126.148374476723
20
-9.48180307734071
30
0
41
1
10
126.195515095777
20
-9.46086199197524
30
0
41
1
10
126.336936952938
20
-9.36377256707902
30
0
41
1
10
126.431218191045
20
-9.25311660717509
30
0
41
1
10
126.61978066726
20
-8.93058420098265
30
0
41
1
10
126.714061905367
20
-8.71861507607036
30
0
41
1
10
126.902624381582
20
-8.19276286121266
30
0
41
1
10
126.996905619689
20
-7.87885594696851
30
0
41
1
10
127.185468095904
20
-7.15924778738093
30
0
41
1
10
127.279749334011
20
-6.75361504037497
30
0
41
1
10
127.468311810226
20
-5.87087484779249
30
0
41
1
10
127.562593048333
20
-5.39391150847541
30
0
41
1
10
127.751155524548
20
-4.39573415183887
30
0
41
1
10
127.845436762655
20
-3.87468858080393
30
0
41
1
10
128.03399923887
20
-2.81756780883495
30
0
41
1
10
128.128280476977
20
-2.2816290164609
30
0
41
1
10
128.316842953192
20
-1.22116126517614
30
0
41
1
10
128.411124191299
20
-0.696704400554694
30
0
41
1
10
128.528975738933
20
-0.0610371239750975
30
0
41
1
10
128.55254604846
20
0.0646083470173267
30
0
41
1
10
128.599686667514
20
0.318912021046998
30
0
41
1
10
128.623256977041
20
0.447041010861568
30
0
41
1
10
128.693967905621
20
0.833944318937711
30
0
41
1
10
128.741108524675
20
1.09524825237747
30
0
41
1
10
128.882530381836
20
1.88545348676334
30
0
41
1
10
128.976811619943
20
2.42081188428233
30
0
41
1
10
129.165374096158
20
3.48370886816556
30
0
41
1
10
129.259655334265
20
4.01112527207692
30
0
41
1
10
129.44821781048
20
5.02928913915392
30
0
41
1
10
129.542499048587
20
5.51987139454423
30
0
41
1
10
129.731061524802
20
6.43614664281341
30
0
41
1
10
129.825342762909
20
6.86168392684843
30
0
41
1
10
130.013905239124
20
7.6253132448436
30
0
41
1
10
130.108186477231
20
7.96331482852676
30
0
41
1
10
130.296748953446
20
8.53887454236184
30
0
41
1
10
130.391030191553
20
8.7764344549297
30
0
41
1
10
130.579592667768
20
9.14906543691217
30
0
41
1
10
130.673873905875
20
9.28421590031212
30
0
41
1
10
130.86243638209
20
9.45962533401655
30
0
41
1
10
130.956717620197
20
9.5
30
0
41
1
10
131.050998858305
20
9.5
30
0
0
SPLINE
5
E5
100
AcDbEntity
8
1
62
256
6
ByLayer
370
13
48
1
60
0
100
AcDbSpline
70
4
71
3
72
12
73
8
40
0
40
0
40
0
40
0
40
0.5
40
0.5
40
0.75
40
0.75
40
1
40
1
40
1
40
1
41
1
10
131.41720247578
20
9.5
30
0
41
1
10
131.521382525562
20
9.5
30
0
41
1
10
131.625562575344
20
9.450643905634
30
0
41
1
10
131.781832650016
20
9.28877459041223
30
0
41
1
10
131.833922674907
20
9.22023162106757
30
0
41
1
10
131.938102724689
20
9.05254883774467
30
0
41
1
10
131.99019274958
20
8.9534039485583
30
0
41
1
10
132.042282774471
20
8.83864648917483
30
0
0
SPLINE
5
E6
100
AcDbEntity
8
1
62
256
6
ByLayer
370
13
48
1
60
0
100
AcDbSpline
70
4
71
3
72
86
73
82
40
0
40
0
40
0
40
0
40
0.0312499999999987
40
0.0312499999999987
40
0.0624999999999974
40
0.0624999999999974
40
0.0937499999999961
40
0.0937499999999961
40
0.109374999999995
40
0.109374999999995
40
0.117187499999995
40
0.117187499999995
40
0.121093749999995
40
0.121093749999995
40
0.124999999999995
40
0.124999999999995
40
0.156249999999997
40
0.156249999999997
40
0.187499999999998
40
0.187499999999998
40
0.21875
40
0.21875
40
0.250000000000002
40
0.250000000000002
40
0.281250000000003
40
0.281250000000003
40
0.312500000000005
40
0.312500000000005
40
0.343750000000006
40
0.343750000000006
40
0.375000000000008
40
0.375000000000008
40
0.406250000000009
40
0.406250000000009
40
0.410156250000009
40
0.410156250000009
40
0.414062500000009
40
0.414062500000009
40
0.421875000000009
40
0.421875000000009
40
0.437500000000009
40
0.437500000000009
40
0.46875000000001
40
0.46875000000001
40
0.50000000000001
40
0.50000000000001
40
0.531250000000011
40
0.531250000000011
40
0.562500000000011
40
0.562500000000011
40
0.593750000000011
40
0.593750000000011
40
0.625000000000011
40
0.625000000000011
40
0.656250000000012
40
0.656250000000012
40
0.687500000000012
40
0.687500000000012
40
0.703125000000012
40
0.703125000000012
40
0.710937500000012
40
0.710937500000012
40
0.718750000000012
40
0.718750000000012
40
0.750000000000011
40
0.750000000000011
40
0.781250000000009
40
0.781250000000009
40
0.812500000000008
40
0.812500000000008
40
0.843750000000007
40
0.843750000000007
40
0.875000000000005
40
0.875000000000005
40
0.906250000000004
40
0.906250000000004
40
0.937500000000003
40
0.937500000000003
40
0.968750000000001
40
0.968750000000001
40
1
40
1
40
1
40
1
41
1
10
122
20
5.61852462964458
30
0
41
1
10
122.089118298429
20
5.17060313154343
30
0
41
1
10
122.178236596858
20
4.69678555323901
30
0
41
1
10
122.356473193715
20
3.72143662353099
30
0
41
1
10
122.445591492144
20
3.22002624200073
30
0
41
1
10
122.623828089002
20
2.21359356222411
30
0
41
1
10
122.71294638743
20
1.70865658010013
30
0
41
1
10
122.846623835074
20
0.964045942096192
30
0
41
1
10
122.891182984288
20
0.717940115214503
30
0
41
1
10
122.95802170811
20
0.353494648767224
30
0
41
1
10
122.980301282717
20
0.232795687198404
30
0
41
1
10
123.013720644627
20
0.0530926999632584
30
0
41
1
10
123.024860431931
20
-0.0064311417750673
30
0
41
1
10
123.047140006538
20
-0.125997818340409
30
0
41
1
10
123.058279793842
20
-0.186008736516953
30
0
41
1
10
123.158537879574
20
-0.728031614957956
30
0
41
1
10
123.247656178003
20
-1.22374120158329
30
0
41
1
10
123.425892774861
20
-2.22578220728801
30
0
41
1
10
123.515011073289
20
-2.73206010587097
30
0
41
1
10
123.693247670147
20
-3.73319946762825
30
0
41
1
10
123.782365968576
20
-4.22796084321462
30
0
41
1
10
123.960602565433
20
-5.18152763202013
30
0
41
1
10
124.049720863862
20
-5.6402066340917
30
0
41
1
10
124.22795746072
20
-6.49806520306316
30
0
41
1
10
124.317075759149
20
-6.89712914810045
30
0
41
1
10
124.495312356006
20
-7.6169942591842
30
0
41
1
10
124.584430654435
20
-7.93772783393908
30
0
41
1
10
124.762667251293
20
-8.48983069493383
30
0
41
1
10
124.851785549721
20
-8.72119841196712
30
0
41
1
10
125.030022146579
20
-9.09221161594581
30
0
41
1
10
125.119140445008
20
-9.23191265811207
30
0
41
1
10
125.297377041865
20
-9.42511033436838
30
0
41
1
10
125.386495340294
20
-9.47869249888444
30
0
41
1
10
125.486753426026
20
-9.49676157287942
30
0
41
1
10
125.49789321333
20
-9.49818556472133
30
0
41
1
10
125.520172787937
20
-9.49989164588135
30
0
41
1
10
125.531312575241
20
-9.50017493955446
30
0
41
1
10
125.564731937152
20
-9.49934273676078
30
0
41
1
10
125.587011511759
20
-9.49653011906867
30
0
41
1
10
125.653850235581
20
-9.48101326966034
30
0
41
1
10
125.698409384795
20
-9.46122243154554
30
0
41
1
10
125.832086832438
20
-9.37129864388419
30
0
41
1
10
125.921205130867
20
-9.27042567271235
30
0
41
1
10
126.099441727724
20
-8.97866211469238
30
0
41
1
10
126.188560026153
20
-8.78769899652295
30
0
41
1
10
126.366796623011
20
-8.31436050409087
30
0
41
1
10
126.45591492144
20
-8.03195913667005
30
0
41
1
10
126.634151518297
20
-7.38289411325192
30
0
41
1
10
126.723269816726
20
-7.01626971146447
30
0
41
1
10
126.901506413584
20
-6.21430693965902
30
0
41
1
10
126.990624712013
20
-5.77906695736507
30
0
41
1
10
127.16886130887
20
-4.86170397606449
30
0
41
1
10
127.257979607299
20
-4.37970772412422
30
0
41
1
10
127.436216204156
20
-3.39343164052423
30
0
41
1
10
127.525334502585
20
-2.88926717825299
30
0
41
1
10
127.703571099443
20
-1.88223899873242
30
0
41
1
10
127.792689397872
20
-1.37945030033873
30
0
41
1
10
127.926366845515
20
-0.64095678118548
30
0
41
1
10
127.970925994729
20
-0.397369332365145
30
0
41
1
10
128.037764718551
20
-0.0373057633530323
30
0
41
1
10
128.060044293158
20
0.081503586112774
30
0
41
1
10
128.104603442372
20
0.321977684685123
30
0
41
1
10
128.12688301698
20
0.443084611269143
30
0
41
1
10
128.238280890016
20
1.05238438511785
30
0
41
1
10
128.327399188444
20
1.55207882962338
30
0
41
1
10
128.505635785302
20
2.55761354735938
30
0
41
1
10
128.594754083731
20
3.06338947535994
30
0
41
1
10
128.772990680588
20
4.05825237502407
30
0
41
1
10
128.862108979017
20
4.54723100969204
30
0
41
1
10
129.040345575875
20
5.483851423293
30
0
41
1
10
129.129463874304
20
5.93136564979542
30
0
41
1
10
129.307700471161
20
6.76225067198681
30
0
41
1
10
129.39681876959
20
7.14551359680434
30
0
41
1
10
129.575055366448
20
7.83061842294126
30
0
41
1
10
129.664173664876
20
8.13240660184903
30
0
41
1
10
129.842410261734
20
8.64535572632215
30
0
41
1
10
129.931528560163
20
8.8565292474766
30
0
41
1
10
130.10976515702
20
9.18775202570743
30
0
41
1
10
130.198883455449
20
9.30786605634751
30
0
41
1
10
130.377120052307
20
9.46394605487632
30
0
41
1
10
130.466238350735
20
9.5
30
0
41
1
10
130.555356649164
20
9.5
30
0
0
SPLINE
5
E7
100
AcDbEntity
8
1
62
256
6
ByLayer
370
13
48
1
60
0
100
AcDbSpline
70
4
71
3
72
14
73
10
40
0
40
0
40
0
40
0
40
0.25
40
0.25
40
0.5
40
0.5
40
0.75
40
0.75
40
1
40
1
40
1
40
1
41
1
10
130.92156026664
20
9.5
30
0
41
1
10
131.014953808959
20
9.5
30
0
41
1
10
131.108347351278
20
9.4603859199477
30
0
41
1
10
131.295134435917
20
9.28838491248274
30
0
41
1
10
131.388527978236
20
9.15588747766117
30
0
41
1
10
131.575315062875
20
8.79055515142636
30
0
41
1
10
131.668708605194
20
8.5576434407877
30
0
41
1
10
131.855495689833
20
7.99307961883932
30
0
41
1
10
131.948889232152
20
7.66142333665081
30
0
41
1
10
132.042282774471
20
7.28645278828361
30
0
0
SPLINE
5
E8
100
AcDbEntity
8
1
62
256
6
ByLayer
370
13
48
1
60
0
100
AcDbSpline
70
4
71
3
72
85
73
81
40
0
40
0
40
0
40
0
40
0.0312500000000002
40
0.0312500000000002
40
0.0625000000000004
40
0.0625000000000004
40
0.0664062500000003
40
0.0664062500000003
40
0.0703125000000002
40
0.0781250000000003
40
0.0781250000000003
40
0.0937500000000006
40
0.0937500000000006
40
0.125000000000001
40
0.125000000000001
40
0.156250000000002
40
0.156250000000002
40
0.187500000000003
40
0.187500000000003
40
0.218750000000004
40
0.218750000000004
40
0.250000000000005
40
0.250000000000005
40
0.281250000000006
40
0.281250000000006
40
0.312500000000007
40
0.312500000000007
40
0.343750000000008
40
0.343750000000008
40
0.375000000000009
40
0.375000000000009
40
0.378906250000008
40
0.378906250000008
40
0.382812500000008
40
0.390625000000008
40
0.390625000000008
40
0.406250000000007
40
0.406250000000007
40
0.437500000000006
40
0.437500000000006
40
0.468750000000005
40
0.468750000000005
40
0.500000000000004
40
0.500000000000004
40
0.531250000000003
40
0.531250000000003
40
0.562500000000002
40
0.562500000000002
40
0.593750000000001
40
0.593750000000001
40
0.625
40
0.625
40
0.656249999999998
40
0.656249999999998
40
0.687499999999997
40
0.687499999999997
40
0.691406249999998
40
0.691406249999998
40
0.695312499999998
40
0.703124999999998
40
0.703124999999998
40
0.718749999999998
40
0.718749999999998
40
0.749999999999998
40
0.749999999999998
40
0.781249999999998
40
0.781249999999998
40
0.812499999999998
40
0.812499999999998
40
0.843749999999999
40
0.843749999999999
40
0.874999999999999
40
0.874999999999999
40
0.906249999999999
40
0.906249999999999
40
0.937499999999999
40
0.937499999999999
40
0.96875
40
0.96875
40
1
40
1
40
1
40
1
41
1
10
122
20
2.93725213351524
30
0
41
1
10
122.08395535875
20
2.46394098181534
30
0
41
1
10
122.167910717501
20
1.98759417671829
30
0
41
1
10
122.335821435001
20
1.04661168983071
30
0
41
1
10
122.419776793751
20
0.582010647776372
30
0
41
1
10
122.514226572345
20
0.0737707803879744
30
0
41
1
10
122.524720992189
20
0.0176214454198202
30
0
41
1
10
122.545709831877
20
-0.0948857815891984
30
0
41
1
10
122.577193091408
20
-0.264257717404604
30
0
41
1
10
122.608676350939
20
-0.435362469126545
30
0
41
1
10
122.671642870002
20
-0.779589815207032
30
0
41
1
10
122.713620549377
20
-1.01177358249771
30
0
41
1
10
122.839553587502
20
-1.71376979208296
30
0
41
1
10
122.923508946253
20
-2.18913700881603
30
0
41
1
10
123.091419663753
20
-3.13749068758779
30
0
41
1
10
123.175375022503
20
-3.61041500612859
30
0
41
1
10
123.343285740004
20
-4.53391407591391
30
0
41
1
10
123.427241098754
20
-4.98440056893898
30
0
41
1
10
123.595151816255
20
-5.84256332297994
30
0
41
1
10
123.679107175005
20
-6.25014585495515
30
0
41
1
10
123.847017892505
20
-7.00436847987208
30
0
41
1
10
123.930973251256
20
-7.35093578861219
30
0
41
1
10
124.098883968756
20
-7.9699242493632
30
0
41
1
10
124.182839327507
20
-8.24231386838284
30
0
41
1
10
124.350750045007
20
-8.70630342225826
30
0
41
1
10
124.434705403757
20
-8.89791798353397
30
0
41
1
10
124.602616121258
20
-9.20052999558493
30
0
41
1
10
124.686571480008
20
-9.31157718945457
30
0
41
1
10
124.854482197509
20
-9.45902248207568
30
0
41
1
10
124.938437556259
20
-9.49548595947888
30
0
41
1
10
125.032887334853
20
-9.50011867297351
30
0
41
1
10
125.043381754696
20
-9.50013246959767
30
0
41
1
10
125.064370594384
20
-9.49915907460354
30
0
41
1
10
125.095853853915
20
-9.49618919443347
30
0
41
1
10
125.127337113447
20
-9.48859226337524
30
0
41
1
10
125.190303632509
20
-9.46698134308929
30
0
41
1
10
125.232281311885
20
-9.44401152140378
30
0
41
1
10
125.35821435001
20
-9.34763518224804
30
0
41
1
10
125.44216970876
20
-9.24660898589457
30
0
41
1
10
125.610080426261
20
-8.96452047972736
30
0
41
1
10
125.694035785011
20
-8.78340526307844
30
0
41
1
10
125.861946502511
20
-8.34007617721943
30
0
41
1
10
125.945901861262
20
-8.07784227689342
30
0
41
1
10
126.113812578762
20
-7.47793688741237
30
0
41
1
10
126.197767937512
20
-7.14029090273365
30
0
41
1
10
126.365678655013
20
-6.40190083493874
30
0
41
1
10
126.449634013763
20
-6.00122511095779
30
0
41
1
10
126.617544731264
20
-5.15435799050496
30
0
41
1
10
126.701500090014
20
-4.70825910583301
30
0
41
1
10
126.869410807514
20
-3.79087284570909
30
0
41
1
10
126.953366166265
20
-3.31967580920588
30
0
41
1
10
127.121276883765
20
-2.37231915814362
30
0
41
1
10
127.205232242516
20
-1.89622577764888
30
0
41
1
10
127.373142960016
20
-0.956776675025708
30
0
41
1
10
127.457098318766
20
-0.493453391197335
30
0
41
1
10
127.55154809736
20
0.0129312135995008
30
0
41
1
10
127.562042517204
20
0.0690629859054184
30
0
41
1
10
127.583031356891
20
0.181983137706197
30
0
41
1
10
127.614514616423
20
0.351957128842628
30
0
41
1
10
127.645997875954
20
0.52360938999459
30
0
41
1
10
127.708964395017
20
0.868852299122381
30
0
41
1
10
127.750942074392
20
1.10160708421799
30
0
41
1
10
127.876875112517
20
1.80494648755862
30
0
41
1
10
127.960830471268
20
2.28071302106096
30
0
41
1
10
128.128741188768
20
3.22864633703068
30
0
41
1
10
128.212696547519
20
3.70074891264474
30
0
41
1
10
128.380607265019
20
4.62127612278283
30
0
41
1
10
128.464562623769
20
5.06961141342362
30
0
41
1
10
128.63247334127
20
5.92220632647769
30
0
41
1
10
128.71642870002
20
6.32637277174817
30
0
41
1
10
128.88433941752
20
7.0727431110968
30
0
41
1
10
128.968294776271
20
7.41487639154772
30
0
41
1
10
129.136205493771
20
8.02436267502836
30
0
41
1
10
129.220160852521
20
8.29168715154222
30
0
41
1
10
129.388071570022
20
8.74535768019476
30
0
41
1
10
129.472026928772
20
8.93172108710561
30
0
41
1
10
129.639937646273
20
9.22405649790628
30
0
41
1
10
129.723893005023
20
9.33007986912037
30
0
41
1
10
129.891803722523
20
9.46801877091667
30
0
41
1
10
129.975759081274
20
9.5
30
0
41
1
10
130.059714440024
20
9.5
30
0
0
SPLINE
5
E9
100
AcDbEntity
8
1
62
256
6
ByLayer
370
13
48
1
60
0
100
AcDbSpline
70
4
71
3
72
22
73
18
40
0
40
0
40
0
40
0
40
0.125
40
0.125
40
0.25
40
0.25
40
0.375
40
0.375
40
0.5
40
0.5
40
0.625
40
0.625
40
0.75
40
0.75
40
0.875
40
0.875
40
1
40
1
40
1
40
1
41
1
10
130.425918057499
20
9.5
30
0
41
1
10
130.493266587373
20
9.5
30
0
41
1
10
130.560615117247
20
9.47944753508563
30
0
41
1
10
130.695312176994
20
9.39191902637404
30
0
41
1
10
130.762660706869
20
9.32492088988948
30
0
41
1
10
130.897357766616
20
9.14056442273417
30
0
41
1
10
130.96470629649
20
9.02318621288904
30
0
41
1
10
131.099403356238
20
8.73620129769236
30
0
41
1
10
131.166751886111
20
8.56658129868367
30
0
41
1
10
131.301448945859
20
8.17582762610121
30
0
41
1
10
131.368797475733
20
7.95469113461579
30
0
41
1
10
131.503494535481
20
7.46445804518757
30
0
41
1
10
131.570843065354
20
7.19537111710784
30
0
41
1
10
131.705540125102
20
6.61553204410717
30
0
41
1
10
131.772888654976
20
6.30480120633746
30
0
41
1
10
131.907585714723
20
5.65023955233605
30
0
41
1
10
131.974934244597
20
5.30643795831915
30
0
41
1
10
132.042282774471
20
4.95111674611914
30
0
0
SPLINE
5
EA
100
AcDbEntity
8
1
62
256
6
ByLayer
370
13
48
1
60
0
100
AcDbSpline
70
4
71
3
72
82
73
78
40
0
40
0
40
0
40
0
40
0.0078125
40
0.0078125
40
0.015625
40
0.015625
40
0.0312500000000001
40
0.0312500000000001
40
0.0625000000000001
40
0.0625000000000001
40
0.0937500000000002
40
0.0937500000000002
40
0.125
40
0.125
40
0.15625
40
0.15625
40
0.1875
40
0.1875
40
0.21875
40
0.21875
40
0.25
40
0.25
40
0.28125
40
0.28125
40
0.3125
40
0.3125
40
0.328125
40
0.328125
40
0.3359375
40
0.3359375
40
0.34375
40
0.34375
40
0.375
40
0.375
40
0.40625
40
0.40625
40
0.4375
40
0.4375
40
0.46875
40
0.46875
40
0.5
40
0.5
40
0.53125
40
0.53125
40
0.5625
40
0.5625
40
0.59375
40
0.59375
40
0.625
40
0.625
40
0.65625
40
0.65625
40
0.6640625
40
0.6640625
40
0.671875
40
0.671875
40
0.6875
40
0.6875
40
0.71875
40
0.71875
40
0.75
40
0.75
40
0.78125
40
0.78125
40
0.8125
40
0.8125
40
0.84375
40
0.84375
40
0.875
40
0.875
40
0.90625
40
0.90625
40
0.9375
40
0.9375
40
0.96875
40
0.96875
40
1
40
1
40
1
40
1
41
1
10
122
20
0.173813299758109
30
0
41
1
10
122.019698104768
20
0.0676273884923546
30
0
41
1
10
122.039396209536
20
-0.0374495961089565
30
0
41
1
10
122.078792419072
20
-0.249558814462063
30
0
41
1
10
122.09849052384
20
-0.356307189381425
30
0
41
1
10
122.157584838144
20
-0.67839639951697
30
0
41
1
10
122.196981047679
20
-0.895587917407795
30
0
41
1
10
122.315169676287
20
-1.55241922583207
30
0
41
1
10
122.393962095359
20
-1.99740524337247
30
0
41
1
10
122.551546933502
20
-2.88779496059729
30
0
41
1
10
122.630339352574
20
-3.33315711064495
30
0
41
1
10
122.787924190717
20
-4.20810236630632
30
0
41
1
10
122.866716609789
20
-4.63762425820215
30
0
41
1
10
123.024301447932
20
-5.46387524531798
30
0
41
1
10
123.103093867004
20
-5.86053519705462
30
0
41
1
10
123.260678705147
20
-6.60523966017197
30
0
41
1
10
123.339471124219
20
-6.95322383088546
30
0
41
1
10
123.497055962362
20
-7.58795447435782
30
0
41
1
10
123.575848381434
20
-7.87466474525888
30
0
41
1
10
123.733433219578
20
-8.37892843328484
30
0
41
1
10
123.812225638649
20
-8.59647734385422
30
0
41
1
10
123.969810476793
20
-8.95983257838083
30
0
41
1
10
124.048602895864
20
-9.10566334051634
30
0
41
1
10
124.206187734008
20
-9.3280109958676
30
0
41
1
10
124.284980153079
20
-9.40457072809232
30
0
41
1
10
124.403168781687
20
-9.47221606207353
30
0
41
1
10
124.442564991223
20
-9.48692537939374
30
0
41
1
10
124.501659305527
20
-9.49801479702825
30
0
41
1
10
124.521357410294
20
-9.49988326871949
30
0
41
1
10
124.56075361983
20
-9.50010612523783
30
0
41
1
10
124.580451724598
20
-9.4984648321396
30
0
41
1
10
124.678942248438
20
-9.48114111385303
30
0
41
1
10
124.75773466751
20
-9.43801051949004
30
0
41
1
10
124.915319505653
20
-9.28541653938791
30
0
41
1
10
124.994111924725
20
-9.17590595597801
30
0
41
1
10
125.151696762868
20
-8.88589337940138
30
0
41
1
10
125.23048918194
20
-8.70535585153644
30
0
41
1
10
125.388074020083
20
-8.273145997071
30
0
41
1
10
125.466866439155
20
-8.02146230074476
30
0
41
1
10
125.624451277298
20
-7.45208171188557
30
0
41
1
10
125.70324369637
20
-7.13440496007567
30
0
41
1
10
125.860828534514
20
-6.44331392983864
30
0
41
1
10
125.939620953585
20
-6.06994908273242
30
0
41
1
10
126.097205791729
20
-5.28184900017888
30
0
41
1
10
126.175998210801
20
-4.86718053948954
30
0
41
1
10
126.333583048944
20
-4.01313460961529
30
0
41
1
10
126.412375468015
20
-3.57382434674221
30
0
41
1
10
126.569960306159
20
-2.68737374001705
30
0
41
1
10
126.648752725231
20
-2.24028608003044
30
0
41
1
10
126.806337563374
20
-1.35352567126694
30
0
41
1
10
126.885129982446
20
-0.913883115212286
30
0
41
1
10
126.983620506285
20
-0.376679647262961
30
0
41
1
10
127.003318611053
20
-0.269848400912537
30
0
41
1
10
127.042714820589
20
-0.0575638068526132
30
0
41
1
10
127.062412925357
20
0.0475045380131007
30
0
41
1
10
127.121507239661
20
0.365800126577568
30
0
41
1
10
127.160903449197
20
0.580769387945452
30
0
41
1
10
127.279092077804
20
1.23200976224379
30
0
41
1
10
127.357884496876
20
1.67470954447833
30
0
41
1
10
127.515469335019
20
2.5641352497378
30
0
41
1
10
127.594261754091
20
3.01082525251036
30
0
41
1
10
127.751846592234
20
3.8924912586647
30
0
41
1
10
127.830639011306
20
4.32741001856382
30
0
41
1
10
127.98822384945
20
5.16854407490402
30
0
41
1
10
128.067016268521
20
5.57469071278922
30
0
41
1
10
128.224601106665
20
6.34197658990064
30
0
41
1
10
128.303393525736
20
6.70305177588841
30
0
41
1
10
128.46097836388
20
7.36663283135908
30
0
41
1
10
128.539770782952
20
7.66909558598863
30
0
41
1
10
128.697355621095
20
8.20629949248746
30
0
41
1
10
128.776148040167
20
8.44102833353409
30
0
41
1
10
128.93373287831
20
8.83888252352696
30
0
41
1
10
129.012525297382
20
9.0020260556945
30
0
41
1
10
129.170110135525
20
9.2579989790477
30
0
41
1
10
129.248902554597
20
9.35086794767324
30
0
41
1
10
129.40648739274
20
9.47184441818308
30
0
41
1
10
129.485279811812
20
9.5
30
0
41
1
10
129.564072230884
20
9.5
30
0
0
SPLINE
5
EB
100
AcDbEntity
8
1
62
256
6
ByLayer
370
13
48
1
60
0
100
AcDbSpline
70
4
71
3
72
22
73
18
40
0
40
0
40
0
40
0
40
0.125
40
0.125
40
0.25
40
0.25
40
0.375
40
0.375
40
0.5
40
0.5
40
0.625
40
0.625
40
0.75
40
0.75
40
0.875
40
0.875
40
1
40
1
40
1
40
1
41
1
10
129.930275848359
20
9.5
30
0
41
1
10
130.018276136947
20
9.5
30
0
41
1
10
130.106276425535
20
9.46484898593351
30
0
41
1
10
130.282277002711
20
9.31279783279527
30
0
41
1
10
130.370277291299
20
9.19581497471788
30
0
41
1
10
130.546277868475
20
8.87322713499873
30
0
41
1
10
130.634278157063
20
8.66756040349767
30
0
41
1
10
130.810278734239
20
8.16773523571368
30
0
41
1
10
130.898279022827
20
7.8735627572392
30
0
41
1
10
131.074279600003
20
7.20509467097443
30
0
41
1
10
131.162279888591
20
6.83084644125913
30
0
41
1
10
131.338280465767
20
6.01836654669137
30
0
41
1
10
131.426280754355
20
5.58023380473003
30
0
41
1
10
131.602281331531
20
4.66163844677749
30
0
41
1
10
131.690281620119
20
4.18129557604189
30
0
41
1
10
131.866282197295
20
3.20203461821438
30
0
41
1
10
131.954282485883
20
2.70322106534692
30
0
41
1
10
132.042282774471
20
2.20629809614576
30
0
0
SPLINE
5
EC
100
AcDbEntity
8
1
62
256
6
ByLayer
370
13
48
1
60
0
100
AcDbSpline
70
4
71
3
72
78
73
74
40
0
40
0
40
0
40
0
40
0.03125
40
0.03125
40
0.0624999999999999
40
0.0624999999999999
40
0.0937499999999999
40
0.0937499999999999
40
0.125
40
0.125
40
0.15625
40
0.15625
40
0.1875
40
0.1875
40
0.21875
40
0.21875
40
0.25
40
0.25
40
0.28125
40
0.28125
40
0.2890625
40
0.2890625
40
0.296875
40
0.296875
40
0.3125
40
0.3125
40
0.34375
40
0.34375
40
0.375
40
0.375
40
0.40625
40
0.40625
40
0.4375
40
0.4375
40
0.46875
40
0.46875
40
0.5
40
0.5
40
0.53125
40
0.53125
40
0.5625
40
0.5625
40
0.59375
40
0.59375
40
0.625
40
0.625
40
0.640625
40
0.640625
40
0.6484375
40
0.6484375
40
0.65625
40
0.65625
40
0.6875
40
0.6875
40
0.71875
40
0.71875
40
0.75
40
0.75
40
0.78125
40
0.78125
40
0.8125
40
0.8125
40
0.84375
40
0.84375
40
0.875
40
0.875
40
0.90625
40
0.90625
40
0.9375
40
0.9375
40
0.96875
40
0.96875
40
1
40
1
40
1
40
1
41
1
10
122
20
-2.57191640183456
30
0
41
1
10
122.073629479393
20
-2.98788947158718
30
0
41
1
10
122.147258958786
20
-3.40335228070632
30
0
41
1
10
122.294517917573
20
-4.22002026592531
30
0
41
1
10
122.368147396966
20
-4.62118143841479
30
0
41
1
10
122.515406355752
20
-5.39536900355759
30
0
41
1
10
122.589035835145
20
-5.76834605691985
30
0
41
1
10
122.736294793932
20
-6.47314396500502
30
0
41
1
10
122.809924273325
20
-6.80492057774009
30
0
41
1
10
122.957183232111
20
-7.41659754756105
30
0
41
1
10
123.030812711504
20
-7.69646866213071
30
0
41
1
10
123.178071670291
20
-8.19705420024781
30
0
41
1
10
123.251701149684
20
-8.41776011382197
30
0
41
1
10
123.39896010847
20
-8.79675763394735
30
0
41
1
10
123.472589587863
20
-8.95506118108989
30
0
41
1
10
123.619848546649
20
-9.20996084178697
30
0
41
1
10
123.693478026043
20
-9.30658385809539
30
0
41
1
10
123.840736984829
20
-9.44218604960068
30
0
41
1
10
123.914366464222
20
-9.48119910326162
30
0
41
1
10
124.006403313464
20
-9.49798597551572
30
0
41
1
10
124.024810683312
20
-9.49974881147276
30
0
41
1
10
124.061625423008
20
-9.50020119272074
30
0
41
1
10
124.080032792857
20
-9.49889823503264
30
0
41
1
10
124.135254902402
20
-9.49023268438762
30
0
41
1
10
124.172069642098
20
-9.4781078298895
30
0
41
1
10
124.282513861188
20
-9.42139105929556
30
0
41
1
10
124.356143340581
20
-9.35637974756253
30
0
41
1
10
124.503402299367
20
-9.16653252085774
30
0
41
1
10
124.577031778761
20
-9.0416649344439
30
0
41
1
10
124.724290737547
20
-8.72947191348254
30
0
41
1
10
124.79792021694
20
-8.54212558987805
30
0
41
1
10
124.945179175726
20
-8.10602209464244
30
0
41
1
10
125.01880865512
20
-7.8572620388808
30
0
41
1
10
125.166067613906
20
-7.30344058920412
30
0
41
1
10
125.239697093299
20
-6.9983976487228
30
0
41
1
10
125.386956052085
20
-6.34095666792715
30
0
41
1
10
125.460585531479
20
-5.98859585419748
30
0
41
1
10
125.607844490265
20
-5.24845088139307
30
0
41
1
10
125.681473969658
20
-4.86071468161722
30
0
41
1
10
125.828732928444
20
-4.06342296422415
30
0
41
1
10
125.902362407838
20
-3.65391549850713
30
0
41
1
10
126.049621366624
20
-2.82687543933892
30
0
41
1
10
126.123250846017
20
-2.4093815764447
30
0
41
1
10
126.270509804803
20
-1.57901758309475
30
0
41
1
10
126.344139284196
20
-1.16617147349868
30
0
41
1
10
126.454583503286
20
-0.558279444531195
30
0
41
1
10
126.491398242983
20
-0.357526361268498
30
0
41
1
10
126.546620352528
20
-0.0600194673276349
30
0
41
1
10
126.565027722376
20
0.0381883094399313
30
0
41
1
10
126.601842462072
20
0.236348045859984
30
0
41
1
10
126.620249831921
20
0.336034970874749
30
0
41
1
10
126.712286681162
20
0.837183715604937
30
0
41
1
10
126.785916160555
20
1.24688695406809
30
0
41
1
10
126.933175119342
20
2.07402281025418
30
0
41
1
10
127.006804598735
20
2.49143565045603
30
0
41
1
10
127.154063557521
20
3.32186203632048
30
0
41
1
10
127.227693036914
20
3.73484047220242
30
0
41
1
10
127.374951995701
20
4.54281521296852
30
0
41
1
10
127.448581475094
20
4.93776517622425
30
0
41
1
10
127.59584043388
20
5.69588855033368
30
0
41
1
10
127.669469913273
20
6.05901291610704
30
0
41
1
10
127.81672887206
20
6.74094665509261
30
0
41
1
10
127.890358351453
20
7.05971495629717
30
0
41
1
10
128.037617310239
20
7.64304771313348
30
0
41
1
10
128.111246789632
20
7.90758816642
30
0
41
1
10
128.258505748419
20
8.37623398522371
30
0
41
1
10
128.332135227812
20
8.58033660945554
30
0
41
1
10
128.479394186598
20
8.92594483249229
30
0
41
1
10
128.553023665991
20
9.06746708798718
30
0
41
1
10
128.700282624777
20
9.28960053487003
30
0
41
1
10
128.773912104171
20
9.37024131420731
30
0
41
1
10
128.921171062957
20
9.4754238492153
30
0
41
1
10
128.99480054235
20
9.5
30
0
41
1
10
129.068430021743
20
9.5
30
0
0
SPLINE
5
ED
100
AcDbEntity
8
1
62
256
6
ByLayer
370
13
48
1
60
0
100
AcDbSpline
70
4
71
3
72
42
73
38
40
0
40
0
40
0
40
0
40
0.0625000000000001
40
0.0625000000000001
40
0.125
40
0.125
40
0.187500000000001
40
0.187500000000001
40
0.250000000000001
40
0.250000000000001
40
0.312500000000001
40
0.312500000000001
40
0.375000000000001
40
0.375000000000001
40
0.437500000000001
40
0.437500000000001
40
0.500000000000001
40
0.500000000000001
40
0.562500000000001
40
0.562500000000001
40
0.625000000000001
40
0.625000000000001
40
0.687500000000001
40
0.687500000000001
40
0.750000000000001
40
0.750000000000001
40
0.812500000000001
40
0.812500000000001
40
0.875000000000001
40
0.875000000000001
40
0.937500000000001
40
0.937500000000001
40
0.953125000000001
40
0.953125000000001
40
0.968750000000001
40
0.968750000000001
40
1
40
1
40
1
40
1
41
1
10
129.434633639219
20
9.5
30
0
41
1
10
129.48895966287
20
9.5
30
0
41
1
10
129.543285686521
20
9.48663780916121
30
0
41
1
10
129.651937733823
20
9.43034056125825
30
0
41
1
10
129.706263757474
20
9.38739795032009
30
0
41
1
10
129.814915804776
20
9.26962585855179
30
0
41
1
10
129.869241828427
20
9.19478910096956
30
0
41
1
10
129.97789387573
20
9.0116890084409
30
0
41
1
10
130.032219899381
20
8.9034196203657
30
0
41
1
10
130.140871946683
20
8.65289261739315
30
0
41
1
10
130.195197970334
20
8.51063115122716
30
0
41
1
10
130.303850017636
20
8.19268872539138
30
0
41
1
10
130.358176041287
20
8.01700692719126
30
0
41
1
10
130.466828088589
20
7.63399619531876
30
0
41
1
10
130.52115411224
20
7.42666987490082
30
0
41
1
10
130.629806159543
20
6.98332072139507
30
0
41
1
10
130.684132183194
20
6.74730387520404
30
0
41
1
10
130.792784230496
20
6.25057270690735
30
0
41
1
10
130.847110254147
20
5.98986712018979
30
0
41
1
10
130.955762301449
20
5.4485821450977
30
0
41
1
10
131.0100883251
20
5.16801317584935
30
0
41
1
10
131.118740372402
20
4.59235794071091
30
0
41
1
10
131.173066396054
20
4.29728249120407
30
0
41
1
10
131.281718443356
20
3.69817998978362
30
0
41
1
10
131.336044467007
20
3.39416290528226
30
0
41
1
10
131.444696514309
20
2.78263555466802
30
0
41
1
10
131.49902253796
20
2.4751334289399
30
0
41
1
10
131.607674585262
20
1.86171204469207
30
0
41
1
10
131.662000608913
20
1.55579852514595
30
0
41
1
10
131.770652656216
20
0.950038006080121
30
0
41
1
10
131.824978679867
20
0.650194196986718
30
0
41
1
10
131.892886209431
20
0.281529210939709
30
0
41
1
10
131.906467715343
20
0.20810132805434
30
0
41
1
10
131.933630727169
20
0.0619068135893883
30
0
41
1
10
131.947212233082
20
-0.010634574330993
30
0
41
1
10
131.98795675082
20
-0.229456724282869
30
0
41
1
10
132.015119762645
20
-0.376685261860217
30
0
41
1
10
132.042282774471
20
-0.52505355535996
30
0
0
SPLINE
5
EE
100
AcDbEntity
8
1
62
256
6
ByLayer
370
13
48
1
60
0
100
AcDbSpline
70
4
71
3
72
79
73
75
40
0
40
0
40
0
40
0
40
0.0312500000000003
40
0.0312500000000003
40
0.0625000000000006
40
0.0625000000000006
40
0.0937500000000009
40
0.0937500000000009
40
0.125000000000001
40
0.125000000000001
40
0.156250000000001
40
0.156250000000001
40
0.187500000000002
40
0.187500000000002
40
0.218750000000002
40
0.218750000000002
40
0.234375000000002
40
0.234375000000002
40
0.238281250000003
40
0.238281250000003
40
0.242187500000003
40
0.250000000000003
40
0.250000000000003
40
0.281250000000002
40
0.281250000000002
40
0.312500000000002
40
0.312500000000002
40
0.343750000000001
40
0.343750000000001
40
0.375000000000001
40
0.375000000000001
40
0.40625
40
0.40625
40
0.437499999999999
40
0.437499999999999
40
0.468749999999999
40
0.468749999999999
40
0.499999999999998
40
0.499999999999998
40
0.531249999999998
40
0.531249999999998
40
0.562499999999997
40
0.562499999999997
40
0.593749999999996
40
0.593749999999996
40
0.609374999999996
40
0.609374999999996
40
0.617187499999996
40
0.617187499999996
40
0.624999999999996
40
0.624999999999996
40
0.656249999999997
40
0.656249999999997
40
0.687499999999997
40
0.687499999999997
40
0.718749999999997
40
0.718749999999997
40
0.749999999999998
40
0.749999999999998
40
0.781249999999998
40
0.781249999999998
40
0.812499999999998
40
0.812499999999998
40
0.843749999999998
40
0.843749999999998
40
0.874999999999999
40
0.874999999999999
40
0.906249999999999
40
0.906249999999999
40
0.937499999999999
40
0.937499999999999
40
0.96875
40
0.96875
40
1
40
1
40
1
40
1
41
1
10
122
20
-5.28885693456931
30
0
41
1
10
122.068466539715
20
-5.64205961767712
30
0
41
1
10
122.136933079429
20
-5.98163437987785
30
0
41
1
10
122.273866158858
20
-6.6234283344572
30
0
41
1
10
122.342332698573
20
-6.92561809483223
30
0
41
1
10
122.479265778002
20
-7.48436686712139
30
0
41
1
10
122.547732317717
20
-7.7409069003885
30
0
41
1
10
122.684665397146
20
-8.20272054528951
30
0
41
1
10
122.753131936861
20
-8.40798874621444
30
0
41
1
10
122.89006501629
20
-8.76463740116861
30
0
41
1
10
122.958531556005
20
-8.9160257110546
30
0
41
1
10
123.095464635434
20
-9.16526652141289
30
0
41
1
10
123.163931175148
20
-9.26313690460455
30
0
41
1
10
123.300864254578
20
-9.40826618444257
30
0
41
1
10
123.369330794292
20
-9.45554822533134
30
0
41
1
10
123.472030603864
20
-9.49215926372136
30
0
41
1
10
123.506263873721
20
-9.49865713097478
30
0
41
1
10
123.549055461043
20
-9.50010091150779
30
0
41
1
10
123.557613778508
20
-9.50005754897768
30
0
41
1
10
123.574730413436
20
-9.49930426548235
30
0
41
1
10
123.600405365829
20
-9.49717075561753
30
0
41
1
10
123.626080318222
20
-9.49197349028515
30
0
41
1
10
123.711663492865
20
-9.4676145395228
30
0
41
1
10
123.78013003258
20
-9.42555968255579
30
0
41
1
10
123.917063112009
20
-9.29133206356278
30
0
41
1
10
123.985529651724
20
-9.19913588311229
30
0
41
1
10
124.122462731153
20
-8.96144800059909
30
0
41
1
10
124.190929270868
20
-8.81593760256266
30
0
41
1
10
124.327862350297
20
-8.47094617034452
30
0
41
1
10
124.396328890012
20
-8.2714559937599
30
0
41
1
10
124.533261969441
20
-7.82076825232389
30
0
41
1
10
124.601728509155
20
-7.56957458232398
30
0
41
1
10
124.738661588585
20
-7.02077157359739
30
0
41
1
10
124.807128128299
20
-6.72317983254968
30
0
41
1
10
124.944061207728
20
-6.08957779044459
30
0
41
1
10
125.012527747443
20
-5.75359602915614
30
0
41
1
10
125.149460826872
20
-5.05321041630171
30
0
41
1
10
125.217927366587
20
-4.68884055375651
30
0
41
1
10
125.354860446016
20
-3.94271336688004
30
0
41
1
10
125.423326985731
20
-3.56098900882867
30
0
41
1
10
125.56026006516
20
-2.79119618294698
30
0
41
1
10
125.628726604875
20
-2.40315419860329
30
0
41
1
10
125.765659684304
20
-1.63086697491676
30
0
41
1
10
125.834126224018
20
-1.24663863953342
30
0
41
1
10
125.93682603359
20
-0.679577214957078
30
0
41
1
10
125.971059303448
20
-0.492089847174952
30
0
41
1
10
126.022409208234
20
-0.213827798062283
30
0
41
1
10
126.039525843162
20
-0.121567660010783
30
0
41
1
10
126.07375911302
20
0.0618648863733426
30
0
41
1
10
126.090875747948
20
0.153697601248268
30
0
41
1
10
126.176458922591
20
0.616383885366929
30
0
41
1
10
126.244925462306
20
0.994689575211879
30
0
41
1
10
126.381858541735
20
1.76009778248121
30
0
41
1
10
126.45032508145
20
2.14718904938795
30
0
41
1
10
126.587258160879
20
2.92085169015775
30
0
41
1
10
126.655724700594
20
3.30740168343794
30
0
41
1
10
126.792657780023
20
4.06935705719201
30
0
41
1
10
126.861124319738
20
4.44473252226953
30
0
41
1
10
126.998057399167
20
5.17318446488409
30
0
41
1
10
127.066523938882
20
5.52622674358489
30
0
41
1
10
127.203457018311
20
6.19930899257736
30
0
41
1
10
127.271923558025
20
6.51931661338753
30
0
41
1
10
127.408856637455
20
7.11710048824204
30
0
41
1
10
127.477323177169
20
7.39485253218243
30
0
41
1
10
127.614256256598
20
7.90124245245011
30
0
41
1
10
127.682722796313
20
8.12986870094917
30
0
41
1
10
127.819655875742
20
8.5340227047279
30
0
41
1
10
127.888122415457
20
8.70955265335141
30
0
41
1
10
128.025055494886
20
9.00657119653548
30
0
41
1
10
128.093522034601
20
9.12807374111853
30
0
41
1
10
128.23045511403
20
9.31888312936806
30
0
41
1
10
128.298921653745
20
9.3882113900959
30
0
41
1
10
128.435854733174
20
9.47875783647598
30
0
41
1
10
128.504321272888
20
9.5
30
0
41
1
10
128.572787812603
20
9.5
30
0
0
SPLINE
5
EF
100
AcDbEntity
8
1
62
256
6
ByLayer
370
13
48
1
60
0
100
AcDbSpline
70
4
71
3
72
42
73
38
40
0
40
0
40
0
40
0
40
0.0625000000000002
40
0.0625000000000002
40
0.125000000000001
40
0.125000000000001
40
0.187500000000001
40
0.187500000000001
40
0.250000000000001
40
0.250000000000001
40
0.312500000000001
40
0.312500000000001
40
0.375000000000002
40
0.375000000000002
40
0.437500000000002
40
0.437500000000002
40
0.500000000000002
40
0.500000000000002
40
0.562500000000002
40
0.562500000000002
40
0.625000000000002
40
0.625000000000002
40
0.687500000000002
40
0.687500000000002
40
0.750000000000003
40
0.750000000000003
40
0.781250000000003
40
0.781250000000003
40
0.796875000000003
40
0.796875000000003
40
0.812500000000003
40
0.812500000000003
40
0.875000000000002
40
0.875000000000002
40
0.937500000000001
40
0.937500000000001
40
1
40
1
40
1
40
1
41
1
10
128.938991430078
20
9.5
30
0
41
1
10
129.003643333087
20
9.5
30
0
41
1
10
129.068295236095
20
9.48106389627745
30
0
41
1
10
129.197599042111
20
9.40059404794391
30
0
41
1
10
129.262250945119
20
9.33904227833753
30
0
41
1
10
129.391554751136
20
9.16976830709069
30
0
41
1
10
129.456206654144
20
9.06202961298899
30
0
41
1
10
129.58551046016
20
8.79852453600935
30
0
41
1
10
129.650162363168
20
8.64274647248951
30
0
41
1
10
129.779466169185
20
8.2834565205456
30
0
41
1
10
129.844118072193
20
8.07994079674663
30
0
41
1
10
129.973421878209
20
7.62786433321307
30
0
41
1
10
130.038073781217
20
7.37930941367048
30
0
41
1
10
130.167377587234
20
6.84221392577143
30
0
41
1
10
130.232029490242
20
6.55368865487765
30
0
41
1
10
130.361333296258
20
5.94376277035317
30
0
41
1
10
130.425985199267
20
5.62238460067314
30
0
41
1
10
130.555289005283
20
4.95533703932841
30
0
41
1
10
130.619940908291
20
4.6096933418699
30
0
41
1
10
130.749244714308
20
3.90343439931698
30
0
41
1
10
130.813896617316
20
3.54284375884109
30
0
41
1
10
130.943200423332
20
2.81597495770819
30
0
41
1
10
131.00785232634
20
2.44971671082024
30
0
41
1
10
131.137156132357
20
1.72008044496243
30
0
41
1
10
131.201808035365
20
1.35671556805121
30
0
41
1
10
131.298785889877
20
0.819340275700796
30
0
41
1
10
131.331111841381
20
0.641483133425453
30
0
41
1
10
131.379600768637
20
0.377182672912994
30
0
41
1
10
131.395763744389
20
0.289495976721952
30
0
41
1
10
131.428089695894
20
0.115037575760226
30
0
41
1
10
131.444252671646
20
0.0285568473976809
30
0
41
1
10
131.525067550406
20
-0.404999736455267
30
0
41
1
10
131.589719453414
20
-0.759593990233498
30
0
41
1
10
131.71902325943
20
-1.47827430161826
30
0
41
1
10
131.783675162438
20
-1.84235360389016
30
0
41
1
10
131.912978968455
20
-2.57251458941687
30
0
41
1
10
131.977630871463
20
-2.93858232376846
30
0
41
1
10
132.042282774471
20
-3.30131953551859
30
0
0
SPLINE
5
F0
100
AcDbEntity
8
1
62
256
6
ByLayer
370
13
48
1
60
0
100
AcDbSpline
70
4
71
3
72
78
73
74
40
0
40
0
40
0
40
0
40
0.0312499999999994
40
0.0312499999999994
40
0.0624999999999989
40
0.0624999999999989
40
0.0937499999999984
40
0.0937499999999984
40
0.124999999999998
40
0.124999999999998
40
0.156249999999997
40
0.156249999999997
40
0.171874999999997
40
0.171874999999997
40
0.179687499999997
40
0.179687499999997
40
0.187499999999997
40
0.187499999999997
40
0.218749999999997
40
0.218749999999997
40
0.249999999999998
40
0.249999999999998
40
0.281249999999998
40
0.281249999999998
40
0.312499999999998
40
0.312499999999998
40
0.343749999999999
40
0.343749999999999
40
0.374999999999999
40
0.374999999999999
40
0.40625
40
0.40625
40
0.4375
40
0.4375
40
0.46875
40
0.46875
40
0.500000000000001
40
0.500000000000001
40
0.531250000000001
40
0.531250000000001
40
0.562500000000001
40
0.562500000000001
40
0.578125000000001
40
0.578125000000001
40
0.585937500000001
40
0.585937500000001
40
0.593750000000001
40
0.593750000000001
40
0.625000000000001
40
0.625000000000001
40
0.656250000000001
40
0.656250000000001
40
0.687500000000001
40
0.687500000000001
40
0.718750000000001
40
0.718750000000001
40
0.750000000000001
40
0.750000000000001
40
0.781250000000001
40
0.781250000000001
40
0.812500000000001
40
0.812500000000001
40
0.84375
40
0.84375
40
0.875
40
0.875
40
0.90625
40
0.90625
40
0.9375
40
0.9375
40
0.96875
40
0.96875
40
1
40
1
40
1
40
1
41
1
10
122
20
-7.53932585348508
30
0
41
1
10
122.063303600036
20
-7.77975952559956
30
0
41
1
10
122.126607200072
20
-7.99954801282982
30
0
41
1
10
122.253214400144
20
-8.39427913838955
30
0
41
1
10
122.31651800018
20
-8.56922129100946
30
0
41
1
10
122.443125200252
20
-8.87291205087277
30
0
41
1
10
122.506428800289
20
-9.0016680350152
30
0
41
1
10
122.633036000361
20
-9.21375670445886
30
0
41
1
10
122.696339600397
20
-9.2971024176419
30
0
41
1
10
122.822946800469
20
-9.42094307759322
30
0
41
1
10
122.886250400505
20
-9.46145387442579
30
0
41
1
10
122.981205800559
20
-9.49302982450286
30
0
41
1
10
123.012857600577
20
-9.49869916101153
30
0
41
1
10
123.060335300604
20
-9.50035089317021
30
0
41
1
10
123.076161200613
20
-9.49977026318305
30
0
41
1
10
123.107813000631
20
-9.49629414918118
30
0
41
1
10
123.12363890064
20
-9.49339530599457
30
0
41
1
10
123.202768400685
20
-9.47291731394824
30
0
41
1
10
123.266072000721
20
-9.43734699705786
30
0
41
1
10
123.392679200794
20
-9.32380077026187
30
0
41
1
10
123.45598280083
20
-9.2458088599976
30
0
41
1
10
123.582590000902
20
-9.04465230139198
30
0
41
1
10
123.645893600938
20
-8.92147412954719
30
0
41
1
10
123.77250080101
20
-8.62892581616788
30
0
41
1
10
123.835804401046
20
-8.45954747589622
30
0
41
1
10
123.962411601118
20
-8.07566433068359
30
0
41
1
10
124.025715201154
20
-7.8611589822284
30
0
41
1
10
124.152322401226
20
-7.39031134798265
30
0
41
1
10
124.215626001262
20
-7.13397719792459
30
0
41
1
10
124.342233201335
20
-6.58487400388998
30
0
41
1
10
124.405536801371
20
-6.29212099896037
30
0
41
1
10
124.532144001443
20
-5.67732717466708
30
0
41
1
10
124.595447601479
20
-5.3553077891097
30
0
41
1
10
124.722054801551
20
-4.6903000086852
30
0
41
1
10
124.785358401587
20
-4.34733485661147
30
0
41
1
10
124.911965601659
20
-3.64924137883119
30
0
41
1
10
124.975269201695
20
-3.29413443212391
30
0
41
1
10
125.101876401767
20
-2.58036700416147
30
0
41
1
10
125.165180001804
20
-2.22172320316219
30
0
41
1
10
125.291787201876
20
-1.50871470347309
30
0
41
1
10
125.355090801912
20
-1.15436052023611
30
0
41
1
10
125.450046201966
20
-0.631021094046531
30
0
41
1
10
125.481698001984
20
-0.457929688127422
30
0
41
1
10
125.529175702011
20
-0.200848887208082
30
0
41
1
10
125.54500160202
20
-0.115580638122537
30
0
41
1
10
125.576653402038
20
0.0540263493748796
30
0
41
1
10
125.592479302047
20
0.138890672593391
30
0
41
1
10
125.671608802092
20
0.566317532651112
30
0
41
1
10
125.734912402128
20
0.915277012493362
30
0
41
1
10
125.8615196022
20
1.62137779299766
30
0
41
1
10
125.924823202236
20
1.97851214074748
30
0
41
1
10
126.051430402308
20
2.69377080833206
30
0
41
1
10
126.114734002345
20
3.05188181737634
30
0
41
1
10
126.241341202417
20
3.76086935051907
30
0
41
1
10
126.304644802453
20
4.11172686169195
30
0
41
1
10
126.431252002525
20
4.7974391556379
30
0
41
1
10
126.494555602561
20
5.13227132384546
30
0
41
1
10
126.621162802633
20
5.77725490314594
30
0
41
1
10
126.684466402669
20
6.08738339518544
30
0
41
1
10
126.811073602741
20
6.67506855049768
30
0
41
1
10
126.874377202777
20
6.95260575196144
30
0
41
1
10
127.00098440285
20
7.46865455534873
30
0
41
1
10
127.064288002886
20
7.70715337583192
30
0
41
1
10
127.190895202958
20
8.14060413741302
30
0
41
1
10
127.254198802994
20
8.33555177346216
30
0
41
1
10
127.380806003066
20
8.67957299356448
30
0
41
1
10
127.444109603102
20
8.82865070507509
30
0
41
1
10
127.570716803174
20
9.08079974457445
30
0
41
1
10
127.63402040321
20
9.18388194827628
30
0
41
1
10
127.760627603283
20
9.34586958491806
30
0
41
1
10
127.823931203319
20
9.40478998182664
30
0
41
1
10
127.950538403391
20
9.48184707582146
30
0
41
1
10
128.013842003427
20
9.5
30
0
41
1
10
128.077145603463
20
9.5
30
0
0
SPLINE
5
F1
100
AcDbEntity
8
1
62
256
6
ByLayer
370
13
48
1
60
0
100
AcDbSpline
70
4
71
3
72
44
73
40
40
0
40
0
40
0
40
0
40
0.0624999999999993
40
0.0624999999999993
40
0.124999999999999
40
0.124999999999999
40
0.187499999999998
40
0.187499999999998
40
0.249999999999997
40
0.249999999999997
40
0.312499999999996
40
0.312499999999996
40
0.374999999999995
40
0.374999999999995
40
0.437499999999995
40
0.437499999999995
40
0.499999999999994
40
0.499999999999994
40
0.562499999999993
40
0.562499999999993
40
0.624999999999992
40
0.624999999999992
40
0.687499999999991
40
0.687499999999991
40
0.695312499999991
40
0.695312499999991
40
0.70312499999999
40
0.70312499999999
40
0.71874999999999
40
0.71874999999999
40
0.749999999999991
40
0.749999999999991
40
0.812499999999993
40
0.812499999999993
40
0.874999999999996
40
0.874999999999996
40
0.937499999999998
40
0.937499999999998
40
1
40
1
40
1
40
1
41
1
10
128.443349220938
20
9.5
30
0
41
1
10
128.518327003303
20
9.5
30
0
41
1
10
128.593304785669
20
9.47451278915281
30
0
41
1
10
128.743260350399
20
9.36531780789034
30
0
41
1
10
128.818238132764
20
9.28157240970924
30
0
41
1
10
128.968193697495
20
9.05084485806466
30
0
41
1
10
129.04317147986
20
8.90383068505602
30
0
41
1
10
129.193127044591
20
8.54492806265915
30
0
41
1
10
129.268104826956
20
8.3330224033121
30
0
41
1
10
129.418060391687
20
7.84685189540716
30
0
41
1
10
129.493038174052
20
7.57259176488728
30
0
41
1
10
129.642993738782
20
6.96859109086415
30
0
41
1
10
129.717971521148
20
6.63887882165596
30
0
41
1
10
129.867927085878
20
5.93472111115778
30
0
41
1
10
129.942904868243
20
5.56032213821604
30
0
41
1
10
130.092860432974
20
4.78025819809281
30
0
41
1
10
130.167838215339
20
4.37464717418572
30
0
41
1
10
130.31779378007
20
3.54679502627303
30
0
41
1
10
130.392771562435
20
3.12460331224196
30
0
41
1
10
130.542727127166
20
2.2777984845369
30
0
41
1
10
130.617704909531
20
1.85322120760367
30
0
41
1
10
130.767660474262
20
1.01411729278129
30
0
41
1
10
130.842638256627
20
0.599609164039833
30
0
41
1
10
130.926988261788
20
0.14451582433793
30
0
41
1
10
130.936360484583
20
0.0941040584124551
30
0
41
1
10
130.955104930175
20
-0.0063949641773604
30
0
41
1
10
130.96447715297
20
-0.056511748260931
30
0
41
1
10
130.992593821357
20
-0.207662610709264
30
0
41
1
10
131.011338266949
20
-0.309065869125334
30
0
41
1
10
131.067571603723
20
-0.614981745688368
30
0
41
1
10
131.105060494905
20
-0.821205907387991
30
0
41
1
10
131.217527168453
20
-1.44490469779876
30
0
41
1
10
131.292504950818
20
-1.86748114272285
30
0
41
1
10
131.442460515549
20
-2.71453967328105
30
0
41
1
10
131.517438297914
20
-3.13899137445972
30
0
41
1
10
131.667393862645
20
-3.97606091215863
30
0
41
1
10
131.74237164501
20
-4.38863296507466
30
0
41
1
10
131.892327209741
20
-5.18729470054055
30
0
41
1
10
131.967304992106
20
-5.57333065921196
30
0
41
1
10
132.042282774471
20
-5.93911007408059
30
0
0
SPLINE
5
F2
100
AcDbEntity
8
1
62
256
6
ByLayer
370
13
48
1
60
0
100
AcDbSpline
70
4
71
3
72
77
73
73
40
0
40
0
40
0
40
0
40
0.0312500000000018
40
0.0312500000000018
40
0.0625000000000036
40
0.0625000000000036
40
0.0937500000000054
40
0.0937500000000054
40
0.101562500000006
40
0.101562500000006
40
0.109375000000006
40
0.125000000000006
40
0.125000000000006
40
0.156250000000005
40
0.156250000000005
40
0.187500000000005
40
0.187500000000005
40
0.218750000000005
40
0.218750000000005
40
0.250000000000005
40
0.250000000000005
40
0.281250000000005
40
0.281250000000005
40
0.312500000000005
40
0.312500000000005
40
0.343750000000005
40
0.343750000000005
40
0.375000000000004
40
0.375000000000004
40
0.406250000000004
40
0.406250000000004
40
0.437500000000004
40
0.437500000000004
40
0.468750000000004
40
0.468750000000004
40
0.500000000000004
40
0.500000000000004
40
0.531250000000004
40
0.531250000000004
40
0.546875000000003
40
0.546875000000003
40
0.554687500000003
40
0.554687500000003
40
0.562500000000003
40
0.562500000000003
40
0.593750000000003
40
0.593750000000003
40
0.625000000000002
40
0.625000000000002
40
0.656250000000002
40
0.656250000000002
40
0.687500000000002
40
0.687500000000002
40
0.718750000000002
40
0.718750000000002
40
0.750000000000002
40
0.750000000000002
40
0.781250000000001
40
0.781250000000001
40
0.812500000000001
40
0.812500000000001
40
0.843750000000001
40
0.843750000000001
40
0.875000000000001
40
0.875000000000001
40
0.906250000000001
40
0.906250000000001
40
0.9375
40
0.9375
40
0.96875
40
0.96875
40
1
40
1
40
1
40
1
41
1
10
122
20
-8.97321984143341
30
0
41
1
10
122.058140660357
20
-9.08693591495478
30
0
41
1
10
122.116281320715
20
-9.18128668556918
30
0
41
1
10
122.23256264143
20
-9.33267120279066
30
0
41
1
10
122.290703301788
20
-9.38971468616512
30
0
41
1
10
122.406984622503
20
-9.4690351791829
30
0
41
1
10
122.46512528286
20
-9.49132279731055
30
0
41
1
10
122.537801108307
20
-9.49955434840766
30
0
41
1
10
122.552336273396
20
-9.50022190125432
30
0
41
1
10
122.581406603575
20
-9.49965017439857
30
0
41
1
10
122.625012098843
20
-9.49591401888532
30
0
41
1
10
122.668617594111
20
-9.48328078424024
30
0
41
1
10
122.755828584648
20
-9.44550322544717
30
0
41
1
10
122.813969245005
20
-9.40360969582264
30
0
41
1
10
122.93025056572
20
-9.28349139285294
30
0
41
1
10
122.988391226078
20
-9.20525632799442
30
0
41
1
10
123.104672546793
20
-9.01050989461208
30
0
41
1
10
123.16281320715
20
-8.89398999649296
30
0
41
1
10
123.279094527865
20
-8.62200753907513
30
0
41
1
10
123.337235188223
20
-8.46653978060709
30
0
41
1
10
123.453516508938
20
-8.1174858978346
30
0
41
1
10
123.511657169296
20
-7.92389917840435
30
0
41
1
10
123.627938490011
20
-7.50101371916705
30
0
41
1
10
123.686079150368
20
-7.27171959695471
30
0
41
1
10
123.802360471083
20
-6.78134895704238
30
0
41
1
10
123.860501131441
20
-6.52028197039641
30
0
41
1
10
123.976782452156
20
-5.97160417210449
30
0
41
1
10
124.034923112513
20
-5.68400659211807
30
0
41
1
10
124.151204433228
20
-5.08846814996707
30
0
41
1
10
124.209345093586
20
-4.78054235123852
30
0
41
1
10
124.325626414301
20
-4.15107783394052
30
0
41
1
10
124.383767074658
20
-3.8295539257461
30
0
41
1
10
124.500048395374
20
-3.17969716161241
30
0
41
1
10
124.558189055731
20
-2.85137703138986
30
0
41
1
10
124.674470376446
20
-2.19438565611225
30
0
41
1
10
124.732611036804
20
-1.86572381978183
30
0
41
1
10
124.848892357519
20
-1.21382456909723
30
0
41
1
10
124.907033017876
20
-0.890592750397616
30
0
41
1
10
124.994244008413
20
-0.413463533381759
30
0
41
1
10
125.023314338591
20
-0.255699283351191
30
0
41
1
10
125.06691983386
20
-0.021355614014567
30
0
41
1
10
125.081454998949
20
0.0562502549925057
30
0
41
1
10
125.110525329128
20
0.212706789414739
30
0
41
1
10
125.125060494217
20
0.291313833085269
30
0
41
1
10
125.197736319664
20
0.686086267627218
30
0
41
1
10
125.255876980021
20
1.00750250880091
30
0
41
1
10
125.372158300736
20
1.65688563595566
30
0
41
1
10
125.430298961094
20
1.98484773442192
30
0
41
1
10
125.546580281809
20
2.64173292521286
30
0
41
1
10
125.604720942166
20
2.97064740307016
30
0
41
1
10
125.721002262881
20
3.62310692805787
30
0
41
1
10
125.779142923239
20
3.94663987610622
30
0
41
1
10
125.895424243954
20
4.58157789543648
30
0
41
1
10
125.953564904312
20
4.89296846267055
30
0
41
1
10
126.069846225027
20
5.49683923795055
30
0
41
1
10
126.127986885384
20
5.78930426371673
30
0
41
1
10
126.244268206099
20
6.34896999012969
30
0
41
1
10
126.302408866457
20
6.61615689838052
30
0
41
1
10
126.418690187172
20
7.11978375332632
30
0
41
1
10
126.476830847529
20
7.35621325266601
30
0
41
1
10
126.593112168245
20
7.79408485619194
30
0
41
1
10
126.651252828602
20
7.99552124006408
30
0
41
1
10
126.767534149317
20
8.36065554639427
30
0
41
1
10
126.825674809675
20
8.52435297791308
30
0
41
1
10
126.94195613039
20
8.81284189366588
30
0
41
1
10
127.000096790747
20
8.93763768718458
30
0
41
1
10
127.116378111462
20
9.14867964520812
30
0
41
1
10
127.17451877182
20
9.23493375825944
30
0
41
1
10
127.290800092535
20
9.37058354434231
30
0
41
1
10
127.348940752892
20
9.41998926689078
30
0
41
1
10
127.465222073607
20
9.48469219000748
30
0
41
1
10
127.523362733965
20
9.5
30
0
41
1
10
127.581503394322
20
9.5
30
0
0
SPLINE
5
F3
100
AcDbEntity
8
1
62
256
6
ByLayer
370
13
48
1
60
0
100
AcDbSpline
70
4
71
3
72
44
73
40
40
0
40
0
40
0
40
0
40
0.0625
40
0.0625
40
0.125
40
0.125
40
0.1875
40
0.1875
40
0.25
40
0.25
40
0.3125
40
0.3125
40
0.375
40
0.375
40
0.4375
40
0.4375
40
0.5
40
0.5
40
0.5625
40
0.5625
40
0.59375
40
0.59375
40
0.609375
40
0.609375
40
0.6171875
40
0.6171875
40
0.624999999999999
40
0.624999999999999
40
0.6875
40
0.6875
40
0.75
40
0.75
40
0.8125
40
0.8125
40
0.875
40
0.875
40
0.9375
40
0.9375
40
1
40
1
40
1
40
1
41
1
10
127.947707011798
20
9.5
30
0
41
1
10
128.03301067352
20
9.5
30
0
41
1
10
128.118314335243
20
9.46697905263866
30
0
41
1
10
128.288921658687
20
9.32441671236734
30
0
41
1
10
128.37422532041
20
9.21480428319683
30
0
41
1
10
128.544832643854
20
8.91255695725494
30
0
41
1
10
128.630136305577
20
8.71986733602853
30
0
41
1
10
128.800743629021
20
8.25104531612419
30
0
41
1
10
128.886047290744
20
7.97489635447712
30
0
41
1
10
129.056654614188
20
7.34596738549879
30
0
41
1
10
129.141958275911
20
6.99322151750843
30
0
41
1
10
129.312565599356
20
6.22491260329204
30
0
41
1
10
129.397869261078
20
5.80942891367175
30
0
41
1
10
129.568476584523
20
4.93471725810284
30
0
41
1
10
129.653780246245
20
4.47559099988396
30
0
41
1
10
129.82438756969
20
3.53510884326212
30
0
41
1
10
129.909691231412
20
3.05384754260606
30
0
41
1
10
130.080298554857
20
2.08999377121239
30
0
41
1
10
130.165602216579
20
1.6074663159317
30
0
41
1
10
130.293557709163
20
0.896036366239372
30
0
41
1
10
130.336209540024
20
0.660923129541459
30
0
41
1
10
130.400187286316
20
0.312653141087964
30
0
41
1
10
130.421513201746
20
0.197294188548199
30
0
41
1
10
130.453502074892
20
0.0255008908397372
30
0
41
1
10
130.464165032607
20
-0.031457510091542
30
0
41
1
10
130.485490948038
20
-0.14601516730832
30
0
41
1
10
130.496153905753
20
-0.203500961283737
30
0
41
1
10
130.592120525191
20
-0.722626820232676
30
0
41
1
10
130.677424186913
20
-1.19673228294741
30
0
41
1
10
130.848031510358
20
-2.155229210214
30
0
41
1
10
130.93333517208
20
-2.6395789636334
30
0
41
1
10
131.103942495525
20
-3.59942571148574
30
0
41
1
10
131.189246157248
20
-4.07484469041469
30
0
41
1
10
131.359853480692
20
-4.99540502978795
30
0
41
1
10
131.445157142415
20
-5.44044581221166
30
0
41
1
10
131.615764465859
20
-6.27928636004873
30
0
41
1
10
131.701068127582
20
-6.67298947004531
30
0
41
1
10
131.871675451026
20
-7.39172240682203
30
0
41
1
10
131.956979112749
20
-7.71668812922536
30
0
41
1
10
132.042282774471
20
-8.00162524027488
30
0
0
SPLINE
5
F4
100
AcDbEntity
8
1
62
256
6
ByLayer
370
13
48
1
60
0
100
AcDbSpline
70
4
71
3
72
77
73
73
40
0
40
0
40
0
40
0
40
0.0078124999999997
40
0.0078124999999997
40
0.0156249999999995
40
0.0156249999999995
40
0.0312499999999995
40
0.0312499999999995
40
0.0624999999999995
40
0.0624999999999995
40
0.0937499999999995
40
0.0937499999999995
40
0.125
40
0.125
40
0.15625
40
0.15625
40
0.1875
40
0.1875
40
0.21875
40
0.21875
40
0.25
40
0.25
40
0.28125
40
0.28125
40
0.312499999999999
40
0.312499999999999
40
0.34375
40
0.34375
40
0.375
40
0.375
40
0.40625
40
0.40625
40
0.4375
40
0.4375
40
0.46875
40
0.46875
40
0.5
40
0.5
40
0.5078125
40
0.5078125
40
0.515625
40
0.53125
40
0.53125
40
0.5625
40
0.5625
40
0.59375
40
0.59375
40
0.625000000000001
40
0.625000000000001
40
0.656250000000001
40
0.656250000000001
40
0.687500000000001
40
0.687500000000001
40
0.718750000000001
40
0.718750000000001
40
0.75
40
0.75
40
0.78125
40
0.78125
40
0.8125
40
0.8125
40
0.84375
40
0.84375
40
0.875
40
0.875
40
0.90625
40
0.90625
40
0.9375
40
0.9375
40
0.96875
40
0.96875
40
1
40
1
40
1
40
1
41
1
10
122
20
-9.49359248464731
30
0
41
1
10
122.01324443017
20
-9.49623404696641
30
0
41
1
10
122.026488860339
20
-9.49804728230865
30
0
41
1
10
122.052977720679
20
-9.50005979087072
30
0
41
1
10
122.066222150849
20
-9.50026289193684
30
0
41
1
10
122.105955441358
20
-9.49848752178082
30
0
41
1
10
122.132444301697
20
-9.49409775583251
30
0
41
1
10
122.211910882716
20
-9.47080180906809
30
0
41
1
10
122.264888603395
20
-9.44175241932831
30
0
41
1
10
122.370844044753
20
-9.35423672044618
30
0
41
1
10
122.423821765432
20
-9.29576378671035
30
0
41
1
10
122.52977720679
20
-9.14761853626132
30
0
41
1
10
122.582754927469
20
-9.05794026077305
30
0
41
1
10
122.688710368827
20
-8.84640368755035
30
0
41
1
10
122.741688089506
20
-8.72454092446719
30
0
41
1
10
122.847643530864
20
-8.44861618039749
30
0
41
1
10
122.900621251543
20
-8.29455200072971
30
0
41
1
10
123.006576692901
20
-7.95526951622088
30
0
41
1
10
123.05955441358
20
-7.77005183080402
30
0
41
1
10
123.165509854938
20
-7.37059725904331
30
0
41
1
10
123.218487575617
20
-7.15636399223791
30
0
41
1
10
123.324443016974
20
-6.70203972328045
30
0
41
1
10
123.377420737653
20
-6.46195507453001
30
0
41
1
10
123.483376179011
20
-5.95996497042421
30
0
41
1
10
123.53635389969
20
-5.69806791106413
30
0
41
1
10
123.642309341048
20
-5.15714107145399
30
0
41
1
10
123.695287061727
20
-4.87812073990145
30
0
41
1
10
123.801242503085
20
-4.30801486258582
30
0
41
1
10
123.854220223764
20
-4.01693872481258
30
0
41
1
10
123.960175665122
20
-3.42788104642375
30
0
41
1
10
124.013153385801
20
-3.12990788292564
30
0
41
1
10
124.119108827159
20
-2.53203781285197
30
0
41
1
10
124.172086547838
20
-2.23214752725951
30
0
41
1
10
124.278041989196
20
-1.63501922100349
30
0
41
1
10
124.331019709875
20
-1.33778568581687
30
0
41
1
10
124.436975151233
20
-0.749973493928422
30
0
41
1
10
124.489952871912
20
-0.459397148856937
30
0
41
1
10
124.556175022761
20
-0.102415645777341
30
0
41
1
10
124.569419452931
20
-0.0315055577258647
30
0
41
1
10
124.59590831327
20
0.110488863838299
30
0
41
1
10
124.635641603779
20
0.324453427616049
30
0
41
1
10
124.675374894288
20
0.541134459961626
30
0
41
1
10
124.754841475307
20
0.977516544850573
30
0
41
1
10
124.807819195986
20
1.27248537653881
30
0
41
1
10
124.913774637344
20
1.86678886004162
30
0
41
1
10
124.966752358023
20
2.16611992440397
30
0
41
1
10
125.072707799381
20
2.76479319834897
30
0
41
1
10
125.12568552006
20
3.06412963103418
30
0
41
1
10
125.231640961418
20
3.65797673896412
30
0
41
1
10
125.284618682097
20
3.95247968341181
30
0
41
1
10
125.390574123455
20
4.53154456646786
30
0
41
1
10
125.443551844134
20
4.81609740949284
30
0
41
1
10
125.549507285492
20
5.37012353551876
30
0
41
1
10
125.602485006171
20
5.63958725586795
30
0
41
1
10
125.708440447529
20
6.15855690923081
30
0
41
1
10
125.761418168208
20
6.40805388742092
30
0
41
1
10
125.867373609566
20
6.88275420106683
30
0
41
1
10
125.920351330245
20
7.1079502471799
30
0
41
1
10
126.026306771603
20
7.53050288469154
30
0
41
1
10
126.079284492282
20
7.72785468536219
30
0
41
1
10
126.18523993364
20
8.09214720983221
30
0
41
1
10
126.238217654318
20
8.25908608987257
30
0
41
1
10
126.344173095676
20
8.56105618814644
30
0
41
1
10
126.397150816355
20
8.69608850592687
30
0
41
1
10
126.503106257713
20
8.93383465075351
30
0
41
1
10
126.556083978392
20
9.03655210469739
30
0
41
1
10
126.66203941975
20
9.21027058512291
30
0
41
1
10
126.715017140429
20
9.28127706270453
30
0
41
1
10
126.820972581787
20
9.39304943477032
30
0
41
1
10
126.873950302466
20
9.43382177963898
30
0
41
1
10
126.979905743824
20
9.48729373222153
30
0
41
1
10
127.032883464503
20
9.5
30
0
41
1
10
127.085861185182
20
9.5
30
0
0
SPLINE
5
F5
100
AcDbEntity
8
1
62
256
6
ByLayer
370
13
48
1
60
0
100
AcDbSpline
70
4
71
3
72
42
73
38
40
0
40
0
40
0
40
0
40
0.0625000000000001
40
0.0625000000000001
40
0.125
40
0.125
40
0.1875
40
0.1875
40
0.25
40
0.25
40
0.3125
40
0.3125
40
0.375
40
0.375
40
0.4375
40
0.4375
40
0.5
40
0.5
40
0.53125
40
0.53125
40
0.546875
40
0.546875
40
0.5625
40
0.5625
40
0.625
40
0.625
40
0.6875
40
0.6875
40
0.75
40
0.75
40
0.8125
40
0.8125
40
0.875
40
0.875
40
0.9375
40
0.9375
40
1
40
1
40
1
40
1
41
1
10
127.452064802657
20
9.5
30
0
41
1
10
127.547694343737
20
9.5
30
0
41
1
10
127.643323884816
20
9.45845601161844
30
0
41
1
10
127.834582966975
20
9.27780185284527
30
0
41
1
10
127.930212508055
20
9.13856775097904
30
0
41
1
10
128.121471590214
20
8.754709003004
30
0
41
1
10
128.217101131293
20
8.5100010216895
30
0
41
1
10
128.408360213452
20
7.91756022902905
30
0
41
1
10
128.503989754531
20
7.56982975034848
30
0
41
1
10
128.69524883669
20
6.78527244480324
30
0
41
1
10
128.79087837777
20
6.3485478844151
30
0
41
1
10
128.982137459929
20
5.40993618972658
30
0
41
1
10
129.077767001008
20
4.90821902169304
30
0
41
1
10
129.269026083167
20
3.86931031276791
30
0
41
1
10
129.364655624246
20
3.33229399504072
30
0
41
1
10
129.555914706405
20
2.25279904174232
30
0
41
1
10
129.651544247485
20
1.71044489020781
30
0
41
1
10
129.794988559104
20
0.91205236742735
30
0
41
1
10
129.842803329644
20
0.648398874326062
30
0
41
1
10
129.914525485453
20
0.258544041863814
30
0
41
1
10
129.938432870723
20
0.129526418350423
30
0
41
1
10
129.986247641263
20
-0.126366421049255
30
0
41
1
10
130.010155026533
20
-0.255349968301829
30
0
41
1
10
130.129691952882
20
-0.905031180692475
30
0
41
1
10
130.225321493962
20
-1.44001705207182
30
0
41
1
10
130.41658057612
20
-2.5183465929149
30
0
41
1
10
130.5122101172
20
-3.06160225492931
30
0
41
1
10
130.703469199359
20
-4.12830740614791
30
0
41
1
10
130.799098740438
20
-4.65160189433343
30
0
41
1
10
130.990357822597
20
-5.64791171402169
30
0
41
1
10
131.085987363677
20
-6.12074614955543
30
0
41
1
10
131.277246445835
20
-6.9885858464049
30
0
41
1
10
131.372875986915
20
-7.38344817518478
30
0
41
1
10
131.564135069074
20
-8.07582712716268
30
0
41
1
10
131.659764610153
20
-8.37329013778779
30
0
41
1
10
131.851023692312
20
-8.8625027821391
30
0
41
1
10
131.946653233391
20
-9.05429711739225
30
0
41
1
10
132.042282774471
20
-9.19468641820743
30
0
0
SPLINE
5
F6
100
AcDbEntity
8
1
62
256
6
ByLayer
370
13
48
1
60
0
100
AcDbSpline
70
4
71
3
72
42
73
38
40
0
40
0
40
0
40
0
40
0.0624999999999999
40
0.0624999999999999
40
0.125
40
0.125
40
0.1875
40
0.1875
40
0.25
40
0.25
40
0.3125
40
0.3125
40
0.375
40
0.375
40
0.4375
40
0.4375
40
0.453125
40
0.453125
40
0.46875
40
0.46875
40
0.5
40
0.5
40
0.5625
40
0.5625
40
0.625
40
0.625
40
0.6875
40
0.6875
40
0.75
40
0.75
40
0.8125
40
0.8125
40
0.875
40
0.875
40
0.9375
40
0.9375
40
1
40
1
40
1
40
1
41
1
10
122
20
-9.19468789246653
30
0
41
1
10
122.095629562001
20
-9.05429891791493
30
0
41
1
10
122.191259124002
20
-8.86250490001635
30
0
41
1
10
122.382518248004
20
-8.3732928361604
30
0
41
1
10
122.478147810004
20
-8.0758300883422
30
0
41
1
10
122.669406934006
20
-7.38345157598218
30
0
41
1
10
122.765036496007
20
-6.98858942375929
30
0
41
1
10
122.956295620009
20
-6.12074997682723
30
0
41
1
10
123.051925182009
20
-5.64791561461303
30
0
41
1
10
123.243184306011
20
-4.65160584060351
30
0
41
1
10
123.338813868012
20
-4.12831132496106
30
0
41
1
10
123.530072992014
20
-3.06160603729913
30
0
41
1
10
123.625702554015
20
-2.5183502665929
30
0
41
1
10
123.816961678017
20
-1.44002045576366
30
0
41
1
10
123.912591240017
20
-0.905034423350401
30
0
41
1
10
124.032128192519
20
-0.255352995268453
30
0
41
1
10
124.056035583019
20
-0.12636937176967
30
0
41
1
10
124.103850364019
20
0.129523490841422
30
0
41
1
10
124.127757754519
20
0.258541127423797
30
0
41
1
10
124.19947992602
20
0.648396003547703
30
0
41
1
10
124.247294707021
20
0.91204953171254
30
0
41
1
10
124.390739050022
20
1.71044217753041
30
0
41
1
10
124.486368612023
20
2.25279643519238
30
0
41
1
10
124.677627736024
20
3.33229164207756
30
0
41
1
10
124.773257298025
20
3.86930810723348
30
0
41
1
10
124.964516422027
20
4.90821713604325
30
0
41
1
10
125.060145984028
20
5.40993447637749
30
0
41
1
10
125.25140510803
20
6.34854651758215
30
0
41
1
10
125.34703467003
20
6.7852712519589
30
0
41
1
10
125.538293794032
20
7.5698288834875
30
0
41
1
10
125.633923356033
20
7.91755951397173
30
0
41
1
10
125.825182480035
20
8.51000057024172
30
0
41
1
10
125.920812042036
20
8.75470866329349
30
0
41
1
10
126.112071166037
20
9.13856758681561
30
0
41
1
10
126.207700728038
20
9.2778017525531
30
0
41
1
10
126.39895985204
20
9.45845599334237
30
0
41
1
10
126.494589414041
20
9.5
30
0
41
1
10
126.590218976042
20
9.5
30
0
0
SPLINE
5
F7
100
AcDbEntity
8
1
62
256
6
ByLayer
370
13
48
1
60
0
100
AcDbSpline
70
4
71
3
72
78
73
74
40
0
40
0
40
0
40
0
40
0.0312499999999997
40
0.0312499999999997
40
0.0624999999999994
40
0.0624999999999994
40
0.0937499999999992
40
0.0937499999999992
40
0.124999999999999
40
0.124999999999999
40
0.156249999999999
40
0.156249999999999
40
0.187499999999998
40
0.187499999999998
40
0.218749999999998
40
0.218749999999998
40
0.249999999999998
40
0.249999999999998
40
0.281249999999998
40
0.281249999999998
40
0.312499999999997
40
0.312499999999997
40
0.343749999999997
40
0.343749999999997
40
0.374999999999997
40
0.374999999999997
40
0.406249999999997
40
0.406249999999997
40
0.437499999999997
40
0.437499999999997
40
0.468749999999996
40
0.468749999999996
40
0.484374999999996
40
0.484374999999996
40
0.492187499999997
40
0.492187499999997
40
0.499999999999997
40
0.499999999999997
40
0.531249999999997
40
0.531249999999997
40
0.562499999999997
40
0.562499999999997
40
0.593749999999997
40
0.593749999999997
40
0.624999999999998
40
0.624999999999998
40
0.656249999999998
40
0.656249999999998
40
0.687499999999998
40
0.687499999999998
40
0.718749999999998
40
0.718749999999998
40
0.749999999999999
40
0.749999999999999
40
0.781249999999999
40
0.781249999999999
40
0.812499999999999
40
0.812499999999999
40
0.84375
40
0.84375
40
0.875
40
0.875
40
0.90625
40
0.90625
40
0.9375
40
0.9375
40
0.96875
40
0.96875
40
0.984375
40
0.984375
40
0.9921875
40
0.9921875
40
1
40
1
40
1
40
1
41
1
10
126.956422593517
20
9.5
30
0
41
1
10
127.009400303735
20
9.5
30
0
41
1
10
127.062378013954
20
9.48729373724615
30
0
41
1
10
127.16833343439
20
9.43382180628927
30
0
41
1
10
127.221311144609
20
9.39304947802825
30
0
41
1
10
127.327266565045
20
9.28127715186659
30
0
41
1
10
127.380244275263
20
9.21027070358758
30
0
41
1
10
127.4861996957
20
9.03655229494677
30
0
41
1
10
127.539177405918
20
8.93383488348957
30
0
41
1
10
127.645132826355
20
8.69608883652049
30
0
41
1
10
127.698110536573
20
8.56105657411283
30
0
41
1
10
127.804065957009
20
8.25908659828826
30
0
41
1
10
127.857043667228
20
8.09214778532277
30
0
41
1
10
127.962999087664
20
7.72785540463573
30
0
41
1
10
128.015976797883
20
7.53050368066783
30
0
41
1
10
128.121932218319
20
7.10795120334041
30
0
41
1
10
128.174909928537
20
6.88275524070025
30
0
41
1
10
128.280865348974
20
6.4080550973531
30
0
41
1
10
128.333843059192
20
6.15855820597827
30
0
41
1
10
128.439798479629
20
5.63958872589416
30
0
41
1
10
128.492776189847
20
5.37012509199749
30
0
41
1
10
128.598731610283
20
4.81609913486926
30
0
41
1
10
128.651709320502
20
4.53154637427983
30
0
41
1
10
128.757664740938
20
3.95248164879342
30
0
41
1
10
128.810642451157
20
3.65797877947293
30
0
41
1
10
128.916597871593
20
3.06413181181424
30
0
41
1
10
128.969575581812
20
2.76479544426954
30
0
41
1
10
129.075531002248
20
2.16612228871151
30
0
41
1
10
129.128508712466
20
1.86679127759538
30
0
41
1
10
129.234464132903
20
1.27248788760704
30
0
41
1
10
129.287441843121
20
0.977519096189553
30
0
41
1
10
129.366908408448
20
0.541137061752636
30
0
41
1
10
129.393397263558
20
0.396683055353151
30
0
41
1
10
129.433130546221
20
0.181813252282581
30
0
41
1
10
129.446374973776
20
0.110491507434489
30
0
41
1
10
129.472863828885
20
-0.0315029022350757
30
0
41
1
10
129.48610825644
20
-0.102412960983287
30
0
41
1
10
129.552330394212
20
-0.459394354385836
30
0
41
1
10
129.605308104431
20
-0.749970614427838
30
0
41
1
10
129.711263524867
20
-1.33778264593116
30
0
41
1
10
129.764241235086
20
-1.63501610577151
30
0
41
1
10
129.870196655522
20
-2.23214427557218
30
0
41
1
10
129.92317436574
20
-2.53203450006788
30
0
41
1
10
130.029129786177
20
-3.12990446672399
30
0
41
1
10
130.082107496395
20
-3.42787758791539
30
0
41
1
10
130.188062916832
20
-4.01693520458082
30
0
41
1
10
130.24104062705
20
-4.30801132295133
30
0
41
1
10
130.346996047486
20
-4.8781171876125
30
0
41
1
10
130.399973757705
20
-5.1571375259249
30
0
41
1
10
130.505929178141
20
-5.6980644072207
30
0
41
1
10
130.55890688836
20
-5.9599615015137
30
0
41
1
10
130.664862308796
20
-6.46195170413088
30
0
41
1
10
130.717840019014
20
-6.70203641646089
30
0
41
1
10
130.823795439451
20
-7.15636084003961
30
0
41
1
10
130.876773149669
20
-7.37059419788133
30
0
41
1
10
130.982728570106
20
-7.77004897639392
30
0
41
1
10
131.035706280324
20
-7.95526677751536
30
0
41
1
10
131.14166170076
20
-8.2945495139794
30
0
41
1
10
131.194639410979
20
-8.44861382988319
30
0
41
1
10
131.300594831415
20
-8.72453886188043
30
0
41
1
10
131.353572541634
20
-8.84640177663925
30
0
41
1
10
131.45952796207
20
-9.05793866309071
30
0
41
1
10
131.512505672288
20
-9.1476171001172
30
0
41
1
10
131.618461092725
20
-9.29576267792683
30
0
41
1
10
131.671438802943
20
-9.35423577747301
30
0
41
1
10
131.77739422338
20
-9.44175180706202
30
0
41
1
10
131.830371933598
20
-9.47080136169009
30
0
41
1
10
131.909838498925
20
-9.4940975517286
30
0
41
1
10
131.936327354034
20
-9.49848739809812
30
0
41
1
10
131.976060636698
20
-9.50026288752096
30
0
41
1
10
131.989305064253
20
-9.50005982590122
30
0
41
1
10
132.015793919362
20
-9.49804739867679
30
0
41
1
10
132.029038346917
20
-9.49623420486586
30
0
41
1
10
132.042282774471
20
-9.49359268493606
30
0
0
SPLINE
5
F8
100
AcDbEntity
8
1
62
256
6
ByLayer
370
13
48
1
60
0
100
AcDbSpline
70
4
71
3
72
44
73
40
40
0
40
0
40
0
40
0
40
0.0625000000000041
40
0.0625000000000041
40
0.125000000000008
40
0.125000000000008
40
0.187500000000012
40
0.187500000000012
40
0.250000000000017
40
0.250000000000017
40
0.312500000000021
40
0.312500000000021
40
0.375000000000025
40
0.375000000000025
40
0.382812500000025
40
0.382812500000025
40
0.390625000000025
40
0.390625000000025
40
0.406250000000025
40
0.406250000000025
40
0.437500000000024
40
0.437500000000024
40
0.500000000000021
40
0.500000000000021
40
0.562500000000018
40
0.562500000000018
40
0.625000000000016
40
0.625000000000016
40
0.687500000000013
40
0.687500000000013
40
0.750000000000011
40
0.750000000000011
40
0.812500000000008
40
0.812500000000008
40
0.875000000000005
40
0.875000000000005
40
0.937500000000003
40
0.937500000000003
40
1
40
1
40
1
40
1
41
1
10
122
20
-8.00162859466479
30
0
41
1
10
122.085303682644
20
-7.71669172561408
30
0
41
1
10
122.170607365287
20
-7.3917262100934
30
0
41
1
10
122.341214730575
20
-6.67299359915256
30
0
41
1
10
122.426518413219
20
-6.27929060802569
30
0
41
1
10
122.597125778506
20
-5.44045020499865
30
0
41
1
10
122.68242946115
20
-4.99540944856767
30
0
41
1
10
122.853036826438
20
-4.07484907685776
30
0
41
1
10
122.938340509082
20
-3.59943003975658
30
0
41
1
10
123.108947874369
20
-2.63958311013241
30
0
41
1
10
123.194251557013
20
-2.15523323330296
30
0
41
1
10
123.3648589223
20
-1.19673601747311
30
0
41
1
10
123.450162604944
20
-0.722630389758905
30
0
41
1
10
123.546129247919
20
-0.203504334689342
30
0
41
1
10
123.556792208249
20
-0.146018518775037
30
0
41
1
10
123.57811812891
20
-0.0314608174257103
30
0
41
1
10
123.58878108924
20
0.0254975982981023
30
0
41
1
10
123.620769970232
20
0.197290914343114
30
0
41
1
10
123.642095890893
20
0.312649880417382
30
0
41
1
10
123.706073652876
20
0.660919913451352
30
0
41
1
10
123.748725494197
20
0.896033185183569
30
0
41
1
10
123.876681018163
20
1.60746325590634
30
0
41
1
10
123.961984700807
20
2.0899908133263
30
0
41
1
10
124.132592066095
20
3.05384482705929
30
0
41
1
10
124.217895748738
20
3.53510626790677
30
0
41
1
10
124.388503114026
20
4.47558873135907
30
0
41
1
10
124.47380679667
20
4.93471515613663
30
0
41
1
10
124.644414161957
20
5.80942715409404
30
0
41
1
10
124.729717844601
20
6.22491101940909
30
0
41
1
10
124.900325209889
20
6.99322027488023
30
0
41
1
10
124.985628892532
20
7.34596630828963
30
0
41
1
10
125.15623625782
20
7.97489558068625
30
0
41
1
10
125.241539940464
20
8.25104468024051
30
0
41
1
10
125.412147305751
20
8.71986693707012
30
0
41
1
10
125.497450988395
20
8.91255665730009
30
0
41
1
10
125.668058353683
20
9.2148041383798
30
0
41
1
10
125.753362036326
20
9.32441662373753
30
0
41
1
10
125.923969401614
20
9.46697903637471
30
0
41
1
10
126.009273084258
20
9.5
30
0
41
1
10
126.094576766901
20
9.5
30
0
0
SPLINE
5
F9
100
AcDbEntity
8
1
62
256
6
ByLayer
370
13
48
1
60
0
100
AcDbSpline
70
4
71
3
72
78
73
74
40
0
40
0
40
0
40
0
40
0.0312499999999994
40
0.0312499999999994
40
0.0624999999999988
40
0.0624999999999988
40
0.0937499999999983
40
0.0937499999999983
40
0.124999999999998
40
0.124999999999998
40
0.156249999999997
40
0.156249999999997
40
0.187499999999997
40
0.187499999999997
40
0.218749999999996
40
0.218749999999996
40
0.249999999999995
40
0.249999999999995
40
0.281249999999995
40
0.281249999999995
40
0.312499999999994
40
0.312499999999994
40
0.343749999999994
40
0.343749999999994
40
0.374999999999993
40
0.374999999999993
40
0.406249999999993
40
0.406249999999993
40
0.437499999999992
40
0.437499999999992
40
0.445312499999992
40
0.445312499999992
40
0.453124999999992
40
0.453124999999992
40
0.468749999999992
40
0.468749999999992
40
0.499999999999992
40
0.499999999999992
40
0.531249999999993
40
0.531249999999993
40
0.562499999999993
40
0.562499999999993
40
0.593749999999993
40
0.593749999999993
40
0.624999999999994
40
0.624999999999994
40
0.656249999999994
40
0.656249999999994
40
0.687499999999995
40
0.687499999999995
40
0.718749999999995
40
0.718749999999995
40
0.749999999999995
40
0.749999999999995
40
0.781249999999996
40
0.781249999999996
40
0.812499999999996
40
0.812499999999996
40
0.843749999999997
40
0.843749999999997
40
0.874999999999997
40
0.874999999999997
40
0.890624999999998
40
0.890624999999998
40
0.898437499999998
40
0.898437499999998
40
0.906249999999998
40
0.906249999999998
40
0.937499999999999
40
0.937499999999999
40
0.968749999999999
40
0.968749999999999
40
1
40
1
40
1
40
1
41
1
10
126.460780384377
20
9.5
30
0
41
1
10
126.518921034274
20
9.5
30
0
41
1
10
126.577061684171
20
9.48469219552507
30
0
41
1
10
126.693342983964
20
9.41998929629739
30
0
41
1
10
126.751483633861
20
9.37058359212986
30
0
41
1
10
126.867764933655
20
9.23493385690915
30
0
41
1
10
126.925905583551
20
9.14867977634765
30
0
41
1
10
127.042186883345
20
8.93763789778245
30
0
41
1
10
127.100327533242
20
8.81284215123785
30
0
41
1
10
127.216608833035
20
8.52435334320276
30
0
41
1
10
127.274749482932
20
8.36065597242833
30
0
41
1
10
127.391030782726
20
7.99552179945849
30
0
41
1
10
127.449171432623
20
7.7940854881972
30
0
41
1
10
127.565452732416
20
7.35621403873998
30
0
41
1
10
127.623593382313
20
7.11978462084741
30
0
41
1
10
127.739874682107
20
6.61615793373059
30
0
41
1
10
127.798015332004
20
6.34897111184699
30
0
41
1
10
127.914296631797
20
5.78930555869067
30
0
41
1
10
127.972437281694
20
5.49684061979801
30
0
41
1
10
128.088718581488
20
4.89297001434272
30
0
41
1
10
128.146859231385
20
4.58157953004567
30
0
41
1
10
128.263140531178
20
3.94664166865258
30
0
41
1
10
128.321281181075
20
3.62310879559422
30
0
41
1
10
128.437562480869
20
2.97064940943687
30
0
41
1
10
128.495703130765
20
2.64173499541513
30
0
41
1
10
128.611984430559
20
1.98484991896149
30
0
41
1
10
128.670125080456
20
1.65688787099737
30
0
41
1
10
128.78640638025
20
1.00750483042168
30
0
41
1
10
128.844547030146
20
0.686088625329489
30
0
41
1
10
128.917222842517
20
0.291316226825359
30
0
41
1
10
128.931758004992
20
0.212709189911436
30
0
41
1
10
128.96082832994
20
0.0562526681077884
30
0
41
1
10
128.975363492414
20
-0.0213531905943114
30
0
41
1
10
129.018968979837
20
-0.255696793780061
30
0
41
1
10
129.048039304785
20
-0.413461000409967
30
0
41
1
10
129.13525027963
20
-0.89059009025155
30
0
41
1
10
129.193390929527
20
-1.21382182819397
30
0
41
1
10
129.309672229321
20
-1.86572093075566
30
0
41
1
10
129.367812879218
20
-2.19438269973639
30
0
41
1
10
129.484094179011
20
-2.85137395924045
30
0
41
1
10
129.542234828908
20
-3.17969404105884
30
0
41
1
10
129.658516128702
20
-3.82955073247294
30
0
41
1
10
129.716656778598
20
-4.15107461637243
30
0
41
1
10
129.832938078392
20
-4.78053911334379
30
0
41
1
10
129.891078728289
20
-5.08846491605814
30
0
41
1
10
130.007360028083
20
-5.68400339704294
30
0
41
1
10
130.065500677979
20
-5.97160101188808
30
0
41
1
10
130.181781977773
20
-6.520278911345
30
0
41
1
10
130.23992262767
20
-6.78134596429845
30
0
41
1
10
130.356203927463
20
-7.27171676665895
30
0
41
1
10
130.41434457736
20
-7.50101098500306
30
0
41
1
10
130.530625877154
20
-7.92389666264171
30
0
41
1
10
130.588766527051
20
-8.1174835043241
30
0
41
1
10
130.705047826844
20
-8.46653765236897
30
0
41
1
10
130.763188476741
20
-8.62200555383492
30
0
41
1
10
130.879469776535
20
-8.89398831158434
30
0
41
1
10
130.937610426431
20
-9.01050836701427
30
0
41
1
10
131.053891726225
20
-9.20525512255369
30
0
41
1
10
131.112032376122
20
-9.28349035223889
30
0
41
1
10
131.228313675916
20
-9.40360898588037
30
0
41
1
10
131.286454325812
20
-9.44550268133614
30
0
41
1
10
131.373665300658
20
-9.48328048534867
30
0
41
1
10
131.402735625606
20
-9.49170272293816
30
0
41
1
10
131.446341113029
20
-9.49840449335551
30
0
41
1
10
131.460876275503
20
-9.49965011699271
30
0
41
1
10
131.489946600451
20
-9.50022192316911
30
0
41
1
10
131.504481762926
20
-9.49955441029175
30
0
41
1
10
131.577157575297
20
-9.49132306516512
30
0
41
1
10
131.635298225193
20
-9.46903562702383
30
0
41
1
10
131.751579524987
20
-9.38971552274734
30
0
41
1
10
131.809720174884
20
-9.33267224813653
30
0
41
1
10
131.926001474677
20
-9.18128817328085
30
0
41
1
10
131.984142124574
20
-9.08693763626817
30
0
41
1
10
132.042282774471
20
-8.97322180558004
30
0
0
SPLINE
5
FA
100
AcDbEntity
8
1
62
256
6
ByLayer
370
13
48
1
60
0
100
AcDbSpline
70
4
71
3
72
44
73
40
40
0
40
0
40
0
40
0
40
0.0625
40
0.0625
40
0.125
40
0.125
40
0.1875
40
0.1875
40
0.25
40
0.25
40
0.28125
40
0.28125
40
0.296875
40
0.296875
40
0.3046875
40
0.3046875
40
0.3125
40
0.3125
40
0.375
40
0.375
40
0.4375
40
0.4375
40
0.5
40
0.5
40
0.5625
40
0.5625
40
0.625
40
0.625
40
0.6875
40
0.6875
40
0.75
40
0.75
40
0.8125
40
0.8125
40
0.875
40
0.875
40
0.9375
40
0.9375
40
1
40
1
40
1
40
1
41
1
10
122
20
-5.93911497321096
30
0
41
1
10
122.074977803287
20
-5.57333563655348
30
0
41
1
10
122.149955606573
20
-5.18729971534859
30
0
41
1
10
122.299911213147
20
-4.38863797871952
30
0
41
1
10
122.374889016433
20
-3.97606588725941
30
0
41
1
10
122.524844623007
20
-3.13899620936809
30
0
41
1
10
122.599822426294
20
-2.7145444066538
30
0
41
1
10
122.749778032867
20
-1.86748562734874
30
0
41
1
10
122.824755836154
20
-1.44490903531846
30
0
41
1
10
122.937222541084
20
-0.82121000384393
30
0
41
1
10
122.974711442727
20
-0.614985758386922
30
0
41
1
10
123.030944795192
20
-0.309069752700822
30
0
41
1
10
123.049689246014
20
-0.207666450661463
30
0
41
1
10
123.077805922246
20
-0.0565155220957365
30
0
41
1
10
123.087178147657
20
-0.006398713846778
30
0
41
1
10
123.105922598479
20
0.0941003206708615
30
0
41
1
10
123.115294823889
20
0.144512092847492
30
0
41
1
10
123.199644852587
20
0.599605491411438
30
0
41
1
10
123.274622655874
20
1.01411369113498
30
0
41
1
10
123.424578262447
20
1.85321778507057
30
0
41
1
10
123.499556065734
20
2.27779517015767
30
0
41
1
10
123.649511672307
20
3.1246002468412
30
0
41
1
10
123.724489475594
20
3.5467921016882
30
0
41
1
10
123.874445082167
20
4.37464455477789
30
0
41
1
10
123.949422885454
20
4.78025574299932
30
0
41
1
10
124.099378492027
20
5.56032002234198
30
0
41
1
10
124.174356295314
20
5.93471917011138
30
0
41
1
10
124.324311901887
20
6.63887722597894
30
0
41
1
10
124.399289705174
20
6.96858966564187
30
0
41
1
10
124.549245311747
20
7.57259066204975
30
0
41
1
10
124.624223115034
20
7.8468509444296
30
0
41
1
10
124.774178721608
20
8.33302172638662
30
0
41
1
10
124.849156524894
20
8.54492750789248
30
0
41
1
10
124.999112131468
20
8.90383033850514
30
0
41
1
10
125.074089934754
20
9.05084459757867
30
0
41
1
10
125.224045541328
20
9.28157228390884
30
0
41
1
10
125.299023344614
20
9.36531773074941
30
0
41
1
10
125.448978951188
20
9.47451277488608
30
0
41
1
10
125.523956754474
20
9.5
30
0
41
1
10
125.598934557761
20
9.5
30
0
0
SPLINE
5
FB
100
AcDbEntity
8
1
62
256
6
ByLayer
370
13
48
1
60
0
100
AcDbSpline
70
4
71
3
72
77
73
73
40
0
40
0
40
0
40
0
40
0.0312500000000012
40
0.0312500000000012
40
0.0625000000000024
40
0.0625000000000024
40
0.0937500000000036
40
0.0937500000000036
40
0.125000000000005
40
0.125000000000005
40
0.156250000000006
40
0.156250000000006
40
0.187500000000007
40
0.187500000000007
40
0.218750000000008
40
0.218750000000008
40
0.250000000000009
40
0.250000000000009
40
0.281250000000011
40
0.281250000000011
40
0.312500000000012
40
0.312500000000012
40
0.343750000000013
40
0.343750000000013
40
0.375000000000014
40
0.375000000000014
40
0.406250000000015
40
0.406250000000015
40
0.414062500000015
40
0.414062500000015
40
0.421875000000015
40
0.437500000000015
40
0.437500000000015
40
0.468750000000015
40
0.468750000000015
40
0.500000000000014
40
0.500000000000014
40
0.531250000000014
40
0.531250000000014
40
0.562500000000014
40
0.562500000000014
40
0.593750000000014
40
0.593750000000014
40
0.625000000000013
40
0.625000000000013
40
0.656250000000013
40
0.656250000000013
40
0.687500000000013
40
0.687500000000013
40
0.718750000000013
40
0.718750000000013
40
0.750000000000013
40
0.750000000000013
40
0.781250000000012
40
0.781250000000012
40
0.812500000000012
40
0.812500000000012
40
0.820312500000012
40
0.820312500000012
40
0.828125000000011
40
0.828125000000011
40
0.84375000000001
40
0.84375000000001
40
0.875000000000008
40
0.875000000000008
40
0.906250000000006
40
0.906250000000006
40
0.937500000000004
40
0.937500000000004
40
0.968750000000002
40
0.968750000000002
40
1
40
1
40
1
40
1
41
1
10
125.965138175237
20
9.5
30
0
41
1
10
126.028441764812
20
9.5
30
0
41
1
10
126.091745354387
20
9.48184708183311
30
0
41
1
10
126.218352533538
20
9.40479001401528
30
0
41
1
10
126.281656123114
20
9.34586963728546
30
0
41
1
10
126.408263302264
20
9.18388205651644
30
0
41
1
10
126.47156689184
20
9.08079988852009
30
0
41
1
10
126.59817407099
20
8.82865093613063
30
0
41
1
10
126.661477660565
20
8.6795732760306
30
0
41
1
10
126.788084839716
20
8.33555217317641
30
0
41
1
10
126.851388429292
20
8.14060460296298
30
0
41
1
10
126.977995608442
20
7.70715398467647
30
0
41
1
10
127.041299198018
20
7.46865524164139
30
0
41
1
10
127.167906377168
20
6.95260660062519
30
0
41
1
10
127.231209966744
20
6.67506948406611
30
0
41
1
10
127.357817145895
20
6.08738450099059
30
0
41
1
10
127.42112073547
20
5.77725609626106
30
0
41
1
10
127.54772791462
20
5.13227268868403
30
0
41
1
10
127.611031504196
20
4.79744060486897
30
0
41
1
10
127.737638683347
20
4.11172847187649
30
0
41
1
10
127.800942272922
20
3.76087103724905
30
0
41
1
10
127.927549452073
20
3.05188364538179
30
0
41
1
10
127.990853041648
20
2.69377270105997
30
0
41
1
10
128.117460220799
20
1.97851414842603
30
0
41
1
10
128.180763810374
20
1.62137985090484
30
0
41
1
10
128.307370989525
20
0.915279155095931
30
0
41
1
10
128.3706745791
20
0.566319709727111
30
0
41
1
10
128.449804066069
20
0.138892882928758
30
0
41
1
10
128.465629963463
20
0.0540285553707918
30
0
41
1
10
128.497281758251
20
-0.115578387826446
30
0
41
1
10
128.544759450432
20
-0.371381668959231
30
0
41
1
10
128.592237142614
20
-0.631018713935248
30
0
41
1
10
128.687192526977
20
-1.15435801612944
30
0
41
1
10
128.750496116552
20
-1.50871212177341
30
0
41
1
10
128.877103295703
20
-2.22172048285836
30
0
41
1
10
128.940406885278
20
-2.58036422287111
30
0
41
1
10
129.067014064429
20
-3.29413155192401
30
0
41
1
10
129.130317654005
20
-3.64923846073711
30
0
41
1
10
129.256924833155
20
-4.34733189146544
30
0
41
1
10
129.320228422731
20
-4.69029703440884
30
0
41
1
10
129.446835601881
20
-5.3553048293071
30
0
41
1
10
129.510139191457
20
-5.67732423848798
30
0
41
1
10
129.636746370608
20
-6.29211814435752
30
0
41
1
10
129.700049960183
20
-6.58487120724593
30
0
41
1
10
129.826657139333
20
-7.13397455031804
30
0
41
1
10
129.889960728909
20
-7.39030879144528
30
0
41
1
10
130.01656790806
20
-7.86115663698516
30
0
41
1
10
130.079871497635
20
-8.07566210564212
30
0
41
1
10
130.206478676786
20
-8.459545514198
30
0
41
1
10
130.269782266361
20
-8.62892399758005
30
0
41
1
10
130.396389445512
20
-8.92147261249062
30
0
41
1
10
130.459693035087
20
-9.0446509427243
30
0
41
1
10
130.586300214238
20
-9.2458078253502
30
0
41
1
10
130.649603803813
20
-9.32379990121925
30
0
41
1
10
130.776210982964
20
-9.43734645886286
30
0
41
1
10
130.839514572539
20
-9.47291694097854
30
0
41
1
10
130.918644059508
20
-9.49339513528986
30
0
41
1
10
130.934469956902
20
-9.49629401871954
30
0
41
1
10
130.96612175169
20
-9.49977021270144
30
0
41
1
10
130.981947649084
20
-9.50035088201824
30
0
41
1
10
131.029425341265
20
-9.49869927010826
30
0
41
1
10
131.061077136053
20
-9.49303001789778
30
0
41
1
10
131.156032520416
20
-9.46145433291957
30
0
41
1
10
131.219336109991
20
-9.42094372918638
30
0
41
1
10
131.345943289142
20
-9.29710348504386
30
0
41
1
10
131.409246878718
20
-9.21375799457681
30
0
41
1
10
131.535854057868
20
-9.001669793979
30
0
41
1
10
131.599157647444
20
-8.8729140559567
30
0
41
1
10
131.725764826594
20
-8.56922380247275
30
0
41
1
10
131.78906841617
20
-8.39428191008378
30
0
41
1
10
131.91567559532
20
-7.99955130733755
30
0
41
1
10
131.978979184896
20
-7.77976308264559
30
0
41
1
10
132.042282774471
20
-7.53932966764694
30
0
0
SPLINE
5
FC
100
AcDbEntity
8
1
62
256
6
ByLayer
370
13
48
1
60
0
100
AcDbSpline
70
4
71
3
72
41
73
37
40
0
40
0
40
0
40
0
40
0.0624999999999959
40
0.0624999999999959
40
0.124999999999992
40
0.124999999999992
40
0.187499999999988
40
0.187499999999988
40
0.203124999999988
40
0.203124999999988
40
0.218749999999987
40
0.249999999999987
40
0.249999999999987
40
0.312499999999989
40
0.312499999999989
40
0.37499999999999
40
0.37499999999999
40
0.437499999999991
40
0.437499999999991
40
0.499999999999992
40
0.499999999999992
40
0.562499999999993
40
0.562499999999993
40
0.624999999999994
40
0.624999999999994
40
0.687499999999995
40
0.687499999999995
40
0.749999999999996
40
0.749999999999996
40
0.812499999999997
40
0.812499999999997
40
0.874999999999998
40
0.874999999999998
40
0.937499999999999
40
0.937499999999999
40
1
40
1
40
1
40
1
41
1
10
122
20
-3.30132516986072
30
0
41
1
10
122.06465192393
20
-2.93858787559665
30
0
41
1
10
122.129303847859
20
-2.57252003306195
30
0
41
1
10
122.258607695718
20
-1.84235879288315
30
0
41
1
10
122.323259619648
20
-1.47827934419965
30
0
41
1
10
122.452563467507
20
-0.759598715411414
30
0
41
1
10
122.517215391437
20
-0.405004290683763
30
0
41
1
10
122.598030296349
20
0.0285525142794825
30
0
41
1
10
122.614193277331
20
0.115033243824229
30
0
41
1
10
122.646519239296
20
0.289491671056368
30
0
41
1
10
122.695008182243
20
0.552550299018264
30
0
41
1
10
122.74349712519
20
0.81933606388418
30
0
41
1
10
122.840475011085
20
1.35671147123114
30
0
41
1
10
122.905126935014
20
1.72007644101876
30
0
41
1
10
123.034430782874
20
2.44971292309961
30
0
41
1
10
123.099082706803
20
2.81597129333863
30
0
41
1
10
123.228386554662
20
3.54284036674579
30
0
41
1
10
123.293038478592
20
3.9034311561322
30
0
41
1
10
123.422342326451
20
4.60969041430914
30
0
41
1
10
123.486994250381
20
4.95533427845055
30
0
41
1
10
123.61629809824
20
5.62238218097599
30
0
41
1
10
123.68095002217
20
5.94376052510975
30
0
41
1
10
123.810253870029
20
6.55368675529513
30
0
41
1
10
123.874905793958
20
6.84221219734772
30
0
41
1
10
124.004209641818
20
7.37930801361006
30
0
41
1
10
124.068861565747
20
7.62786309031566
30
0
41
1
10
124.198165413607
20
8.07993984525757
30
0
41
1
10
124.262817337536
20
8.28345570327645
30
0
41
1
10
124.392121185395
20
8.64274589455925
30
0
41
1
10
124.456773109325
20
8.79852406319267
30
0
41
1
10
124.586076957184
20
9.06202931837095
30
0
41
1
10
124.650728881114
20
9.16976808557027
30
0
41
1
10
124.780032728973
20
9.33904217119454
30
0
41
1
10
124.844684652903
20
9.40059398210522
30
0
41
1
10
124.973988500762
20
9.48106388399574
30
0
41
1
10
125.038640424691
20
9.5
30
0
41
1
10
125.103292348621
20
9.5
30
0
0
SPLINE
5
FD
100
AcDbEntity
8
1
62
256
6
ByLayer
370
13
48
1
60
0
100
AcDbSpline
70
4
71
3
72
79
73
75
40
0
40
0
40
0
40
0
40
0.031250000000001
40
0.031250000000001
40
0.0625000000000019
40
0.0625000000000019
40
0.0937500000000029
40
0.0937500000000029
40
0.125000000000004
40
0.125000000000004
40
0.156250000000005
40
0.156250000000005
40
0.187500000000006
40
0.187500000000006
40
0.218750000000007
40
0.218750000000007
40
0.250000000000007
40
0.250000000000007
40
0.281250000000008
40
0.281250000000008
40
0.312500000000009
40
0.312500000000009
40
0.34375000000001
40
0.34375000000001
40
0.375000000000011
40
0.375000000000011
40
0.382812500000011
40
0.382812500000011
40
0.390625000000011
40
0.390625000000011
40
0.406250000000011
40
0.406250000000011
40
0.43750000000001
40
0.43750000000001
40
0.468750000000009
40
0.468750000000009
40
0.500000000000009
40
0.500000000000009
40
0.531250000000008
40
0.531250000000008
40
0.562500000000007
40
0.562500000000007
40
0.593750000000006
40
0.593750000000006
40
0.625000000000006
40
0.625000000000006
40
0.656250000000005
40
0.656250000000005
40
0.687500000000004
40
0.687500000000004
40
0.718750000000004
40
0.718750000000004
40
0.750000000000003
40
0.750000000000003
40
0.757812500000003
40
0.761718750000003
40
0.761718750000003
40
0.765625000000003
40
0.765625000000003
40
0.781250000000003
40
0.781250000000003
40
0.812500000000002
40
0.812500000000002
40
0.843750000000002
40
0.843750000000002
40
0.875000000000002
40
0.875000000000002
40
0.906250000000001
40
0.906250000000001
40
0.937500000000001
40
0.937500000000001
40
0.96875
40
0.96875
40
1
40
1
40
1
40
1
41
1
10
125.469495966096
20
9.5
30
0
41
1
10
125.53796249535
20
9.5
30
0
41
1
10
125.606429024604
20
9.47875784298284
30
0
41
1
10
125.743362083112
20
9.38821142509164
30
0
41
1
10
125.811828612366
20
9.31888318636399
30
0
41
1
10
125.948761670873
20
9.12807385904028
30
0
41
1
10
126.017228200127
20
9.00657135339765
30
0
41
1
10
126.154161258635
20
8.70955290491099
30
0
41
1
10
126.222627787889
20
8.5340230120506
30
0
41
1
10
126.359560846397
20
8.12986913461407
30
0
41
1
10
126.428027375651
20
7.90124295668761
30
0
41
1
10
126.564960434159
20
7.39485318848222
30
0
41
1
10
126.633426963413
20
7.11710122601212
30
0
41
1
10
126.77036002192
20
6.51931751960871
30
0
41
1
10
126.838826551174
20
6.19930998575106
30
0
41
1
10
126.975759609682
20
5.52622790999587
30
0
41
1
10
127.044226138936
20
5.17318571754976
30
0
41
1
10
127.181159197444
20
4.44473394073344
30
0
41
1
10
127.249625726698
20
4.06935855517517
30
0
41
1
10
127.386558785205
20
3.3074033286845
30
0
41
1
10
127.45502531446
20
2.92085340313503
30
0
41
1
10
127.591958372967
20
2.14719088254927
30
0
41
1
10
127.660424902221
20
1.76009966809445
30
0
41
1
10
127.797357960729
20
0.994691548732902
30
0
41
1
10
127.865824489983
20
0.616385894352078
30
0
41
1
10
127.95140765155
20
0.153699643909278
30
0
41
1
10
127.968524283864
20
0.0618669241238763
30
0
41
1
10
128.002757548491
20
-0.121565577957512
30
0
41
1
10
128.019874180804
20
-0.213825694050996
30
0
41
1
10
128.071224077745
20
-0.492087678026763
30
0
41
1
10
128.105457342372
20
-0.679575003365329
30
0
41
1
10
128.208157136252
20
-1.24663630488291
30
0
41
1
10
128.276623665506
20
-1.63086456391412
30
0
41
1
10
128.413556724014
20
-2.403151653838
30
0
41
1
10
128.482023253268
20
-2.79119358080595
30
0
41
1
10
128.618956311776
20
-3.56098631836807
30
0
41
1
10
128.68742284103
20
-3.94271064551515
30
0
41
1
10
128.824355899537
20
-4.68883780323654
30
0
41
1
10
128.892822428792
20
-5.05320766756591
30
0
41
1
10
129.029755487299
20
-5.75359332043567
30
0
41
1
10
129.098222016553
20
-6.08957511997542
30
0
41
1
10
129.235155075061
20
-6.72317727552868
30
0
41
1
10
129.303621604315
20
-7.02076909177157
30
0
41
1
10
129.440554662823
20
-7.56957228473999
30
0
41
1
10
129.509021192077
20
-7.82076606376256
30
0
41
1
10
129.645954250585
20
-8.27145405080014
30
0
41
1
10
129.714420779838
20
-8.47094436392405
30
0
41
1
10
129.851353838346
20
-8.81593608826586
30
0
41
1
10
129.9198203676
20
-8.96144664184229
30
0
41
1
10
130.056753426108
20
-9.19913484505622
30
0
41
1
10
130.125219955362
20
-9.29133119062897
30
0
41
1
10
130.26215301387
20
-9.42555914043115
30
0
41
1
10
130.330619543124
20
-9.4676141630593
30
0
41
1
10
130.416202704691
20
-9.49197331643745
30
0
41
1
10
130.441877653161
20
-9.49717064222634
30
0
41
1
10
130.467552601631
20
-9.49930421194082
30
0
41
1
10
130.484669233945
20
-9.5000575351892
30
0
41
1
10
130.493227550101
20
-9.50010091741422
30
0
41
1
10
130.536019130885
20
-9.49865723705094
30
0
41
1
10
130.570252395512
20
-9.49215945440403
30
0
41
1
10
130.672952189393
20
-9.45554868300968
30
0
41
1
10
130.741418718647
20
-9.40826683780676
30
0
41
1
10
130.878351777155
20
-9.26313798078536
30
0
41
1
10
130.946818306409
20
-9.16526782473105
30
0
41
1
10
131.083751364916
20
-8.91602749224953
30
0
41
1
10
131.15221789417
20
-8.76463943308457
30
0
41
1
10
131.289150952678
20
-8.40799129152518
30
0
41
1
10
131.357617481932
20
-8.20272335322846
30
0
41
1
10
131.49455054044
20
-7.74091023103952
30
0
41
1
10
131.563017069694
20
-7.48437045779011
30
0
41
1
10
131.699950128202
20
-6.92562218735668
30
0
41
1
10
131.768416657456
20
-6.62343266874777
30
0
41
1
10
131.905349715963
20
-5.98163916488252
30
0
41
1
10
131.973816245217
20
-5.64206461157002
30
0
41
1
10
132.042282774471
20
-5.28886211514433
30
0
0
SPLINE
5
FE
100
AcDbEntity
8
1
62
256
6
ByLayer
370
13
48
1
60
0
100
AcDbSpline
70
4
71
3
72
42
73
38
40
0
40
0
40
0
40
0
40
0.031249999999998
40
0.031249999999998
40
0.0468749999999975
40
0.0468749999999975
40
0.062499999999997
40
0.062499999999997
40
0.124999999999997
40
0.124999999999997
40
0.187499999999997
40
0.187499999999997
40
0.249999999999998
40
0.249999999999998
40
0.312499999999998
40
0.312499999999998
40
0.374999999999998
40
0.374999999999998
40
0.437499999999998
40
0.437499999999998
40
0.499999999999999
40
0.499999999999999
40
0.562499999999999
40
0.562499999999999
40
0.624999999999999
40
0.624999999999999
40
0.687499999999999
40
0.687499999999999
40
0.749999999999999
40
0.749999999999999
40
0.812499999999999
40
0.812499999999999
40
0.875
40
0.875
40
0.9375
40
0.9375
40
1
40
1
40
1
40
1
41
1
10
122
20
-0.52505904060024
30
0
41
1
10
122.027163022286
20
-0.376690661921515
30
0
41
1
10
122.054326044573
20
-0.229462037337953
30
0
41
1
10
122.095070578002
20
-0.0106397549425878
30
0
41
1
10
122.108652089145
20
0.0619016494466678
30
0
41
1
10
122.135815111431
20
0.208096189156663
30
0
41
1
10
122.149396622574
20
0.281524085500536
30
0
41
1
10
122.21730417829
20
0.650189143051847
30
0
41
1
10
122.271630222862
20
0.950033022884583
30
0
41
1
10
122.380282312008
20
1.55579371042995
30
0
41
1
10
122.43460835658
20
1.86170732772362
30
0
41
1
10
122.543260445725
20
2.47512893278693
30
0
41
1
10
122.597586490298
20
2.78263118158472
30
0
41
1
10
122.706238579443
20
3.39415880020419
30
0
41
1
10
122.760564624015
20
3.69817602963565
30
0
41
1
10
122.86921671316
20
4.29727883760614
30
0
41
1
10
122.923542757733
20
4.59235444871973
30
0
41
1
10
123.032194846878
20
5.16801001714546
30
0
41
1
10
123.08652089145
20
5.44857915805451
30
0
41
1
10
123.195172980595
20
5.98986447898699
30
0
41
1
10
123.249499025168
20
6.25057023986051
30
0
41
1
10
123.358151114313
20
6.74730175115883
30
0
41
1
10
123.412477158885
20
6.98331876617169
30
0
41
1
10
123.52112924803
20
7.42666824463404
30
0
41
1
10
123.575455292603
20
7.63399472116677
30
0
41
1
10
123.684107381748
20
8.01700574632929
30
0
41
1
10
123.73843342632
20
8.19268768169147
30
0
41
1
10
123.847085515465
20
8.510630358291
30
0
41
1
10
123.901411560038
20
8.65289193805387
30
0
41
1
10
124.010063649183
20
8.90341914194335
30
0
41
1
10
124.064389693756
20
9.01168861734186
30
0
41
1
10
124.1730417829
20
9.19478885744761
30
0
41
1
10
124.227367827473
20
9.26962567529324
30
0
41
1
10
124.336019916618
20
9.38739786144828
30
0
41
1
10
124.390345961191
20
9.43034050652309
30
0
41
1
10
124.498998050336
20
9.48663779885467
30
0
41
1
10
124.553324094908
20
9.5
30
0
41
1
10
124.607650139481
20
9.5
30
0
0
SPLINE
5
FF
100
AcDbEntity
8
1
62
256
6
ByLayer
370
13
48
1
60
0
100
AcDbSpline
70
4
71
3
72
78
73
74
40
0
40
0
40
0
40
0
40
0.0312499999999987
40
0.0312499999999987
40
0.0624999999999974
40
0.0624999999999974
40
0.0937499999999961
40
0.0937499999999961
40
0.124999999999995
40
0.124999999999995
40
0.156249999999994
40
0.156249999999994
40
0.187499999999992
40
0.187499999999992
40
0.218749999999991
40
0.218749999999991
40
0.24999999999999
40
0.24999999999999
40
0.281249999999988
40
0.281249999999988
40
0.312499999999987
40
0.312499999999987
40
0.343749999999986
40
0.343749999999986
40
0.351562499999986
40
0.351562499999986
40
0.359374999999985
40
0.359374999999985
40
0.374999999999985
40
0.374999999999985
40
0.406249999999986
40
0.406249999999986
40
0.437499999999987
40
0.437499999999987
40
0.468749999999987
40
0.468749999999987
40
0.499999999999988
40
0.499999999999988
40
0.531249999999988
40
0.531249999999988
40
0.562499999999989
40
0.562499999999989
40
0.593749999999989
40
0.593749999999989
40
0.62499999999999
40
0.62499999999999
40
0.656249999999991
40
0.656249999999991
40
0.687499999999991
40
0.687499999999991
40
0.703124999999992
40
0.703124999999992
40
0.710937499999992
40
0.710937499999992
40
0.718749999999992
40
0.718749999999992
40
0.749999999999993
40
0.749999999999993
40
0.781249999999994
40
0.781249999999994
40
0.812499999999994
40
0.812499999999994
40
0.843749999999995
40
0.843749999999995
40
0.874999999999996
40
0.874999999999996
40
0.906249999999997
40
0.906249999999997
40
0.937499999999998
40
0.937499999999998
40
0.968749999999999
40
0.968749999999999
40
1
40
1
40
1
40
1
41
1
10
124.973853756956
20
9.5
30
0
41
1
10
125.047483225888
20
9.5
30
0
41
1
10
125.121112694821
20
9.47542385621873
30
0
41
1
10
125.268371632686
20
9.37024135203441
30
0
41
1
10
125.342001101618
20
9.28960059654162
30
0
41
1
10
125.489260039483
20
9.06746721566967
30
0
41
1
10
125.562889508415
20
8.92594500235961
30
0
41
1
10
125.71014844628
20
8.58033688150044
30
0
41
1
10
125.783777915213
20
8.37623431726598
30
0
41
1
10
125.931036853078
20
7.90758863335682
30
0
41
1
10
126.00466632201
20
7.64304825495341
30
0
41
1
10
126.151925259875
20
7.05971565760871
30
0
41
1
10
126.225554728808
20
6.74094744098133
30
0
41
1
10
126.372813666672
20
6.05901387412859
30
0
41
1
10
126.446443135605
20
5.69588959587068
30
0
41
1
10
126.59370207347
20
4.93776639256245
30
0
41
1
10
126.667331542402
20
4.54281651255522
30
0
41
1
10
126.814590480267
20
3.73484192759594
30
0
41
1
10
126.8882199492
20
3.32186356424811
30
0
41
1
10
127.035478887065
20
2.49143730800469
30
0
41
1
10
127.109108355997
20
2.07402452488299
30
0
41
1
10
127.256367293862
20
1.24688876483265
30
0
41
1
10
127.329996762794
20
0.837185565433458
30
0
41
1
10
127.42203359896
20
0.33603685799676
30
0
41
1
10
127.440440966193
20
0.236349939868575
30
0
41
1
10
127.477255700659
20
0.0381902160883385
30
0
41
1
10
127.495663067892
20
-0.0600175449815197
30
0
41
1
10
127.550885169592
20
-0.357524373046658
30
0
41
1
10
127.587699904058
20
-0.55827741332584
30
0
41
1
10
127.698144107457
20
-1.16616931765617
30
0
41
1
10
127.771773576389
20
-1.57901534989912
30
0
41
1
10
127.919032514254
20
-2.40937920874251
30
0
41
1
10
127.992661983186
20
-2.8268730145295
30
0
41
1
10
128.139920921051
20
-3.65391298833745
30
0
41
1
10
128.213550389984
20
-4.06342042585442
30
0
41
1
10
128.360809327849
20
-4.86071212269783
30
0
41
1
10
128.434438796781
20
-5.24844833016903
30
0
41
1
10
128.581697734646
20
-5.98859335802354
30
0
41
1
10
128.655327203579
20
-6.34095421912934
30
0
41
1
10
128.802586141443
20
-6.99839533390735
30
0
41
1
10
128.876215610376
20
-7.30343836098382
30
0
41
1
10
129.023474548241
20
-7.85726001823429
30
0
41
1
10
129.097104017173
20
-8.10602019493371
30
0
41
1
10
129.244362955038
20
-8.54212395796603
30
0
41
1
10
129.317992423971
20
-8.72947042837203
30
0
41
1
10
129.465251361835
20
-9.04166375831369
30
0
41
1
10
129.538880830768
20
-9.16653150684957
30
0
41
1
10
129.686139768633
20
-9.35637906233083
30
0
41
1
10
129.759769237565
20
-9.42139054067613
30
0
41
1
10
129.870213440964
20
-9.47810755737774
30
0
41
1
10
129.90702817543
20
-9.49023249329019
30
0
41
1
10
129.962250277129
20
-9.49889816437698
30
0
41
1
10
129.980657644363
20
-9.50020116173266
30
0
41
1
10
130.017472378829
20
-9.49974886000524
30
0
41
1
10
130.035879746062
20
-9.49798606500923
30
0
41
1
10
130.127916582227
20
-9.48119940352956
30
0
41
1
10
130.20154605116
20
-9.44218653776466
30
0
41
1
10
130.348804989025
20
-9.30658475703231
30
0
41
1
10
130.422434457957
20
-9.20996196361472
30
0
41
1
10
130.569693395822
20
-8.9550627753238
30
0
41
1
10
130.643322864755
20
-8.79675947767603
30
0
41
1
10
130.79058180262
20
-8.41776247000521
30
0
41
1
10
130.864211271552
20
-8.19705681933132
30
0
41
1
10
131.011470209417
20
-7.69647180371189
30
0
41
1
10
131.085099678349
20
-7.41660094865065
30
0
41
1
10
131.232358616214
20
-6.80492447644681
30
0
41
1
10
131.305988085147
20
-6.47314810172495
30
0
41
1
10
131.453247023012
20
-5.76835063170574
30
0
41
1
10
131.526876491944
20
-5.39537377832187
30
0
41
1
10
131.674135429809
20
-4.62118656280518
30
0
41
1
10
131.747764898741
20
-4.22002553993002
30
0
41
1
10
131.895023836606
20
-3.40335779711094
30
0
41
1
10
131.968653305539
20
-2.98789508078926
30
0
41
1
10
132.042282774471
20
-2.57192207526739
30
0
0
SPLINE
5
100
100
AcDbEntity
8
1
62
256
6
ByLayer
370
13
48
1
60
0
100
AcDbSpline
70
4
71
3
72
22
73
18
40
0
40
0
40
0
40
0
40
0.125
40
0.125
40
0.25
40
0.25
40
0.375
40
0.375
40
0.5
40
0.5
40
0.625
40
0.625
40
0.75
40
0.75
40
0.875
40
0.875
40
1
40
1
40
1
40
1
41
1
10
122
20
2.20629242543615
30
0
41
1
10
122.088000330431
20
2.70321561752081
30
0
41
1
10
122.176000660862
20
3.20202943449937
30
0
41
1
10
122.352001321723
20
4.1812909816482
30
0
41
1
10
122.440001652154
20
4.66163417744772
30
0
41
1
10
122.616002313016
20
5.58023021204409
30
0
41
1
10
122.704002643447
20
6.01836330529636
30
0
41
1
10
122.880003304308
20
6.8308438878193
30
0
41
1
10
122.968003634739
20
7.20509245387325
30
0
41
1
10
123.144004295601
20
7.87356116017853
30
0
41
1
10
123.232004626032
20
8.16773392212721
30
0
41
1
10
123.408005286893
20
8.66755957814789
30
0
41
1
10
123.496005617324
20
8.87322651436148
30
0
41
1
10
123.672006278186
20
9.19581467504023
30
0
41
1
10
123.760006608617
20
9.31279764947672
30
0
41
1
10
123.936007269479
20
9.46484895235773
30
0
41
1
10
124.024007599909
20
9.5
30
0
41
1
10
124.11200793034
20
9.5
30
0
0
SPLINE
5
101
100
AcDbEntity
8
1
62
256
6
ByLayer
370
13
48
1
60
0
100
AcDbSpline
70
4
71
3
72
82
73
78
40
0
40
0
40
0
40
0
40
0.0312499999999994
40
0.0312499999999994
40
0.0624999999999987
40
0.0624999999999987
40
0.0937499999999981
40
0.0937499999999981
40
0.124999999999997
40
0.124999999999997
40
0.156249999999997
40
0.156249999999997
40
0.187499999999996
40
0.187499999999996
40
0.218749999999996
40
0.218749999999996
40
0.249999999999995
40
0.249999999999995
40
0.281249999999994
40
0.281249999999994
40
0.312499999999994
40
0.312499999999994
40
0.328124999999993
40
0.328124999999993
40
0.335937499999993
40
0.335937499999993
40
0.343749999999993
40
0.343749999999993
40
0.374999999999993
40
0.374999999999993
40
0.406249999999993
40
0.406249999999993
40
0.437499999999992
40
0.437499999999992
40
0.468749999999992
40
0.468749999999992
40
0.499999999999992
40
0.499999999999992
40
0.531249999999991
40
0.531249999999991
40
0.562499999999991
40
0.562499999999991
40
0.593749999999991
40
0.593749999999991
40
0.62499999999999
40
0.62499999999999
40
0.65624999999999
40
0.65624999999999
40
0.66406249999999
40
0.66406249999999
40
0.67187499999999
40
0.67187499999999
40
0.687499999999991
40
0.687499999999991
40
0.718749999999992
40
0.718749999999992
40
0.749999999999993
40
0.749999999999993
40
0.781249999999993
40
0.781249999999993
40
0.812499999999994
40
0.812499999999994
40
0.843749999999995
40
0.843749999999995
40
0.874999999999996
40
0.874999999999996
40
0.906249999999997
40
0.906249999999997
40
0.937499999999998
40
0.937499999999998
40
0.968749999999999
40
0.968749999999999
40
0.984374999999999
40
0.984374999999999
40
0.9921875
40
0.9921875
40
1
40
1
40
1
40
1
41
1
10
124.478211547816
20
9.5
30
0
41
1
10
124.557003956427
20
9.5
30
0
41
1
10
124.635796365038
20
9.47184442568457
30
0
41
1
10
124.793381182259
20
9.3508679883553
30
0
41
1
10
124.872173590871
20
9.25799904544033
30
0
41
1
10
125.029758408093
20
9.00202619320413
30
0
41
1
10
125.108550816703
20
8.83888270646517
30
0
41
1
10
125.266135633926
20
8.44102862597839
30
0
41
1
10
125.344928042536
20
8.20629984901046
30
0
41
1
10
125.502512859758
20
7.66909608531464
30
0
41
1
10
125.58130526837
20
7.36663340938401
30
0
41
1
10
125.738890085592
20
6.70305251934769
30
0
41
1
10
125.817682494203
20
6.34197742004861
30
0
41
1
10
125.975267311424
20
5.57469171624908
30
0
41
1
10
126.054059720035
20
5.16854516493413
30
0
41
1
10
126.211644537257
20
4.32741127363317
30
0
41
1
10
126.290436945869
20
3.89249259216146
30
0
41
1
10
126.44802176309
20
3.01082672827468
30
0
41
1
10
126.526814171702
20
2.56413678932321
30
0
41
1
10
126.684398988924
20
1.67471119312711
30
0
41
1
10
126.763191397535
20
1.2320114561391
30
0
41
1
10
126.881380010451
20
0.580771134814938
30
0
41
1
10
126.920776214757
20
0.365801888642977
30
0
41
1
10
126.979870521215
20
0.0475063192249934
30
0
41
1
10
126.999568623367
20
-0.0575620109670183
30
0
41
1
10
127.038964827673
20
-0.269846561124069
30
0
41
1
10
127.058662929826
20
-0.376677785774405
30
0
41
1
10
127.157153440589
20
-0.913881146834797
30
0
41
1
10
127.2359458492
20
-1.3535236224966
30
0
41
1
10
127.393530666423
20
-2.24028389056065
30
0
41
1
10
127.472323075034
20
-2.68737149029843
30
0
41
1
10
127.629907892255
20
-3.57382200663798
30
0
41
1
10
127.708700300866
20
-4.01313223944345
30
0
41
1
10
127.866285118088
20
-4.8671781474649
30
0
41
1
10
127.945077526699
20
-5.28184661642817
30
0
41
1
10
128.102662343921
20
-6.06994675811188
30
0
41
1
10
128.181454752532
20
-6.44331165610024
30
0
41
1
10
128.339039569754
20
-7.13440282975296
30
0
41
1
10
128.417831978365
20
-7.45207967407663
30
0
41
1
10
128.575416795587
20
-8.02146048332884
30
0
41
1
10
128.654209204198
20
-8.27314430747504
30
0
41
1
10
128.81179402142
20
-8.70535444253349
30
0
41
1
10
128.890586430031
20
-8.88589212309438
30
0
41
1
10
129.048171247253
20
-9.17590501761757
30
0
41
1
10
129.126963655864
20
-9.28541576620853
30
0
41
1
10
129.284548473086
20
-9.43801007713876
30
0
41
1
10
129.363340881697
20
-9.48114083710402
30
0
41
1
10
129.461831392461
20
-9.49846475642934
30
0
41
1
10
129.481529494614
20
-9.50010608934468
30
0
41
1
10
129.520925698919
20
-9.49988331215602
30
0
41
1
10
129.540623801072
20
-9.49801488141486
30
0
41
1
10
129.59971810753
20
-9.48692559046236
30
0
41
1
10
129.639114311836
20
-9.47221636271652
30
0
41
1
10
129.757302924752
20
-9.40457131226842
30
0
41
1
10
129.836095333363
20
-9.32801178900323
30
0
41
1
10
129.993680150585
20
-9.10566458422579
30
0
41
1
10
130.072472559196
20
-8.9598340636966
30
0
41
1
10
130.230057376418
20
-8.59647933182339
30
0
41
1
10
130.308849785029
20
-8.37893068223894
30
0
41
1
10
130.466434602251
20
-7.87466751736616
30
0
41
1
10
130.545227010862
20
-7.58795750852417
30
0
41
1
10
130.702811828084
20
-6.95322736967461
30
0
41
1
10
130.781604236695
20
-6.6052434413987
30
0
41
1
10
130.939189053917
20
-5.86053942422578
30
0
41
1
10
131.017981462528
20
-5.46387967589408
30
0
41
1
10
131.17556627975
20
-4.6376290420456
30
0
41
1
10
131.254358688361
20
-4.20810729996623
30
0
41
1
10
131.411943505583
20
-3.33316228292864
30
0
41
1
10
131.490735914194
20
-2.88780022170568
30
0
41
1
10
131.648320731416
20
-1.99741062122993
30
0
41
1
10
131.727113140027
20
-1.55242463167764
30
0
41
1
10
131.845301752944
20
-0.895593324349363
30
0
41
1
10
131.884697957249
20
-0.678401800051859
30
0
41
1
10
131.943792263707
20
-0.356312571038529
30
0
41
1
10
131.96349036586
20
-0.249564188283614
30
0
41
1
10
132.002886570166
20
-0.037454951339015
30
0
41
1
10
132.022584672318
20
0.0676220124450992
30
0
41
1
10
132.042282774471
20
0.173807886299215
30
0
0
SPLINE
5
102
100
AcDbEntity
8
1
62
256
6
ByLayer
370
13
48
1
60
0
100
AcDbSpline
70
4
71
3
72
8
73
4
40
0
40
0
40
0
40
0
40
1
40
1
40
1
40
1
41
1
10
132.042282774471
20
6.41647670989315
30
0
41
1
10
133.194855182981
20
4.28572563370909
30
0
41
1
10
134.34742759149
20
2.1468872619736
30
0
41
1
10
135.5
20
2.84E-14
30
0
0
SPLINE
5
103
100
AcDbEntity
8
1
62
256
6
ByLayer
370
13
48
1
60
0
100
AcDbSpline
70
4
71
3
72
8
73
4
40
0
40
0
40
0
40
0
40
1
40
1
40
1
40
1
41
1
10
132.042282774471
20
-3.70568504877161
30
0
41
1
10
133.194855182981
20
-2.46037462855833
30
0
41
1
10
134.34742759149
20
-1.22513891498826
30
0
41
1
10
135.5
20
2.84E-14
30
0
0
SPLINE
5
104
100
AcDbEntity
8
1
62
256
6
ByLayer
370
13
48
1
60
0
100
AcDbSpline
70
4
71
3
72
8
73
4
40
0
40
0
40
0
40
0
40
1
40
1
40
1
40
1
41
1
10
132.042282774471
20
2.8536568655243
30
0
41
1
10
133.194855182981
20
1.89199413875019
30
0
41
1
10
134.34742759149
20
0.940769518095948
30
0
41
1
10
135.5
20
1.421E-13
30
0
0
SPLINE
5
105
100
AcDbEntity
8
1
62
256
6
ByLayer
370
13
48
1
60
0
100
AcDbSpline
70
4
71
3
72
8
73
4
40
0
40
0
40
0
40
0
40
1
40
1
40
1
40
1
41
1
10
132.042282774471
20
-8.42724635113032
30
0
41
1
10
133.194855182981
20
-5.62321869697584
30
0
41
1
10
134.34742759149
20
-2.81411977745341
30
0
41
1
10
135.5
20
6.537E-13
30
0
0
SPLINE
5
106
100
AcDbEntity
8
1
62
256
6
ByLayer
370
13
48
1
60
0
100
AcDbSpline
70
4
71
3
72
8
73
4
40
0
40
0
40
0
40
0
40
1
40
1
40
1
40
1
41
1
10
132.042282774471
20
-7.80438554763305
30
0
41
1
10
133.194855182981
20
-5.20916693604622
30
0
41
1
10
134.34742759149
20
-2.60768952312063
30
0
41
1
10
135.5
20
-4.263E-13
30
0
0
SPLINE
5
107
100
AcDbEntity
8
1
62
256
6
ByLayer
370
13
48
1
60
0
100
AcDbSpline
70
4
71
3
72
8
73
4
40
0
40
0
40
0
40
0
40
1
40
1
40
1
40
1
41
1
10
132.042282774471
20
-7.49078961338387
30
0
41
1
10
133.194855182981
20
-4.98712551594514
30
0
41
1
10
134.34742759149
20
-2.49018073184328
30
0
41
1
10
135.5
20
8.53E-14
30
0
0
SPLINE
5
108
100
AcDbEntity
8
1
62
256
6
ByLayer
370
13
48
1
60
0
100
AcDbSpline
70
4
71
3
72
8
73
4
40
0
40
0
40
0
40
0
40
1
40
1
40
1
40
1
41
1
10
132.042282774471
20
-3.07375960711184
30
0
41
1
10
133.194855182981
20
-2.05953353715108
30
0
41
1
10
134.34742759149
20
-1.03494085592851
30
0
41
1
10
135.5
20
-1.705E-13
30
0
0
SPLINE
5
109
100
AcDbEntity
8
1
62
256
6
ByLayer
370
13
48
1
60
0
100
AcDbSpline
70
4
71
3
72
8
73
4
40
0
40
0
40
0
40
0
40
1
40
1
40
1
40
1
41
1
10
132.042282774471
20
9.01294060925133
30
0
41
1
10
133.194855182981
20
6.01208803525154
30
0
41
1
10
134.34742759149
20
3.00775653245736
30
0
41
1
10
135.5
20
-2.84E-14
30
0
0
SPLINE
5
10A
100
AcDbEntity
8
1
62
256
6
ByLayer
370
13
48
1
60
0
100
AcDbSpline
70
4
71
3
72
8
73
4
40
0
40
0
40
0
40
0
40
1
40
1
40
1
40
1
41
1
10
132.042282774471
20
-6.19407852079303
30
0
41
1
10
133.194855182981
20
-4.13768767417056
30
0
41
1
10
134.34742759149
20
-2.07298247483965
30
0
41
1
10
135.5
20
5.68E-14
30
0
0
SPLINE
5
10B
100
AcDbEntity
8
1
62
256
6
ByLayer
370
13
48
1
60
0
100
AcDbSpline
70
4
71
3
72
8
73
4
40
0
40
0
40
0
40
0
40
1
40
1
40
1
40
1
41
1
10
132.042282774471
20
7.2516087719128
30
0
41
1
10
133.194855182981
20
4.84147931639114
30
0
41
1
10
134.34742759149
20
2.42426192853228
30
0
41
1
10
135.5
20
2.84E-14
30
0
0
SPLINE
5
10C
100
AcDbEntity
8
1
62
256
6
ByLayer
370
13
48
1
60
0
100
AcDbSpline
70
4
71
3
72
8
73
4
40
0
40
0
40
0
40
0
40
1
40
1
40
1
40
1
41
1
10
132.042282774471
20
5.03763575010379
30
0
41
1
10
133.194855182981
20
3.34914063528339
30
0
41
1
10
134.34742759149
20
1.66991869892226
30
0
41
1
10
135.5
20
2.842E-13
30
0
0
SPLINE
5
10D
100
AcDbEntity
8
1
62
256
6
ByLayer
370
13
48
1
60
0
100
AcDbSpline
70
4
71
3
72
8
73
4
40
0
40
0
40
0
40
0
40
1
40
1
40
1
40
1
41
1
10
132.042282774471
20
8.8318323735588
30
0
41
1
10
133.194855182981
20
5.88385445358424
30
0
41
1
10
134.34742759149
20
2.93989273850423
30
0
41
1
10
135.5
20
4.832E-13
30
0
0
SPLINE
5
10E
100
AcDbEntity
8
1
62
256
6
ByLayer
370
13
48
1
60
0
100
AcDbSpline
70
4
71
3
72
8
73
4
40
0
40
0
40
0
40
0
40
1
40
1
40
1
40
1
41
1
10
132.042282774471
20
-8.71797216817009
30
0
41
1
10
133.194855182981
20
-5.80763104393964
30
0
41
1
10
134.34742759149
20
-2.90162295816816
30
0
41
1
10
135.5
20
8.53E-14
30
0
0
SPLINE
5
10F
100
AcDbEntity
8
1
62
256
6
ByLayer
370
13
48
1
60
0
100
AcDbSpline
70
4
71
3
72
8
73
4
40
0
40
0
40
0
40
0
40
1
40
1
40
1
40
1
41
1
10
132.042282774471
20
1.68377131421175
30
0
41
1
10
133.194855182981
20
1.11173812501741
30
0
41
1
10
134.34742759149
20
0.550477686615125
30
0
41
1
10
135.5
20
8.53E-14
30
0
0
SPLINE
5
110
100
AcDbEntity
8
1
62
256
6
ByLayer
370
13
48
1
60
0
100
AcDbSpline
70
4
71
3
72
8
73
4
40
0
40
0
40
0
40
0
40
1
40
1
40
1
40
1
41
1
10
132.042282774471
20
8.31780704197882
30
0
41
1
10
133.194855182981
20
5.53991489128802
30
0
41
1
10
134.34742759149
20
2.76729598016783
30
0
41
1
10
135.5
20
4.547E-13
30
0
0
SPLINE
5
111
100
AcDbEntity
8
1
62
256
6
ByLayer
370
13
48
1
60
0
100
AcDbSpline
70
4
71
3
72
8
73
4
40
0
40
0
40
0
40
0
40
1
40
1
40
1
40
1
41
1
10
132.042282774471
20
-1.39033249499604
30
0
41
1
10
133.194855182981
20
-0.916056787380143
30
0
41
1
10
134.34742759149
20
-0.452609873542684
30
0
41
1
10
135.5
20
2.84E-14
30
0
0
SPLINE
5
112
100
AcDbEntity
8
1
62
256
6
ByLayer
370
13
48
1
60
0
100
AcDbSpline
70
4
71
3
72
8
73
4
40
0
40
0
40
0
40
0
40
1
40
1
40
1
40
1
41
1
10
132.042282774471
20
9.32053191447829
30
0
41
1
10
133.194855182981
20
6.21580619574343
30
0
41
1
10
134.34742759149
20
3.1089436476326
30
0
41
1
10
135.5
20
-2.84E-14
30
0
0
SPLINE
5
113
100
AcDbEntity
8
1
62
256
6
ByLayer
370
13
48
1
60
0
100
AcDbSpline
70
4
71
3
72
8
73
4
40
0
40
0
40
0
40
0
40
1
40
1
40
1
40
1
41
1
10
132.042282774471
20
-9.49631753473784
30
0
41
1
10
133.194855182981
20
-6.3305735162775
30
0
41
1
10
134.34742759149
20
-3.16511541596563
30
0
41
1
10
135.5
20
1.137E-13
30
0
0
SPLINE
5
114
100
AcDbEntity
8
1
62
256
6
ByLayer
370
13
48
1
60
0
100
AcDbSpline
70
4
71
3
72
8
73
4
40
0
40
0
40
0
40
0
40
1
40
1
40
1
40
1
41
1
10
132.042282774471
20
9.42769296584189
30
0
41
1
10
133.194855182981
20
6.28378027931919
30
0
41
1
10
134.34742759149
20
3.1411971741291
30
0
41
1
10
135.5
20
5.116E-13
30
0
0
SPLINE
5
115
100
AcDbEntity
8
1
62
256
6
ByLayer
370
13
48
1
60
0
100
AcDbSpline
70
4
71
3
72
8
73
4
40
0
40
0
40
0
40
0
40
1
40
1
40
1
40
1
41
1
10
132.042282774471
20
9.203788779413
30
0
41
1
10
133.194855182981
20
6.13314628639566
30
0
41
1
10
134.34742759149
20
3.06519835889301
30
0
41
1
10
135.5
20
5.116E-13
30
0
0
SPLINE
5
116
100
AcDbEntity
8
1
62
256
6
ByLayer
370
13
48
1
60
0
100
AcDbSpline
70
4
71
3
72
8
73
4
40
0
40
0
40
0
40
0
40
1
40
1
40
1
40
1
41
1
10
132.042282774471
20
-9.25844699035699
30
0
41
1
10
133.194855182981
20
-6.17475141913121
30
0
41
1
10
134.34742759149
20
-3.08858396877224
30
0
41
1
10
135.5
20
-5.116E-13
30
0
0
SPLINE
5
117
100
AcDbEntity
8
1
62
256
6
ByLayer
370
13
48
1
60
0
100
AcDbSpline
70
4
71
3
72
8
73
4
40
0
40
0
40
0
40
0
40
1
40
1
40
1
40
1
41
1
10
132.042282774471
20
5.47812915254229
30
0
41
1
10
133.194855182981
20
3.66103173443511
30
0
41
1
10
134.34742759149
20
1.83497774986276
30
0
41
1
10
135.5
20
-5.68E-14
30
0
0
SPLINE
5
118
100
AcDbEntity
8
1
62
256
6
ByLayer
370
13
48
1
60
0
100
AcDbSpline
70
4
71
3
72
8
73
4
40
0
40
0
40
0
40
0
40
1
40
1
40
1
40
1
41
1
10
132.042282774471
20
0.486800604162028
30
0
41
1
10
133.194855182981
20
0.313598682973406
30
0
41
1
10
134.34742759149
20
0.151330866694138
30
0
41
1
10
135.5
20
2.84E-14
30
0
0
SPLINE
5
119
100
AcDbEntity
8
1
62
256
6
ByLayer
370
13
48
1
60
0
100
AcDbSpline
70
4
71
3
72
8
73
4
40
0
40
0
40
0
40
0
40
1
40
1
40
1
40
1
41
1
10
132.042282774471
20
7.97009139761687
30
0
41
1
10
133.194855182981
20
5.31935292432649
30
0
41
1
10
134.34742759149
20
2.66263989844899
30
0
41
1
10
135.5
20
5.68E-14
30
0
0
SPLINE
5
11A
100
AcDbEntity
8
1
62
256
6
ByLayer
370
13
48
1
60
0
100
AcDbSpline
70
4
71
3
72
8
73
4
40
0
40
0
40
0
40
0
40
1
40
1
40
1
40
1
41
1
10
132.042282774471
20
6.01659758168273
30
0
41
1
10
133.194855182981
20
4.00259144796431
30
0
41
1
10
134.34742759149
20
1.99704694875226
30
0
41
1
10
135.5
20
3.411E-13
30
0
0
SPLINE
5
11B
100
AcDbEntity
8
1
62
256
6
ByLayer
370
13
48
1
60
0
100
AcDbSpline
70
4
71
3
72
8
73
4
40
0
40
0
40
0
40
0
40
1
40
1
40
1
40
1
41
1
10
132.042282774471
20
3.9776384698271
30
0
41
1
10
133.194855182981
20
2.64181551973601
30
0
41
1
10
134.34742759149
20
1.31592812363471
30
0
41
1
10
135.5
20
2.274E-13
30
0
0
SPLINE
5
11C
100
AcDbEntity
8
1
62
256
6
ByLayer
370
13
48
1
60
0
100
AcDbSpline
70
4
71
3
72
8
73
4
40
0
40
0
40
0
40
0
40
1
40
1
40
1
40
1
41
1
10
132.042282774471
20
-5.78355776778153
30
0
41
1
10
133.194855182981
20
-3.84701869213225
30
0
41
1
10
134.34742759149
20
-1.91915459567409
30
0
41
1
10
135.5
20
5.68E-14
30
0
0
SPLINE
5
11D
100
AcDbEntity
8
1
62
256
6
ByLayer
370
13
48
1
60
0
100
AcDbSpline
70
4
71
3
72
8
73
4
40
0
40
0
40
0
40
0
40
1
40
1
40
1
40
1
41
1
10
132.042282774471
20
6.89877637676369
30
0
41
1
10
133.194855182981
20
4.59165654281458
30
0
41
1
10
134.34742759149
20
2.29205068549902
30
0
41
1
10
135.5
20
3.695E-13
30
0
0
SPLINE
5
11E
100
AcDbEntity
8
1
62
256
6
ByLayer
370
13
48
1
60
0
100
AcDbSpline
70
4
71
3
72
8
73
4
40
0
40
0
40
0
40
0
40
1
40
1
40
1
40
1
41
1
10
132.042282774471
20
-8.17009298107754
30
0
41
1
10
133.194855182981
20
-5.44114140185113
30
0
41
1
10
134.34742759149
20
-2.71776080596374
30
0
41
1
10
135.5
20
8.53E-14
30
0
0
SPLINE
5
11F
100
AcDbEntity
8
1
62
256
6
ByLayer
370
13
48
1
60
0
100
AcDbSpline
70
4
71
3
72
8
73
4
40
0
40
0
40
0
40
0
40
1
40
1
40
1
40
1
41
1
10
132.042282774471
20
-5.23253570907679
30
0
41
1
10
133.194855182981
20
-3.49749599714386
30
0
41
1
10
134.34742759149
20
-1.7533069827193
30
0
41
1
10
135.5
20
-2.842E-13
30
0
0
SPLINE
5
120
100
AcDbEntity
8
1
62
256
6
ByLayer
370
13
48
1
60
0
100
AcDbSpline
70
4
71
3
72
8
73
4
40
0
40
0
40
0
40
0
40
1
40
1
40
1
40
1
41
1
10
132.042282774471
20
-9.12561398570534
30
0
41
1
10
133.194855182981
20
-6.0806990869167
30
0
41
1
10
134.34742759149
20
-3.03880958041586
30
0
41
1
10
135.5
20
-5.116E-13
30
0
0
SPLINE
5
121
100
AcDbEntity
8
1
62
256
6
ByLayer
370
13
48
1
60
0
100
AcDbSpline
70
4
71
3
72
8
73
4
40
0
40
0
40
0
40
0
40
1
40
1
40
1
40
1
41
1
10
132.042282774471
20
-7.05598333621441
30
0
41
1
10
133.194855182981
20
-4.71132047439863
30
0
41
1
10
134.34742759149
20
-2.35931195440133
30
0
41
1
10
135.5
20
-3.979E-13
30
0
0
SPLINE
5
122
100
AcDbEntity
8
1
62
256
6
ByLayer
370
13
48
1
60
0
100
AcDbSpline
70
4
71
3
72
8
73
4
40
0
40
0
40
0
40
0
40
1
40
1
40
1
40
1
41
1
10
132.042282774471
20
-4.78309183490441
30
0
41
1
10
133.194855182981
20
-3.17926752165081
30
0
41
1
10
134.34742759149
20
-1.58489406458827
30
0
41
1
10
135.5
20
5.68E-14
30
0
0
SPLINE
5
123
100
AcDbEntity
8
1
62
256
6
ByLayer
370
13
48
1
60
0
100
AcDbSpline
70
4
71
3
72
8
73
4
40
0
40
0
40
0
40
0
40
1
40
1
40
1
40
1
41
1
10
132.042282774471
20
3.35358213568708
30
0
41
1
10
133.194855182981
20
2.24596593751414
30
0
41
1
10
134.34742759149
20
1.12809852274728
30
0
41
1
10
135.5
20
-2.84E-14
30
0
0
SPLINE
5
124
100
AcDbEntity
8
1
62
256
6
ByLayer
370
13
48
1
60
0
100
AcDbSpline
70
4
71
3
72
8
73
4
40
0
40
0
40
0
40
0
40
1
40
1
40
1
40
1
41
1
10
132.042282774471
20
1.01411989506767
30
0
41
1
10
133.194855182981
20
0.686966802300674
30
0
41
1
10
134.34742759149
20
0.348924794816042
30
0
41
1
10
135.5
20
0
30
0
0
SPLINE
5
125
100
AcDbEntity
8
1
62
256
6
ByLayer
370
13
48
1
60
0
100
AcDbSpline
70
4
71
3
72
8
73
4
40
0
40
0
40
0
40
0
40
1
40
1
40
1
40
1
41
1
10
132.042282774471
20
8.5603670697804
30
0
41
1
10
133.194855182981
20
5.71165937886138
30
0
41
1
10
134.34742759149
20
2.85818662180577
30
0
41
1
10
135.5
20
-8.53E-14
30
0
0
SPLINE
5
126
100
AcDbEntity
8
1
62
256
6
ByLayer
370
13
48
1
60
0
100
AcDbSpline
70
4
71
3
72
8
73
4
40
0
40
0
40
0
40
0
40
1
40
1
40
1
40
1
41
1
10
132.042282774471
20
9.47819306928184
30
0
41
1
10
133.194855182981
20
6.31953684838899
30
0
41
1
10
134.34742759149
20
3.16012027059298
30
0
41
1
10
135.5
20
0
30
0
0
SPLINE
5
127
100
AcDbEntity
8
1
62
256
6
ByLayer
370
13
48
1
60
0
100
AcDbSpline
70
4
71
3
72
8
73
4
40
0
40
0
40
0
40
0
40
1
40
1
40
1
40
1
41
1
10
132.042282774471
20
4.45166036612261
30
0
41
1
10
133.194855182981
20
2.97744644959596
30
0
41
1
10
134.34742759149
20
1.49355077108967
30
0
41
1
10
135.5
20
-5.68E-14
30
0
0
SPLINE
5
128
100
AcDbEntity
8
1
62
256
6
ByLayer
370
13
48
1
60
0
100
AcDbSpline
70
4
71
3
72
8
73
4
40
0
40
0
40
0
40
0
40
1
40
1
40
1
40
1
41
1
10
132.042282774471
20
-0.189631506927668
30
0
41
1
10
133.194855182981
20
-0.115473748356464
30
0
41
1
10
134.34742759149
20
-0.0522628899951485
30
0
41
1
10
135.5
20
0
30
0
0
SPLINE
5
129
100
AcDbEntity
8
1
62
256
6
ByLayer
370
13
48
1
60
0
100
AcDbSpline
70
4
71
3
72
8
73
4
40
0
40
0
40
0
40
0
40
1
40
1
40
1
40
1
41
1
10
132.042282774471
20
-9.45341612600029
30
0
41
1
10
133.194855182981
20
-6.303360420606
30
0
41
1
10
134.34742759149
20
-3.15220287259481
30
0
41
1
10
135.5
20
-5.116E-13
30
0
0
SPLINE
5
12A
100
AcDbEntity
8
1
62
256
6
ByLayer
370
13
48
1
60
0
100
AcDbSpline
70
4
71
3
72
8
73
4
40
0
40
0
40
0
40
0
40
1
40
1
40
1
40
1
41
1
10
132.042282774471
20
-2.56866858350438
30
0
41
1
10
133.194855182981
20
-1.70190412964436
30
0
41
1
10
134.34742759149
20
-0.845676171068618
30
0
41
1
10
135.5
20
2.84E-14
30
0
0
SPLINE
5
12B
100
AcDbEntity
8
1
62
256
6
ByLayer
370
13
48
1
60
0
100
AcDbSpline
70
4
71
3
72
8
73
4
40
0
40
0
40
0
40
0
40
1
40
1
40
1
40
1
41
1
10
132.042282774471
20
-4.18682228637476
30
0
41
1
10
133.194855182981
20
-2.80104357172129
30
0
41
1
10
134.34742759149
20
-1.40542778054555
30
0
41
1
10
135.5
20
-2.274E-13
30
0
0
SPLINE
5
12C
100
AcDbEntity
8
1
62
256
6
ByLayer
370
13
48
1
60
0
100
AcDbSpline
70
4
71
3
72
8
73
4
40
0
40
0
40
0
40
0
40
1
40
1
40
1
40
1
41
1
10
132.042282774471
20
-1.91125240638931
30
0
41
1
10
133.194855182981
20
-1.28489382974024
30
0
41
1
10
134.34742759149
20
-0.647805864480915
30
0
41
1
10
135.5
20
-1.137E-13
30
0
0
SPLINE
5
12D
100
AcDbEntity
8
1
62
256
6
ByLayer
370
13
48
1
60
0
100
AcDbSpline
70
4
71
3
72
8
73
4
40
0
40
0
40
0
40
0
40
1
40
1
40
1
40
1
41
1
10
132.042282774471
20
-6.69098934445853
30
0
41
1
10
133.194855182981
20
-4.45288668936931
30
0
41
1
10
134.34742759149
20
-2.22254359068711
30
0
41
1
10
135.5
20
8.53E-14
30
0
0
SPLINE
5
12E
100
AcDbEntity
8
1
62
256
6
ByLayer
370
13
48
1
60
0
100
AcDbSpline
70
4
71
3
72
8
73
4
40
0
40
0
40
0
40
0
40
1
40
1
40
1
40
1
41
1
10
132.042282774471
20
-0.718000784273642
30
0
41
1
10
133.194855182981
20
-0.48958530997632
30
0
41
1
10
134.34742759149
20
-0.25025026275074
30
0
41
1
10
135.5
20
-2.84E-14
30
0
0
SPLINE
5
12F
100
AcDbEntity
8
1
62
256
6
ByLayer
370
13
48
1
60
0
100
AcDbSpline
70
4
71
3
72
8
73
4
40
0
40
0
40
0
40
0
40
1
40
1
40
1
40
1
41
1
10
132.042282774471
20
7.66998140024057
30
0
41
1
10
133.194855182981
20
5.10686021403859
30
0
41
1
10
134.34742759149
20
2.5501844767096
30
0
41
1
10
135.5
20
4.263E-13
30
0
0
SPLINE
5
130
100
AcDbEntity
8
1
62
256
6
ByLayer
370
13
48
1
60
0
100
AcDbSpline
70
4
71
3
72
8
73
4
40
0
40
0
40
0
40
0
40
1
40
1
40
1
40
1
41
1
10
132.042282774471
20
-9.38646110416789
30
0
41
1
10
133.194855182981
20
-6.25595295607297
30
0
41
1
10
134.34742759149
20
-3.12711388761031
30
0
41
1
10
135.5
20
1.137E-13
30
0
0
SPLINE
5
131
100
AcDbEntity
8
1
62
256
6
ByLayer
370
13
48
1
60
0
100
AcDbSpline
70
4
71
3
72
8
73
4
40
0
40
0
40
0
40
0
40
1
40
1
40
1
40
1
41
1
10
132.042282774471
20
-8.91454640287287
30
0
41
1
10
133.194855182981
20
-5.94681531727244
30
0
41
1
10
134.34742759149
20
-2.97528207868993
30
0
41
1
10
135.5
20
6.821E-13
30
0
0
SPLINE
5
132
100
AcDbEntity
8
1
62
256
6
ByLayer
370
13
48
1
60
0
100
AcDbSpline
70
4
71
3
72
8
73
4
40
0
40
0
40
0
40
0
40
1
40
1
40
1
40
1
41
1
10
132.042282774471
20
2.20155815637426
30
0
41
1
10
133.194855182981
20
1.47835679951837
30
0
41
1
10
134.34742759149
20
0.744499672605826
30
0
41
1
10
135.5
20
5.68E-14
30
0
0
LINE
5
7D
100
AcDbEntity
8
4
62
256
6
ByLayer
370
18
48
0.05
60
0
100
AcDbLine
10
-5
20
0
30
0
11
140.5
21
0
31
0
39
0
210
0
220
0
230
1
0
LINE
5
7F
100
AcDbEntity
8
81
62
256
6
ByLayer
370
18
48
1
60
0
100
AcDbLine
10
135.5
20
0
30
0
11
140.5
21
0
31
0
39
0
210
0
220
0
230
1
0
LINE
5
80
100
AcDbEntity
8
SK4
62
256
6
ByLayer
370
18
48
0.05
60
0
100
AcDbLine
10
-61
20
0
30
0
11
140.5
21
0
31
0
39
0
210
0
220
0
230
1
0
LINE
5
82
100
AcDbEntity
8
80
62
256
6
ByLayer
370
18
48
1
60
0
100
AcDbLine
10
0
20
0
30
0
11
-5
21
0
31
0
39
0
210
0
220
0
230
1
0
LINE
5
83
100
AcDbEntity
8
1
62
256
6
ByLayer
370
18
48
1
60
0
100
AcDbLine
10
43.758228
20
-9.2
30
0
11
86.993127
21
-9.2
31
0
39
0
210
0
220
0
230
1
0
LINE
5
84
100
AcDbEntity
8
1
62
256
6
ByLayer
370
18
48
1
60
0
100
AcDbLine
10
86.993127
20
9.2
30
0
11
43.758228
21
9.2
31
0
39
0
210
0
220
0
230
1
0
LINE
5
85
100
AcDbEntity
8
1
62
256
6
ByLayer
370
18
48
1
60
0
100
AcDbLine
10
135.5
20
0
30
0
11
132.042283
21
9.5
31
0
39
0
210
0
220
0
230
1
0
LINE
5
86
100
AcDbEntity
8
1
62
256
6
ByLayer
370
18
48
1
60
0
100
AcDbLine
10
132.042283
20
-9.5
30
0
11
135.5
21
0
31
0
39
0
210
0
220
0
230
1
0
LINE
5
87
100
AcDbEntity
8
1
62
256
6
ByLayer
370
18
48
1
60
0
100
AcDbLine
10
7.374448
20
10.066432
30
0
11
0
21
12.5
31
0
39
0
210
0
220
0
230
1
0
LINE
5
88
100
AcDbEntity
8
1
62
256
6
ByLayer
370
18
48
1
60
0
100
AcDbLine
10
0
20
-12.5
30
0
11
7.374448
21
-10.066432
31
0
39
0
210
0
220
0
230
1
0
LINE
5
89
100
AcDbEntity
8
1
62
256
6
ByLayer
370
18
48
1
60
0
100
AcDbLine
10
135.5
20
0
30
0
11
132.042283
21
9.5
31
0
39
0
210
0
220
0
230
1
0
LINE
5
8A
100
AcDbEntity
8
1
62
256
6
ByLayer
370
18
48
1
60
0
100
AcDbLine
10
132.042283
20
-9.5
30
0
11
135.5
21
0
31
0
39
0
210
0
220
0
230
1
0
LINE
5
8B
100
AcDbEntity
8
1
62
256
6
ByLayer
370
18
48
1
60
0
100
AcDbLine
10
122
20
-9.5
30
0
11
132.042283
21
-9.5
31
0
39
0
210
0
220
0
230
1
0
LINE
5
8C
100
AcDbEntity
8
SK1
62
256
6
ByLayer
370
18
48
1
60
0
100
AcDbLine
10
-56
20
-11.5
30
0
11
-55
21
-12.5
31
0
39
0
210
0
220
0
230
1
0
LINE
5
8E
100
AcDbEntity
8
SK1
62
256
6
ByLayer
370
18
48
1
60
0
100
AcDbLine
10
-55
20
12.5
30
0
11
-56
21
11.5
31
0
39
0
210
0
220
0
230
1
0
LINE
5
8F
100
AcDbEntity
8
SK1
62
256
6
ByLayer
370
18
48
1
60
0
100
AcDbLine
10
-55
20
-12.5
30
0
11
0
21
-12.5
31
0
39
0
210
0
220
0
230
1
0
LINE
5
90
100
AcDbEntity
8
SK1
62
256
6
ByLayer
370
18
48
1
60
0
100
AcDbLine
10
0
20
12.5
30
0
11
-55
21
12.5
31
0
39
0
210
0
220
0
230
1
0
LINE
5
91
100
AcDbEntity
8
1
62
256
6
ByLayer
370
18
48
1
60
0
100
AcDbLine
10
0
20
12.5
30
0
11
0
21
-12.5
31
0
39
0
210
0
220
0
230
1
0
LINE
5
92
100
AcDbEntity
8
1
62
256
6
ByLayer
370
18
48
1
60
0
100
AcDbLine
10
132.042283
20
9.5
30
0
11
132.042283
21
9.19834
31
0
39
0
210
0
220
0
230
1
0
LINE
5
93
100
AcDbEntity
8
1
62
256
6
ByLayer
370
18
48
1
60
0
100
AcDbLine
10
132.042283
20
-9.5
30
0
11
132.042283
21
-1.357713
31
0
39
0
210
0
220
0
230
1
0
LINE
5
94
100
AcDbEntity
8
1
62
256
6
ByLayer
370
18
48
1
60
0
100
AcDbLine
10
10
20
-4.320257
30
0
11
10
21
9.083776
31
0
39
0
210
0
220
0
230
1
0
LINE
5
95
100
AcDbEntity
8
SK1
62
256
6
ByLayer
370
13
48
1
60
0
100
AcDbLine
10
-15.162813
20
-7.237775
30
0
11
-15.162813
21
7.237775
31
0
39
0
210
0
220
0
230
1
0
LINE
5
96
100
AcDbEntity
8
SK1
62
256
6
ByLayer
370
13
48
1
60
0
100
AcDbLine
10
-51.386002
20
5.000227
30
0
11
-51.386002
21
-5.000227
31
0
39
0
210
0
220
0
230
1
0
LINE
5
97
100
AcDbEntity
8
SK1
62
256
6
ByLayer
370
18
48
1
60
0
100
AcDbLine
10
-56
20
-11.5
30
0
11
-56
21
11.5
31
0
39
0
210
0
220
0
230
1
0
LINE
5
98
100
AcDbEntity
8
SK1
62
256
6
ByLayer
370
13
48
1
60
0
100
AcDbLine
10
-52.500329
20
-3.620591
30
0
11
-52.500329
21
3.620591
31
0
39
0
210
0
220
0
230
1
0
LINE
5
99
100
AcDbEntity
8
SK1
62
256
6
ByLayer
370
18
48
1
60
0
100
AcDbLine
10
-55
20
-12.5
30
0
11
-55
21
12.5
31
0
39
0
210
0
220
0
230
1
0
LINE
5
9A
100
AcDbEntity
8
SK1
62
256
6
ByLayer
370
18
48
1
60
0
100
AcDbLine
10
0
20
12.5
30
0
11
0
21
-12.5
31
0
39
0
210
0
220
0
230
1
0
LINE
5
9B
100
AcDbEntity
8
SK1
62
256
6
ByLayer
370
13
48
1
60
0
100
AcDbLine
10
-14.015776
20
6.592429
30
0
11
-14.015776
21
-6.592429
31
0
39
0
210
0
220
0
230
1
0
LINE
5
9C
100
AcDbEntity
8
1
62
256
6
ByLayer
370
18
48
1
60
0
100
AcDbLine
10
132.042283
20
9.5
30
0
11
132.042283
21
-9.5
31
0
39
0
210
0
220
0
230
1
0
LINE
5
9D
100
AcDbEntity
8
1
62
256
6
ByLayer
370
18
48
1
60
0
100
AcDbLine
10
132.042283
20
9.5
30
0
11
132.042283
21
-9.5
31
0
39
0
210
0
220
0
230
1
0
LINE
5
9E
100
AcDbEntity
8
1
62
256
6
ByLayer
370
18
48
1
60
0
100
AcDbLine
10
132.042283
20
9.5
30
0
11
132.042283
21
-9.5
31
0
39
0
210
0
220
0
230
1
0
LINE
5
9F
100
AcDbEntity
8
1
62
256
6
ByLayer
370
18
48
1
60
0
100
AcDbLine
10
122
20
9.5
30
0
11
122
21
-9.5
31
0
39
0
210
0
220
0
230
1
0
LINE
5
A0
100
AcDbEntity
8
1
62
256
6
ByLayer
370
18
48
1
60
0
100
AcDbLine
10
122
20
9.5
30
0
11
122
21
-9.5
31
0
39
0
210
0
220
0
230
1
0
LINE
5
A1
100
AcDbEntity
8
1
62
256
6
ByLayer
370
18
48
1
60
0
100
AcDbLine
10
132.042283
20
9.5
30
0
11
132.042283
21
-9.5
31
0
39
0
210
0
220
0
230
1
0
LINE
5
A2
100
AcDbEntity
8
1
62
256
6
ByLayer
370
18
48
1
60
0
100
AcDbLine
10
122
20
9.5
30
0
11
122
21
-9.5
31
0
39
0
210
0
220
0
230
1
0
LINE
5
A3
100
AcDbEntity
8
1
62
256
6
ByLayer
370
18
48
1
60
0
100
AcDbLine
10
132.042283
20
9.5
30
0
11
132.042283
21
-9.5
31
0
39
0
210
0
220
0
230
1
0
LINE
5
A4
100
AcDbEntity
8
SK2
62
256
6
ByLayer
370
13
48
1
60
0
100
AcDbLine
10
-62.5
20
-12.5
30
0
11
-62.5
21
41.524569
31
0
39
0
210
0
220
0
230
1
0
LINE
5
A6
100
AcDbEntity
8
SK2
62
256
6
ByLayer
370
13
48
1
60
0
100
AcDbLine
10
-57.5875
20
12.5
30
0
11
-64.5
21
12.5
31
0
39
0
210
0
220
0
230
1
0
LINE
5
A7
100
AcDbEntity
8
SK2
62
256
6
ByLayer
370
13
48
1
60
0
100
AcDbLine
10
-57.5875
20
-12.5
30
0
11
-64.5
21
-12.5
31
0
39
0
210
0
220
0
230
1
0
LINE
5
A8
100
AcDbEntity
8
1
62
256
6
ByLayer
370
18
48
1
60
1
100
AcDbLine
10
-62.5
20
12.5
30
0
11
-62.039216
21
9.000002
31
0
39
0
210
0
220
0
230
1
0
LINE
5
A9
100
AcDbEntity
8
1
62
256
6
ByLayer
370
18
48
1
60
1
100
AcDbLine
10
-62.039216
20
9.000002
30
0
11
-62.960784
21
8.999998
31
0
39
0
210
0
220
0
230
1
0
LINE
5
AA
100
AcDbEntity
8
1
62
256
6
ByLayer
370
18
48
1
60
1
100
AcDbLine
10
-62.960784
20
8.999998
30
0
11
-62.5
21
12.5
31
0
39
0
210
0
220
0
230
1
0
LINE
5
AB
100
AcDbEntity
8
1
62
256
6
ByLayer
370
18
48
1
60
1
100
AcDbLine
10
-62.5
20
-12.5
30
0
11
-62.960784
21
-9.000002
31
0
39
0
210
0
220
0
230
1
0
LINE
5
AC
100
AcDbEntity
8
1
62
256
6
ByLayer
370
18
48
1
60
1
100
AcDbLine
10
-62.960784
20
-9.000002
30
0
11
-62.039216
21
-8.999998
31
0
39
0
210
0
220
0
230
1
0
LINE
5
AD
100
AcDbEntity
8
1
62
256
6
ByLayer
370
18
48
1
60
1
100
AcDbLine
10
-62.039216
20
-8.999998
30
0
11
-62.5
21
-12.5
31
0
39
0
210
0
220
0
230
1
0
LINE
5
AE
100
AcDbEntity
8
2
62
256
6
ByLayer
370
13
48
1
60
0
100
AcDbLine
10
143
20
-9.5
30
0
11
143
21
37.774683
31
0
39
0
210
0
220
0
230
1
0
LINE
5
B0
100
AcDbEntity
8
2
62
256
6
ByLayer
370
13
48
1
60
0
100
AcDbLine
10
133.629783
20
9.5
30
0
11
145
21
9.5
31
0
39
0
210
0
220
0
230
1
0
LINE
5
B1
100
AcDbEntity
8
2
62
256
6
ByLayer
370
13
48
1
60
0
100
AcDbLine
10
133.629783
20
-9.5
30
0
11
145
21
-9.5
31
0
39
0
210
0
220
0
230
1
0
LINE
5
B2
100
AcDbEntity
8
1
62
256
6
ByLayer
370
18
48
1
60
1
100
AcDbLine
10
143
20
9.5
30
0
11
143.460784
21
6.000002
31
0
39
0
210
0
220
0
230
1
0
LINE
5
B3
100
AcDbEntity
8
1
62
256
6
ByLayer
370
18
48
1
60
1
100
AcDbLine
10
143.460784
20
6.000002
30
0
11
142.539216
21
5.999998
31
0
39
0
210
0
220
0
230
1
0
LINE
5
B4
100
AcDbEntity
8
1
62
256
6
ByLayer
370
18
48
1
60
1
100
AcDbLine
10
142.539216
20
5.999998
30
0
11
143
21
9.5
31
0
39
0
210
0
220
0
230
1
0
LINE
5
B5
100
AcDbEntity
8
1
62
256
6
ByLayer
370
18
48
1
60
1
100
AcDbLine
10
143
20
-9.5
30
0
11
142.539216
21
-6.000002
31
0
39
0
210
0
220
0
230
1
0
LINE
5
B6
100
AcDbEntity
8
1
62
256
6
ByLayer
370
18
48
1
60
1
100
AcDbLine
10
142.539216
20
-6.000002
30
0
11
143.460784
21
-5.999998
31
0
39
0
210
0
220
0
230
1
0
LINE
5
B7
100
AcDbEntity
8
1
62
256
6
ByLayer
370
18
48
1
60
1
100
AcDbLine
10
143.460784
20
-5.999998
30
0
11
143
21
-9.5
31
0
39
0
210
0
220
0
230
1
0
LINE
5
B8
100
AcDbEntity
8
SK2
62
256
6
ByLayer
370
13
48
1
60
0
100
AcDbLine
10
136.042957
20
-1.491762
30
0
11
142.682423
21
-19.733545
31
0
39
0
210
0
220
0
230
1
0
LINE
5
B9
100
AcDbEntity
8
SK2
62
256
6
ByLayer
370
13
48
1
60
0
100
AcDbLine
10
136.042957
20
1.491762
30
0
11
142.682423
21
19.733545
31
0
39
0
210
0
220
0
230
1
0
LINE
5
BA
100
AcDbEntity
8
1
62
256
6
ByLayer
370
18
48
1
60
1
100
AcDbLine
10
141.998383
20
-17.85416
30
0
11
145.051575
21
-16.082064
31
0
39
0
210
0
220
0
230
1
0
LINE
5
BB
100
AcDbEntity
8
1
62
256
6
ByLayer
370
18
48
1
60
1
100
AcDbLine
10
145.051575
20
-16.082064
30
0
11
145.406196
21
-16.93267
31
0
39
0
210
0
220
0
230
1
0
LINE
5
BC
100
AcDbEntity
8
1
62
256
6
ByLayer
370
18
48
1
60
1
100
AcDbLine
10
145.406196
20
-16.93267
30
0
11
141.998383
21
-17.85416
31
0
39
0
210
0
220
0
230
1
0
LINE
5
BD
100
AcDbEntity
8
1
62
256
6
ByLayer
370
18
48
1
60
1
100
AcDbLine
10
141.998383
20
17.85416
30
0
11
145.406193
21
16.932671
31
0
39
0
210
0
220
0
230
1
0
LINE
5
BE
100
AcDbEntity
8
1
62
256
6
ByLayer
370
18
48
1
60
1
100
AcDbLine
10
145.406193
20
16.932671
30
0
11
145.051579
21
16.082063
31
0
39
0
210
0
220
0
230
1
0
LINE
5
BF
100
AcDbEntity
8
1
62
256
6
ByLayer
370
18
48
1
60
1
100
AcDbLine
10
145.051579
20
16.082063
30
0
11
141.998383
21
17.85416
31
0
39
0
210
0
220
0
230
1
0
LINE
5
137
100
AcDbEntity
8
1
62
256
6
ByLayer
370
18
48
1
60
1
100
AcDbLine
10
-62.5
20
12.5
30
0
11
-62.039216
21
9.000002
31
0
39
0
210
0
220
0
230
1
0
LINE
5
138
100
AcDbEntity
8
1
62
256
6
ByLayer
370
18
48
1
60
1
100
AcDbLine
10
-62.039216
20
9.000002
30
0
11
-62.960784
21
8.999998
31
0
39
0
210
0
220
0
230
1
0
LINE
5
139
100
AcDbEntity
8
1
62
256
6
ByLayer
370
18
48
1
60
1
100
AcDbLine
10
-62.960784
20
8.999998
30
0
11
-62.5
21
12.5
31
0
39
0
210
0
220
0
230
1
0
LINE
5
13B
100
AcDbEntity
8
1
62
256
6
ByLayer
370
18
48
1
60
1
100
AcDbLine
10
-62.5
20
-12.5
30
0
11
-62.960784
21
-9.000002
31
0
39
0
210
0
220
0
230
1
0
LINE
5
13C
100
AcDbEntity
8
1
62
256
6
ByLayer
370
18
48
1
60
1
100
AcDbLine
10
-62.960784
20
-9.000002
30
0
11
-62.039216
21
-8.999998
31
0
39
0
210
0
220
0
230
1
0
LINE
5
13D
100
AcDbEntity
8
1
62
256
6
ByLayer
370
18
48
1
60
1
100
AcDbLine
10
-62.039216
20
-8.999998
30
0
11
-62.5
21
-12.5
31
0
39
0
210
0
220
0
230
1
0
LINE
5
141
100
AcDbEntity
8
1
62
256
6
ByLayer
370
18
48
1
60
1
100
AcDbLine
10
143
20
9.5
30
0
11
143.460784
21
6.000002
31
0
39
0
210
0
220
0
230
1
0
LINE
5
142
100
AcDbEntity
8
1
62
256
6
ByLayer
370
18
48
1
60
1
100
AcDbLine
10
143.460784
20
6.000002
30
0
11
142.539216
21
5.999998
31
0
39
0
210
0
220
0
230
1
0
LINE
5
143
100
AcDbEntity
8
1
62
256
6
ByLayer
370
18
48
1
60
1
100
AcDbLine
10
142.539216
20
5.999998
30
0
11
143
21
9.5
31
0
39
0
210
0
220
0
230
1
0
LINE
5
145
100
AcDbEntity
8
1
62
256
6
ByLayer
370
18
48
1
60
1
100
AcDbLine
10
143
20
-9.5
30
0
11
142.539216
21
-6.000002
31
0
39
0
210
0
220
0
230
1
0
LINE
5
146
100
AcDbEntity
8
1
62
256
6
ByLayer
370
18
48
1
60
1
100
AcDbLine
10
142.539216
20
-6.000002
30
0
11
143.460784
21
-5.999998
31
0
39
0
210
0
220
0
230
1
0
LINE
5
147
100
AcDbEntity
8
1
62
256
6
ByLayer
370
18
48
1
60
1
100
AcDbLine
10
143.460784
20
-5.999998
30
0
11
143
21
-9.5
31
0
39
0
210
0
220
0
230
1
0
LINE
5
14A
100
AcDbEntity
8
1
62
256
6
ByLayer
370
18
48
1
60
1
100
AcDbLine
10
141.998383
20
-17.85416
30
0
11
145.051575
21
-16.082064
31
0
39
0
210
0
220
0
230
1
0
LINE
5
14B
100
AcDbEntity
8
1
62
256
6
ByLayer
370
18
48
1
60
1
100
AcDbLine
10
145.051575
20
-16.082064
30
0
11
145.406196
21
-16.93267
31
0
39
0
210
0
220
0
230
1
0
LINE
5
14C
100
AcDbEntity
8
1
62
256
6
ByLayer
370
18
48
1
60
1
100
AcDbLine
10
145.406196
20
-16.93267
30
0
11
141.998383
21
-17.85416
31
0
39
0
210
0
220
0
230
1
0
LINE
5
14E
100
AcDbEntity
8
1
62
256
6
ByLayer
370
18
48
1
60
1
100
AcDbLine
10
141.998383
20
17.85416
30
0
11
145.406193
21
16.932671
31
0
39
0
210
0
220
0
230
1
0
LINE
5
14F
100
AcDbEntity
8
1
62
256
6
ByLayer
370
18
48
1
60
1
100
AcDbLine
10
145.406193
20
16.932671
30
0
11
145.051579
21
16.082063
31
0
39
0
210
0
220
0
230
1
0
LINE
5
150
100
AcDbEntity
8
1
62
256
6
ByLayer
370
18
48
1
60
1
100
AcDbLine
10
145.051579
20
16.082063
30
0
11
141.998383
21
17.85416
31
0
39
0
210
0
220
0
230
1
0
MTEXT
5
133
100
AcDbEntity
8
SK2
62
256
6
ByLayer
370
18
48
1
60
0
100
AcDbMText
10
-63.841114
20
24.158438
30
0
210
0
220
0
230
1
1
%%c
40
3
41
0
44
1.084337
50
90
71
7
72
5
7
iso_b_vert
0
MTEXT
5
136
100
AcDbEntity
8
SK2
62
256
6
ByLayer
370
18
48
1
60
0
100
AcDbMText
10
-63.841114
20
30.135
30
0
210
0
220
0
230
1
1
\W0.7513;25.000
40
3
41
0
44
1.084337
50
90
71
7
72
5
7
iso_b_vert
0
MTEXT
5
13F
100
AcDbEntity
8
2
62
256
6
ByLayer
370
18
48
1
60
0
100
AcDbMText
10
141.658886
20
21.158438
30
0
210
0
220
0
230
1
1
%%c
40
3
41
0
44
1.084337
50
90
71
7
72
5
7
iso_b_vert
0
MTEXT
5
140
100
AcDbEntity
8
2
62
256
6
ByLayer
370
18
48
1
60
0
100
AcDbMText
10
141.658886
20
27.135
30
0
210
0
220
0
230
1
1
\W0.7022;19.000
40
3
41
0
44
1.084337
50
90
71
7
72
5
7
iso_b_vert
0
MTEXT
5
149
100
AcDbEntity
8
SK2
62
256
6
ByLayer
370
18
48
1
60
0
100
AcDbMText
10
155.409114
20
3.734657
30
0
210
0
220
0
230
1
1
\W0.7071;140%%d
40
3
41
0
44
1.084337
50
270
71
7
72
5
7
iso_b_vert
0
MTEXT
5
152
100
AcDbEntity
8
SK6
62
256
6
ByLayer
370
18
48
1
60
0
100
AcDbMText
10
16.212746
20
-67.114886
30
0
210
0
220
0
230
1
1
\W0.7358;H85519.0
40
3
41
0
44
1.084337
50
0
71
7
72
5
7
iso_b_vert
0
HATCH
5
13A
100
AcDbEntity
8
SK2
62
256
6
ByLayer
370
13
48
1
60
0
100
AcDbHatch
10
0
20
0
30
0
210
0
220
0
230
1
2
ANSI31
70
0
71
0
91
1
92
5
93
3
72
1
10
-62.5
20
12.5
11
-62.0392162584472
21
9.00000169255318
72
1
10
-62.0392162584472
20
9.00000169255318
11
-62.9607837415528
21
8.99999830744682
72
1
10
-62.9607837415528
20
8.99999830744682
11
-62.5
21
12.5
97
0
75
0
76
1
52
0
41
0.0062
77
0
78
1
53
45
43
0
44
0
45
-0.0139193969876572
46
0.0139193969876572
79
0
47
0
98
1
10
0
20
0
0
HATCH
5
13E
100
AcDbEntity
8
SK2
62
256
6
ByLayer
370
13
48
1
60
0
100
AcDbHatch
10
0
20
0
30
0
210
0
220
0
230
1
2
ANSI31
70
0
71
0
91
1
92
5
93
3
72
1
10
-62.5
20
-12.5
11
-62.9607837415528
21
-9.00000169255318
72
1
10
-62.9607837415528
20
-9.00000169255318
11
-62.0392162584472
21
-8.99999830744682
72
1
10
-62.0392162584472
20
-8.99999830744682
11
-62.5
21
-12.5
97
0
75
0
76
1
52
0
41
0.0062
77
0
78
1
53
45
43
0
44
0
45
-0.0139193969876572
46
0.0139193969876572
79
0
47
0
98
1
10
0
20
0
0
HATCH
5
144
100
AcDbEntity
8
2
62
256
6
ByLayer
370
13
48
1
60
0
100
AcDbHatch
10
0
20
0
30
0
210
0
220
0
230
1
2
ANSI31
70
0
71
0
91
1
92
5
93
3
72
1
10
143
20
9.5
11
143.460783741553
21
6.00000169255318
72
1
10
143.460783741553
20
6.00000169255318
11
142.539216258447
21
5.99999830744682
72
1
10
142.539216258447
20
5.99999830744682
11
143
21
9.5
97
0
75
0
76
1
52
0
41
0.0062
77
0
78
1
53
45
43
0
44
0
45
-0.0139193969876572
46
0.0139193969876572
79
0
47
0
98
1
10
0
20
0
0
HATCH
5
148
100
AcDbEntity
8
2
62
256
6
ByLayer
370
13
48
1
60
0
100
AcDbHatch
10
0
20
0
30
0
210
0
220
0
230
1
2
ANSI31
70
0
71
0
91
1
92
5
93
3
72
1
10
143
20
-9.5
11
142.539216258447
21
-6.00000169255318
72
1
10
142.539216258447
20
-6.00000169255318
11
143.460783741553
21
-5.99999830744682
72
1
10
143.460783741553
20
-5.99999830744682
11
143
21
-9.5
97
0
75
0
76
1
52
0
41
0.0062
77
0
78
1
53
45
43
0
44
0
45
-0.0139193969876572
46
0.0139193969876572
79
0
47
0
98
1
10
0
20
0
0
HATCH
5
14D
100
AcDbEntity
8
SK2
62
256
6
ByLayer
370
13
48
1
60
0
100
AcDbHatch
10
0
20
0
30
0
210
0
220
0
230
1
2
ANSI31
70
0
71
0
91
1
92
5
93
3
72
1
10
141.998382723188
20
-17.8541597949322
11
145.051575425693
21
-16.0820638240608
72
1
10
145.051575425693
20
-16.0820638240608
11
145.406195833975
21
-16.9326700737196
72
1
10
145.406195833975
20
-16.9326700737196
11
141.998382723188
21
-17.8541597949322
97
0
75
0
76
1
52
0
41
0.0062
77
0
78
1
53
45
43
0
44
0
45
-0.0139193969876572
46
0.0139193969876572
79
0
47
0
98
1
10
0
20
0
0
HATCH
5
151
100
AcDbEntity
8
SK2
62
256
6
ByLayer
370
13
48
1
60
0
100
AcDbHatch
10
0
20
0
30
0
210
0
220
0
230
1
2
ANSI31
70
0
71
0
91
1
92
5
93
3
72
1
10
141.998382723188
20
17.8541597949322
11
145.406192709519
21
16.9326713763016
72
1
10
145.406192709519
20
16.9326713763016
11
145.051578550149
21
16.0820625214788
72
1
10
145.051578550149
20
16.0820625214788
11
141.998382723188
21
17.8541597949322
97
0
75
0
76
1
52
0
41
0.0062
77
0
78
1
53
45
43
0
44
0
45
-0.0139193969876572
46
0.0139193969876572
79
0
47
0
98
1
10
0
20
0
0
DIMENSION
5
155
100
AcDbEntity
8
SK2
62
256
6
ByLayer
370
18
48
1
60
0
100
AcDbDimension
2
_U0
10
135.5
20
-45.952229
30
0
11
39.75
21
-45.952229
31
0
70
32
71
1
72
1
41
1
210
0
220
0
230
1
3
Standard
100
AcDbAlignedDimension
13
-56
23
-12.5
33
0
14
135.5
24
0
34
0
50
0
100
AcDbRotatedDimension
1001
ACAD
1000
DSTYLE
1002
{
1070
   371
1070
    13
1070
   372
1070
    13
1070
     3
1000

1070
   170
1070
     0
1070
   144
1040
1.0
1070
   277
1070
     2
1070
   284
1070
     8
1070
   278
1070
    46
1070
   146
1040
1.166667
1070
   345
1005
16
1070
   347
1005
16
1070
   346
1005
16
1070
   344
1005
0
1070
   343
1005
0
1070
   172
1070
     1
1070
    76
1070
     0
1070
    75
1070
     0
1070
   282
1070
     0
1070
   281
1070
     0
1070
    71
1070
     0
1070
    74
1070
     0
1070
   279
1070
     0
1070
   173
1070
     1
1070
   340
1005
134
1070
   271
1070
     2
1070
   272
1070
     3
1070
    77
1070
     1
1070
    73
1070
     1
1070
   171
1070
     3
1070
   274
1070
     4
1070
   177
1070
     2
1070
   176
1070
     2
1070
   178
1070
     2
1070
    78
1070
     8
1070
    48
1040
-0.1
1070
    41
1040
3.5
1070
   147
1040
1.5
1070
    42
1040
1.5875
1070
    44
1040
2.0
1070
   140
1040
3.0
1002
}
1001
ACAD_DSTYLE_DIM_LINETYPE
1070
   380
1005
16
1001
ACAD_DSTYLE_DIM_EXT1_LINETYPE
1070
   381
1005
16
1001
ACAD_DSTYLE_DIM_EXT2_LINETYPE
1070
   382
1005
16
0
DIMENSION
5
16E
100
AcDbEntity
8
SK2
62
256
6
ByLayer
370
18
48
1
60
0
100
AcDbDimension
2
_U1
10
3
20
-35.952229
30
0
11
69.25
21
-35.952229
31
0
70
32
71
1
72
1
41
1
210
0
220
0
230
1
3
Standard
100
AcDbAlignedDimension
13
135.5
23
0
33
0
14
3
24
-9.5
34
0
50
0
100
AcDbRotatedDimension
1001
ACAD
1000
DSTYLE
1002
{
1070
   371
1070
    13
1070
   372
1070
    13
1070
     3
1000

1070
   170
1070
     0
1070
   144
1040
1.0
1070
   277
1070
     2
1070
   284
1070
     8
1070
   278
1070
    46
1070
   146
1040
1.166667
1070
   345
1005
16
1070
   347
1005
16
1070
   346
1005
16
1070
   344
1005
0
1070
   343
1005
0
1070
   172
1070
     1
1070
    76
1070
     0
1070
    75
1070
     0
1070
   282
1070
     0
1070
   281
1070
     0
1070
    71
1070
     0
1070
    74
1070
     0
1070
   279
1070
     0
1070
   173
1070
     1
1070
   340
1005
134
1070
   271
1070
     2
1070
   272
1070
     3
1070
    77
1070
     1
1070
    73
1070
     1
1070
   171
1070
     3
1070
   274
1070
     4
1070
   177
1070
     2
1070
   176
1070
     2
1070
   178
1070
     2
1070
    78
1070
     8
1070
    48
1040
-0.1
1070
    41
1040
3.5
1070
   147
1040
1.5
1070
    42
1040
1.5875
1070
    44
1040
2.0
1070
   140
1040
3.0
1002
}
1001
ACAD_DSTYLE_DIM_LINETYPE
1070
   380
1005
16
1001
ACAD_DSTYLE_DIM_EXT1_LINETYPE
1070
   381
1005
16
1001
ACAD_DSTYLE_DIM_EXT2_LINETYPE
1070
   382
1005
16
0
DIMENSION
5
186
100
AcDbEntity
8
SK2
62
256
6
ByLayer
370
18
48
1
60
0
100
AcDbDimension
2
_U2
10
0
20
-35.952229
30
0
11
-28
21
-35.952229
31
0
70
32
71
1
72
1
41
1
210
0
220
0
230
1
3
Standard
100
AcDbAlignedDimension
13
-56
23
-12.5
33
0
14
0
24
-12.5
34
0
50
0
100
AcDbRotatedDimension
1001
ACAD
1000
DSTYLE
1002
{
1070
   371
1070
    13
1070
   372
1070
    13
1070
     3
1000

1070
   170
1070
     0
1070
   144
1040
1.0
1070
   277
1070
     2
1070
   284
1070
     8
1070
   278
1070
    46
1070
   146
1040
1.166667
1070
   345
1005
16
1070
   347
1005
16
1070
   346
1005
16
1070
   344
1005
0
1070
   343
1005
0
1070
   172
1070
     1
1070
    76
1070
     0
1070
    75
1070
     0
1070
   282
1070
     0
1070
   281
1070
     0
1070
    71
1070
     0
1070
    74
1070
     0
1070
   279
1070
     0
1070
   173
1070
     1
1070
   340
1005
134
1070
   271
1070
     2
1070
   272
1070
     3
1070
    77
1070
     1
1070
    73
1070
     1
1070
   171
1070
     3
1070
   274
1070
     4
1070
   177
1070
     2
1070
   176
1070
     2
1070
   178
1070
     2
1070
    78
1070
     8
1070
    48
1040
-0.1
1070
    41
1040
3.5
1070
   147
1040
1.5
1070
    42
1040
1.5875
1070
    44
1040
2.0
1070
   140
1040
3.0
1002
}
1001
ACAD_DSTYLE_DIM_LINETYPE
1070
   380
1005
16
1001
ACAD_DSTYLE_DIM_EXT1_LINETYPE
1070
   381
1005
16
1001
ACAD_DSTYLE_DIM_EXT2_LINETYPE
1070
   382
1005
16
0
DIMENSION
5
19E
100
AcDbEntity
8
SK2
62
256
6
ByLayer
370
18
48
1
60
0
100
AcDbDimension
2
_U3
10
27
20
32.952229
30
0
11
81.25
21
32.952229
31
0
70
32
71
1
72
1
41
1
210
0
220
0
230
1
3
Standard
100
AcDbAlignedDimension
13
135.5
23
0
33
0
14
27
24
9.5
34
0
50
0
100
AcDbRotatedDimension
1001
ACAD
1000
DSTYLE
1002
{
1070
   371
1070
    13
1070
   372
1070
    13
1070
     3
1000

1070
   170
1070
     0
1070
   144
1040
1.0
1070
   277
1070
     2
1070
   284
1070
     8
1070
   278
1070
    46
1070
   146
1040
1.166667
1070
   345
1005
16
1070
   347
1005
16
1070
   346
1005
16
1070
   344
1005
0
1070
   343
1005
0
1070
   172
1070
     1
1070
    76
1070
     0
1070
    75
1070
     0
1070
   282
1070
     0
1070
   281
1070
     0
1070
    71
1070
     0
1070
    74
1070
     0
1070
   279
1070
     0
1070
   173
1070
     1
1070
   340
1005
134
1070
   271
1070
     2
1070
   272
1070
     3
1070
    77
1070
     1
1070
    73
1070
     1
1070
   171
1070
     3
1070
   274
1070
     4
1070
   177
1070
     2
1070
   176
1070
     2
1070
   178
1070
     2
1070
    78
1070
     8
1070
    48
1040
-0.1
1070
    41
1040
3.5
1070
   147
1040
1.5
1070
    42
1040
1.5875
1070
    44
1040
2.0
1070
   140
1040
3.0
1002
}
1001
ACAD_DSTYLE_DIM_LINETYPE
1070
   380
1005
16
1001
ACAD_DSTYLE_DIM_EXT1_LINETYPE
1070
   381
1005
16
1001
ACAD_DSTYLE_DIM_EXT2_LINETYPE
1070
   382
1005
16
0
ENDSEC
0
SECTION
2
OBJECTS
0
DICTIONARY
5
226
330
0
100
AcDbDictionary
280
0
281
1
3
ACAD_GROUP
350
227
3
ACAD_MLINESTYLE
350
228
0
DICTIONARY
5
227
330
0
100
AcDbDictionary
280
0
281
1
0
DICTIONARY
5
228
330
0
100
AcDbDictionary
280
0
281
1
3
Standard
350
18
0
MLINESTYLE
5
18
330
228
100
AcDbMlineStyle
2
Standard
70
0
3

62
256
51
90
52
90
71
2
49
-0.5
62
256
6
ByLayer
49
0.5
62
256
6
ByLayer
0
RASTERVARIABLES
5
214
330

100
AcDbRasterVariables
90
0
70
1
71
1
72
1
0
ENDSEC
0
EOF
