0
SECTION
2
HEADER
9
$ACADVER
1
AC1015
9
$DWGCODEPAGE
3
ANSI_1252
9
$HANDSEED
5
22e
9
$ANGBASE
50
0
9
$ANGDIR
70
0
9
$ATTMODE
70
1
9
$AUNITS
70
0
9
$AUPREC
70
0
9
$CECOLOR
62
256
9
$CELTSCALE
40
1
9
$CELTYPE
6
ByLayer
9
$CELWEIGHT
370
18
9
$CLAYER
8
0
9
$CMLJUST
70
0
9
$CMLSCALE
40
1
9
$CMLSTYLE
2
Standard
9
$DIMSTYLE
2
Standard
9
$TEXTSIZE
40
0.2
9
$TEXTSTYLE
7
Standard
9
$LUNITS
70
2
9
$LUPREC
70
4
9
$EXTNAMES
290
1
9
$INSUNITS
70
4
9
$LTSCALE
40
1
9
$LWDISPLAY
290
1
9
$PDMODE
70
0
9
$PDSIZE
40
0
9
$PLINEGEN
70
0
0
ENDSEC
0
SECTION
2
CLASSES
0
CLASS
1
RASTERVARIABLES
2
AcDbRasterVariables
3
ISM
90
0
280
0
281
0
0
ENDSEC
0
SECTION
2
TABLES
0
TABLE
2
VPORT
5
224
100
AcDbSymbolTable
0
VPORT
5
1
100
AcDbSymbolTableRecord
100
AcDbViewportTableRecord
2
*Active
70
0
10
0
20
0
11
1
21
1
12
-1
22
1
13
0
23
0
14
0.5
24
0.5
15
10
25
10
16
0
26
0
36
1
17
0
27
0
37
0
0
ENDTAB
0
TABLE
2
LTYPE
5
225
100
AcDbSymbolTable
0
LTYPE
5
14
100
AcDbSymbolTableRecord
100
AcDbLinetypeTableRecord
70
0
2
ByBlock
3

72
65
73
0
40
0
0
LTYPE
5
15
100
AcDbSymbolTableRecord
100
AcDbLinetypeTableRecord
70
0
2
ByLayer
3

72
65
73
0
40
0
0
LTYPE
5
16
100
AcDbSymbolTableRecord
100
AcDbLinetypeTableRecord
70
0
2
Continuous
3
Solid line
72
65
73
0
40
0
0
LTYPE
5
6E
100
AcDbSymbolTableRecord
100
AcDbLinetypeTableRecord
70
0
2
CENTER
3
____ _ ____ _ ____ _ ____
72
65
73
4
40
47.5
49
22
74
0
49
-8.5
74
0
49
8.5
74
0
49
-8.5
74
0
0
LTYPE
5
6F
100
AcDbSymbolTableRecord
100
AcDbLinetypeTableRecord
70
0
2
DASHED
3
__ __ __ __ __ __ __ __ __
72
65
73
2
40
25.72
49
12.86
74
0
49
-12.86
74
0
0
ENDTAB
0
TABLE
2
LAYER
5
226
100
AcDbSymbolTable
0
LAYER
5
10
100
AcDbSymbolTableRecord
100
AcDbLayerTableRecord
2
0
70
0
62
7
6
Continuous
290
1
370
-3
390
0
0
LAYER
5
71
100
AcDbSymbolTableRecord
100
AcDbLayerTableRecord
2
80
70
0
62
-6
6
Continuous
290
1
370
-3
390
0
0
LAYER
5
73
100
AcDbSymbolTableRecord
100
AcDbLayerTableRecord
2
81
70
0
62
-3
6
Continuous
290
1
370
-3
390
0
0
LAYER
5
75
100
AcDbSymbolTableRecord
100
AcDbLayerTableRecord
2
1
70
0
62
4
6
Continuous
290
1
370
-3
390
0
0
LAYER
5
7F
100
AcDbSymbolTableRecord
100
AcDbLayerTableRecord
2
4
70
0
62
-2
6
CENTER
290
1
370
-3
390
0
0
LAYER
5
AF
100
AcDbSymbolTableRecord
100
AcDbLayerTableRecord
2
2
70
0
62
7
6
Continuous
290
1
370
-3
390
0
0
LAYER
5
153
100
AcDbSymbolTableRecord
100
AcDbLayerTableRecord
2
Defpoints
70
0
62
7
6
Continuous
290
0
370
-3
390
0
0
LAYER
5
210
100
AcDbSymbolTableRecord
100
AcDbLayerTableRecord
2
SK4
70
0
62
2
6
CENTER
290
1
370
-3
390
0
0
LAYER
5
211
100
AcDbSymbolTableRecord
100
AcDbLayerTableRecord
2
SK1
70
0
62
4
6
Continuous
290
1
370
-3
390
0
0
LAYER
5
212
100
AcDbSymbolTableRecord
100
AcDbLayerTableRecord
2
SK2
70
0
62
7
6
Continuous
290
1
370
-3
390
0
0
LAYER
5
213
100
AcDbSymbolTableRecord
100
AcDbLayerTableRecord
2
SK6
70
0
62
5
6
Continuous
290
1
370
-3
390
0
0
ENDTAB
0
TABLE
2
STYLE
5
227
100
AcDbSymbolTable
0
STYLE
5
11
100
AcDbSymbolTableRecord
100
AcDbTextStyleTableRecord
2
Standard
3
txt
70
0
71
0
40
0
41
1
42
0
50
0
0
STYLE
5
12F
100
AcDbSymbolTableRecord
100
AcDbTextStyleTableRecord
2
iso_b_vert
3
simplex.shx
70
0
71
0
40
0
41
1
42
0
50
0
0
STYLE
5
130
100
AcDbSymbolTableRecord
100
AcDbTextStyleTableRecord
2
DWGDirectTextStyle
3
simplex
70
0
71
0
40
0
41
1
42
0
50
0
0
ENDTAB
0
TABLE
2
DIMSTYLE
5
228
100
AcDbSymbolTable
100
AcDbDimStyleTable
0
DIMSTYLE
105
27
100
AcDbSymbolTableRecord
100
AcDbDimStyleTableRecord
2
Standard
70
0
3
<>
41
0.18
42
0.0625
44
0.18
140
0.18
147
0.09
73
0
74
0
77
1
271
2
275
0
278
52
280
0
340
11
0
ENDTAB
0
TABLE
2
VIEW
5
229
100
AcDbSymbolTable
0
ENDTAB
0
TABLE
2
UCS
5
22a
100
AcDbSymbolTable
0
ENDTAB
0
TABLE
2
APPID
5
22b
100
AcDbSymbolTable
0
APPID
5
12
100
AcDbSymbolTableRecord
100
AcDbRegAppTableRecord
2
ACAD
70
0
0
APPID
5
14F
100
AcDbSymbolTableRecord
100
AcDbRegAppTableRecord
2
ACAD_DSTYLE_DIMBREAK
70
0
0
APPID
5
1CF
100
AcDbSymbolTableRecord
100
AcDbRegAppTableRecord
2
ACAD_DSTYLE_DIM_LINETYPE
70
0
0
APPID
5
1D0
100
AcDbSymbolTableRecord
100
AcDbRegAppTableRecord
2
ACAD_DSTYLE_DIM_EXT1_LINETYPE
70
0
0
APPID
5
1D1
100
AcDbSymbolTableRecord
100
AcDbRegAppTableRecord
2
ACAD_DSTYLE_DIM_EXT2_LINETYPE
70
0
0
APPID
5
20C
100
AcDbSymbolTableRecord
100
AcDbRegAppTableRecord
2
ACAD_MLEADERVER
70
0
0
ENDTAB
0
TABLE
2
BLOCK_RECORD
5
22c
100
AcDbSymbolTable
0
BLOCK_RECORD
5
1F
100
AcDbSymbolTableRecord
100
AcDbBlockTableRecord
2
*Model_Space
340
0
70
0
0
BLOCK_RECORD
5
1B
100
AcDbSymbolTableRecord
100
AcDbBlockTableRecord
2
*Paper_Space
340
0
70
0
0
BLOCK_RECORD
5
23
100
AcDbSymbolTableRecord
100
AcDbBlockTableRecord
2
*Paper_Space0
340
0
70
0
0
BLOCK_RECORD
5
154
100
AcDbSymbolTableRecord
100
AcDbBlockTableRecord
2
*D1
340
0
70
0
0
BLOCK_RECORD
5
160
100
AcDbSymbolTableRecord
100
AcDbBlockTableRecord
2
_U0
340
0
70
0
0
BLOCK_RECORD
5
16C
100
AcDbSymbolTableRecord
100
AcDbBlockTableRecord
2
*D3
340
0
70
0
0
BLOCK_RECORD
5
178
100
AcDbSymbolTableRecord
100
AcDbBlockTableRecord
2
_U1
340
0
70
0
0
BLOCK_RECORD
5
184
100
AcDbSymbolTableRecord
100
AcDbBlockTableRecord
2
*D5
340
0
70
0
0
BLOCK_RECORD
5
190
100
AcDbSymbolTableRecord
100
AcDbBlockTableRecord
2
_U2
340
0
70
0
0
BLOCK_RECORD
5
19C
100
AcDbSymbolTableRecord
100
AcDbBlockTableRecord
2
*D7
340
0
70
0
0
BLOCK_RECORD
5
1A8
100
AcDbSymbolTableRecord
100
AcDbBlockTableRecord
2
_U3
340
0
70
0
0
ENDTAB
0
ENDSEC
0
SECTION
2
BLOCKS
0
BLOCK
5
20
100
AcDbEntity
8
0
100
AcDbBlockBegin
2
*Model_Space
70
0
10
0
20
0
30
0
3
*Model_Space
0
ENDBLK
5
21
100
AcDbEntity
8
0
100
AcDbBlockEnd
0
BLOCK
5
1C
100
AcDbEntity
8
0
100
AcDbBlockBegin
2
*Paper_Space
70
0
10
0
20
0
30
0
3
*Paper_Space
0
ENDBLK
5
1D
100
AcDbEntity
8
0
100
AcDbBlockEnd
0
BLOCK
5
24
100
AcDbEntity
8
0
100
AcDbBlockBegin
2
*Paper_Space0
70
0
10
0
20
0
30
0
3
*Paper_Space0
0
ENDBLK
5
25
100
AcDbEntity
8
0
100
AcDbBlockEnd
0
BLOCK
5
155
100
AcDbEntity
8
0
100
AcDbBlockBegin
2
*D1
70
1
10
0
20
0
30
0
3
*D1
0
LINE
5
157
100
AcDbEntity
8
0
62
256
6
ByLayer
370
-2
48
1
60
0
100
AcDbLine
10
-50
20
-11.5875
30
0
11
-50
21
-47.952229
31
0
39
0
210
0
220
0
230
1
0
LINE
5
158
100
AcDbEntity
8
0
62
256
6
ByLayer
370
-2
48
1
60
0
100
AcDbLine
10
126.5
20
-1.5875
30
0
11
126.5
21
-47.952229
31
0
39
0
210
0
220
0
230
1
0
LINE
5
159
100
AcDbEntity
8
0
62
256
6
ByLayer
370
-2
48
1
60
0
100
AcDbLine
10
-46.5
20
-45.952229
30
0
11
123
21
-45.952229
31
0
39
0
210
0
220
0
230
1
0
SOLID
5
15A
100
AcDbEntity
8
0
62
256
6
ByLayer
370
-1
48
1
60
0
100
AcDbTrace
10
-46.5
20
-45.368896
30
0
11
-46.5
21
-46.535563
31
0
12
-50
22
-45.952229
32
0
13
-50
23
-45.952229
33
0
39
0
210
0
220
0
230
1
0
SOLID
5
15B
100
AcDbEntity
8
0
62
256
6
ByLayer
370
-1
48
1
60
0
100
AcDbTrace
10
123
20
-46.535563
30
0
11
123
21
-45.368896
31
0
12
126.5
22
-45.952229
32
0
13
126.5
23
-45.952229
33
0
39
0
210
0
220
0
230
1
0
MTEXT
5
15C
100
AcDbEntity
8
0
62
256
6
ByLayer
370
18
48
1
60
0
100
AcDbMText
10
38.25
20
-39.952229
30
0
210
0
220
0
230
1
1
\A1;176.5
40
3
41
0
44
1
50
0
71
5
72
5
7
iso_b_vert
0
POINT
5
15D
100
AcDbEntity
8
Defpoints
62
0
6
ByLayer
370
-1
48
1
60
0
100
AcDbPoint
10
-50
20
-10
30
0
39
0
210
0
220
0
230
1
50
360
0
POINT
5
15E
100
AcDbEntity
8
Defpoints
62
0
6
ByLayer
370
-1
48
1
60
0
100
AcDbPoint
10
126.5
20
0
30
0
39
0
210
0
220
0
230
1
50
360
0
POINT
5
15F
100
AcDbEntity
8
Defpoints
62
0
6
ByLayer
370
-1
48
1
60
0
100
AcDbPoint
10
126.5
20
-45.952229
30
0
39
0
210
0
220
0
230
1
50
360
0
ENDBLK
5
156
100
AcDbEntity
8
0
100
AcDbBlockEnd
0
BLOCK
5
167
100
AcDbEntity
8
0
100
AcDbBlockBegin
2
_U0
70
0
10
0
20
0
30
0
3
_U0
0
MTEXT
5
161
100
AcDbEntity
8
SK2
62
256
6
ByLayer
370
18
48
1
60
0
100
AcDbMText
10
33.021658
20
-45.067115
30
0
210
0
220
0
230
1
1
\W0.7022;176.50
40
3
41
0
44
1.084337
50
0
71
7
72
5
7
iso_b_vert
0
LINE
5
162
100
AcDbEntity
8
SK2
62
256
6
ByLayer
370
13
48
1
60
0
100
AcDbLine
10
-50
20
-11.5875
30
0
11
-50
21
-47.952229
31
0
39
0
210
0
220
0
230
1
0
LINE
5
163
100
AcDbEntity
8
SK2
62
256
6
ByLayer
370
13
48
1
60
0
100
AcDbLine
10
126.5
20
-1.5875
30
0
11
126.5
21
-47.952229
31
0
39
0
210
0
220
0
230
1
0
LINE
5
164
100
AcDbEntity
8
SK2
62
256
6
ByLayer
370
13
48
1
60
0
100
AcDbLine
10
-50
20
-45.952229
30
0
11
126.5
21
-45.952229
31
0
39
0
210
0
220
0
230
1
0
SOLID
5
165
100
AcDbEntity
8
SK2
62
256
6
ByLayer
370
18
48
1
60
0
100
AcDbTrace
10
-50
20
-45.952229
30
0
11
-46.500002
21
-45.491446
31
0
12
-46.499998
22
-46.413013
32
0
13
-46.499998
23
-46.413013
33
0
39
0
210
0
220
0
230
1
0
SOLID
5
166
100
AcDbEntity
8
SK2
62
256
6
ByLayer
370
18
48
1
60
0
100
AcDbTrace
10
126.5
20
-45.952229
30
0
11
123.000002
21
-46.413013
31
0
12
122.999998
22
-45.491446
32
0
13
122.999998
23
-45.491446
33
0
39
0
210
0
220
0
230
1
0
ENDBLK
5
168
100
AcDbEntity
8
0
100
AcDbBlockEnd
0
BLOCK
5
16D
100
AcDbEntity
8
0
100
AcDbBlockBegin
2
*D3
70
1
10
0
20
0
30
0
3
*D3
0
LINE
5
16F
100
AcDbEntity
8
0
62
256
6
ByLayer
370
-2
48
1
60
0
100
AcDbLine
10
126.5
20
-1.5875
30
0
11
126.5
21
-37.952229
31
0
39
0
210
0
220
0
230
1
0
LINE
5
170
100
AcDbEntity
8
0
62
256
6
ByLayer
370
-2
48
1
60
0
100
AcDbLine
10
3
20
-10.5875
30
0
11
3
21
-37.952229
31
0
39
0
210
0
220
0
230
1
0
LINE
5
171
100
AcDbEntity
8
0
62
256
6
ByLayer
370
-2
48
1
60
0
100
AcDbLine
10
123
20
-35.952229
30
0
11
6.5
21
-35.952229
31
0
39
0
210
0
220
0
230
1
0
SOLID
5
172
100
AcDbEntity
8
0
62
256
6
ByLayer
370
-1
48
1
60
0
100
AcDbTrace
10
123
20
-36.535563
30
0
11
123
21
-35.368896
31
0
12
126.5
22
-35.952229
32
0
13
126.5
23
-35.952229
33
0
39
0
210
0
220
0
230
1
0
SOLID
5
173
100
AcDbEntity
8
0
62
256
6
ByLayer
370
-1
48
1
60
0
100
AcDbTrace
10
6.5
20
-35.368896
30
0
11
6.5
21
-36.535563
31
0
12
3
22
-35.952229
32
0
13
3
23
-35.952229
33
0
39
0
210
0
220
0
230
1
0
MTEXT
5
174
100
AcDbEntity
8
0
62
256
6
ByLayer
370
18
48
1
60
0
100
AcDbMText
10
64.75
20
-29.952229
30
0
210
0
220
0
230
1
1
\A1;123.5
40
3
41
0
44
1
50
0
71
5
72
5
7
iso_b_vert
0
POINT
5
175
100
AcDbEntity
8
Defpoints
62
0
6
ByLayer
370
-1
48
1
60
0
100
AcDbPoint
10
126.5
20
0
30
0
39
0
210
0
220
0
230
1
50
360
0
POINT
5
176
100
AcDbEntity
8
Defpoints
62
0
6
ByLayer
370
-1
48
1
60
0
100
AcDbPoint
10
3
20
-9
30
0
39
0
210
0
220
0
230
1
50
360
0
POINT
5
177
100
AcDbEntity
8
Defpoints
62
0
6
ByLayer
370
-1
48
1
60
0
100
AcDbPoint
10
3
20
-35.952229
30
0
39
0
210
0
220
0
230
1
50
360
0
ENDBLK
5
16E
100
AcDbEntity
8
0
100
AcDbBlockEnd
0
BLOCK
5
17F
100
AcDbEntity
8
0
100
AcDbBlockBegin
2
_U1
70
0
10
0
20
0
30
0
3
_U1
0
MTEXT
5
179
100
AcDbEntity
8
SK2
62
256
6
ByLayer
370
18
48
1
60
0
100
AcDbMText
10
59.521658
20
-35.067115
30
0
210
0
220
0
230
1
1
\W0.7022;123.50
40
3
41
0
44
1.084337
50
0
71
7
72
5
7
iso_b_vert
0
LINE
5
17A
100
AcDbEntity
8
SK2
62
256
6
ByLayer
370
13
48
1
60
0
100
AcDbLine
10
126.5
20
-1.5875
30
0
11
126.5
21
-37.952229
31
0
39
0
210
0
220
0
230
1
0
LINE
5
17B
100
AcDbEntity
8
SK2
62
256
6
ByLayer
370
13
48
1
60
0
100
AcDbLine
10
3
20
-10.5875
30
0
11
3
21
-37.952229
31
0
39
0
210
0
220
0
230
1
0
LINE
5
17C
100
AcDbEntity
8
SK2
62
256
6
ByLayer
370
13
48
1
60
0
100
AcDbLine
10
126.5
20
-35.952229
30
0
11
3
21
-35.952229
31
0
39
0
210
0
220
0
230
1
0
SOLID
5
17D
100
AcDbEntity
8
SK2
62
256
6
ByLayer
370
18
48
1
60
0
100
AcDbTrace
10
126.5
20
-35.952229
30
0
11
123.000002
21
-36.413013
31
0
12
122.999998
22
-35.491446
32
0
13
122.999998
23
-35.491446
33
0
39
0
210
0
220
0
230
1
0
SOLID
5
17E
100
AcDbEntity
8
SK2
62
256
6
ByLayer
370
18
48
1
60
0
100
AcDbTrace
10
3
20
-35.952229
30
0
11
6.499998
21
-35.491446
31
0
12
6.500002
22
-36.413013
32
0
13
6.500002
23
-36.413013
33
0
39
0
210
0
220
0
230
1
0
ENDBLK
5
180
100
AcDbEntity
8
0
100
AcDbBlockEnd
0
BLOCK
5
185
100
AcDbEntity
8
0
100
AcDbBlockBegin
2
*D5
70
1
10
0
20
0
30
0
3
*D5
0
LINE
5
187
100
AcDbEntity
8
0
62
256
6
ByLayer
370
-2
48
1
60
0
100
AcDbLine
10
-50
20
-11.5875
30
0
11
-50
21
-37.952229
31
0
39
0
210
0
220
0
230
1
0
LINE
5
188
100
AcDbEntity
8
0
62
256
6
ByLayer
370
-2
48
1
60
0
100
AcDbLine
10
0
20
-11.5875
30
0
11
0
21
-37.952229
31
0
39
0
210
0
220
0
230
1
0
LINE
5
189
100
AcDbEntity
8
0
62
256
6
ByLayer
370
-2
48
1
60
0
100
AcDbLine
10
-46.5
20
-35.952229
30
0
11
-3.5
21
-35.952229
31
0
39
0
210
0
220
0
230
1
0
SOLID
5
18A
100
AcDbEntity
8
0
62
256
6
ByLayer
370
-1
48
1
60
0
100
AcDbTrace
10
-46.5
20
-35.368896
30
0
11
-46.5
21
-36.535563
31
0
12
-50
22
-35.952229
32
0
13
-50
23
-35.952229
33
0
39
0
210
0
220
0
230
1
0
SOLID
5
18B
100
AcDbEntity
8
0
62
256
6
ByLayer
370
-1
48
1
60
0
100
AcDbTrace
10
-3.5
20
-36.535563
30
0
11
-3.5
21
-35.368896
31
0
12
0
22
-35.952229
32
0
13
0
23
-35.952229
33
0
39
0
210
0
220
0
230
1
0
MTEXT
5
18C
100
AcDbEntity
8
0
62
256
6
ByLayer
370
18
48
1
60
0
100
AcDbMText
10
-25
20
-29.952229
30
0
210
0
220
0
230
1
1
\A1;50
40
3
41
0
44
1
50
0
71
5
72
5
7
iso_b_vert
0
POINT
5
18D
100
AcDbEntity
8
Defpoints
62
0
6
ByLayer
370
-1
48
1
60
0
100
AcDbPoint
10
-50
20
-10
30
0
39
0
210
0
220
0
230
1
50
360
0
POINT
5
18E
100
AcDbEntity
8
Defpoints
62
0
6
ByLayer
370
-1
48
1
60
0
100
AcDbPoint
10
0
20
-10
30
0
39
0
210
0
220
0
230
1
50
360
0
POINT
5
18F
100
AcDbEntity
8
Defpoints
62
0
6
ByLayer
370
-1
48
1
60
0
100
AcDbPoint
10
0
20
-35.952229
30
0
39
0
210
0
220
0
230
1
50
360
0
ENDBLK
5
186
100
AcDbEntity
8
0
100
AcDbBlockEnd
0
BLOCK
5
197
100
AcDbEntity
8
0
100
AcDbBlockBegin
2
_U2
70
0
10
0
20
0
30
0
3
_U2
0
MTEXT
5
191
100
AcDbEntity
8
SK2
62
256
6
ByLayer
370
18
48
1
60
0
100
AcDbMText
10
-29.48237
20
-35.067115
30
0
210
0
220
0
230
1
1
\W0.7468;50.00
40
3
41
0
44
1.084337
50
0
71
7
72
5
7
iso_b_vert
0
LINE
5
192
100
AcDbEntity
8
SK2
62
256
6
ByLayer
370
13
48
1
60
0
100
AcDbLine
10
-50
20
-11.5875
30
0
11
-50
21
-37.952229
31
0
39
0
210
0
220
0
230
1
0
LINE
5
193
100
AcDbEntity
8
SK2
62
256
6
ByLayer
370
13
48
1
60
0
100
AcDbLine
10
0
20
-11.5875
30
0
11
0
21
-37.952229
31
0
39
0
210
0
220
0
230
1
0
LINE
5
194
100
AcDbEntity
8
SK2
62
256
6
ByLayer
370
13
48
1
60
0
100
AcDbLine
10
-50
20
-35.952229
30
0
11
0
21
-35.952229
31
0
39
0
210
0
220
0
230
1
0
SOLID
5
195
100
AcDbEntity
8
SK2
62
256
6
ByLayer
370
18
48
1
60
0
100
AcDbTrace
10
-50
20
-35.952229
30
0
11
-46.500002
21
-35.491446
31
0
12
-46.499998
22
-36.413013
32
0
13
-46.499998
23
-36.413013
33
0
39
0
210
0
220
0
230
1
0
SOLID
5
196
100
AcDbEntity
8
SK2
62
256
6
ByLayer
370
18
48
1
60
0
100
AcDbTrace
10
0
20
-35.952229
30
0
11
-3.499998
21
-36.413013
31
0
12
-3.500002
22
-35.491446
32
0
13
-3.500002
23
-35.491446
33
0
39
0
210
0
220
0
230
1
0
ENDBLK
5
198
100
AcDbEntity
8
0
100
AcDbBlockEnd
0
BLOCK
5
19D
100
AcDbEntity
8
0
100
AcDbBlockBegin
2
*D7
70
1
10
0
20
0
30
0
3
*D7
0
LINE
5
19F
100
AcDbEntity
8
0
62
256
6
ByLayer
370
-2
48
1
60
0
100
AcDbLine
10
126.5
20
1.5875
30
0
11
126.5
21
34.952229
31
0
39
0
210
0
220
0
230
1
0
LINE
5
1A0
100
AcDbEntity
8
0
62
256
6
ByLayer
370
-2
48
1
60
0
100
AcDbLine
10
23
20
10.5875
30
0
11
23
21
34.952229
31
0
39
0
210
0
220
0
230
1
0
LINE
5
1A1
100
AcDbEntity
8
0
62
256
6
ByLayer
370
-2
48
1
60
0
100
AcDbLine
10
123
20
32.952229
30
0
11
26.5
21
32.952229
31
0
39
0
210
0
220
0
230
1
0
SOLID
5
1A2
100
AcDbEntity
8
0
62
256
6
ByLayer
370
-1
48
1
60
0
100
AcDbTrace
10
123
20
32.368896
30
0
11
123
21
33.535563
31
0
12
126.5
22
32.952229
32
0
13
126.5
23
32.952229
33
0
39
0
210
0
220
0
230
1
0
SOLID
5
1A3
100
AcDbEntity
8
0
62
256
6
ByLayer
370
-1
48
1
60
0
100
AcDbTrace
10
26.5
20
33.535563
30
0
11
26.5
21
32.368896
31
0
12
23
22
32.952229
32
0
13
23
23
32.952229
33
0
39
0
210
0
220
0
230
1
0
MTEXT
5
1A4
100
AcDbEntity
8
0
62
256
6
ByLayer
370
18
48
1
60
0
100
AcDbMText
10
74.75
20
38.952229
30
0
210
0
220
0
230
1
1
\A1;103.5
40
3
41
0
44
1
50
0
71
5
72
5
7
iso_b_vert
0
POINT
5
1A5
100
AcDbEntity
8
Defpoints
62
0
6
ByLayer
370
-1
48
1
60
0
100
AcDbPoint
10
126.5
20
0
30
0
39
0
210
0
220
0
230
1
50
360
0
POINT
5
1A6
100
AcDbEntity
8
Defpoints
62
0
6
ByLayer
370
-1
48
1
60
0
100
AcDbPoint
10
23
20
9
30
0
39
0
210
0
220
0
230
1
50
360
0
POINT
5
1A7
100
AcDbEntity
8
Defpoints
62
0
6
ByLayer
370
-1
48
1
60
0
100
AcDbPoint
10
23
20
32.952229
30
0
39
0
210
0
220
0
230
1
50
360
0
ENDBLK
5
19E
100
AcDbEntity
8
0
100
AcDbBlockEnd
0
BLOCK
5
1AF
100
AcDbEntity
8
0
100
AcDbBlockBegin
2
_U3
70
0
10
0
20
0
30
0
3
_U3
0
MTEXT
5
1A9
100
AcDbEntity
8
SK2
62
256
6
ByLayer
370
18
48
1
60
0
100
AcDbMText
10
69.521658
20
33.837344
30
0
210
0
220
0
230
1
1
\W0.7022;103.50
40
3
41
0
44
1.084337
50
0
71
7
72
5
7
iso_b_vert
0
LINE
5
1AA
100
AcDbEntity
8
SK2
62
256
6
ByLayer
370
13
48
1
60
0
100
AcDbLine
10
126.5
20
1.5875
30
0
11
126.5
21
34.952229
31
0
39
0
210
0
220
0
230
1
0
LINE
5
1AB
100
AcDbEntity
8
SK2
62
256
6
ByLayer
370
13
48
1
60
0
100
AcDbLine
10
23
20
10.5875
30
0
11
23
21
34.952229
31
0
39
0
210
0
220
0
230
1
0
LINE
5
1AC
100
AcDbEntity
8
SK2
62
256
6
ByLayer
370
13
48
1
60
0
100
AcDbLine
10
126.5
20
32.952229
30
0
11
23
21
32.952229
31
0
39
0
210
0
220
0
230
1
0
SOLID
5
1AD
100
AcDbEntity
8
SK2
62
256
6
ByLayer
370
18
48
1
60
0
100
AcDbTrace
10
126.5
20
32.952229
30
0
11
123.000002
21
32.491446
31
0
12
122.999998
22
33.413013
32
0
13
122.999998
23
33.413013
33
0
39
0
210
0
220
0
230
1
0
SOLID
5
1AE
100
AcDbEntity
8
SK2
62
256
6
ByLayer
370
18
48
1
60
0
100
AcDbTrace
10
23
20
32.952229
30
0
11
26.499998
21
33.413013
31
0
12
26.500002
22
32.491446
32
0
13
26.500002
23
32.491446
33
0
39
0
210
0
220
0
230
1
0
ENDBLK
5
1B0
100
AcDbEntity
8
0
100
AcDbBlockEnd
0
ENDSEC
0
SECTION
2
ENTITIES
0
ARC
5
C0
100
AcDbEntity
8
SK2
62
256
6
ByLayer
370
13
48
1
60
0
100
AcDbCircle
39
0
10
126.5
20
0
30
0
40
18.9999999999999
210
0
220
0
230
1
100
AcDbArc
50
290
51
70
0
ELLIPSE
5
C1
100
AcDbEntity
8
SK1
62
256
6
ByLayer
370
18
48
1
60
0
100
AcDbEllipse
10
209.817277
20
0
30
0
11
286.362532830084
21
-3.24477297310427E-13
31
0
210
0
220
0
230
1
40
0.034921
41
2.47357625657654
42
2.64710298745217
0
ELLIPSE
5
C2
100
AcDbEntity
8
SK1
62
256
6
ByLayer
370
18
48
1
60
0
100
AcDbEllipse
10
-22.723687
20
0
30
0
11
10.7236871002449
21
-1.21510065339267E-14
31
0
210
0
220
0
230
1
40
0.932515
41
-0.59537570803654
42
0.595375708036542
0
ELLIPSE
5
C3
100
AcDbEntity
8
SK1
62
256
6
ByLayer
370
18
48
1
60
0
100
AcDbEllipse
10
209.817277
20
0
30
0
11
286.362532824103
21
-3.2447729730365E-13
31
0
210
0
220
0
230
1
40
0.034921
41
-2.64710298745053
42
-2.47357625657208
0
ELLIPSE
5
C4
100
AcDbEntity
8
SK1
62
256
6
ByLayer
370
18
48
1
60
0
100
AcDbEllipse
10
-34.674849
20
0
30
0
11
-1.83690953073338E-15
21
-9.99999999999897
31
0
210
0
220
0
230
1
40
0.932515
41
-1.94446667349865
42
-1.19712598009114
0
POINT
5
70
100
AcDbEntity
8
80
62
256
6
ByLayer
370
18
48
1
60
0
100
AcDbPoint
10
0
20
0
30
0
39
0
210
0
220
0
230
1
50
360
0
POINT
5
72
100
AcDbEntity
8
81
62
256
6
ByLayer
370
18
48
1
60
0
100
AcDbPoint
10
126.5
20
0
30
0
39
0
210
0
220
0
230
1
50
360
0
POINT
5
74
100
AcDbEntity
8
1
62
256
6
ByLayer
370
18
48
1
60
1
100
AcDbPoint
10
-50
20
-10
30
0
39
0
210
0
220
0
230
1
50
360
0
POINT
5
76
100
AcDbEntity
8
1
62
256
6
ByLayer
370
18
48
1
60
1
100
AcDbPoint
10
126.5
20
0
30
0
39
0
210
0
220
0
230
1
50
360
0
POINT
5
77
100
AcDbEntity
8
1
62
256
6
ByLayer
370
18
48
1
60
1
100
AcDbPoint
10
126.5
20
0
30
0
39
0
210
0
220
0
230
1
50
360
0
POINT
5
78
100
AcDbEntity
8
1
62
256
6
ByLayer
370
18
48
1
60
1
100
AcDbPoint
10
3
20
-9
30
0
39
0
210
0
220
0
230
1
50
360
0
POINT
5
79
100
AcDbEntity
8
1
62
256
6
ByLayer
370
18
48
1
60
1
100
AcDbPoint
10
-50
20
-10
30
0
39
0
210
0
220
0
230
1
50
360
0
POINT
5
7A
100
AcDbEntity
8
1
62
256
6
ByLayer
370
18
48
1
60
1
100
AcDbPoint
10
0
20
-10
30
0
39
0
210
0
220
0
230
1
50
360
0
POINT
5
7B
100
AcDbEntity
8
1
62
256
6
ByLayer
370
18
48
1
60
1
100
AcDbPoint
10
126.5
20
0
30
0
39
0
210
0
220
0
230
1
50
360
0
POINT
5
7C
100
AcDbEntity
8
1
62
256
6
ByLayer
370
18
48
1
60
1
100
AcDbPoint
10
23
20
9
30
0
39
0
210
0
220
0
230
1
50
360
0
SPLINE
5
C5
100
AcDbEntity
8
1
62
256
6
ByLayer
370
18
48
1
60
0
100
AcDbSpline
70
4
71
3
72
14
73
10
40
0
40
0
40
0
40
0
40
0.250000000000004
40
0.250000000000004
40
0.500000000000003
40
0.500000000000003
40
0.750000000000002
40
0.750000000000002
40
1
40
1
40
1
40
1
41
1
10
13.0646037482181
20
7.96731313554963
30
0
41
1
10
12.8046512005641
20
8.00531743171334
30
0
41
1
10
12.5461602868175
20
8.04328309736988
30
0
41
1
10
12.0314992276145
20
8.1179825844884
30
0
41
1
10
11.7753269305941
20
8.15471675041485
30
0
41
1
10
11.2649063590495
20
8.226107226247
30
0
41
1
10
11.0106568819081
20
8.26076607108166
30
0
41
1
10
10.5039484425389
20
8.32742872956774
30
0
41
1
10
10.251489441419
20
8.35943684503067
30
0
41
1
10
10
20
8.38991092605389
30
0
0
SPLINE
5
C6
100
AcDbEntity
8
1
62
256
6
ByLayer
370
18
48
1
60
0
100
AcDbSpline
70
4
71
3
72
26
73
22
40
0
40
0
40
0
40
0
40
0.12500000000001
40
0.12500000000001
40
0.187500000000012
40
0.187500000000012
40
0.250000000000013
40
0.250000000000013
40
0.312500000000015
40
0.312500000000015
40
0.375000000000016
40
0.375000000000016
40
0.500000000000011
40
0.500000000000011
40
0.750000000000002
40
0.750000000000002
40
0.812500000000001
40
0.812500000000001
40
0.875000000000001
40
0.875000000000001
40
1
40
1
40
1
40
1
41
1
10
123.224267891634
20
-1.28640336641419
30
0
41
1
10
122.822504503114
20
-1.14215149903129
30
0
41
1
10
122.420985017135
20
-0.997405783127448
30
0
41
1
10
121.819129542965
20
-0.779386638518844
30
0
41
1
10
121.618581358582
20
-0.706564420728455
30
0
41
1
10
121.217632979896
20
-0.560601761275137
30
0
41
1
10
121.017244168896
20
-0.487429746122729
30
0
41
1
10
120.616556583637
20
-0.340929092723656
30
0
41
1
10
120.416225853637
20
-0.26768912582051
30
0
41
1
10
120.015501477948
20
-0.121476042109037
30
0
41
1
10
119.815120702872
20
-0.0484672021678989
30
0
41
1
10
119.213934229584
20
0.170299511205144
30
0
41
1
10
118.813085806777
20
0.315801636495763
30
0
41
1
10
117.610440467456
20
0.751485451527856
30
0
41
1
10
116.80853221252
20
1.04081580367014
30
0
41
1
10
115.806304214224
20
1.40199067768165
30
0
41
1
10
115.605866182106
20
1.47420025152044
30
0
41
1
10
115.205011134977
20
1.61858380734006
30
0
41
1
10
115.004593040747
20
1.69075469961854
30
0
41
1
10
114.403049957758
20
1.90633542419206
30
0
41
1
10
114.00167924933
20
2.04893199309933
30
0
41
1
10
113.6
20
2.19049845652034
30
0
0
SPLINE
5
C7
100
AcDbEntity
8
1
62
256
6
ByLayer
370
18
48
1
60
0
100
AcDbSpline
70
4
71
3
72
86
73
82
40
0
40
0
40
0
40
0
40
0.0312499999999985
40
0.0312499999999985
40
0.0624999999999971
40
0.0624999999999971
40
0.124999999999996
40
0.124999999999996
40
0.140624999999995
40
0.140624999999995
40
0.148437499999996
40
0.148437499999996
40
0.156249999999996
40
0.187499999999998
40
0.187499999999998
40
0.218749999999999
40
0.218749999999999
40
0.250000000000001
40
0.250000000000001
40
0.281250000000002
40
0.281250000000002
40
0.296875000000002
40
0.296875000000002
40
0.312500000000002
40
0.312500000000002
40
0.343750000000001
40
0.343750000000001
40
0.375000000000001
40
0.375000000000001
40
0.406250000000001
40
0.406250000000001
40
0.437500000000001
40
0.437500000000001
40
0.445312500000001
40
0.445312500000001
40
0.453125000000001
40
0.468750000000002
40
0.468750000000002
40
0.500000000000002
40
0.500000000000002
40
0.531250000000003
40
0.531250000000003
40
0.539062500000003
40
0.539062500000003
40
0.546875000000004
40
0.562500000000005
40
0.562500000000005
40
0.593750000000006
40
0.593750000000006
40
0.625000000000007
40
0.625000000000007
40
0.632812500000007
40
0.632812500000007
40
0.640625000000008
40
0.65625000000001
40
0.65625000000001
40
0.687500000000016
40
0.687500000000016
40
0.718750000000021
40
0.718750000000021
40
0.726562500000021
40
0.726562500000021
40
0.734375000000022
40
0.734375000000022
40
0.75000000000002
40
0.75000000000002
40
0.781250000000018
40
0.781250000000018
40
0.812500000000015
40
0.843750000000013
40
0.843750000000013
40
0.851562500000012
40
0.851562500000012
40
0.859375000000012
40
0.87500000000001
40
0.87500000000001
40
0.906250000000008
40
0.937500000000005
40
0.968750000000002
40
0.968750000000002
40
1
40
1
40
1
40
1
41
1
10
123.224267891636
20
8.714245041662
30
0
41
1
10
123.280477612785
20
8.57487577492839
30
0
41
1
10
123.336775005186
20
8.43341165547108
30
0
41
1
10
123.449641368583
20
8.14662236400741
30
0
41
1
10
123.506210242206
20
8.00129646253188
30
0
41
1
10
123.676425395911
20
7.5598825771815
30
0
41
1
10
123.790595916165
20
7.25838920247364
30
0
41
1
10
123.934298194004
20
6.87316348904915
30
0
41
1
10
123.963086848335
20
6.79569790403525
30
0
41
1
10
124.00634020071
20
6.67887390226224
30
0
41
1
10
124.020779641426
20
6.63980127701629
30
0
41
1
10
124.049630677775
20
6.56158532968419
30
0
41
1
10
124.121651599314
20
6.36596788715119
30
0
41
1
10
124.193145119514
20
6.16996790787769
30
0
41
1
10
124.306815547049
20
5.8558773658325
30
0
41
1
10
124.363291921218
20
5.6985871028761
30
0
41
1
10
124.475402264099
20
5.38348372725963
30
0
41
1
10
124.531037949591
20
5.22567135233612
30
0
41
1
10
124.64122870379
20
4.90944509861868
30
0
41
1
10
124.695785902915
20
4.75103195653605
30
0
41
1
10
124.776510698683
20
4.5128558351993
30
0
41
1
10
124.80323233846
20
4.43337051407991
30
0
41
1
10
124.856229897152
20
4.27418745306241
30
0
41
1
10
124.88250972684
20
4.19447540448829
30
0
41
1
10
124.960171305638
20
3.95612923787681
30
0
41
1
10
125.0105167509
20
3.79790460238232
30
0
41
1
10
125.107428778666
20
3.48254332427078
30
0
41
1
10
125.154001760574
20
3.32540770169265
30
0
41
1
10
125.241953509919
20
3.01189947582671
30
0
41
1
10
125.28333974498
20
2.85552756103436
30
0
41
1
10
125.358785481253
20
2.54312429972927
30
0
41
1
10
125.392848432885
20
2.38709170746611
30
0
41
1
10
125.428947734253
20
2.19193915531062
30
0
41
1
10
125.435847899004
20
2.15286330841769
30
0
41
1
10
125.448908074721
20
2.07488202851377
30
0
41
1
10
125.467365495258
20
1.95831696464489
30
0
41
1
10
125.482225443916
20
1.84298812656138
30
0
41
1
10
125.506663544328
20
1.61404240821321
30
0
41
1
10
125.515861316991
20
1.46368659991535
30
0
41
1
10
125.518338180823
20
1.16805689208229
30
0
41
1
10
125.511602657374
20
1.02278539959911
30
0
41
1
10
125.493287862176
20
0.844845900386161
30
0
41
1
10
125.489127714165
20
0.809388121473262
30
0
41
1
10
125.479882084364
20
0.739111250000491
30
0
41
1
10
125.464652257057
20
0.634813763583793
30
0
41
1
10
125.445573574918
20
0.533828774599584
30
0
41
1
10
125.402923362499
20
0.336169353247556
30
0
41
1
10
125.368523936326
20
0.210135814545623
30
0
41
1
10
125.290889134198
20
-0.0308959098829007
30
0
41
1
10
125.24766035291
20
-0.145897357156059
30
0
41
1
10
125.189535510792
20
-0.282853788557503
30
0
41
1
10
125.177690816756
20
-0.309933390732965
30
0
41
1
10
125.153682893172
20
-0.363262262194269
30
0
41
1
10
125.117220882279
20
-0.441952567861279
30
0
41
1
10
125.079547832662
20
-0.516810162048159
30
0
41
1
10
125.002879074577
20
-0.661567402605925
30
0
41
1
10
124.950020448748
20
-0.751475404867136
30
0
41
1
10
124.841834678984
20
-0.918532737491148
30
0
41
1
10
124.786500253871
20
-0.995679702064194
30
0
41
1
10
124.716121536258
20
-1.08414808420119
30
0
41
1
10
124.701984364137
20
-1.10144255945872
30
0
41
1
10
124.673592401713
20
-1.13522971017988
30
0
41
1
10
124.659336120002
20
-1.15172274392984
30
0
41
1
10
124.616587635098
20
-1.19978550125501
30
0
41
1
10
124.588053228268
20
-1.2300161827504
30
0
41
1
10
124.502388406663
20
-1.31539524239662
30
0
41
1
10
124.445200644896
20
-1.36524157179056
30
0
41
1
10
124.330773370083
20
-1.45113814643361
30
0
41
1
10
124.216291603515
20
-1.52323581122226
30
0
41
1
10
124.101668590506
20
-1.5677628602119
30
0
41
1
10
124.02992575598
20
-1.58678691259544
30
0
41
1
10
124.015573007898
20
-1.59014901539143
30
0
41
1
10
123.986987344867
20
-1.59596188285792
30
0
41
1
10
123.944238579219
20
-1.6033280839309
30
0
41
1
10
123.901865111579
20
-1.60667950238223
30
0
41
1
10
123.817581700944
20
-1.6081186650797
30
0
41
1
10
123.706439576194
20
-1.59601947936301
30
0
41
1
10
123.542851314644
20
-1.53655121574712
30
0
41
1
10
123.435492881191
20
-1.46929251385461
30
0
41
1
10
123.328791677822
20
-1.38791558765263
30
0
41
1
10
123.276190531629
20
-1.34048486255037
30
0
41
1
10
123.224267891636
20
-1.2864033664151
30
0
0
SPLINE
5
C8
100
AcDbEntity
8
1
62
256
6
ByLayer
370
18
48
1
60
0
100
AcDbSpline
70
4
71
3
72
16
73
12
40
0
40
0
40
0
40
0
40
0.230177073239656
40
0.230177073239656
40
0.326404939084696
40
0.326404939084696
40
0.422632804929736
40
0.422632804929736
40
0.615088536619828
40
0.615088536619828
40
1
40
1
40
1
40
1
41
1
10
116.974562795986
20
8.99888731838081
30
0
41
1
10
117.45407353352
20
8.99899002658765
30
0
41
1
10
117.933394708498
20
8.9940381028679
30
0
41
1
10
118.612704178012
20
8.97976584636453
30
0
41
1
10
118.81291843594
20
8.9746591948383
30
0
41
1
10
119.213271121406
20
8.96263386496565
30
0
41
1
10
119.413437784997
20
8.95571951411773
30
0
41
1
10
120.014237281156
20
8.93237769934629
30
0
41
1
10
120.415064089935
20
8.91333609402912
30
0
41
1
10
121.618131244477
20
8.84584652034525
30
0
41
1
10
122.420995276848
20
8.78709494327836
30
0
41
1
10
123.224267891634
20
8.71424504166225
30
0
0
SPLINE
5
C9
100
AcDbEntity
8
1
62
256
6
ByLayer
370
18
48
1
60
0
100
AcDbSpline
70
4
71
3
72
46
73
42
40
0
40
0
40
0
40
0
40
0.0667066902228828
40
0.0667066902228828
40
0.133413380445766
40
0.133413380445766
40
0.200120070668648
40
0.200120070668648
40
0.23347341578009
40
0.23347341578009
40
0.266826760891531
40
0.266826760891531
40
0.333533451114413
40
0.333533451114413
40
0.400240141337294
40
0.400240141337294
40
0.466946831560175
40
0.466946831560175
40
0.500300176671615
40
0.500300176671615
40
0.516976849227335
40
0.516976849227335
40
0.533653521783054
40
0.533653521783054
40
0.600360212005939
40
0.600360212005939
40
0.667066902228824
40
0.667066902228824
40
0.733773592451708
40
0.733773592451708
40
0.76712693756315
40
0.76712693756315
40
0.800480282674591
40
0.800480282674591
40
0.867186972897476
40
0.867186972897476
40
0.93389366312036
40
0.93389366312036
40
0.967247008231803
40
0.967247008231803
40
1
40
1
40
1
40
1
41
1
10
16.9688911842323
20
-5.30370836837011
30
0
41
1
10
17.4725921617673
20
-5.44543922921034
30
0
41
1
10
17.9762987639583
20
-5.58278498882541
30
0
41
1
10
18.9834977018913
20
-5.84949298259721
30
0
41
1
10
19.4869892339569
20
-5.97885582854741
30
0
41
1
10
20.4935509427635
20
-6.23011707415725
30
0
41
1
10
20.9966196877894
20
-6.35201813381951
30
0
41
1
10
21.7507528041482
20
-6.52950476876791
30
0
41
1
10
22.0020527208866
20
-6.58777014672995
30
0
41
1
10
22.5044770399065
20
-6.70251713405238
30
0
41
1
10
22.7555689533003
20
-6.75905317009875
30
0
41
1
10
23.5092084423705
20
-6.92483317914693
30
0
41
1
10
24.012039364657
20
-7.03042521046498
30
0
41
1
10
25.0181577720116
20
-7.23254677937086
30
0
41
1
10
25.5214610582114
20
-7.32904672189298
30
0
41
1
10
26.5283616701118
20
-7.51322959487047
30
0
41
1
10
27.0319522878988
20
-7.60092272336493
30
0
41
1
10
27.7874150577974
20
-7.72592134217871
30
0
41
1
10
28.0392327321647
20
-7.76651633524853
30
0
41
1
10
28.4170311633875
20
-7.82567425044905
30
0
41
1
10
28.5429571509145
20
-7.84508639564791
30
0
41
1
10
28.7948050658496
20
-7.88320608076924
30
0
41
1
10
28.9207302644584
20
-7.90192276910028
30
0
41
1
10
29.5503476556232
20
-7.99382508604057
30
0
41
1
10
30.0540012286859
20
-8.06199506444321
30
0
41
1
10
31.0609628369255
20
-8.18815256621542
30
0
41
1
10
31.564285063415
20
-8.24612320690099
30
0
41
1
10
32.5704038376737
20
-8.35203937514277
30
0
41
1
10
33.0731949463895
20
-8.39998860024096
30
0
41
1
10
33.8268485700735
20
-8.46433090793386
30
0
41
1
10
34.0779409494349
20
-8.48453116622557
30
0
41
1
10
34.5803507458382
20
-8.52212559070682
30
0
41
1
10
34.8316592544381
20
-8.53953268256655
30
0
41
1
10
35.5858197485018
20
-8.58768614038593
30
0
41
1
10
36.0888939723047
20
-8.61437814236706
30
0
41
1
10
37.0954279389677
20
-8.65714674484809
30
0
41
1
10
37.5988939496805
20
-8.67322134289495
30
0
41
1
10
38.3542319664895
20
-8.68932825683802
30
0
41
1
10
38.6060345092765
20
-8.69336086447311
30
0
41
1
10
39.1051345305604
20
-8.69867251619826
30
0
41
1
10
39.3524178062358
20
-8.69999960730007
30
0
41
1
10
39.5997392565433
20
-8.69999999913441
30
0
0
SPLINE
5
CA
100
AcDbEntity
8
1
62
256
6
ByLayer
370
18
48
1
60
0
100
AcDbSpline
70
4
71
3
72
33
73
29
40
0
40
0
40
0
40
0
40
0.0754057922998508
40
0.0754057922998508
40
0.178138482044319
40
0.178138482044319
40
0.22950482691655
40
0.22950482691655
40
0.280871171788782
40
0.280871171788782
40
0.383603861533245
40
0.383603861533245
40
0.434970206405476
40
0.434970206405476
40
0.486336551277707
40
0.486336551277707
40
0.58906924102217
40
0.58906924102217
40
0.640435585894402
40
0.640435585894402
40
0.691801930766633
40
0.691801930766633
40
0.79453462051109
40
0.897267310255548
40
0.897267310255548
40
0.948633655127774
40
0.948633655127774
40
1
40
1
40
1
40
1
41
1
10
98.8936984105961
20
6.40339785541235
30
0
41
1
10
99.2634623111147
20
6.49109269107203
30
0
41
1
10
99.6331792755622
20
6.57660023827941
30
0
41
1
10
100.506391519292
20
6.77361941507894
30
0
41
1
10
101.009805599467
20
6.883336316514
30
0
41
1
10
101.764538902264
20
7.04216288300734
30
0
41
1
10
102.016012861876
20
7.09420797211032
30
0
41
1
10
102.519089052871
20
7.19592658063232
30
0
41
1
10
102.770753146452
20
7.24550332199564
30
0
41
1
10
103.526073358289
20
7.39051645660751
30
0
41
1
10
104.030030956692
20
7.4822840470546
30
0
41
1
10
104.786402452408
20
7.61291943890595
30
0
41
1
10
105.038648314947
20
7.65529770099644
30
0
41
1
10
105.542950380571
20
7.73768541052908
30
0
41
1
10
105.795018615809
20
7.77769828123945
30
0
41
1
10
106.550933648774
20
7.89423229377894
30
0
41
1
10
107.054483484176
20
7.96726394622306
30
0
41
1
10
107.809112296308
20
8.06977138960244
30
0
41
1
10
108.060583163128
20
8.10271189764237
30
0
41
1
10
108.56375868795
20
8.16576117339332
30
0
41
1
10
108.815417031649
20
8.19592282585228
30
0
41
1
10
109.570529604791
20
8.2824430901569
30
0
41
1
10
110.577701358835
20
8.38725322923344
30
0
41
1
10
111.585199080506
20
8.47147028492606
30
0
41
1
10
112.340783883531
20
8.52692606925226
30
0
41
1
10
112.592639679501
20
8.5441243388176
30
0
41
1
10
113.096321027878
20
8.57592132717389
30
0
41
1
10
113.348108201272
20
8.59053507655759
30
0
41
1
10
113.6
20
8.60377644042512
30
0
0
SPLINE
5
CB
100
AcDbEntity
8
1
62
256
6
ByLayer
370
18
48
1
60
0
100
AcDbSpline
70
4
71
3
72
66
73
62
40
0
40
0
40
0
40
0
40
0.0474924005937641
40
0.0474924005937641
40
0.0949848011875281
40
0.0949848011875281
40
0.11873100148441
40
0.11873100148441
40
0.142477201781292
40
0.142477201781292
40
0.189969602375056
40
0.189969602375056
40
0.23746200296882
40
0.23746200296882
40
0.284954403562584
40
0.284954403562584
40
0.308700603859466
40
0.308700603859466
40
0.332446804156348
40
0.332446804156348
40
0.35619300445323
40
0.35619300445323
40
0.379939204750112
40
0.379939204750112
40
0.427431605343874
40
0.427431605343874
40
0.451177805640755
40
0.451177805640755
40
0.474924005937636
40
0.474924005937636
40
0.522416406531396
40
0.522416406531396
40
0.569908807125155
40
0.569908807125155
40
0.617401207718915
40
0.617401207718915
40
0.641147408015796
40
0.641147408015796
40
0.664893608312677
40
0.664893608312677
40
0.688639808609558
40
0.688639808609558
40
0.712386008906439
40
0.712386008906439
40
0.7598784095002
40
0.7598784095002
40
0.807370810093962
40
0.807370810093962
40
0.831117010390843
40
0.831117010390843
40
0.854863210687724
40
0.854863210687724
40
0.902355611281486
40
0.902355611281486
40
0.949848011875248
40
0.949848011875248
40
0.97359421217213
40
0.97359421217213
40
0.997340412469012
40
0.997340412469012
40
1
40
1
40
1
40
1
41
1
10
113.6
20
2.01232022405745
30
0
41
1
10
113.075323035129
20
2.19169812947391
30
0
41
1
10
112.550926827979
20
2.36919495461157
30
0
41
1
10
111.5027853912
20
2.72072846311681
30
0
41
1
10
110.979041188825
20
2.89476851851907
30
0
41
1
10
110.194019620072
20
3.15349311585672
30
0
41
1
10
109.932447528264
20
3.23935151040587
30
0
41
1
10
109.409499410009
20
3.41026838664251
30
0
41
1
10
109.148081971771
20
3.49521511252294
30
0
41
1
10
108.363602933327
20
3.74748869179376
30
0
41
1
10
107.840447438937
20
3.91260702267013
30
0
41
1
10
106.793906071083
20
4.2370719446788
30
0
41
1
10
106.270516498151
20
4.39640917664528
30
0
41
1
10
105.223611181412
20
4.70956058705016
30
0
41
1
10
104.700102213489
20
4.86339150652472
30
0
41
1
10
103.914834400233
20
5.09013450314109
30
0
41
1
10
103.653089489868
20
5.16507260229832
30
0
41
1
10
103.129247494627
20
5.31278308126633
30
0
41
1
10
102.867178041535
20
5.3856225204778
30
0
41
1
10
102.342757979737
20
5.52931712927912
30
0
41
1
10
102.080363250608
20
5.60018490823765
30
0
41
1
10
101.555837097739
20
5.73983233464858
30
0
41
1
10
101.293647469822
20
5.80862803804729
30
0
41
1
10
100.507315701461
20
6.01198364418175
30
0
41
1
10
99.9834076677166
20
6.14351190002159
30
0
41
1
10
99.1981191056038
20
6.33492645144497
30
0
41
1
10
98.9364519267846
20
6.39775029043719
30
0
41
1
10
98.4133225121257
20
6.52144189143286
30
0
41
1
10
98.1518945182905
20
6.58237152164295
30
0
41
1
10
97.3675309420768
20
6.76147307579069
30
0
41
1
10
96.8444402670175
20
6.87583997089436
30
0
41
1
10
95.7980092589313
20
7.09488125203339
30
0
41
1
10
95.2746663571916
20
7.19955083606857
30
0
41
1
10
94.2278275611761
20
7.39937079327538
30
0
41
1
10
93.7043358045912
20
7.49452840955919
30
0
41
1
10
92.9190822579423
20
7.63016157915138
30
0
41
1
10
92.6573507189484
20
7.67421662747387
30
0
41
1
10
92.1337604500874
20
7.75975984919896
30
0
41
1
10
91.8718347840734
20
7.80115959874772
30
0
41
1
10
91.3476771800824
20
7.88117795793769
30
0
41
1
10
91.085430764543
20
7.91981259521643
30
0
41
1
10
90.560766557185
20
7.99434497790705
30
0
41
1
10
90.2985059529889
20
8.03022009513458
30
0
41
1
10
89.5119543141933
20
8.13371798167287
30
0
41
1
10
88.9878905735353
20
8.19721751855909
30
0
41
1
10
87.9404926610703
20
8.31333854942611
30
0
41
1
10
87.4171850668269
20
8.3659799718514
30
0
41
1
10
86.6327979638108
20
8.4366553447525
30
0
41
1
10
86.3713635660908
20
8.45877925787781
30
0
41
1
10
85.8483572634365
20
8.50005081523162
30
0
41
1
10
85.5868126114589
20
8.5192190789293
30
0
41
1
10
84.8020774647349
20
8.57237427854488
30
0
41
1
10
84.2787847012659
20
8.60201721860778
30
0
41
1
10
83.2320232617031
20
8.64982283266502
30
0
41
1
10
82.7085545566672
20
8.66798684973722
30
0
41
1
10
81.9233207937503
20
8.68655004536313
30
0
41
1
10
81.6615703801095
20
8.69128856487956
30
0
41
1
10
81.1380693148659
20
8.6978320523929
30
0
41
1
10
80.8763054597945
20
8.69963029520153
30
0
41
1
10
80.5850225832411
20
8.69998413287232
30
0
41
1
10
80.555682763934
20
8.70000127772749
30
0
41
1
10
80.5263411102279
20
8.69999994458604
30
0
0
SPLINE
5
CC
100
AcDbEntity
8
1
62
256
6
ByLayer
370
18
48
1
60
0
100
AcDbSpline
70
4
71
3
72
20
73
16
40
0
40
0
40
0
40
0
40
0.0377213368365443
40
0.0377213368365443
40
0.230177069469232
40
0.230177069469232
40
0.326404935785579
40
0.326404935785579
40
0.422632802101925
40
0.422632802101925
40
0.615088534734617
40
0.615088534734617
40
0.807544267367309
40
0.807544267367309
40
1
40
1
40
1
40
1
41
1
10
21.2218838672936
20
-6.40545577078538
30
0
41
1
10
21.1193307745279
20
-6.42979541023928
30
0
41
1
10
21.0167845093755
20
-6.45397171351939
30
0
41
1
10
20.3910871935345
20
-6.60050528086393
30
0
41
1
10
19.8681215275178
20
-6.71880669291184
30
0
41
1
10
19.0840578232294
20
-6.89001331627725
30
0
41
1
10
18.8227959138755
20
-6.94608755493343
30
0
41
1
10
18.3002257272881
20
-7.05582625435537
30
0
41
1
10
18.0388632266122
20
-7.10940098776078
30
0
41
1
10
17.2545347590009
20
-7.2662642562133
30
0
41
1
10
16.7313426536443
20
-7.36572224605973
30
0
41
1
10
15.6844488881101
20
-7.55465155967494
30
0
41
1
10
15.1607455146782
20
-7.64412075005978
30
0
41
1
10
14.1129377231214
20
-7.81315655717299
30
0
41
1
10
13.5888339931801
20
-7.89272560656252
30
0
41
1
10
13.0646037482182
20
-7.96731313554901
30
0
0
SPLINE
5
CD
100
AcDbEntity
8
1
62
256
6
ByLayer
370
18
48
1
60
0
100
AcDbSpline
70
4
71
3
72
10
73
6
40
0
40
0
40
0
40
0
40
0.713266754713151
40
0.713266754713151
40
1
40
1
40
1
40
1
41
1
10
113.6
20
-8.91470194192488
30
0
41
1
10
114.402472251662
20
-8.95485152610084
30
0
41
1
10
115.20507801456
20
-8.98035297574773
30
0
41
1
10
116.329783940363
20
-8.99646500363758
30
0
41
1
10
116.652216273922
20
-8.99881827446106
30
0
41
1
10
116.974562942707
20
-8.99888731841227
30
0
0
SPLINE
5
CE
100
AcDbEntity
8
1
62
256
6
ByLayer
370
18
48
1
60
0
100
AcDbSpline
70
4
71
3
72
181
73
177
40
0
40
0
40
0
40
0
40
0.0030073208702044
40
0.0030073208702044
40
0.0111793920106121
40
0.0111793920106121
40
0.0193514631510199
40
0.0193514631510199
40
0.035695605431835
40
0.035695605431835
40
0.0520397477126501
40
0.0520397477126501
40
0.0683838899934652
40
0.0683838899934652
40
0.076555961133873
40
0.076555961133873
40
0.0806419967040768
40
0.0806419967040768
40
0.0847280322742807
40
0.0847280322742807
40
0.101072174555097
40
0.101072174555097
40
0.117416316835914
40
0.117416316835914
40
0.133760459116731
40
0.133760459116731
40
0.141932530257139
40
0.141932530257139
40
0.150104601397547
40
0.150104601397547
40
0.166448743678365
40
0.166448743678365
40
0.182792885959182
40
0.182792885959182
40
0.19096495709959
40
0.19096495709959
40
0.199137028239999
40
0.199137028239999
40
0.203223063810203
40
0.203223063810203
40
0.207309099380408
40
0.215481170520816
40
0.215481170520816
40
0.231825312801632
40
0.231825312801632
40
0.248169455082449
40
0.248169455082449
40
0.256341526222858
40
0.256341526222858
40
0.264513597363266
40
0.264513597363266
40
0.280857739644082
40
0.280857739644082
40
0.297201881924898
40
0.297201881924898
40
0.313546024205715
40
0.313546024205715
40
0.321718095346123
40
0.321718095346123
40
0.325804130916327
40
0.325804130916327
40
0.329890166486531
40
0.329890166486531
40
0.346234308767347
40
0.346234308767347
40
0.362578451048163
40
0.362578451048163
40
0.378922593328979
40
0.378922593328979
40
0.387094664469388
40
0.387094664469388
40
0.395266735609796
40
0.395266735609796
40
0.411610877890613
40
0.411610877890613
40
0.427955020171429
40
0.427955020171429
40
0.436127091311837
40
0.436127091311837
40
0.444299162452245
40
0.444299162452245
40
0.448385198022449
40
0.448385198022449
40
0.452471233592653
40
0.460643304733062
40
0.460643304733062
40
0.476987447013879
40
0.476987447013879
40
0.493331589294695
40
0.493331589294695
40
0.501503660435104
40
0.501503660435104
40
0.509675731575512
40
0.509675731575512
40
0.526019873856329
40
0.526019873856329
40
0.542364016137146
40
0.542364016137146
40
0.558708158417962
40
0.558708158417962
40
0.566880229558371
40
0.566880229558371
40
0.570966265128575
40
0.570966265128575
40
0.575052300698779
40
0.575052300698779
40
0.591396442979596
40
0.591396442979596
40
0.607740585260413
40
0.607740585260413
40
0.624084727541229
40
0.624084727541229
40
0.632256798681638
40
0.632256798681638
40
0.640428869822046
40
0.640428869822046
40
0.656773012102864
40
0.656773012102864
40
0.673117154383681
40
0.673117154383681
40
0.689461296664499
40
0.689461296664499
40
0.693547332234703
40
0.693547332234703
40
0.697633367804908
40
0.697633367804908
40
0.705805438945317
40
0.705805438945317
40
0.722149581226134
40
0.722149581226134
40
0.73849372350695
40
0.73849372350695
40
0.746665794647359
40
0.746665794647359
40
0.754837865787767
40
0.754837865787767
40
0.771182008068585
40
0.771182008068585
40
0.787526150349402
40
0.787526150349402
40
0.803870292630219
40
0.803870292630219
40
0.812042363770628
40
0.812042363770628
40
0.816128399340832
40
0.816128399340832
40
0.820214434911035
40
0.820214434911035
40
0.83655857719185
40
0.83655857719185
40
0.852902719472665
40
0.852902719472665
40
0.86924686175348
40
0.86924686175348
40
0.877418932893888
40
0.877418932893888
40
0.885591004034296
40
0.885591004034296
40
0.901935146315112
40
0.901935146315112
40
0.910107217455519
40
0.910107217455519
40
0.918279288595926
40
0.918279288595926
40
0.93462343087674
40
0.93462343087674
40
0.942795502017147
40
0.942795502017147
40
0.950967573157555
40
0.950967573157555
40
0.96731171543837
40
0.983655857719185
40
0.983655857719185
40
0.991827928859592
40
0.991827928859592
40
1
40
1
40
1
40
1
41
1
10
21.221823038602
20
6.40466327975483
30
0
41
1
10
21.3143505798111
20
6.42667809780914
30
0
41
1
10
21.4068681433685
20
6.44857087271143
30
0
41
1
10
21.7507528041482
20
6.52950476876791
30
0
41
1
10
22.0020527208866
20
6.58777014672998
30
0
41
1
10
22.5044770399065
20
6.70251713405238
30
0
41
1
10
22.7555689533003
20
6.75905317009878
30
0
41
1
10
23.5092084423706
20
6.92483317914696
30
0
41
1
10
24.012039364657
20
7.03042521046501
30
0
41
1
10
25.0181577720117
20
7.23254677937089
30
0
41
1
10
25.5214610582114
20
7.32904672189298
30
0
41
1
10
26.5283616701118
20
7.51322959487047
30
0
41
1
10
27.0319522878988
20
7.60092272336496
30
0
41
1
10
27.7874150577975
20
7.72592134217874
30
0
41
1
10
28.0392327321647
20
7.76651633524853
30
0
41
1
10
28.4170311633875
20
7.82567425044905
30
0
41
1
10
28.5429571509145
20
7.84508639564791
30
0
41
1
10
28.7948050658496
20
7.88320608076924
30
0
41
1
10
28.9207302644584
20
7.90192276910028
30
0
41
1
10
29.5503476556233
20
7.99382508604057
30
0
41
1
10
30.0540012286859
20
8.06199506444321
30
0
41
1
10
31.0609628369255
20
8.18815256621542
30
0
41
1
10
31.564285063415
20
8.24612320690099
30
0
41
1
10
32.5704038376737
20
8.35203937514277
30
0
41
1
10
33.0731949463895
20
8.39998860024096
30
0
41
1
10
33.8268485700736
20
8.46433090793386
30
0
41
1
10
34.0779409494349
20
8.48453116622557
30
0
41
1
10
34.5803507458382
20
8.52212559070682
30
0
41
1
10
34.8316592544381
20
8.53953268256655
30
0
41
1
10
35.5858197485018
20
8.58768614038593
30
0
41
1
10
36.0888939723047
20
8.61437814236706
30
0
41
1
10
37.0954279389677
20
8.65714674484809
30
0
41
1
10
37.5988939496806
20
8.67322134289498
30
0
41
1
10
38.3542319664895
20
8.68932825683802
30
0
41
1
10
38.6060345092765
20
8.69336086447311
30
0
41
1
10
39.1096671726722
20
8.69872075465801
30
0
41
1
10
39.3614830751465
20
8.70004781940767
30
0
41
1
10
39.7392674094638
20
8.69997411527083
30
0
41
1
10
39.8652016530184
20
8.69960511495555
30
0
41
1
10
40.1170533673497
20
8.69818396350061
30
0
41
1
10
40.4948350729378
20
8.69502826196813
30
0
41
1
10
40.8726021862747
20
8.68883131104295
30
0
41
1
10
41.6280477737798
20
8.67242883491912
30
0
41
1
10
42.1315619364303
20
8.65615566984832
30
0
41
1
10
43.1381770198308
20
8.61299160445219
30
0
41
1
10
43.6412747852209
20
8.58610022879267
30
0
41
1
10
44.3954470472504
20
8.53764281276455
30
0
41
1
10
44.6467594493455
20
8.52013519893714
30
0
41
1
10
45.1492076778453
20
8.48236417893489
30
0
41
1
10
45.4003031338895
20
8.46206930002128
30
0
41
1
10
46.1538961985401
20
8.3973997690733
30
0
41
1
10
46.6567021802626
20
8.34928169454014
30
0
41
1
10
47.662773816173
20
8.2430008079416
30
0
41
1
10
48.166054725564
20
8.18484639172664
30
0
41
1
10
49.1729143110036
20
8.05833222262572
30
0
41
1
10
49.6764863756763
20
7.98996581511048
30
0
41
1
10
50.431921846514
20
7.8794343832875
30
0
41
1
10
50.6837358671482
20
7.84124406069216
30
0
41
1
10
51.0615067423632
20
7.78196450309412
30
0
41
1
10
51.1874462100477
20
7.76188196154598
30
0
41
1
10
51.4393015569462
20
7.72119281120618
30
0
41
1
10
51.5652307188084
20
7.70058017833583
30
0
41
1
10
52.1948691583414
20
7.59616991757443
30
0
41
1
10
52.6985441473198
20
7.50832413327154
30
0
41
1
10
53.7055484158913
20
7.32378529526881
30
0
41
1
10
54.2088925703688
20
7.2271127551634
30
0
41
1
10
55.2150586188345
20
7.02463561395751
30
0
41
1
10
55.7178747057449
20
6.91882073178095
30
0
41
1
10
56.4715658979146
20
6.75287648257074
30
0
41
1
10
56.7226658813513
20
6.69627712076189
30
0
41
1
10
57.2250468646488
20
6.5813061187265
30
0
41
1
10
57.4763421499968
20
6.5229665098143
30
0
41
1
10
58.2304662576265
20
6.3452905544662
30
0
41
1
10
58.7335198498957
20
6.22327672798824
30
0
41
1
10
59.7400122893038
20
5.97177343317475
30
0
41
1
10
60.24345874358
20
5.84229956399159
30
0
41
1
10
60.9987693096847
20
5.64210640810208
30
0
41
1
10
61.2505629017312
20
5.57437640662911
30
0
41
1
10
61.7541775991996
20
5.43684860156642
30
0
41
1
10
62.0059896426809
20
5.36702957618172
30
0
41
1
10
62.3837479315858
20
5.2607683028522
30
0
41
1
10
62.5096897416782
20
5.22510549741722
30
0
41
1
10
62.7615487186713
20
5.15351262931574
30
0
41
1
10
63.1393420601938
20
5.04570678995265
30
0
41
1
10
63.5171231439263
20
4.93660161727399
30
0
41
1
10
64.2725993494153
20
4.71651620479113
30
0
41
1
10
64.7761347186653
20
4.56729312684774
30
0
41
1
10
65.7827940283576
20
4.26345326172273
30
0
41
1
10
66.2859157127462
20
4.10883114790232
30
0
41
1
10
67.0401251077791
20
3.87240455548405
30
0
41
1
10
67.2914500349964
20
3.79284756167232
30
0
41
1
10
67.7939234538594
20
3.63217180133404
30
0
41
1
10
68.0450293894451
20
3.55094005618582
30
0
41
1
10
68.798579264451
20
3.30618654039779
30
0
41
1
10
69.3013620990793
20
3.14190323640497
30
0
41
1
10
70.3073906049591
20
2.81023032843444
30
0
41
1
10
70.8106506861781
20
2.64287751344435
30
0
41
1
10
71.8174714488892
20
2.30462186127852
30
0
41
1
10
72.321025710149
20
2.13370135705455
30
0
41
1
10
73.0764344264791
20
1.87417628356215
30
0
41
1
10
73.3282443402346
20
1.78712599843303
30
0
41
1
10
73.7059909179048
20
1.65578438036815
30
0
41
1
10
73.8319321783682
20
1.61188863869003
30
0
41
1
10
74.0837949150731
20
1.52412907522071
30
0
41
1
10
74.2097278952606
20
1.48026861009853
30
0
41
1
10
74.8393870024146
20
1.26102207809575
30
0
41
1
10
75.3430832900611
20
1.08576683646152
30
0
41
1
10
76.35013027922
20
0.734711416601698
30
0
41
1
10
76.8534964087221
20
0.558955834499244
30
0
41
1
10
77.8597099255567
20
0.206401247738796
30
0
41
1
10
78.3625511889047
20
0.0295846684802825
30
0
41
1
10
79.1162803395491
20
-0.236828550280961
30
0
41
1
10
79.3673931796701
20
-0.325949467486453
30
0
41
1
10
79.8697462734606
20
-0.503712167298801
30
0
41
1
10
80.1210278697819
20
-0.59223580509186
30
0
41
1
10
80.8751155747259
20
-0.856943062839832
30
0
41
1
10
81.378148789554
20
-1.03230856719299
30
0
41
1
10
82.3846001343227
20
-1.38149365818521
30
0
41
1
10
82.8880271617419
20
-1.5552878453102
30
0
41
1
10
83.895071704839
20
-1.90188020843584
30
0
41
1
10
84.3986760684267
20
-2.07471567532372
30
0
41
1
10
85.0282356416718
20
-2.29031358855602
30
0
41
1
10
85.1541731941574
20
-2.33339730404867
30
0
41
1
10
85.4060403834276
20
-2.41924582493525
30
0
41
1
10
85.5319749371207
20
-2.46199819139699
30
0
41
1
10
85.9097765955237
20
-2.58975851906135
30
0
41
1
10
86.1616399234271
20
-2.67427511290768
30
0
41
1
10
86.9171468319764
20
-2.92607786457214
30
0
41
1
10
87.4207037798693
20
-3.09162991450526
30
0
41
1
10
88.427407580612
20
-3.41865503836522
30
0
41
1
10
88.9305533106044
20
-3.58013145737152
30
0
41
1
10
89.6848001492104
20
-3.81968325208234
30
0
41
1
10
89.9361377097044
20
-3.89908749642726
30
0
41
1
10
90.4386365488951
20
-4.05703911754736
30
0
41
1
10
90.6897568788419
20
-4.13568828639526
30
0
41
1
10
91.4432685596477
20
-4.36928193054553
30
0
41
1
10
91.9460248684079
20
-4.5213519851149
30
0
41
1
10
92.952010596938
20
-4.81918673918687
30
0
41
1
10
93.4552500525362
20
-4.96492473372899
30
0
41
1
10
94.4620322963501
20
-5.25050445913294
30
0
41
1
10
94.9655689432664
20
-5.39036076728726
30
0
41
1
10
95.7209512838451
20
-5.59599294866047
30
0
41
1
10
95.9727562530048
20
-5.66384837938966
30
0
41
1
10
96.350482043153
20
-5.76457728571773
30
0
41
1
10
96.4764108021578
20
-5.79797119611175
30
0
41
1
10
96.728288887585
20
-5.86421754490223
30
0
41
1
10
96.8542339897561
20
-5.89705426306378
30
0
41
1
10
97.4839915772016
20
-6.05981523481594
30
0
41
1
10
97.9878722423659
20
-6.18554209133163
30
0
41
1
10
98.9954815708591
20
-6.42884013163399
30
0
41
1
10
99.499226290458
20
-6.54637699410875
30
0
41
1
10
100.506391519292
20
-6.773619415079
30
0
41
1
10
101.009805599467
20
-6.883336316514
30
0
41
1
10
101.764538902264
20
-7.04216288300736
30
0
41
1
10
102.016012861876
20
-7.09420797211032
30
0
41
1
10
102.519089052871
20
-7.19592658063237
30
0
41
1
10
102.770753146453
20
-7.24550332199567
30
0
41
1
10
103.526073358289
20
-7.39051645660751
30
0
41
1
10
104.030030956692
20
-7.48228404705463
30
0
41
1
10
104.786402452408
20
-7.61291943890598
30
0
41
1
10
105.038648314947
20
-7.65529770099647
30
0
41
1
10
105.542950380572
20
-7.73768541052914
30
0
41
1
10
105.79501861581
20
-7.77769828123948
30
0
41
1
10
106.550933648774
20
-7.89423229377894
30
0
41
1
10
107.054483484176
20
-7.96726394622306
30
0
41
1
10
107.809112296308
20
-8.06977138960244
30
0
41
1
10
108.060583163128
20
-8.10271189764237
30
0
41
1
10
108.56375868795
20
-8.16576117339332
30
0
41
1
10
108.815417031649
20
-8.19592282585228
30
0
41
1
10
109.570529604791
20
-8.28244309015693
30
0
41
1
10
110.577701358836
20
-8.38725322923344
30
0
41
1
10
111.585199080507
20
-8.47147028492608
30
0
41
1
10
112.340783883531
20
-8.52692606925226
30
0
41
1
10
112.592639679501
20
-8.5441243388176
30
0
41
1
10
113.096321027878
20
-8.57592132717389
30
0
41
1
10
113.348108201272
20
-8.59053507655761
30
0
41
1
10
113.6
20
-8.60377644042512
30
0
0
SPLINE
5
CF
100
AcDbEntity
8
1
62
256
6
ByLayer
370
18
48
1
60
0
100
AcDbSpline
70
4
71
3
72
160
73
156
40
0
40
0
40
0
40
0
40
0.002562228396205
40
0.002562228396205
40
0.0117130336402777
40
0.0117130336402777
40
0.0300146441284223
40
0.0300146441284223
40
0.0483162546165668
40
0.0483162546165668
40
0.0666178651047114
40
0.0666178651047114
40
0.0757686703487841
40
0.0757686703487841
40
0.0849194755928568
40
0.0849194755928568
40
0.0940702808369295
40
0.0940702808369295
40
0.103221086081002
40
0.103221086081002
40
0.121522696569147
40
0.121522696569147
40
0.139824307057291
40
0.139824307057291
40
0.148975112301364
40
0.148975112301364
40
0.158125917545436
40
0.158125917545436
40
0.17642752803358
40
0.17642752803358
40
0.194729138521725
40
0.194729138521725
40
0.203879943765797
40
0.203879943765797
40
0.213030749009869
40
0.213030749009869
40
0.222181554253941
40
0.222181554253941
40
0.231332359498012
40
0.231332359498012
40
0.249633969986155
40
0.249633969986155
40
0.267935580474298
40
0.267935580474298
40
0.277086385718369
40
0.277086385718369
40
0.286237190962441
40
0.286237190962441
40
0.304538801450583
40
0.304538801450583
40
0.322840411938726
40
0.322840411938726
40
0.331991217182798
40
0.331991217182798
40
0.34114202242687
40
0.34114202242687
40
0.350292827670941
40
0.350292827670941
40
0.359443632915013
40
0.359443632915013
40
0.377745243403157
40
0.377745243403157
40
0.3960468538913
40
0.3960468538913
40
0.405197659135372
40
0.405197659135372
40
0.414348464379444
40
0.414348464379444
40
0.432650074867588
40
0.432650074867588
40
0.450951685355732
40
0.450951685355732
40
0.469253295843876
40
0.469253295843876
40
0.478404101087948
40
0.478404101087948
40
0.48755490633202
40
0.48755490633202
40
0.496705711576092
40
0.496705711576092
40
0.505856516820164
40
0.505856516820164
40
0.524158127308307
40
0.524158127308307
40
0.533308932552379
40
0.533308932552379
40
0.54245973779645
40
0.54245973779645
40
0.560761348284593
40
0.560761348284593
40
0.579062958772736
40
0.579062958772736
40
0.597364569260879
40
0.597364569260879
40
0.60651537450495
40
0.60651537450495
40
0.615666179749021
40
0.615666179749021
40
0.624816984993093
40
0.624816984993093
40
0.633967790237164
40
0.633967790237164
40
0.652269400725306
40
0.652269400725306
40
0.661420205969378
40
0.661420205969378
40
0.670571011213449
40
0.670571011213449
40
0.67972181645752
40
0.67972181645752
40
0.688872621701591
40
0.688872621701591
40
0.707174232189733
40
0.707174232189733
40
0.725475842677875
40
0.725475842677875
40
0.734626647921946
40
0.734626647921946
40
0.743777453166017
40
0.743777453166017
40
0.752928258410087
40
0.752928258410087
40
0.762079063654158
40
0.762079063654158
40
0.7803806741423
40
0.7803806741423
40
0.798682284630442
40
0.798682284630442
40
0.807833089874513
40
0.807833089874513
40
0.816983895118584
40
0.816983895118584
40
0.835285505606726
40
0.835285505606726
40
0.853587116094868
40
0.853587116094868
40
0.862737921338939
40
0.862737921338939
40
0.871888726583009
40
0.871888726583009
40
0.890190337071151
40
0.890190337071151
40
0.908491947559292
40
0.908491947559292
40
0.926793558047434
40
0.926793558047434
40
0.935944363291505
40
0.935944363291505
40
0.945095168535575
40
0.945095168535575
40
0.963396779023717
40
0.963396779023717
40
0.981698389511859
40
0.981698389511859
40
1
40
1
40
1
40
1
41
1
10
98.8946257768374
20
-6.40741545871001
30
0
41
1
10
98.8213716567217
20
-6.42488572468704
30
0
41
1
10
98.7481254211968
20
-6.4422792470076
30
0
41
1
10
98.4133225121255
20
-6.52144189143283
30
0
41
1
10
98.1518945182903
20
-6.58237152164293
30
0
41
1
10
97.3675309420767
20
-6.76147307579072
30
0
41
1
10
96.8444402670174
20
-6.87583997089436
30
0
41
1
10
95.7980092589312
20
-7.09488125203339
30
0
41
1
10
95.2746663571916
20
-7.1995508360686
30
0
41
1
10
94.227827561176
20
-7.39937079327538
30
0
41
1
10
93.7043358045911
20
-7.49452840955919
30
0
41
1
10
92.9190822579421
20
-7.63016157915138
30
0
41
1
10
92.6573507189482
20
-7.67421662747384
30
0
41
1
10
92.1337604500873
20
-7.75975984919899
30
0
41
1
10
91.8718347840733
20
-7.80115959874769
30
0
41
1
10
91.3476771800824
20
-7.88117795793769
30
0
41
1
10
91.085430764543
20
-7.91981259521643
30
0
41
1
10
90.5607665571849
20
-7.99434497790705
30
0
41
1
10
90.2985059529889
20
-8.03022009513455
30
0
41
1
10
89.5119543141934
20
-8.13371798167287
30
0
41
1
10
88.9878905735353
20
-8.19721751855906
30
0
41
1
10
87.9404926610703
20
-8.31333854942611
30
0
41
1
10
87.4171850668268
20
-8.36597997185143
30
0
41
1
10
86.6327979638106
20
-8.43665534475247
30
0
41
1
10
86.3713635660908
20
-8.45877925787781
30
0
41
1
10
85.8483572634365
20
-8.50005081523162
30
0
41
1
10
85.5868126114588
20
-8.5192190789293
30
0
41
1
10
84.8020774647348
20
-8.57237427854488
30
0
41
1
10
84.2787847012659
20
-8.60201721860778
30
0
41
1
10
83.2320232617031
20
-8.64982283266502
30
0
41
1
10
82.7085545566672
20
-8.66798684973722
30
0
41
1
10
81.9233207937503
20
-8.68655004536313
30
0
41
1
10
81.6615703801095
20
-8.69128856487953
30
0
41
1
10
81.1380693148659
20
-8.6978320523929
30
0
41
1
10
80.8763054597945
20
-8.69963029520153
30
0
41
1
10
80.3524156539097
20
-8.70026669357438
30
0
41
1
10
80.0903236146537
20
-8.69911060648536
30
0
41
1
10
79.5658613452957
20
-8.69387211327722
30
0
41
1
10
79.303465074156
20
-8.68978824446899
30
0
41
1
10
78.5166987469593
20
-8.67318197105195
30
0
41
1
10
77.9924842490406
20
-8.65631101474875
30
0
41
1
10
76.9447534450596
20
-8.6109838186886
30
0
41
1
10
76.4212435146703
20
-8.58252557605755
30
0
41
1
10
75.636604355022
20
-8.53098427102353
30
0
41
1
10
75.3751913608116
20
-8.51230516248688
30
0
41
1
10
74.8522598942068
20
-8.47216246101493
30
0
41
1
10
74.5907500680281
20
-8.45069917264073
30
0
41
1
10
73.8061091327724
20
-8.38216639207818
30
0
41
1
10
73.2828693323907
20
-8.3309582041943
30
0
41
1
10
72.2361944902288
20
-8.21752897705048
30
0
41
1
10
71.7127565432962
20
-8.15531164005131
30
0
41
1
10
70.9275479021987
20
-8.05356838217531
30
0
41
1
10
70.6658035211892
20
-8.01824874933124
30
0
41
1
10
70.1423100216803
20
-7.94475569629171
30
0
41
1
10
69.8805905750984
20
-7.90654434174422
30
0
41
1
10
69.3569674890606
20
-7.82745258356761
30
0
41
1
10
69.0950115394407
20
-7.7866406964803
30
0
41
1
10
68.5708092067637
20
-7.70251420039827
30
0
41
1
10
68.3085231325762
20
-7.65918859317532
30
0
41
1
10
67.5215468635124
20
-7.52548736410799
30
0
41
1
10
66.9971852518329
20
-7.43147418260634
30
0
41
1
10
65.9491339365536
20
-7.23361764155914
30
0
41
1
10
65.4254472427978
20
-7.12977028264356
30
0
41
1
10
64.6405277286738
20
-6.96638706004757
30
0
41
1
10
64.3790042012667
20
-6.91062985465734
30
0
41
1
10
63.8560952544239
20
-6.79666662518048
30
0
41
1
10
63.5946414132273
20
-6.73858145351227
30
0
41
1
10
62.8101025788067
20
-6.56137263069263
30
0
41
1
10
62.286918447696
20
-6.43916301197004
30
0
41
1
10
61.2403381080789
20
-6.18651704727591
30
0
41
1
10
60.7169382137038
20
-6.05608826170635
30
0
41
1
10
59.6700365695477
20
-5.78674552276809
30
0
41
1
10
59.1465469221394
20
-5.64780521553288
30
0
41
1
10
58.361304219054
20
-5.43273996338658
30
0
41
1
10
58.0995149355213
20
-5.36002856639726
30
0
41
1
10
57.5755780096061
20
-5.21319693298989
30
0
41
1
10
57.3134637482165
20
-5.13900273657515
30
0
41
1
10
56.7889600276898
20
-4.98903531472581
30
0
41
1
10
56.5265674903479
20
-4.91326017848775
30
0
41
1
10
56.0020724971792
20
-4.76027181162021
30
0
41
1
10
55.7399007086539
20
-4.68303886253779
30
0
41
1
10
54.9536297376011
20
-4.44908732201935
30
0
41
1
10
54.4297730933292
20
-4.29012358870943
30
0
41
1
10
53.644579978705
20
-4.04689866189247
30
0
41
1
10
53.3829471177805
20
-3.96502758173901
30
0
41
1
10
52.8598916903338
20
-3.79964694914886
30
0
41
1
10
52.5984840345805
20
-3.71609678055157
30
0
41
1
10
51.8140541838699
20
-3.4643389510677
30
0
41
1
10
51.2909300032988
20
-3.29476183614634
30
0
41
1
10
50.2444517453093
20
-2.95190770215902
30
0
41
1
10
49.7210943418967
20
-2.77863947144058
30
0
41
1
10
48.6742488167253
20
-2.42813403592163
30
0
41
1
10
48.1507664426366
20
-2.25088130414
30
0
41
1
10
47.3655404704732
20
-1.98170187248948
30
0
41
1
10
47.1038310009595
20
-1.8913301628842
30
0
41
1
10
46.580164355652
20
-1.71017414169296
30
0
41
1
10
46.3181823765546
20
-1.61946234724704
30
0
41
1
10
45.7939360443927
20
-1.4377387077555
30
0
41
1
10
45.5316156957294
20
-1.34670583650293
30
0
41
1
10
45.0069788184129
20
-1.16439567439167
30
0
41
1
10
44.744734064472
20
-1.07314441743014
30
0
41
1
10
43.9582370329144
20
-0.799053172571348
30
0
41
1
10
43.4342187703577
20
-0.615884432809224
30
0
41
1
10
42.6487584301435
20
-0.340188827061013
30
0
41
1
10
42.3870338833024
20
-0.248130305483727
30
0
41
1
10
41.8637892570459
20
-0.0636566439010835
30
0
41
1
10
41.6022917270667
20
0.0288232422401791
30
0
41
1
10
41.0793890190575
20
0.213814938004504
30
0
41
1
10
40.8179156321287
20
0.306130898298619
30
0
41
1
10
40.2948708543974
20
0.490250890694114
30
0
41
1
10
40.0333098027705
20
0.58208463619664
30
0
41
1
10
39.2485331366421
20
0.85697428047331
30
0
41
1
10
38.7252218789057
20
1.03941299706784
30
0
41
1
10
37.6784440129771
20
1.40293210208233
30
0
41
1
10
37.1549792876256
20
1.58401794360859
30
0
41
1
10
36.3697668451845
20
1.8549055566443
30
0
41
1
10
36.1080334705633
20
1.9450965508415
30
0
41
1
10
35.5845367508057
20
2.1251579209349
30
0
41
1
10
35.3227180345112
20
2.21487179345945
30
0
41
1
10
34.7987346837344
20
2.39308892459491
30
0
41
1
10
34.5365985863968
20
2.48167279601157
30
0
41
1
10
34.0120541233493
20
2.65783937310434
30
0
41
1
10
33.7496676837433
20
2.74541402889406
30
0
41
1
10
32.9628463346168
20
3.00644588568403
30
0
41
1
10
32.4385085653582
20
3.17828855990714
30
0
41
1
10
31.3903670908234
20
3.51793010814049
30
0
41
1
10
30.8665703110556
20
3.68574731930704
30
0
41
1
10
30.0813730371108
20
3.93462438210673
30
0
41
1
10
29.8197128298831
20
4.01707763328056
30
0
41
1
10
29.2961921587742
20
4.18010090346291
30
0
41
1
10
29.0343655975499
20
4.26075897785847
30
0
41
1
10
28.2487101397635
20
4.50024949602383
30
0
41
1
10
27.7247070220026
20
4.6566050472093
30
0
41
1
10
26.6763313877363
20
4.96297605520272
30
0
41
1
10
26.1519571062139
20
5.11298795609571
30
0
41
1
10
25.3652165819365
20
5.33343678672543
30
0
41
1
10
25.1029167078209
20
5.40616234723996
30
0
41
1
10
24.5787767814076
20
5.54995750820675
30
0
41
1
10
24.3169053980113
20
5.62110870572417
30
0
41
1
10
23.5313380202331
20
5.83108808138459
30
0
41
1
10
23.0077153306354
20
5.96652572152016
30
0
41
1
10
21.9607496592669
20
6.22871789860483
30
0
41
1
10
21.4374037150209
20
6.35546588468424
30
0
41
1
10
20.3910871935345
20
6.6005052808639
30
0
41
1
10
19.8681215275178
20
6.71880669291184
30
0
41
1
10
19.0840578232293
20
6.89001331627725
30
0
41
1
10
18.8227959138755
20
6.9460875549334
30
0
41
1
10
18.3002257272881
20
7.05582625435537
30
0
41
1
10
18.0388632266122
20
7.10940098776075
30
0
41
1
10
17.2545347590009
20
7.26626425621328
30
0
41
1
10
16.7313426536443
20
7.36572224605973
30
0
41
1
10
15.6844488881101
20
7.55465155967491
30
0
41
1
10
15.1607455146782
20
7.64412075005978
30
0
41
1
10
14.1129377231214
20
7.81315655717296
30
0
41
1
10
13.5888339931801
20
7.89272560656252
30
0
41
1
10
13.0646037482183
20
7.96731313554901
30
0
0
SPLINE
5
D0
100
AcDbEntity
8
1
62
256
6
ByLayer
370
18
48
1
60
0
100
AcDbSpline
70
4
71
3
72
22
73
18
40
0
40
0
40
0
40
0
40
0.11274479403185
40
0.11274479403185
40
0.239495537741586
40
0.239495537741586
40
0.366246281451321
40
0.366246281451321
40
0.492997025161057
40
0.492997025161057
40
0.619747768870793
40
0.619747768870793
40
0.746498512580529
40
0.746498512580529
40
0.873249256290264
40
0.873249256290264
40
1
40
1
40
1
40
1
41
1
10
5.79336523870029
20
9.2468567153791
30
0
41
1
10
5.94184858222087
20
9.22743076866246
30
0
41
1
10
6.0920120460126
20
9.20590739813434
30
0
41
1
10
6.41399580028317
20
9.15646591262723
30
0
41
1
10
6.58619072814716
20
9.12808198502523
30
0
41
1
10
6.93353582974393
20
9.06757173652153
30
0
41
1
10
7.10868672049355
20
9.03544315805954
30
0
41
1
10
7.46142666592775
20
8.96792735058452
30
0
41
1
10
7.63901587124701
20
8.93253850269792
30
0
41
1
10
7.99620412126009
20
8.85884008594815
30
0
41
1
10
8.17580296885731
20
8.82052918329777
30
0
41
1
10
8.53667242392328
20
8.74122186744407
30
0
41
1
10
8.71794265648052
20
8.70022421973988
30
0
41
1
10
9.08191627702266
20
8.61571381690916
30
0
41
1
10
9.26461926927723
20
8.57219984943418
30
0
41
1
10
9.63133144851997
20
8.48279888886324
30
0
41
1
10
9.81534036285242
20
8.43691070998912
30
0
41
1
10
10
20
8.38991092605389
30
0
0
SPLINE
5
D1
100
AcDbEntity
8
1
62
256
6
ByLayer
370
18
48
1
60
0
100
AcDbSpline
70
4
71
3
72
94
73
90
40
0
40
0
40
0
40
0
40
0.0625000000000001
40
0.0625000000000001
40
0.0937500000000002
40
0.0937500000000002
40
0.125
40
0.125
40
0.15625
40
0.15625
40
0.1875
40
0.1875
40
0.195312500000001
40
0.195312500000001
40
0.203125000000001
40
0.218750000000001
40
0.218750000000001
40
0.25
40
0.25
40
0.281249999999999
40
0.281249999999999
40
0.296874999999999
40
0.296874999999999
40
0.312499999999999
40
0.312499999999999
40
0.343749999999997
40
0.343749999999997
40
0.374999999999996
40
0.374999999999996
40
0.382812499999996
40
0.382812499999996
40
0.390624999999995
40
0.390624999999995
40
0.406249999999995
40
0.406249999999995
40
0.437499999999995
40
0.437499999999995
40
0.441406249999995
40
0.441406249999995
40
0.445312499999995
40
0.453124999999995
40
0.453124999999995
40
0.468749999999996
40
0.468749999999996
40
0.499999999999996
40
0.499999999999996
40
0.515624999999996
40
0.515624999999996
40
0.531249999999996
40
0.531249999999996
40
0.546874999999996
40
0.546874999999996
40
0.550781249999996
40
0.550781249999996
40
0.554687499999996
40
0.554687499999996
40
0.562499999999996
40
0.562499999999996
40
0.593749999999997
40
0.593749999999997
40
0.609374999999997
40
0.609374999999997
40
0.624999999999998
40
0.624999999999998
40
0.656249999999998
40
0.656249999999998
40
0.687499999999999
40
0.687499999999999
40
0.71875
40
0.71875
40
0.734375
40
0.734375
40
0.75
40
0.75
40
0.78125
40
0.78125
40
0.8125
40
0.8125
40
0.84375
40
0.84375
40
0.875
40
0.875
40
0.90625
40
0.90625
40
0.9375
40
0.9375
40
0.96875
40
0.96875
40
1
40
1
40
1
40
1
41
1
10
10
20
-4.4300836322063
30
0
41
1
10
9.59086222074222
20
-4.50405775707563
30
0
41
1
10
9.1876400772299
20
-4.59440344113401
30
0
41
1
10
8.59189132841033
20
-4.75462519026445
30
0
41
1
10
8.39482406560424
20
-4.81215152978154
30
0
41
1
10
8.00378664245486
20
-4.93551737667198
30
0
41
1
10
7.80981606736168
20
-5.00135596003977
30
0
41
1
10
7.42507066847722
20
-5.14148380233641
30
0
41
1
10
7.23429523063459
20
-5.21577174116146
30
0
41
1
10
6.85608723263007
20
-5.37303253705903
30
0
41
1
10
6.66865368081923
20
-5.45600330440413
30
0
41
1
10
6.43658782690173
20
-5.56538258067491
30
0
41
1
10
6.39024305553983
20
-5.58756338125224
30
0
41
1
10
6.29805003400938
20
-5.63236879140723
30
0
41
1
10
6.16049127548621
20
-5.70024704584137
30
0
41
1
10
6.02514601746972
20
-5.77012163919795
30
0
41
1
10
5.75748067080838
20
-5.91250414188224
30
0
41
1
10
5.58306185159631
20
-6.01093255051091
30
0
41
1
10
5.24284859985946
20
-6.21474247425508
30
0
41
1
10
5.07704896275965
20
-6.32012172471008
30
0
41
1
10
4.83550034846729
20
-6.48348182918079
30
0
41
1
10
4.75617905933925
20
-6.53881854792604
30
0
41
1
10
4.60009023408199
20
-6.65129485664713
30
0
41
1
10
4.52385646014014
20
-6.70805189140506
30
0
41
1
10
4.30107234080145
20
-6.87957428162269
30
0
41
1
10
4.16028858998752
20
-6.99567551302982
30
0
41
1
10
3.89590578766988
20
-7.23087199398552
30
0
41
1
10
3.77228337543147
20
-7.34996664154116
30
0
41
1
10
3.63030508844756
20
-7.50043890068963
30
0
41
1
10
3.60251558334278
20
-7.5306454270403
30
0
41
1
10
3.54868553455248
20
-7.5907314920907
30
0
41
1
10
3.52259159638231
20
-7.62066590752619
30
0
41
1
10
3.44681779816071
20
-7.71011530008133
30
0
41
1
10
3.39964246065688
20
-7.76927678799896
30
0
41
1
10
3.26861084874619
20
-7.9451122987459
30
0
41
1
10
3.19516532776288
20
-8.06014867099219
30
0
41
1
10
3.13051897221777
20
-8.18628964421364
30
0
41
1
10
3.12358559754472
20
-8.20026517166795
30
0
41
1
10
3.11030552084313
20
-8.2279643364858
30
0
41
1
10
3.09123457539428
20
-8.26919393548164
30
0
41
1
10
3.07470435334682
20
-8.30946304196848
30
0
41
1
10
3.04502446455481
20
-8.38871050423234
30
0
41
1
10
3.02974137174704
20
-8.43982191724706
30
0
41
1
10
2.9974870525615
20
-8.58788806412861
30
0
41
1
10
2.9940416217874
20
-8.67959014948076
30
0
41
1
10
3.01747283756021
20
-8.80595439015656
30
0
41
1
10
3.029937773961
20
-8.84548789869939
30
0
41
1
10
3.06361365741509
20
-8.91956946571727
30
0
41
1
10
3.08483004285833
20
-8.95413942577889
30
0
41
1
10
3.13563054525363
20
-9.0185983694866
30
0
41
1
10
3.16521557523831
20
-9.04848693545904
30
0
41
1
10
3.20725707499787
20
-9.08305274364531
30
0
41
1
10
3.21591863306233
20
-9.08982605284245
30
0
41
1
10
3.23374494301254
20
-9.1030958372541
30
0
41
1
10
3.24291992852983
20
-9.10959910561854
30
0
41
1
10
3.27111735912888
20
-9.12864587355398
30
0
41
1
10
3.29077913912445
20
-9.14070769049985
30
0
41
1
10
3.39318938718063
20
-9.19801940930029
30
0
41
1
10
3.48816427122983
20
-9.23433663494654
30
0
41
1
10
3.64713418061101
20
-9.27719853290159
30
0
41
1
10
3.70289087843074
20
-9.28953833985045
30
0
41
1
10
3.8195706600502
20
-9.31065858590406
30
0
41
1
10
3.88052727934402
20
-9.31944224974401
30
0
41
1
10
4.07049037834844
20
-9.34085703494603
30
0
41
1
10
4.20438520914917
20
-9.34836425032216
30
0
41
1
10
4.48400215873755
20
-9.352867945182
30
0
41
1
10
4.6297408678623
20
-9.34984682309431
30
0
41
1
10
4.93120175709538
20
-9.33532939697804
30
0
41
1
10
5.08693216057645
20
-9.32382437712621
30
0
41
1
10
5.32695178554886
20
-9.30131791379003
30
0
41
1
10
5.40803166801697
20
-9.29293726242867
30
0
41
1
10
5.57218477289365
20
-9.27456813788584
30
0
41
1
10
5.6548790697295
20
-9.26462229328868
30
0
41
1
10
5.90456167596398
20
-9.232751304483
30
0
41
1
10
6.07318209910866
20
-9.20879878794705
30
0
41
1
10
6.4139958002832
20
-9.15646591262723
30
0
41
1
10
6.58619072814719
20
-9.12808198502526
30
0
41
1
10
6.93353582974393
20
-9.06757173652156
30
0
41
1
10
7.10868672049355
20
-9.03544315805956
30
0
41
1
10
7.46142666592777
20
-8.96792735058455
30
0
41
1
10
7.63901587124701
20
-8.93253850269792
30
0
41
1
10
7.99620412126009
20
-8.85884008594815
30
0
41
1
10
8.17580296885734
20
-8.82052918329777
30
0
41
1
10
8.53667242392331
20
-8.7412218674441
30
0
41
1
10
8.71794265648052
20
-8.70022421973988
30
0
41
1
10
9.08191627702269
20
-8.61571381690916
30
0
41
1
10
9.26461926927726
20
-8.57219984943418
30
0
41
1
10
9.63133144852
20
-8.48279888886321
30
0
41
1
10
9.81534036285245
20
-8.43691070998912
30
0
41
1
10
10
20
-8.38991092605386
30
0
0
SPLINE
5
D2
100
AcDbEntity
8
1
62
256
6
ByLayer
370
18
48
1
60
0
100
AcDbSpline
70
4
71
3
72
14
73
10
40
0
40
0
40
0
40
0
40
0.25
40
0.25
40
0.5
40
0.5
40
0.75
40
0.75
40
1
40
1
40
1
40
1
41
1
10
13.0646037482181
20
-7.96731313554963
30
0
41
1
10
12.8046512005641
20
-8.00531743171334
30
0
41
1
10
12.5461602868175
20
-8.04328309736991
30
0
41
1
10
12.0314992276145
20
-8.11798258448843
30
0
41
1
10
11.7753269305941
20
-8.15471675041485
30
0
41
1
10
11.2649063590495
20
-8.22610722624697
30
0
41
1
10
11.0106568819081
20
-8.26076607108166
30
0
41
1
10
10.5039484425389
20
-8.32742872956774
30
0
41
1
10
10.251489441419
20
-8.35943684503064
30
0
41
1
10
10
20
-8.38991092605386
30
0
0
SPLINE
5
D3
100
AcDbEntity
8
1
62
256
6
ByLayer
370
18
48
1
60
0
100
AcDbSpline
70
4
71
4
72
10
73
5
40
0
40
0
40
0
40
0
40
0
40
1
40
1
40
1
40
1
40
1
41
0.999367251149942
10
13.8079662425815
20
-4.55541556622727
30
0
41
0.997790818612878
10
13.5558301693037
20
-5.24795413893694
30
0
41
0.994383254778182
10
13.3295136046333
20
-6.09166678494981
30
0
41
0.995028417935338
10
13.1640309556486
20
-7.03065249444185
30
0
41
0.99679551798338
10
13.0646037482182
20
-7.96731313554964
30
0
0
SPLINE
5
D4
100
AcDbEntity
8
1
62
256
6
ByLayer
370
18
48
1
60
0
100
AcDbSpline
70
4
71
3
72
25
73
21
40
0
40
0
40
0
40
0
40
0.124999999999993
40
0.124999999999993
40
0.249999999999986
40
0.249999999999986
40
0.374999999999979
40
0.374999999999979
40
0.499999999999972
40
0.499999999999972
40
0.562499999999971
40
0.562499999999971
40
0.593749999999971
40
0.593749999999971
40
0.62499999999997
40
0.74999999999998
40
0.74999999999998
40
0.87499999999999
40
0.87499999999999
40
1
40
1
40
1
40
1
41
1
10
10
20
-4.4300836322063
30
0
41
1
10
10.2967802674887
20
-4.39919973960593
30
0
41
1
10
10.5929400961846
20
-4.37888526816346
30
0
41
1
10
11.1841180450628
20
-4.35798997887343
30
0
41
1
10
11.4791356218406
20
-4.35741600252626
30
0
41
1
10
12.0681070927852
20
-4.37465889538379
30
0
41
1
10
12.362060569534
20
-4.3924810884746
30
0
41
1
10
12.9489763028073
20
-4.44503797569055
30
0
41
1
10
13.2419382223117
20
-4.47977658948668
30
0
41
1
10
13.6806962712185
20
-4.54325407320044
30
0
41
1
10
13.8268348917422
20
-4.56630563898548
30
0
41
1
10
14.0458800384807
20
-4.60353174507588
30
0
41
1
10
14.1188625297416
20
-4.6163814073349
30
0
41
1
10
14.2644532412079
20
-4.64286825496518
30
0
41
1
10
14.6277002293591
20
-4.71108801771166
30
0
41
1
10
14.9874333981565
20
-4.7888098324573
30
0
41
1
10
15.5592242828506
20
-4.92265528675767
30
0
41
1
10
15.8432297105085
20
-4.99431821674648
30
0
41
1
10
16.4081819412283
20
-5.14449073598527
30
0
41
1
10
16.6891310268408
20
-5.2229929512101
30
0
41
1
10
16.9688911842322
20
-5.30370836837002
30
0
0
SPLINE
5
D5
100
AcDbEntity
8
SK1
62
256
6
ByLayer
370
18
48
1
60
0
100
AcDbSpline
70
4
71
3
72
32
73
28
40
0
40
0
40
0
40
0
40
0.124999999999998
40
0.124999999999998
40
0.249999999999995
40
0.249999999999995
40
0.374999999999994
40
0.374999999999994
40
0.437499999999993
40
0.437499999999993
40
0.499999999999992
40
0.499999999999992
40
0.624999999999988
40
0.624999999999988
40
0.656249999999988
40
0.656249999999988
40
0.687499999999988
40
0.687499999999988
40
0.74999999999999
40
0.74999999999999
40
0.874999999999995
40
0.874999999999995
40
0.906249999999996
40
0.906249999999996
40
0.937499999999998
40
0.937499999999998
40
1
40
1
40
1
40
1
41
1
10
-43.3565069115799
20
-3.65034953143106
30
0
41
1
10
-43.3331458400142
20
-3.71424193668162
30
0
41
1
10
-43.3079887114829
20
-3.77702079626832
30
0
41
1
10
-43.2534212788423
20
-3.90009490817781
30
0
41
1
10
-43.2240149751524
20
-3.96039186522651
30
0
41
1
10
-43.1600568886594
20
-4.07814914960466
30
0
41
1
10
-43.1255132756746
20
-4.13561297938583
30
0
41
1
10
-43.0688646453433
20
-4.21928792338744
30
0
41
1
10
-43.0491724017425
20
-4.24675781820287
30
0
41
1
10
-43.0079384175976
20
-4.30075945417201
30
0
41
1
10
-42.9863407519915
20
-4.32734895814056
30
0
41
1
10
-42.9191284528728
20
-4.40464696643178
30
0
41
1
10
-42.8709653357112
20
-4.45314968312832
30
0
41
1
10
-42.8054200814028
20
-4.509129269905
30
0
41
1
10
-42.7920414880158
20
-4.52009075475445
30
0
41
1
10
-42.7647046009874
20
-4.54151368998052
30
0
41
1
10
-42.7507137384423
20
-4.55199803198428
30
0
41
1
10
-42.7080552923505
20
-4.58246627252342
30
0
41
1
10
-42.6787844981831
20
-4.60141919352105
30
0
41
1
10
-42.588250922941
20
-4.65388326760876
30
0
41
1
10
-42.5243097226538
20
-4.68306815187688
30
0
41
1
10
-42.4386823815538
20
-4.71050598268181
30
0
41
1
10
-42.4212064346087
20
-4.71554997578619
30
0
41
1
10
-42.3860524535981
20
-4.72455026306568
30
0
41
1
10
-42.3683576016114
20
-4.72851630488563
30
0
41
1
10
-42.3149119913326
20
-4.73878190613445
30
0
41
1
10
-42.2788010667419
20
-4.74345326345804
30
0
41
1
10
-42.2421801837133
20
-4.74582511601491
30
0
0
SPLINE
5
D6
100
AcDbEntity
8
SK1
62
256
6
ByLayer
370
18
48
1
60
0
100
AcDbSpline
70
4
71
3
72
32
73
28
40
0
40
0
40
0
40
0
40
0.125000000000003
40
0.125000000000003
40
0.156250000000003
40
0.156250000000003
40
0.187500000000004
40
0.187500000000004
40
0.250000000000005
40
0.250000000000005
40
0.312500000000005
40
0.312500000000005
40
0.343750000000005
40
0.343750000000005
40
0.375000000000006
40
0.375000000000006
40
0.500000000000003
40
0.500000000000003
40
0.625
40
0.625
40
0.6875
40
0.6875
40
0.749999999999999
40
0.749999999999999
40
0.875
40
0.875
40
1
40
1
40
1
40
1
41
1
10
-42.2421801837133
20
4.74582511601491
30
0
41
1
10
-42.3153322469605
20
4.74108722075121
30
0
41
1
10
-42.3858382182456
20
4.7272872503076
30
0
41
1
10
-42.4711061087408
20
4.70015187597528
30
0
41
1
10
-42.48801508965
20
4.69422552159887
30
0
41
1
10
-42.5215500807622
20
4.68139247012627
30
0
41
1
10
-42.538108088977
20
4.67450874413797
30
0
41
1
10
-42.5867495214037
20
4.65272655031879
30
0
41
1
10
-42.6179919315484
20
4.63663028483114
30
0
41
1
10
-42.6784054316375
20
4.60165673094545
30
0
41
1
10
-42.707575323895
20
4.58277786641952
30
0
41
1
10
-42.7499378830322
20
4.55256723042981
30
0
41
1
10
-42.7638261651476
20
4.54218093900309
30
0
41
1
10
-42.7911594285605
20
4.52080182261719
30
0
41
1
10
-42.8046315534326
20
4.50978473494575
30
0
41
1
10
-42.8704332773146
20
4.45367358335039
30
0
41
1
10
-42.9183823606968
20
4.40538606397868
30
0
41
1
10
-43.007200043589
20
4.30347549467811
30
0
41
1
10
-43.0480454261384
20
4.2498368571521
30
0
41
1
10
-43.1050091824334
20
4.16599396786131
30
0
41
1
10
-43.1233071500575
20
4.13742383693679
30
0
41
1
10
-43.1584042823022
20
4.07953032751405
30
0
41
1
10
-43.1751994309136
20
4.05022195040382
30
0
41
1
10
-43.2235710813646
20
3.96130068776944
30
0
41
1
10
-43.2531438067293
20
3.90069540381026
30
0
41
1
10
-43.3079263511211
20
3.77718661911314
30
0
41
1
10
-43.3331314373585
20
3.7142813278675
30
0
41
1
10
-43.3565069115799
20
3.65034953143106
30
0
0
SPLINE
5
D7
100
AcDbEntity
8
SK1
62
256
6
ByLayer
370
18
48
1
60
0
100
AcDbSpline
70
4
71
3
72
30
73
26
40
0
40
0
40
0
40
0
40
0.124999999999979
40
0.124999999999979
40
0.249999999999958
40
0.249999999999958
40
0.374999999999936
40
0.374999999999936
40
0.437499999999926
40
0.437499999999926
40
0.499999999999916
40
0.499999999999916
40
0.624999999999908
40
0.624999999999908
40
0.656249999999909
40
0.656249999999909
40
0.68749999999991
40
0.68749999999991
40
0.749999999999925
40
0.749999999999925
40
0.874999999999955
40
0.874999999999955
40
0.937499999999978
40
0.937499999999978
40
1
40
1
40
1
40
1
41
1
10
-13.8451406288876
20
5.60819856978108
30
0
41
1
10
-13.8759395902576
20
5.65059861248182
30
0
41
1
10
-13.9086043985849
20
5.69152013904011
30
0
41
1
10
-13.97811386775
20
5.77019024979575
30
0
41
1
10
-14.014955839279
20
5.80794050815649
30
0
41
1
10
-14.0934302354091
20
5.87995203844818
30
0
41
1
10
-14.1350574932389
20
5.91421654427231
30
0
41
1
10
-14.2017568377706
20
5.9626308553903
30
0
41
1
10
-14.2245427507748
20
5.97815093867467
30
0
41
1
10
-14.271111369383
20
6.00780504420359
30
0
41
1
10
-14.2949186549204
20
6.02195716348245
30
0
41
1
10
-14.3679929543377
20
6.06230994483028
30
0
41
1
10
-14.4189025587777
20
6.08641928516369
30
0
41
1
10
-14.4856782999412
20
6.11265441828212
30
0
41
1
10
-14.4991911565357
20
6.11770540783806
30
0
41
1
10
-14.5265457311327
20
6.12740066932034
30
0
41
1
10
-14.5403907312758
20
6.13204445753533
30
0
41
1
10
-14.5820565255816
20
6.14522762072318
30
0
41
1
10
-14.6101298025697
20
6.1530644585383
30
0
41
1
10
-14.6952537679042
20
6.17368858860661
30
0
41
1
10
-14.7532042147282
20
6.18360487337517
30
0
41
1
10
-14.8420639597241
20
6.19236276786617
30
0
41
1
10
-14.8721089186227
20
6.1942576600421
30
0
41
1
10
-14.9321260265236
20
6.19588455534111
30
0
41
1
10
-14.9621459212296
20
6.19562887243728
30
0
41
1
10
-14.9921771997116
20
6.19429975368809
30
0
0
SPLINE
5
D8
100
AcDbEntity
8
SK1
62
256
6
ByLayer
370
18
48
1
60
0
100
AcDbSpline
70
4
71
3
72
29
73
25
40
0
40
0
40
0
40
0
40
0.125000000000045
40
0.125000000000045
40
0.25000000000009
40
0.25000000000009
40
0.281250000000093
40
0.281250000000093
40
0.312500000000097
40
0.375000000000092
40
0.375000000000092
40
0.500000000000084
40
0.500000000000084
40
0.562500000000073
40
0.562500000000073
40
0.625000000000062
40
0.625000000000062
40
0.750000000000038
40
0.750000000000038
40
0.875000000000015
40
0.875000000000015
40
0.937500000000008
40
0.937500000000008
40
1
40
1
40
1
40
1
41
1
10
-14.9921771997116
20
-6.19429975368809
30
0
41
1
10
-14.9320573843484
20
-6.19696052531805
30
0
41
1
10
-14.8726744232101
20
-6.19530622075879
30
0
41
1
10
-14.7552923361598
20
-6.18388224594813
30
0
41
1
10
-14.6972937188803
20
-6.17410945589265
30
0
41
1
10
-14.6256493001772
20
-6.15684175670819
30
0
41
1
10
-14.6113371248737
20
-6.15312631775188
30
0
41
1
10
-14.5830607924918
20
-6.14526136952958
30
0
41
1
10
-14.5410867139313
20
-6.13279564418732
30
0
41
1
10
-14.500383626949
20
-6.118393573753
30
0
41
1
10
-14.4205661285236
20
-6.08714648466275
30
0
41
1
10
-14.3694669105832
20
-6.06306708368854
30
0
41
1
10
-14.2956992221607
20
-6.02241573888855
30
0
41
1
10
-14.2715415923124
20
-6.00806907471573
30
0
41
1
10
-14.2247924605031
20
-5.97831973436635
30
0
41
1
10
-14.2021202056678
20
-5.96287721339851
30
0
41
1
10
-14.1360355381032
20
-5.91496059376203
30
0
41
1
10
-14.0945476428777
20
-5.88090305019935
30
0
41
1
10
-14.0160214797599
20
-5.80899071657845
30
0
41
1
10
-13.9789867514485
20
-5.77113330484545
30
0
41
1
10
-13.9264169069796
20
-5.7117020344985
30
0
41
1
10
-13.9093970751005
20
-5.69145219620981
30
0
41
1
10
-13.8764815896183
20
-5.65032851626569
30
0
41
1
10
-13.8605603440826
20
-5.62942644739971
30
0
41
1
10
-13.845140628887
20
-5.60819856978154
30
0
0
SPLINE
5
D9
100
AcDbEntity
8
1
62
256
6
ByLayer
370
13
48
1
60
0
100
AcDbSpline
70
4
71
3
72
40
73
36
40
0
40
0
40
0
40
0
40
0.0625000000000002
40
0.0625000000000002
40
0.125
40
0.125
40
0.1875
40
0.1875
40
0.25
40
0.25
40
0.3125
40
0.3125
40
0.34375
40
0.34375
40
0.375
40
0.375
40
0.4375
40
0.4375
40
0.5
40
0.5
40
0.5625
40
0.5625
40
0.625
40
0.625
40
0.6875
40
0.6875
40
0.75
40
0.75
40
0.8125
40
0.8125
40
0.875
40
0.875
40
0.9375
40
0.9375
40
1
40
1
40
1
40
1
41
1
10
113.6
20
-6.61090328596987
30
0
41
1
10
113.676387729135
20
-6.28978811385417
30
0
41
1
10
113.75277545827
20
-5.94060105492269
30
0
41
1
10
113.905550916541
20
-5.19947718787779
30
0
41
1
10
113.981938645676
20
-4.80760551371088
30
0
41
1
10
114.134714103946
20
-3.99721691554748
30
0
41
1
10
114.211101833082
20
-3.57876849948633
30
0
41
1
10
114.363877291352
20
-2.7318786906921
30
0
41
1
10
114.440265020487
20
-2.30349306934861
30
0
41
1
10
114.593040478758
20
-1.45200642117365
30
0
41
1
10
114.669428207893
20
-1.02893900086866
30
0
41
1
10
114.784009801596
20
-0.407701385946581
30
0
41
1
10
114.822203666163
20
-0.20282497591532
30
0
41
1
10
114.898591395299
20
0.201275053649681
30
0
41
1
10
114.936785259866
20
0.406124123429919
30
0
41
1
10
115.051366853569
20
1.02732806677037
30
0
41
1
10
115.127754582704
20
1.45037999538954
30
0
41
1
10
115.280530040975
20
2.30185359203938
30
0
41
1
10
115.35691777011
20
2.73024168424894
30
0
41
1
10
115.50969322838
20
3.57715716003346
30
0
41
1
10
115.586080957516
20
3.99562879633612
30
0
41
1
10
115.738856415786
20
4.80608520877914
30
0
41
1
10
115.815244144921
20
5.19800148393145
30
0
41
1
10
115.968019603192
20
5.93923392558872
30
0
41
1
10
116.044407332327
20
6.2884849423846
30
0
41
1
10
116.197182790597
20
6.9308580427639
30
0
41
1
10
116.273570519733
20
7.22393529360102
30
0
41
1
10
116.426345978003
20
7.74472910985884
30
0
41
1
10
116.502733707138
20
7.97243181340212
30
0
41
1
10
116.655509165409
20
8.35845459445335
30
0
41
1
10
116.731896894544
20
8.5167919594507
30
0
41
1
10
116.884672352814
20
8.76521093260376
30
0
41
1
10
116.961060081949
20
8.85533188904665
30
0
41
1
10
117.11383554022
20
8.97270231717488
30
0
41
1
10
117.190223269355
20
9
30
0
41
1
10
117.26661099849
20
9
30
0
0
SPLINE
5
DA
100
AcDbEntity
8
1
62
256
6
ByLayer
370
13
48
1
60
0
100
AcDbSpline
70
4
71
3
72
78
73
74
40
0
40
0
40
0
40
0
40
0.0312499999999997
40
0.0312499999999997
40
0.0624999999999994
40
0.0624999999999994
40
0.0937499999999991
40
0.0937499999999991
40
0.124999999999999
40
0.124999999999999
40
0.156249999999999
40
0.156249999999999
40
0.187499999999998
40
0.187499999999998
40
0.218749999999998
40
0.218749999999998
40
0.249999999999998
40
0.249999999999998
40
0.281249999999997
40
0.281249999999997
40
0.312499999999997
40
0.312499999999997
40
0.343749999999997
40
0.343749999999997
40
0.374999999999996
40
0.374999999999996
40
0.406249999999996
40
0.406249999999996
40
0.437499999999996
40
0.437499999999996
40
0.453124999999996
40
0.453124999999996
40
0.460937499999996
40
0.460937499999996
40
0.468749999999996
40
0.468749999999996
40
0.499999999999997
40
0.499999999999997
40
0.531249999999997
40
0.531249999999997
40
0.562499999999997
40
0.562499999999997
40
0.593749999999997
40
0.593749999999997
40
0.624999999999998
40
0.624999999999998
40
0.656249999999998
40
0.656249999999998
40
0.687499999999998
40
0.687499999999998
40
0.718749999999998
40
0.718749999999998
40
0.749999999999999
40
0.749999999999999
40
0.781249999999999
40
0.781249999999999
40
0.812499999999999
40
0.812499999999999
40
0.843749999999999
40
0.843749999999999
40
0.875
40
0.875
40
0.90625
40
0.90625
40
0.921875
40
0.921875
40
0.9296875
40
0.9296875
40
0.9375
40
0.9375
40
0.96875
40
0.96875
40
1
40
1
40
1
40
1
41
1
10
118.068243511959
20
9
30
0
41
1
10
118.121952099247
20
9
30
0
41
1
10
118.175660686535
20
8.98652782403636
30
0
41
1
10
118.28307786111
20
8.9296843557587
30
0
41
1
10
118.336786448399
20
8.88630470172052
30
0
41
1
10
118.444203622975
20
8.76727207103957
30
0
41
1
10
118.497912210262
20
8.69161109781791
30
0
41
1
10
118.605329384838
20
8.50648702235728
30
0
41
1
10
118.659037972126
20
8.39701741013198
30
0
41
1
10
118.766455146702
20
8.14381475687679
30
0
41
1
10
118.82016373399
20
8.00007783444266
30
0
41
1
10
118.927580908566
20
7.67910699794663
30
0
41
1
10
118.981289495854
20
7.50187274126264
30
0
41
1
10
119.08870667043
20
7.11596796238817
30
0
41
1
10
119.142415257718
20
6.90730106444559
30
0
41
1
10
119.249832432294
20
6.46183788788773
30
0
41
1
10
119.303541019582
20
6.22504898406982
30
0
41
1
10
119.410958194158
20
5.72772834684761
30
0
41
1
10
119.464666781446
20
5.46720687318975
30
0
41
1
10
119.572083956022
20
4.92761884277124
30
0
41
1
10
119.62579254331
20
4.64856408536892
30
0
41
1
10
119.733209717886
20
4.07758195976649
30
0
41
1
10
119.786918305174
20
3.78566640032059
30
0
41
1
10
119.89433547975
20
3.19474975937965
30
0
41
1
10
119.948044067038
20
2.89575910533119
30
0
41
1
10
120.055461241614
20
2.29625528327813
30
0
41
1
10
120.109169828902
20
1.99575016429401
30
0
41
1
10
120.216587003478
20
1.3982757550304
30
0
41
1
10
120.270295590766
20
1.10131165291091
30
0
41
1
10
120.350858471698
20
0.661782669806655
30
0
41
1
10
120.377712765342
20
0.516253230808786
30
0
41
1
10
120.417994205808
20
0.299780190616929
30
0
41
1
10
120.43142135263
20
0.227925624923955
30
0
41
1
10
120.458275646274
20
0.0848762736170272
30
0
41
1
10
120.471702793096
20
0.0139049064111134
30
0
41
1
10
120.538838527206
20
-0.3421648372547
30
0
41
1
10
120.592547114493
20
-0.632520952710649
30
0
41
1
10
120.699964289069
20
-1.22058936636421
30
0
41
1
10
120.753672876357
20
-1.51829895756344
30
0
41
1
10
120.861090050933
20
-2.11662326881253
30
0
41
1
10
120.914798638221
20
-2.41723240727592
30
0
41
1
10
121.022215812797
20
-3.01622181538465
30
0
41
1
10
121.075924400085
20
-3.31459367686412
30
0
41
1
10
121.183341574661
20
-3.9035020876685
30
0
41
1
10
121.237050161949
20
-4.19402795553404
30
0
41
1
10
121.344467336525
20
-4.7614545209214
30
0
41
1
10
121.398175923813
20
-5.03834332394865
30
0
41
1
10
121.505593098389
20
-5.57286572130931
30
0
41
1
10
121.559301685677
20
-5.83048763473903
30
0
41
1
10
121.666718860253
20
-6.32136547854378
30
0
41
1
10
121.720427447541
20
-6.55461146630699
30
0
41
1
10
121.827844622117
20
-6.99247618831339
30
0
41
1
10
121.881553209405
20
-7.19708801438645
30
0
41
1
10
121.988970383981
20
-7.57453008986005
30
0
41
1
10
122.042678971269
20
-7.7473572501813
30
0
41
1
10
122.150096145845
20
-8.05933504602106
30
0
41
1
10
122.203804733133
20
-8.19848653712387
30
0
41
1
10
122.311221907709
20
-8.44251076749893
30
0
41
1
10
122.364930494997
20
-8.5473878019456
30
0
41
1
10
122.472347669573
20
-8.72347384715405
30
0
41
1
10
122.526056256861
20
-8.7946896358938
30
0
41
1
10
122.633473431436
20
-8.90510673140568
30
0
41
1
10
122.687182018724
20
-8.94431614594723
30
0
41
1
10
122.767744899656
20
-8.98097078792517
30
0
41
1
10
122.7945991933
20
-8.98950133545858
30
0
41
1
10
122.834880633766
20
-8.99703782292625
30
0
41
1
10
122.848307780588
20
-8.99867368019878
30
0
41
1
10
122.875162074232
20
-9.00024082662193
30
0
41
1
10
122.888589221054
20
-9.00017873036202
30
0
41
1
10
122.955724955164
20
-8.99562625729189
30
0
41
1
10
123.009433542452
20
-8.97829973085555
30
0
41
1
10
123.116850717028
20
-8.91338849362535
30
0
41
1
10
123.170559304316
20
-8.86579541109126
30
0
41
1
10
123.224267891604
20
-8.801935782583
30
0
0
SPLINE
5
DB
100
AcDbEntity
8
1
62
256
6
ByLayer
370
13
48
1
60
0
100
AcDbSpline
70
4
71
3
72
42
73
38
40
0
40
0
40
0
40
0
40
0.062499999999998
40
0.062499999999998
40
0.124999999999996
40
0.124999999999996
40
0.187499999999994
40
0.187499999999994
40
0.218749999999993
40
0.218749999999993
40
0.234374999999993
40
0.234374999999993
40
0.249999999999993
40
0.249999999999993
40
0.312499999999994
40
0.312499999999994
40
0.374999999999994
40
0.374999999999994
40
0.437499999999995
40
0.437499999999995
40
0.499999999999996
40
0.499999999999996
40
0.562499999999996
40
0.562499999999996
40
0.624999999999997
40
0.624999999999997
40
0.687499999999998
40
0.687499999999998
40
0.749999999999998
40
0.749999999999998
40
0.812499999999999
40
0.812499999999999
40
0.874999999999999
40
0.874999999999999
40
0.9375
40
0.9375
40
1
40
1
40
1
40
1
41
1
10
113.6
20
-4.1990084489685
30
0
41
1
10
113.666044573971
20
-3.84505914025561
30
0
41
1
10
113.732089147943
20
-3.482237001058
30
0
41
1
10
113.864178295886
20
-2.74949281768582
30
0
41
1
10
113.930222869857
20
-2.37959748751629
30
0
41
1
10
114.0623120178
20
-1.64261797187089
30
0
41
1
10
114.128356591772
20
-1.27555124048021
30
0
41
1
10
114.227423452729
20
-0.733388059407616
30
0
41
1
10
114.260445739715
20
-0.554060057172052
30
0
41
1
10
114.309979170193
20
-0.287818948551489
30
0
41
1
10
114.326490313686
20
-0.199529472051807
30
0
41
1
10
114.359512600672
20
-0.0239646393651753
30
0
41
1
10
114.376023744165
20
0.0631438355802345
30
0
41
1
10
114.458579461629
20
0.502806742062347
30
0
41
1
10
114.5246240356
20
0.862609728513718
30
0
41
1
10
114.656713183543
20
1.59123967130114
30
0
41
1
10
114.722757757515
20
1.96005632092962
30
0
41
1
10
114.854846905458
20
2.69782051848284
30
0
41
1
10
114.920891479429
20
3.06674777038665
30
0
41
1
10
115.052980627372
20
3.79452825179362
30
0
41
1
10
115.119025201343
20
4.15335260580983
30
0
41
1
10
115.251114349286
20
4.85015625010951
30
0
41
1
10
115.317158923258
20
5.18810215521256
30
0
41
1
10
115.449248071201
20
5.83276397537622
30
0
41
1
10
115.515292645172
20
6.13944801180568
30
0
41
1
10
115.647381793115
20
6.71259085658417
30
0
41
1
10
115.713426367086
20
6.97902556319647
30
0
41
1
10
115.845515515029
20
7.46492752089381
30
0
41
1
10
115.911560089001
20
7.68438295353471
30
0
41
1
10
116.043649236944
20
8.07239090276417
30
0
41
1
10
116.109693810915
20
8.24094522482062
30
0
41
1
10
116.241782958858
20
8.52617433243773
30
0
41
1
10
116.30782753283
20
8.64286257826871
30
0
41
1
10
116.439916680772
20
8.82610231739997
30
0
41
1
10
116.505961254744
20
8.89267470383348
30
0
41
1
10
116.638050402687
20
8.97961181413584
30
0
41
1
10
116.704094976658
20
9
30
0
41
1
10
116.77013955063
20
9
30
0
0
SPLINE
5
DC
100
AcDbEntity
8
1
62
256
6
ByLayer
370
13
48
1
60
0
100
AcDbSpline
70
4
71
3
72
77
73
73
40
0
40
0
40
0
40
0
40
0.031250000000001
40
0.031250000000001
40
0.0625000000000019
40
0.0625000000000019
40
0.0937500000000029
40
0.0937500000000029
40
0.125000000000004
40
0.125000000000004
40
0.156250000000005
40
0.156250000000005
40
0.187500000000006
40
0.187500000000006
40
0.218750000000007
40
0.218750000000007
40
0.250000000000008
40
0.250000000000008
40
0.281250000000009
40
0.281250000000009
40
0.31250000000001
40
0.31250000000001
40
0.343750000000011
40
0.343750000000011
40
0.375000000000012
40
0.375000000000012
40
0.406250000000013
40
0.406250000000013
40
0.421875000000013
40
0.421875000000013
40
0.429687500000013
40
0.429687500000013
40
0.437500000000013
40
0.437500000000013
40
0.468750000000012
40
0.468750000000012
40
0.500000000000011
40
0.500000000000011
40
0.53125000000001
40
0.53125000000001
40
0.562500000000009
40
0.562500000000009
40
0.593750000000008
40
0.593750000000008
40
0.625000000000007
40
0.625000000000007
40
0.656250000000006
40
0.656250000000006
40
0.687500000000005
40
0.687500000000005
40
0.718750000000004
40
0.718750000000004
40
0.750000000000003
40
0.750000000000003
40
0.781250000000002
40
0.781250000000002
40
0.812500000000001
40
0.812500000000001
40
0.84375
40
0.84375
40
0.8515625
40
0.8515625
40
0.859375
40
0.875
40
0.875
40
0.90625
40
0.90625
40
0.9375
40
0.9375
40
0.96875
40
0.96875
40
1
40
1
40
1
40
1
41
1
10
117.571772064098
20
9
30
0
41
1
10
117.630652228968
20
9
30
0
41
1
10
117.689532393838
20
8.98380335542595
30
0
41
1
10
117.807292723578
20
8.91515563717172
30
0
41
1
10
117.866172888447
20
8.86269132276882
30
0
41
1
10
117.983933218187
20
8.71851824697524
30
0
41
1
10
118.042813383057
20
8.62679714970099
30
0
41
1
10
118.160573712797
20
8.40240748637359
30
0
41
1
10
118.219453877667
20
8.26972965351894
30
0
41
1
10
118.337214207406
20
7.96334315992959
30
0
41
1
10
118.396094372276
20
7.7896303861182
30
0
41
1
10
118.513854702016
20
7.40291877429974
30
0
41
1
10
118.572734866886
20
7.18992239491243
30
0
41
1
10
118.690495196625
20
6.72824585563762
30
0
41
1
10
118.749375361495
20
6.47957496774589
30
0
41
1
10
118.867135691235
20
5.95183287209966
30
0
41
1
10
118.926015856105
20
5.67277660821873
30
0
41
1
10
119.043776185844
20
5.09085939770048
30
0
41
1
10
119.102656350714
20
4.78801676442245
30
0
41
1
10
119.220416680454
20
4.16592591684397
30
0
41
1
10
119.279296845324
20
3.8466965149907
30
0
41
1
10
119.397057175064
20
3.19946643544671
30
0
41
1
10
119.455937339933
20
2.87148236841117
30
0
41
1
10
119.573697669673
20
2.21407108896247
30
0
41
1
10
119.632577834543
20
1.88465636047948
30
0
41
1
10
119.750338164283
20
1.23096272167243
30
0
41
1
10
119.809218329153
20
0.906691308095049
30
0
41
1
10
119.897538576458
20
0.428281865884742
30
0
41
1
10
119.926978658892
20
0.270136116958298
30
0
41
1
10
119.971138782545
20
0.0353372519253412
30
0
41
1
10
119.985858823762
20
-0.0423302433773642
30
0
41
1
10
120.015298906197
20
-0.198910867542281
30
0
41
1
10
120.030018947415
20
-0.277602868655435
30
0
41
1
10
120.103619153502
20
-0.672896215896941
30
0
41
1
10
120.162499318372
20
-0.99504376750798
30
0
41
1
10
120.280259648111
20
-1.64593266574883
30
0
41
1
10
120.339139812981
20
-1.97466773614326
30
0
41
1
10
120.456900142721
20
-2.63239579591632
30
0
41
1
10
120.515780307591
20
-2.96137747346762
30
0
41
1
10
120.633540637331
20
-3.61242539317252
30
0
41
1
10
120.6924208022
20
-3.93447588714173
30
0
41
1
10
120.81018113194
20
-4.56405990958336
30
0
41
1
10
120.86906129681
20
-4.87157493288177
30
0
41
1
10
120.98682162655
20
-5.46457969218326
30
0
41
1
10
121.04570179142
20
-5.75005072432808
30
0
41
1
10
121.163462121159
20
-6.2921211455313
30
0
41
1
10
121.222342286029
20
-6.5487045284552
30
0
41
1
10
121.340102615769
20
-7.02734718297401
30
0
41
1
10
121.398982780639
20
-7.24939565093706
30
0
41
1
10
121.516743110378
20
-7.65492106510789
30
0
41
1
10
121.575623275248
20
-7.83839387024318
30
0
41
1
10
121.693383604988
20
-8.16455423121815
30
0
41
1
10
121.752263769858
20
-8.30724439875948
30
0
41
1
10
121.870024099598
20
-8.55148140393231
30
0
41
1
10
121.928904264467
20
-8.65303643460567
30
0
41
1
10
122.046664594207
20
-8.81633307544769
30
0
41
1
10
122.105544759077
20
-8.87808648212211
30
0
41
1
10
122.223305088817
20
-8.96448974082256
30
0
41
1
10
122.282185253687
20
-8.98915279810805
30
0
41
1
10
122.355785459774
20
-8.99910833781502
30
0
41
1
10
122.370505500991
20
-9.00005771429076
30
0
41
1
10
122.399945583426
20
-8.99993687023363
30
0
41
1
10
122.444105707079
20
-8.9967214103512
30
0
41
1
10
122.488265830731
20
-8.98411008538514
30
0
41
1
10
122.576586078036
20
-8.94563478779833
30
0
41
1
10
122.635466242906
20
-8.90228189982622
30
0
41
1
10
122.753226572645
20
-8.7769530253602
30
0
41
1
10
122.812106737515
20
-8.69496429309919
30
0
41
1
10
122.929867067255
20
-8.49031468403373
30
0
41
1
10
122.988747232125
20
-8.36764359212765
30
0
41
1
10
123.106507561865
20
-8.0811281536931
30
0
41
1
10
123.165387726734
20
-7.91727827861985
30
0
41
1
10
123.224267891604
20
-7.73348735886569
30
0
0
SPLINE
5
DD
100
AcDbEntity
8
1
62
256
6
ByLayer
370
13
48
1
60
0
100
AcDbSpline
70
4
71
3
72
42
73
38
40
0
40
0
40
0
40
0
40
0.0624999999999998
40
0.0624999999999998
40
0.0937499999999992
40
0.0937499999999992
40
0.109374999999999
40
0.109374999999999
40
0.125
40
0.125
40
0.1875
40
0.1875
40
0.249999999999999
40
0.249999999999999
40
0.312499999999999
40
0.312499999999999
40
0.374999999999999
40
0.374999999999999
40
0.437499999999999
40
0.437499999999999
40
0.499999999999999
40
0.499999999999999
40
0.562499999999999
40
0.562499999999999
40
0.624999999999999
40
0.624999999999999
40
0.687499999999999
40
0.687499999999999
40
0.75
40
0.75
40
0.8125
40
0.8125
40
0.875
40
0.875
40
0.9375
40
0.9375
40
1
40
1
40
1
40
1
41
1
10
113.6
20
-1.45365067828152
30
0
41
1
10
113.655701418808
20
-1.14499009599962
30
0
41
1
10
113.711402837615
20
-0.838916352677103
30
0
41
1
10
113.794954965827
20
-0.387128895280398
30
0
41
1
10
113.822805675231
20
-0.237746411136044
30
0
41
1
10
113.864581739337
20
-0.015856087011997
30
0
41
1
10
113.878507094038
20
0.0576475183169123
30
0
41
1
10
113.906357803442
20
0.205846681348589
30
0
41
1
10
113.920283158144
20
0.280304296014663
30
0
41
1
10
113.989909931654
20
0.654234082097531
30
0
41
1
10
114.045611350461
20
0.958668465431515
30
0
41
1
10
114.157014188077
20
1.57371708154645
30
0
41
1
10
114.212715606885
20
1.88432677066615
30
0
41
1
10
114.3241184445
20
2.50643249883115
30
0
41
1
10
114.379819863308
20
2.81792037608474
30
0
41
1
10
114.491222700923
20
3.4357891639039
30
0
41
1
10
114.546924119731
20
3.74215862085157
30
0
41
1
10
114.658326957346
20
4.34339361291694
30
0
41
1
10
114.714028376154
20
4.63824542556895
30
0
41
1
10
114.825431213769
20
5.21002685326027
30
0
41
1
10
114.881132632577
20
5.48694211065143
30
0
41
1
10
114.992535470192
20
6.01683889820609
30
0
41
1
10
115.048236889
20
6.26980739052181
30
0
41
1
10
115.159639726615
20
6.74662454024354
30
0
41
1
10
115.215341145423
20
6.97046332652948
30
0
41
1
10
115.326743983038
20
7.38501088600009
30
0
41
1
10
115.382445401846
20
7.57571425921015
30
0
41
1
10
115.493848239462
20
7.92139019735015
30
0
41
1
10
115.549549658269
20
8.07636230635873
30
0
41
1
10
115.660952495885
20
8.34947312229252
30
0
41
1
10
115.716653914692
20
8.46761591033658
30
0
41
1
10
115.828056752308
20
8.66740694522241
30
0
41
1
10
115.883758171115
20
8.74906271223293
30
0
41
1
10
115.995161008731
20
8.87748121108996
30
0
41
1
10
116.050862427538
20
8.92425344811119
30
0
41
1
10
116.162265265154
20
8.98550782566267
30
0
41
1
10
116.217966683962
20
9
30
0
41
1
10
116.273668102769
20
9
30
0
0
SPLINE
5
DE
100
AcDbEntity
8
1
62
256
6
ByLayer
370
13
48
1
60
0
100
AcDbSpline
70
4
71
3
72
77
73
73
40
0
40
0
40
0
40
0
40
0.0312499999999996
40
0.0312499999999996
40
0.0624999999999992
40
0.0624999999999992
40
0.0937499999999988
40
0.0937499999999988
40
0.124999999999998
40
0.124999999999998
40
0.156249999999998
40
0.156249999999998
40
0.187499999999998
40
0.187499999999998
40
0.218749999999997
40
0.218749999999997
40
0.249999999999997
40
0.249999999999997
40
0.281249999999996
40
0.281249999999996
40
0.312499999999996
40
0.312499999999996
40
0.343749999999995
40
0.343749999999995
40
0.374999999999995
40
0.374999999999995
40
0.390624999999995
40
0.390624999999995
40
0.398437499999995
40
0.398437499999995
40
0.406249999999995
40
0.406249999999995
40
0.437499999999996
40
0.437499999999996
40
0.468749999999996
40
0.468749999999996
40
0.499999999999996
40
0.499999999999996
40
0.531249999999997
40
0.531249999999997
40
0.562499999999997
40
0.562499999999997
40
0.593749999999998
40
0.593749999999998
40
0.624999999999998
40
0.624999999999998
40
0.656249999999999
40
0.656249999999999
40
0.687499999999999
40
0.687499999999999
40
0.71875
40
0.71875
40
0.75
40
0.75
40
0.78125
40
0.78125
40
0.7890625
40
0.7890625
40
0.796875
40
0.8125
40
0.8125
40
0.84375
40
0.84375
40
0.875
40
0.875
40
0.90625
40
0.90625
40
0.9375
40
0.9375
40
0.96875
40
0.96875
40
1
40
1
40
1
40
1
41
1
10
117.075300616237
20
9
30
0
41
1
10
117.139352358689
20
9
30
0
41
1
10
117.203404101141
20
8.98082645502276
30
0
41
1
10
117.331507586045
20
8.8992041170128
30
0
41
1
10
117.395559328496
20
8.83673517817721
30
0
41
1
10
117.5236628134
20
8.6648592819385
30
0
41
1
10
117.587714555851
20
8.55543413716214
30
0
41
1
10
117.715818040755
20
8.28787490189762
30
0
41
1
10
117.779869783207
20
8.12972850722568
30
0
41
1
10
117.90797326811
20
7.76532053470862
30
0
41
1
10
117.972025010562
20
7.55905605543077
30
0
41
1
10
118.100128495465
20
7.10161112040052
30
0
41
1
10
118.164180237917
20
6.85043904238492
30
0
41
1
10
118.292283722821
20
6.3089065401972
30
0
41
1
10
118.356335465272
20
6.01856511441963
30
0
41
1
10
118.484438950176
20
5.4065340846399
30
0
41
1
10
118.548490692627
20
5.08487085947792
30
0
41
1
10
118.676594177531
20
4.41945346450691
30
0
41
1
10
118.740645919983
20
4.07572815139844
30
0
41
1
10
118.868749404886
20
3.37601235472144
30
0
41
1
10
118.932801147338
20
3.02004814217992
30
0
41
1
10
119.060904632241
20
2.30540283851556
30
0
41
1
10
119.124956374693
20
1.94674162053167
30
0
41
1
10
119.253059859597
20
1.23526779722093
30
0
41
1
10
119.317111602048
20
0.882466875387479
30
0
41
1
10
119.413189215726
20
0.362980223990917
30
0
41
1
10
119.445215086952
20
0.191424674549126
30
0
41
1
10
119.493253893791
20
-0.0629515548495476
30
0
41
1
10
119.509266829404
20
-0.147924375273135
30
0
41
1
10
119.541292700629
20
-0.319078318123672
30
0
41
1
10
119.557305636242
20
-0.405111164884033
30
0
41
1
10
119.637370314307
20
-0.83732134320158
30
0
41
1
10
119.701422056759
20
-1.18970000112734
30
0
41
1
10
119.829525541662
20
-1.9006662413305
30
0
41
1
10
119.893577284114
20
-2.25924249998738
30
0
41
1
10
120.021680769017
20
-2.97410960886759
30
0
41
1
10
120.085732511469
20
-3.33038091627341
30
0
41
1
10
120.213835996373
20
-4.03113199460509
30
0
41
1
10
120.277887738824
20
-4.37558570386668
30
0
41
1
10
120.405991223728
20
-5.04287648663089
30
0
41
1
10
120.47004296618
20
-5.36568471504918
30
0
41
1
10
120.598146451083
20
-5.98038040581216
30
0
41
1
10
120.662198193535
20
-6.27224127535524
30
0
41
1
10
120.790301678438
20
-6.81711092292906
30
0
41
1
10
120.85435342089
20
-7.07010030263388
30
0
41
1
10
120.982456905793
20
-7.5313766749008
30
0
41
1
10
121.046508648245
20
-7.7396548002869
30
0
41
1
10
121.174612133149
20
-8.1081742029308
30
0
41
1
10
121.2386638756
20
-8.26841791981519
30
0
41
1
10
121.366767360504
20
-8.54014669119019
30
0
41
1
10
121.430819102956
20
-8.65164371085919
30
0
41
1
10
121.558922587859
20
-8.82754479585086
30
0
41
1
10
121.622974330311
20
-8.89196687786776
30
0
41
1
10
121.751077815214
20
-8.97730705214093
30
0
41
1
10
121.815129557666
20
-8.99824528088632
30
0
41
1
10
121.895194235731
20
-9.00030604455105
30
0
41
1
10
121.911207171344
20
-8.99952488972082
30
0
41
1
10
121.943233042569
20
-8.9955061597671
30
0
41
1
10
121.991271849408
20
-8.985788353629
30
0
41
1
10
122.039310656247
20
-8.96463475018888
30
0
41
1
10
122.135388269925
20
-8.90619429235068
30
0
41
1
10
122.199440012376
20
-8.84567165045706
30
0
41
1
10
122.32754349728
20
-8.67781075818937
30
0
41
1
10
122.391595239732
20
-8.57045415717008
30
0
41
1
10
122.519698724635
20
-8.3070621943389
30
0
41
1
10
122.583750467087
20
-8.15101419603269
30
0
41
1
10
122.71185395199
20
-7.79072465859286
30
0
41
1
10
122.775905694442
20
-7.58647975983024
30
0
41
1
10
122.904009179345
20
-7.13288284900699
30
0
41
1
10
122.968060921797
20
-6.88353872403928
30
0
41
1
10
123.096164406701
20
-6.34536861151145
30
0
41
1
10
123.160216149153
20
-6.05656121628724
30
0
41
1
10
123.224267891604
20
-5.75189393782486
30
0
0
SPLINE
5
DF
100
AcDbEntity
8
1
62
256
6
ByLayer
370
13
48
1
60
0
100
AcDbSpline
70
4
71
3
72
22
73
18
40
0
40
0
40
0
40
0
40
0.125
40
0.125
40
0.25
40
0.25
40
0.375
40
0.375
40
0.5
40
0.5
40
0.625
40
0.625
40
0.75
40
0.75
40
0.875
40
0.875
40
1
40
1
40
1
40
1
41
1
10
113.6
20
1.23947186011625
30
0
41
1
10
113.690716527288
20
1.74002131816101
30
0
41
1
10
113.781433054576
20
2.24907793201876
30
0
41
1
10
113.962866109151
20
3.26045947711742
30
0
41
1
10
114.053582636439
20
3.76266798882026
30
0
41
1
10
114.235015691015
20
4.73274064544441
30
0
41
1
10
114.325732218303
20
5.2004456349917
30
0
41
1
10
114.507165272878
20
6.07438841495514
30
0
41
1
10
114.597881800167
20
6.48047499967453
30
0
41
1
10
114.779314854742
20
7.20941825658892
30
0
41
1
10
114.87003138203
20
7.53218621587629
30
0
41
1
10
115.051464436606
20
8.08188572436188
30
0
41
1
10
115.142180963894
20
8.30881793410276
30
0
41
1
10
115.323614018469
20
8.66478216450642
30
0
41
1
10
115.414330545757
20
8.7938904371
30
0
41
1
10
115.595763600333
20
8.96144348601919
30
0
41
1
10
115.686480127621
20
9
30
0
41
1
10
115.777196654909
20
9
30
0
0
SPLINE
5
E0
100
AcDbEntity
8
1
62
256
6
ByLayer
370
13
48
1
60
0
100
AcDbSpline
70
4
71
3
72
80
73
76
40
0
40
0
40
0
40
0
40
0.0312499999999987
40
0.0312499999999987
40
0.0624999999999974
40
0.0624999999999974
40
0.0937499999999961
40
0.0937499999999961
40
0.124999999999995
40
0.124999999999995
40
0.156249999999993
40
0.156249999999993
40
0.187499999999992
40
0.187499999999992
40
0.218749999999991
40
0.218749999999991
40
0.24999999999999
40
0.24999999999999
40
0.281249999999988
40
0.281249999999988
40
0.312499999999987
40
0.312499999999987
40
0.343749999999986
40
0.343749999999986
40
0.359374999999985
40
0.359374999999985
40
0.367187499999985
40
0.367187499999985
40
0.374999999999985
40
0.374999999999985
40
0.406249999999985
40
0.406249999999985
40
0.437499999999986
40
0.437499999999986
40
0.468749999999987
40
0.468749999999987
40
0.499999999999988
40
0.499999999999988
40
0.531249999999988
40
0.531249999999988
40
0.562499999999989
40
0.562499999999989
40
0.59374999999999
40
0.59374999999999
40
0.62499999999999
40
0.62499999999999
40
0.656249999999991
40
0.656249999999991
40
0.687499999999992
40
0.687499999999992
40
0.718749999999993
40
0.718749999999993
40
0.722656249999993
40
0.722656249999993
40
0.726562499999993
40
0.726562499999993
40
0.734374999999993
40
0.734374999999993
40
0.749999999999994
40
0.749999999999994
40
0.781249999999994
40
0.781249999999994
40
0.812499999999995
40
0.812499999999995
40
0.843749999999996
40
0.843749999999996
40
0.874999999999997
40
0.874999999999997
40
0.906249999999998
40
0.906249999999998
40
0.937499999999998
40
0.937499999999998
40
0.968749999999999
40
0.968749999999999
40
1
40
1
40
1
40
1
41
1
10
116.578829168377
20
9
30
0
41
1
10
116.64805248841
20
9
30
0
41
1
10
116.717275808444
20
8.97759647509923
30
0
41
1
10
116.855722448511
20
8.88181649103336
30
0
41
1
10
116.924945768545
20
8.80841040312711
30
0
41
1
10
117.063392408612
20
8.60624752169227
30
0
41
1
10
117.132615728646
20
8.47746496375757
30
0
41
1
10
117.271062368713
20
8.16287007583151
30
0
41
1
10
117.340285688747
20
7.97704258839957
30
0
41
1
10
117.478732328814
20
7.55001752821002
30
0
41
1
10
117.547955648848
20
7.30882092287516
30
0
41
1
10
117.686402288915
20
6.77628787316107
30
0
41
1
10
117.755625608948
20
6.48497042714885
30
0
41
1
10
117.894072249016
20
5.86069990867924
30
0
41
1
10
117.963295569049
20
5.52778086152674
30
0
41
1
10
118.101742209116
20
4.8312734692887
30
0
41
1
10
118.17096552915
20
4.4677269760771
30
0
41
1
10
118.309412169217
20
3.72222395405402
30
0
41
1
10
118.378635489251
20
3.34030822952036
30
0
41
1
10
118.517082129318
20
2.57034453954393
30
0
41
1
10
118.586305449352
20
2.18232882109368
30
0
41
1
10
118.724752089419
20
1.41133905538106
30
0
41
1
10
118.793975409453
20
1.02838461737241
30
0
41
1
10
118.897810389503
20
0.464694207323703
30
0
41
1
10
118.93242204952
20
0.27857105571033
30
0
41
1
10
118.984339539545
20
0.0027558841345581
30
0
41
1
10
119.001645369554
20
-0.0885980718412611
30
0
41
1
10
119.036257029571
20
-0.273162884571576
30
0
41
1
10
119.053562859579
20
-0.365988515957014
30
0
41
1
10
119.140092009621
20
-0.832541598991753
30
0
41
1
10
119.209315329654
20
-1.21363037890836
30
0
41
1
10
119.347761969722
20
-1.98263151378279
30
0
41
1
10
119.416985289755
20
-2.37052655749173
30
0
41
1
10
119.555431929823
20
-3.14227261988671
30
0
41
1
10
119.624655249856
20
-3.52609338554632
30
0
41
1
10
119.763101889923
20
-4.27754968633656
30
0
41
1
10
119.832325209957
20
-4.64514543240091
30
0
41
1
10
119.970771850024
20
-5.35180471815914
30
0
41
1
10
120.039995170058
20
-5.6908259555205
30
0
41
1
10
120.178441810125
20
-6.32904513382181
30
0
41
1
10
120.247665130159
20
-6.62820710454198
30
0
41
1
10
120.386111770226
20
-7.17768142896264
30
0
41
1
10
120.455335090259
20
-7.42797184738347
30
0
41
1
10
120.593781730327
20
-7.87383739561892
30
0
41
1
10
120.66300505036
20
-8.06940846210071
30
0
41
1
10
120.801451690428
20
-8.40353056821053
30
0
41
1
10
120.870675010461
20
-8.54209431165214
30
0
41
1
10
121.009121650528
20
-8.76331952791355
30
0
41
1
10
121.078344970562
20
-8.84600541854545
30
0
41
1
10
121.216791610629
20
-8.95943598584378
30
0
41
1
10
121.286014930663
20
-8.99021008623888
30
0
41
1
10
121.363891165701
20
-8.99897231125166
30
0
41
1
10
121.372544080705
20
-8.99958768773331
30
0
41
1
10
121.389849910713
20
-9.00011505621833
30
0
41
1
10
121.398502825718
20
-9.00002898728553
30
0
41
1
10
121.42446157073
20
-8.99871434064841
30
0
41
1
10
121.441767400739
20
-8.99642450488989
30
0
41
1
10
121.493684890764
20
-8.98516093634649
30
0
41
1
10
121.528296550781
20
-8.97179018515166
30
0
41
1
10
121.632131530831
20
-8.91295460372842
30
0
41
1
10
121.701354850865
20
-8.84869676689195
30
0
41
1
10
121.839801490932
20
-8.66541349423366
30
0
41
1
10
121.909024810965
20
-8.5463611524743
30
0
41
1
10
122.047471451033
20
-8.25129134954486
30
0
41
1
10
122.116694771066
20
-8.07525644676639
30
0
41
1
10
122.255141411134
20
-7.66727686002787
30
0
41
1
10
122.324364731167
20
-7.43533010743499
30
0
41
1
10
122.462811371234
20
-6.92014858177092
30
0
41
1
10
122.532034691268
20
-6.63692977948227
30
0
41
1
10
122.670481331335
20
-6.02718990823723
30
0
41
1
10
122.739704651369
20
-5.70070070008723
30
0
41
1
10
122.878151291436
20
-5.0150390141151
30
0
41
1
10
122.94737461147
20
-4.6559076672919
30
0
41
1
10
123.085821251537
20
-3.91708986895353
30
0
41
1
10
123.155044571571
20
-3.53744500950938
30
0
41
1
10
123.224267891604
20
-3.15370342357298
30
0
0
SPLINE
5
E1
100
AcDbEntity
8
1
62
256
6
ByLayer
370
13
48
1
60
0
100
AcDbSpline
70
4
71
3
72
22
73
18
40
0
40
0
40
0
40
0
40
0.125
40
0.125
40
0.25
40
0.25
40
0.375
40
0.375
40
0.5
40
0.5
40
0.625
40
0.625
40
0.75
40
0.75
40
0.875
40
0.875
40
1
40
1
40
1
40
1
41
1
10
113.6
20
3.99046204085431
30
0
41
1
10
113.67003021696
20
4.36923681826241
30
0
41
1
10
113.740060433921
20
4.73918534337397
30
0
41
1
10
113.880120867841
20
5.44877114907771
30
0
41
1
10
113.950151084802
20
5.78836382975163
30
0
41
1
10
114.090211518722
20
6.42572056985182
30
0
41
1
10
114.160241735683
20
6.72344771626089
30
0
41
1
10
114.300302169603
20
7.26804291393196
30
0
41
1
10
114.370332386564
20
7.51488977091847
30
0
41
1
10
114.510392820484
20
7.95208044057435
30
0
41
1
10
114.580423037445
20
8.14242234199881
30
0
41
1
10
114.720483471365
20
8.46470094935231
30
0
41
1
10
114.790513688326
20
8.59665319584516
30
0
41
1
10
114.930574122246
20
8.80377577771671
30
0
41
1
10
115.000604339207
20
8.87897322566133
30
0
41
1
10
115.140664773127
20
8.97706964654199
30
0
41
1
10
115.210694990088
20
9
30
0
41
1
10
115.280725207048
20
9
30
0
0
SPLINE
5
E2
100
AcDbEntity
8
1
62
256
6
ByLayer
370
13
48
1
60
0
100
AcDbSpline
70
4
71
3
72
81
73
77
40
0
40
0
40
0
40
0
40
0.0312499999999994
40
0.0312499999999994
40
0.0624999999999988
40
0.0624999999999988
40
0.0937499999999982
40
0.0937499999999982
40
0.124999999999998
40
0.124999999999998
40
0.156249999999997
40
0.156249999999997
40
0.187499999999996
40
0.187499999999996
40
0.218749999999996
40
0.218749999999996
40
0.249999999999995
40
0.249999999999995
40
0.281249999999995
40
0.281249999999995
40
0.312499999999994
40
0.312499999999994
40
0.328124999999994
40
0.328124999999994
40
0.335937499999994
40
0.335937499999994
40
0.339843749999993
40
0.339843749999993
40
0.343749999999993
40
0.343749999999993
40
0.374999999999992
40
0.374999999999992
40
0.406249999999991
40
0.406249999999991
40
0.43749999999999
40
0.43749999999999
40
0.468749999999989
40
0.468749999999989
40
0.499999999999988
40
0.499999999999988
40
0.531249999999987
40
0.531249999999987
40
0.562499999999986
40
0.562499999999986
40
0.593749999999985
40
0.593749999999985
40
0.624999999999984
40
0.624999999999984
40
0.656249999999983
40
0.656249999999983
40
0.671874999999982
40
0.671874999999982
40
0.675781249999982
40
0.675781249999982
40
0.679687499999982
40
0.687499999999983
40
0.687499999999983
40
0.718749999999984
40
0.718749999999984
40
0.749999999999986
40
0.749999999999986
40
0.781249999999988
40
0.781249999999988
40
0.81249999999999
40
0.81249999999999
40
0.843749999999991
40
0.843749999999991
40
0.874999999999993
40
0.874999999999993
40
0.906249999999995
40
0.906249999999995
40
0.937499999999996
40
0.937499999999996
40
0.968749999999998
40
0.968749999999998
40
1
40
1
40
1
40
1
41
1
10
116.082357720516
20
9
30
0
41
1
10
116.156752618132
20
9
30
0
41
1
10
116.231147515747
20
8.97411268654582
30
0
41
1
10
116.379937310978
20
8.86297986936106
30
0
41
1
10
116.454332208594
20
8.777692047236
30
0
41
1
10
116.603122003825
20
8.54264212955823
30
0
41
1
10
116.67751690144
20
8.39284482932925
30
0
41
1
10
116.826306696671
20
8.02741039222209
30
0
41
1
10
116.900701594287
20
7.81175620647846
30
0
41
1
10
117.049491389518
20
7.31781897969174
30
0
41
1
10
117.123886287133
20
7.03954507649135
30
0
41
1
10
117.272676082364
20
6.42830037614544
30
0
41
1
10
117.34707097998
20
6.09536569314596
30
0
41
1
10
117.495860775211
20
5.38676812022732
30
0
41
1
10
117.570255672826
20
5.01116047388785
30
0
41
1
10
117.719045468057
20
4.23181384718211
30
0
41
1
10
117.793440365673
20
3.82813554842645
30
0
41
1
10
117.942230160904
20
3.00807755534697
30
0
41
1
10
118.016625058519
20
2.59174998753406
30
0
41
1
10
118.16541485375
20
1.76091256060064
30
0
41
1
10
118.239809751366
20
1.34643703060934
30
0
41
1
10
118.351402097789
20
0.73529821423503
30
0
41
1
10
118.388599546597
20
0.533327069138579
30
0
41
1
10
118.444395719808
20
0.233926008538475
30
0
41
1
10
118.462994444212
20
0.134716777850002
30
0
41
1
10
118.490892530818
20
-0.0131060752654548
30
0
41
1
10
118.50019189302
20
-0.0622822930192513
30
0
41
1
10
118.518790617424
20
-0.161163344775105
30
0
41
1
10
118.528089979626
20
-0.21076465035793
30
0
41
1
10
118.611784239443
20
-0.658545150581631
30
0
41
1
10
118.686179137059
20
-1.06642914151359
30
0
41
1
10
118.83496893229
20
-1.89128982715377
30
0
41
1
10
118.909363829905
20
-2.3082436705042
30
0
41
1
10
119.058153625136
20
-3.13789396825524
30
0
41
1
10
119.132548522752
20
-3.55054757748459
30
0
41
1
10
119.281338317983
20
-4.35651320044985
30
0
41
1
10
119.355733215598
20
-4.74976782749224
30
0
41
1
10
119.504523010829
20
-5.501648828405
30
0
41
1
10
119.578917908445
20
-5.86021506317829
30
0
41
1
10
119.727707703676
20
-6.5290439219869
30
0
41
1
10
119.802102601291
20
-6.83925824491286
30
0
41
1
10
119.950892396522
20
-7.40100249880342
30
0
41
1
10
120.025287294138
20
-7.65250767891564
30
0
41
1
10
120.174077089369
20
-8.09088308921963
30
0
41
1
10
120.248471986984
20
-8.27775627285422
30
0
41
1
10
120.397261782215
20
-8.58568196512636
30
0
41
1
10
120.471656679831
20
-8.70676076756359
30
0
41
1
10
120.620446475062
20
-8.88621399514534
30
0
41
1
10
120.694841372677
20
-8.94462811230304
30
0
41
1
10
120.8064337191
20
-8.9900111737966
30
0
41
1
10
120.843631167908
20
-8.99812073935593
30
0
41
1
10
120.890127978918
20
-9.00010584044219
30
0
41
1
10
120.89942734112
20
-9.0000976128733
30
0
41
1
10
120.918026065524
20
-8.99927016004855
30
0
41
1
10
120.94592415213
20
-8.99680655046828
30
0
41
1
10
120.973822238735
20
-8.99060247922222
30
0
41
1
10
121.066815860755
20
-8.96129952961161
30
0
41
1
10
121.14121075837
20
-8.91017111282895
30
0
41
1
10
121.290000553601
20
-8.74592192469791
30
0
41
1
10
121.364395451217
20
-8.63276059819768
30
0
41
1
10
121.513185246448
20
-8.34084138865254
30
0
41
1
10
121.587580144063
20
-8.16205497376225
30
0
41
1
10
121.736369939294
20
-7.73946077548351
30
0
41
1
10
121.81076483691
20
-7.49564679431089
30
0
41
1
10
121.959554632141
20
-6.9483102726997
30
0
41
1
10
122.033949529756
20
-6.64480913417273
30
0
41
1
10
122.182739324987
20
-5.98793395108453
30
0
41
1
10
122.257134222603
20
-5.63460583437816
30
0
41
1
10
122.405924017834
20
-4.89140458625866
30
0
41
1
10
122.480318915449
20
-4.50159092696467
30
0
41
1
10
122.62910871068
20
-3.70060906163582
30
0
41
1
10
122.703503608296
20
-3.2894993155619
30
0
41
1
10
122.852293403527
20
-2.46115229759977
30
0
41
1
10
122.926688301142
20
-2.04396008605565
30
0
41
1
10
123.075478096373
20
-1.21711529104132
30
0
41
1
10
123.149872993989
20
-0.807488067191542
30
0
41
1
10
123.224267891604
20
-0.407147166145393
30
0
0
SPLINE
5
E3
100
AcDbEntity
8
1
62
256
6
ByLayer
370
13
48
1
60
0
100
AcDbSpline
70
4
71
3
72
20
73
16
40
0
40
0
40
0
40
0
40
0.125
40
0.125
40
0.25
40
0.25
40
0.375
40
0.375
40
0.5
40
0.5
40
0.625
40
0.625
40
0.75
40
0.75
40
1
40
1
40
1
40
1
41
1
10
113.6
20
6.44572424608188
30
0
41
1
10
113.649343906633
20
6.65914173043555
30
0
41
1
10
113.698687813266
20
6.86129466216997
30
0
41
1
10
113.797375626531
20
7.24016723322723
30
0
41
1
10
113.846719533164
20
7.41688339586992
30
0
41
1
10
113.94540734643
20
7.74281317680436
30
0
41
1
10
113.994751253063
20
7.89202569932672
30
0
41
1
10
114.093439066328
20
8.16179439441066
30
0
41
1
10
114.142782972961
20
8.28235179062088
30
0
41
1
10
114.241470786227
20
8.49456939708463
30
0
41
1
10
114.290814692859
20
8.58623278856896
30
0
41
1
10
114.389502506125
20
8.74126678739586
30
0
41
1
10
114.438846412758
20
8.8046419698432
30
0
41
1
10
114.586878132656
20
8.95432477934048
30
0
41
1
10
114.685565945922
20
9
30
0
41
1
10
114.784253759187
20
9
30
0
0
SPLINE
5
E4
100
AcDbEntity
8
1
62
256
6
ByLayer
370
13
48
1
60
0
100
AcDbSpline
70
4
71
3
72
85
73
81
40
0
40
0
40
0
40
0
40
0.0312499999999974
40
0.0312499999999974
40
0.0624999999999947
40
0.0624999999999947
40
0.0937499999999921
40
0.0937499999999921
40
0.124999999999989
40
0.124999999999989
40
0.156249999999987
40
0.156249999999987
40
0.187499999999984
40
0.187499999999984
40
0.218749999999981
40
0.218749999999981
40
0.249999999999979
40
0.249999999999979
40
0.281249999999976
40
0.281249999999976
40
0.312499999999974
40
0.312499999999974
40
0.316406249999974
40
0.316406249999974
40
0.320312499999974
40
0.328124999999974
40
0.328124999999974
40
0.343749999999974
40
0.343749999999974
40
0.374999999999974
40
0.374999999999974
40
0.406249999999974
40
0.406249999999974
40
0.437499999999974
40
0.437499999999974
40
0.468749999999973
40
0.468749999999973
40
0.499999999999973
40
0.499999999999973
40
0.531249999999973
40
0.531249999999973
40
0.562499999999973
40
0.562499999999973
40
0.593749999999973
40
0.593749999999973
40
0.624999999999973
40
0.624999999999973
40
0.628906249999973
40
0.628906249999973
40
0.632812499999974
40
0.632812499999974
40
0.640624999999974
40
0.640624999999974
40
0.656249999999976
40
0.656249999999976
40
0.687499999999978
40
0.687499999999978
40
0.71874999999998
40
0.71874999999998
40
0.749999999999982
40
0.749999999999982
40
0.781249999999985
40
0.781249999999985
40
0.812499999999987
40
0.812499999999987
40
0.843749999999989
40
0.843749999999989
40
0.874999999999991
40
0.874999999999991
40
0.906249999999994
40
0.906249999999994
40
0.937499999999996
40
0.937499999999996
40
0.945312499999997
40
0.945312499999997
40
0.953124999999997
40
0.953124999999997
40
0.968749999999998
40
0.968749999999998
40
1
40
1
40
1
40
1
41
1
10
115.585886272656
20
9
30
0
41
1
10
115.665452747853
20
9
30
0
41
1
10
115.745019223051
20
8.97037427471872
30
0
41
1
10
115.904152173445
20
8.8426817931863
30
0
41
1
10
115.983718648643
20
8.74455611874421
30
0
41
1
10
116.142851599037
20
8.47400939861254
30
0
41
1
10
116.222418074235
20
8.3015418285336
30
0
41
1
10
116.38155102463
20
7.88155093312497
30
0
41
1
10
116.461117499827
20
7.63401079721774
30
0
41
1
10
116.620250450222
20
7.06922323883055
30
0
41
1
10
116.699816925419
20
6.75199950328781
30
0
41
1
10
116.858949875814
20
6.05922997365394
30
0
41
1
10
116.938516351011
20
5.68374571682796
30
0
41
1
10
117.097649301406
20
4.8905736253808
30
0
41
1
10
117.177215776604
20
4.47296867177403
30
0
41
1
10
117.336348726998
20
3.61416575870299
30
0
41
1
10
117.415915202196
20
3.17304893132655
30
0
41
1
10
117.57504815259
20
2.28577411489289
30
0
41
1
10
117.654614627788
20
1.83967616127288
30
0
41
1
10
117.813747578182
20
0.958747577608364
30
0
41
1
10
117.89331405338
20
0.523947102943168
30
0
41
1
10
117.982826337977
20
0.0482721348961945
30
0
41
1
10
117.992772147376
20
-0.0042695071944649
30
0
41
1
10
118.012663766176
20
-0.109767888262468
30
0
41
1
10
118.042501194375
20
-0.268577647690051
30
0
41
1
10
118.072338622574
20
-0.428981352277049
30
0
41
1
10
118.132013478972
20
-0.751644712567298
30
0
41
1
10
118.171796716571
20
-0.969235832738377
30
0
41
1
10
118.291146429367
20
-1.62701982754248
30
0
41
1
10
118.370712904564
20
-2.07232285317238
30
0
41
1
10
118.529845854959
20
-2.96080231849359
30
0
41
1
10
118.609412330156
20
-3.40392321923176
30
0
41
1
10
118.768545280551
20
-4.26976247140567
30
0
41
1
10
118.848111755748
20
-4.6924019883906
30
0
41
1
10
119.007244706143
20
-5.49851879926561
30
0
41
1
10
119.08681118134
20
-5.88191191880833
30
0
41
1
10
119.245944131735
20
-6.59281650040643
30
0
41
1
10
119.325510606933
20
-6.92026161588282
30
0
41
1
10
119.484643557327
20
-7.50693888653126
30
0
41
1
10
119.564210032525
20
-7.76614073006269
30
0
41
1
10
119.72334298292
20
-8.20989886212683
30
0
41
1
10
119.802909458117
20
-8.39446592488463
30
0
41
1
10
119.962042408512
20
-8.68871876352688
30
0
41
1
10
120.041608883709
20
-8.79844741295273
30
0
41
1
10
120.200741834104
20
-8.94813390205093
30
0
41
1
10
120.280308309301
20
-8.98814985974127
30
0
41
1
10
120.369820593898
20
-8.99891292870794
30
0
41
1
10
120.379766403298
20
-8.99963478241094
30
0
41
1
10
120.399658022097
20
-9.00015017377658
30
0
41
1
10
120.409603831497
20
-8.99994662757905
30
0
41
1
10
120.439441259696
20
-8.99793366837483
30
0
41
1
10
120.459332878495
20
-8.99471717859262
30
0
41
1
10
120.519007734893
20
-8.97921238068264
30
0
41
1
10
120.558790972492
20
-8.96106325402161
30
0
41
1
10
120.678140685288
20
-8.88149348211616
30
0
41
1
10
120.757707160485
20
-8.79481801914662
30
0
41
1
10
120.91684011088
20
-8.54780330608918
30
0
41
1
10
120.996406586078
20
-8.38741434113052
30
0
41
1
10
121.155539536472
20
-7.99130725824728
30
0
41
1
10
121.23510601167
20
-7.75556658481199
30
0
41
1
10
121.394238962064
20
-7.21310109944824
30
0
41
1
10
121.473805437262
20
-6.90639328348868
30
0
41
1
10
121.632938387657
20
-6.23247080738219
30
0
41
1
10
121.712504862854
20
-5.86531243706753
30
0
41
1
10
121.871637813249
20
-5.08598340979057
30
0
41
1
10
121.951204288446
20
-4.67389372724534
30
0
41
1
10
122.110337238841
20
-3.82308623655291
30
0
41
1
10
122.189903714038
20
-3.38445134900812
30
0
41
1
10
122.349036664433
20
-2.49927784253561
30
0
41
1
10
122.42860313963
20
-2.05280353130024
30
0
41
1
10
122.587736090025
20
-1.16873444825106
30
0
41
1
10
122.667302565223
20
-0.731174711988956
30
0
41
1
10
122.766760659219
20
-0.198100784621545
30
0
41
1
10
122.786652278019
20
-0.0922883630030356
30
0
41
1
10
122.826435515617
20
0.118287716804758
30
0
41
1
10
122.846327134417
20
0.224337489105352
30
0
41
1
10
122.906001990815
20
0.544517760744498
30
0
41
1
10
122.945785228413
20
0.76068698363315
30
0
41
1
10
123.065134941209
20
1.41502403590332
30
0
41
1
10
123.144701416407
20
1.85912691691465
30
0
41
1
10
123.224267891604
20
2.30353042216663
30
0
0
SPLINE
5
E5
100
AcDbEntity
8
1
62
256
6
ByLayer
370
13
48
1
60
0
100
AcDbSpline
70
4
71
3
72
14
73
10
40
0
40
0
40
0
40
0
40
0.25
40
0.25
40
0.5
40
0.5
40
0.75
40
0.75
40
1
40
1
40
1
40
1
41
1
10
113.6
20
8.16470333634632
30
0
41
1
10
113.657315192611
20
8.30958960331134
30
0
41
1
10
113.714630385221
20
8.43500418848939
30
0
41
1
10
113.829260770442
20
8.64709863202
30
0
41
1
10
113.886575963053
20
8.73378687894149
30
0
41
1
10
114.001206348274
20
8.87008296973127
30
0
41
1
10
114.058521540885
20
8.91970168787466
30
0
41
1
10
114.173151926106
20
8.98465441614314
30
0
41
1
10
114.230467118716
20
9
30
0
41
1
10
114.287782311327
20
9
30
0
0
SPLINE
5
E6
100
AcDbEntity
8
1
62
256
6
ByLayer
370
13
48
1
60
0
100
AcDbSpline
70
4
71
3
72
84
73
80
40
0
40
0
40
0
40
0
40
0.0312500000000003
40
0.0312500000000003
40
0.0625000000000007
40
0.0625000000000007
40
0.093750000000001
40
0.093750000000001
40
0.125000000000001
40
0.125000000000001
40
0.156250000000002
40
0.156250000000002
40
0.187500000000002
40
0.187500000000002
40
0.218750000000003
40
0.218750000000003
40
0.250000000000003
40
0.250000000000003
40
0.281250000000003
40
0.281250000000003
40
0.289062500000004
40
0.292968750000004
40
0.292968750000004
40
0.296875000000004
40
0.296875000000004
40
0.312500000000004
40
0.312500000000004
40
0.343750000000005
40
0.343750000000005
40
0.375000000000005
40
0.375000000000005
40
0.406250000000006
40
0.406250000000006
40
0.437500000000007
40
0.437500000000007
40
0.468750000000007
40
0.468750000000007
40
0.500000000000008
40
0.500000000000008
40
0.531250000000009
40
0.531250000000009
40
0.562500000000009
40
0.562500000000009
40
0.57812500000001
40
0.57812500000001
40
0.58593750000001
40
0.58984375000001
40
0.58984375000001
40
0.59375000000001
40
0.59375000000001
40
0.625000000000009
40
0.625000000000009
40
0.656250000000008
40
0.656250000000008
40
0.687500000000007
40
0.687500000000007
40
0.718750000000007
40
0.718750000000007
40
0.750000000000006
40
0.750000000000006
40
0.781250000000005
40
0.781250000000005
40
0.812500000000004
40
0.812500000000004
40
0.843750000000004
40
0.843750000000004
40
0.875000000000003
40
0.875000000000003
40
0.882812500000003
40
0.882812500000003
40
0.890625000000003
40
0.890625000000003
40
0.906250000000002
40
0.906250000000002
40
0.937500000000002
40
0.937500000000002
40
0.968750000000001
40
0.968750000000001
40
1
40
1
40
1
40
1
41
1
10
115.089414824795
20
9
30
0
41
1
10
115.174152877574
20
9
30
0
41
1
10
115.258890930354
20
8.96638033532787
30
0
41
1
10
115.428367035912
20
8.82091025139022
30
0
41
1
10
115.513105088692
20
8.70897963105
30
0
41
1
10
115.68258119425
20
8.40032304705582
30
0
41
1
10
115.767319247029
20
8.20353751869607
30
0
41
1
10
115.936795352588
20
7.72538531365902
30
0
41
1
10
116.021533405367
20
7.44400582393405
30
0
41
1
10
116.191009510926
20
6.80483971365385
30
0
41
1
10
116.275747563705
20
6.44710016763835
30
0
41
1
10
116.445223669263
20
5.67086479606891
30
0
41
1
10
116.529961722043
20
5.25246580298173
30
0
41
1
10
116.699437827601
20
4.37581737555266
30
0
41
1
10
116.78417588038
20
3.91768413184556
30
0
41
1
10
116.953651985939
20
2.98440182132654
30
0
41
1
10
117.038390038718
20
2.50935315899471
30
0
41
1
10
117.207866144277
20
1.56362317053563
30
0
41
1
10
117.292604197056
20
1.09300325879576
30
0
41
1
10
117.39852676303
20
0.518352474402093
30
0
41
1
10
117.430303532822
20
0.346961560011209
30
0
41
1
10
117.462080302614
20
0.177326827129576
30
0
41
1
10
117.483264815809
20
0.0646526259904761
30
0
41
1
10
117.493857072407
20
0.0086645310191216
30
0
41
1
10
117.546818355394
20
-0.272103668850065
30
0
41
1
10
117.589187381783
20
-0.500144503204297
30
0
41
1
10
117.716294460952
20
-1.1919340489894
30
0
41
1
10
117.801032513731
20
-1.66349258195331
30
0
41
1
10
117.97050861929
20
-2.6097048181685
30
0
41
1
10
118.055246672069
20
-3.08429399522291
30
0
41
1
10
118.224722777628
20
-4.01506178262048
30
0
41
1
10
118.309460830407
20
-4.47113790547147
30
0
41
1
10
118.478936935966
20
-5.34209178637448
30
0
41
1
10
118.563674988745
20
-5.75685351519678
30
0
41
1
10
118.733151094303
20
-6.52449808261059
30
0
41
1
10
118.817889147083
20
-6.87728677173786
30
0
41
1
10
118.987365252641
20
-7.50570483527412
30
0
41
1
10
119.07210330542
20
-7.78129132049864
30
0
41
1
10
119.241579410979
20
-8.24757896221496
30
0
41
1
10
119.326317463758
20
-8.43829689343204
30
0
41
1
10
119.495793569317
20
-8.73507633660441
30
0
41
1
10
119.580531622096
20
-8.84119978637244
30
0
41
1
10
119.707638701265
20
-8.94208958920723
30
0
41
1
10
119.750007727655
20
-8.96604942713068
30
0
41
1
10
119.813561267239
20
-8.98845836170005
30
0
41
1
10
119.845338037031
20
-8.99628300417402
30
0
41
1
10
119.877114806823
20
-8.99924298178044
30
0
41
1
10
119.898299320018
20
-9.00015930348306
30
0
41
1
10
119.908891576616
20
-9.00009227827394
30
0
41
1
10
120.004221885992
20
-8.9947415317051
30
0
41
1
10
120.088959938771
20
-8.95592259900417
30
0
41
1
10
120.25843604433
20
-8.79941199071391
30
0
41
1
10
120.343174097109
20
-8.68164067092155
30
0
41
1
10
120.512650202668
20
-8.36107405809332
30
0
41
1
10
120.597388255447
20
-8.1582217099002
30
0
41
1
10
120.766864361006
20
-7.66824683648514
30
0
41
1
10
120.851602413785
20
-7.38111553015247
30
0
41
1
10
121.021078519344
20
-6.73132172561256
30
0
41
1
10
121.105816572123
20
-6.36871043561297
30
0
41
1
10
121.275292677681
20
-5.58406912322874
30
0
41
1
10
121.36003073046
20
-5.16213845784114
30
0
41
1
10
121.529506836019
20
-4.28001628246247
30
0
41
1
10
121.614244888798
20
-3.81994094199018
30
0
41
1
10
121.783720994357
20
-2.8843665373966
30
0
41
1
10
121.868459047136
20
-2.40896567637967
30
0
41
1
10
122.037935152695
20
-1.46391226614267
30
0
41
1
10
122.122673205474
20
-0.994317999728139
30
0
41
1
10
122.228595771448
20
-0.4216001776567
30
0
41
1
10
122.249780284643
20
-0.307758527738116
30
0
41
1
10
122.292149311032
20
-0.0816954166653261
30
0
41
1
10
122.313333824227
20
0.0299905159833429
30
0
41
1
10
122.376887363812
20
0.36833317391239
30
0
41
1
10
122.419256390201
20
0.597208223072016
30
0
41
1
10
122.54636346937
20
1.29109272755721
30
0
41
1
10
122.631101522149
20
1.76350115772831
30
0
41
1
10
122.800577627708
20
2.70999857468766
30
0
41
1
10
122.885315680487
20
3.1840199499222
30
0
41
1
10
123.054791786046
20
4.11204982097908
30
0
41
1
10
123.139529838825
20
4.56595387111906
30
0
41
1
10
123.224267891604
20
4.99847384717538
30
0
0
SPLINE
5
E7
100
AcDbEntity
8
1
62
256
6
ByLayer
370
13
48
1
60
0
100
AcDbSpline
70
4
71
3
72
8
73
4
40
0
40
0
40
0
40
0
40
1
40
1
40
1
40
1
41
1
10
113.6
20
8.94055202976062
30
0
41
1
10
113.663770287822
20
8.98099497365803
30
0
41
1
10
113.727540575644
20
9
30
0
41
1
10
113.791310863466
20
9
30
0
0
SPLINE
5
E8
100
AcDbEntity
8
1
62
256
6
ByLayer
370
13
48
1
60
0
100
AcDbSpline
70
4
71
3
72
85
73
81
40
0
40
0
40
0
40
0
40
0.0312499999999993
40
0.0312499999999993
40
0.0624999999999986
40
0.0624999999999986
40
0.0937499999999979
40
0.0937499999999979
40
0.124999999999997
40
0.124999999999997
40
0.156249999999997
40
0.156249999999997
40
0.187499999999996
40
0.187499999999996
40
0.218749999999995
40
0.218749999999995
40
0.249999999999994
40
0.249999999999994
40
0.265624999999994
40
0.265624999999994
40
0.273437499999994
40
0.277343749999993
40
0.277343749999993
40
0.281249999999993
40
0.281249999999993
40
0.312499999999992
40
0.312499999999992
40
0.343749999999991
40
0.343749999999991
40
0.37499999999999
40
0.37499999999999
40
0.406249999999989
40
0.406249999999989
40
0.437499999999988
40
0.437499999999988
40
0.468749999999987
40
0.468749999999987
40
0.499999999999986
40
0.499999999999986
40
0.531249999999985
40
0.531249999999985
40
0.546874999999984
40
0.546874999999984
40
0.554687499999984
40
0.554687499999984
40
0.558593749999984
40
0.558593749999984
40
0.562499999999984
40
0.562499999999984
40
0.593749999999985
40
0.593749999999985
40
0.624999999999986
40
0.624999999999986
40
0.656249999999988
40
0.656249999999988
40
0.687499999999989
40
0.687499999999989
40
0.71874999999999
40
0.71874999999999
40
0.749999999999991
40
0.749999999999991
40
0.781249999999992
40
0.781249999999992
40
0.812499999999993
40
0.812499999999993
40
0.828124999999994
40
0.828124999999994
40
0.835937499999994
40
0.835937499999994
40
0.843749999999995
40
0.843749999999995
40
0.874999999999996
40
0.874999999999996
40
0.906249999999997
40
0.906249999999997
40
0.937499999999998
40
0.937499999999998
40
0.968749999999999
40
0.968749999999999
40
1
40
1
40
1
40
1
41
1
10
114.592943376935
20
9
30
0
41
1
10
114.682853007296
20
9
30
0
41
1
10
114.772762637657
20
8.96212987037484
30
0
41
1
10
114.952581898379
20
8.79765369708994
30
0
41
1
10
115.04249152874
20
8.67094065176394
30
0
41
1
10
115.222310789462
20
8.32156449448243
30
0
41
1
10
115.312220419824
20
8.0988274513289
30
0
41
1
10
115.492039680546
20
7.5590462086887
30
0
41
1
10
115.581949310907
20
7.24199910247904
30
0
41
1
10
115.761768571629
20
6.52538464060063
30
0
41
1
10
115.851678201991
20
6.12589931653019
30
0
41
1
10
116.031497462713
20
5.26517152959556
30
0
41
1
10
116.121407093074
20
4.80407206678547
30
0
41
1
10
116.301226353796
20
3.84635116663441
30
0
41
1
10
116.391135984157
20
3.34988295993551
30
0
41
1
10
116.57095524488
20
2.34847982303998
30
0
41
1
10
116.660864875241
20
1.84365975274912
30
0
41
1
10
116.795729320783
20
1.09784154081612
30
0
41
1
10
116.840684135963
20
0.85110023997791
30
0
41
1
10
116.908116358734
20
0.485588615862525
30
0
41
1
10
116.941832470119
20
0.303978296673364
30
0
41
1
10
116.975548581505
20
0.124381589300469
30
0
41
1
10
116.998025989095
20
0.0051277104229541
30
0
41
1
10
117.00926469289
20
-0.0542332905772867
30
0
41
1
10
117.110413027047
20
-0.592046921818053
30
0
41
1
10
117.200322657408
20
-1.08538614738754
30
0
41
1
10
117.38014191813
20
-2.08398837685002
30
0
41
1
10
117.470051548491
20
-2.58918791503822
30
0
41
1
10
117.649870809213
20
-3.58718787764477
30
0
41
1
10
117.739780439575
20
-4.07986497196669
30
0
41
1
10
117.919599700297
20
-5.02564880206438
30
0
41
1
10
118.009509330658
20
-5.47860026161231
30
0
41
1
10
118.18932859138
20
-6.31923057072066
30
0
41
1
10
118.279238221741
20
-6.70677312701363
30
0
41
1
10
118.459057482464
20
-7.39693487286223
30
0
41
1
10
118.548967112825
20
-7.69948494991533
30
0
41
1
10
118.728786373547
20
-8.20931121041326
30
0
41
1
10
118.818696003908
20
-8.4166034439188
30
0
41
1
10
118.998515264631
20
-8.73569192152812
30
0
41
1
10
119.088424894992
20
-8.84757018957291
30
0
41
1
10
119.223289340533
20
-8.95001407099841
30
0
41
1
10
119.268244155714
20
-8.97332447698514
30
0
41
1
10
119.335676378485
20
-8.99321950026032
30
0
41
1
10
119.358153786075
20
-8.9973417679646
30
0
41
1
10
119.39186989746
20
-8.99992725601621
30
0
41
1
10
119.403108601256
20
-9.00019113064712
30
0
41
1
10
119.425586008846
20
-8.99954108057653
30
0
41
1
10
119.436824712641
20
-8.99862296032876
30
0
41
1
10
119.537973046797
20
-8.98489394835698
30
0
41
1
10
119.627882677159
20
-8.9336333683039
30
0
41
1
10
119.807701937881
20
-8.74074082874824
30
0
41
1
10
119.897611568242
20
-8.59900433169844
30
0
41
1
10
120.077430828964
20
-8.21919145784764
30
0
41
1
10
120.167340459325
20
-7.98105026184544
30
0
41
1
10
120.347159720048
20
-7.41165835079562
30
0
41
1
10
120.437069350409
20
-7.0804182594793
30
0
41
1
10
120.616888611131
20
-6.33819229895167
30
0
41
1
10
120.706798241492
20
-5.92730074644584
30
0
41
1
10
120.886617502215
20
-5.04769003342921
30
0
41
1
10
120.976527132576
20
-4.57911922367967
30
0
41
1
10
121.156346393298
20
-3.61083429767373
30
0
41
1
10
121.246256023659
20
-3.11127007922943
30
0
41
1
10
121.426075284381
20
-2.10776471728147
30
0
41
1
10
121.515984914743
20
-1.60392937299559
30
0
41
1
10
121.650849360284
20
-0.862035992063397
30
0
41
1
10
121.695804175465
20
-0.617007696710999
30
0
41
1
10
121.763236398236
20
-0.254577505105516
30
0
41
1
10
121.785713805826
20
-0.134616341389204
30
0
41
1
10
121.830668621006
20
0.103361942401762
30
0
41
1
10
121.853146028597
20
0.223002553836608
30
0
41
1
10
121.965533066548
20
0.82630533967037
30
0
41
1
10
122.055442696909
20
1.32295587802238
30
0
41
1
10
122.235261957632
20
2.32463376562501
30
0
41
1
10
122.325171587993
20
2.82958751553414
30
0
41
1
10
122.504990848715
20
3.82285809896249
30
0
41
1
10
122.594900479076
20
4.31104385313529
30
0
41
1
10
122.774719739798
20
5.24352679732445
30
0
41
1
10
122.86462937016
20
5.68766801777332
30
0
41
1
10
123.044448630882
20
6.50703297973089
30
0
41
1
10
123.134358261243
20
6.88212842305927
30
0
41
1
10
123.224267891604
20
7.21359936415948
30
0
0
SPLINE
5
E9
100
AcDbEntity
8
1
62
256
6
ByLayer
370
13
48
1
60
0
100
AcDbSpline
70
4
71
3
72
108
73
104
40
0
40
0
40
0
40
0
40
0.0312499999999995
40
0.0312499999999995
40
0.0624999999999989
40
0.0624999999999989
40
0.0937499999999984
40
0.0937499999999984
40
0.109374999999998
40
0.109374999999998
40
0.124999999999998
40
0.124999999999998
40
0.140624999999997
40
0.140624999999997
40
0.156249999999997
40
0.156249999999997
40
0.171874999999997
40
0.171874999999997
40
0.187499999999996
40
0.187499999999996
40
0.218749999999996
40
0.218749999999996
40
0.249999999999995
40
0.249999999999995
40
0.257812499999995
40
0.257812499999995
40
0.261718749999995
40
0.261718749999995
40
0.265624999999995
40
0.265624999999995
40
0.281249999999996
40
0.281249999999996
40
0.312499999999997
40
0.312499999999997
40
0.343749999999998
40
0.343749999999998
40
0.359374999999998
40
0.359374999999998
40
0.374999999999999
40
0.374999999999999
40
0.390624999999999
40
0.390624999999999
40
0.40625
40
0.40625
40
0.421875
40
0.421875
40
0.437500000000001
40
0.437500000000001
40
0.468750000000001
40
0.468750000000001
40
0.500000000000002
40
0.500000000000002
40
0.515625000000003
40
0.515625000000003
40
0.523437500000003
40
0.523437500000003
40
0.531250000000003
40
0.531250000000003
40
0.562500000000003
40
0.562500000000003
40
0.593750000000004
40
0.593750000000004
40
0.625000000000004
40
0.625000000000004
40
0.640625000000004
40
0.640625000000004
40
0.656250000000004
40
0.656250000000004
40
0.671875000000004
40
0.671875000000004
40
0.687500000000004
40
0.687500000000004
40
0.718750000000003
40
0.718750000000003
40
0.750000000000003
40
0.750000000000003
40
0.781250000000003
40
0.781250000000003
40
0.789062500000003
40
0.789062500000003
40
0.792968750000003
40
0.792968750000003
40
0.796875000000003
40
0.796875000000003
40
0.812500000000002
40
0.812500000000002
40
0.843750000000002
40
0.843750000000002
40
0.875000000000002
40
0.875000000000002
40
0.890625000000002
40
0.890625000000002
40
0.906250000000001
40
0.906250000000001
40
0.921875000000001
40
0.921875000000001
40
0.937500000000001
40
0.937500000000001
40
0.953125000000001
40
0.953125000000001
40
0.96875
40
0.96875
40
1
40
1
40
1
40
1
41
1
10
114.096471929074
20
9
30
0
41
1
10
114.191553137017
20
9
30
0
41
1
10
114.28663434496
20
8.95762178415185
30
0
41
1
10
114.476796760846
20
8.77290106407628
30
0
41
1
10
114.571877968789
20
8.63041835443107
30
0
41
1
10
114.762040384675
20
8.23772311680673
30
0
41
1
10
114.857121592618
20
7.98742166132831
30
0
41
1
10
114.999743404533
20
7.53388457968606
30
0
41
1
10
115.047284008504
20
7.36978924108908
30
0
41
1
10
115.142365216447
20
7.01742008811678
30
0
41
1
10
115.189905820419
20
6.82914866565253
30
0
41
1
10
115.284987028362
20
6.4308329681663
30
0
41
1
10
115.332527632333
20
6.22079285498208
30
0
41
1
10
115.427608840276
20
5.78199679125237
30
0
41
1
10
115.475149444248
20
5.5532463814535
30
0
41
1
10
115.570230652191
20
5.08059085228808
30
0
41
1
10
115.617771256162
20
4.83669208117192
30
0
41
1
10
115.712852464105
20
4.33762437163969
30
0
41
1
10
115.760393068077
20
4.08246193615702
30
0
41
1
10
115.903014879991
20
3.30608829924614
30
0
41
1
10
115.998096087934
20
2.77412418807325
30
0
41
1
10
116.188258503821
20
1.7120842070957
30
0
41
1
10
116.283339711764
20
1.18212878982166
30
0
41
1
10
116.402191221692
20
0.536635891081232
30
0
41
1
10
116.425961523678
20
0.408366752121253
30
0
41
1
10
116.461616976657
20
0.217443227942937
30
0
41
1
10
116.47350212765
20
0.154048499819339
30
0
41
1
10
116.497272429635
20
0.0277882443498356
30
0
41
1
10
116.509157580628
20
-0.0349518352227562
30
0
41
1
10
116.568583335593
20
-0.350702662532086
30
0
41
1
10
116.616123939564
20
-0.607546327522641
30
0
41
1
10
116.758745751479
20
-1.38702326741731
30
0
41
1
10
116.853826959422
20
-1.91881690980637
30
0
41
1
10
117.043989375308
20
-2.9807760158717
30
0
41
1
10
117.139070583251
20
-3.51080997720371
30
0
41
1
10
117.281692395165
20
-4.28113075110514
30
0
41
1
10
117.329232999137
20
-4.53375425455926
30
0
41
1
10
117.42431420708
20
-5.02671593182197
30
0
41
1
10
117.471854811051
20
-5.26704757986286
30
0
41
1
10
117.566936018994
20
-5.73160574617268
30
0
41
1
10
117.614476622966
20
-5.95582606433314
30
0
41
1
10
117.709557830909
20
-6.38471299356468
30
0
41
1
10
117.75709843488
20
-6.58937437254605
30
0
41
1
10
117.852179642823
20
-6.97624000836356
30
0
41
1
10
117.899720246795
20
-7.15844053412258
30
0
41
1
10
117.994801454738
20
-7.49816258511368
30
0
41
1
10
118.042342058709
20
-7.65568221245442
30
0
41
1
10
118.184963870624
20
-8.08904034137052
30
0
41
1
10
118.280045078567
20
-8.32529431036625
30
0
41
1
10
118.470207494453
20
-8.69030085060643
30
0
41
1
10
118.565288702396
20
-8.81915247492063
30
0
41
1
10
118.707910514311
20
-8.93849191248407
30
0
41
1
10
118.755451118282
20
-8.96602467271669
30
0
41
1
10
118.826762024239
20
-8.99032074236905
30
0
41
1
10
118.850532326225
20
-8.9955886742051
30
0
41
1
10
118.898072930197
20
-9.00072224937682
30
0
41
1
10
118.921843232182
20
-9.00062357595954
30
0
41
1
10
119.040694742111
20
-8.98676455782984
30
0
41
1
10
119.135775950054
20
-8.93215129363992
30
0
41
1
10
119.32593836594
20
-8.72142601236888
30
0
41
1
10
119.421019573883
20
-8.56517694580452
30
0
41
1
10
119.611181989769
20
-8.1447174760072
30
0
41
1
10
119.706263197712
20
-7.88042922821472
30
0
41
1
10
119.848885009627
20
-7.40696797363256
30
0
41
1
10
119.896425613598
20
-7.23640871679092
30
0
41
1
10
119.991506821541
20
-6.87166688156606
30
0
41
1
10
120.039047425513
20
-6.67748717903672
30
0
41
1
10
120.134128633456
20
-6.2680907682286
30
0
41
1
10
120.181669237427
20
-6.05287862588736
30
0
41
1
10
120.27675044537
20
-5.60462095761574
30
0
41
1
10
120.324291049342
20
-5.37158124207943
30
0
41
1
10
120.466912861257
20
-4.65120704096853
30
0
41
1
10
120.5619940692
20
-4.14259814085978
30
0
41
1
10
120.752156485086
20
-3.10043876321944
30
0
41
1
10
120.847237693029
20
-2.5670725659285
30
0
41
1
10
121.037400108915
20
-1.50590644892395
30
0
41
1
10
121.132481316858
20
-0.978215674585527
30
0
41
1
10
121.251332826786
20
-0.337239271521469
30
0
41
1
10
121.275103128772
20
-0.209957104618638
30
0
41
1
10
121.310758581751
20
-0.0206269868712639
30
0
41
1
10
121.322643732744
20
0.0421177538196673
30
0
41
1
10
121.34641403473
20
0.168458058458811
30
0
41
1
10
121.358299185722
20
0.231891469801354
30
0
41
1
10
121.417724940687
20
0.550283667841313
30
0
41
1
10
121.465265544658
20
0.80893774775069
30
0
41
1
10
121.607887356573
20
1.592739448342
30
0
41
1
10
121.702968564516
20
2.12592854517561
30
0
41
1
10
121.893130980402
20
3.18682763784236
30
0
41
1
10
121.988212188345
20
3.71439544682863
30
0
41
1
10
122.130834000259
20
4.47785434875954
30
0
41
1
10
122.178374604231
20
4.72766871588263
30
0
41
1
10
122.273455812174
20
5.21399591980079
30
0
41
1
10
122.320996416146
20
5.45050225172318
30
0
41
1
10
122.416077624089
20
5.90647176689703
30
0
41
1
10
122.46361822806
20
6.12592894203024
30
0
41
1
10
122.558699436003
20
6.54447753994179
30
0
41
1
10
122.606240039974
20
6.74356407566981
30
0
41
1
10
122.701321247918
20
7.11863359099894
30
0
41
1
10
122.748861851889
20
7.29461329291354
30
0
41
1
10
122.843943059832
20
7.6214403379083
30
0
41
1
10
122.891483663804
20
7.77228628263137
30
0
41
1
10
123.034105475718
20
8.1852523152173
30
0
41
1
10
123.129186683661
20
8.40742598621802
30
0
41
1
10
123.224267891604
20
8.57614725576784
30
0
0
SPLINE
5
EA
100
AcDbEntity
8
1
62
256
6
ByLayer
370
13
48
1
60
0
100
AcDbSpline
70
4
71
3
72
118
73
114
40
0
40
0
40
0
40
0
40
0.03125
40
0.03125
40
0.046875
40
0.046875
40
0.0625000000000001
40
0.0625000000000001
40
0.0781250000000001
40
0.0781250000000001
40
0.09375
40
0.09375
40
0.109375
40
0.109375
40
0.125
40
0.125
40
0.140625
40
0.140625
40
0.15625
40
0.15625
40
0.171875
40
0.171875
40
0.1875
40
0.1875
40
0.203125
40
0.203125
40
0.21875
40
0.21875
40
0.25
40
0.25
40
0.28125
40
0.28125
40
0.296875
40
0.296875
40
0.3125
40
0.3125
40
0.328125
40
0.328125
40
0.34375
40
0.34375
40
0.359375
40
0.359375
40
0.375
40
0.375
40
0.390625
40
0.390625
40
0.40625
40
0.40625
40
0.421875
40
0.421875
40
0.4375
40
0.4375
40
0.453125
40
0.453125
40
0.46875
40
0.46875
40
0.500000000000001
40
0.500000000000001
40
0.531250000000001
40
0.531250000000001
40
0.546875
40
0.546875
40
0.5625
40
0.5625
40
0.578125
40
0.578125
40
0.59375
40
0.59375
40
0.609375
40
0.609375
40
0.625
40
0.625
40
0.640625
40
0.640625
40
0.65625
40
0.65625
40
0.671875
40
0.671875
40
0.6875
40
0.6875
40
0.703125
40
0.703125
40
0.71875
40
0.71875
40
0.75
40
0.75
40
0.78125
40
0.78125
40
0.796875
40
0.796875
40
0.8125
40
0.8125
40
0.828125
40
0.828125
40
0.84375
40
0.84375
40
0.859375
40
0.859375
40
0.875
40
0.875
40
0.890625
40
0.890625
40
0.90625
40
0.90625
40
0.921875
40
0.921875
40
0.9375
40
0.9375
40
0.953125
40
0.953125
40
0.96875
40
0.96875
40
1
40
1
40
1
40
1
41
1
10
113.600000481213
20
9
30
0
41
1
10
113.700253266738
20
9
30
0
41
1
10
113.800506052263
20
8.95285487931142
30
0
41
1
10
113.950885230551
20
8.79819505716705
30
0
41
1
10
114.001011623313
20
8.73270221989338
30
0
41
1
10
114.101264408838
20
8.5724790995736
30
0
41
1
10
114.1513908016
20
8.47774392419683
30
0
41
1
10
114.251643587125
20
8.2584456265059
30
0
41
1
10
114.301769979888
20
8.13387918138631
30
0
41
1
10
114.402022765413
20
7.85523315053376
30
0
41
1
10
114.452149158175
20
7.70115242996349
30
0
41
1
10
114.5524019437
20
7.36476707471908
30
0
41
1
10
114.602528336462
20
7.18246387348086
30
0
41
1
10
114.702781121987
20
6.79189391296481
30
0
41
1
10
114.75290751475
20
6.58363118831039
30
0
41
1
10
114.853160300275
20
6.14429140025524
30
0
41
1
10
114.903286693037
20
5.91322061804988
30
0
41
1
10
115.003539478562
20
5.43214630658662
30
0
41
1
10
115.053665871324
20
5.18215061173345
30
0
41
1
10
115.153918656849
20
4.66762572098648
30
0
41
1
10
115.204045049612
20
4.40310500951691
30
0
41
1
10
115.304297835137
20
3.86419855468685
30
0
41
1
10
115.354424227899
20
3.58982100599971
30
0
41
1
10
115.454677013424
20
3.03588476319925
30
0
41
1
10
115.504803406187
20
2.7563331661278
30
0
41
1
10
115.605056191711
20
2.19651579273275
30
0
41
1
10
115.655182584474
20
1.91625546015067
30
0
41
1
10
115.805561762761
20
1.08049324992726
30
0
41
1
10
115.905814548286
20
0.530330711302497
30
0
41
1
10
116.106320119336
20
-0.530329438510307
30
0
41
1
10
116.206572904861
20
-1.08049192328267
30
0
41
1
10
116.356952083148
20
-1.91625411764363
30
0
41
1
10
116.407078475911
20
-2.19651444798347
30
0
41
1
10
116.507331261435
20
-2.75633182375361
30
0
41
1
10
116.557457654198
20
-3.03588342544532
30
0
41
1
10
116.657710439723
20
-3.58981968485961
30
0
41
1
10
116.707836832485
20
-3.86419724554258
30
0
41
1
10
116.80808961801
20
-4.40310373191005
30
0
41
1
10
116.858216010773
20
-4.66762446292233
30
0
41
1
10
116.958468796298
20
-5.18214940007795
30
0
41
1
10
117.00859518906
20
-5.43214512179676
30
0
41
1
10
117.108847974585
20
-5.91321949368282
30
0
41
1
10
117.158974367347
20
-6.14429030944353
30
0
41
1
10
117.259227152872
20
-6.58363017029089
30
0
41
1
10
117.309353545635
20
-6.79189293417903
30
0
41
1
10
117.40960633116
20
-7.18246297753055
30
0
41
1
10
117.459732723922
20
-7.36476622236657
30
0
41
1
10
117.559985509447
20
-7.70115166766601
30
0
41
1
10
117.61011190221
20
-7.85523243468933
30
0
41
1
10
117.710364687734
20
-8.13387855972954
30
0
41
1
10
117.760491080497
20
-8.25844505257987
30
0
41
1
10
117.860743866022
20
-8.47774344549077
30
0
41
1
10
117.910870258784
20
-8.57247866835377
30
0
41
1
10
118.011123044309
20
-8.73270188204199
30
0
41
1
10
118.061249437072
20
-8.79819476519594
30
0
41
1
10
118.211628615359
20
-8.95285472088611
30
0
41
1
10
118.311881400884
20
-8.99999992499991
30
0
41
1
10
118.512386971934
20
-9.00000007499992
30
0
41
1
10
118.612639757459
20
-8.9528550377365
30
0
41
1
10
118.763018935746
20
-8.7981953491379
30
0
41
1
10
118.813145328508
20
-8.73270255774455
30
0
41
1
10
118.913398114033
20
-8.5724795307932
30
0
41
1
10
118.963524506796
20
-8.47774440290266
30
0
41
1
10
119.063777292321
20
-8.25844620043171
30
0
41
1
10
119.113903685083
20
-8.13387980304287
30
0
41
1
10
119.214156470608
20
-7.85523386637797
30
0
41
1
10
119.26428286337
20
-7.7011531922607
30
0
41
1
10
119.364535648895
20
-7.36476792707137
30
0
41
1
10
119.414662041658
20
-7.18246476943091
30
0
41
1
10
119.514914827183
20
-6.79189489175039
30
0
41
1
10
119.565041219945
20
-6.5836322063297
30
0
41
1
10
119.66529400547
20
-6.14429249106678
30
0
41
1
10
119.715420398233
20
-5.91322174241677
30
0
41
1
10
119.815673183757
20
-5.43214749137633
30
0
41
1
10
119.86579957652
20
-5.18215182338884
30
0
41
1
10
119.966052362045
20
-4.66762697905051
30
0
41
1
10
120.016178754807
20
-4.40310628712365
30
0
41
1
10
120.116431540332
20
-3.86419986383103
30
0
41
1
10
120.166557933095
20
-3.58982232713978
30
0
41
1
10
120.266810718619
20
-3.03588610095318
30
0
41
1
10
120.316937111382
20
-2.75633450850199
30
0
41
1
10
120.417189896907
20
-2.19651713748203
30
0
41
1
10
120.467316289669
20
-1.91625680265773
30
0
41
1
10
120.617695467957
20
-1.08049457657185
30
0
41
1
10
120.717948253482
20
-0.530332015160752
30
0
41
1
10
120.918453824531
20
0.530328196784069
30
0
41
1
10
121.018706610056
20
1.08049059663816
30
0
41
1
10
121.169085788343
20
1.9162527751366
30
0
41
1
10
121.219212181106
20
2.1965131032342
30
0
41
1
10
121.319464966631
20
2.75633048137942
30
0
41
1
10
121.369591359394
20
3.03588208769133
30
0
41
1
10
121.469844144918
20
3.58981836371942
30
0
41
1
10
121.519970537681
20
3.86419593639826
30
0
41
1
10
121.620223323206
20
4.40310245430311
30
0
41
1
10
121.670349715968
20
4.6676232048581
30
0
41
1
10
121.770602501493
20
5.18214818842233
30
0
41
1
10
121.820728894255
20
5.4321439370068
30
0
41
1
10
121.92098167978
20
5.91321836931562
30
0
41
1
10
121.971108072543
20
6.14428921863168
30
0
41
1
10
122.071360858068
20
6.58362915227119
30
0
41
1
10
122.12148725083
20
6.79189195539308
30
0
41
1
10
122.221740036355
20
7.18246208158007
30
0
41
1
10
122.271866429118
20
7.36476537001386
30
0
41
1
10
122.372119214642
20
7.70115090536834
30
0
41
1
10
122.422245607405
20
7.85523171884469
30
0
41
1
10
122.52249839293
20
8.13387793807254
30
0
41
1
10
122.572624785692
20
8.25844447865359
30
0
41
1
10
122.672877571217
20
8.47774296678452
30
0
41
1
10
122.72300396398
20
8.57247823713371
30
0
41
1
10
122.823256749504
20
8.73270154419038
30
0
41
1
10
122.873383142267
20
8.79819447322464
30
0
41
1
10
123.023762320554
20
8.95285456246057
30
0
41
1
10
123.124015106079
20
8.99999984999963
30
0
41
1
10
123.224267891604
20
8.99999999999963
30
0
0
SPLINE
5
EB
100
AcDbEntity
8
1
62
256
6
ByLayer
370
13
48
1
60
0
100
AcDbSpline
70
4
71
3
72
107
73
103
40
0
40
0
40
0
40
0
40
0.0312500000000007
40
0.0312500000000007
40
0.046875000000001
40
0.046875000000001
40
0.0625000000000013
40
0.0625000000000013
40
0.0781250000000016
40
0.0781250000000016
40
0.0937500000000019
40
0.0937500000000019
40
0.109375000000002
40
0.109375000000002
40
0.125000000000002
40
0.125000000000002
40
0.156250000000003
40
0.156250000000003
40
0.187500000000004
40
0.187500000000004
40
0.203125000000004
40
0.203125000000004
40
0.207031250000004
40
0.207031250000004
40
0.210937500000004
40
0.210937500000004
40
0.218750000000004
40
0.218750000000004
40
0.250000000000004
40
0.250000000000004
40
0.281250000000004
40
0.281250000000004
40
0.312500000000005
40
0.312500000000005
40
0.328125000000005
40
0.328125000000005
40
0.343750000000005
40
0.343750000000005
40
0.359375000000005
40
0.359375000000005
40
0.375000000000005
40
0.375000000000005
40
0.406250000000006
40
0.406250000000006
40
0.437500000000006
40
0.437500000000006
40
0.468750000000006
40
0.468750000000006
40
0.476562500000006
40
0.476562500000006
40
0.484375000000006
40
0.484375000000006
40
0.500000000000006
40
0.500000000000006
40
0.531250000000005
40
0.531250000000005
40
0.562500000000004
40
0.562500000000004
40
0.578125000000004
40
0.578125000000004
40
0.593750000000004
40
0.593750000000004
40
0.609375000000003
40
0.609375000000003
40
0.625000000000003
40
0.625000000000003
40
0.640625000000003
40
0.640625000000003
40
0.656250000000002
40
0.656250000000002
40
0.687500000000001
40
0.687500000000001
40
0.718750000000001
40
0.718750000000001
40
0.734375
40
0.734375
40
0.73828125
40
0.73828125
40
0.7421875
40
0.75
40
0.75
40
0.78125
40
0.78125
40
0.8125
40
0.8125
40
0.828125
40
0.828125
40
0.84375
40
0.84375
40
0.859375
40
0.859375
40
0.875
40
0.875
40
0.890625
40
0.890625
40
0.90625
40
0.90625
40
0.9375
40
0.9375
40
0.96875
40
0.96875
40
1
40
1
40
1
40
1
41
1
10
113.6
20
8.57614896358896
30
0
41
1
10
113.695081217968
20
8.40742803364782
30
0
41
1
10
113.790162435936
20
8.18525469984112
30
0
41
1
10
113.932784262889
20
7.77228913979505
30
0
41
1
10
113.980324871873
20
7.62144334701949
30
0
41
1
10
114.075406089841
20
7.29461659004443
30
0
41
1
10
114.122946698826
20
7.11863702419026
30
0
41
1
10
114.218027916794
20
6.74356776093569
30
0
41
1
10
114.265568525778
20
6.54448134121222
30
0
41
1
10
114.360649743746
20
6.12593295201458
30
0
41
1
10
114.408190352731
20
5.90647586958471
30
0
41
1
10
114.503271570699
20
5.45050651443594
30
0
41
1
10
114.550812179683
20
5.21400024983345
30
0
41
1
10
114.645893397651
20
4.72767315437164
30
0
41
1
10
114.693434006635
20
4.47785882838741
30
0
41
1
10
114.836055833588
20
3.71440001130861
30
0
41
1
10
114.931137051556
20
3.18683220702897
30
0
41
1
10
115.121299487493
20
2.12593303667055
30
0
41
1
10
115.216380705461
20
1.59274385774287
30
0
41
1
10
115.359002532413
20
0.808941989232864
30
0
41
1
10
115.406543141398
20
0.550287845937135
30
0
41
1
10
115.465968902628
20
0.231895561639817
30
0
41
1
10
115.477854054874
20
0.168462132694486
30
0
41
1
10
115.501624359366
20
0.0421217922020389
30
0
41
1
10
115.513509511612
20
-0.0206229590276905
30
0
41
1
10
115.54916496835
20
-0.209953062849337
30
0
41
1
10
115.572935272842
20
-0.337235222192845
30
0
41
1
10
115.691786795303
20
-0.978211596705052
30
0
41
1
10
115.786868013271
20
-1.50590237808987
30
0
41
1
10
115.977030449208
20
-2.56706858079625
30
0
41
1
10
116.072111667176
20
-3.10043485690753
30
0
41
1
10
116.262274103112
20
-4.14259446514984
30
0
41
1
10
116.357355321081
20
-4.65120351707492
30
0
41
1
10
116.499977148033
20
-5.37157799095445
30
0
41
1
10
116.547517757017
20
-5.60461780480634
30
0
41
1
10
116.642598974986
20
-6.05287568165326
30
0
41
1
10
116.69013958397
20
-6.26808793424678
30
0
41
1
10
116.785220801938
20
-6.67748457405119
30
0
41
1
10
116.832761410922
20
-6.87166439531543
30
0
41
1
10
116.927842628891
20
-7.236406472699
30
0
41
1
10
116.975383237875
20
-7.40696585295493
30
0
41
1
10
117.118005064827
20
-7.8804274790073
30
0
41
1
10
117.213086282795
20
-8.14471597583523
30
0
41
1
10
117.403248718732
20
-8.56517591900121
30
0
41
1
10
117.4983299367
20
-8.72142520976101
30
0
41
1
10
117.688492372637
20
-8.93215089643752
30
0
41
1
10
117.783573590605
20
-8.98676434185555
30
0
41
1
10
117.902425113066
20
-9.00062355542715
30
0
41
1
10
117.926195417558
20
-9.00072226589168
30
0
41
1
10
117.973736026542
20
-8.99558876648666
30
0
41
1
10
117.997506331034
20
-8.99032087291047
30
0
41
1
10
118.06881724451
20
-8.96602491886034
30
0
41
1
10
118.116357853494
20
-8.93849223680226
30
0
41
1
10
118.258979680447
20
-8.81915303425538
30
0
41
1
10
118.354060898415
20
-8.69030156734632
30
0
41
1
10
118.544223334352
20
-8.32529532549418
30
0
41
1
10
118.63930455232
20
-8.08904149731231
30
0
41
1
10
118.781926379272
20
-7.65568355358482
30
0
41
1
10
118.829466988257
20
-7.49816398365081
30
0
41
1
10
118.924548206225
20
-7.15844203700439
30
0
41
1
10
118.972088815209
20
-6.97624155817886
30
0
41
1
10
119.067170033177
20
-6.5893760044105
30
0
41
1
10
119.114710642161
20
-6.38471466054207
30
0
41
1
10
119.20979186013
20
-5.95582778896488
30
0
41
1
10
119.257332469114
20
-5.73160749334522
30
0
41
1
10
119.352413687082
20
-5.26704935943755
30
0
41
1
10
119.399954296066
20
-5.02671772125953
30
0
41
1
10
119.495035514035
20
-4.53375605156523
30
0
41
1
10
119.542576123019
20
-4.2811325458201
30
0
41
1
10
119.685197949971
20
-3.51081174842196
30
0
41
1
10
119.78027916794
20
-2.98077774913602
30
0
41
1
10
119.970441603876
20
-1.91881853570305
30
0
41
1
10
120.065522821844
20
-1.3870248240579
30
0
41
1
10
120.208144648797
20
-0.607547768261213
30
0
41
1
10
120.255685257781
20
-0.350704062633611
30
0
41
1
10
120.315111019011
20
-0.0349531831143963
30
0
41
1
10
120.326996171257
20
0.0277869034973719
30
0
41
1
10
120.350766475749
20
0.154047164805036
30
0
41
1
10
120.386421932488
20
0.344230856925407
30
0
41
1
10
120.422077389226
20
0.536634576301452
30
0
41
1
10
120.540928911686
20
1.18212751516137
30
0
41
1
10
120.636010129654
20
1.71208297644941
30
0
41
1
10
120.826172565591
20
2.77412306712773
30
0
41
1
10
120.921253783559
20
3.3060872439878
30
0
41
1
10
121.063875610512
20
4.08246099030342
30
0
41
1
10
121.111416219496
20
4.33762346402668
30
0
41
1
10
121.206497437464
20
4.83669125228329
30
0
41
1
10
121.254038046448
20
5.08059006388004
30
0
41
1
10
121.349119264417
20
5.55324567476998
30
0
41
1
10
121.396659873401
20
5.78199612580892
30
0
41
1
10
121.491741091369
20
6.22079227123615
30
0
41
1
10
121.539281700353
20
6.43083242487381
30
0
41
1
10
121.634362918322
20
6.8291482009916
30
0
41
1
10
121.681903527306
20
7.01741966163041
30
0
41
1
10
121.776984745274
20
7.36978888735206
30
0
41
1
10
121.824525354258
20
7.53388426052115
30
0
41
1
10
121.967147181211
20
7.98742143888811
30
0
41
1
10
122.062228399179
20
8.23772294934784
30
0
41
1
10
122.252390835115
20
8.63041827345731
30
0
41
1
10
122.347472053084
20
8.77290101463544
30
0
41
1
10
122.53763448902
20
8.95762177516229
30
0
41
1
10
122.632715706989
20
9
30
0
41
1
10
122.727796924957
20
9
30
0
0
SPLINE
5
EC
100
AcDbEntity
8
1
62
256
6
ByLayer
370
13
48
1
60
0
100
AcDbSpline
70
4
71
3
72
85
73
81
40
0
40
0
40
0
40
0
40
0.0312500000000002
40
0.0312500000000002
40
0.0625000000000004
40
0.0625000000000004
40
0.0937500000000006
40
0.0937500000000006
40
0.125000000000001
40
0.125000000000001
40
0.156250000000001
40
0.156250000000001
40
0.164062500000001
40
0.164062500000001
40
0.171875000000001
40
0.171875000000001
40
0.187500000000001
40
0.187500000000001
40
0.218750000000001
40
0.218750000000001
40
0.250000000000001
40
0.250000000000001
40
0.281250000000002
40
0.281250000000002
40
0.312500000000002
40
0.312500000000002
40
0.343750000000002
40
0.343750000000002
40
0.375000000000002
40
0.375000000000002
40
0.406250000000002
40
0.406250000000002
40
0.437500000000002
40
0.437500000000002
40
0.441406250000002
40
0.441406250000002
40
0.445312500000002
40
0.445312500000002
40
0.453125000000002
40
0.453125000000002
40
0.468750000000001
40
0.468750000000001
40
0.5
40
0.5
40
0.531249999999999
40
0.531249999999999
40
0.562499999999998
40
0.562499999999998
40
0.593749999999996
40
0.593749999999996
40
0.624999999999995
40
0.624999999999995
40
0.656249999999994
40
0.656249999999994
40
0.687499999999993
40
0.687499999999993
40
0.718749999999992
40
0.718749999999992
40
0.722656249999992
40
0.722656249999992
40
0.726562499999992
40
0.734374999999993
40
0.734374999999993
40
0.749999999999993
40
0.749999999999993
40
0.781249999999994
40
0.781249999999994
40
0.812499999999995
40
0.812499999999995
40
0.843749999999996
40
0.843749999999996
40
0.874999999999997
40
0.874999999999997
40
0.906249999999997
40
0.906249999999997
40
0.937499999999998
40
0.937499999999998
40
0.968749999999999
40
0.968749999999999
40
1
40
1
40
1
40
1
41
1
10
113.6
20
7.21360291234851
30
0
41
1
10
113.689909640386
20
6.8821322430141
30
0
41
1
10
113.779819280773
20
6.50703703699617
30
0
41
1
10
113.959638561546
20
5.68767245721165
30
0
41
1
10
114.049548201932
20
5.24353138150963
30
0
41
1
10
114.229367482705
20
4.31104862674658
30
0
41
1
10
114.319277123091
20
3.82286291733942
30
0
41
1
10
114.499096403864
20
2.82959233271936
30
0
41
1
10
114.589006044251
20
2.32463853707461
30
0
41
1
10
114.768825325023
20
1.32296048862057
30
0
41
1
10
114.85873496541
20
0.826309835392181
30
0
41
1
10
114.971122015893
20
0.223006878828812
30
0
41
1
10
114.99359942599
20
0.103366191451443
30
0
41
1
10
115.038554246183
20
-0.134612072538175
30
0
41
1
10
115.061031656279
20
-0.254573227962339
30
0
41
1
10
115.128463886569
20
-0.617003399855747
30
0
41
1
10
115.173418706762
20
-0.862031688963469
30
0
41
1
10
115.308283167342
20
-1.60392507424544
30
0
41
1
10
115.398192807728
20
-2.10776045249833
30
0
41
1
10
115.578012088501
20
-3.11126595190154
30
0
41
1
10
115.667921728888
20
-3.61083027393821
30
0
41
1
10
115.847741009661
20
-4.57911547374772
30
0
41
1
10
115.937650650047
20
-5.04768645369182
30
0
41
1
10
116.11746993082
20
-5.9272975586573
30
0
41
1
10
116.207379571206
20
-6.33818933276041
30
0
41
1
10
116.387198851979
20
-7.08041576343476
30
0
41
1
10
116.477108492366
20
-7.41165610306481
30
0
41
1
10
116.656927773138
20
-7.98104850973951
30
0
41
1
10
116.746837413525
20
-8.21918995284594
30
0
41
1
10
116.926656694298
20
-8.59900329566057
30
0
41
1
10
117.016566334684
20
-8.74074001447136
30
0
41
1
10
117.196385615457
20
-8.9336329566076
30
0
41
1
10
117.286295255843
20
-8.98489371749852
30
0
41
1
10
117.387443601278
20
-8.99862290652024
30
0
41
1
10
117.398682306326
20
-8.99954104607932
30
0
41
1
10
117.421159716423
20
-9.00019113404818
30
0
41
1
10
117.432398421471
20
-8.9999272780644
30
0
41
1
10
117.466114536616
20
-8.99734184667932
30
0
41
1
10
117.488591946713
20
-8.99321961712121
30
0
41
1
10
117.556024177002
20
-8.97332470912048
30
0
41
1
10
117.600978997196
20
-8.95001438110626
30
0
41
1
10
117.735843457775
20
-8.84757073449137
30
0
41
1
10
117.825753098162
20
-8.73569262424888
30
0
41
1
10
118.005572378935
20
-8.41660444901916
30
0
41
1
10
118.095482019321
20
-8.20931235996085
30
0
41
1
10
118.275301300094
20
-7.69948635851085
30
0
41
1
10
118.36521094048
20
-7.39693639591437
30
0
41
1
10
118.545030221253
20
-6.70677483610291
30
0
41
1
10
118.634939861639
20
-6.31923235129969
30
0
41
1
10
118.814759142412
20
-5.47860213664333
30
0
41
1
10
118.904668782799
20
-5.02565070006611
30
0
41
1
10
119.084488063572
20
-4.0798668704756
30
0
41
1
10
119.174397703958
20
-3.58718975378773
30
0
41
1
10
119.354216984731
20
-2.58918971116623
30
0
41
1
10
119.444126625117
20
-2.08399011546001
30
0
41
1
10
119.62394590589
20
-1.08538774922039
30
0
41
1
10
119.713855546277
20
-0.592048444497976
30
0
41
1
10
119.815003891711
20
-0.0542347193876651
30
0
41
1
10
119.82624259676
20
0.0051262913935943
30
0
41
1
10
119.848720006856
20
0.124380176009566
30
0
41
1
10
119.882436122001
20
0.303976892501282
30
0
41
1
10
119.916152237146
20
0.485587222355719
30
0
41
1
10
119.983584467436
20
0.851098869880616
30
0
41
1
10
120.028539287629
20
1.09784018910457
30
0
41
1
10
120.163403748209
20
1.84365846441176
30
0
41
1
10
120.253313388595
20
2.34847858804588
30
0
41
1
10
120.433132669368
20
3.34988185006105
30
0
41
1
10
120.523042309754
20
3.84635012851558
30
0
41
1
10
120.702861590527
20
4.80407118269028
30
0
41
1
10
120.792771230914
20
5.26517072769485
30
0
41
1
10
120.972590511687
20
6.1258986788126
30
0
41
1
10
121.062500152073
20
6.52538408477147
30
0
41
1
10
121.242319432846
20
7.24199869944403
30
0
41
1
10
121.332229073232
20
7.55904587647862
30
0
41
1
10
121.512048354005
20
8.09882724184931
30
0
41
1
10
121.601957994391
20
8.32156433688181
30
0
41
1
10
121.781777275164
20
8.67094057562363
30
0
41
1
10
121.871686915551
20
8.79765365055971
30
0
41
1
10
122.051506196324
20
8.96212986188584
30
0
41
1
10
122.14141583671
20
9
30
0
41
1
10
122.231325477096
20
9
30
0
0
SPLINE
5
ED
100
AcDbEntity
8
1
62
256
6
ByLayer
370
13
48
1
60
0
100
AcDbSpline
70
4
71
3
72
8
73
4
40
0
40
0
40
0
40
0
40
1
40
1
40
1
40
1
41
1
10
123.032957990565
20
9
30
0
41
1
10
123.096727957578
20
9
30
0
41
1
10
123.160497924591
20
8.98099516531209
30
0
41
1
10
123.224267891604
20
8.94055264012746
30
0
0
SPLINE
5
EE
100
AcDbEntity
8
1
62
256
6
ByLayer
370
13
48
1
60
0
100
AcDbSpline
70
4
71
3
72
84
73
80
40
0
40
0
40
0
40
0
40
0.0312500000000001
40
0.0312500000000001
40
0.0625000000000001
40
0.0625000000000001
40
0.0937500000000002
40
0.0937500000000002
40
0.109375
40
0.109375
40
0.117187500000001
40
0.117187500000001
40
0.125000000000001
40
0.125000000000001
40
0.156250000000001
40
0.156250000000001
40
0.187500000000002
40
0.187500000000002
40
0.218750000000003
40
0.218750000000003
40
0.250000000000003
40
0.250000000000003
40
0.281250000000004
40
0.281250000000004
40
0.312500000000005
40
0.312500000000005
40
0.343750000000006
40
0.343750000000006
40
0.375000000000006
40
0.375000000000006
40
0.406250000000007
40
0.406250000000007
40
0.410156250000007
40
0.410156250000007
40
0.414062500000007
40
0.421875000000006
40
0.421875000000006
40
0.437500000000006
40
0.437500000000006
40
0.468750000000004
40
0.468750000000004
40
0.500000000000003
40
0.500000000000003
40
0.531250000000001
40
0.531250000000001
40
0.5625
40
0.5625
40
0.593749999999999
40
0.593749999999999
40
0.624999999999997
40
0.624999999999997
40
0.656249999999996
40
0.656249999999996
40
0.687499999999994
40
0.687499999999994
40
0.703124999999994
40
0.703124999999994
40
0.707031249999993
40
0.707031249999993
40
0.710937499999993
40
0.718749999999993
40
0.718749999999993
40
0.749999999999994
40
0.749999999999994
40
0.781249999999995
40
0.781249999999995
40
0.812499999999996
40
0.812499999999996
40
0.843749999999996
40
0.843749999999996
40
0.874999999999997
40
0.874999999999997
40
0.906249999999998
40
0.906249999999998
40
0.937499999999999
40
0.937499999999999
40
0.968749999999999
40
0.968749999999999
40
1
40
1
40
1
40
1
41
1
10
113.6
20
4.99847875959335
30
0
41
1
10
113.684738062805
20
4.5659588939713
30
0
41
1
10
113.769476125609
20
4.11205490723674
30
0
41
1
10
113.938952251218
20
3.18402507453715
30
0
41
1
10
114.023690314023
20
2.71000367441442
30
0
41
1
10
114.193166439632
20
1.76350613613098
30
0
41
1
10
114.277904502436
20
1.29109760971832
30
0
41
1
10
114.405011596643
20
0.59721292406735
30
0
41
1
10
114.447380628045
20
0.368337808409166
30
0
41
1
10
114.510934175149
20
0.0299950436946972
30
0
41
1
10
114.53211869085
20
-0.0816908915999761
30
0
41
1
10
114.574487722252
20
-0.307753986143126
30
0
41
1
10
114.595672237953
20
-0.421595629366919
30
0
41
1
10
114.701594816459
20
-0.994313426300295
30
0
41
1
10
114.786332879264
20
-1.46390769949468
30
0
41
1
10
114.955809004873
20
-2.40896118654933
30
0
41
1
10
115.040547067677
20
-2.88436211771179
30
0
41
1
10
115.210023193286
20
-3.81993672809446
30
0
41
1
10
115.294761256091
20
-4.28001220425097
30
0
41
1
10
115.4642373817
20
-5.16213470882352
30
0
41
1
10
115.548975444504
20
-5.58406556765712
30
0
41
1
10
115.718451570113
20
-6.36870730741072
30
0
41
1
10
115.803189632918
20
-6.73131883117685
30
0
41
1
10
115.972665758527
20
-7.38111312010861
30
0
41
1
10
116.057403821332
20
-7.668244676878
30
0
41
1
10
116.226879946941
20
-8.15822004358697
30
0
41
1
10
116.311618009745
20
-8.36107263449236
30
0
41
1
10
116.481094135354
20
-8.68163970518714
30
0
41
1
10
116.565832198159
20
-8.79941124007652
30
0
41
1
10
116.735308323768
20
-8.9559222386429
30
0
41
1
10
116.820046386573
20
-8.99474134654889
30
0
41
1
10
116.915376707228
20
-9.00009226533453
30
0
41
1
10
116.925968965078
20
-9.00015930920728
30
0
41
1
10
116.947153480779
20
-8.99924302516456
30
0
41
1
10
116.978930254331
20
-8.9962831043172
30
0
41
1
10
117.010707027883
20
-8.98845851932577
30
0
41
1
10
117.074260574986
20
-8.96604970043964
30
0
41
1
10
117.116629606388
20
-8.94208994060278
30
0
41
1
10
117.243736700595
20
-8.8412003726869
30
0
41
1
10
117.3284747634
20
-8.73507708046938
30
0
41
1
10
117.497950889009
20
-8.43829794026254
30
0
41
1
10
117.582688951813
20
-8.24758015435845
30
0
41
1
10
117.752165077422
20
-7.78129277632468
30
0
41
1
10
117.836903140227
20
-7.50570640935467
30
0
41
1
10
118.006379265836
20
-6.87728854329623
30
0
41
1
10
118.091117328641
20
-6.52449993331163
30
0
41
1
10
118.26059345425
20
-5.756855478906
30
0
41
1
10
118.345331517054
20
-5.34209378393976
30
0
41
1
10
118.514807642663
20
-4.47113992653343
30
0
41
1
10
118.599545705468
20
-4.01506379338576
30
0
41
1
10
118.769021831077
20
-3.08429594871481
30
0
41
1
10
118.853759893882
20
-2.60970672478473
30
0
41
1
10
119.023236019491
20
-1.66349436953777
30
0
41
1
10
119.107974082295
20
-1.19193576451301
30
0
41
1
10
119.235081176502
20
-0.500146100791596
30
0
41
1
10
119.277450207904
20
-0.272105225480971
30
0
41
1
10
119.330411497157
20
0.0086630267838075
30
0
41
1
10
119.341003755008
20
0.0646511233465787
30
0
41
1
10
119.362188270709
20
0.177325330438436
30
0
41
1
10
119.39396504426
20
0.34696007273223
30
0
41
1
10
119.425741817812
20
0.518350997994958
30
0
41
1
10
119.531664396318
20
1.09300182189409
30
0
41
1
10
119.616402459122
20
1.56362177582003
30
0
41
1
10
119.785878584731
20
2.50935186838822
30
0
41
1
10
119.870616647536
20
2.98440059264868
30
0
41
1
10
120.040092773145
20
3.91768304179266
30
0
41
1
10
120.124830835949
20
4.37581636216208
30
0
41
1
10
120.294306961559
20
5.2524649494942
30
0
41
1
10
120.379045024363
20
5.67086402575299
30
0
41
1
10
120.548521149972
20
6.4470995604191
30
0
41
1
10
120.633259212777
20
6.80483918628087
30
0
41
1
10
120.802735338386
20
7.4440054438773
30
0
41
1
10
120.88747340119
20
7.7253850010166
30
0
41
1
10
121.056949526799
20
8.20353732221082
30
0
41
1
10
121.141687589604
20
8.40032289930073
30
0
41
1
10
121.311163715213
20
8.70897955970386
30
0
41
1
10
121.395901778018
20
8.82091020774962
30
0
41
1
10
121.565377903627
20
8.96638032733716
30
0
41
1
10
121.650115966431
20
9
30
0
41
1
10
121.734854029236
20
9
30
0
0
SPLINE
5
EF
100
AcDbEntity
8
1
62
256
6
ByLayer
370
13
48
1
60
0
100
AcDbSpline
70
4
71
3
72
14
73
10
40
0
40
0
40
0
40
0
40
0.25
40
0.25
40
0.5
40
0.5
40
0.75
40
0.75
40
1
40
1
40
1
40
1
41
1
10
122.536486542704
20
9
30
0
41
1
10
122.593801655112
20
9
30
0
41
1
10
122.651116767521
20
8.98465445916653
30
0
41
1
10
122.765746992337
20
8.9197019175198
30
0
41
1
10
122.823062104746
20
8.87008334305571
30
0
41
1
10
122.937692329562
20
8.73378764994632
30
0
41
1
10
122.995007441971
20
8.64709965709744
30
0
41
1
10
123.109637666788
20
8.43500583449972
30
0
41
1
10
123.166952779196
20
8.30959161622616
30
0
41
1
10
123.224267891604
20
8.16470576924957
30
0
0
SPLINE
5
F0
100
AcDbEntity
8
1
62
256
6
ByLayer
370
13
48
1
60
0
100
AcDbSpline
70
4
71
3
72
85
73
81
40
0
40
0
40
0
40
0
40
0.0312500000000006
40
0.0312500000000006
40
0.0468750000000008
40
0.0468750000000008
40
0.0546875000000009
40
0.0546875000000009
40
0.0625000000000009
40
0.0625000000000009
40
0.0937500000000013
40
0.0937500000000013
40
0.125000000000002
40
0.125000000000002
40
0.156250000000002
40
0.156250000000002
40
0.187500000000002
40
0.187500000000002
40
0.218750000000002
40
0.218750000000002
40
0.250000000000003
40
0.250000000000003
40
0.281250000000003
40
0.281250000000003
40
0.312500000000003
40
0.312500000000003
40
0.343750000000004
40
0.343750000000004
40
0.359375000000004
40
0.359375000000004
40
0.367187500000004
40
0.367187500000004
40
0.371093750000004
40
0.371093750000004
40
0.375000000000004
40
0.375000000000004
40
0.406250000000004
40
0.406250000000004
40
0.437500000000004
40
0.437500000000004
40
0.468750000000004
40
0.468750000000004
40
0.500000000000004
40
0.500000000000004
40
0.531250000000004
40
0.531250000000004
40
0.562500000000004
40
0.562500000000004
40
0.593750000000004
40
0.593750000000004
40
0.625000000000004
40
0.625000000000004
40
0.656250000000004
40
0.656250000000004
40
0.671875000000004
40
0.671875000000004
40
0.679687500000004
40
0.683593750000004
40
0.683593750000004
40
0.687500000000004
40
0.687500000000004
40
0.718750000000003
40
0.718750000000003
40
0.750000000000003
40
0.750000000000003
40
0.781250000000003
40
0.781250000000003
40
0.812500000000002
40
0.812500000000002
40
0.843750000000002
40
0.843750000000002
40
0.875000000000002
40
0.875000000000002
40
0.906250000000001
40
0.906250000000001
40
0.937500000000001
40
0.937500000000001
40
0.96875
40
0.96875
40
1
40
1
40
1
40
1
41
1
10
113.6
20
2.30353579761945
30
0
41
1
10
113.679566485223
20
1.85913223506219
30
0
41
1
10
113.759132970445
20
1.41502926289485
30
0
41
1
10
113.878482698279
20
0.760692037585386
30
0
41
1
10
113.918265940891
20
0.544522750988648
30
0
41
1
10
113.977940804808
20
0.224342376629323
30
0
41
1
10
113.997832426113
20
0.118292568895527
30
0
41
1
10
114.037615668725
20
-0.0922835838570961
30
0
41
1
10
114.05750729003
20
-0.198095955860651
30
0
41
1
10
114.156965396559
20
-0.731169847035289
30
0
41
1
10
114.236531881781
20
-1.1687295785664
30
0
41
1
10
114.395664852227
20
-2.05279870991362
30
0
41
1
10
114.475231337449
20
-2.49927307426796
30
0
41
1
10
114.634364307895
20
-3.38444674868964
30
0
41
1
10
114.713930793117
20
-3.82308175111569
30
0
41
1
10
114.873063763562
20
-4.67388952942432
30
0
41
1
10
114.952630248785
20
-5.08597938468489
30
0
41
1
10
115.11176321923
20
-5.86530880300012
30
0
41
1
10
115.191329704453
20
-6.23246739154169
30
0
41
1
10
115.350462674898
20
-6.90639033082155
30
0
41
1
10
115.430029160121
20
-7.21309839158482
30
0
41
1
10
115.589162130566
20
-7.75556437147415
30
0
41
1
10
115.668728615789
20
-7.99130529449371
30
0
41
1
10
115.827861586234
20
-8.38741286116047
30
0
41
1
10
115.907428071457
20
-8.54780206023116
30
0
41
1
10
116.066561041902
20
-8.79481721084844
30
0
41
1
10
116.146127527125
20
-8.88149287724565
30
0
41
1
10
116.265477254959
20
-8.96106292483708
30
0
41
1
10
116.30526049757
20
-8.97921213853749
30
0
41
1
10
116.364935361487
20
-8.99471705937324
30
0
41
1
10
116.384826982793
20
-8.99793358886146
30
0
41
1
10
116.414664414751
20
-8.99994660570266
30
0
41
1
10
116.424610225404
20
-9.00015017066028
30
0
41
1
10
116.44450184671
20
-8.99963481689147
30
0
41
1
10
116.454447657363
20
-8.99891298207274
30
0
41
1
10
116.543959953238
20
-8.98815008376198
30
0
41
1
10
116.623526438461
20
-8.94813428285224
30
0
41
1
10
116.782659408906
20
-8.79844810718822
30
0
41
1
10
116.862225894129
20
-8.68871961436435
30
0
41
1
10
117.021358864574
20
-8.39446707612299
30
0
41
1
10
117.100925349797
20
-8.2099001570823
30
0
41
1
10
117.260058320242
20
-7.76614228666841
30
0
41
1
10
117.339624805465
20
-7.50694056098086
30
0
41
1
10
117.49875777591
20
-6.92026348962224
30
0
41
1
10
117.578324261133
20
-6.59281845552795
30
0
41
1
10
117.737457231578
20
-5.88191399447626
30
0
41
1
10
117.817023716801
20
-5.49852091408533
30
0
41
1
10
117.976156687246
20
-4.69240413949947
30
0
41
1
10
118.055723172469
20
-4.26976461969372
30
0
41
1
10
118.214856142914
20
-3.40392532563649
30
0
41
1
10
118.294422628137
20
-2.9608043859113
30
0
41
1
10
118.453555598582
20
-2.07232481585857
30
0
41
1
10
118.533122083805
20
-1.6270217245625
30
0
41
1
10
118.652471811639
20
-0.96923761926783
30
0
41
1
10
118.69225505425
20
-0.751646460270308
30
0
41
1
10
118.751929918167
20
-0.428983039702615
30
0
41
1
10
118.781767350126
20
-0.268579304466556
30
0
41
1
10
118.811604782084
20
-0.109769513793907
30
0
41
1
10
118.83149640339
20
-0.0042711117813781
30
0
41
1
10
118.841442214043
20
0.0482705337052778
30
0
41
1
10
118.930954509918
20
0.523945528199022
30
0
41
1
10
119.010520995141
20
0.95874603614314
30
0
41
1
10
119.169653965586
20
1.83967470584807
30
0
41
1
10
119.249220450809
20
2.28577271224506
30
0
41
1
10
119.408353421254
20
3.17304765088127
30
0
41
1
10
119.487919906477
20
3.61416454767325
30
0
41
1
10
119.647052876922
20
4.47296761043319
30
0
41
1
10
119.726619362145
20
4.89057264427368
30
0
41
1
10
119.88575233259
20
5.68374489903809
30
0
41
1
10
119.965318817813
20
6.05922923888804
30
0
41
1
10
120.124451788258
20
6.75199892873187
30
0
41
1
10
120.204018273481
20
7.06922274140217
30
0
41
1
10
120.363151243926
20
7.63401044069553
30
0
41
1
10
120.442717729149
20
7.88155064034547
30
0
41
1
10
120.601850699594
20
8.30154164504799
30
0
41
1
10
120.681417184817
20
8.47400926067459
30
0
41
1
10
120.840550155262
20
8.74455605215078
30
0
41
1
10
120.920116640485
20
8.8426817524134
30
0
41
1
10
121.07924961093
20
8.97037426722432
30
0
41
1
10
121.158816096153
20
9
30
0
41
1
10
121.238382581375
20
9
30
0
0
SPLINE
5
F1
100
AcDbEntity
8
1
62
256
6
ByLayer
370
13
48
1
60
0
100
AcDbSpline
70
4
71
3
72
20
73
16
40
0
40
0
40
0
40
0
40
0.249999999999999
40
0.249999999999999
40
0.374999999999999
40
0.374999999999999
40
0.499999999999999
40
0.499999999999999
40
0.625
40
0.625
40
0.75
40
0.75
40
0.875
40
0.875
40
1
40
1
40
1
40
1
41
1
10
122.040015094843
20
9
30
0
41
1
10
122.138702827907
20
9
30
0
41
1
10
122.23739056097
20
8.95432485406067
30
0
41
1
10
122.385422160565
20
8.80464229741844
30
0
41
1
10
122.434766027097
20
8.74126722255019
30
0
41
1
10
122.53345376016
20
8.58623348736015
30
0
41
1
10
122.582797626692
20
8.49457025194951
30
0
41
1
10
122.681485359756
20
8.2823530053511
30
0
41
1
10
122.730829226287
20
8.16179581293994
30
0
41
1
10
122.829516959351
20
7.89202756935575
30
0
41
1
10
122.878860825882
20
7.74281529453017
30
0
41
1
10
122.977548558946
20
7.41688604595805
30
0
41
1
10
123.026892425477
20
7.24017016796469
30
0
41
1
10
123.125580158541
20
6.86129819342537
30
0
41
1
10
123.174924025072
20
6.65914557353236
30
0
41
1
10
123.224267891604
20
6.44572840867551
30
0
0
SPLINE
5
F2
100
AcDbEntity
8
1
62
256
6
ByLayer
370
13
48
1
60
0
100
AcDbSpline
70
4
71
3
72
81
73
77
40
0
40
0
40
0
40
0
40
0.0312499999999983
40
0.0312499999999983
40
0.0624999999999967
40
0.0624999999999967
40
0.093749999999995
40
0.093749999999995
40
0.124999999999993
40
0.124999999999993
40
0.156249999999992
40
0.156249999999992
40
0.18749999999999
40
0.18749999999999
40
0.218749999999989
40
0.218749999999989
40
0.249999999999987
40
0.249999999999987
40
0.281249999999985
40
0.281249999999985
40
0.312499999999984
40
0.312499999999984
40
0.320312499999983
40
0.324218749999983
40
0.324218749999983
40
0.328124999999983
40
0.328124999999983
40
0.343749999999983
40
0.343749999999983
40
0.374999999999983
40
0.374999999999983
40
0.406249999999983
40
0.406249999999983
40
0.437499999999983
40
0.437499999999983
40
0.468749999999983
40
0.468749999999983
40
0.499999999999983
40
0.499999999999983
40
0.531249999999983
40
0.531249999999983
40
0.562499999999983
40
0.562499999999983
40
0.593749999999983
40
0.593749999999983
40
0.624999999999983
40
0.624999999999983
40
0.656249999999983
40
0.656249999999983
40
0.660156249999983
40
0.660156249999983
40
0.664062499999983
40
0.664062499999983
40
0.671874999999983
40
0.671874999999983
40
0.687499999999984
40
0.687499999999984
40
0.718749999999986
40
0.718749999999986
40
0.749999999999987
40
0.749999999999987
40
0.781249999999989
40
0.781249999999989
40
0.81249999999999
40
0.81249999999999
40
0.843749999999992
40
0.843749999999992
40
0.874999999999993
40
0.874999999999993
40
0.906249999999995
40
0.906249999999995
40
0.937499999999997
40
0.937499999999997
40
0.968749999999998
40
0.968749999999998
40
1
40
1
40
1
40
1
41
1
10
113.6
20
-0.407141987043332
30
0
41
1
10
113.674394907641
20
-0.807482863015707
30
0
41
1
10
113.748789815282
20
-1.2171100848374
30
0
41
1
10
113.897579630563
20
-2.04395492986211
30
0
41
1
10
113.971974538204
20
-2.4611471935134
30
0
41
1
10
114.120764353485
20
-3.28949437330181
30
0
41
1
10
114.195159261126
20
-3.70060422913628
30
0
41
1
10
114.343949076408
20
-4.5015863688219
30
0
41
1
10
114.418343984049
20
-4.8914001927042
30
0
41
1
10
114.56713379933
20
-5.63460181516075
30
0
41
1
10
114.641528706971
20
-5.98793014155197
30
0
41
1
10
114.790318522252
20
-6.64480577366976
30
0
41
1
10
114.864713429893
20
-6.94830715143752
30
0
41
1
10
115.013503245175
20
-7.49564416246525
30
0
41
1
10
115.087898152815
20
-7.73945839370268
30
0
41
1
10
115.236687968097
20
-8.16205308445691
30
0
41
1
10
115.311082875738
20
-8.34083974167385
30
0
41
1
10
115.459872691019
20
-8.6327594128141
30
0
41
1
10
115.53426759866
20
-8.7459209585449
30
0
41
1
10
115.683057413942
20
-8.91017055174598
30
0
41
1
10
115.757452321583
20
-8.96129915437555
30
0
41
1
10
115.850445956133
20
-8.99060231240981
30
0
41
1
10
115.878344046499
20
-8.99680644441054
30
0
41
1
10
115.906242136864
20
-8.99927011205642
30
0
41
1
10
115.924840863774
20
-9.00009760299272
30
0
41
1
10
115.93414022723
20
-9.00010584921938
30
0
41
1
10
115.980637044505
20
-8.99812084227784
30
0
41
1
10
116.017834498325
20
-8.99001135330309
30
0
41
1
10
116.129426859786
20
-8.94462852386786
30
0
41
1
10
116.203821767427
20
-8.88621456455263
30
0
41
1
10
116.352611582709
20
-8.70676164911629
30
0
41
1
10
116.427006490349
20
-8.58568300093464
30
0
41
1
10
116.575796305631
20
-8.27775760227857
30
0
41
1
10
116.650191213272
20
-8.09088455793847
30
0
41
1
10
116.798981028553
20
-7.65250940021463
30
0
41
1
10
116.873375936194
20
-7.40100433332114
30
0
41
1
10
117.022165751476
20
-6.83926027105935
30
0
41
1
10
117.096560659116
20
-6.52904602649792
30
0
41
1
10
117.245350474398
20
-5.86021728489615
30
0
41
1
10
117.319745382039
20
-5.50165108895735
30
0
41
1
10
117.46853519732
20
-4.74977012641554
30
0
41
1
10
117.542930104961
20
-4.35651549894084
30
0
41
1
10
117.691719920243
20
-3.55054984061363
30
0
41
1
10
117.766114827883
20
-3.13789619651115
30
0
41
1
10
117.914904643165
20
-2.30824580251439
30
0
41
1
10
117.989299550806
20
-1.89129189785251
30
0
41
1
10
118.138089366087
20
-1.06643107244022
30
0
41
1
10
118.212484273728
20
-0.658547003096061
30
0
41
1
10
118.296178544824
20
-0.210766410074171
30
0
41
1
10
118.305477908279
20
-0.161165094116058
30
0
41
1
10
118.324076635189
20
-0.0622840214968505
30
0
41
1
10
118.333375998644
20
-0.0131077912220974
30
0
41
1
10
118.36127408901
20
0.134715070337677
30
0
41
1
10
118.37987281592
20
0.233924307219183
30
0
41
1
10
118.435668996651
20
0.533325388109148
30
0
41
1
10
118.472866450471
20
0.735296549017193
30
0
41
1
10
118.584458811932
20
1.34643541970851
30
0
41
1
10
118.658853719573
20
1.76091099516296
30
0
41
1
10
118.807643534854
20
2.59174853000664
30
0
41
1
10
118.882038442495
20
3.00807616026802
30
0
41
1
10
119.030828257777
20
3.82813429128791
30
0
41
1
10
119.105223165418
20
4.23181266551592
30
0
41
1
10
119.254012980699
20
5.01115945007325
30
0
41
1
10
119.32840788834
20
5.38676717875313
30
0
41
1
10
119.477197703621
20
6.09536491581952
30
0
41
1
10
119.551592611262
20
6.42829968057885
30
0
41
1
10
119.700382426544
20
7.03954453650968
30
0
41
1
10
119.774777334185
20
7.3178185134945
30
0
41
1
10
119.923567149466
20
7.81175587393403
30
0
41
1
10
119.997962057107
20
8.02741011952472
30
0
41
1
10
120.146751872388
20
8.39284465882091
30
0
41
1
10
120.221146780029
20
8.54264200139389
30
0
41
1
10
120.369936595311
20
8.77769198535174
30
0
41
1
10
120.444331502951
20
8.86297983143305
30
0
41
1
10
120.593121318233
20
8.97411267954584
30
0
41
1
10
120.667516225874
20
9
30
0
41
1
10
120.741911133515
20
9
30
0
0
SPLINE
5
F3
100
AcDbEntity
8
1
62
256
6
ByLayer
370
13
48
1
60
0
100
AcDbSpline
70
4
71
3
72
22
73
18
40
0
40
0
40
0
40
0
40
0.125
40
0.125
40
0.25
40
0.25
40
0.375
40
0.375
40
0.5
40
0.5
40
0.625
40
0.625
40
0.75
40
0.75
40
0.875
40
0.875
40
1
40
1
40
1
40
1
41
1
10
121.543543646983
20
9
30
0
41
1
10
121.613573823842
20
9
30
0
41
1
10
121.683604000701
20
8.97706967287786
30
0
41
1
10
121.82366435442
20
8.87897336784309
30
0
41
1
10
121.893694531279
20
8.80377600949748
30
0
41
1
10
122.033754884998
20
8.5966536756867
30
0
41
1
10
122.103785061857
20
8.46470158772368
30
0
41
1
10
122.243845415575
20
8.14242336453262
30
0
41
1
10
122.313875592434
20
7.95208168875919
30
0
41
1
10
122.453935946153
20
7.51489152689314
30
0
41
1
10
122.523966123012
20
7.26804495199582
30
0
41
1
10
122.66402647673
20
6.72345035593548
30
0
41
1
10
122.73405665359
20
6.42572352893478
30
0
41
1
10
122.874117007308
20
5.78836744007276
30
0
41
1
10
122.944147184167
20
5.44877509108136
30
0
41
1
10
123.084207537886
20
4.73918993424027
30
0
41
1
10
123.154237714745
20
4.36924172617032
30
0
41
1
10
123.224267891604
20
3.99046724636369
30
0
0
SPLINE
5
F4
100
AcDbEntity
8
1
62
256
6
ByLayer
370
13
48
1
60
0
100
AcDbSpline
70
4
71
3
72
80
73
76
40
0
40
0
40
0
40
0
40
0.0312499999999996
40
0.0312499999999996
40
0.0624999999999992
40
0.0624999999999992
40
0.0937499999999988
40
0.0937499999999988
40
0.124999999999998
40
0.124999999999998
40
0.156249999999998
40
0.156249999999998
40
0.187499999999998
40
0.187499999999998
40
0.218749999999997
40
0.218749999999997
40
0.249999999999997
40
0.249999999999997
40
0.265624999999997
40
0.265624999999997
40
0.273437499999997
40
0.273437499999997
40
0.277343749999997
40
0.277343749999997
40
0.281249999999998
40
0.281249999999998
40
0.312499999999998
40
0.312499999999998
40
0.343749999999999
40
0.343749999999999
40
0.374999999999999
40
0.374999999999999
40
0.40625
40
0.40625
40
0.4375
40
0.4375
40
0.468750000000001
40
0.468750000000001
40
0.500000000000001
40
0.500000000000001
40
0.531250000000001
40
0.531250000000001
40
0.562500000000002
40
0.562500000000002
40
0.593750000000002
40
0.593750000000002
40
0.625000000000003
40
0.625000000000003
40
0.632812500000003
40
0.632812500000003
40
0.640625000000003
40
0.640625000000003
40
0.656250000000003
40
0.656250000000003
40
0.687500000000003
40
0.687500000000003
40
0.718750000000002
40
0.718750000000002
40
0.750000000000002
40
0.750000000000002
40
0.781250000000002
40
0.781250000000002
40
0.812500000000002
40
0.812500000000002
40
0.843750000000001
40
0.843750000000001
40
0.875000000000001
40
0.875000000000001
40
0.906250000000001
40
0.906250000000001
40
0.937500000000001
40
0.937500000000001
40
0.96875
40
0.96875
40
1
40
1
40
1
40
1
41
1
10
113.6
20
-3.15369808833051
30
0
41
1
10
113.669223330059
20
-3.5374397680055
30
0
41
1
10
113.738446660118
20
-3.91708474797207
30
0
41
1
10
113.876893320235
20
-4.65590283732681
30
0
41
1
10
113.946116650294
20
-5.01503435463144
30
0
41
1
10
114.084563310412
20
-5.70069642247284
30
0
41
1
10
114.153786640471
20
-6.02718584195947
30
0
41
1
10
114.292233300589
20
-6.63692616316365
30
0
41
1
10
114.361456630648
20
-6.92014520399653
30
0
41
1
10
114.499903290766
20
-7.43532721786175
30
0
41
1
10
114.569126620825
20
-7.66727422002785
30
0
41
1
10
114.707573280942
20
-8.07525430082117
30
0
41
1
10
114.776796611001
20
-8.25128944801455
30
0
41
1
10
114.915243271119
20
-8.54635972078654
30
0
41
1
10
114.984466601178
20
-8.66541228793807
30
0
41
1
10
115.122913261296
20
-8.84869598238311
30
0
41
1
10
115.192136591355
20
-8.91295401561172
30
0
41
1
10
115.295971586443
20
-8.9717898657058
30
0
41
1
10
115.330583251472
20
-8.98516070217266
30
0
41
1
10
115.382500749017
20
-8.99642439196958
30
0
41
1
10
115.399806581531
20
-8.99871426703879
30
0
41
1
10
115.425765330303
20
-9.00002897096928
30
0
41
1
10
115.43441824656
20
-9.00011505860519
30
0
41
1
10
115.451724079075
20
-8.99958772773371
30
0
41
1
10
115.460376995333
20
-8.99897237013317
30
0
41
1
10
115.538253241649
20
-8.99021031566267
30
0
41
1
10
115.607476571708
20
-8.95943637129906
30
0
41
1
10
115.745923231826
20
-8.84600611731025
30
0
41
1
10
115.815146561885
20
-8.76332038392974
30
0
41
1
10
115.953593222002
20
-8.5420954740901
30
0
41
1
10
116.022816552061
20
-8.4035318797757
30
0
41
1
10
116.161263212179
20
-8.06941005389155
30
0
41
1
10
116.230486542238
20
-7.87383911845643
30
0
41
1
10
116.368933202356
20
-7.42797380518024
30
0
41
1
10
116.438156532415
20
-7.17768349062507
30
0
41
1
10
116.576603192533
20
-6.62820934007499
30
0
41
1
10
116.645826522591
20
-6.32904743933184
30
0
41
1
10
116.784273182709
20
-5.69082836394992
30
0
41
1
10
116.853496512768
20
-5.35180715953069
30
0
41
1
10
116.991943172886
20
-4.64514790344734
30
0
41
1
10
117.061166502945
20
-4.277552154142
30
0
41
1
10
117.199613163063
20
-3.52609581508099
30
0
41
1
10
117.268836493121
20
-3.14227501443449
30
0
41
1
10
117.407283153239
20
-2.37052885721053
30
0
41
1
10
117.476506483298
20
-1.9826337537055
30
0
41
1
10
117.614953143416
20
-1.21363248244376
30
0
41
1
10
117.684176473475
20
-0.832543625973614
30
0
41
1
10
117.770705636048
20
-0.3659904416823
30
0
41
1
10
117.788011468563
20
-0.273164789765474
30
0
41
1
10
117.822623133593
20
-0.0885999355253659
30
0
41
1
10
117.839928966107
20
0.0027540408130449
30
0
41
1
10
117.891846463652
20
0.27856922994647
30
0
41
1
10
117.926458128681
20
0.464692395371145
30
0
41
1
10
118.030293123769
20
1.02838285326484
30
0
41
1
10
118.099516453828
20
1.41133733177699
30
0
41
1
10
118.237963113946
20
2.18232719493608
30
0
41
1
10
118.307186444005
20
2.57034297033451
30
0
41
1
10
118.445633104123
20
3.34030678795648
30
0
41
1
10
118.514856434182
20
3.72222258317885
30
0
41
1
10
118.653303094299
20
4.46772575572979
30
0
41
1
10
118.722526424358
20
4.83127232875708
30
0
41
1
10
118.860973084476
20
5.52777988375044
30
0
41
1
10
118.930196414535
20
5.86069901380887
30
0
41
1
10
119.068643074653
20
6.48496969463761
30
0
41
1
10
119.137866404712
20
6.77628722006804
30
0
41
1
10
119.276313064829
20
7.30882041910524
30
0
41
1
10
119.345536394888
20
7.55001709431872
30
0
41
1
10
119.483983055006
20
7.97704228016312
30
0
41
1
10
119.553206385065
20
8.16286982336018
30
0
41
1
10
119.691653045183
20
8.47746480617752
30
0
41
1
10
119.760876375242
20
8.60624740324326
30
0
41
1
10
119.89932303536
20
8.80841034590645
30
0
41
1
10
119.968546365418
20
8.8818164559265
30
0
41
1
10
120.106993025536
20
8.97759646859205
30
0
41
1
10
120.176216355595
20
9
30
0
41
1
10
120.245439685654
20
9
30
0
0
SPLINE
5
F5
100
AcDbEntity
8
1
62
256
6
ByLayer
370
13
48
1
60
0
100
AcDbSpline
70
4
71
3
72
22
73
18
40
0
40
0
40
0
40
0
40
0.125
40
0.125
40
0.25
40
0.25
40
0.375
40
0.375
40
0.5
40
0.5
40
0.625
40
0.625
40
0.75
40
0.75
40
0.875
40
0.875
40
1
40
1
40
1
40
1
41
1
10
121.047072199122
20
9
30
0
41
1
10
121.137788686309
20
9
30
0
41
1
10
121.228505173496
20
8.96144352028696
30
0
41
1
10
121.409938147869
20
8.79389062503196
30
0
41
1
10
121.500654635056
20
8.66478247207402
30
0
41
1
10
121.68208760943
20
8.30881857065592
30
0
41
1
10
121.772804096616
20
8.08188657038062
30
0
41
1
10
121.95423707099
20
7.53218755680223
30
0
41
1
10
122.044953558177
20
7.20941988283951
30
0
41
1
10
122.22638653255
20
6.48047724016348
30
0
41
1
10
122.317103019737
20
6.07439098401684
30
0
41
1
10
122.49853599411
20
5.20044886080709
30
0
41
1
10
122.589252481297
20
4.73274419902626
30
0
41
1
10
122.77068545567
20
3.76267215398471
30
0
41
1
10
122.861401942857
20
3.26046392580346
30
0
41
1
10
123.042834917231
20
2.24908287200867
30
0
41
1
10
123.133551404417
20
1.74002646586132
30
0
41
1
10
123.224267891604
20
1.23947717052928
30
0
0
SPLINE
5
F6
100
AcDbEntity
8
1
62
256
6
ByLayer
370
13
48
1
60
0
100
AcDbSpline
70
4
71
3
72
78
73
74
40
0
40
0
40
0
40
0
40
0.0312499999999985
40
0.0312499999999985
40
0.062499999999997
40
0.062499999999997
40
0.0937499999999955
40
0.0937499999999955
40
0.124999999999994
40
0.124999999999994
40
0.156249999999993
40
0.156249999999993
40
0.187499999999991
40
0.187499999999991
40
0.20312499999999
40
0.20312499999999
40
0.21093749999999
40
0.21093749999999
40
0.21874999999999
40
0.21874999999999
40
0.249999999999989
40
0.249999999999989
40
0.281249999999989
40
0.281249999999989
40
0.312499999999989
40
0.312499999999989
40
0.343749999999989
40
0.343749999999989
40
0.374999999999989
40
0.374999999999989
40
0.406249999999989
40
0.406249999999989
40
0.437499999999989
40
0.437499999999989
40
0.468749999999989
40
0.468749999999989
40
0.499999999999989
40
0.499999999999989
40
0.531249999999989
40
0.531249999999989
40
0.562499999999989
40
0.562499999999989
40
0.593749999999989
40
0.593749999999989
40
0.601562499999989
40
0.601562499999989
40
0.609374999999989
40
0.609374999999989
40
0.624999999999989
40
0.624999999999989
40
0.65624999999999
40
0.65624999999999
40
0.687499999999991
40
0.687499999999991
40
0.718749999999992
40
0.718749999999992
40
0.749999999999992
40
0.749999999999992
40
0.781249999999993
40
0.781249999999993
40
0.812499999999994
40
0.812499999999994
40
0.843749999999995
40
0.843749999999995
40
0.874999999999996
40
0.874999999999996
40
0.906249999999997
40
0.906249999999997
40
0.937499999999998
40
0.937499999999998
40
0.968749999999999
40
0.968749999999999
40
1
40
1
40
1
40
1
41
1
10
113.6
20
-5.75188935996306
30
0
41
1
10
113.664051752477
20
-6.05655684425454
30
0
41
1
10
113.728103504954
20
-6.34536446190623
30
0
41
1
10
113.856207009908
20
-6.88353503992175
30
0
41
1
10
113.920258762385
20
-7.13287940788899
30
0
41
1
10
114.048362267339
20
-7.58647681127985
30
0
41
1
10
114.112414019816
20
-7.79072195955069
30
0
41
1
10
114.24051752477
20
-8.15101198897159
30
0
41
1
10
114.304569277247
20
-8.30706022970503
30
0
41
1
10
114.432672782201
20
-8.57045265884236
30
0
41
1
10
114.496724534678
20
-8.6778094837168
30
0
41
1
10
114.624828039632
20
-8.84567079678777
30
0
41
1
10
114.688879792109
20
-8.90619363562806
30
0
41
1
10
114.784957420825
20
-8.96463436508185
30
0
41
1
10
114.816983297063
20
-8.9787368539738
30
0
41
1
10
114.865022111421
20
-8.99226633951051
30
0
41
1
10
114.88103504954
20
-8.99550602526449
30
0
41
1
10
114.913060925779
20
-8.99952483363296
30
0
41
1
10
114.929073863898
20
-9.00030602630684
30
0
41
1
10
115.009138554494
20
-8.99824545062305
30
0
41
1
10
115.073190306971
20
-8.97730737675403
30
0
41
1
10
115.201293811925
20
-8.89196751497923
30
0
41
1
10
115.265345564402
20
-8.82754559056758
30
0
41
1
10
115.393449069356
20
-8.65164481583236
30
0
41
1
10
115.457500821833
20
-8.54014794878589
30
0
41
1
10
115.585604326788
20
-8.268419469235
30
0
41
1
10
115.649656079264
20
-8.1081758915154
30
0
41
1
10
115.777759584218
20
-7.73965674554594
30
0
41
1
10
115.841811336696
20
-7.53137873763211
30
0
41
1
10
115.969914841649
20
-7.07010257179681
30
0
41
1
10
116.033966594126
20
-6.81711328102267
30
0
41
1
10
116.16207009908
20
-6.27224377834307
30
0
41
1
10
116.226121851557
20
-5.98038296475121
30
0
41
1
10
116.354225356512
20
-5.36568735151488
30
0
41
1
10
116.418277108989
20
-5.04287914467903
30
0
41
1
10
116.546380613943
20
-4.3755883724271
30
0
41
1
10
116.61043236642
20
-4.03113465211885
30
0
41
1
10
116.738535871374
20
-3.33038352342189
30
0
41
1
10
116.802587623851
20
-2.97411217673022
30
0
41
1
10
116.930691128805
20
-2.25924496716965
30
0
41
1
10
116.994742881282
20
-1.90066864715166
30
0
41
1
10
117.122846386236
20
-1.18970226903806
30
0
41
1
10
117.186898138713
20
-0.83732353459024
30
0
41
1
10
117.266962829309
20
-0.405113255342684
30
0
41
1
10
117.282975767428
20
-0.319080388130942
30
0
41
1
10
117.315001643667
20
-0.147926403944553
30
0
41
1
10
117.331014581786
20
-0.0629535511529582
30
0
41
1
10
117.379053396144
20
0.191422694970527
30
0
41
1
10
117.411079272382
20
0.362978257503471
30
0
41
1
10
117.507156901098
20
0.882464954097145
30
0
41
1
10
117.571208653575
20
1.2352659140054
30
0
41
1
10
117.699312158529
20
1.94673982890765
30
0
41
1
10
117.763363911006
20
2.3054011004136
30
0
41
1
10
117.89146741596
20
3.02004652462676
30
0
41
1
10
117.955519168437
20
3.37601080419151
30
0
41
1
10
118.083622673391
20
4.07572674493076
30
0
41
1
10
118.147674425868
20
4.41945213506452
30
0
41
1
10
118.275777930822
20
5.08486968931794
30
0
41
1
10
118.339829683299
20
5.40653299671476
30
0
41
1
10
118.467933188253
20
6.01856419066763
30
0
41
1
10
118.53198494073
20
6.30890569835739
30
0
41
1
10
118.660088445684
20
6.85043835854779
30
0
41
1
10
118.724140198161
20
7.10161051263026
30
0
41
1
10
118.852243703115
20
7.5590555892224
30
0
41
1
10
118.916295455592
20
7.76532013397983
30
0
41
1
10
119.044398960546
20
8.1297282235156
30
0
41
1
10
119.108450713023
20
8.28787466972224
30
0
41
1
10
119.236554217977
20
8.55543399243587
30
0
41
1
10
119.300605970454
20
8.6648591731325
30
0
41
1
10
119.428709475408
20
8.83673512557272
30
0
41
1
10
119.492761227885
20
8.89920408470249
30
0
41
1
10
119.620864732839
20
8.98082644900688
30
0
41
1
10
119.684916485316
20
9
30
0
41
1
10
119.748968237793
20
9
30
0
0
SPLINE
5
F7
100
AcDbEntity
8
1
62
256
6
ByLayer
370
13
48
1
60
0
100
AcDbSpline
70
4
71
3
72
42
73
38
40
0
40
0
40
0
40
0
40
0.0624999999999999
40
0.0624999999999999
40
0.125
40
0.125
40
0.1875
40
0.1875
40
0.249999999999999
40
0.249999999999999
40
0.312499999999999
40
0.312499999999999
40
0.374999999999999
40
0.374999999999999
40
0.437499999999999
40
0.437499999999999
40
0.499999999999999
40
0.499999999999999
40
0.562499999999999
40
0.562499999999999
40
0.624999999999999
40
0.624999999999999
40
0.687499999999998
40
0.687499999999998
40
0.749999999999998
40
0.749999999999998
40
0.812499999999998
40
0.812499999999998
40
0.874999999999998
40
0.874999999999998
40
0.890624999999998
40
0.890624999999998
40
0.906249999999998
40
0.906249999999998
40
0.937499999999998
40
0.937499999999998
40
1
40
1
40
1
40
1
41
1
10
120.550600751262
20
9
30
0
41
1
10
120.606302150019
20
9
30
0
41
1
10
120.662003548776
20
8.98550783611344
30
0
41
1
10
120.77340634629
20
8.92425350380867
30
0
41
1
10
120.829107745047
20
8.87748130160142
30
0
41
1
10
120.940510542562
20
8.74906289907835
30
0
41
1
10
120.996211941319
20
8.66740719360405
30
0
41
1
10
121.107614738833
20
8.46761630921472
30
0
41
1
10
121.16331613759
20
8.3494736101415
30
0
41
1
10
121.274718935104
20
8.07636299823335
30
0
41
1
10
121.330420333862
20
7.92139100428099
30
0
41
1
10
121.441823131376
20
7.57571531874723
30
0
41
1
10
121.497524530133
20
7.38501208307753
30
0
41
1
10
121.608927327647
20
6.97046481545817
30
0
41
1
10
121.664628726404
20
6.74662618346289
30
0
41
1
10
121.776031523919
20
6.26980935168848
30
0
41
1
10
121.831732922676
20
6.01684102300177
30
0
41
1
10
121.94313572019
20
5.48694456371751
30
0
41
1
10
121.998837118947
20
5.21002947093774
30
0
41
1
10
122.110239916461
20
4.63824836506515
30
0
41
1
10
122.165941315219
20
4.34339670959366
30
0
41
1
10
122.277344112733
20
3.74216201687995
30
0
41
1
10
122.33304551149
20
3.43579270208431
30
0
41
1
10
122.444448309004
20
2.81792417747042
30
0
41
1
10
122.500149707761
20
2.5064364212609
30
0
41
1
10
122.611552505276
20
1.88433090994147
30
0
41
1
10
122.667253904033
20
1.57372131662404
30
0
41
1
10
122.778656701547
20
0.958672864795915
30
0
41
1
10
122.834358100304
20
0.654238549955068
30
0
41
1
10
122.903984848751
20
0.280308832318525
30
0
41
1
10
122.91791019844
20
0.205851230487497
30
0
41
1
10
122.945760897819
20
0.0576520914309242
30
0
41
1
10
122.959686247508
20
-0.0158514961864
30
0
41
1
10
123.001462296576
20
-0.237741694932367
30
0
41
1
10
123.029312995954
20
-0.387124096811391
30
0
41
1
10
123.11286509409
20
-0.838911313128278
30
0
41
1
10
123.168566492847
20
-1.14498490333082
30
0
41
1
10
123.224267891604
20
-1.45364534514636
30
0
0
SPLINE
5
F8
100
AcDbEntity
8
1
62
256
6
ByLayer
370
13
48
1
60
0
100
AcDbSpline
70
4
71
3
72
78
73
74
40
0
40
0
40
0
40
0
40
0.0312499999999998
40
0.0312499999999998
40
0.0624999999999996
40
0.0624999999999996
40
0.0937499999999993
40
0.0937499999999993
40
0.124999999999999
40
0.124999999999999
40
0.140624999999999
40
0.140624999999999
40
0.148437499999999
40
0.148437499999999
40
0.156249999999999
40
0.156249999999999
40
0.187499999999999
40
0.187499999999999
40
0.218749999999999
40
0.218749999999999
40
0.249999999999999
40
0.249999999999999
40
0.281249999999998
40
0.281249999999998
40
0.312499999999998
40
0.312499999999998
40
0.343749999999998
40
0.343749999999998
40
0.374999999999998
40
0.374999999999998
40
0.406249999999997
40
0.406249999999997
40
0.437499999999997
40
0.437499999999997
40
0.468749999999997
40
0.468749999999997
40
0.499999999999997
40
0.499999999999997
40
0.531249999999996
40
0.531249999999996
40
0.562499999999996
40
0.562499999999996
40
0.570312499999996
40
0.570312499999996
40
0.578124999999997
40
0.578124999999997
40
0.593749999999997
40
0.593749999999997
40
0.624999999999997
40
0.624999999999997
40
0.656249999999997
40
0.656249999999997
40
0.687499999999998
40
0.687499999999998
40
0.718749999999998
40
0.718749999999998
40
0.749999999999998
40
0.749999999999998
40
0.781249999999998
40
0.781249999999998
40
0.812499999999998
40
0.812499999999998
40
0.843749999999999
40
0.843749999999999
40
0.874999999999999
40
0.874999999999999
40
0.906249999999999
40
0.906249999999999
40
0.937499999999999
40
0.937499999999999
40
0.96875
40
0.96875
40
1
40
1
40
1
40
1
41
1
10
113.6
20
-7.73348435470618
30
0
41
1
10
113.658880174895
20
-7.91727552220743
30
0
41
1
10
113.71776034979
20
-8.08112564428376
30
0
41
1
10
113.83552069958
20
-8.3676415646417
30
0
41
1
10
113.894400874476
20
-8.49031289144301
30
0
41
1
10
114.012161224266
20
-8.69496294965191
30
0
41
1
10
114.071041399161
20
-8.77695189615119
30
0
41
1
10
114.188801748951
20
-8.90228117252008
30
0
41
1
10
114.247681923847
20
-8.94563424816053
30
0
41
1
10
114.336002186189
20
-8.9841098049159
30
0
41
1
10
114.365442273637
20
-8.99251743758123
30
0
41
1
10
114.409602404808
20
-8.99886473611613
30
0
41
1
10
114.424322448532
20
-8.99993682931174
30
0
41
1
10
114.453762535979
20
-9.00005774848233
30
0
41
1
10
114.468482579703
20
-8.99910840968377
30
0
41
1
10
114.542082798322
20
-8.98915305983624
30
0
41
1
10
114.600962973217
20
-8.96449015809731
30
0
41
1
10
114.718723323007
20
-8.87808721234384
30
0
41
1
10
114.777603497903
20
-8.81633396305699
30
0
41
1
10
114.895363847693
20
-8.65303763228181
30
0
41
1
10
114.954244022588
20
-8.55148275426711
30
0
41
1
10
115.072004372378
20
-8.30724604255784
30
0
41
1
10
115.130884547273
20
-8.16455601579534
30
0
41
1
10
115.248644897064
20
-7.8383959175072
30
0
41
1
10
115.307525071959
20
-7.65492323425283
30
0
41
1
10
115.425285421749
20
-7.24939803889995
30
0
41
1
10
115.484165596644
20
-7.02734966785152
30
0
41
1
10
115.601925946435
20
-6.54870717785457
30
0
41
1
10
115.66080612133
20
-6.2921238625251
30
0
41
1
10
115.77856647112
20
-5.75005354509685
30
0
41
1
10
115.837446646015
20
-5.46458254913233
30
0
41
1
10
115.955206995805
20
-4.87157783113287
30
0
41
1
10
116.014087170701
20
-4.56406281296807
30
0
41
1
10
116.131847520491
20
-3.9344787723748
30
0
41
1
10
116.190727695386
20
-3.61242825514097
30
0
41
1
10
116.308488045176
20
-2.96138026491025
30
0
41
1
10
116.367368220071
20
-2.63239854012213
30
0
41
1
10
116.485128569861
20
-1.97467036739033
30
0
41
1
10
116.544008744757
20
-1.64593523129699
30
0
41
1
10
116.661769094547
20
-0.995046189045581
30
0
41
1
10
116.720649269442
20
-0.672898559141004
30
0
41
1
10
116.794249488061
20
-0.277605109652114
30
0
41
1
10
116.808969531785
20
-0.198913087869101
30
0
41
1
10
116.838409619232
20
-0.0423324220046766
30
0
41
1
10
116.853129662956
20
0.0353350871770033
30
0
41
1
10
116.897289794128
20
0.270133969983817
30
0
41
1
10
116.926729881575
20
0.428279732551573
30
0
41
1
10
117.015050143918
20
0.90668922113349
30
0
41
1
10
117.073930318813
20
1.2309606729238
30
0
41
1
10
117.191690668603
20
1.8846544023678
30
0
41
1
10
117.250570843498
20
2.21406918327875
30
0
41
1
10
117.368331193289
20
2.87148058025093
30
0
41
1
10
117.427211368184
20
3.19946471238023
30
0
41
1
10
117.544971717974
20
3.84669493202247
30
0
41
1
10
117.603851892869
20
4.16592440887177
30
0
41
1
10
117.721612242659
20
4.7880154125329
30
0
41
1
10
117.780492417554
20
5.09085812688303
30
0
41
1
10
117.898252767345
20
5.67277550110154
30
0
41
1
10
117.95713294224
20
5.95183184759242
30
0
41
1
10
118.07489329203
20
6.47957410526789
30
0
41
1
10
118.133773466925
20
6.72824507256064
30
0
41
1
10
118.251533816716
20
7.18992176305017
30
0
41
1
10
118.310413991611
20
7.40291821423665
30
0
41
1
10
118.428174341401
20
7.78962995852473
30
0
41
1
10
118.487054516296
20
7.96334279299856
30
0
41
1
10
118.604814866086
20
8.26972939444417
30
0
41
1
10
118.663695040981
20
8.40240727449205
30
0
41
1
10
118.781455390772
20
8.62679701772953
30
0
41
1
10
118.840335565667
20
8.71851814772637
30
0
41
1
10
118.958095915457
20
8.86269127473122
30
0
41
1
10
119.016976090352
20
8.91515560763258
30
0
41
1
10
119.134736440143
20
8.9838033499
30
0
41
1
10
119.193616615038
20
9
30
0
41
1
10
119.252496789933
20
9
30
0
0
SPLINE
5
F9
100
AcDbEntity
8
1
62
256
6
ByLayer
370
13
48
1
60
0
100
AcDbSpline
70
4
71
3
72
42
73
38
40
0
40
0
40
0
40
0
40
0.0625
40
0.0625
40
0.125
40
0.125
40
0.1875
40
0.1875
40
0.25
40
0.25
40
0.3125
40
0.3125
40
0.375
40
0.375
40
0.4375
40
0.4375
40
0.5
40
0.5
40
0.5625
40
0.5625
40
0.625
40
0.625
40
0.6875
40
0.6875
40
0.75
40
0.75
40
0.765625
40
0.765625
40
0.78125
40
0.78125
40
0.8125
40
0.8125
40
0.875
40
0.875
40
0.9375
40
0.9375
40
1
40
1
40
1
40
1
41
1
10
120.054129303401
20
9
30
0
41
1
10
120.120173857322
20
9
30
0
41
1
10
120.186218411243
20
8.97961182654592
30
0
41
1
10
120.318307519085
20
8.89267477060341
30
0
41
1
10
120.384352073006
20
8.82610242615507
30
0
41
1
10
120.516441180847
20
8.6428628032935
30
0
41
1
10
120.582485734768
20
8.52617463177558
30
0
41
1
10
120.71457484261
20
8.24094570482029
30
0
41
1
10
120.780619396531
20
8.07239148912399
30
0
41
1
10
120.912708504373
20
7.68438378072472
30
0
41
1
10
120.978753058294
20
7.46492848254064
30
0
41
1
10
121.110842166135
20
6.97902681428343
30
0
41
1
10
121.176886720057
20
6.71259226261597
30
0
41
1
10
121.308975827898
20
6.13944973779473
30
0
41
1
10
121.375020381819
20
5.83276586632212
30
0
41
1
10
121.507109489661
20
5.18810437425435
30
0
41
1
10
121.573154043582
20
4.85015863223202
30
0
41
1
10
121.705243151424
20
4.1533553007315
30
0
41
1
10
121.771287705344
20
3.79453109638737
30
0
41
1
10
121.903376813186
20
3.06675089138383
30
0
41
1
10
121.969421367107
20
2.69782376618667
30
0
41
1
10
122.101510474949
20
1.9600597925895
30
0
41
1
10
122.16755502887
20
1.59124324020917
30
0
41
1
10
122.299644136712
20
0.862613459394396
30
0
41
1
10
122.365688690633
20
0.502810537684695
30
0
41
1
10
122.448244383034
20
0.0631476918770204
30
0
41
1
10
122.464755521514
20
-0.023960763545432
30
0
41
1
10
122.497777798474
20
-0.199525512778791
30
0
41
1
10
122.514288936955
20
-0.287814947952029
30
0
41
1
10
122.563822352395
20
-0.554055934099381
30
0
41
1
10
122.596844629356
20
-0.733383856690978
30
0
41
1
10
122.695911460237
20
-1.2755468074244
30
0
41
1
10
122.761956014158
20
-1.64261339670014
30
0
41
1
10
122.894045122
20
-2.37959266558335
30
0
41
1
10
122.960089675921
20
-2.74948789117462
30
0
41
1
10
123.092178783762
20
-3.48223191710463
30
0
41
1
10
123.158223337683
20
-3.84505400351543
30
0
41
1
10
123.224267891604
20
-4.19900329108324
30
0
0
SPLINE
5
FA
100
AcDbEntity
8
1
62
256
6
ByLayer
370
13
48
1
60
0
100
AcDbSpline
70
4
71
3
72
76
73
72
40
0
40
0
40
0
40
0
40
0.0312500000000007
40
0.0312500000000007
40
0.0625000000000014
40
0.0625000000000014
40
0.0703125000000015
40
0.0703125000000015
40
0.0781250000000015
40
0.0937500000000016
40
0.0937500000000016
40
0.125000000000002
40
0.125000000000002
40
0.156250000000002
40
0.156250000000002
40
0.187500000000002
40
0.187500000000002
40
0.218750000000002
40
0.218750000000002
40
0.250000000000002
40
0.250000000000002
40
0.281250000000003
40
0.281250000000003
40
0.312500000000003
40
0.312500000000003
40
0.343750000000003
40
0.343750000000003
40
0.375000000000003
40
0.375000000000003
40
0.406250000000004
40
0.406250000000004
40
0.437500000000004
40
0.437500000000004
40
0.468750000000004
40
0.468750000000004
40
0.500000000000004
40
0.500000000000004
40
0.531250000000005
40
0.531250000000005
40
0.539062500000005
40
0.539062500000005
40
0.546875000000005
40
0.562500000000004
40
0.562500000000004
40
0.593750000000004
40
0.593750000000004
40
0.625000000000004
40
0.625000000000004
40
0.656250000000003
40
0.656250000000003
40
0.687500000000003
40
0.687500000000003
40
0.718750000000003
40
0.718750000000003
40
0.750000000000003
40
0.750000000000003
40
0.781250000000002
40
0.781250000000002
40
0.812500000000002
40
0.812500000000002
40
0.843750000000002
40
0.843750000000002
40
0.875000000000001
40
0.875000000000001
40
0.906250000000001
40
0.906250000000001
40
0.937500000000001
40
0.937500000000001
40
0.96875
40
0.96875
40
1
40
1
40
1
40
1
41
1
10
113.6
20
-8.8019346382537
30
0
41
1
10
113.653708597313
20
-8.86579447261801
30
0
41
1
10
113.707417194627
20
-8.91338774932169
30
0
41
1
10
113.814834389253
20
-8.97829934833354
30
0
41
1
10
113.868542986566
20
-8.99562604238983
30
0
41
1
10
113.935678733208
20
-9.00017870760686
30
0
41
1
10
113.949105882536
20
-9.00024084112258
30
0
41
1
10
113.975960181193
20
-8.99867377012689
30
0
41
1
10
114.016241629178
20
-8.99376681296621
30
0
41
1
10
114.056523077163
20
-8.98097110722057
30
0
41
1
10
114.137085973133
20
-8.94431669785686
30
0
41
1
10
114.190794570446
20
-8.9051074404239
30
0
41
1
10
114.298211765072
20
-8.79469065815707
30
0
41
1
10
114.351920362385
20
-8.72347502554229
30
0
41
1
10
114.459337557012
20
-8.54738928588978
30
0
41
1
10
114.513046154325
20
-8.44251240085811
30
0
41
1
10
114.620463348952
20
-8.19848845664026
30
0
41
1
10
114.674171946265
20
-8.05933710226103
30
0
41
1
10
114.781589140891
20
-7.74735956148714
30
0
41
1
10
114.835297738205
20
-7.57453251948971
30
0
41
1
10
114.942714932831
20
-7.19709065741245
30
0
41
1
10
114.996423530144
20
-6.99247892639684
30
0
41
1
10
115.103840724771
20
-6.55461436773732
30
0
41
1
10
115.157549322084
20
-6.32136844825482
30
0
41
1
10
115.264966516711
20
-5.83049071244636
30
0
41
1
10
115.318675114024
20
-5.57286883873149
30
0
41
1
10
115.426092308651
20
-5.03834649230586
30
0
41
1
10
115.479800905964
20
-4.76145770050584
30
0
41
1
10
115.58721810059
20
-4.19403113092122
30
0
41
1
10
115.640926697903
20
-3.90350524764426
30
0
41
1
10
115.74834389253
20
-3.31459678267106
30
0
41
1
10
115.802052489843
20
-3.01622488245056
30
0
41
1
10
115.90946968447
20
-2.41723537782806
30
0
41
1
10
115.963178281783
20
-2.11662618160867
30
0
41
1
10
116.07059547641
20
-1.51830174063079
30
0
41
1
10
116.124304073723
20
-1.22059207747321
30
0
41
1
10
116.231721268349
20
-0.63252351052455
30
0
41
1
10
116.285429865663
20
-0.34216731374255
30
0
41
1
10
116.352565612304
20
0.0139025346437052
30
0
41
1
10
116.365992761632
20
0.0848739044304807
30
0
41
1
10
116.392847060289
20
0.227923267912871
30
0
41
1
10
116.433128508274
20
0.443486173788216
30
0
41
1
10
116.473409956259
20
0.661780355485604
30
0
41
1
10
116.553972852229
20
1.1013093899615
30
0
41
1
10
116.607681449542
20
1.39827353298324
30
0
41
1
10
116.715098644169
20
1.99574803686806
30
0
41
1
10
116.768807241482
20
2.29625320957339
30
0
41
1
10
116.876224436108
20
2.8957571505004
30
0
41
1
10
116.929933033422
20
3.19474786970014
30
0
41
1
10
117.037350228048
20
3.78566465007114
30
0
41
1
10
117.091058825361
20
4.0775802837901
30
0
41
1
10
117.198476019988
20
4.64856256394862
30
0
41
1
10
117.252184617301
20
4.92761740162436
30
0
41
1
10
117.359601811928
20
5.46720559490069
30
0
41
1
10
117.413310409241
20
5.72772715113067
30
0
41
1
10
117.520727603867
20
6.22504795186214
30
0
41
1
10
117.574436201181
20
6.4618369366043
30
0
41
1
10
117.681853395807
20
6.90730026956965
30
0
41
1
10
117.73556199312
20
7.11596724298417
30
0
41
1
10
117.842979187747
20
7.50187216406835
30
0
41
1
10
117.89668778506
20
7.67910648748227
30
0
41
1
10
118.004104979687
20
8.00007744621763
30
0
41
1
10
118.057813577
20
8.14381442415791
30
0
41
1
10
118.165230771626
20
8.3970171756952
30
0
41
1
10
118.21893936894
20
8.50648683069772
30
0
41
1
10
118.326356563566
20
8.69161097847905
30
0
41
1
10
118.380065160879
20
8.76727198124902
30
0
41
1
10
118.487482355506
20
8.88630465819881
30
0
41
1
10
118.541190952819
20
8.92968432896456
30
0
41
1
10
118.648608147446
20
8.98652781899918
30
0
41
1
10
118.702316744759
20
9
30
0
41
1
10
118.756025342072
20
9
30
0
0
SPLINE
5
FB
100
AcDbEntity
8
1
62
256
6
ByLayer
370
13
48
1
60
0
100
AcDbSpline
70
4
71
3
72
40
73
36
40
0
40
0
40
0
40
0
40
0.0625
40
0.0625
40
0.125
40
0.125
40
0.1875
40
0.1875
40
0.25
40
0.25
40
0.3125
40
0.3125
40
0.375
40
0.375
40
0.4375
40
0.4375
40
0.5
40
0.5
40
0.5625
40
0.5625
40
0.625
40
0.625
40
0.65625
40
0.65625
40
0.6875
40
0.6875
40
0.75
40
0.75
40
0.8125
40
0.8125
40
0.875
40
0.875
40
0.9375
40
0.9375
40
1
40
1
40
1
40
1
41
1
10
119.55765785554
20
9
30
0
41
1
10
119.634045564625
20
9
30
0
41
1
10
119.71043327371
20
8.97270233155544
30
0
41
1
10
119.863208691879
20
8.85533196708965
30
0
41
1
10
119.939596400964
20
8.76521105999097
30
0
41
1
10
120.092371819133
20
8.51679222329949
30
0
41
1
10
120.168759528218
20
8.35845494546263
30
0
41
1
10
120.321534946387
20
7.97243237431601
30
0
41
1
10
120.397922655472
20
7.74472979351745
30
0
41
1
10
120.550698073641
20
7.2239362503428
30
0
41
1
10
120.627085782726
20
6.93085914979142
30
0
41
1
10
120.779861200895
20
6.28848636454686
30
0
41
1
10
120.85624890998
20
5.93923551250572
30
0
41
1
10
121.009024328149
20
5.19800339912416
30
0
41
1
10
121.085412037234
20
4.80608728738829
30
0
41
1
10
121.238187455403
20
3.99563118509562
30
0
41
1
10
121.314575164488
20
3.57715969544733
30
0
41
1
10
121.467350582657
20
2.73024448407753
30
0
41
1
10
121.543738291742
20
2.30185650959501
30
0
41
1
10
121.696513709911
20
1.45038311228563
30
0
41
1
10
121.772901418996
20
1.02733126529256
30
0
41
1
10
121.887482982623
20
0.406127415852268
30
0
41
1
10
121.925676837165
20
0.20127831075331
30
0
41
1
10
122.00206454625
20
-0.202821550622133
30
0
41
1
10
122.040258400792
20
-0.407697878210229
30
0
41
1
10
122.154839964419
20
-1.02893525405565
30
0
41
1
10
122.231227673504
20
-1.45200252594415
30
0
41
1
10
122.384003091673
20
-2.30348891851938
30
0
41
1
10
122.460390800758
20
-2.73187443279937
30
0
41
1
10
122.613166218927
20
-3.5787640878722
30
0
41
1
10
122.689553928012
20
-3.99721245741276
30
0
41
1
10
122.842329346181
20
-4.80760103785425
30
0
41
1
10
122.918717055266
20
-5.19947274092934
30
0
41
1
10
123.071492473435
20
-5.94059674787655
30
0
41
1
10
123.14788018252
20
-6.28978391783869
30
0
41
1
10
123.224267891604
20
-6.61089924016358
30
0
0
SPLINE
5
FC
100
AcDbEntity
8
1
62
256
6
ByLayer
370
13
48
1
60
0
100
AcDbSpline
70
4
71
3
72
60
73
56
40
0
40
0
40
0
40
0
40
0.0625000000000015
40
0.0625000000000015
40
0.0937500000000022
40
0.0937500000000022
40
0.125000000000003
40
0.125000000000003
40
0.156250000000003
40
0.156250000000003
40
0.187500000000004
40
0.187500000000004
40
0.218750000000005
40
0.218750000000005
40
0.250000000000005
40
0.250000000000005
40
0.281250000000006
40
0.281250000000006
40
0.312500000000007
40
0.312500000000007
40
0.343750000000007
40
0.343750000000007
40
0.375000000000008
40
0.375000000000008
40
0.437500000000009
40
0.437500000000009
40
0.468750000000009
40
0.468750000000009
40
0.484375000000009
40
0.484375000000009
40
0.500000000000009
40
0.500000000000009
40
0.562500000000008
40
0.562500000000008
40
0.625000000000007
40
0.625000000000007
40
0.656250000000006
40
0.656250000000006
40
0.687500000000006
40
0.687500000000006
40
0.718750000000005
40
0.718750000000005
40
0.750000000000005
40
0.750000000000005
40
0.781250000000004
40
0.781250000000004
40
0.812500000000003
40
0.812500000000003
40
0.843750000000003
40
0.843750000000003
40
0.875000000000002
40
0.875000000000002
40
0.937500000000001
40
0.937500000000001
40
1
40
1
40
1
40
1
41
1
10
113.6
20
-8.96250256246597
30
0
41
1
10
113.697074039463
20
-8.91398783519367
30
0
41
1
10
113.794148078925
20
-8.81659882140968
30
0
41
1
10
113.939759138119
20
-8.58801543244923
30
0
41
1
10
113.988296157851
20
-8.49813544353103
30
0
41
1
10
114.085370197314
20
-8.29042751784539
30
0
41
1
10
114.133907217045
20
-8.17259662216136
30
0
41
1
10
114.230981256508
20
-7.90919015897228
30
0
41
1
10
114.279518276239
20
-7.76361339462954
30
0
41
1
10
114.376592315702
20
-7.44577126320803
30
0
41
1
10
114.425129335433
20
-7.27350679207842
30
0
41
1
10
114.522203374896
20
-6.90420369479091
30
0
41
1
10
114.570740394627
20
-6.7071681274229
30
0
41
1
10
114.66781443409
20
-6.29103633228632
30
0
41
1
10
114.716351453822
20
-6.07194509647459
30
0
41
1
10
114.813425493284
20
-5.61509255640158
30
0
41
1
10
114.861962513016
20
-5.37733767254039
30
0
41
1
10
114.959036552478
20
-4.887052134859
30
0
41
1
10
115.00757357221
20
-4.634528636103
30
0
41
1
10
115.104647611673
20
-4.11889740590664
30
0
41
1
10
115.153184631404
20
-3.85579680676381
30
0
41
1
10
115.250258670867
20
-3.32328288644897
30
0
41
1
10
115.298795690598
20
-3.05387598487494
30
0
41
1
10
115.444406749792
20
-2.24240464329537
30
0
41
1
10
115.541480789255
20
-1.69732290675927
30
0
41
1
10
115.687091848449
20
-0.895285071874468
30
0
41
1
10
115.73562886818
20
-0.630483689410852
30
0
41
1
10
115.808434397777
20
-0.239260196425704
30
0
41
1
10
115.832702907643
20
-0.110046715938239
30
0
41
1
10
115.881239927374
20
0.146927792090736
30
0
41
1
10
115.90550843724
20
0.276547286935255
30
0
41
1
10
116.026850986569
20
0.929527261352831
30
0
41
1
10
116.123925026031
20
1.46786306145537
30
0
41
1
10
116.318073104957
20
2.55108299620628
30
0
41
1
10
116.41514714442
20
3.09584773207905
30
0
41
1
10
116.560758203614
20
3.89369715064012
30
0
41
1
10
116.609295223345
20
4.1563890383056
30
0
41
1
10
116.706369262808
20
4.67099873238138
30
0
41
1
10
116.754906282539
20
4.92290938867839
30
0
41
1
10
116.851980322002
20
5.41177432888304
30
0
41
1
10
116.900517341733
20
5.6487214756078
30
0
41
1
10
116.997591381196
20
6.1037831404862
30
0
41
1
10
117.046128400927
20
6.32189129185375
30
0
41
1
10
117.14320244039
20
6.73591026125371
30
0
41
1
10
117.191739460121
20
6.93181617029245
30
0
41
1
10
117.288813499584
20
7.29874919106493
30
0
41
1
10
117.337350519316
20
7.46977334468613
30
0
41
1
10
117.434424558778
20
7.78506432713667
30
0
41
1
10
117.48296157851
20
7.9293303640942
30
0
41
1
10
117.580035617972
20
8.19008632514405
30
0
41
1
10
117.628572637704
20
8.30657753972031
30
0
41
1
10
117.774183696898
20
8.61413631794343
30
0
41
1
10
117.871257736361
20
8.76296122152525
30
0
41
1
10
118.065405815286
20
8.95581561042829
30
0
41
1
10
118.162479854749
20
9
30
0
41
1
10
118.259553894212
20
9
30
0
0
SPLINE
5
FD
100
AcDbEntity
8
1
62
256
6
ByLayer
370
13
48
1
60
0
100
AcDbSpline
70
4
71
3
72
42
73
38
40
0
40
0
40
0
40
0
40
0.0624999999999991
40
0.0624999999999991
40
0.124999999999998
40
0.124999999999998
40
0.187499999999997
40
0.187499999999997
40
0.249999999999997
40
0.249999999999997
40
0.312499999999996
40
0.312499999999996
40
0.374999999999995
40
0.374999999999995
40
0.437499999999994
40
0.437499999999994
40
0.499999999999993
40
0.499999999999993
40
0.562499999999992
40
0.562499999999992
40
0.578124999999992
40
0.578124999999992
40
0.593749999999992
40
0.593749999999992
40
0.624999999999993
40
0.624999999999993
40
0.687499999999994
40
0.687499999999994
40
0.749999999999995
40
0.749999999999995
40
0.812499999999997
40
0.812499999999997
40
0.874999999999998
40
0.874999999999998
40
0.937499999999999
40
0.937499999999999
40
1
40
1
40
1
40
1
41
1
10
119.06118640768
20
9
30
0
41
1
10
119.147917271928
20
9
30
0
41
1
10
119.234648136177
20
8.96477290177799
30
0
41
1
10
119.408109864674
20
8.81212507052342
30
0
41
1
10
119.494840728922
20
8.69461450997397
30
0
41
1
10
119.668302457419
20
8.37057573285853
30
0
41
1
10
119.755033321667
20
8.16398254197964
30
0
41
1
10
119.928495050164
20
7.66248461316238
30
0
41
1
10
120.015225914413
20
7.36757004422319
30
0
41
1
10
120.18868764291
20
6.69889706365635
30
0
41
1
10
120.275418507158
20
6.32519767209334
30
0
41
1
10
120.448880235655
20
5.51647470742543
30
0
41
1
10
120.535611099903
20
5.08156444047466
30
0
41
1
10
120.7090728284
20
4.17332176453283
30
0
41
1
10
120.795803692648
20
3.70011952507034
30
0
41
1
10
120.969265421145
20
2.7397670081377
30
0
41
1
10
121.055996285394
20
2.25272349369928
30
0
41
1
10
121.229458013891
20
1.28703325293057
30
0
41
1
10
121.316188878139
20
0.808446099229855
30
0
41
1
10
121.424602458449
20
0.226491043307988
30
0
41
1
10
121.446285174512
20
0.110939920802622
30
0
41
1
10
121.489650606636
20
-0.118499991463494
30
0
41
1
10
121.511333322698
20
-0.234127978867576
30
0
41
1
10
121.576381470884
20
-0.583406255907221
30
0
41
1
10
121.619746903008
20
-0.81946178132452
30
0
41
1
10
121.749843199381
20
-1.5342001954111
30
0
41
1
10
121.836574063629
20
-2.01959841226406
30
0
41
1
10
122.010035792126
20
-2.98812693752529
30
0
41
1
10
122.096766656375
20
-3.47117228976424
30
0
41
1
10
122.270228384872
20
-4.41124045829793
30
0
41
1
10
122.35695924912
20
-4.8681403437557
30
0
41
1
10
122.530420977617
20
-5.7317471778758
30
0
41
1
10
122.617151841865
20
-6.13832707831065
30
0
41
1
10
122.790613570362
20
-6.88060543781853
30
0
41
1
10
122.87734443461
20
-7.21621443526792
30
0
41
1
10
123.050806163107
20
-7.8027500973883
30
0
41
1
10
123.137537027356
20
-8.05365260392253
30
0
41
1
10
123.224267891604
20
-8.25965139596656
30
0
0
SPLINE
5
FE
100
AcDbEntity
8
1
62
256
6
ByLayer
370
13
48
1
60
0
100
AcDbSpline
70
4
71
3
72
42
73
38
40
0
40
0
40
0
40
0
40
0.0625000000000008
40
0.0625000000000008
40
0.125000000000002
40
0.125000000000002
40
0.187500000000002
40
0.187500000000002
40
0.250000000000003
40
0.250000000000003
40
0.312500000000004
40
0.312500000000004
40
0.375000000000005
40
0.375000000000005
40
0.406250000000005
40
0.406250000000005
40
0.421875000000005
40
0.421875000000005
40
0.437500000000005
40
0.437500000000005
40
0.500000000000004
40
0.500000000000004
40
0.562500000000004
40
0.562500000000004
40
0.625000000000003
40
0.625000000000003
40
0.687500000000002
40
0.687500000000002
40
0.750000000000002
40
0.750000000000002
40
0.812500000000001
40
0.812500000000001
40
0.875000000000001
40
0.875000000000001
40
0.9375
40
0.9375
40
1
40
1
40
1
40
1
41
1
10
113.6
20
-8.25965368187249
30
0
41
1
10
113.686730884299
20
-8.05365517171239
30
0
41
1
10
113.773461768598
20
-7.80275292480763
30
0
41
1
10
113.946923537196
20
-7.21621770967025
30
0
41
1
10
114.033654421495
20
-6.88060889935912
30
0
41
1
10
114.207116190093
20
-6.13833082400609
30
0
41
1
10
114.293847074392
20
-5.73175102051104
30
0
41
1
10
114.46730884299
20
-4.86814428746098
30
0
41
1
10
114.554039727289
20
-4.41124440622758
30
0
41
1
10
114.727501495887
20
-3.47117616557807
30
0
41
1
10
114.814232380186
20
-2.98813073720677
30
0
41
1
10
114.987694148784
20
-2.01960200147158
30
0
41
1
10
115.074425033083
20
-1.53420365049735
30
0
41
1
10
115.204521359531
20
-0.819465010807278
30
0
41
1
10
115.247886801681
20
-0.583409406122286
30
0
41
1
10
115.312934964905
20
-0.234131006317796
30
0
41
1
10
115.33461768598
20
-0.118502977346481
30
0
41
1
10
115.377983128129
20
0.110937018997902
30
0
41
1
10
115.399665849204
20
0.226488123709345
30
0
41
1
10
115.508079454578
20
0.808443247612701
30
0
41
1
10
115.594810338876
20
1.28703047724949
30
0
41
1
10
115.768272107474
20
2.25272091139078
30
0
41
1
10
115.855002991774
20
2.73976454329178
30
0
41
1
10
116.028464760371
20
3.7001173275888
30
0
41
1
10
116.11519564467
20
4.1733197168935
30
0
41
1
10
116.288657413268
20
5.08156270867602
30
0
41
1
10
116.375388297567
20
5.51647314148227
30
0
41
1
10
116.548850066165
20
6.3251964336113
30
0
41
1
10
116.635580950464
20
6.69889598660598
30
0
41
1
10
116.809042719062
20
7.36756926625674
30
0
41
1
10
116.895773603361
20
7.66248397271886
30
0
41
1
10
117.069235371959
20
8.16398213899032
30
0
41
1
10
117.155966256258
20
8.37057542976561
30
0
41
1
10
117.329428024856
20
8.69461436359651
30
0
41
1
10
117.416158909155
20
8.81212498102033
30
0
41
1
10
117.589620677753
20
8.96477288541308
30
0
41
1
10
117.676351562052
20
9
30
0
41
1
10
117.763082446351
20
9
30
0
0
SPLINE
5
FF
100
AcDbEntity
8
1
62
256
6
ByLayer
370
13
48
1
60
0
100
AcDbSpline
70
4
71
3
72
60
73
56
40
0
40
0
40
0
40
0
40
0.0624999999999989
40
0.0624999999999989
40
0.124999999999998
40
0.124999999999998
40
0.156249999999997
40
0.156249999999997
40
0.187499999999997
40
0.187499999999997
40
0.218749999999996
40
0.218749999999996
40
0.249999999999996
40
0.249999999999996
40
0.281249999999995
40
0.281249999999995
40
0.312499999999995
40
0.312499999999995
40
0.343749999999994
40
0.343749999999994
40
0.374999999999994
40
0.374999999999994
40
0.437499999999993
40
0.437499999999993
40
0.499999999999991
40
0.499999999999991
40
0.515624999999991
40
0.515624999999991
40
0.531249999999991
40
0.531249999999991
40
0.562499999999991
40
0.562499999999991
40
0.624999999999992
40
0.624999999999992
40
0.656249999999993
40
0.656249999999993
40
0.687499999999993
40
0.687499999999993
40
0.718749999999994
40
0.718749999999994
40
0.749999999999995
40
0.749999999999995
40
0.781249999999995
40
0.781249999999995
40
0.812499999999996
40
0.812499999999996
40
0.843749999999997
40
0.843749999999997
40
0.874999999999997
40
0.874999999999997
40
0.906249999999998
40
0.906249999999998
40
0.937499999999999
40
0.937499999999999
40
1
40
1
40
1
40
1
41
1
10
118.564714959819
20
9
30
0
41
1
10
118.661788979232
20
9
30
0
41
1
10
118.758862998644
20
8.9558156287944
30
0
41
1
10
118.953011037468
20
8.76296132266083
30
0
41
1
10
119.05008505688
20
8.61413648363597
30
0
41
1
10
119.195696085999
20
8.30657783802997
30
0
41
1
10
119.244233095705
20
8.19008667354487
30
0
41
1
10
119.341307115117
20
7.92933082357706
30
0
41
1
10
119.389844124823
20
7.78506484760968
30
0
41
1
10
119.486918144235
20
7.46977399642836
30
0
41
1
10
119.535455153941
20
7.2987499130827
30
0
41
1
10
119.632529173353
20
6.93181703985815
30
0
41
1
10
119.681066183059
20
6.73591120808567
30
0
41
1
10
119.778140202472
20
6.32189239738776
30
0
41
1
10
119.826677212178
20
6.10378432744801
30
0
41
1
10
119.92375123159
20
5.64872282644572
30
0
41
1
10
119.972288241296
20
5.41177576216063
30
0
41
1
10
120.069362260708
20
4.9229109846394
30
0
41
1
10
120.117899270414
20
4.67100040857798
30
0
41
1
10
120.214973289827
20
4.15639086975088
30
0
41
1
10
120.263510299533
20
3.89369905709191
30
0
41
1
10
120.409121328651
20
3.09584985179893
30
0
41
1
10
120.506195348063
20
2.5510852420895
30
0
41
1
10
120.700343386887
20
1.46786551407294
30
0
41
1
10
120.7974174063
20
0.929529794562256
30
0
41
1
10
120.918759930565
20
0.276549890571715
30
0
41
1
10
120.943028435418
20
0.146930408320969
30
0
41
1
10
120.991565445124
20
-0.110044077460003
30
0
41
1
10
121.015833949977
20
-0.239257489842629
30
0
41
1
10
121.088639464536
20
-0.630480860276663
30
0
41
1
10
121.137176474242
20
-0.895282163963657
30
0
41
1
10
121.28278750336
20
-1.69731977692965
30
0
41
1
10
121.379861522773
20
-2.24240138479391
30
0
41
1
10
121.525472551891
20
-3.05387258586472
30
0
41
1
10
121.574009561597
20
-3.32327944935159
30
0
41
1
10
121.671083581009
20
-3.85579331447286
30
0
41
1
10
121.719620590715
20
-4.11889389652029
30
0
41
1
10
121.816694610127
20
-4.63452511627884
30
0
41
1
10
121.865231619834
20
-4.88704862170161
30
0
41
1
10
121.962305639246
20
-5.3773341982014
30
0
41
1
10
122.010842648952
20
-5.61508911421984
30
0
41
1
10
122.107916668364
20
-6.07194174455546
30
0
41
1
10
122.15645367807
20
-6.29103303847361
30
0
41
1
10
122.253527697482
20
-6.70716497485944
30
0
41
1
10
122.302064707189
20
-6.90420062536651
30
0
41
1
10
122.399138726601
20
-7.27350391172058
30
0
41
1
10
122.447675736307
20
-7.44576848876952
30
0
41
1
10
122.544749755719
20
-7.7636108514144
30
0
41
1
10
122.593286765425
20
-7.90918774104995
30
0
41
1
10
122.690360784837
20
-8.17259446994541
30
0
41
1
10
122.738897794543
20
-8.29042550603043
30
0
41
1
10
122.835971813955
20
-8.49813372287852
30
0
41
1
10
122.884508823662
20
-8.58801386254598
30
0
41
1
10
123.03011985278
20
-8.81659771197849
30
0
41
1
10
123.127193872192
20
-8.9139870434287
30
0
41
1
10
123.224267891604
20
-8.962502081472
30
0
0
SPLINE
5
100
100
AcDbEntity
8
1
62
256
6
ByLayer
370
13
48
1
60
0
100
AcDbSpline
70
4
71
3
72
8
73
4
40
0
40
0
40
0
40
0
40
1
40
1
40
1
40
1
41
1
10
123.224267891604
20
8.2947121867096
30
0
41
1
10
124.316178594403
20
5.52599459609672
30
0
41
1
10
125.408089297202
20
2.76107570640124
30
0
41
1
10
126.5
20
-6.821E-13
30
0
0
SPLINE
5
101
100
AcDbEntity
8
1
62
256
6
ByLayer
370
13
48
1
60
0
100
AcDbSpline
70
4
71
3
72
8
73
4
40
0
40
0
40
0
40
0
40
1
40
1
40
1
40
1
41
1
10
123.224267891604
20
-6.65108050033234
30
0
41
1
10
124.316178594403
20
-4.42743312782852
30
0
41
1
10
125.408089297201
20
-2.21039441141974
30
0
41
1
10
126.5
20
8.53E-14
30
0
0
SPLINE
5
102
100
AcDbEntity
8
1
62
256
6
ByLayer
370
13
48
1
60
0
100
AcDbSpline
70
4
71
3
72
8
73
4
40
0
40
0
40
0
40
0
40
1
40
1
40
1
40
1
41
1
10
123.224267891604
20
2.0933003975974
30
0
41
1
10
124.316178594403
20
1.38597591163096
30
0
41
1
10
125.408089297201
20
0.688205385862489
30
0
41
1
10
126.5
20
1.137E-13
30
0
0
SPLINE
5
103
100
AcDbEntity
8
1
62
256
6
ByLayer
370
13
48
1
60
0
100
AcDbSpline
70
4
71
3
72
8
73
4
40
0
40
0
40
0
40
0
40
1
40
1
40
1
40
1
41
1
10
123.224267891604
20
-2.66823177903362
30
0
41
1
10
124.316178594403
20
-1.78820657228491
30
0
41
1
10
125.408089297201
20
-0.898791190618198
30
0
41
1
10
126.5
20
-1.421E-13
30
0
0
SPLINE
5
104
100
AcDbEntity
8
1
62
256
6
ByLayer
370
13
48
1
60
0
100
AcDbSpline
70
4
71
3
72
8
73
4
40
0
40
0
40
0
40
0
40
1
40
1
40
1
40
1
41
1
10
123.224267891604
20
-0.251949942445606
30
0
41
1
10
124.316178594403
20
-0.158143283457292
30
0
41
1
10
125.408089297201
20
-0.0741595362891019
30
0
41
1
10
126.5
20
0
30
0
0
SPLINE
5
105
100
AcDbEntity
8
1
62
256
6
ByLayer
370
13
48
1
60
0
100
AcDbSpline
70
4
71
3
72
8
73
4
40
0
40
0
40
0
40
0
40
1
40
1
40
1
40
1
41
1
10
123.224267891604
20
8.68679614114046
30
0
41
1
10
124.316178594403
20
5.78862747395857
30
0
41
1
10
125.408089297201
20
2.89301322935884
30
0
41
1
10
126.5
20
4.832E-13
30
0
0
SPLINE
5
106
100
AcDbEntity
8
1
62
256
6
ByLayer
370
13
48
1
60
0
100
AcDbSpline
70
4
71
3
72
8
73
4
40
0
40
0
40
0
40
0
40
1
40
1
40
1
40
1
41
1
10
123.224267891604
20
5.38679666699801
30
0
41
1
10
124.316178594403
20
3.59907032707827
30
0
41
1
10
125.408089297201
20
1.80346179024238
30
0
41
1
10
126.5
20
2.84E-14
30
0
0
SPLINE
5
107
100
AcDbEntity
8
1
62
256
6
ByLayer
370
13
48
1
60
0
100
AcDbSpline
70
4
71
3
72
8
73
4
40
0
40
0
40
0
40
0
40
1
40
1
40
1
40
1
41
1
10
123.224267891604
20
-7.40116264542658
30
0
41
1
10
124.316178594403
20
-4.92851695275641
30
0
41
1
10
125.408089297201
20
-2.46144951136085
30
0
41
1
10
126.5
20
1.137E-13
30
0
0
SPLINE
5
108
100
AcDbEntity
8
1
62
256
6
ByLayer
370
13
48
1
60
0
100
AcDbSpline
70
4
71
3
72
8
73
4
40
0
40
0
40
0
40
0
40
1
40
1
40
1
40
1
41
1
10
123.224267891604
20
4.33539359497675
30
0
41
1
10
124.316178594403
20
2.88165052508569
30
0
41
1
10
125.408089297201
20
1.43651158873564
30
0
41
1
10
126.5
20
2.274E-13
30
0
0
SPLINE
5
109
100
AcDbEntity
8
1
62
256
6
ByLayer
370
13
48
1
60
0
100
AcDbSpline
70
4
71
3
72
8
73
4
40
0
40
0
40
0
40
0
40
1
40
1
40
1
40
1
41
1
10
123.224267891604
20
4.37579493821283
30
0
41
1
10
124.316178594403
20
2.92578410009136
30
0
41
1
10
125.408089297201
20
1.46717794631601
30
0
41
1
10
126.5
20
-5.68E-14
30
0
0
SPLINE
5
10A
100
AcDbEntity
8
1
62
256
6
ByLayer
370
13
48
1
60
0
100
AcDbSpline
70
4
71
3
72
8
73
4
40
0
40
0
40
0
40
0
40
1
40
1
40
1
40
1
41
1
10
123.224267891604
20
-8.98134230469546
30
0
41
1
10
124.316178594403
20
-5.98819398788882
30
0
41
1
10
125.408089297201
20
-2.99439715627668
30
0
41
1
10
126.5
20
-5.116E-13
30
0
0
SPLINE
5
10B
100
AcDbEntity
8
1
62
256
6
ByLayer
370
13
48
1
60
0
100
AcDbSpline
70
4
71
3
72
8
73
4
40
0
40
0
40
0
40
0
40
1
40
1
40
1
40
1
41
1
10
123.224267891604
20
-8.97825289078185
30
0
41
1
10
124.316178594403
20
-5.9848191773066
30
0
41
1
10
125.408089297201
20
-2.99205215820933
30
0
41
1
10
126.5
20
1.137E-13
30
0
0
SPLINE
5
10C
100
AcDbEntity
8
1
62
256
6
ByLayer
370
13
48
1
60
0
100
AcDbSpline
70
4
71
3
72
8
73
4
40
0
40
0
40
0
40
0
40
1
40
1
40
1
40
1
41
1
10
123.224267891604
20
8.69875543133358
30
0
41
1
10
124.316178594403
20
5.80169155026061
30
0
41
1
10
125.408089297201
20
2.90209084510323
30
0
41
1
10
126.5
20
2.84E-14
30
0
0
SPLINE
5
10D
100
AcDbEntity
8
1
62
256
6
ByLayer
370
13
48
1
60
0
100
AcDbSpline
70
4
71
3
72
8
73
4
40
0
40
0
40
0
40
0
40
1
40
1
40
1
40
1
41
1
10
123.224267891604
20
-0.2980964882004
30
0
41
1
10
124.316178594403
20
-0.208552796488419
30
0
41
1
10
125.408089297201
20
-0.109186749739962
30
0
41
1
10
126.5
20
-2.84E-14
30
0
0
SPLINE
5
10E
100
AcDbEntity
8
1
62
256
6
ByLayer
370
13
48
1
60
0
100
AcDbSpline
70
4
71
3
72
8
73
4
40
0
40
0
40
0
40
0
40
1
40
1
40
1
40
1
41
1
10
123.224267891604
20
-2.62410433125143
30
0
41
1
10
124.316178594403
20
-1.74000267928213
30
0
41
1
10
125.408089297201
20
-0.86529655938989
30
0
41
1
10
126.5
20
2.84E-14
30
0
0
SPLINE
5
10F
100
AcDbEntity
8
1
62
256
6
ByLayer
370
13
48
1
60
0
100
AcDbSpline
70
4
71
3
72
8
73
4
40
0
40
0
40
0
40
0
40
1
40
1
40
1
40
1
41
1
10
123.224267891604
20
-1.45102201046512
30
0
41
1
10
124.316178594403
20
-0.957649372683761
30
0
41
1
10
125.408089297201
20
-0.473972791529945
30
0
41
1
10
126.5
20
2.84E-14
30
0
0
SPLINE
5
110
100
AcDbEntity
8
1
62
256
6
ByLayer
370
13
48
1
60
0
100
AcDbSpline
70
4
71
3
72
8
73
4
40
0
40
0
40
0
40
0
40
1
40
1
40
1
40
1
41
1
10
123.224267891604
20
7.77739407088626
30
0
41
1
10
124.316178594403
20
5.18987468038384
30
0
41
1
10
125.408089297201
20
2.59739607213811
30
0
41
1
10
126.5
20
2.84E-14
30
0
0
SPLINE
5
111
100
AcDbEntity
8
1
62
256
6
ByLayer
370
13
48
1
60
0
100
AcDbSpline
70
4
71
3
72
8
73
4
40
0
40
0
40
0
40
0
40
1
40
1
40
1
40
1
41
1
10
123.224267891604
20
-6.68209613834358
30
0
41
1
10
124.316178594403
20
-4.46131395645659
30
0
41
1
10
125.408089297201
20
-2.23393661496203
30
0
41
1
10
126.5
20
8.53E-14
30
0
0
SPLINE
5
112
100
AcDbEntity
8
1
62
256
6
ByLayer
370
13
48
1
60
0
100
AcDbSpline
70
4
71
3
72
8
73
4
40
0
40
0
40
0
40
0
40
1
40
1
40
1
40
1
41
1
10
123.224267891604
20
-8.8235638512505
30
0
41
1
10
124.316178594403
20
-5.88431222551299
30
0
41
1
10
125.408089297201
20
-2.94310849155505
30
0
41
1
10
126.5
20
1.137E-13
30
0
0
SPLINE
5
113
100
AcDbEntity
8
1
62
256
6
ByLayer
370
13
48
1
60
0
100
AcDbSpline
70
4
71
3
72
8
73
4
40
0
40
0
40
0
40
0
40
1
40
1
40
1
40
1
41
1
10
123.224267891604
20
8.92328794442111
30
0
41
1
10
124.316178594403
20
5.94757828236123
30
0
41
1
10
125.408089297201
20
2.97313301141924
30
0
41
1
10
126.5
20
4.832E-13
30
0
0
SPLINE
5
114
100
AcDbEntity
8
1
62
256
6
ByLayer
370
13
48
1
60
0
100
AcDbSpline
70
4
71
3
72
8
73
4
40
0
40
0
40
0
40
0
40
1
40
1
40
1
40
1
41
1
10
123.224267891604
20
-1.49656689214302
30
0
41
1
10
124.316178594403
20
-1.00740164057061
30
0
41
1
10
125.408089297201
20
-0.508543316062969
30
0
41
1
10
126.5
20
-8.53E-14
30
0
0
SPLINE
5
115
100
AcDbEntity
8
1
62
256
6
ByLayer
370
13
48
1
60
0
100
AcDbSpline
70
4
71
3
72
8
73
4
40
0
40
0
40
0
40
0
40
1
40
1
40
1
40
1
41
1
10
123.224267891604
20
5.34974072628418
30
0
41
1
10
124.316178594403
20
3.55859119921033
30
0
41
1
10
125.408089297201
20
1.77533473709599
30
0
41
1
10
126.499999999999
20
1.0232E-12
30
0
0
SPLINE
5
116
100
AcDbEntity
8
1
62
256
6
ByLayer
370
13
48
1
60
0
100
AcDbSpline
70
4
71
3
72
8
73
4
40
0
40
0
40
0
40
0
40
1
40
1
40
1
40
1
41
1
10
123.224267891604
20
-4.84805666500461
30
0
41
1
10
124.316178594403
20
-3.24031733647988
30
0
41
1
10
125.408089297201
20
-1.62428976306427
30
0
41
1
10
126.5
20
-2.842E-13
30
0
0
SPLINE
5
117
100
AcDbEntity
8
1
62
256
6
ByLayer
370
13
48
1
60
0
100
AcDbSpline
70
4
71
3
72
8
73
4
40
0
40
0
40
0
40
0
40
1
40
1
40
1
40
1
41
1
10
123.224267891604
20
8.92918558100567
30
0
41
1
10
124.316178594403
20
5.95402073614366
30
0
41
1
10
125.408089297201
20
2.97760957130251
30
0
41
1
10
126.5
20
0
30
0
0
SPLINE
5
118
100
AcDbEntity
8
1
62
256
6
ByLayer
370
13
48
1
60
0
100
AcDbSpline
70
4
71
3
72
8
73
4
40
0
40
0
40
0
40
0
40
1
40
1
40
1
40
1
41
1
10
123.224267891604
20
-3.75018542959532
30
0
41
1
10
124.316178594403
20
-2.49119020790232
30
0
41
1
10
125.408089297201
20
-1.2411217071751
30
0
41
1
10
126.5
20
5.68E-14
30
0
0
SPLINE
5
119
100
AcDbEntity
8
1
62
256
6
ByLayer
370
13
48
1
60
0
100
AcDbSpline
70
4
71
3
72
8
73
4
40
0
40
0
40
0
40
0
40
1
40
1
40
1
40
1
41
1
10
123.224267891604
20
3.2864168625712
30
0
41
1
10
124.316178594403
20
2.20009316203056
30
0
41
1
10
125.408089297201
20
1.10461498071137
30
0
41
1
10
126.5
20
-5.68E-14
30
0
0
SPLINE
5
11A
100
AcDbEntity
8
1
62
256
6
ByLayer
370
13
48
1
60
0
100
AcDbSpline
70
4
71
3
72
8
73
4
40
0
40
0
40
0
40
0
40
1
40
1
40
1
40
1
41
1
10
123.224267891604
20
8.31251892360959
30
0
41
1
10
124.316178594403
20
5.54544629981842
30
0
41
1
10
125.408089297201
20
2.77459178575387
30
0
41
1
10
126.5
20
2.84E-14
30
0
0
SPLINE
5
11B
100
AcDbEntity
8
1
62
256
6
ByLayer
370
13
48
1
60
0
100
AcDbSpline
70
4
71
3
72
8
73
4
40
0
40
0
40
0
40
0
40
1
40
1
40
1
40
1
41
1
10
123.224267891604
20
-8.49257217082427
30
0
41
1
10
124.316178594403
20
-5.65846165292896
30
0
41
1
10
125.408089297201
20
-2.82758908034009
30
0
41
1
10
126.5
20
1.137E-13
30
0
0
SPLINE
5
11C
100
AcDbEntity
8
1
62
256
6
ByLayer
370
13
48
1
60
0
100
AcDbSpline
70
4
71
3
72
8
73
4
40
0
40
0
40
0
40
0
40
1
40
1
40
1
40
1
41
1
10
123.224267891604
20
7.07451989595455
30
0
41
1
10
124.316178594403
20
4.7102718859623
30
0
41
1
10
125.408089297201
20
2.35208594609063
30
0
41
1
10
126.499999999999
20
1.3642E-12
30
0
0
SPLINE
5
11D
100
AcDbEntity
8
1
62
256
6
ByLayer
370
13
48
1
60
0
100
AcDbSpline
70
4
71
3
72
8
73
4
40
0
40
0
40
0
40
0
40
1
40
1
40
1
40
1
41
1
10
123.224267891604
20
0.90571322301912
30
0
41
1
10
124.316178594403
20
0.594031507446516
30
0
41
1
10
125.408089297201
20
0.292125497480015
30
0
41
1
10
126.5
20
5.68E-14
30
0
0
SPLINE
5
11E
100
AcDbEntity
8
1
62
256
6
ByLayer
370
13
48
1
60
0
100
AcDbSpline
70
4
71
3
72
8
73
4
40
0
40
0
40
0
40
0
40
1
40
1
40
1
40
1
41
1
10
123.224267891604
20
-5.81717308143092
30
0
41
1
10
124.316178594403
20
-3.88561392069025
30
0
41
1
10
125.408089297201
20
-1.94654581002626
30
0
41
1
10
126.5
20
8.53E-14
30
0
0
SPLINE
5
11F
100
AcDbEntity
8
1
62
256
6
ByLayer
370
13
48
1
60
0
100
AcDbSpline
70
4
71
3
72
8
73
4
40
0
40
0
40
0
40
0
40
1
40
1
40
1
40
1
41
1
10
123.224267891604
20
0.951634886422738
30
0
41
1
10
124.316178594403
20
0.644195363741431
30
0
41
1
10
125.408089297201
20
0.326982015551778
30
0
41
1
10
126.5
20
-5.68E-14
30
0
0
SPLINE
5
120
100
AcDbEntity
8
1
62
256
6
ByLayer
370
13
48
1
60
0
100
AcDbSpline
70
4
71
3
72
8
73
4
40
0
40
0
40
0
40
0
40
1
40
1
40
1
40
1
41
1
10
123.224267891604
20
7.1029656758476
30
0
41
1
10
124.316178594403
20
4.74134545579761
30
0
41
1
10
125.408089297201
20
2.37367751676496
30
0
41
1
10
126.5
20
2.84E-14
30
0
0
SPLINE
5
121
100
AcDbEntity
8
1
62
256
6
ByLayer
370
13
48
1
60
0
100
AcDbSpline
70
4
71
3
72
8
73
4
40
0
40
0
40
0
40
0
40
1
40
1
40
1
40
1
41
1
10
123.224267891604
20
-8.50774355382524
30
0
41
1
10
124.316178594403
20
-5.67503455164928
30
0
41
1
10
125.408089297201
20
-2.83910481271022
30
0
41
1
10
126.5
20
1.137E-13
30
0
0
SPLINE
5
122
100
AcDbEntity
8
1
62
256
6
ByLayer
370
13
48
1
60
0
100
AcDbSpline
70
4
71
3
72
8
73
4
40
0
40
0
40
0
40
0
40
1
40
1
40
1
40
1
41
1
10
123.224267891604
20
-8.03953817685323
30
0
41
1
10
124.316178594403
20
-5.3641094096746
30
0
41
1
10
125.408089297201
20
-2.68424896489844
30
0
41
1
10
126.5
20
1.137E-13
30
0
0
SPLINE
5
123
100
AcDbEntity
8
1
62
256
6
ByLayer
370
13
48
1
60
0
100
AcDbSpline
70
4
71
3
72
8
73
4
40
0
40
0
40
0
40
0
40
1
40
1
40
1
40
1
41
1
10
123.224267891604
20
3.24339375897071
30
0
41
1
10
124.316178594403
20
2.15309563131387
30
0
41
1
10
125.408089297201
20
1.07195859422629
30
0
41
1
10
126.5
20
1.705E-13
30
0
0
SPLINE
5
124
100
AcDbEntity
8
1
62
256
6
ByLayer
370
13
48
1
60
0
100
AcDbSpline
70
4
71
3
72
8
73
4
40
0
40
0
40
0
40
0
40
1
40
1
40
1
40
1
41
1
10
123.224267891604
20
-8.01868005683718
30
0
41
1
10
124.316178594403
20
-5.34132443941184
30
0
41
1
10
125.408089297201
20
-2.66841675449061
30
0
41
1
10
126.5
20
1.137E-13
30
0
0
SPLINE
5
125
100
AcDbEntity
8
1
62
256
6
ByLayer
370
13
48
1
60
0
100
AcDbSpline
70
4
71
3
72
8
73
4
40
0
40
0
40
0
40
0
40
1
40
1
40
1
40
1
41
1
10
123.224267891604
20
-4.80909568511953
30
0
41
1
10
124.316178594403
20
-3.1977571840111
30
0
41
1
10
125.408089297201
20
-1.59471670323103
30
0
41
1
10
126.5
20
5.68E-14
30
0
0
SPLINE
5
126
100
AcDbEntity
8
1
62
256
6
ByLayer
370
13
48
1
60
0
100
AcDbSpline
70
4
71
3
72
8
73
4
40
0
40
0
40
0
40
0
40
1
40
1
40
1
40
1
41
1
10
123.224267891604
20
-3.79210506180209
30
0
41
1
10
124.316178594403
20
-2.53698232974858
30
0
41
1
10
125.408089297202
20
-1.2729405114012
30
0
41
1
10
126.5
20
3.126E-13
30
0
0
SPLINE
5
127
100
AcDbEntity
8
1
62
256
6
ByLayer
370
13
48
1
60
0
100
AcDbSpline
70
4
71
3
72
8
73
4
40
0
40
0
40
0
40
0
40
1
40
1
40
1
40
1
41
1
10
123.224267891604
20
6.26826683748544
30
0
41
1
10
124.316178594403
20
4.17179273973989
30
0
41
1
10
125.408089297201
20
2.08235926300949
30
0
41
1
10
126.5
20
3.411E-13
30
0
0
SPLINE
5
128
100
AcDbEntity
8
1
62
256
6
ByLayer
370
13
48
1
60
0
100
AcDbSpline
70
4
71
3
72
8
73
4
40
0
40
0
40
0
40
0
40
1
40
1
40
1
40
1
41
1
10
123.224267891604
20
-5.78186859718858
30
0
41
1
10
124.316178594403
20
-3.84704804692089
30
0
41
1
10
125.408089297201
20
-1.91974818768853
30
0
41
1
10
126.5
20
8.53E-14
30
0
0
SPLINE
5
129
100
AcDbEntity
8
1
62
256
6
ByLayer
370
13
48
1
60
0
100
AcDbSpline
70
4
71
3
72
8
73
4
40
0
40
0
40
0
40
0
40
1
40
1
40
1
40
1
41
1
10
123.224267891604
20
7.75405882978185
30
0
41
1
10
124.316178594403
20
5.16438375530379
30
0
41
1
10
125.408089297202
20
2.57968362025824
30
0
41
1
10
126.5
20
-6.537E-13
30
0
0
SPLINE
5
12A
100
AcDbEntity
8
1
62
256
6
ByLayer
370
13
48
1
60
0
100
AcDbSpline
70
4
71
3
72
8
73
4
40
0
40
0
40
0
40
0
40
1
40
1
40
1
40
1
41
1
10
123.224267891604
20
2.13817466016576
30
0
41
1
10
124.316178594403
20
1.43499560935035
30
0
41
1
10
125.408089297201
20
0.722266881641048
30
0
41
1
10
126.5
20
-2.84E-14
30
0
0
SPLINE
5
12B
100
AcDbEntity
8
1
62
256
6
ByLayer
370
13
48
1
60
0
100
AcDbSpline
70
4
71
3
72
8
73
4
40
0
40
0
40
0
40
0
40
1
40
1
40
1
40
1
41
1
10
123.224267891604
20
-7.42733390559766
30
0
41
1
10
124.316178594403
20
-4.95710588523352
30
0
41
1
10
125.408089297201
20
-2.48131462371751
30
0
41
1
10
126.5
20
1.137E-13
30
0
0
SPLINE
5
12C
100
AcDbEntity
8
1
62
256
6
ByLayer
370
13
48
1
60
0
100
AcDbSpline
70
4
71
3
72
8
73
4
40
0
40
0
40
0
40
0
40
1
40
1
40
1
40
1
41
1
10
123.224267891604
20
-8.81435094504982
30
0
41
1
10
124.316178594403
20
-5.87424824114359
30
0
41
1
10
125.408089297201
20
-2.93611549940979
30
0
41
1
10
126.5
20
1.137E-13
30
0
0
SPLINE
5
12D
100
AcDbEntity
8
1
62
256
6
ByLayer
370
13
48
1
60
0
100
AcDbSpline
70
4
71
3
72
8
73
4
40
0
40
0
40
0
40
0
40
1
40
1
40
1
40
1
41
1
10
123.224267891604
20
6.30131365415824
30
0
41
1
10
124.316178594403
20
4.20789238508593
30
0
41
1
10
125.408089297201
20
2.10744321853681
30
0
41
1
10
126.5
20
2.84E-14
30
0
0
LINE
5
7D
100
AcDbEntity
8
80
62
256
6
ByLayer
370
18
48
1
60
0
100
AcDbLine
10
0
20
0
30
0
11
-5
21
0
31
0
39
0
210
0
220
0
230
1
0
LINE
5
7E
100
AcDbEntity
8
4
62
256
6
ByLayer
370
18
48
0.05
60
0
100
AcDbLine
10
-5
20
0
30
0
11
131.5
21
0
31
0
39
0
210
0
220
0
230
1
0
LINE
5
80
100
AcDbEntity
8
81
62
256
6
ByLayer
370
18
48
1
60
0
100
AcDbLine
10
126.5
20
0
30
0
11
131.5
21
0
31
0
39
0
210
0
220
0
230
1
0
LINE
5
81
100
AcDbEntity
8
SK4
62
256
6
ByLayer
370
18
48
0.05
60
0
100
AcDbLine
10
-55
20
0
30
0
11
131.5
21
0
31
0
39
0
210
0
220
0
230
1
0
LINE
5
83
100
AcDbEntity
8
1
62
256
6
ByLayer
370
18
48
1
60
0
100
AcDbLine
10
0
20
10
30
0
11
0
21
-10
31
0
39
0
210
0
220
0
230
1
0
LINE
5
84
100
AcDbEntity
8
1
62
256
6
ByLayer
370
18
48
1
60
0
100
AcDbLine
10
123.224268
20
9
30
0
11
123.224268
21
8.714245
31
0
39
0
210
0
220
0
230
1
0
LINE
5
85
100
AcDbEntity
8
1
62
256
6
ByLayer
370
18
48
1
60
0
100
AcDbLine
10
123.224268
20
-9
30
0
11
123.224268
21
-1.286403
31
0
39
0
210
0
220
0
230
1
0
LINE
5
86
100
AcDbEntity
8
1
62
256
6
ByLayer
370
18
48
1
60
0
100
AcDbLine
10
10
20
-4.430084
30
0
11
10
21
8.389911
31
0
39
0
210
0
220
0
230
1
0
LINE
5
87
100
AcDbEntity
8
SK1
62
256
6
ByLayer
370
13
48
1
60
0
100
AcDbLine
10
-14.992177
20
-6.1943
30
0
11
-14.992177
21
6.1943
31
0
39
0
210
0
220
0
230
1
0
LINE
5
89
100
AcDbEntity
8
SK1
62
256
6
ByLayer
370
13
48
1
60
0
100
AcDbLine
10
-42.24218
20
4.745825
30
0
11
-42.24218
21
-4.745825
31
0
39
0
210
0
220
0
230
1
0
LINE
5
8A
100
AcDbEntity
8
SK1
62
256
6
ByLayer
370
13
48
1
60
0
100
AcDbLine
10
-13.845141
20
5.608199
30
0
11
-13.845141
21
-5.608199
31
0
39
0
210
0
220
0
230
1
0
LINE
5
8B
100
AcDbEntity
8
SK1
62
256
6
ByLayer
370
18
48
1
60
0
100
AcDbLine
10
0
20
10
30
0
11
0
21
-10
31
0
39
0
210
0
220
0
230
1
0
LINE
5
8C
100
AcDbEntity
8
SK1
62
256
6
ByLayer
370
13
48
1
60
0
100
AcDbLine
10
-43.356507
20
-3.65035
30
0
11
-43.356507
21
3.65035
31
0
39
0
210
0
220
0
230
1
0
LINE
5
8D
100
AcDbEntity
8
SK1
62
256
6
ByLayer
370
18
48
1
60
0
100
AcDbLine
10
-50
20
-9
30
0
11
-50
21
9
31
0
39
0
210
0
220
0
230
1
0
LINE
5
8E
100
AcDbEntity
8
SK1
62
256
6
ByLayer
370
18
48
1
60
0
100
AcDbLine
10
-49
20
-10
30
0
11
-49
21
10
31
0
39
0
210
0
220
0
230
1
0
LINE
5
8F
100
AcDbEntity
8
1
62
256
6
ByLayer
370
18
48
1
60
0
100
AcDbLine
10
39.599202
20
-8.7
30
0
11
80.527472
21
-8.7
31
0
39
0
210
0
220
0
230
1
0
LINE
5
90
100
AcDbEntity
8
1
62
256
6
ByLayer
370
18
48
1
60
0
100
AcDbLine
10
80.527472
20
8.7
30
0
11
39.599202
21
8.7
31
0
39
0
210
0
220
0
230
1
0
LINE
5
91
100
AcDbEntity
8
1
62
256
6
ByLayer
370
18
48
1
60
0
100
AcDbLine
10
126.5
20
0
30
0
11
123.224268
21
9
31
0
39
0
210
0
220
0
230
1
0
LINE
5
92
100
AcDbEntity
8
1
62
256
6
ByLayer
370
18
48
1
60
0
100
AcDbLine
10
123.224268
20
-9
30
0
11
126.5
21
0
31
0
39
0
210
0
220
0
230
1
0
LINE
5
93
100
AcDbEntity
8
1
62
256
6
ByLayer
370
18
48
1
60
0
100
AcDbLine
10
5.80137
20
9.245822
30
0
11
0
21
10
31
0
39
0
210
0
220
0
230
1
0
LINE
5
94
100
AcDbEntity
8
1
62
256
6
ByLayer
370
18
48
1
60
0
100
AcDbLine
10
0
20
-10
30
0
11
5.80137
21
-9.245822
31
0
39
0
210
0
220
0
230
1
0
LINE
5
95
100
AcDbEntity
8
1
62
256
6
ByLayer
370
18
48
1
60
0
100
AcDbLine
10
126.5
20
0
30
0
11
123.224268
21
9
31
0
39
0
210
0
220
0
230
1
0
LINE
5
96
100
AcDbEntity
8
1
62
256
6
ByLayer
370
18
48
1
60
0
100
AcDbLine
10
123.224268
20
-9
30
0
11
126.5
21
0
31
0
39
0
210
0
220
0
230
1
0
LINE
5
97
100
AcDbEntity
8
1
62
256
6
ByLayer
370
18
48
1
60
0
100
AcDbLine
10
113.6
20
-9
30
0
11
123.224268
21
-9
31
0
39
0
210
0
220
0
230
1
0
LINE
5
98
100
AcDbEntity
8
SK1
62
256
6
ByLayer
370
18
48
1
60
0
100
AcDbLine
10
-49
20
-10
30
0
11
0
21
-10
31
0
39
0
210
0
220
0
230
1
0
LINE
5
99
100
AcDbEntity
8
SK1
62
256
6
ByLayer
370
18
48
1
60
0
100
AcDbLine
10
0
20
10
30
0
11
-49
21
10
31
0
39
0
210
0
220
0
230
1
0
LINE
5
9A
100
AcDbEntity
8
SK1
62
256
6
ByLayer
370
18
48
1
60
0
100
AcDbLine
10
-50
20
-9
30
0
11
-49
21
-10
31
0
39
0
210
0
220
0
230
1
0
LINE
5
9B
100
AcDbEntity
8
SK1
62
256
6
ByLayer
370
18
48
1
60
0
100
AcDbLine
10
-49
20
10
30
0
11
-50
21
9
31
0
39
0
210
0
220
0
230
1
0
LINE
5
9C
100
AcDbEntity
8
1
62
256
6
ByLayer
370
18
48
1
60
0
100
AcDbLine
10
123.224268
20
9
30
0
11
123.224268
21
-9
31
0
39
0
210
0
220
0
230
1
0
LINE
5
9D
100
AcDbEntity
8
1
62
256
6
ByLayer
370
18
48
1
60
0
100
AcDbLine
10
123.224268
20
9
30
0
11
123.224268
21
-9
31
0
39
0
210
0
220
0
230
1
0
LINE
5
9E
100
AcDbEntity
8
1
62
256
6
ByLayer
370
18
48
1
60
0
100
AcDbLine
10
123.224268
20
9
30
0
11
123.224268
21
-9
31
0
39
0
210
0
220
0
230
1
0
LINE
5
9F
100
AcDbEntity
8
1
62
256
6
ByLayer
370
18
48
1
60
0
100
AcDbLine
10
113.6
20
9
30
0
11
113.6
21
-9
31
0
39
0
210
0
220
0
230
1
0
LINE
5
A0
100
AcDbEntity
8
1
62
256
6
ByLayer
370
18
48
1
60
0
100
AcDbLine
10
113.6
20
9
30
0
11
113.6
21
-9
31
0
39
0
210
0
220
0
230
1
0
LINE
5
A1
100
AcDbEntity
8
1
62
256
6
ByLayer
370
18
48
1
60
0
100
AcDbLine
10
123.224268
20
9
30
0
11
123.224268
21
-9
31
0
39
0
210
0
220
0
230
1
0
LINE
5
A2
100
AcDbEntity
8
1
62
256
6
ByLayer
370
18
48
1
60
0
100
AcDbLine
10
113.6
20
9
30
0
11
113.6
21
-9
31
0
39
0
210
0
220
0
230
1
0
LINE
5
A3
100
AcDbEntity
8
1
62
256
6
ByLayer
370
18
48
1
60
0
100
AcDbLine
10
123.224268
20
9
30
0
11
123.224268
21
-9
31
0
39
0
210
0
220
0
230
1
0
LINE
5
A4
100
AcDbEntity
8
SK2
62
256
6
ByLayer
370
13
48
1
60
0
100
AcDbLine
10
-56.5
20
-10
30
0
11
-56.5
21
39.024569
31
0
39
0
210
0
220
0
230
1
0
LINE
5
A6
100
AcDbEntity
8
SK2
62
256
6
ByLayer
370
13
48
1
60
0
100
AcDbLine
10
-51.5875
20
10
30
0
11
-58.5
21
10
31
0
39
0
210
0
220
0
230
1
0
LINE
5
A7
100
AcDbEntity
8
SK2
62
256
6
ByLayer
370
13
48
1
60
0
100
AcDbLine
10
-51.5875
20
-10
30
0
11
-58.5
21
-10
31
0
39
0
210
0
220
0
230
1
0
LINE
5
A8
100
AcDbEntity
8
1
62
256
6
ByLayer
370
18
48
1
60
1
100
AcDbLine
10
-56.5
20
10
30
0
11
-56.039216
21
6.500002
31
0
39
0
210
0
220
0
230
1
0
LINE
5
A9
100
AcDbEntity
8
1
62
256
6
ByLayer
370
18
48
1
60
1
100
AcDbLine
10
-56.039216
20
6.500002
30
0
11
-56.960784
21
6.499998
31
0
39
0
210
0
220
0
230
1
0
LINE
5
AA
100
AcDbEntity
8
1
62
256
6
ByLayer
370
18
48
1
60
1
100
AcDbLine
10
-56.960784
20
6.499998
30
0
11
-56.5
21
10
31
0
39
0
210
0
220
0
230
1
0
LINE
5
AB
100
AcDbEntity
8
1
62
256
6
ByLayer
370
18
48
1
60
1
100
AcDbLine
10
-56.5
20
-10
30
0
11
-56.960784
21
-6.500002
31
0
39
0
210
0
220
0
230
1
0
LINE
5
AC
100
AcDbEntity
8
1
62
256
6
ByLayer
370
18
48
1
60
1
100
AcDbLine
10
-56.960784
20
-6.500002
30
0
11
-56.039216
21
-6.499998
31
0
39
0
210
0
220
0
230
1
0
LINE
5
AD
100
AcDbEntity
8
1
62
256
6
ByLayer
370
18
48
1
60
1
100
AcDbLine
10
-56.039216
20
-6.499998
30
0
11
-56.5
21
-10
31
0
39
0
210
0
220
0
230
1
0
LINE
5
AE
100
AcDbEntity
8
2
62
256
6
ByLayer
370
13
48
1
60
0
100
AcDbLine
10
134
20
-9
30
0
11
134
21
37.274683
31
0
39
0
210
0
220
0
230
1
0
LINE
5
B0
100
AcDbEntity
8
2
62
256
6
ByLayer
370
13
48
1
60
0
100
AcDbLine
10
124.811768
20
9
30
0
11
136
21
9
31
0
39
0
210
0
220
0
230
1
0
LINE
5
B1
100
AcDbEntity
8
2
62
256
6
ByLayer
370
13
48
1
60
0
100
AcDbLine
10
124.811768
20
-9
30
0
11
136
21
-9
31
0
39
0
210
0
220
0
230
1
0
LINE
5
B2
100
AcDbEntity
8
1
62
256
6
ByLayer
370
18
48
1
60
1
100
AcDbLine
10
134
20
9
30
0
11
134.460784
21
5.500002
31
0
39
0
210
0
220
0
230
1
0
LINE
5
B3
100
AcDbEntity
8
1
62
256
6
ByLayer
370
18
48
1
60
1
100
AcDbLine
10
134.460784
20
5.500002
30
0
11
133.539216
21
5.499998
31
0
39
0
210
0
220
0
230
1
0
LINE
5
B4
100
AcDbEntity
8
1
62
256
6
ByLayer
370
18
48
1
60
1
100
AcDbLine
10
133.539216
20
5.499998
30
0
11
134
21
9
31
0
39
0
210
0
220
0
230
1
0
LINE
5
B5
100
AcDbEntity
8
1
62
256
6
ByLayer
370
18
48
1
60
1
100
AcDbLine
10
134
20
-9
30
0
11
133.539216
21
-5.500002
31
0
39
0
210
0
220
0
230
1
0
LINE
5
B6
100
AcDbEntity
8
1
62
256
6
ByLayer
370
18
48
1
60
1
100
AcDbLine
10
133.539216
20
-5.500002
30
0
11
134.460784
21
-5.499998
31
0
39
0
210
0
220
0
230
1
0
LINE
5
B7
100
AcDbEntity
8
1
62
256
6
ByLayer
370
18
48
1
60
1
100
AcDbLine
10
134.460784
20
-5.499998
30
0
11
134
21
-9
31
0
39
0
210
0
220
0
230
1
0
LINE
5
B8
100
AcDbEntity
8
SK2
62
256
6
ByLayer
370
13
48
1
60
0
100
AcDbLine
10
127.042957
20
-1.491762
30
0
11
133.682423
21
-19.733545
31
0
39
0
210
0
220
0
230
1
0
LINE
5
B9
100
AcDbEntity
8
SK2
62
256
6
ByLayer
370
13
48
1
60
0
100
AcDbLine
10
127.042957
20
1.491762
30
0
11
133.682423
21
19.733545
31
0
39
0
210
0
220
0
230
1
0
LINE
5
BA
100
AcDbEntity
8
1
62
256
6
ByLayer
370
18
48
1
60
1
100
AcDbLine
10
132.998383
20
-17.85416
30
0
11
136.051575
21
-16.082064
31
0
39
0
210
0
220
0
230
1
0
LINE
5
BB
100
AcDbEntity
8
1
62
256
6
ByLayer
370
18
48
1
60
1
100
AcDbLine
10
136.051575
20
-16.082064
30
0
11
136.406196
21
-16.93267
31
0
39
0
210
0
220
0
230
1
0
LINE
5
BC
100
AcDbEntity
8
1
62
256
6
ByLayer
370
18
48
1
60
1
100
AcDbLine
10
136.406196
20
-16.93267
30
0
11
132.998383
21
-17.85416
31
0
39
0
210
0
220
0
230
1
0
LINE
5
BD
100
AcDbEntity
8
1
62
256
6
ByLayer
370
18
48
1
60
1
100
AcDbLine
10
132.998383
20
17.85416
30
0
11
136.406193
21
16.932671
31
0
39
0
210
0
220
0
230
1
0
LINE
5
BE
100
AcDbEntity
8
1
62
256
6
ByLayer
370
18
48
1
60
1
100
AcDbLine
10
136.406193
20
16.932671
30
0
11
136.051579
21
16.082063
31
0
39
0
210
0
220
0
230
1
0
LINE
5
BF
100
AcDbEntity
8
1
62
256
6
ByLayer
370
18
48
1
60
1
100
AcDbLine
10
136.051579
20
16.082063
30
0
11
132.998383
21
17.85416
31
0
39
0
210
0
220
0
230
1
0
LINE
5
132
100
AcDbEntity
8
1
62
256
6
ByLayer
370
18
48
1
60
1
100
AcDbLine
10
-56.5
20
10
30
0
11
-56.039216
21
6.500002
31
0
39
0
210
0
220
0
230
1
0
LINE
5
133
100
AcDbEntity
8
1
62
256
6
ByLayer
370
18
48
1
60
1
100
AcDbLine
10
-56.039216
20
6.500002
30
0
11
-56.960784
21
6.499998
31
0
39
0
210
0
220
0
230
1
0
LINE
5
134
100
AcDbEntity
8
1
62
256
6
ByLayer
370
18
48
1
60
1
100
AcDbLine
10
-56.960784
20
6.499998
30
0
11
-56.5
21
10
31
0
39
0
210
0
220
0
230
1
0
LINE
5
136
100
AcDbEntity
8
1
62
256
6
ByLayer
370
18
48
1
60
1
100
AcDbLine
10
-56.5
20
-10
30
0
11
-56.960784
21
-6.500002
31
0
39
0
210
0
220
0
230
1
0
LINE
5
137
100
AcDbEntity
8
1
62
256
6
ByLayer
370
18
48
1
60
1
100
AcDbLine
10
-56.960784
20
-6.500002
30
0
11
-56.039216
21
-6.499998
31
0
39
0
210
0
220
0
230
1
0
LINE
5
138
100
AcDbEntity
8
1
62
256
6
ByLayer
370
18
48
1
60
1
100
AcDbLine
10
-56.039216
20
-6.499998
30
0
11
-56.5
21
-10
31
0
39
0
210
0
220
0
230
1
0
LINE
5
13C
100
AcDbEntity
8
1
62
256
6
ByLayer
370
18
48
1
60
1
100
AcDbLine
10
134
20
9
30
0
11
134.460784
21
5.500002
31
0
39
0
210
0
220
0
230
1
0
LINE
5
13D
100
AcDbEntity
8
1
62
256
6
ByLayer
370
18
48
1
60
1
100
AcDbLine
10
134.460784
20
5.500002
30
0
11
133.539216
21
5.499998
31
0
39
0
210
0
220
0
230
1
0
LINE
5
13E
100
AcDbEntity
8
1
62
256
6
ByLayer
370
18
48
1
60
1
100
AcDbLine
10
133.539216
20
5.499998
30
0
11
134
21
9
31
0
39
0
210
0
220
0
230
1
0
LINE
5
140
100
AcDbEntity
8
1
62
256
6
ByLayer
370
18
48
1
60
1
100
AcDbLine
10
134
20
-9
30
0
11
133.539216
21
-5.500002
31
0
39
0
210
0
220
0
230
1
0
LINE
5
141
100
AcDbEntity
8
1
62
256
6
ByLayer
370
18
48
1
60
1
100
AcDbLine
10
133.539216
20
-5.500002
30
0
11
134.460784
21
-5.499998
31
0
39
0
210
0
220
0
230
1
0
LINE
5
142
100
AcDbEntity
8
1
62
256
6
ByLayer
370
18
48
1
60
1
100
AcDbLine
10
134.460784
20
-5.499998
30
0
11
134
21
-9
31
0
39
0
210
0
220
0
230
1
0
LINE
5
145
100
AcDbEntity
8
1
62
256
6
ByLayer
370
18
48
1
60
1
100
AcDbLine
10
132.998383
20
-17.85416
30
0
11
136.051575
21
-16.082064
31
0
39
0
210
0
220
0
230
1
0
LINE
5
146
100
AcDbEntity
8
1
62
256
6
ByLayer
370
18
48
1
60
1
100
AcDbLine
10
136.051575
20
-16.082064
30
0
11
136.406196
21
-16.93267
31
0
39
0
210
0
220
0
230
1
0
LINE
5
147
100
AcDbEntity
8
1
62
256
6
ByLayer
370
18
48
1
60
1
100
AcDbLine
10
136.406196
20
-16.93267
30
0
11
132.998383
21
-17.85416
31
0
39
0
210
0
220
0
230
1
0
LINE
5
149
100
AcDbEntity
8
1
62
256
6
ByLayer
370
18
48
1
60
1
100
AcDbLine
10
132.998383
20
17.85416
30
0
11
136.406193
21
16.932671
31
0
39
0
210
0
220
0
230
1
0
LINE
5
14A
100
AcDbEntity
8
1
62
256
6
ByLayer
370
18
48
1
60
1
100
AcDbLine
10
136.406193
20
16.932671
30
0
11
136.051579
21
16.082063
31
0
39
0
210
0
220
0
230
1
0
LINE
5
14B
100
AcDbEntity
8
1
62
256
6
ByLayer
370
18
48
1
60
1
100
AcDbLine
10
136.051579
20
16.082063
30
0
11
132.998383
21
17.85416
31
0
39
0
210
0
220
0
230
1
0
MTEXT
5
12E
100
AcDbEntity
8
SK2
62
256
6
ByLayer
370
18
48
1
60
0
100
AcDbMText
10
-57.841114
20
21.658438
30
0
210
0
220
0
230
1
1
%%c
40
3
41
0
44
1.084337
50
90
71
7
72
5
7
iso_b_vert
0
MTEXT
5
131
100
AcDbEntity
8
SK2
62
256
6
ByLayer
370
18
48
1
60
0
100
AcDbMText
10
-57.841114
20
27.635
30
0
210
0
220
0
230
1
1
\W0.7513;20.000
40
3
41
0
44
1.084337
50
90
71
7
72
5
7
iso_b_vert
0
MTEXT
5
13A
100
AcDbEntity
8
2
62
256
6
ByLayer
370
18
48
1
60
0
100
AcDbMText
10
132.658886
20
20.658438
30
0
210
0
220
0
230
1
1
%%c
40
3
41
0
44
1.084337
50
90
71
7
72
5
7
iso_b_vert
0
MTEXT
5
13B
100
AcDbEntity
8
2
62
256
6
ByLayer
370
18
48
1
60
0
100
AcDbMText
10
132.658886
20
26.635
30
0
210
0
220
0
230
1
1
\W0.7022;18.000
40
3
41
0
44
1.084337
50
90
71
7
72
5
7
iso_b_vert
0
MTEXT
5
144
100
AcDbEntity
8
SK2
62
256
6
ByLayer
370
18
48
1
60
0
100
AcDbMText
10
146.409114
20
3.734657
30
0
210
0
220
0
230
1
1
\W0.7071;140%%d
40
3
41
0
44
1.084337
50
270
71
7
72
5
7
iso_b_vert
0
MTEXT
5
14D
100
AcDbEntity
8
SK6
62
256
6
ByLayer
370
18
48
1
60
0
100
AcDbMText
10
14.712746
20
-67.114886
30
0
210
0
220
0
230
1
1
\W0.7358;H85518.0
40
3
41
0
44
1.084337
50
0
71
7
72
5
7
iso_b_vert
0
HATCH
5
135
100
AcDbEntity
8
SK2
62
256
6
ByLayer
370
13
48
1
60
0
100
AcDbHatch
10
0
20
0
30
0
210
0
220
0
230
1
2
ANSI31
70
0
71
0
91
1
92
5
93
3
72
1
10
-56.5
20
10
11
-56.0392162584472
21
6.50000169255318
72
1
10
-56.0392162584472
20
6.50000169255318
11
-56.9607837415528
21
6.49999830744682
72
1
10
-56.9607837415528
20
6.49999830744682
11
-56.5
21
10
97
0
75
0
76
1
52
0
41
0.0062
77
0
78
1
53
45
43
0
44
0
45
-0.0139193969876572
46
0.0139193969876572
79
0
47
0
98
1
10
0
20
0
0
HATCH
5
139
100
AcDbEntity
8
SK2
62
256
6
ByLayer
370
13
48
1
60
0
100
AcDbHatch
10
0
20
0
30
0
210
0
220
0
230
1
2
ANSI31
70
0
71
0
91
1
92
5
93
3
72
1
10
-56.5
20
-10
11
-56.9607837415528
21
-6.50000169255318
72
1
10
-56.9607837415528
20
-6.50000169255318
11
-56.0392162584472
21
-6.49999830744682
72
1
10
-56.0392162584472
20
-6.49999830744682
11
-56.5
21
-10
97
0
75
0
76
1
52
0
41
0.0062
77
0
78
1
53
45
43
0
44
0
45
-0.0139193969876572
46
0.0139193969876572
79
0
47
0
98
1
10
0
20
0
0
HATCH
5
13F
100
AcDbEntity
8
2
62
256
6
ByLayer
370
13
48
1
60
0
100
AcDbHatch
10
0
20
0
30
0
210
0
220
0
230
1
2
ANSI31
70
0
71
0
91
1
92
5
93
3
72
1
10
134
20
9
11
134.460783741553
21
5.50000169255318
72
1
10
134.460783741553
20
5.50000169255318
11
133.539216258447
21
5.49999830744682
72
1
10
133.539216258447
20
5.49999830744682
11
134
21
9
97
0
75
0
76
1
52
0
41
0.0062
77
0
78
1
53
45
43
0
44
0
45
-0.0139193969876572
46
0.0139193969876572
79
0
47
0
98
1
10
0
20
0
0
HATCH
5
143
100
AcDbEntity
8
2
62
256
6
ByLayer
370
13
48
1
60
0
100
AcDbHatch
10
0
20
0
30
0
210
0
220
0
230
1
2
ANSI31
70
0
71
0
91
1
92
5
93
3
72
1
10
134
20
-9
11
133.539216258447
21
-5.50000169255318
72
1
10
133.539216258447
20
-5.50000169255318
11
134.460783741553
21
-5.49999830744682
72
1
10
134.460783741553
20
-5.49999830744682
11
134
21
-9
97
0
75
0
76
1
52
0
41
0.0062
77
0
78
1
53
45
43
0
44
0
45
-0.0139193969876572
46
0.0139193969876572
79
0
47
0
98
1
10
0
20
0
0
HATCH
5
148
100
AcDbEntity
8
SK2
62
256
6
ByLayer
370
13
48
1
60
0
100
AcDbHatch
10
0
20
0
30
0
210
0
220
0
230
1
2
ANSI31
70
0
71
0
91
1
92
5
93
3
72
1
10
132.998382723188
20
-17.8541597949322
11
136.051575425693
21
-16.0820638240607
72
1
10
136.051575425693
20
-16.0820638240607
11
136.406195833975
21
-16.9326700737196
72
1
10
136.406195833975
20
-16.9326700737196
11
132.998382723188
21
-17.8541597949322
97
0
75
0
76
1
52
0
41
0.0062
77
0
78
1
53
45
43
0
44
0
45
-0.0139193969876572
46
0.0139193969876572
79
0
47
0
98
1
10
0
20
0
0
HATCH
5
14C
100
AcDbEntity
8
SK2
62
256
6
ByLayer
370
13
48
1
60
0
100
AcDbHatch
10
0
20
0
30
0
210
0
220
0
230
1
2
ANSI31
70
0
71
0
91
1
92
5
93
3
72
1
10
132.998382723188
20
17.8541597949322
11
136.406192709519
21
16.9326713763016
72
1
10
136.406192709519
20
16.9326713763016
11
136.051578550149
21
16.0820625214788
72
1
10
136.051578550149
20
16.0820625214788
11
132.998382723188
21
17.8541597949322
97
0
75
0
76
1
52
0
41
0.0062
77
0
78
1
53
45
43
0
44
0
45
-0.0139193969876572
46
0.0139193969876572
79
0
47
0
98
1
10
0
20
0
0
DIMENSION
5
150
100
AcDbEntity
8
SK2
62
256
6
ByLayer
370
18
48
1
60
0
100
AcDbDimension
2
_U0
10
126.5
20
-45.952229
30
0
11
38.25
21
-45.952229
31
0
70
32
71
1
72
1
41
1
210
0
220
0
230
1
3
Standard
100
AcDbAlignedDimension
13
-50
23
-10
33
0
14
126.5
24
0
34
0
50
0
100
AcDbRotatedDimension
1001
ACAD
1000
DSTYLE
1002
{
1070
   371
1070
    13
1070
   372
1070
    13
1070
     3
1000

1070
   170
1070
     0
1070
   144
1040
1.0
1070
   277
1070
     2
1070
   284
1070
     8
1070
   278
1070
    46
1070
   146
1040
1.166667
1070
   345
1005
16
1070
   347
1005
16
1070
   346
1005
16
1070
   344
1005
0
1070
   343
1005
0
1070
   172
1070
     1
1070
    76
1070
     0
1070
    75
1070
     0
1070
   282
1070
     0
1070
   281
1070
     0
1070
    71
1070
     0
1070
    74
1070
     0
1070
   279
1070
     0
1070
   173
1070
     1
1070
   340
1005
12F
1070
   271
1070
     2
1070
   272
1070
     3
1070
    77
1070
     1
1070
    73
1070
     1
1070
   171
1070
     3
1070
   274
1070
     4
1070
   177
1070
     2
1070
   176
1070
     2
1070
   178
1070
     2
1070
    78
1070
     8
1070
    48
1040
-0.1
1070
    41
1040
3.5
1070
   147
1040
1.5
1070
    42
1040
1.5875
1070
    44
1040
2.0
1070
   140
1040
3.0
1002
}
1001
ACAD_DSTYLE_DIM_LINETYPE
1070
   380
1005
16
1001
ACAD_DSTYLE_DIM_EXT1_LINETYPE
1070
   381
1005
16
1001
ACAD_DSTYLE_DIM_EXT2_LINETYPE
1070
   382
1005
16
0
DIMENSION
5
169
100
AcDbEntity
8
SK2
62
256
6
ByLayer
370
18
48
1
60
0
100
AcDbDimension
2
_U1
10
3
20
-35.952229
30
0
11
64.75
21
-35.952229
31
0
70
32
71
1
72
1
41
1
210
0
220
0
230
1
3
Standard
100
AcDbAlignedDimension
13
126.5
23
0
33
0
14
3
24
-9
34
0
50
0
100
AcDbRotatedDimension
1001
ACAD
1000
DSTYLE
1002
{
1070
   371
1070
    13
1070
   372
1070
    13
1070
     3
1000

1070
   170
1070
     0
1070
   144
1040
1.0
1070
   277
1070
     2
1070
   284
1070
     8
1070
   278
1070
    46
1070
   146
1040
1.166667
1070
   345
1005
16
1070
   347
1005
16
1070
   346
1005
16
1070
   344
1005
0
1070
   343
1005
0
1070
   172
1070
     1
1070
    76
1070
     0
1070
    75
1070
     0
1070
   282
1070
     0
1070
   281
1070
     0
1070
    71
1070
     0
1070
    74
1070
     0
1070
   279
1070
     0
1070
   173
1070
     1
1070
   340
1005
12F
1070
   271
1070
     2
1070
   272
1070
     3
1070
    77
1070
     1
1070
    73
1070
     1
1070
   171
1070
     3
1070
   274
1070
     4
1070
   177
1070
     2
1070
   176
1070
     2
1070
   178
1070
     2
1070
    78
1070
     8
1070
    48
1040
-0.1
1070
    41
1040
3.5
1070
   147
1040
1.5
1070
    42
1040
1.5875
1070
    44
1040
2.0
1070
   140
1040
3.0
1002
}
1001
ACAD_DSTYLE_DIM_LINETYPE
1070
   380
1005
16
1001
ACAD_DSTYLE_DIM_EXT1_LINETYPE
1070
   381
1005
16
1001
ACAD_DSTYLE_DIM_EXT2_LINETYPE
1070
   382
1005
16
0
DIMENSION
5
181
100
AcDbEntity
8
SK2
62
256
6
ByLayer
370
18
48
1
60
0
100
AcDbDimension
2
_U2
10
0
20
-35.952229
30
0
11
-25
21
-35.952229
31
0
70
32
71
1
72
1
41
1
210
0
220
0
230
1
3
Standard
100
AcDbAlignedDimension
13
-50
23
-10
33
0
14
0
24
-10
34
0
50
0
100
AcDbRotatedDimension
1001
ACAD
1000
DSTYLE
1002
{
1070
   371
1070
    13
1070
   372
1070
    13
1070
     3
1000

1070
   170
1070
     0
1070
   144
1040
1.0
1070
   277
1070
     2
1070
   284
1070
     8
1070
   278
1070
    46
1070
   146
1040
1.166667
1070
   345
1005
16
1070
   347
1005
16
1070
   346
1005
16
1070
   344
1005
0
1070
   343
1005
0
1070
   172
1070
     1
1070
    76
1070
     0
1070
    75
1070
     0
1070
   282
1070
     0
1070
   281
1070
     0
1070
    71
1070
     0
1070
    74
1070
     0
1070
   279
1070
     0
1070
   173
1070
     1
1070
   340
1005
12F
1070
   271
1070
     2
1070
   272
1070
     3
1070
    77
1070
     1
1070
    73
1070
     1
1070
   171
1070
     3
1070
   274
1070
     4
1070
   177
1070
     2
1070
   176
1070
     2
1070
   178
1070
     2
1070
    78
1070
     8
1070
    48
1040
-0.1
1070
    41
1040
3.5
1070
   147
1040
1.5
1070
    42
1040
1.5875
1070
    44
1040
2.0
1070
   140
1040
3.0
1002
}
1001
ACAD_DSTYLE_DIM_LINETYPE
1070
   380
1005
16
1001
ACAD_DSTYLE_DIM_EXT1_LINETYPE
1070
   381
1005
16
1001
ACAD_DSTYLE_DIM_EXT2_LINETYPE
1070
   382
1005
16
0
DIMENSION
5
199
100
AcDbEntity
8
SK2
62
256
6
ByLayer
370
18
48
1
60
0
100
AcDbDimension
2
_U3
10
23
20
32.952229
30
0
11
74.75
21
32.952229
31
0
70
32
71
1
72
1
41
1
210
0
220
0
230
1
3
Standard
100
AcDbAlignedDimension
13
126.5
23
0
33
0
14
23
24
9
34
0
50
0
100
AcDbRotatedDimension
1001
ACAD
1000
DSTYLE
1002
{
1070
   371
1070
    13
1070
   372
1070
    13
1070
     3
1000

1070
   170
1070
     0
1070
   144
1040
1.0
1070
   277
1070
     2
1070
   284
1070
     8
1070
   278
1070
    46
1070
   146
1040
1.166667
1070
   345
1005
16
1070
   347
1005
16
1070
   346
1005
16
1070
   344
1005
0
1070
   343
1005
0
1070
   172
1070
     1
1070
    76
1070
     0
1070
    75
1070
     0
1070
   282
1070
     0
1070
   281
1070
     0
1070
    71
1070
     0
1070
    74
1070
     0
1070
   279
1070
     0
1070
   173
1070
     1
1070
   340
1005
12F
1070
   271
1070
     2
1070
   272
1070
     3
1070
    77
1070
     1
1070
    73
1070
     1
1070
   171
1070
     3
1070
   274
1070
     4
1070
   177
1070
     2
1070
   176
1070
     2
1070
   178
1070
     2
1070
    78
1070
     8
1070
    48
1040
-0.1
1070
    41
1040
3.5
1070
   147
1040
1.5
1070
    42
1040
1.5875
1070
    44
1040
2.0
1070
   140
1040
3.0
1002
}
1001
ACAD_DSTYLE_DIM_LINETYPE
1070
   380
1005
16
1001
ACAD_DSTYLE_DIM_EXT1_LINETYPE
1070
   381
1005
16
1001
ACAD_DSTYLE_DIM_EXT2_LINETYPE
1070
   382
1005
16
0
ENDSEC
0
SECTION
2
OBJECTS
0
DICTIONARY
5
221
330
0
100
AcDbDictionary
280
0
281
1
3
ACAD_GROUP
350
222
3
ACAD_MLINESTYLE
350
223
0
DICTIONARY
5
222
330
0
100
AcDbDictionary
280
0
281
1
0
DICTIONARY
5
223
330
0
100
AcDbDictionary
280
0
281
1
3
Standard
350
18
0
MLINESTYLE
5
18
330
223
100
AcDbMlineStyle
2
Standard
70
0
3

62
256
51
90
52
90
71
2
49
-0.5
62
256
6
ByLayer
49
0.5
62
256
6
ByLayer
0
RASTERVARIABLES
5
20f
330

100
AcDbRasterVariables
90
0
70
1
71
1
72
1
0
ENDSEC
0
EOF
