0
SECTION
2
HEADER
9
$ACADVER
1
AC1015
9
$DWGCODEPAGE
3
ANSI_1252
9
$HANDSEED
5
22a
9
$ANGBASE
50
0
9
$ANGDIR
70
0
9
$ATTMODE
70
1
9
$AUNITS
70
0
9
$AUPREC
70
0
9
$CECOLOR
62
256
9
$CELTSCALE
40
1
9
$CELTYPE
6
ByLayer
9
$CELWEIGHT
370
18
9
$CLAYER
8
0
9
$CMLJUST
70
0
9
$CMLSCALE
40
1
9
$CMLSTYLE
2
Standard
9
$DIMSTYLE
2
Standard
9
$TEXTSIZE
40
0.2
9
$TEXTSTYLE
7
Standard
9
$LUNITS
70
2
9
$LUPREC
70
4
9
$EXTNAMES
290
1
9
$INSUNITS
70
4
9
$LTSCALE
40
1
9
$LWDISPLAY
290
1
9
$PDMODE
70
0
9
$PDSIZE
40
0
9
$PLINEGEN
70
0
0
ENDSEC
0
SECTION
2
CLASSES
0
CLASS
1
RASTERVARIABLES
2
AcDbRasterVariables
3
ISM
90
0
280
0
281
0
0
ENDSEC
0
SECTION
2
TABLES
0
TABLE
2
VPORT
5
220
100
AcDbSymbolTable
0
VPORT
5
1
100
AcDbSymbolTableRecord
100
AcDbViewportTableRecord
2
*Active
70
0
10
0
20
0
11
1
21
1
12
-1
22
1
13
0
23
0
14
0.5
24
0.5
15
10
25
10
16
0
26
0
36
1
17
0
27
0
37
0
0
ENDTAB
0
TABLE
2
LTYPE
5
221
100
AcDbSymbolTable
0
LTYPE
5
14
100
AcDbSymbolTableRecord
100
AcDbLinetypeTableRecord
70
0
2
ByBlock
3

72
65
73
0
40
0
0
LTYPE
5
15
100
AcDbSymbolTableRecord
100
AcDbLinetypeTableRecord
70
0
2
ByLayer
3

72
65
73
0
40
0
0
LTYPE
5
16
100
AcDbSymbolTableRecord
100
AcDbLinetypeTableRecord
70
0
2
Continuous
3
Solid line
72
65
73
0
40
0
0
LTYPE
5
6E
100
AcDbSymbolTableRecord
100
AcDbLinetypeTableRecord
70
0
2
CENTER
3
____ _ ____ _ ____ _ ____
72
65
73
4
40
47.5
49
22
74
0
49
-8.5
74
0
49
8.5
74
0
49
-8.5
74
0
0
LTYPE
5
6F
100
AcDbSymbolTableRecord
100
AcDbLinetypeTableRecord
70
0
2
DASHED
3
__ __ __ __ __ __ __ __ __
72
65
73
2
40
25.72
49
12.86
74
0
49
-12.86
74
0
0
ENDTAB
0
TABLE
2
LAYER
5
222
100
AcDbSymbolTable
0
LAYER
5
10
100
AcDbSymbolTableRecord
100
AcDbLayerTableRecord
2
0
70
0
62
7
6
Continuous
290
1
370
-3
390
0
0
LAYER
5
71
100
AcDbSymbolTableRecord
100
AcDbLayerTableRecord
2
81
70
0
62
-3
6
Continuous
290
1
370
-3
390
0
0
LAYER
5
73
100
AcDbSymbolTableRecord
100
AcDbLayerTableRecord
2
80
70
0
62
-6
6
Continuous
290
1
370
-3
390
0
0
LAYER
5
75
100
AcDbSymbolTableRecord
100
AcDbLayerTableRecord
2
1
70
0
62
4
6
Continuous
290
1
370
-3
390
0
0
LAYER
5
7E
100
AcDbSymbolTableRecord
100
AcDbLayerTableRecord
2
4
70
0
62
-2
6
CENTER
290
1
370
-3
390
0
0
LAYER
5
AF
100
AcDbSymbolTableRecord
100
AcDbLayerTableRecord
2
2
70
0
62
7
6
Continuous
290
1
370
-3
390
0
0
LAYER
5
14F
100
AcDbSymbolTableRecord
100
AcDbLayerTableRecord
2
Defpoints
70
0
62
7
6
Continuous
290
0
370
-3
390
0
0
LAYER
5
20c
100
AcDbSymbolTableRecord
100
AcDbLayerTableRecord
2
SK4
70
0
62
2
6
CENTER
290
1
370
-3
390
0
0
LAYER
5
20d
100
AcDbSymbolTableRecord
100
AcDbLayerTableRecord
2
SK1
70
0
62
4
6
Continuous
290
1
370
-3
390
0
0
LAYER
5
20e
100
AcDbSymbolTableRecord
100
AcDbLayerTableRecord
2
SK2
70
0
62
7
6
Continuous
290
1
370
-3
390
0
0
LAYER
5
20f
100
AcDbSymbolTableRecord
100
AcDbLayerTableRecord
2
SK6
70
0
62
5
6
Continuous
290
1
370
-3
390
0
0
ENDTAB
0
TABLE
2
STYLE
5
223
100
AcDbSymbolTable
0
STYLE
5
11
100
AcDbSymbolTableRecord
100
AcDbTextStyleTableRecord
2
Standard
3
txt
70
0
71
0
40
0
41
1
42
0
50
0
0
STYLE
5
12B
100
AcDbSymbolTableRecord
100
AcDbTextStyleTableRecord
2
iso_b_vert
3
simplex.shx
70
0
71
0
40
0
41
1
42
0
50
0
0
STYLE
5
12C
100
AcDbSymbolTableRecord
100
AcDbTextStyleTableRecord
2
DWGDirectTextStyle
3
simplex
70
0
71
0
40
0
41
1
42
0
50
0
0
ENDTAB
0
TABLE
2
DIMSTYLE
5
224
100
AcDbSymbolTable
100
AcDbDimStyleTable
0
DIMSTYLE
105
27
100
AcDbSymbolTableRecord
100
AcDbDimStyleTableRecord
2
Standard
70
0
3
<>
41
0.18
42
0.0625
44
0.18
140
0.18
147
0.09
73
0
74
0
77
1
271
2
275
0
278
52
280
0
340
11
0
ENDTAB
0
TABLE
2
VIEW
5
225
100
AcDbSymbolTable
0
ENDTAB
0
TABLE
2
UCS
5
226
100
AcDbSymbolTable
0
ENDTAB
0
TABLE
2
APPID
5
227
100
AcDbSymbolTable
0
APPID
5
12
100
AcDbSymbolTableRecord
100
AcDbRegAppTableRecord
2
ACAD
70
0
0
APPID
5
14B
100
AcDbSymbolTableRecord
100
AcDbRegAppTableRecord
2
ACAD_DSTYLE_DIMBREAK
70
0
0
APPID
5
1CB
100
AcDbSymbolTableRecord
100
AcDbRegAppTableRecord
2
ACAD_DSTYLE_DIM_LINETYPE
70
0
0
APPID
5
1CC
100
AcDbSymbolTableRecord
100
AcDbRegAppTableRecord
2
ACAD_DSTYLE_DIM_EXT1_LINETYPE
70
0
0
APPID
5
1CD
100
AcDbSymbolTableRecord
100
AcDbRegAppTableRecord
2
ACAD_DSTYLE_DIM_EXT2_LINETYPE
70
0
0
APPID
5
208
100
AcDbSymbolTableRecord
100
AcDbRegAppTableRecord
2
ACAD_MLEADERVER
70
0
0
ENDTAB
0
TABLE
2
BLOCK_RECORD
5
228
100
AcDbSymbolTable
0
BLOCK_RECORD
5
1F
100
AcDbSymbolTableRecord
100
AcDbBlockTableRecord
2
*Model_Space
340
0
70
0
0
BLOCK_RECORD
5
1B
100
AcDbSymbolTableRecord
100
AcDbBlockTableRecord
2
*Paper_Space
340
0
70
0
0
BLOCK_RECORD
5
23
100
AcDbSymbolTableRecord
100
AcDbBlockTableRecord
2
*Paper_Space0
340
0
70
0
0
BLOCK_RECORD
5
150
100
AcDbSymbolTableRecord
100
AcDbBlockTableRecord
2
*D1
340
0
70
0
0
BLOCK_RECORD
5
15C
100
AcDbSymbolTableRecord
100
AcDbBlockTableRecord
2
_U0
340
0
70
0
0
BLOCK_RECORD
5
168
100
AcDbSymbolTableRecord
100
AcDbBlockTableRecord
2
*D3
340
0
70
0
0
BLOCK_RECORD
5
174
100
AcDbSymbolTableRecord
100
AcDbBlockTableRecord
2
_U1
340
0
70
0
0
BLOCK_RECORD
5
180
100
AcDbSymbolTableRecord
100
AcDbBlockTableRecord
2
*D5
340
0
70
0
0
BLOCK_RECORD
5
18C
100
AcDbSymbolTableRecord
100
AcDbBlockTableRecord
2
_U2
340
0
70
0
0
BLOCK_RECORD
5
198
100
AcDbSymbolTableRecord
100
AcDbBlockTableRecord
2
*D7
340
0
70
0
0
BLOCK_RECORD
5
1A4
100
AcDbSymbolTableRecord
100
AcDbBlockTableRecord
2
_U3
340
0
70
0
0
ENDTAB
0
ENDSEC
0
SECTION
2
BLOCKS
0
BLOCK
5
20
100
AcDbEntity
8
0
100
AcDbBlockBegin
2
*Model_Space
70
0
10
0
20
0
30
0
3
*Model_Space
0
ENDBLK
5
21
100
AcDbEntity
8
0
100
AcDbBlockEnd
0
BLOCK
5
1C
100
AcDbEntity
8
0
100
AcDbBlockBegin
2
*Paper_Space
70
0
10
0
20
0
30
0
3
*Paper_Space
0
ENDBLK
5
1D
100
AcDbEntity
8
0
100
AcDbBlockEnd
0
BLOCK
5
24
100
AcDbEntity
8
0
100
AcDbBlockBegin
2
*Paper_Space0
70
0
10
0
20
0
30
0
3
*Paper_Space0
0
ENDBLK
5
25
100
AcDbEntity
8
0
100
AcDbBlockEnd
0
BLOCK
5
151
100
AcDbEntity
8
0
100
AcDbBlockBegin
2
*D1
70
1
10
0
20
0
30
0
3
*D1
0
LINE
5
153
100
AcDbEntity
8
0
62
256
6
ByLayer
370
-2
48
1
60
0
100
AcDbLine
10
-50
20
-11.5875
30
0
11
-50
21
-47.952229
31
0
39
0
210
0
220
0
230
1
0
LINE
5
154
100
AcDbEntity
8
0
62
256
6
ByLayer
370
-2
48
1
60
0
100
AcDbLine
10
121.5
20
-1.5875
30
0
11
121.5
21
-47.952229
31
0
39
0
210
0
220
0
230
1
0
LINE
5
155
100
AcDbEntity
8
0
62
256
6
ByLayer
370
-2
48
1
60
0
100
AcDbLine
10
-46.5
20
-45.952229
30
0
11
118
21
-45.952229
31
0
39
0
210
0
220
0
230
1
0
SOLID
5
156
100
AcDbEntity
8
0
62
256
6
ByLayer
370
-1
48
1
60
0
100
AcDbTrace
10
-46.5
20
-45.368896
30
0
11
-46.5
21
-46.535563
31
0
12
-50
22
-45.952229
32
0
13
-50
23
-45.952229
33
0
39
0
210
0
220
0
230
1
0
SOLID
5
157
100
AcDbEntity
8
0
62
256
6
ByLayer
370
-1
48
1
60
0
100
AcDbTrace
10
118
20
-46.535563
30
0
11
118
21
-45.368896
31
0
12
121.5
22
-45.952229
32
0
13
121.5
23
-45.952229
33
0
39
0
210
0
220
0
230
1
0
MTEXT
5
158
100
AcDbEntity
8
0
62
256
6
ByLayer
370
18
48
1
60
0
100
AcDbMText
10
35.75
20
-39.952229
30
0
210
0
220
0
230
1
1
\A1;171.5
40
3
41
0
44
1
50
0
71
5
72
5
7
iso_b_vert
0
POINT
5
159
100
AcDbEntity
8
Defpoints
62
0
6
ByLayer
370
-1
48
1
60
0
100
AcDbPoint
10
-50
20
-10
30
0
39
0
210
0
220
0
230
1
50
360
0
POINT
5
15A
100
AcDbEntity
8
Defpoints
62
0
6
ByLayer
370
-1
48
1
60
0
100
AcDbPoint
10
121.5
20
0
30
0
39
0
210
0
220
0
230
1
50
360
0
POINT
5
15B
100
AcDbEntity
8
Defpoints
62
0
6
ByLayer
370
-1
48
1
60
0
100
AcDbPoint
10
121.5
20
-45.952229
30
0
39
0
210
0
220
0
230
1
50
360
0
ENDBLK
5
152
100
AcDbEntity
8
0
100
AcDbBlockEnd
0
BLOCK
5
163
100
AcDbEntity
8
0
100
AcDbBlockBegin
2
_U0
70
0
10
0
20
0
30
0
3
_U0
0
MTEXT
5
15D
100
AcDbEntity
8
SK2
62
256
6
ByLayer
370
18
48
1
60
0
100
AcDbMText
10
30.896601
20
-45.067115
30
0
210
0
220
0
230
1
1
\W0.6532;171.50
40
3
41
0
44
1.084337
50
0
71
7
72
5
7
iso_b_vert
0
LINE
5
15E
100
AcDbEntity
8
SK2
62
256
6
ByLayer
370
13
48
1
60
0
100
AcDbLine
10
-50
20
-11.5875
30
0
11
-50
21
-47.952229
31
0
39
0
210
0
220
0
230
1
0
LINE
5
15F
100
AcDbEntity
8
SK2
62
256
6
ByLayer
370
13
48
1
60
0
100
AcDbLine
10
121.5
20
-1.5875
30
0
11
121.5
21
-47.952229
31
0
39
0
210
0
220
0
230
1
0
LINE
5
160
100
AcDbEntity
8
SK2
62
256
6
ByLayer
370
13
48
1
60
0
100
AcDbLine
10
-50
20
-45.952229
30
0
11
121.5
21
-45.952229
31
0
39
0
210
0
220
0
230
1
0
SOLID
5
161
100
AcDbEntity
8
SK2
62
256
6
ByLayer
370
18
48
1
60
0
100
AcDbTrace
10
-50
20
-45.952229
30
0
11
-46.500002
21
-45.491446
31
0
12
-46.499998
22
-46.413013
32
0
13
-46.499998
23
-46.413013
33
0
39
0
210
0
220
0
230
1
0
SOLID
5
162
100
AcDbEntity
8
SK2
62
256
6
ByLayer
370
18
48
1
60
0
100
AcDbTrace
10
121.5
20
-45.952229
30
0
11
118.000002
21
-46.413013
31
0
12
117.999998
22
-45.491446
32
0
13
117.999998
23
-45.491446
33
0
39
0
210
0
220
0
230
1
0
ENDBLK
5
164
100
AcDbEntity
8
0
100
AcDbBlockEnd
0
BLOCK
5
169
100
AcDbEntity
8
0
100
AcDbBlockBegin
2
*D3
70
1
10
0
20
0
30
0
3
*D3
0
LINE
5
16B
100
AcDbEntity
8
0
62
256
6
ByLayer
370
-2
48
1
60
0
100
AcDbLine
10
121.5
20
-1.5875
30
0
11
121.5
21
-37.952229
31
0
39
0
210
0
220
0
230
1
0
LINE
5
16C
100
AcDbEntity
8
0
62
256
6
ByLayer
370
-2
48
1
60
0
100
AcDbLine
10
3
20
-10.0875
30
0
11
3
21
-37.952229
31
0
39
0
210
0
220
0
230
1
0
LINE
5
16D
100
AcDbEntity
8
0
62
256
6
ByLayer
370
-2
48
1
60
0
100
AcDbLine
10
118
20
-35.952229
30
0
11
6.5
21
-35.952229
31
0
39
0
210
0
220
0
230
1
0
SOLID
5
16E
100
AcDbEntity
8
0
62
256
6
ByLayer
370
-1
48
1
60
0
100
AcDbTrace
10
118
20
-36.535563
30
0
11
118
21
-35.368896
31
0
12
121.5
22
-35.952229
32
0
13
121.5
23
-35.952229
33
0
39
0
210
0
220
0
230
1
0
SOLID
5
16F
100
AcDbEntity
8
0
62
256
6
ByLayer
370
-1
48
1
60
0
100
AcDbTrace
10
6.5
20
-35.368896
30
0
11
6.5
21
-36.535563
31
0
12
3
22
-35.952229
32
0
13
3
23
-35.952229
33
0
39
0
210
0
220
0
230
1
0
MTEXT
5
170
100
AcDbEntity
8
0
62
256
6
ByLayer
370
18
48
1
60
0
100
AcDbMText
10
62.25
20
-29.952229
30
0
210
0
220
0
230
1
1
\A1;118.5
40
3
41
0
44
1
50
0
71
5
72
5
7
iso_b_vert
0
POINT
5
171
100
AcDbEntity
8
Defpoints
62
0
6
ByLayer
370
-1
48
1
60
0
100
AcDbPoint
10
121.5
20
0
30
0
39
0
210
0
220
0
230
1
50
360
0
POINT
5
172
100
AcDbEntity
8
Defpoints
62
0
6
ByLayer
370
-1
48
1
60
0
100
AcDbPoint
10
3
20
-8.5
30
0
39
0
210
0
220
0
230
1
50
360
0
POINT
5
173
100
AcDbEntity
8
Defpoints
62
0
6
ByLayer
370
-1
48
1
60
0
100
AcDbPoint
10
3
20
-35.952229
30
0
39
0
210
0
220
0
230
1
50
360
0
ENDBLK
5
16A
100
AcDbEntity
8
0
100
AcDbBlockEnd
0
BLOCK
5
17B
100
AcDbEntity
8
0
100
AcDbBlockBegin
2
_U1
70
0
10
0
20
0
30
0
3
_U1
0
MTEXT
5
175
100
AcDbEntity
8
SK2
62
256
6
ByLayer
370
18
48
1
60
0
100
AcDbMText
10
57.396601
20
-35.067115
30
0
210
0
220
0
230
1
1
\W0.6532;118.50
40
3
41
0
44
1.084337
50
0
71
7
72
5
7
iso_b_vert
0
LINE
5
176
100
AcDbEntity
8
SK2
62
256
6
ByLayer
370
13
48
1
60
0
100
AcDbLine
10
121.5
20
-1.5875
30
0
11
121.5
21
-37.952229
31
0
39
0
210
0
220
0
230
1
0
LINE
5
177
100
AcDbEntity
8
SK2
62
256
6
ByLayer
370
13
48
1
60
0
100
AcDbLine
10
3
20
-10.0875
30
0
11
3
21
-37.952229
31
0
39
0
210
0
220
0
230
1
0
LINE
5
178
100
AcDbEntity
8
SK2
62
256
6
ByLayer
370
13
48
1
60
0
100
AcDbLine
10
121.5
20
-35.952229
30
0
11
3
21
-35.952229
31
0
39
0
210
0
220
0
230
1
0
SOLID
5
179
100
AcDbEntity
8
SK2
62
256
6
ByLayer
370
18
48
1
60
0
100
AcDbTrace
10
121.5
20
-35.952229
30
0
11
118.000002
21
-36.413013
31
0
12
117.999998
22
-35.491446
32
0
13
117.999998
23
-35.491446
33
0
39
0
210
0
220
0
230
1
0
SOLID
5
17A
100
AcDbEntity
8
SK2
62
256
6
ByLayer
370
18
48
1
60
0
100
AcDbTrace
10
3
20
-35.952229
30
0
11
6.499998
21
-35.491446
31
0
12
6.500002
22
-36.413013
32
0
13
6.500002
23
-36.413013
33
0
39
0
210
0
220
0
230
1
0
ENDBLK
5
17C
100
AcDbEntity
8
0
100
AcDbBlockEnd
0
BLOCK
5
181
100
AcDbEntity
8
0
100
AcDbBlockBegin
2
*D5
70
1
10
0
20
0
30
0
3
*D5
0
LINE
5
183
100
AcDbEntity
8
0
62
256
6
ByLayer
370
-2
48
1
60
0
100
AcDbLine
10
-50
20
-11.5875
30
0
11
-50
21
-37.952229
31
0
39
0
210
0
220
0
230
1
0
LINE
5
184
100
AcDbEntity
8
0
62
256
6
ByLayer
370
-2
48
1
60
0
100
AcDbLine
10
0
20
-11.5875
30
0
11
0
21
-37.952229
31
0
39
0
210
0
220
0
230
1
0
LINE
5
185
100
AcDbEntity
8
0
62
256
6
ByLayer
370
-2
48
1
60
0
100
AcDbLine
10
-46.5
20
-35.952229
30
0
11
-3.5
21
-35.952229
31
0
39
0
210
0
220
0
230
1
0
SOLID
5
186
100
AcDbEntity
8
0
62
256
6
ByLayer
370
-1
48
1
60
0
100
AcDbTrace
10
-46.5
20
-35.368896
30
0
11
-46.5
21
-36.535563
31
0
12
-50
22
-35.952229
32
0
13
-50
23
-35.952229
33
0
39
0
210
0
220
0
230
1
0
SOLID
5
187
100
AcDbEntity
8
0
62
256
6
ByLayer
370
-1
48
1
60
0
100
AcDbTrace
10
-3.5
20
-36.535563
30
0
11
-3.5
21
-35.368896
31
0
12
0
22
-35.952229
32
0
13
0
23
-35.952229
33
0
39
0
210
0
220
0
230
1
0
MTEXT
5
188
100
AcDbEntity
8
0
62
256
6
ByLayer
370
18
48
1
60
0
100
AcDbMText
10
-25
20
-29.952229
30
0
210
0
220
0
230
1
1
\A1;50
40
3
41
0
44
1
50
0
71
5
72
5
7
iso_b_vert
0
POINT
5
189
100
AcDbEntity
8
Defpoints
62
0
6
ByLayer
370
-1
48
1
60
0
100
AcDbPoint
10
-50
20
-10
30
0
39
0
210
0
220
0
230
1
50
360
0
POINT
5
18A
100
AcDbEntity
8
Defpoints
62
0
6
ByLayer
370
-1
48
1
60
0
100
AcDbPoint
10
0
20
-10
30
0
39
0
210
0
220
0
230
1
50
360
0
POINT
5
18B
100
AcDbEntity
8
Defpoints
62
0
6
ByLayer
370
-1
48
1
60
0
100
AcDbPoint
10
0
20
-35.952229
30
0
39
0
210
0
220
0
230
1
50
360
0
ENDBLK
5
182
100
AcDbEntity
8
0
100
AcDbBlockEnd
0
BLOCK
5
193
100
AcDbEntity
8
0
100
AcDbBlockBegin
2
_U2
70
0
10
0
20
0
30
0
3
_U2
0
MTEXT
5
18D
100
AcDbEntity
8
SK2
62
256
6
ByLayer
370
18
48
1
60
0
100
AcDbMText
10
-29.48237
20
-35.067115
30
0
210
0
220
0
230
1
1
\W0.7468;50.00
40
3
41
0
44
1.084337
50
0
71
7
72
5
7
iso_b_vert
0
LINE
5
18E
100
AcDbEntity
8
SK2
62
256
6
ByLayer
370
13
48
1
60
0
100
AcDbLine
10
-50
20
-11.5875
30
0
11
-50
21
-37.952229
31
0
39
0
210
0
220
0
230
1
0
LINE
5
18F
100
AcDbEntity
8
SK2
62
256
6
ByLayer
370
13
48
1
60
0
100
AcDbLine
10
0
20
-11.5875
30
0
11
0
21
-37.952229
31
0
39
0
210
0
220
0
230
1
0
LINE
5
190
100
AcDbEntity
8
SK2
62
256
6
ByLayer
370
13
48
1
60
0
100
AcDbLine
10
-50
20
-35.952229
30
0
11
0
21
-35.952229
31
0
39
0
210
0
220
0
230
1
0
SOLID
5
191
100
AcDbEntity
8
SK2
62
256
6
ByLayer
370
18
48
1
60
0
100
AcDbTrace
10
-50
20
-35.952229
30
0
11
-46.500002
21
-35.491446
31
0
12
-46.499998
22
-36.413013
32
0
13
-46.499998
23
-36.413013
33
0
39
0
210
0
220
0
230
1
0
SOLID
5
192
100
AcDbEntity
8
SK2
62
256
6
ByLayer
370
18
48
1
60
0
100
AcDbTrace
10
0
20
-35.952229
30
0
11
-3.499998
21
-36.413013
31
0
12
-3.500002
22
-35.491446
32
0
13
-3.500002
23
-35.491446
33
0
39
0
210
0
220
0
230
1
0
ENDBLK
5
194
100
AcDbEntity
8
0
100
AcDbBlockEnd
0
BLOCK
5
199
100
AcDbEntity
8
0
100
AcDbBlockBegin
2
*D7
70
1
10
0
20
0
30
0
3
*D7
0
LINE
5
19B
100
AcDbEntity
8
0
62
256
6
ByLayer
370
-2
48
1
60
0
100
AcDbLine
10
121.5
20
1.5875
30
0
11
121.5
21
34.952229
31
0
39
0
210
0
220
0
230
1
0
LINE
5
19C
100
AcDbEntity
8
0
62
256
6
ByLayer
370
-2
48
1
60
0
100
AcDbLine
10
24
20
10.0875
30
0
11
24
21
34.952229
31
0
39
0
210
0
220
0
230
1
0
LINE
5
19D
100
AcDbEntity
8
0
62
256
6
ByLayer
370
-2
48
1
60
0
100
AcDbLine
10
118
20
32.952229
30
0
11
27.5
21
32.952229
31
0
39
0
210
0
220
0
230
1
0
SOLID
5
19E
100
AcDbEntity
8
0
62
256
6
ByLayer
370
-1
48
1
60
0
100
AcDbTrace
10
118
20
32.368896
30
0
11
118
21
33.535563
31
0
12
121.5
22
32.952229
32
0
13
121.5
23
32.952229
33
0
39
0
210
0
220
0
230
1
0
SOLID
5
19F
100
AcDbEntity
8
0
62
256
6
ByLayer
370
-1
48
1
60
0
100
AcDbTrace
10
27.5
20
33.535563
30
0
11
27.5
21
32.368896
31
0
12
24
22
32.952229
32
0
13
24
23
32.952229
33
0
39
0
210
0
220
0
230
1
0
MTEXT
5
1A0
100
AcDbEntity
8
0
62
256
6
ByLayer
370
18
48
1
60
0
100
AcDbMText
10
72.75
20
38.952229
30
0
210
0
220
0
230
1
1
\A1;97.5
40
3
41
0
44
1
50
0
71
5
72
5
7
iso_b_vert
0
POINT
5
1A1
100
AcDbEntity
8
Defpoints
62
0
6
ByLayer
370
-1
48
1
60
0
100
AcDbPoint
10
121.5
20
0
30
0
39
0
210
0
220
0
230
1
50
360
0
POINT
5
1A2
100
AcDbEntity
8
Defpoints
62
0
6
ByLayer
370
-1
48
1
60
0
100
AcDbPoint
10
24
20
8.5
30
0
39
0
210
0
220
0
230
1
50
360
0
POINT
5
1A3
100
AcDbEntity
8
Defpoints
62
0
6
ByLayer
370
-1
48
1
60
0
100
AcDbPoint
10
24
20
32.952229
30
0
39
0
210
0
220
0
230
1
50
360
0
ENDBLK
5
19A
100
AcDbEntity
8
0
100
AcDbBlockEnd
0
BLOCK
5
1AB
100
AcDbEntity
8
0
100
AcDbBlockBegin
2
_U3
70
0
10
0
20
0
30
0
3
_U3
0
MTEXT
5
1A5
100
AcDbEntity
8
SK2
62
256
6
ByLayer
370
18
48
1
60
0
100
AcDbMText
10
68.26763
20
33.837344
30
0
210
0
220
0
230
1
1
\W0.7468;97.50
40
3
41
0
44
1.084337
50
0
71
7
72
5
7
iso_b_vert
0
LINE
5
1A6
100
AcDbEntity
8
SK2
62
256
6
ByLayer
370
13
48
1
60
0
100
AcDbLine
10
121.5
20
1.5875
30
0
11
121.5
21
34.952229
31
0
39
0
210
0
220
0
230
1
0
LINE
5
1A7
100
AcDbEntity
8
SK2
62
256
6
ByLayer
370
13
48
1
60
0
100
AcDbLine
10
24
20
10.0875
30
0
11
24
21
34.952229
31
0
39
0
210
0
220
0
230
1
0
LINE
5
1A8
100
AcDbEntity
8
SK2
62
256
6
ByLayer
370
13
48
1
60
0
100
AcDbLine
10
121.5
20
32.952229
30
0
11
24
21
32.952229
31
0
39
0
210
0
220
0
230
1
0
SOLID
5
1A9
100
AcDbEntity
8
SK2
62
256
6
ByLayer
370
18
48
1
60
0
100
AcDbTrace
10
121.5
20
32.952229
30
0
11
118.000002
21
32.491446
31
0
12
117.999998
22
33.413013
32
0
13
117.999998
23
33.413013
33
0
39
0
210
0
220
0
230
1
0
SOLID
5
1AA
100
AcDbEntity
8
SK2
62
256
6
ByLayer
370
18
48
1
60
0
100
AcDbTrace
10
24
20
32.952229
30
0
11
27.499998
21
33.413013
31
0
12
27.500002
22
32.491446
32
0
13
27.500002
23
32.491446
33
0
39
0
210
0
220
0
230
1
0
ENDBLK
5
1AC
100
AcDbEntity
8
0
100
AcDbBlockEnd
0
ENDSEC
0
SECTION
2
ENTITIES
0
ARC
5
C0
100
AcDbEntity
8
SK2
62
256
6
ByLayer
370
13
48
1
60
0
100
AcDbCircle
39
0
10
121.5
20
0
30
0
40
19
210
0
220
0
230
1
100
AcDbArc
50
290
51
70
0
ELLIPSE
5
C1
100
AcDbEntity
8
SK1
62
256
6
ByLayer
370
18
48
1
60
0
100
AcDbEllipse
10
209.817277
20
0
30
0
11
286.362532830084
21
-3.24477297310427E-13
31
0
210
0
220
0
230
1
40
0.034921
41
2.47357625657654
42
2.64710298745217
0
ELLIPSE
5
C2
100
AcDbEntity
8
SK1
62
256
6
ByLayer
370
18
48
1
60
0
100
AcDbEllipse
10
-22.723687
20
0
30
0
11
10.7236871002449
21
-1.21510065339267E-14
31
0
210
0
220
0
230
1
40
0.932515
41
-0.59537570803654
42
0.595375708036542
0
ELLIPSE
5
C3
100
AcDbEntity
8
SK1
62
256
6
ByLayer
370
18
48
1
60
0
100
AcDbEllipse
10
209.817277
20
0
30
0
11
286.362532824103
21
-3.2447729730365E-13
31
0
210
0
220
0
230
1
40
0.034921
41
-2.64710298745053
42
-2.47357625657208
0
ELLIPSE
5
C4
100
AcDbEntity
8
SK1
62
256
6
ByLayer
370
18
48
1
60
0
100
AcDbEllipse
10
-34.674849
20
0
30
0
11
-1.83690953073338E-15
21
-9.99999999999897
31
0
210
0
220
0
230
1
40
0.932515
41
-1.94446667349865
42
-1.19712598009114
0
POINT
5
70
100
AcDbEntity
8
81
62
256
6
ByLayer
370
18
48
1
60
0
100
AcDbPoint
10
121.5
20
0
30
0
39
0
210
0
220
0
230
1
50
360
0
POINT
5
72
100
AcDbEntity
8
80
62
256
6
ByLayer
370
18
48
1
60
0
100
AcDbPoint
10
0
20
0
30
0
39
0
210
0
220
0
230
1
50
360
0
POINT
5
74
100
AcDbEntity
8
1
62
256
6
ByLayer
370
18
48
1
60
1
100
AcDbPoint
10
-50
20
-10
30
0
39
0
210
0
220
0
230
1
50
360
0
POINT
5
76
100
AcDbEntity
8
1
62
256
6
ByLayer
370
18
48
1
60
1
100
AcDbPoint
10
121.5
20
0
30
0
39
0
210
0
220
0
230
1
50
360
0
POINT
5
77
100
AcDbEntity
8
1
62
256
6
ByLayer
370
18
48
1
60
1
100
AcDbPoint
10
121.5
20
0
30
0
39
0
210
0
220
0
230
1
50
360
0
POINT
5
78
100
AcDbEntity
8
1
62
256
6
ByLayer
370
18
48
1
60
1
100
AcDbPoint
10
3
20
-8.5
30
0
39
0
210
0
220
0
230
1
50
360
0
POINT
5
79
100
AcDbEntity
8
1
62
256
6
ByLayer
370
18
48
1
60
1
100
AcDbPoint
10
-50
20
-10
30
0
39
0
210
0
220
0
230
1
50
360
0
POINT
5
7A
100
AcDbEntity
8
1
62
256
6
ByLayer
370
18
48
1
60
1
100
AcDbPoint
10
0
20
-10
30
0
39
0
210
0
220
0
230
1
50
360
0
POINT
5
7B
100
AcDbEntity
8
1
62
256
6
ByLayer
370
18
48
1
60
1
100
AcDbPoint
10
121.5
20
0
30
0
39
0
210
0
220
0
230
1
50
360
0
POINT
5
7C
100
AcDbEntity
8
1
62
256
6
ByLayer
370
18
48
1
60
1
100
AcDbPoint
10
24
20
8.5
30
0
39
0
210
0
220
0
230
1
50
360
0
SPLINE
5
C5
100
AcDbEntity
8
1
62
256
6
ByLayer
370
18
48
1
60
0
100
AcDbSpline
70
4
71
3
72
14
73
10
40
0
40
0
40
0
40
0
40
0.25
40
0.25
40
0.5
40
0.5
40
0.75
40
0.75
40
1
40
1
40
1
40
1
41
1
10
13.1341422412815
20
7.56532663604386
30
0
41
1
10
12.8680200961449
20
7.59944319465782
30
0
41
1
10
12.6034850589383
20
7.63331333905825
30
0
41
1
10
12.0769282649603
20
7.69930203475423
30
0
41
1
10
11.8149040385539
20
7.73142136472825
30
0
41
1
10
11.2929305419003
20
7.79297393780971
30
0
41
1
10
11.0329798326452
20
7.82241051997428
30
0
41
1
10
10.5150043982488
20
7.87792871770944
30
0
41
1
10
10.2569794948701
20
7.90401568751344
30
0
41
1
10
10
20
7.92815704335925
30
0
0
SPLINE
5
C6
100
AcDbEntity
8
1
62
256
6
ByLayer
370
18
48
1
60
0
100
AcDbSpline
70
4
71
3
72
22
73
18
40
0
40
0
40
0
40
0
40
0.124999999999994
40
0.124999999999994
40
0.187499999999991
40
0.187499999999991
40
0.249999999999988
40
0.249999999999988
40
0.499999999999992
40
0.499999999999992
40
0.749999999999996
40
0.749999999999996
40
0.812499999999995
40
0.812499999999995
40
0.874999999999994
40
0.874999999999994
40
1
40
1
40
1
40
1
41
1
10
118.406253008747
20
-1.21520352005271
30
0
41
1
10
118.026126082076
20
-1.07866467929486
30
0
41
1
10
117.646254732653
20
-0.941591037069202
30
0
41
1
10
117.076880015502
20
-0.735044170587855
30
0
41
1
10
116.887160105134
20
-0.666040264900658
30
0
41
1
10
116.507870654471
20
-0.527703663931788
30
0
41
1
10
116.318306938604
20
-0.458354911261807
30
0
41
1
10
115.370389689437
20
-0.112107230532302
30
0
41
1
10
114.61180820049
20
0.163496696836631
30
0
41
1
10
113.09453329274
20
0.713010089185701
30
0
41
1
10
112.335829595861
20
0.986891417092437
30
0
41
1
10
111.387674086975
20
1.32897856223656
30
0
41
1
10
111.198062520596
20
1.3974054365323
30
0
41
1
10
110.818818390289
20
1.53411239269604
30
0
41
1
10
110.629158490538
20
1.60231746509089
30
0
41
1
10
110.0599034632
20
1.80604465060341
30
0
41
1
10
109.680091475534
20
1.94083929958592
30
0
41
1
10
109.3
20
2.07469209788519
30
0
0
SPLINE
5
C7
100
AcDbEntity
8
1
62
256
6
ByLayer
370
18
48
1
60
0
100
AcDbSpline
70
4
71
3
72
85
73
81
40
0
40
0
40
0
40
0
40
0.031249999999994
40
0.031249999999994
40
0.0624999999999881
40
0.0624999999999881
40
0.124999999999978
40
0.124999999999978
40
0.140624999999976
40
0.140624999999976
40
0.156249999999973
40
0.156249999999973
40
0.187499999999971
40
0.187499999999971
40
0.249999999999965
40
0.249999999999965
40
0.281249999999962
40
0.281249999999962
40
0.29687499999996
40
0.29687499999996
40
0.312499999999958
40
0.312499999999958
40
0.343749999999954
40
0.343749999999954
40
0.374999999999949
40
0.374999999999949
40
0.406249999999945
40
0.406249999999945
40
0.437499999999941
40
0.437499999999941
40
0.44531249999994
40
0.44531249999994
40
0.45312499999994
40
0.46874999999994
40
0.46874999999994
40
0.499999999999939
40
0.499999999999939
40
0.531249999999938
40
0.531249999999938
40
0.539062499999938
40
0.539062499999938
40
0.546874999999938
40
0.562499999999938
40
0.562499999999938
40
0.593749999999938
40
0.593749999999938
40
0.624999999999938
40
0.624999999999938
40
0.632812499999938
40
0.632812499999938
40
0.640624999999938
40
0.656249999999938
40
0.656249999999938
40
0.687499999999938
40
0.687499999999938
40
0.718749999999939
40
0.718749999999939
40
0.726562499999939
40
0.726562499999939
40
0.73437499999994
40
0.73437499999994
40
0.749999999999943
40
0.749999999999943
40
0.781249999999947
40
0.781249999999947
40
0.812499999999951
40
0.843749999999955
40
0.843749999999955
40
0.851562499999957
40
0.851562499999957
40
0.859374999999958
40
0.874999999999963
40
0.874999999999963
40
0.906249999999972
40
0.937499999999981
40
0.968749999999991
40
0.968749999999991
40
0.984374999999995
40
0.984374999999995
40
1
40
1
40
1
40
1
41
1
10
118.406253008737
20
8.23010343793456
30
0
41
1
10
118.459339217725
20
8.09848566803063
30
0
41
1
10
118.512508532881
20
7.96488898176506
30
0
41
1
10
118.619104224998
20
7.69404819035111
30
0
41
1
10
118.67253051078
20
7.55680338698886
30
0
41
1
10
118.833290554843
20
7.13993340574595
30
0
41
1
10
118.941120291621
20
6.85520175569403
30
0
41
1
10
119.076843728685
20
6.49139062609032
30
0
41
1
10
119.104034044961
20
6.41823121766359
30
0
41
1
10
119.158503539205
20
6.27112438940807
30
0
41
1
10
119.185793445478
20
6.19714686830696
30
0
41
1
10
119.267300839945
20
5.97536944060644
30
0
41
1
10
119.321320776254
20
5.82728799244546
30
0
41
1
10
119.482357588588
20
5.38234864580377
30
0
41
1
10
119.58840256404
20
5.08481458143157
30
0
41
1
10
119.744482485466
20
4.63684316658782
30
0
41
1
10
119.796000617409
20
4.48723700689735
30
0
41
1
10
119.872228606379
20
4.26230404627864
30
0
41
1
10
119.897461665335
20
4.18723857342692
30
0
41
1
10
119.947506797416
20
4.03690756856091
30
0
41
1
10
119.972323511931
20
3.96162566028437
30
0
41
1
10
120.045661453113
20
3.73652580663097
30
0
41
1
10
120.093203836854
20
3.58709552933777
30
0
41
1
10
120.184719646842
20
3.28926486442896
30
0
41
1
10
120.228699093514
20
3.14086544559891
30
0
41
1
10
120.311752896426
20
2.84479034559368
30
0
41
1
10
120.350834311749
20
2.69711529070409
30
0
41
1
10
120.422079437186
20
2.40209120196266
30
0
41
1
10
120.454246388291
20
2.25474098739198
30
0
41
1
10
120.488338516819
20
2.07045165487588
30
0
41
1
10
120.494854206807
20
2.0335570597166
30
0
41
1
10
120.507192744364
20
1.9598934730804
30
0
41
1
10
120.524630385858
20
1.84978369391646
30
0
41
1
10
120.538669764793
20
1.74084570582073
30
0
41
1
10
120.561759801148
20
1.52459272058934
30
0
41
1
10
120.57045246687
20
1.38258061672278
30
0
41
1
10
120.572806586854
20
1.10337403201149
30
0
41
1
10
120.566454309076
20
0.966181848618561
30
0
41
1
10
120.549173275706
20
0.798149517086415
30
0
41
1
10
120.545248740123
20
0.764673351641392
30
0
41
1
10
120.536520013317
20
0.698280188800254
30
0
41
1
10
120.522140690984
20
0.599748336736582
30
0
41
1
10
120.504125323185
20
0.504351079264296
30
0
41
1
10
120.463850986635
20
0.317634737817514
30
0
41
1
10
120.431366511384
20
0.198587156807662
30
0
41
1
10
120.358055463387
20
-0.0290722507612884
30
0
41
1
10
120.317235089586
20
-0.137687156792737
30
0
41
1
10
120.262351080014
20
-0.267032349842879
30
0
41
1
10
120.25116818897
20
-0.292604014164311
30
0
41
1
10
120.228492110343
20
-0.342983973141202
30
0
41
1
10
120.194053059408
20
-0.417321833897063
30
0
41
1
10
120.158470978666
20
-0.488035938346996
30
0
41
1
10
120.086058940277
20
-0.624777317834798
30
0
41
1
10
120.036136885272
20
-0.709702162854143
30
0
41
1
10
119.933965952496
20
-0.867494820681344
30
0
41
1
10
119.881710181476
20
-0.940360376903868
30
0
41
1
10
119.815250300814
20
-1.02391736675818
30
0
41
1
10
119.801900471456
20
-1.04025163350298
30
0
41
1
10
119.77509006459
20
-1.07216275441121
30
0
41
1
10
119.761623787254
20
-1.08774497291986
30
0
41
1
10
119.721242793559
20
-1.13315473011556
30
0
41
1
10
119.694289352946
20
-1.1617158800714
30
0
41
1
10
119.613372875012
20
-1.24237801496966
30
0
41
1
10
119.559357698531
20
-1.28946803152166
30
0
41
1
10
119.451283853731
20
-1.37061358135321
30
0
41
1
10
119.343163923294
20
-1.43872195966441
30
0
41
1
10
119.234921453847
20
-1.48078970934918
30
0
41
1
10
119.1671757372
20
-1.49876792237129
30
0
41
1
10
119.153617564256
20
-1.501946847921
30
0
41
1
10
119.126614178303
20
-1.50744346165854
30
0
41
1
10
119.086232213401
20
-1.51440979087616
30
0
41
1
10
119.046206420845
20
-1.51758271913926
30
0
41
1
10
118.966594791011
20
-1.51895591390661
30
0
41
1
10
118.861618857903
20
-1.50754381789986
30
0
41
1
10
118.707122375194
20
-1.45140194887736
30
0
41
1
10
118.605740953874
20
-1.38790224625146
30
0
41
1
10
118.53017427654
20
-1.33028262905521
30
0
41
1
10
118.505144045981
20
-1.30946776624188
30
0
41
1
10
118.455449360114
20
-1.26470099445098
30
0
41
1
10
118.43077257032
20
-1.24073971859545
30
0
41
1
10
118.406253008737
20
-1.2152035200491
30
0
0
SPLINE
5
C8
100
AcDbEntity
8
1
62
256
6
ByLayer
370
18
48
1
60
0
100
AcDbSpline
70
4
71
3
72
16
73
12
40
0
40
0
40
0
40
0
40
0.228748419960238
40
0.228748419960238
40
0.32515486746521
40
0.32515486746521
40
0.421561314970182
40
0.421561314970182
40
0.614374209980125
40
0.614374209980125
40
1
40
1
40
1
40
1
41
1
10
112.503765176397
20
8.49894930205548
30
0
41
1
10
112.953844934996
20
8.49904335580447
30
0
41
1
10
113.403768414555
20
8.49442640452475
30
0
41
1
10
114.042972082928
20
8.48110532132779
30
0
41
1
10
114.232450431677
20
8.47630735432995
30
0
41
1
10
114.611315267646
20
8.46499383370406
30
0
41
1
10
114.800686919071
20
8.45847184280774
30
0
41
1
10
115.369014031265
20
8.43640929055846
30
0
41
1
10
115.748210477606
20
8.41839855654806
30
0
41
1
10
116.886433090322
20
8.35455970249967
30
0
41
1
10
117.646103975469
20
8.29897010478589
30
0
41
1
10
118.406253008747
20
8.23010343793365
30
0
0
SPLINE
5
C9
100
AcDbEntity
8
1
62
256
6
ByLayer
370
18
48
1
60
0
100
AcDbSpline
70
4
71
3
72
51
73
47
40
0
40
0
40
0
40
0
40
0.0635404750244519
40
0.0635404750244519
40
0.127080950048904
40
0.127080950048904
40
0.190621425073356
40
0.190621425073356
40
0.222391662585582
40
0.222391662585582
40
0.254161900097809
40
0.254161900097809
40
0.317702375122264
40
0.317702375122264
40
0.381242850146719
40
0.381242850146719
40
0.444783325171175
40
0.444783325171175
40
0.476553562683403
40
0.476553562683403
40
0.492438681439516
40
0.492438681439516
40
0.50832380019563
40
0.50832380019563
40
0.57186427522008
40
0.57186427522008
40
0.63540475024453
40
0.63540475024453
40
0.69894522526898
40
0.69894522526898
40
0.730715462781206
40
0.730715462781206
40
0.762485700293431
40
0.762485700293431
40
0.826026175317881
40
0.826026175317881
40
0.889566650342331
40
0.889566650342331
40
0.921336887854557
40
0.921336887854557
40
0.953107125366783
40
0.953107125366783
40
0.968992244122896
40
0.968992244122896
40
0.984877362879009
40
1
40
1
40
1
40
1
41
1
10
16.7941660956094
20
-4.55232359697715
30
0
41
1
10
17.2763499653697
20
-4.6919275436517
30
0
41
1
10
17.7585461532864
20
-4.82752360637082
30
0
41
1
10
18.7227444760847
20
-5.09148433703527
30
0
41
1
10
19.2047457913318
20
-5.21984981895059
30
0
41
1
10
20.1683535152789
20
-5.46987808668686
30
0
41
1
10
20.6499586613557
20
-5.59154335078588
30
0
41
1
10
21.3719222194621
20
-5.76926107181677
30
0
41
1
10
21.6125032538123
20
-5.82770096831683
30
0
41
1
10
22.0934993503677
20
-5.94299467873961
30
0
41
1
10
22.3338818593865
20
-5.99990822356261
30
0
41
1
10
23.0553759764568
20
-6.1670858577946
30
0
41
1
10
23.5367674361362
20
-6.27394665848448
30
0
41
1
10
24.5000010364503
20
-6.47929960230158
30
0
41
1
10
24.9818577178593
20
-6.57776223022046
30
0
41
1
10
25.9458630028639
20
-6.76658446689416
30
0
41
1
10
26.4280055080361
20
-6.85695426511455
30
0
41
1
10
27.1513012230661
20
-6.98652431052329
30
0
41
1
10
27.3924371720367
20
-7.02874189377877
30
0
41
1
10
27.7540798692851
20
-7.09045696131605
30
0
41
1
10
27.8746010653079
20
-7.11074242731632
30
0
41
1
10
28.1156579649392
20
-7.15064857583178
30
0
41
1
10
28.2361887118543
20
-7.1702768082711
30
0
41
1
10
28.8388397278753
20
-7.26682943159199
30
0
41
1
10
29.3209400140285
20
-7.33901632698365
30
0
41
1
10
30.2848405435781
20
-7.47382849436804
30
0
41
1
10
30.7666540890048
20
-7.5364356957902
30
0
41
1
10
31.7298076578165
20
-7.65226582986375
30
0
41
1
10
32.2111425393299
20
-7.70549303696669
30
0
41
1
10
32.9326565368978
20
-7.77825362990603
30
0
41
1
10
33.1730419000096
20
-7.80135047476028
30
0
41
1
10
33.6540194768902
20
-7.84486992544851
30
0
41
1
10
33.8946123946912
20
-7.86529915356289
30
0
41
1
10
34.6166306354936
20
-7.92270609734572
30
0
41
1
10
35.0982831494843
20
-7.95581808271626
30
0
41
1
10
36.0619889279885
20
-8.01195845255145
30
0
41
1
10
36.5440485373369
20
-8.03498369088555
30
0
41
1
10
37.2672958827267
20
-8.06193733265408
30
0
41
1
10
37.5084046529733
20
-8.06965571891661
30
0
41
1
10
37.9906567710355
20
-8.08253121377317
30
0
41
1
10
38.2318472094888
20
-8.08769045643294
30
0
41
1
10
38.5934596565946
20
-8.09346702191988
30
0
41
1
10
38.7139669803191
20
-8.0950641414523
30
0
41
1
10
38.9549929794483
20
-8.09759680174801
30
0
41
1
10
39.1902405976864
20
-8.09942434455675
30
0
41
1
10
39.4254893825576
20
-8.10000868774455
30
0
41
1
10
39.5402192636376
20
-8.09999998584871
30
0
0
SPLINE
5
CA
100
AcDbEntity
8
1
62
256
6
ByLayer
370
18
48
1
60
0
100
AcDbSpline
70
4
71
3
72
32
73
28
40
0
40
0
40
0
40
0
40
0.0611308313846052
40
0.0611308313846052
40
0.165449627897423
40
0.165449627897423
40
0.217609026153832
40
0.217609026153832
40
0.26976842441024
40
0.26976842441024
40
0.374087220923063
40
0.374087220923063
40
0.478406017435885
40
0.478406017435885
40
0.582724813948708
40
0.582724813948708
40
0.63488421220512
40
0.63488421220512
40
0.687043610461532
40
0.687043610461532
40
0.791362406974354
40
0.791362406974354
40
0.895681203487177
40
0.895681203487177
40
0.947840601743588
40
0.947840601743588
40
1
40
1
40
1
40
1
41
1
10
95.4374391494767
20
5.93756375170125
30
0
41
1
10
95.7199191054877
20
6.00390666855017
30
0
41
1
10
96.0023861908698
20
6.06893722251701
30
0
41
1
10
96.7667913820282
20
6.24149530774187
30
0
41
1
10
97.2486614639384
20
6.3465997054773
30
0
41
1
10
97.9711840262545
20
6.49883211941372
30
0
41
1
10
98.2119505965642
20
6.54871601871031
30
0
41
1
10
98.6935324680328
20
6.64639909964541
30
0
41
1
10
98.934432496879
20
6.69405692359794
30
0
41
1
10
99.6575365002334
20
6.83339838365148
30
0
41
1
10
100.140084654159
20
6.92158432514026
30
0
41
1
10
101.105794144015
20
7.08902493888812
30
0
41
1
10
101.588413284013
20
7.16816601093456
30
0
41
1
10
102.55297606599
20
7.3175605242885
30
0
41
1
10
103.034915477559
20
7.38781828031111
30
0
41
1
10
103.757187442736
20
7.4865298657416
30
0
41
1
10
103.997829153645
20
7.51832334515845
30
0
41
1
10
104.479342311741
20
7.57919533786387
30
0
41
1
10
104.720176721343
20
7.60832004837258
30
0
41
1
10
105.442841664563
20
7.69188816521444
30
0
41
1
10
105.924824186442
20
7.74254124041346
30
0
41
1
10
106.889003195536
20
7.83400617782985
30
0
41
1
10
107.37120291264
20
7.87481586772961
30
0
41
1
10
108.094512940638
20
7.92867522260917
30
0
41
1
10
108.335618292301
20
7.9454002249461
30
0
41
1
10
108.817814957354
20
7.97637099494838
30
0
41
1
10
109.058882089291
20
7.99062722359122
30
0
41
1
10
109.3
20
8.00359586238275
30
0
0
SPLINE
5
CB
100
AcDbEntity
8
1
62
256
6
ByLayer
370
18
48
1
60
0
100
AcDbSpline
70
4
71
3
72
66
73
62
40
0
40
0
40
0
40
0
40
0.0479570307813667
40
0.0479570307813667
40
0.0959140615627334
40
0.0959140615627334
40
0.119892576953416
40
0.119892576953416
40
0.143871092344098
40
0.143871092344098
40
0.191828123125462
40
0.191828123125462
40
0.239785153906826
40
0.239785153906826
40
0.287742184688191
40
0.287742184688191
40
0.311720700078873
40
0.311720700078873
40
0.335699215469555
40
0.335699215469555
40
0.359677730860237
40
0.359677730860237
40
0.383656246250919
40
0.383656246250919
40
0.431613277032286
40
0.431613277032286
40
0.455591792422969
40
0.455591792422969
40
0.479570307813653
40
0.479570307813653
40
0.52752733859502
40
0.52752733859502
40
0.575484369376386
40
0.575484369376386
40
0.623441400157753
40
0.623441400157753
40
0.647419915548437
40
0.647419915548437
40
0.671398430939122
40
0.671398430939122
40
0.695376946329807
40
0.695376946329807
40
0.719355461720491
40
0.719355461720491
40
0.76731249250186
40
0.76731249250186
40
0.791291007892544
40
0.791291007892544
40
0.815269523283227
40
0.815269523283227
40
0.83924803867391
40
0.83924803867391
40
0.863226554064593
40
0.863226554064593
40
0.91118358484596
40
0.91118358484596
40
0.959140615627327
40
0.959140615627327
40
0.983119131018009
40
0.983119131018009
40
1
40
1
40
1
40
1
41
1
10
109.3
20
1.8412243924204
30
0
41
1
10
108.798099342138
20
2.01044283748036
30
0
41
1
10
108.296486086181
20
2.17795456142807
30
0
41
1
10
107.293914746253
20
2.50983085553654
30
0
41
1
10
106.792959187532
20
2.67420291371505
30
0
41
1
10
106.042108746315
20
2.91861646168238
30
0
41
1
10
105.791939065758
20
2.99977413674529
30
0
41
1
10
105.29171248114
20
3.16113939839283
30
0
41
1
10
105.041590478858
20
3.24117169862396
30
0
41
1
10
104.291079390758
20
3.47901967885741
30
0
41
1
10
103.790600446946
20
3.63473838574475
30
0
41
1
10
102.789454996448
20
3.94077722225077
30
0
41
1
10
102.288785775001
20
4.09109051499129
30
0
41
1
10
101.28735418384
20
4.38653684146448
30
0
41
1
10
100.786606265052
20
4.53170509469214
30
0
41
1
10
100.035460488446
20
4.74560356209764
30
0
41
1
10
99.7850296409918
20
4.81615034383395
30
0
41
1
10
99.2838358424373
20
4.95518654583535
30
0
41
1
10
99.0331027209895
20
5.023748191192
30
0
41
1
10
98.5313781396906
20
5.15900065880254
30
0
41
1
10
98.2803981069159
20
5.22568790045872
30
0
41
1
10
97.7787123127131
20
5.35708492086812
30
0
41
1
10
97.5279414215566
20
5.42181247907567
30
0
41
1
10
96.7758597648267
20
5.61312708234084
30
0
41
1
10
96.2747779100995
20
5.73684741245285
30
0
41
1
10
95.5237051141264
20
5.91684241045223
30
0
41
1
10
95.2734387573325
20
5.97590751036614
30
0
41
1
10
94.7731007547051
20
6.09217364153244
30
0
41
1
10
94.5230389707726
20
6.149389381226
30
0
41
1
10
93.7726542548576
20
6.31729679505091
30
0
41
1
10
93.2722375628799
20
6.42446952750211
30
0
41
1
10
92.2711789555182
20
6.62960215808641
30
0
41
1
10
91.7705346864351
20
6.72755778481479
30
0
41
1
10
90.769105973218
20
6.91439403364907
30
0
41
1
10
90.2683263451385
20
7.00328275299174
30
0
41
1
10
89.5171335151664
20
7.12981309495899
30
0
41
1
10
89.2667626561549
20
7.17089440367789
30
0
41
1
10
88.765780011617
20
7.2504439064395
30
0
41
1
10
88.5151473333144
20
7.28888787764993
30
0
41
1
10
88.0136117929535
20
7.36315151484052
30
0
41
1
10
87.762645671718
20
7.39898018701416
30
0
41
1
10
87.2608890139858
20
7.46798219986965
30
0
41
1
10
87.0100781523421
20
7.5011589414039
30
0
41
1
10
86.25786204771
20
7.59675484884588
30
0
41
1
10
85.7566705136547
20
7.65524372659999
30
0
41
1
10
85.0053943415759
20
7.73517859709878
30
0
41
1
10
84.7550551710725
20
7.76052300092405
30
0
41
1
10
84.254560784224
20
7.80859897681182
30
0
41
1
10
84.0044256897857
20
7.83134445533565
30
0
41
1
10
83.5042398857926
20
7.87412073888297
30
0
41
1
10
83.2541250478373
20
7.89410705648118
30
0
41
1
10
82.7537961995445
20
7.93126976049257
30
0
41
1
10
82.5035923144625
20
7.9484534822557
30
0
41
1
10
81.7528816459248
20
7.99585622661704
30
0
41
1
10
81.2522741818481
20
8.02193191637704
30
0
41
1
10
80.2508765244384
20
8.06310876340629
30
0
41
1
10
79.7500871207235
20
8.0782113028242
30
0
41
1
10
78.9988516771618
20
8.09254416781621
30
0
41
1
10
78.7484363560866
20
8.09593338018749
30
0
41
1
10
78.3216987740993
20
8.09930977080586
30
0
41
1
10
78.1453618651201
20
8.10000399533067
30
0
41
1
10
77.9689566414535
20
8.09999959208929
30
0
0
SPLINE
5
CC
100
AcDbEntity
8
1
62
256
6
ByLayer
370
18
48
1
60
0
100
AcDbSpline
70
4
71
3
72
20
73
16
40
0
40
0
40
0
40
0
40
0.159663839976767
40
0.159663839976767
40
0.327731071981412
40
0.327731071981412
40
0.411764687983737
40
0.411764687983737
40
0.495798303986062
40
0.495798303986062
40
0.663865535990708
40
0.663865535990708
40
0.831932767995354
40
0.831932767995354
40
1
40
1
40
1
40
1
41
1
10
22.0674081450382
20
-5.93887134939547
30
0
41
1
10
21.5919287913371
20
-6.05075868972688
30
0
41
1
10
21.1165576387978
20
-6.15877678445486
30
0
41
1
10
20.141093985709
20
-6.37273152726505
30
0
41
1
10
19.6410211999898
20
-6.47826739281422
30
0
41
1
10
18.8912419585035
20
-6.63034565170068
30
0
41
1
10
18.6413974444279
20
-6.68004219424441
30
0
41
1
10
18.1416499114719
20
-6.77705680253004
30
0
41
1
10
17.8916986379795
20
-6.82429927692507
30
0
41
1
10
17.1416087479651
20
-6.96226286511222
30
0
41
1
10
16.6412452872385
20
-7.049243290698
30
0
41
1
10
15.6399986742533
20
-7.21342461567821
30
0
41
1
10
15.1391140478863
20
-7.29062385759684
30
0
41
1
10
14.1369161615448
20
-7.43529297629621
30
0
41
1
10
13.63560350321
20
-7.50276522554722
30
0
41
1
10
13.1341422412816
20
-7.56532663604312
30
0
0
SPLINE
5
CD
100
AcDbEntity
8
1
62
256
6
ByLayer
370
18
48
1
60
0
100
AcDbSpline
70
4
71
3
72
14
73
10
40
0
40
0
40
0
40
0
40
0.177706691200632
40
0.177706691200632
40
0.355413382401264
40
0.355413382401264
40
0.710826764802527
40
0.710826764802527
40
1
40
1
40
1
40
1
41
1
10
109.3
20
-8.41855059237068
30
0
41
1
10
109.489813752286
20
-8.42810490750657
30
0
41
1
10
109.679594627504
20
-8.43679987499286
30
0
41
1
10
110.059208384311
20
-8.45245196624538
30
0
41
1
10
110.24902252378
20
-8.45941663699551
30
0
41
1
10
110.818451153533
20
-8.47776728228345
30
0
41
1
10
111.198046000456
20
-8.48661401144884
30
0
41
1
10
111.886355638398
20
-8.49660456175516
30
0
41
1
10
112.195097257928
20
-8.49888480026914
30
0
41
1
10
112.50376537441
20
-8.49894930209689
30
0
0
SPLINE
5
CE
100
AcDbEntity
8
1
62
256
6
ByLayer
370
18
48
1
60
0
100
AcDbSpline
70
4
71
3
72
175
73
171
40
0
40
0
40
0
40
0
40
0.005815971764978
40
0.005815971764978
40
0.0223857055688942
40
0.0223857055688942
40
0.0389554393728104
40
0.0389554393728104
40
0.0555251731767267
40
0.0555251731767267
40
0.0638100400786848
40
0.0638100400786848
40
0.0679524735296641
40
0.0679524735296641
40
0.0720949069806433
40
0.0720949069806433
40
0.0886646407845596
40
0.0886646407845596
40
0.105234374588476
40
0.105234374588476
40
0.121804108392392
40
0.121804108392392
40
0.13008897529435
40
0.13008897529435
40
0.138373842196308
40
0.138373842196308
40
0.154943576000225
40
0.154943576000225
40
0.171513309804141
40
0.171513309804141
40
0.179798176706099
40
0.179798176706099
40
0.188083043608057
40
0.188083043608057
40
0.192225477059037
40
0.192225477059037
40
0.196367910510016
40
0.204652777411974
40
0.204652777411974
40
0.221222511215893
40
0.221222511215893
40
0.23779224501981
40
0.23779224501981
40
0.24607711192177
40
0.24607711192177
40
0.254361978823729
40
0.254361978823729
40
0.270931712627647
40
0.270931712627647
40
0.287501446431566
40
0.287501446431566
40
0.304071180235485
40
0.304071180235485
40
0.312356047137445
40
0.312356047137445
40
0.316498480588425
40
0.316498480588425
40
0.320640914039405
40
0.320640914039405
40
0.337210647843325
40
0.337210647843325
40
0.353780381647245
40
0.353780381647245
40
0.370350115451165
40
0.370350115451165
40
0.378634982353125
40
0.378634982353125
40
0.386919849255085
40
0.386919849255085
40
0.403489583059006
40
0.403489583059006
40
0.420059316862927
40
0.420059316862927
40
0.428344183764887
40
0.428344183764887
40
0.436629050666848
40
0.436629050666848
40
0.440771484117828
40
0.440771484117828
40
0.444913917568808
40
0.444913917568808
40
0.453198784470767
40
0.453198784470767
40
0.469768518274685
40
0.469768518274685
40
0.486338252078604
40
0.486338252078604
40
0.494623118980563
40
0.494623118980563
40
0.502907985882522
40
0.502907985882522
40
0.51947771968644
40
0.51947771968644
40
0.536047453490357
40
0.536047453490357
40
0.552617187294275
40
0.552617187294275
40
0.560902054196234
40
0.560902054196234
40
0.569186921098193
40
0.569186921098193
40
0.585756654902111
40
0.585756654902111
40
0.602326388706029
40
0.602326388706029
40
0.618896122509947
40
0.618896122509947
40
0.627180989411905
40
0.627180989411905
40
0.635465856313864
40
0.635465856313864
40
0.65203559011778
40
0.65203559011778
40
0.668605323921696
40
0.668605323921696
40
0.676890190823655
40
0.676890190823655
40
0.685175057725613
40
0.685175057725613
40
0.693459924627571
40
0.693459924627571
40
0.701744791529529
40
0.701744791529529
40
0.718314525333445
40
0.718314525333445
40
0.734884259137361
40
0.734884259137361
40
0.743169126039319
40
0.743169126039319
40
0.751453992941277
40
0.751453992941277
40
0.759738859843234
40
0.759738859843234
40
0.768023726745192
40
0.768023726745192
40
0.784593460549107
40
0.784593460549107
40
0.801163194353021
40
0.801163194353021
40
0.809448061254979
40
0.809448061254979
40
0.817732928156937
40
0.817732928156937
40
0.834302661960852
40
0.834302661960852
40
0.850872395764767
40
0.850872395764767
40
0.867442129568683
40
0.867442129568683
40
0.875726996470641
40
0.875726996470641
40
0.884011863372598
40
0.884011863372598
40
0.900581597176513
40
0.900581597176513
40
0.917151330980427
40
0.917151330980427
40
0.933721064784342
40
0.933721064784342
40
0.942005931686299
40
0.942005931686299
40
0.950290798588256
40
0.950290798588256
40
0.966860532392171
40
0.966860532392171
40
0.983430266196086
40
0.983430266196086
40
0.991715133098043
40
0.991715133098043
40
1
40
1
40
1
40
1
41
1
10
22.0679823090727
20
5.93667682486955
30
0
41
1
10
22.2367778638614
20
5.97680974743696
30
0
41
1
10
22.4055504143584
20
6.01651456751688
30
0
41
1
10
23.0553759764568
20
6.16708585779463
30
0
41
1
10
23.5367674361362
20
6.27394665848448
30
0
41
1
10
24.5000010364504
20
6.47929960230158
30
0
41
1
10
24.9818577178593
20
6.57776223022046
30
0
41
1
10
25.9458630028638
20
6.76658446689419
30
0
41
1
10
26.4280055080361
20
6.85695426511455
30
0
41
1
10
27.1513012230661
20
6.98652431052332
30
0
41
1
10
27.3924371720368
20
7.0287418937788
30
0
41
1
10
27.7540798692852
20
7.09045696131605
30
0
41
1
10
27.8746010653079
20
7.11074242731632
30
0
41
1
10
28.1156579649392
20
7.15064857583178
30
0
41
1
10
28.2361887118543
20
7.17027680827113
30
0
41
1
10
28.8388397278754
20
7.26682943159199
30
0
41
1
10
29.3209400140285
20
7.33901632698368
30
0
41
1
10
30.284840543578
20
7.47382849436804
30
0
41
1
10
30.7666540890047
20
7.5364356957902
30
0
41
1
10
31.7298076578166
20
7.65226582986375
30
0
41
1
10
32.2111425393298
20
7.70549303696669
30
0
41
1
10
32.9326565368978
20
7.77825362990603
30
0
41
1
10
33.1730419000095
20
7.80135047476031
30
0
41
1
10
33.6540194768902
20
7.84486992544851
30
0
41
1
10
33.8946123946911
20
7.86529915356289
30
0
41
1
10
34.6166306354935
20
7.92270609734572
30
0
41
1
10
35.0982831494842
20
7.95581808271623
30
0
41
1
10
36.0619889279884
20
8.01195845255145
30
0
41
1
10
36.5440485373369
20
8.03498369088558
30
0
41
1
10
37.2672958827268
20
8.06193733265408
30
0
41
1
10
37.5084046529734
20
8.06965571891661
30
0
41
1
10
37.9906567710355
20
8.08253121377319
30
0
41
1
10
38.2318472094888
20
8.08769045643294
30
0
41
1
10
38.5934596565945
20
8.09346702191988
30
0
41
1
10
38.7139669803191
20
8.0950641414523
30
0
41
1
10
38.9549929794483
20
8.09759680174804
30
0
41
1
10
39.3165415256522
20
8.10040552495877
30
0
41
1
10
39.6780928274618
20
8.1002777912216
30
0
41
1
10
40.4011323027785
20
8.09616306150801
30
0
41
1
10
40.8830746681779
20
8.08828051498949
30
0
41
1
10
41.8466143055415
20
8.06231931793351
30
0
41
1
10
42.3282092497884
20
8.04424070108217
30
0
41
1
10
43.0501858149222
20
8.00934182257359
30
0
41
1
10
43.2907760068213
20
7.99641018173773
30
0
41
1
10
43.771800053304
20
7.96790692249667
30
0
41
1
10
44.0121931254024
20
7.95230872690078
30
0
41
1
10
44.7336354280516
20
7.90179250919007
30
0
41
1
10
45.2150225300777
20
7.86323516000289
30
0
41
1
10
46.1782941480142
20
7.77637590390319
30
0
41
1
10
46.6601922268792
20
7.72807936843697
30
0
41
1
10
47.6243273746687
20
7.62160334295606
30
0
41
1
10
48.1065585670082
20
7.56341855288809
30
0
41
1
10
48.8300201465555
20
7.46842372679998
30
0
41
1
10
49.0712474366087
20
7.43545382493485
30
0
41
1
10
49.4328318550655
20
7.38409201094728
30
0
41
1
10
49.5533269775901
20
7.36666022445235
30
0
41
1
10
49.7943221595833
20
7.33126347652518
30
0
41
1
10
49.9148237593686
20
7.31330092690905
30
0
41
1
10
50.5173378253131
20
7.22216340805613
30
0
41
1
10
50.9993572910635
20
7.14501011623139
30
0
41
1
10
51.9631383535187
20
6.98203591561966
30
0
41
1
10
52.4449141697178
20
6.89623307405884
30
0
41
1
10
53.4080391645606
20
6.71570061715042
30
0
41
1
10
53.889382724194
20
6.62096148701298
30
0
41
1
10
54.6109417225661
20
6.47179941073273
30
0
41
1
10
54.8513456679515
20
6.42082845907211
30
0
41
1
10
55.3322926403532
20
6.31702601851353
30
0
41
1
10
55.5728763295595
20
6.26427269304827
30
0
41
1
10
56.2948892238299
20
6.10338175764397
30
0
41
1
10
56.7765650235671
20
5.99259082012279
30
0
41
1
10
57.7403588240072
20
5.76361182109721
30
0
41
1
10
58.222485070348
20
5.64544005869905
30
0
41
1
10
58.9458670469253
20
5.46228265486525
30
0
41
1
10
59.1870263299625
20
5.4002448148446
30
0
41
1
10
59.6693901484446
20
5.27412978302397
30
0
41
1
10
59.9106365263566
20
5.21003077568525
30
0
41
1
10
60.2721953545635
20
5.11242393512188
30
0
41
1
10
60.3926795593261
20
5.07965322473439
30
0
41
1
10
60.6336453874687
20
5.01379985769958
30
0
41
1
10
60.7541319628202
20
4.98072894886863
30
0
41
1
10
61.1155996586702
20
4.88108124507391
30
0
41
1
10
61.3565863152901
20
4.81406418164735
30
0
41
1
10
62.0795034867903
20
4.61112514657918
30
0
41
1
10
62.5613873150575
20
4.47330898219505
30
0
41
1
10
63.5248538398185
20
4.1922487965177
30
0
41
1
10
64.0064358200836
20
4.04900327822222
30
0
41
1
10
64.7284264173317
20
3.8296357311288
30
0
41
1
10
64.9690267579909
20
3.75576371784456
30
0
41
1
10
65.4500819192985
20
3.60645621091504
30
0
41
1
10
65.6904984090223
20
3.53091902676783
30
0
41
1
10
66.4119030149694
20
3.3029188461027
30
0
41
1
10
66.8932834732578
20
3.14970686649653
30
0
41
1
10
67.8566003858553
20
2.8400935463732
30
0
41
1
10
68.3385432608034
20
2.68370761488674
30
0
41
1
10
69.3028139520075
20
2.36727870648781
30
0
41
1
10
69.785136320826
20
2.20722067048098
30
0
41
1
10
70.5087669363866
20
1.96391687440229
30
0
41
1
10
70.75001445589
20
1.88227139733274
30
0
41
1
10
71.2320620345915
20
1.7180354449853
30
0
41
1
10
71.4729582244977
20
1.63552909004247
30
0
41
1
10
72.1958127074751
20
1.38843718176716
30
0
41
1
10
72.6777530226147
20
1.22374572382776
30
0
41
1
10
73.6414186175488
20
0.89359830880511
30
0
41
1
10
74.1231586964047
20
0.72818528032812
30
0
41
1
10
75.0862591287377
20
0.396116307845972
30
0
41
1
10
75.5676135176169
20
0.229443020340653
30
0
41
1
10
76.2892208139871
20
-0.0219068367211719
30
0
41
1
10
76.5296511756526
20
-0.106014436580693
30
0
41
1
10
77.0105811175191
20
-0.274063873736907
30
0
41
1
10
77.251151278384
20
-0.357800256876431
30
0
41
1
10
77.9731611041917
20
-0.608190756063323
30
0
41
1
10
78.4548622971307
20
-0.77413617545227
30
0
41
1
10
79.4187482039841
20
-1.10475835817132
30
0
41
1
10
79.9009429267425
20
-1.26940596976729
30
0
41
1
10
80.6244623889087
20
-1.51582113576239
30
0
41
1
10
80.8656731781797
20
-1.59786760695164
30
0
41
1
10
81.3481506727853
20
-1.76183361920283
30
0
41
1
10
81.5893812023864
20
-1.84374115728835
30
0
41
1
10
82.0714011940369
20
-2.00730534538928
30
0
41
1
10
82.3122676405439
20
-2.08891990170619
30
0
41
1
10
82.7941170716537
20
-2.250667375331
30
0
41
1
10
83.0350569742757
20
-2.33092594483097
30
0
41
1
10
83.7578542941949
20
-2.57007513634039
30
0
41
1
10
84.2396822293529
20
-2.72736197434676
30
0
41
1
10
85.2030797581457
20
-3.03820933835638
30
0
41
1
10
85.6846507124963
20
-3.19176636679396
30
0
41
1
10
86.4066585730042
20
-3.41969275195498
30
0
41
1
10
86.6472701408871
20
-3.49526474929255
30
0
41
1
10
87.1283585793209
20
-3.64563846874483
30
0
41
1
10
87.3688038494777
20
-3.72052105211716
30
0
41
1
10
87.8497314402847
20
-3.8690566721942
30
0
41
1
10
88.0902933853622
20
-3.94250631542889
30
0
41
1
10
88.5716327999089
20
-4.08773844501081
30
0
41
1
10
88.8123991069278
20
-4.15954960487048
30
0
41
1
10
89.5349237589907
20
-4.37274601682091
30
0
41
1
10
90.0169134945943
20
-4.511882954171
30
0
41
1
10
90.9813234787438
20
-4.78462946926024
30
0
41
1
10
91.4637389176521
20
-4.91825090219905
30
0
41
1
10
92.1875415235886
20
-5.11481345640496
30
0
41
1
10
92.4287465828387
20
-5.17966075979871
30
0
41
1
10
92.9108030566002
20
-5.30797013389457
30
0
41
1
10
93.1516898674349
20
-5.37142909977158
30
0
41
1
10
93.8745872087451
20
-5.5582841919024
30
0
41
1
10
94.3566618487765
20
-5.67856340722696
30
0
41
1
10
95.3207859149855
20
-5.91138504022263
30
0
41
1
10
95.8028505064497
20
-6.02389370889904
30
0
41
1
10
96.7667913820281
20
-6.24149530774187
30
0
41
1
10
97.2486614639383
20
-6.3465997054773
30
0
41
1
10
97.9711840262544
20
-6.49883211941369
30
0
41
1
10
98.2119505965642
20
-6.54871601871031
30
0
41
1
10
98.6935324680327
20
-6.64639909964541
30
0
41
1
10
98.9344324968789
20
-6.69405692359794
30
0
41
1
10
99.6575365002334
20
-6.83339838365148
30
0
41
1
10
100.140084654159
20
-6.92158432514023
30
0
41
1
10
101.105794144015
20
-7.08902493888812
30
0
41
1
10
101.588413284013
20
-7.16816601093456
30
0
41
1
10
102.55297606599
20
-7.31756052428847
30
0
41
1
10
103.034915477559
20
-7.38781828031111
30
0
41
1
10
103.757187442736
20
-7.4865298657416
30
0
41
1
10
103.997829153645
20
-7.51832334515845
30
0
41
1
10
104.47934231174
20
-7.57919533786384
30
0
41
1
10
104.720176721343
20
-7.60832004837255
30
0
41
1
10
105.442841664563
20
-7.69188816521444
30
0
41
1
10
105.924824186442
20
-7.74254124041346
30
0
41
1
10
106.889003195536
20
-7.83400617782985
30
0
41
1
10
107.37120291264
20
-7.87481586772958
30
0
41
1
10
108.094512940638
20
-7.92867522260917
30
0
41
1
10
108.335618292301
20
-7.94540022494607
30
0
41
1
10
108.817814957354
20
-7.97637099494838
30
0
41
1
10
109.058882089291
20
-7.99062722359122
30
0
41
1
10
109.3
20
-8.00359586238278
30
0
0
SPLINE
5
CF
100
AcDbEntity
8
1
62
256
6
ByLayer
370
18
48
1
60
0
100
AcDbSpline
70
4
71
3
72
158
73
154
40
0
40
0
40
0
40
0
40
0.0050387064740318
40
0.0050387064740318
40
0.0141667917357376
40
0.0141667917357376
40
0.0324229622591491
40
0.0324229622591491
40
0.0506791327825607
40
0.0506791327825607
40
0.0689353033059723
40
0.0689353033059723
40
0.0780633885676786
40
0.0780633885676786
40
0.0871914738293848
40
0.0871914738293848
40
0.096319559091091
40
0.096319559091091
40
0.105447644352797
40
0.105447644352797
40
0.12370381487621
40
0.12370381487621
40
0.132831900137916
40
0.132831900137916
40
0.141959985399623
40
0.141959985399623
40
0.15108807066133
40
0.15108807066133
40
0.160216155923037
40
0.160216155923037
40
0.17847232644645
40
0.17847232644645
40
0.196728496969863
40
0.196728496969863
40
0.205856582231569
40
0.205856582231569
40
0.214984667493276
40
0.214984667493276
40
0.224112752754982
40
0.224112752754982
40
0.233240838016688
40
0.233240838016688
40
0.251497008540102
40
0.251497008540102
40
0.269753179063515
40
0.269753179063515
40
0.278881264325222
40
0.278881264325222
40
0.288009349586929
40
0.288009349586929
40
0.306265520110343
40
0.306265520110343
40
0.324521690633757
40
0.324521690633757
40
0.333649775895464
40
0.333649775895464
40
0.34277786115717
40
0.34277786115717
40
0.351905946418877
40
0.351905946418877
40
0.361034031680584
40
0.361034031680584
40
0.379290202203997
40
0.379290202203997
40
0.397546372727411
40
0.397546372727411
40
0.406674457989117
40
0.406674457989117
40
0.415802543250823
40
0.415802543250823
40
0.434058713774236
40
0.434058713774236
40
0.452314884297648
40
0.452314884297648
40
0.470571054821061
40
0.470571054821061
40
0.479699140082767
40
0.479699140082767
40
0.488827225344474
40
0.488827225344474
40
0.507083395867887
40
0.507083395867887
40
0.5253395663913
40
0.5253395663913
40
0.534467651653006
40
0.534467651653006
40
0.543595736914712
40
0.543595736914712
40
0.561851907438124
40
0.561851907438124
40
0.580108077961536
40
0.580108077961536
40
0.598364248484948
40
0.598364248484948
40
0.607492333746654
40
0.607492333746654
40
0.61662041900836
40
0.61662041900836
40
0.634876589531772
40
0.634876589531772
40
0.653132760055183
40
0.653132760055183
40
0.662260845316889
40
0.662260845316889
40
0.671388930578594
40
0.671388930578594
40
0.689645101102006
40
0.689645101102006
40
0.707901271625417
40
0.707901271625417
40
0.726157442148829
40
0.726157442148829
40
0.735285527410535
40
0.735285527410535
40
0.74441361267224
40
0.74441361267224
40
0.753541697933946
40
0.753541697933946
40
0.762669783195652
40
0.762669783195652
40
0.780925953719063
40
0.780925953719063
40
0.799182124242475
40
0.799182124242475
40
0.808310209504181
40
0.808310209504181
40
0.817438294765886
40
0.817438294765886
40
0.835694465289297
40
0.835694465289297
40
0.844822550551003
40
0.844822550551003
40
0.853950635812709
40
0.853950635812709
40
0.863078721074415
40
0.863078721074415
40
0.872206806336121
40
0.872206806336121
40
0.890462976859532
40
0.890462976859532
40
0.908719147382943
40
0.908719147382943
40
0.926975317906354
40
0.926975317906354
40
0.93610340316806
40
0.93610340316806
40
0.945231488429765
40
0.945231488429765
40
0.963487658953177
40
0.963487658953177
40
0.981743829476589
40
0.981743829476589
40
1
40
1
40
1
40
1
41
1
10
95.4376378681689
20
-5.93691996771099
30
0
41
1
10
95.2994861850023
20
-5.96957763314407
30
0
41
1
10
95.1613631381883
20
-6.00195110203319
30
0
41
1
10
94.773100754705
20
-6.09217364153241
30
0
41
1
10
94.5230389707724
20
-6.14938938122597
30
0
41
1
10
93.7726542548575
20
-6.31729679505094
30
0
41
1
10
93.2722375628799
20
-6.42446952750211
30
0
41
1
10
92.2711789555181
20
-6.62960215808644
30
0
41
1
10
91.7705346864352
20
-6.72755778481479
30
0
41
1
10
90.7691059732181
20
-6.91439403364907
30
0
41
1
10
90.2683263451385
20
-7.00328275299174
30
0
41
1
10
89.5171335151664
20
-7.12981309495899
30
0
41
1
10
89.266762656155
20
-7.17089440367789
30
0
41
1
10
88.765780011617
20
-7.25044390643947
30
0
41
1
10
88.5151473333145
20
-7.28888787764993
30
0
41
1
10
88.0136117929535
20
-7.3631515148405
30
0
41
1
10
87.762645671718
20
-7.39898018701413
30
0
41
1
10
87.2608890139857
20
-7.46798219986965
30
0
41
1
10
87.0100781523421
20
-7.5011589414039
30
0
41
1
10
86.2578620477099
20
-7.59675484884588
30
0
41
1
10
85.7566705136546
20
-7.65524372659999
30
0
41
1
10
85.0053943415758
20
-7.73517859709878
30
0
41
1
10
84.7550551710724
20
-7.76052300092405
30
0
41
1
10
84.2545607842239
20
-7.80859897681182
30
0
41
1
10
84.0044256897856
20
-7.83134445533565
30
0
41
1
10
83.5042398857926
20
-7.87412073888297
30
0
41
1
10
83.2541250478374
20
-7.89410705648118
30
0
41
1
10
82.7537961995445
20
-7.93126976049257
30
0
41
1
10
82.5035923144625
20
-7.9484534822557
30
0
41
1
10
81.7528816459248
20
-7.99585622661701
30
0
41
1
10
81.2522741818482
20
-8.02193191637704
30
0
41
1
10
80.2508765244383
20
-8.06310876340629
30
0
41
1
10
79.7500871207235
20
-8.0782113028242
30
0
41
1
10
78.9988516771618
20
-8.09254416781621
30
0
41
1
10
78.7484363560866
20
-8.09593338018749
30
0
41
1
10
78.2475705777804
20
-8.09989628054197
30
0
41
1
10
77.9970726863527
20
-8.10046390145979
30
0
41
1
10
77.4957399791072
20
-8.09878345422675
30
0
41
1
10
77.2449045618243
20
-8.09653768503182
30
0
41
1
10
76.743088455947
20
-8.08925596628822
30
0
41
1
10
76.4922435375532
20
-8.08422227732072
30
0
41
1
10
75.7399110658685
20
-8.06497060920535
30
0
41
1
10
75.2386242284947
20
-8.04660890348094
30
0
41
1
10
74.2366805293637
20
-7.99882319993571
30
0
41
1
10
73.7360296808188
20
-7.96939686962671
30
0
41
1
10
72.9856120092894
20
-7.91679029461901
30
0
41
1
10
72.7355664452107
20
-7.8978363848442
30
0
41
1
10
72.2353268710561
20
-7.85731203009232
30
0
41
1
10
71.9851623466621
20
-7.83572687292678
30
0
41
1
10
71.2345530478488
20
-7.76703012702049
30
0
41
1
10
70.7339941458363
20
-7.71598187617269
30
0
41
1
10
69.7326537392294
20
-7.60339460832066
30
0
41
1
10
69.2318700173998
20
-7.54185880132584
30
0
41
1
10
68.4806101503214
20
-7.44152521840832
30
0
41
1
10
68.2301760653132
20
-7.40674070704483
30
0
41
1
10
67.7292895518619
20
-7.33444875106144
30
0
41
1
10
67.4788681944231
20
-7.29689825097435
30
0
41
1
10
66.9777514049604
20
-7.21937641467684
30
0
41
1
10
66.7270471920668
20
-7.17942175305964
30
0
41
1
10
66.2253598509371
20
-7.097132171536
30
0
41
1
10
65.9744277565171
20
-7.05480425467644
30
0
41
1
10
65.2219966378461
20
-6.92438002467179
30
0
41
1
10
64.7206265477815
20
-6.83281267231663
30
0
41
1
10
63.7184705113862
20
-6.6403631698324
30
0
41
1
10
63.2176878524294
20
-6.53947620304828
30
0
41
1
10
62.4670429287247
20
-6.38093247215889
30
0
41
1
10
62.21693830601
20
-6.32683963719722
30
0
41
1
10
61.7167832849762
20
-6.21644837673296
30
0
41
1
10
61.466671804425
20
-6.16026406096694
30
0
41
1
10
60.7161841099258
20
-5.98887681812735
30
0
41
1
10
60.2156848644669
20
-5.87078861907776
30
0
41
1
10
59.2144264586919
20
-5.62687219004374
30
0
41
1
10
58.7136646010049
20
-5.50104985007749
30
0
41
1
10
57.7119771777874
20
-5.24141648386845
30
0
41
1
10
57.2110759020577
20
-5.10754931544389
30
0
41
1
10
56.4596100396892
20
-4.90059478222386
30
0
41
1
10
56.2090404222877
20
-4.83072620999303
30
0
41
1
10
55.7075605761332
20
-4.68965863710525
30
0
41
1
10
55.4566212139235
20
-4.61838522709593
30
0
41
1
10
54.7041086951488
20
-4.40257031701142
30
0
41
1
10
54.2026669273369
20
-4.25599211292337
30
0
41
1
10
53.2003261543277
20
-3.95728327661124
30
0
41
1
10
52.6994263624358
20
-3.80515503834616
30
0
41
1
10
51.9485737569459
20
-3.57254386412427
30
0
41
1
10
51.6983718868769
20
-3.49427099784691
30
0
41
1
10
51.1981447315642
20
-3.33621155851699
30
0
41
1
10
50.9481097731016
20
-3.25644861564018
30
0
41
1
10
50.1977634923634
20
-3.01623523350344
30
0
41
1
10
49.6973362329624
20
-2.85453456407132
30
0
41
1
10
48.6961844191972
20
-2.52782129274149
30
0
41
1
10
48.1954573668336
20
-2.36281548636393
30
0
41
1
10
47.1937918624433
20
-2.02924714849658
30
0
41
1
10
46.6928587415319
20
-1.86066981241703
30
0
41
1
10
45.94137964035
20
-1.6048508908741
30
0
41
1
10
45.6909020481929
20
-1.51900023811586
30
0
41
1
10
45.1896428537465
20
-1.34711162093035
30
0
41
1
10
44.9388140631248
20
-1.26105387759083
30
0
41
1
10
44.1862379455601
20
-1.00266492433985
30
0
41
1
10
43.6847356368838
20
-0.83022564268947
30
0
41
1
10
42.6822354983872
20
-0.484756068038621
30
0
41
1
10
42.1812350294541
20
-0.311733463447297
30
0
41
1
10
41.4301937303924
20
-0.0515210503910168
30
0
41
1
10
41.179923909565
20
0.0353314422947051
30
0
41
1
10
40.6795502513138
20
0.209297950560199
30
0
41
1
10
40.4294718645934
20
0.296485886386165
30
0
41
1
10
39.6792704908797
20
0.557812681644577
30
0
41
1
10
39.1789382747285
20
0.731009491871163
30
0
41
1
10
38.1779173667513
20
1.07549209641337
30
0
41
1
10
37.677237020822
20
1.24680213275278
30
0
41
1
10
36.6756218520621
20
1.58780802082106
30
0
41
1
10
36.1746885839916
20
1.75750843235136
30
0
41
1
10
35.4231822125387
20
2.01108072292439
30
0
41
1
10
35.1726719211466
20
2.09546894251409
30
0
41
1
10
34.6715736489433
20
2.26379540234103
30
0
41
1
10
34.4209276960527
20
2.34756803400489
30
0
41
1
10
33.9192924541809
20
2.51390689504891
30
0
41
1
10
33.6684139573784
20
2.59650724385605
30
0
41
1
10
33.1668074037816
20
2.76053077926721
30
0
41
1
10
32.9160393278633
20
2.84196660385592
30
0
41
1
10
32.1638546599029
20
3.08459723315997
30
0
41
1
10
31.6625559627783
20
3.24411386944246
30
0
41
1
10
30.6603720403039
20
3.55893523485642
30
0
41
1
10
30.1594941989906
20
3.71425934906347
30
0
41
1
10
29.4085666902383
20
3.94422079189963
30
0
41
1
10
29.1583011722942
20
4.0203133012634
30
0
41
1
10
28.6575603275828
20
4.17063058862465
30
0
41
1
10
28.4071170071631
20
4.24493785549788
30
0
41
1
10
27.6555881667018
20
4.46537290506879
30
0
41
1
10
27.1543048014645
20
4.60901937168245
30
0
41
1
10
26.4020463761792
20
4.81969735479376
30
0
41
1
10
26.1512378687736
20
4.88912368337921
30
0
41
1
10
25.6495221157998
20
5.02640193275724
30
0
41
1
10
25.3985542247326
20
5.09427077789917
30
0
41
1
10
24.8968588793564
20
5.22837177141062
30
0
41
1
10
24.6461598999051
20
5.29459537120661
30
0
41
1
10
24.1450718550379
20
5.4253986165948
30
0
41
1
10
23.8947078994352
20
5.49002977238166
30
0
41
1
10
23.1436379603915
20
5.680474750466
30
0
41
1
10
22.6430015714844
20
5.80296754632678
30
0
41
1
10
21.6419684532899
20
6.03937783926594
30
0
41
1
10
21.1415696202261
20
6.15329074503481
30
0
41
1
10
20.1410939857091
20
6.37273152726505
30
0
41
1
10
19.6410211999898
20
6.47826739281422
30
0
41
1
10
18.8912419585035
20
6.63034565170068
30
0
41
1
10
18.6413974444279
20
6.68004219424438
30
0
41
1
10
18.1416499114719
20
6.77705680253004
30
0
41
1
10
17.8916986379795
20
6.82429927692505
30
0
41
1
10
17.1416087479651
20
6.96226286511222
30
0
41
1
10
16.6412452872385
20
7.04924329069797
30
0
41
1
10
15.6399986742533
20
7.21342461567818
30
0
41
1
10
15.1391140478863
20
7.29062385759681
30
0
41
1
10
14.1369161615448
20
7.43529297629618
30
0
41
1
10
13.63560350321
20
7.50276522554719
30
0
41
1
10
13.1341422412816
20
7.5653266360431
30
0
0
SPLINE
5
D0
100
AcDbEntity
8
1
62
256
6
ByLayer
370
18
48
1
60
0
100
AcDbSpline
70
4
71
3
72
20
73
16
40
0
40
0
40
0
40
0
40
0.0057172046220855
40
0.0057172046220855
40
0.171431003851738
40
0.171431003851738
40
0.337144803081391
40
0.337144803081391
40
0.502858602311043
40
0.502858602311043
40
0.668572401540695
40
0.668572401540695
40
0.834286200770348
40
0.834286200770348
40
1
40
1
40
1
40
1
41
1
10
6.79709331787382
20
8.70854988093973
30
0
41
1
10
6.8030038066675
20
8.70742419166712
30
0
41
1
10
6.80891587299686
20
8.70629598899663
30
0
41
1
10
6.98623676614739
20
8.67239177419981
30
0
41
1
10
7.15895966836973
20
8.63751653793921
30
0
41
1
10
7.50655385276355
20
8.56405657426643
30
0
41
1
10
7.68142510853107
20
8.52547027759928
30
0
41
1
10
8.03293340818595
20
8.44493008849784
30
0
41
1
10
8.20957015265549
20
8.40297488566429
30
0
41
1
10
8.56433190065547
20
8.31593309813508
30
0
41
1
10
8.74245650492679
20
8.27084528160748
30
0
41
1
10
9.10003264651235
20
8.17770633750789
30
0
41
1
10
9.2795376139884
20
8.12963816434365
30
0
41
1
10
9.63916733026863
20
8.03086437594234
30
0
41
1
10
9.81936809226798
20
7.98013851179275
30
0
41
1
10
10
20
7.92815704335925
30
0
0
SPLINE
5
D1
100
AcDbEntity
8
1
62
256
6
ByLayer
370
18
48
1
60
0
100
AcDbSpline
70
4
71
3
72
103
73
99
40
0
40
0
40
0
40
0
40
0.0624999999999979
40
0.0624999999999979
40
0.0937499999999963
40
0.0937499999999963
40
0.124999999999995
40
0.124999999999995
40
0.156249999999993
40
0.156249999999993
40
0.187499999999992
40
0.187499999999992
40
0.203124999999991
40
0.203124999999991
40
0.210937499999991
40
0.210937499999991
40
0.218749999999991
40
0.218749999999991
40
0.249999999999993
40
0.249999999999993
40
0.281249999999995
40
0.281249999999995
40
0.296874999999996
40
0.296874999999996
40
0.304687499999996
40
0.304687499999996
40
0.312499999999997
40
0.312499999999997
40
0.343749999999996
40
0.343749999999996
40
0.374999999999996
40
0.374999999999996
40
0.378906249999996
40
0.378906249999996
40
0.382812499999996
40
0.382812499999996
40
0.390624999999996
40
0.390624999999996
40
0.406249999999997
40
0.406249999999997
40
0.421874999999997
40
0.421874999999997
40
0.437499999999998
40
0.437499999999998
40
0.445312499999998
40
0.445312499999998
40
0.453124999999998
40
0.453124999999998
40
0.468749999999998
40
0.484374999999998
40
0.484374999999998
40
0.492187499999998
40
0.492187499999998
40
0.496093749999998
40
0.496093749999998
40
0.499999999999997
40
0.499999999999997
40
0.531249999999998
40
0.531249999999998
40
0.539062499999998
40
0.539062499999998
40
0.546874999999998
40
0.546874999999998
40
0.562499999999998
40
0.562499999999998
40
0.593749999999997
40
0.593749999999997
40
0.601562499999997
40
0.601562499999997
40
0.609374999999996
40
0.609374999999996
40
0.624999999999995
40
0.624999999999995
40
0.656249999999995
40
0.656249999999995
40
0.687499999999994
40
0.687499999999994
40
0.703124999999994
40
0.703124999999994
40
0.718749999999994
40
0.718749999999994
40
0.749999999999994
40
0.749999999999994
40
0.781249999999995
40
0.781249999999995
40
0.812499999999996
40
0.812499999999996
40
0.843749999999996
40
0.843749999999996
40
0.874999999999997
40
0.874999999999997
40
0.906249999999998
40
0.906249999999998
40
0.937499999999999
40
0.937499999999999
40
0.968749999999999
40
0.968749999999999
40
1
40
1
40
1
40
1
41
1
10
10
20
-3.68907054985038
30
0
41
1
10
9.59931714329556
20
-3.77188333817554
30
0
41
1
10
9.20404874134863
20
-3.8701802651903
30
0
41
1
10
8.61942778391924
20
-4.04136548908573
30
0
41
1
10
8.42593536035179
20
-4.10238689613152
30
0
41
1
10
8.04176047349759
20
-4.2324983559138
30
0
41
1
10
7.85107767989726
20
-4.30158743648786
30
0
41
1
10
7.47259339819203
20
-4.44805518270948
30
0
41
1
10
7.2847914270406
20
-4.52543242057286
30
0
41
1
10
6.91217635336844
20
-4.68880554323505
30
0
41
1
10
6.72736247998736
20
-4.77479914391603
30
0
41
1
10
6.45250479195369
20
-4.91062177793916
30
0
41
1
10
6.36127990979287
20
-4.95703616295378
30
0
41
1
10
6.225055021374
20
-5.02843106739579
30
0
41
1
10
6.17974758778391
20
-5.05252661738419
30
0
41
1
10
6.08968100284835
20
-5.101134407475
30
0
41
1
10
6.04487948369285
20
-5.12566862605283
30
0
41
1
10
5.82204558217046
20
-5.24949196999557
30
0
41
1
10
5.64752480247756
20
-5.35223141156109
30
0
41
1
10
5.30649538547237
20
-5.56518354231682
30
0
41
1
10
5.13998186041187
20
-5.67539310973768
30
0
41
1
10
4.89684017714137
20
-5.84655029477435
30
0
41
1
10
4.81690057057091
20
-5.9045783928853
30
0
41
1
10
4.69876481230437
20
-5.99313676026139
30
0
41
1
10
4.65963432558124
20
-6.02294643919331
30
0
41
1
10
4.58225496455324
20
-6.08287462008522
30
0
41
1
10
4.54401739854956
20
-6.11298287617376
30
0
41
1
10
4.35513743566412
20
-6.26423237575483
30
0
41
1
10
4.21138283124625
20
-6.38749211173212
30
0
41
1
10
3.94030063158075
20
-6.63830126760661
30
0
41
1
10
3.81294687732122
20
-6.76584730824501
30
0
41
1
10
3.68058693175271
20
-6.9117319668903
30
0
41
1
10
3.66603303244747
20
-6.92797482184966
30
0
41
1
10
3.63723893771245
20
-6.96052771968536
30
0
41
1
10
3.62298414757146
20
-6.97685481849115
30
0
41
1
10
3.58082448752867
20
-7.02579643907711
30
0
41
1
10
3.55354036975587
20
-7.05835019605945
30
0
41
1
10
3.47420871013676
20
-7.1557639087124
30
0
41
1
10
3.42467767947278
20
-7.22037666284706
30
0
41
1
10
3.33270597379533
20
-7.34879940273234
30
0
41
1
10
3.29026387525846
20
-7.41260960674822
30
0
41
1
10
3.21299535078168
20
-7.5392702814475
30
0
41
1
10
3.17816668817173
20
-7.60212106738439
30
0
41
1
10
3.13218225129609
20
-7.69554338577242
30
0
41
1
10
3.11801407593717
20
-7.72631234685213
30
0
41
1
10
3.09207979231218
20
-7.78692485267359
30
0
41
1
10
3.08029983142302
20
-7.81679643764943
30
0
41
1
10
3.04853067378261
20
-7.90509119020658
30
0
41
1
10
3.01568379435864
20
-8.01929976541251
30
0
41
1
10
3.00219104534085
20
-8.12625186875596
30
0
41
1
10
2.99957695147157
20
-8.2036331969187
30
0
41
1
10
2.99995791936044
20
-8.22895449629192
30
0
41
1
10
3.00245198851363
20
-8.2662105243017
30
0
41
1
10
3.00360676876741
20
-8.27852878015256
30
0
41
1
10
3.0065492054562
20
-8.30279516390601
30
0
41
1
10
3.00833545555381
20
-8.31474452359947
30
0
41
1
10
3.02720093503288
20
-8.42066189445586
30
0
41
1
10
3.06368966307662
20
-8.5032958662847
30
0
41
1
10
3.13174484350927
20
-8.59365616094664
30
0
41
1
10
3.14648438518262
20
-8.61107866376875
30
0
41
1
10
3.1781881835702
20
-8.6446504286034
30
0
41
1
10
3.19520129816499
20
-8.66083767713513
30
0
41
1
10
3.24904119266648
20
-8.70711812563354
30
0
41
1
10
3.28869998271602
20
-8.73501818761636
30
0
41
1
10
3.41784713577152
20
-8.81085025516077
30
0
41
1
10
3.5174529398669
20
-8.85095829754869
30
0
41
1
10
3.65627420558107
20
-8.89038870492274
30
0
41
1
10
3.6847586695844
20
-8.89773584050809
30
0
41
1
10
3.74311953201479
20
-8.91139792907404
30
0
41
1
10
3.77305135013614
20
-8.91772256510009
30
0
41
1
10
3.8643484607648
20
-8.93511680410208
30
0
41
1
10
3.927233039942
20
-8.94462794973438
30
0
41
1
10
4.12127564079097
20
-8.96770653399011
30
0
41
1
10
4.25779469801145
20
-8.97585434913995
30
0
41
1
10
4.54253927717144
20
-8.98075450623168
30
0
41
1
10
4.69078023327242
20
-8.97748930285792
30
0
41
1
10
4.92054705392724
20
-8.96560764325602
30
0
41
1
10
4.9983745757884
20
-8.96047726865356
30
0
41
1
10
5.15631538799147
20
-8.94808375338084
30
0
41
1
10
5.23596956183599
20
-8.94085725572006
30
0
41
1
10
5.47674423939338
20
-8.91644135421865
30
0
41
1
10
5.6396826167836
20
-8.89652965141667
30
0
41
1
10
5.96949195258776
20
-8.85084368437558
30
0
41
1
10
6.13636565653667
20
-8.82506349937898
30
0
41
1
10
6.47333016183168
20
-8.76861275769599
30
0
41
1
10
6.64342224337668
20
-8.73793880032275
30
0
41
1
10
6.98623676614744
20
-8.67239177419981
30
0
41
1
10
7.15895966836976
20
-8.63751653793923
30
0
41
1
10
7.5065538527636
20
-8.56405657426646
30
0
41
1
10
7.6814251085311
20
-8.52547027759928
30
0
41
1
10
8.03293340818601
20
-8.44493008849784
30
0
41
1
10
8.20957015265552
20
-8.40297488566426
30
0
41
1
10
8.56433190065547
20
-8.31593309813505
30
0
41
1
10
8.74245650492685
20
-8.27084528160748
30
0
41
1
10
9.10003264651237
20
-8.17770633750786
30
0
41
1
10
9.2795376139884
20
-8.12963816434362
30
0
41
1
10
9.63916733026866
20
-8.03086437594231
30
0
41
1
10
9.81936809226801
20
-7.98013851179275
30
0
41
1
10
10
20
-7.92815704335922
30
0
0
SPLINE
5
D2
100
AcDbEntity
8
1
62
256
6
ByLayer
370
18
48
1
60
0
100
AcDbSpline
70
4
71
3
72
14
73
10
40
0
40
0
40
0
40
0
40
0.250000000000004
40
0.250000000000004
40
0.500000000000003
40
0.500000000000003
40
0.750000000000001
40
0.750000000000001
40
1
40
1
40
1
40
1
41
1
10
13.1341422412815
20
-7.56532663604386
30
0
41
1
10
12.8680200961449
20
-7.59944319465785
30
0
41
1
10
12.6034850589383
20
-7.63331333905825
30
0
41
1
10
12.0769282649603
20
-7.6993020347542
30
0
41
1
10
11.8149040385539
20
-7.73142136472828
30
0
41
1
10
11.2929305419003
20
-7.79297393780973
30
0
41
1
10
11.0329798326452
20
-7.82241051997428
30
0
41
1
10
10.5150043982488
20
-7.87792871770947
30
0
41
1
10
10.2569794948701
20
-7.90401568751341
30
0
41
1
10
10
20
-7.92815704335922
30
0
0
SPLINE
5
D3
100
AcDbEntity
8
1
62
256
6
ByLayer
370
18
48
1
60
0
100
AcDbSpline
70
4
71
4
72
13
73
8
40
0
40
0
40
0
40
0
40
0
40
0.0343338635240996
40
0.0343338635240996
40
0.0343338635240996
40
1
40
1
40
1
40
1
40
1
41
0.999960499844761
10
14.0358418500689
20
-3.85755248576096
30
0
41
0.999979763576006
10
14.0255552903862
20
-3.88167720572258
30
0
41
0.999993088417779
10
14.0153348763797
20
-3.90594698714926
30
0
41
1
10
14.0051817706221
20
-3.93035635421293
30
0
41
1
10
13.7114579103402
20
-4.64519889133254
30
0
41
0.994532533510353
10
13.4445822802307
20
-5.53370322760118
30
0
41
0.99468484496594
10
13.2489365348291
20
-6.55266963531039
30
0
41
0.996555275575431
10
13.1341422412815
20
-7.56532663604387
30
0
0
SPLINE
5
D4
100
AcDbEntity
8
1
62
256
6
ByLayer
370
18
48
1
60
0
100
AcDbSpline
70
4
71
3
72
25
73
21
40
0
40
0
40
0
40
0
40
0.125000000000002
40
0.125000000000002
40
0.250000000000004
40
0.250000000000004
40
0.375000000000007
40
0.375000000000007
40
0.500000000000009
40
0.500000000000009
40
0.56250000000001
40
0.56250000000001
40
0.593750000000011
40
0.593750000000011
40
0.625000000000011
40
0.750000000000007
40
0.750000000000007
40
0.875000000000004
40
0.875000000000004
40
1
40
1
40
1
40
1
41
1
10
10
20
-3.68907054985041
30
0
41
1
10
10.2890881686817
20
-3.6577710876453
30
0
41
1
10
10.5775951394623
20
-3.63702707295977
30
0
41
1
10
11.1535418201268
20
-3.61518231804229
30
0
41
1
10
11.4409809993853
20
-3.61408900494166
30
0
41
1
10
12.0148659893872
20
-3.63019691966872
30
0
41
1
10
12.3013114028763
20
-3.64740376353382
30
0
41
1
10
12.8732765770293
20
-3.69866977234469
30
0
41
1
10
13.158796023413
20
-3.73273304924453
30
0
41
1
10
13.5864350199705
20
-3.79520609842007
30
0
41
1
10
13.7288747203021
20
-3.81792454381545
30
0
41
1
10
13.9423819350981
20
-3.85466232885389
30
0
41
1
10
14.0135496564947
20
-3.86735627643961
30
0
41
1
10
14.1555400055129
20
-3.89354216775769
30
0
41
1
10
14.5098203367023
20
-3.96102862133611
30
0
41
1
10
14.8607485130226
20
-4.03813318887396
30
0
41
1
10
15.4186064775848
20
-4.1712429526732
30
0
41
1
10
15.6957228044043
20
-4.24266455595162
30
0
41
1
10
16.2470000020934
20
-4.3926979897623
30
0
41
1
10
16.5211628460937
20
-4.47130305185914
30
0
41
1
10
16.7941660956093
20
-4.55232359697709
30
0
0
SPLINE
5
D5
100
AcDbEntity
8
SK1
62
256
6
ByLayer
370
18
48
1
60
0
100
AcDbSpline
70
4
71
3
72
32
73
28
40
0
40
0
40
0
40
0
40
0.124999999999998
40
0.124999999999998
40
0.249999999999995
40
0.249999999999995
40
0.374999999999994
40
0.374999999999994
40
0.437499999999993
40
0.437499999999993
40
0.499999999999992
40
0.499999999999992
40
0.624999999999988
40
0.624999999999988
40
0.656249999999988
40
0.656249999999988
40
0.687499999999988
40
0.687499999999988
40
0.74999999999999
40
0.74999999999999
40
0.874999999999995
40
0.874999999999995
40
0.906249999999996
40
0.906249999999996
40
0.937499999999998
40
0.937499999999998
40
1
40
1
40
1
40
1
41
1
10
-43.3565069115799
20
-3.65034953143106
30
0
41
1
10
-43.3331458400142
20
-3.71424193668162
30
0
41
1
10
-43.3079887114829
20
-3.77702079626832
30
0
41
1
10
-43.2534212788423
20
-3.90009490817781
30
0
41
1
10
-43.2240149751524
20
-3.96039186522651
30
0
41
1
10
-43.1600568886594
20
-4.07814914960466
30
0
41
1
10
-43.1255132756746
20
-4.13561297938583
30
0
41
1
10
-43.0688646453433
20
-4.21928792338744
30
0
41
1
10
-43.0491724017425
20
-4.24675781820287
30
0
41
1
10
-43.0079384175976
20
-4.30075945417201
30
0
41
1
10
-42.9863407519915
20
-4.32734895814056
30
0
41
1
10
-42.9191284528728
20
-4.40464696643178
30
0
41
1
10
-42.8709653357112
20
-4.45314968312832
30
0
41
1
10
-42.8054200814028
20
-4.509129269905
30
0
41
1
10
-42.7920414880158
20
-4.52009075475445
30
0
41
1
10
-42.7647046009874
20
-4.54151368998052
30
0
41
1
10
-42.7507137384423
20
-4.55199803198428
30
0
41
1
10
-42.7080552923505
20
-4.58246627252342
30
0
41
1
10
-42.6787844981831
20
-4.60141919352105
30
0
41
1
10
-42.588250922941
20
-4.65388326760876
30
0
41
1
10
-42.5243097226538
20
-4.68306815187688
30
0
41
1
10
-42.4386823815538
20
-4.71050598268181
30
0
41
1
10
-42.4212064346087
20
-4.71554997578619
30
0
41
1
10
-42.3860524535981
20
-4.72455026306568
30
0
41
1
10
-42.3683576016114
20
-4.72851630488563
30
0
41
1
10
-42.3149119913326
20
-4.73878190613445
30
0
41
1
10
-42.2788010667419
20
-4.74345326345804
30
0
41
1
10
-42.2421801837133
20
-4.74582511601491
30
0
0
SPLINE
5
D6
100
AcDbEntity
8
SK1
62
256
6
ByLayer
370
18
48
1
60
0
100
AcDbSpline
70
4
71
3
72
32
73
28
40
0
40
0
40
0
40
0
40
0.125000000000003
40
0.125000000000003
40
0.156250000000003
40
0.156250000000003
40
0.187500000000004
40
0.187500000000004
40
0.250000000000005
40
0.250000000000005
40
0.312500000000005
40
0.312500000000005
40
0.343750000000005
40
0.343750000000005
40
0.375000000000006
40
0.375000000000006
40
0.500000000000003
40
0.500000000000003
40
0.625
40
0.625
40
0.6875
40
0.6875
40
0.749999999999999
40
0.749999999999999
40
0.875
40
0.875
40
1
40
1
40
1
40
1
41
1
10
-42.2421801837133
20
4.74582511601491
30
0
41
1
10
-42.3153322469605
20
4.74108722075121
30
0
41
1
10
-42.3858382182456
20
4.7272872503076
30
0
41
1
10
-42.4711061087408
20
4.70015187597528
30
0
41
1
10
-42.48801508965
20
4.69422552159887
30
0
41
1
10
-42.5215500807622
20
4.68139247012627
30
0
41
1
10
-42.538108088977
20
4.67450874413797
30
0
41
1
10
-42.5867495214036
20
4.65272655031879
30
0
41
1
10
-42.6179919315484
20
4.63663028483114
30
0
41
1
10
-42.6784054316375
20
4.60165673094545
30
0
41
1
10
-42.707575323895
20
4.58277786641952
30
0
41
1
10
-42.7499378830322
20
4.55256723042981
30
0
41
1
10
-42.7638261651475
20
4.54218093900309
30
0
41
1
10
-42.7911594285605
20
4.52080182261719
30
0
41
1
10
-42.8046315534326
20
4.50978473494575
30
0
41
1
10
-42.8704332773146
20
4.45367358335039
30
0
41
1
10
-42.9183823606968
20
4.40538606397868
30
0
41
1
10
-43.007200043589
20
4.30347549467811
30
0
41
1
10
-43.0480454261384
20
4.2498368571521
30
0
41
1
10
-43.1050091824334
20
4.16599396786131
30
0
41
1
10
-43.1233071500575
20
4.13742383693679
30
0
41
1
10
-43.1584042823022
20
4.07953032751405
30
0
41
1
10
-43.1751994309136
20
4.05022195040382
30
0
41
1
10
-43.2235710813646
20
3.96130068776944
30
0
41
1
10
-43.2531438067293
20
3.90069540381026
30
0
41
1
10
-43.3079263511211
20
3.77718661911314
30
0
41
1
10
-43.3331314373585
20
3.7142813278675
30
0
41
1
10
-43.3565069115799
20
3.65034953143106
30
0
0
SPLINE
5
D7
100
AcDbEntity
8
SK1
62
256
6
ByLayer
370
18
48
1
60
0
100
AcDbSpline
70
4
71
3
72
30
73
26
40
0
40
0
40
0
40
0
40
0.124999999999979
40
0.124999999999979
40
0.249999999999958
40
0.249999999999958
40
0.374999999999936
40
0.374999999999936
40
0.437499999999926
40
0.437499999999926
40
0.499999999999916
40
0.499999999999916
40
0.624999999999908
40
0.624999999999908
40
0.656249999999909
40
0.656249999999909
40
0.68749999999991
40
0.68749999999991
40
0.749999999999925
40
0.749999999999925
40
0.874999999999955
40
0.874999999999955
40
0.937499999999978
40
0.937499999999978
40
1
40
1
40
1
40
1
41
1
10
-13.8451406288876
20
5.60819856978108
30
0
41
1
10
-13.8759395902576
20
5.65059861248182
30
0
41
1
10
-13.9086043985849
20
5.69152013904011
30
0
41
1
10
-13.97811386775
20
5.77019024979575
30
0
41
1
10
-14.014955839279
20
5.80794050815649
30
0
41
1
10
-14.0934302354091
20
5.87995203844818
30
0
41
1
10
-14.1350574932389
20
5.91421654427231
30
0
41
1
10
-14.2017568377706
20
5.9626308553903
30
0
41
1
10
-14.2245427507748
20
5.97815093867467
30
0
41
1
10
-14.271111369383
20
6.00780504420359
30
0
41
1
10
-14.2949186549204
20
6.02195716348245
30
0
41
1
10
-14.3679929543377
20
6.06230994483028
30
0
41
1
10
-14.4189025587777
20
6.08641928516369
30
0
41
1
10
-14.4856782999412
20
6.11265441828212
30
0
41
1
10
-14.4991911565357
20
6.11770540783806
30
0
41
1
10
-14.5265457311327
20
6.12740066932034
30
0
41
1
10
-14.5403907312758
20
6.13204445753533
30
0
41
1
10
-14.5820565255816
20
6.14522762072318
30
0
41
1
10
-14.6101298025697
20
6.1530644585383
30
0
41
1
10
-14.6952537679042
20
6.17368858860661
30
0
41
1
10
-14.7532042147282
20
6.18360487337517
30
0
41
1
10
-14.8420639597241
20
6.19236276786617
30
0
41
1
10
-14.8721089186227
20
6.1942576600421
30
0
41
1
10
-14.9321260265236
20
6.19588455534111
30
0
41
1
10
-14.9621459212296
20
6.19562887243728
30
0
41
1
10
-14.9921771997116
20
6.19429975368809
30
0
0
SPLINE
5
D8
100
AcDbEntity
8
SK1
62
256
6
ByLayer
370
18
48
1
60
0
100
AcDbSpline
70
4
71
3
72
29
73
25
40
0
40
0
40
0
40
0
40
0.125000000000045
40
0.125000000000045
40
0.25000000000009
40
0.25000000000009
40
0.281250000000093
40
0.281250000000093
40
0.312500000000097
40
0.375000000000092
40
0.375000000000092
40
0.500000000000084
40
0.500000000000084
40
0.562500000000073
40
0.562500000000073
40
0.625000000000062
40
0.625000000000062
40
0.750000000000038
40
0.750000000000038
40
0.875000000000015
40
0.875000000000015
40
0.937500000000008
40
0.937500000000008
40
1
40
1
40
1
40
1
41
1
10
-14.9921771997116
20
-6.19429975368809
30
0
41
1
10
-14.9320573843484
20
-6.19696052531805
30
0
41
1
10
-14.8726744232101
20
-6.19530622075879
30
0
41
1
10
-14.7552923361598
20
-6.18388224594813
30
0
41
1
10
-14.6972937188803
20
-6.17410945589265
30
0
41
1
10
-14.6256493001772
20
-6.15684175670819
30
0
41
1
10
-14.6113371248737
20
-6.15312631775188
30
0
41
1
10
-14.5830607924918
20
-6.14526136952958
30
0
41
1
10
-14.5410867139313
20
-6.13279564418732
30
0
41
1
10
-14.500383626949
20
-6.118393573753
30
0
41
1
10
-14.4205661285236
20
-6.08714648466275
30
0
41
1
10
-14.3694669105832
20
-6.06306708368854
30
0
41
1
10
-14.2956992221607
20
-6.02241573888855
30
0
41
1
10
-14.2715415923124
20
-6.00806907471573
30
0
41
1
10
-14.2247924605031
20
-5.97831973436635
30
0
41
1
10
-14.2021202056678
20
-5.96287721339851
30
0
41
1
10
-14.1360355381032
20
-5.91496059376203
30
0
41
1
10
-14.0945476428777
20
-5.88090305019935
30
0
41
1
10
-14.0160214797599
20
-5.80899071657845
30
0
41
1
10
-13.9789867514485
20
-5.77113330484545
30
0
41
1
10
-13.9264169069796
20
-5.7117020344985
30
0
41
1
10
-13.9093970751005
20
-5.69145219620981
30
0
41
1
10
-13.8764815896183
20
-5.65032851626569
30
0
41
1
10
-13.8605603440826
20
-5.62942644739971
30
0
41
1
10
-13.845140628887
20
-5.60819856978154
30
0
0
SPLINE
5
D9
100
AcDbEntity
8
1
62
256
6
ByLayer
370
13
48
1
60
0
100
AcDbSpline
70
4
71
3
72
77
73
73
40
0
40
0
40
0
40
0
40
0.03125
40
0.03125
40
0.0625
40
0.0625
40
0.09375
40
0.09375
40
0.125
40
0.125
40
0.15625
40
0.15625
40
0.1875
40
0.1875
40
0.21875
40
0.21875
40
0.25
40
0.25
40
0.28125
40
0.28125
40
0.3125
40
0.3125
40
0.34375
40
0.34375
40
0.375
40
0.375
40
0.40625
40
0.40625
40
0.4375
40
0.4375
40
0.4453125
40
0.4453125
40
0.453125
40
0.46875
40
0.46875
40
0.5
40
0.5
40
0.531249999999999
40
0.531249999999999
40
0.562499999999999
40
0.562499999999999
40
0.593749999999999
40
0.593749999999999
40
0.624999999999999
40
0.624999999999999
40
0.656249999999999
40
0.656249999999999
40
0.687499999999999
40
0.687499999999999
40
0.718749999999999
40
0.718749999999999
40
0.749999999999999
40
0.749999999999999
40
0.781249999999999
40
0.781249999999999
40
0.812499999999999
40
0.812499999999999
40
0.843749999999999
40
0.843749999999999
40
0.875
40
0.875
40
0.882812499999999
40
0.882812499999999
40
0.890624999999999
40
0.890624999999999
40
0.90625
40
0.90625
40
0.9375
40
0.9375
40
0.96875
40
0.96875
40
1
40
1
40
1
40
1
41
1
10
113.272831233874
20
8.5
30
0
41
1
10
113.326304377362
20
8.5
30
0
41
1
10
113.37977752085
20
8.48590950418694
30
0
41
1
10
113.486723807826
20
8.42631060721115
30
0
41
1
10
113.540196951315
20
8.38079201706705
30
0
41
1
10
113.647143238291
20
8.2557863805543
30
0
41
1
10
113.700616381779
20
8.17628972130635
30
0
41
1
10
113.807562668755
20
7.98178507315816
30
0
41
1
10
113.861035812244
20
7.86676957329996
30
0
41
1
10
113.96798209922
20
7.60095501273887
30
0
41
1
10
114.021455242708
20
7.45015205325305
30
0
41
1
10
114.128401529684
20
7.11393782355341
30
0
41
1
10
114.181874673173
20
6.92852737969383
30
0
41
1
10
114.288820960149
20
6.52577075414607
30
0
41
1
10
114.342294103637
20
6.30843048557208
30
0
41
1
10
114.449240390613
20
5.8458835543594
30
0
41
1
10
114.502713534101
20
5.60068731539346
30
0
41
1
10
114.609659821078
20
5.0876463332942
30
0
41
1
10
114.663132964566
20
4.819815086608
30
0
41
1
10
114.770079251542
20
4.26750540768487
30
0
41
1
10
114.82355239503
20
3.98304157780842
30
0
41
1
10
114.930498682007
20
3.40382203931426
30
0
41
1
10
114.983971825495
20
3.10908001757656
30
0
41
1
10
115.090918112471
20
2.51558135123401
30
0
41
1
10
115.144391255959
20
2.2168358505111
30
0
41
1
10
115.251337542936
20
1.62115116539115
30
0
41
1
10
115.304810686424
20
1.32421962931642
30
0
41
1
10
115.4117569734
20
0.737242595770141
30
0
41
1
10
115.465230116888
20
0.447201031016647
30
0
41
1
10
115.532071546249
20
0.0915557104098639
30
0
41
1
10
115.545439832121
20
0.0209911736015727
30
0
41
1
10
115.572176403865
20
-0.120523462366208
30
0
41
1
10
115.612281261481
20
-0.333868265775294
30
0
41
1
10
115.652386119097
20
-0.550180557232778
30
0
41
1
10
115.732595834329
20
-0.986006774984702
30
0
41
1
10
115.786068977817
20
-1.28085432906255
30
0
41
1
10
115.893015264794
20
-1.87441138595736
30
0
41
1
10
115.946488408282
20
-2.17311467332578
30
0
41
1
10
116.053434695258
20
-2.76882543832716
30
0
41
1
10
116.106907838746
20
-3.06582303801591
30
0
41
1
10
116.213854125723
20
-3.65198552122897
30
0
41
1
10
116.267327269211
20
-3.94113753155276
30
0
41
1
10
116.374273556187
20
-4.50523739663939
30
0
41
1
10
116.427746699675
20
-4.78017077341892
30
0
41
1
10
116.534692986652
20
-5.30964374898602
30
0
41
1
10
116.58816613014
20
-5.5641691819213
30
0
41
1
10
116.695112417116
20
-6.04725594738892
30
0
41
1
10
116.748585560604
20
-6.27580547234012
30
0
41
1
10
116.85553184758
20
-6.70238686963049
30
0
41
1
10
116.909004991069
20
-6.90041098333003
30
0
41
1
10
117.015951278045
20
-7.26270429162437
30
0
41
1
10
117.069424421533
20
-7.42697070674126
30
0
41
1
10
117.176370708509
20
-7.71998847036414
30
0
41
1
10
117.229843851998
20
-7.84874200684445
30
0
41
1
10
117.336790138974
20
-8.07045891230311
30
0
41
1
10
117.390263282462
20
-8.16342857559792
30
0
41
1
10
117.497209569438
20
-8.31465640308005
30
0
41
1
10
117.550682712927
20
-8.37292356302257
30
0
41
1
10
117.657628999903
20
-8.45694366161212
30
0
41
1
10
117.711102143391
20
-8.48270673626021
30
0
41
1
10
117.777943572751
20
-8.49647847295159
30
0
41
1
10
117.791311858623
20
-8.49831280212621
30
0
41
1
10
117.818048430367
20
-8.50019407192463
30
0
41
1
10
117.83141671624
20
-8.50024738690678
30
0
41
1
10
117.871521573856
20
-8.49775277183286
30
0
41
1
10
117.8982581456
20
-8.49252047726247
30
0
41
1
10
117.978467860832
20
-8.46549467482356
30
0
41
1
10
118.03194100432
20
-8.43234810010881
30
0
41
1
10
118.138887291296
20
-8.33295948380717
30
0
41
1
10
118.192360434785
20
-8.26670743872944
30
0
41
1
10
118.299306721761
20
-8.09914520908427
30
0
41
1
10
118.352779865249
20
-7.99782652217661
30
0
41
1
10
118.406253008737
20
-7.87858625685891
30
0
0
SPLINE
5
DA
100
AcDbEntity
8
1
62
256
6
ByLayer
370
13
48
1
60
0
100
AcDbSpline
70
4
71
3
72
22
73
18
40
0
40
0
40
0
40
0
40
0.125
40
0.125
40
0.25
40
0.25
40
0.375
40
0.375
40
0.5
40
0.5
40
0.625
40
0.625
40
0.75
40
0.75
40
0.875
40
0.875
40
1
40
1
40
1
40
1
41
1
10
109.3
20
0.657637729374727
30
0
41
1
10
109.389741650065
20
1.1446291825888
30
0
41
1
10
109.479483300131
20
1.64416530449984
30
0
41
1
10
109.658966600261
20
2.64477102290789
30
0
41
1
10
109.748708250327
20
3.14572686346474
30
0
41
1
10
109.928191550457
20
4.12015476126734
30
0
41
1
10
110.017933200523
20
4.59344818528311
30
0
41
1
10
110.197416500653
20
5.48262959872972
30
0
41
1
10
110.287158150719
20
5.89833122408177
30
0
41
1
10
110.466641450849
20
6.64723243112857
30
0
41
1
10
110.556383100915
20
6.98031037342125
30
0
41
1
10
110.735866401045
20
7.54858455084354
30
0
41
1
10
110.825608051111
20
7.78376704936241
30
0
41
1
10
111.005091351241
20
8.15273742589463
30
0
41
1
10
111.094833001307
20
8.28660864855988
30
0
41
1
10
111.274316301437
20
8.4601745101713
30
0
41
1
10
111.364057951503
20
8.5
30
0
41
1
10
111.453799601568
20
8.5
30
0
0
SPLINE
5
DB
100
AcDbEntity
8
1
62
256
6
ByLayer
370
13
48
1
60
0
100
AcDbSpline
70
4
71
3
72
78
73
74
40
0
40
0
40
0
40
0
40
0.0312500000000005
40
0.0312500000000005
40
0.0625000000000011
40
0.0625000000000011
40
0.0937500000000016
40
0.0937500000000016
40
0.125000000000002
40
0.125000000000002
40
0.156250000000003
40
0.156250000000003
40
0.187500000000003
40
0.187500000000003
40
0.218750000000004
40
0.218750000000004
40
0.250000000000004
40
0.250000000000004
40
0.281250000000005
40
0.281250000000005
40
0.312500000000005
40
0.312500000000005
40
0.343750000000006
40
0.343750000000006
40
0.375000000000007
40
0.375000000000007
40
0.390625000000007
40
0.390625000000007
40
0.398437500000007
40
0.398437500000007
40
0.406250000000007
40
0.406250000000007
40
0.437500000000006
40
0.437500000000006
40
0.468750000000006
40
0.468750000000006
40
0.500000000000005
40
0.500000000000005
40
0.531250000000005
40
0.531250000000005
40
0.562500000000005
40
0.562500000000005
40
0.593750000000004
40
0.593750000000004
40
0.625000000000004
40
0.625000000000004
40
0.656250000000004
40
0.656250000000004
40
0.687500000000003
40
0.687500000000003
40
0.718750000000003
40
0.718750000000003
40
0.750000000000002
40
0.750000000000002
40
0.781250000000002
40
0.781250000000002
40
0.796875000000002
40
0.796875000000002
40
0.804687500000002
40
0.804687500000002
40
0.812500000000002
40
0.812500000000002
40
0.843750000000002
40
0.843750000000002
40
0.875000000000002
40
0.875000000000002
40
0.906250000000001
40
0.906250000000001
40
0.937500000000001
40
0.937500000000001
40
0.96875
40
0.96875
40
1
40
1
40
1
40
1
41
1
10
112.776227386554
20
8.5
30
0
41
1
10
112.834873486785
20
8.5
30
0
41
1
10
112.893519587016
20
8.48304539379473
30
0
41
1
10
113.010811787478
20
8.41099470103796
30
0
41
1
10
113.069457887709
20
8.35588245897046
30
0
41
1
10
113.186750088171
20
8.20431712563774
30
0
41
1
10
113.245396188402
20
8.10784925440811
30
0
41
1
10
113.362688388864
20
7.87191068290667
30
0
41
1
10
113.421334489096
20
7.73242951951099
30
0
41
1
10
113.538626689558
20
7.4107300694414
30
0
41
1
10
113.597272789789
20
7.22850835644834
30
0
41
1
10
113.714564990251
20
6.82373947753439
30
0
41
1
10
113.773211090482
20
6.60119754362316
30
0
41
1
10
113.890503290944
20
6.12032359269622
30
0
41
1
10
113.949149391175
20
5.86200530267558
30
0
41
1
10
114.066441591637
20
5.31595074942061
30
0
41
1
10
114.125087691869
20
5.02823461402221
30
0
41
1
10
114.242379892331
20
4.43107551519378
30
0
41
1
10
114.301025992562
20
4.12165558366146
30
0
41
1
10
114.418318193024
20
3.48943715087259
30
0
41
1
10
114.476964293255
20
3.16666069367881
30
0
41
1
10
114.594256493717
20
2.51604345213622
30
0
41
1
10
114.652902593948
20
2.18822049750079
30
0
41
1
10
114.77019479441
20
1.53518086608452
30
0
41
1
10
114.828840894641
20
1.20997594365008
30
0
41
1
10
114.916810044988
20
0.729056320317284
30
0
41
1
10
114.946133095104
20
0.569888130064754
30
0
41
1
10
114.990117670277
20
0.333365282041427
30
0
41
1
10
115.004779195335
20
0.254895232009034
30
0
41
1
10
115.03410224545
20
0.0987757215056888
30
0
41
1
10
115.048763770508
20
0.0213962688513334
30
0
41
1
10
115.122071395797
20
-0.366734726312131
30
0
41
1
10
115.180717496028
20
-0.68416711902205
30
0
41
1
10
115.29800969649
20
-1.32750105215345
30
0
41
1
10
115.356655796721
20
-1.65339650749735
30
0
41
1
10
115.473947997183
20
-2.30694238711038
30
0
41
1
10
115.532594097414
20
-2.63458027567023
30
0
41
1
10
115.649886297877
20
-3.28384691069323
30
0
41
1
10
115.708532398108
20
-3.60545718833208
30
0
41
1
10
115.82582459857
20
-4.23432311044945
30
0
41
1
10
115.884470698801
20
-4.54155639822511
30
0
41
1
10
116.001762899263
20
-5.13336333113043
30
0
41
1
10
116.060408999494
20
-5.4179140858846
30
0
41
1
10
116.177701199956
20
-5.95678419588234
30
0
41
1
10
116.236347300187
20
-6.21108403092711
30
0
41
1
10
116.35363950065
20
-6.68326518646603
30
0
41
1
10
116.41228560088
20
-6.90113373163641
30
0
41
1
10
116.529577801343
20
-7.29614635912355
30
0
41
1
10
116.588223901574
20
-7.47328628691665
30
0
41
1
10
116.705516102036
20
-7.78467637525915
30
0
41
1
10
116.764162202267
20
-7.91893092869776
30
0
41
1
10
116.881454402729
20
-8.14451988574356
30
0
41
1
10
116.94010050296
20
-8.23586543139066
30
0
41
1
10
117.057392703422
20
-8.37749954621461
30
0
41
1
10
117.116038803654
20
-8.42780321358472
30
0
41
1
10
117.204007954
20
-8.47497978520929
30
0
41
1
10
117.233331004116
20
-8.48600229473851
30
0
41
1
10
117.277315579289
20
-8.49586881854577
30
0
41
1
10
117.291977104347
20
-8.49804689666311
30
0
41
1
10
117.321300154462
20
-8.50025076710853
30
0
41
1
10
117.33596167952
20
-8.50028524613623
30
0
41
1
10
117.409269304809
20
-8.49512911307795
30
0
41
1
10
117.46791540504
20
-8.4737715785021
30
0
41
1
10
117.585207605502
20
-8.3924620403258
30
0
41
1
10
117.643853705733
20
-8.33249390277197
30
0
41
1
10
117.761145906195
20
-8.17092527736662
30
0
41
1
10
117.819792006426
20
-8.06931037165765
30
0
41
1
10
117.937084206889
20
-7.82300114973285
30
0
41
1
10
117.99573030712
20
-7.67829709017309
30
0
41
1
10
118.113022507582
20
-7.34632736436916
30
0
41
1
10
118.171668607813
20
-7.15905926295972
30
0
41
1
10
118.288960808275
20
-6.74463629060401
30
0
41
1
10
118.347606908506
20
-6.51748772696615
30
0
41
1
10
118.406253008737
20
-6.27278467731952
30
0
0
SPLINE
5
DC
100
AcDbEntity
8
1
62
256
6
ByLayer
370
13
48
1
60
0
100
AcDbSpline
70
4
71
3
72
22
73
18
40
0
40
0
40
0
40
0
40
0.125
40
0.125
40
0.25
40
0.25
40
0.375
40
0.375
40
0.5
40
0.5
40
0.625
40
0.625
40
0.75
40
0.75
40
0.875
40
0.875
40
1
40
1
40
1
40
1
41
1
10
109.3
20
3.40480711032095
30
0
41
1
10
109.369049823094
20
3.7827210103668
30
0
41
1
10
109.438099646187
20
4.15380398816123
30
0
41
1
10
109.576199292375
20
4.86866504119291
30
0
41
1
10
109.645249115468
20
5.21239091969301
30
0
41
1
10
109.783348761656
20
5.85972095530056
30
0
41
1
10
109.852398584749
20
6.16327903768232
30
0
41
1
10
109.990498230937
20
6.71989733713502
30
0
41
1
10
110.05954805403
20
6.9729285860098
30
0
41
1
10
110.197647700218
20
7.42172286888487
30
0
41
1
10
110.266697523311
20
7.61747989637084
30
0
41
1
10
110.404797169499
20
7.94910208861563
30
0
41
1
10
110.473846992592
20
8.08498301163553
30
0
41
1
10
110.61194663878
20
8.29821855980919
30
0
41
1
10
110.680996461873
20
8.37560381220655
30
0
41
1
10
110.819096108061
20
8.47647635966246
30
0
41
1
10
110.888145931154
20
8.5
30
0
41
1
10
110.957195754248
20
8.5
30
0
0
SPLINE
5
DD
100
AcDbEntity
8
1
62
256
6
ByLayer
370
13
48
1
60
0
100
AcDbSpline
70
4
71
3
72
78
73
74
40
0
40
0
40
0
40
0
40
0.0312499999999999
40
0.0312499999999999
40
0.0624999999999997
40
0.0624999999999997
40
0.0937499999999996
40
0.0937499999999996
40
0.125
40
0.125
40
0.156249999999999
40
0.156249999999999
40
0.187499999999999
40
0.187499999999999
40
0.218749999999999
40
0.218749999999999
40
0.249999999999999
40
0.249999999999999
40
0.281249999999999
40
0.281249999999999
40
0.312499999999999
40
0.312499999999999
40
0.343749999999999
40
0.343749999999999
40
0.359374999999999
40
0.359374999999999
40
0.367187499999999
40
0.367187499999999
40
0.374999999999999
40
0.374999999999999
40
0.406249999999998
40
0.406249999999998
40
0.437499999999998
40
0.437499999999998
40
0.468749999999997
40
0.468749999999997
40
0.499999999999996
40
0.499999999999996
40
0.531249999999996
40
0.531249999999996
40
0.562499999999995
40
0.562499999999995
40
0.593749999999994
40
0.593749999999994
40
0.624999999999994
40
0.624999999999994
40
0.656249999999993
40
0.656249999999993
40
0.687499999999992
40
0.687499999999992
40
0.718749999999992
40
0.718749999999992
40
0.734374999999991
40
0.734374999999991
40
0.742187499999991
40
0.742187499999991
40
0.749999999999991
40
0.749999999999991
40
0.781249999999992
40
0.781249999999992
40
0.812499999999993
40
0.812499999999993
40
0.843749999999995
40
0.843749999999995
40
0.874999999999996
40
0.874999999999996
40
0.906249999999997
40
0.906249999999997
40
0.937499999999998
40
0.937499999999998
40
0.968749999999999
40
0.968749999999999
40
1
40
1
40
1
40
1
41
1
10
112.279623539233
20
8.5
30
0
41
1
10
112.343442596207
20
8.5
30
0
41
1
10
112.407261653181
20
8.47991443725317
30
0
41
1
10
112.534899767129
20
8.39416853731078
30
0
41
1
10
112.598718824104
20
8.3284835991881
30
0
41
1
10
112.726356938051
20
8.14763947909231
30
0
41
1
10
112.790175995025
20
8.03245861230195
30
0
41
1
10
112.917814108973
20
7.75098661727904
30
0
41
1
10
112.981633165947
20
7.58468203968636
30
0
41
1
10
113.109271279895
20
7.20213785998925
30
0
41
1
10
113.173090336869
20
6.98589754753874
30
0
41
1
10
113.300728450818
20
6.50769653633731
30
0
41
1
10
113.364547507791
20
6.24574973667364
30
0
41
1
10
113.492185621739
20
5.68319587506315
30
0
41
1
10
113.556004678713
20
5.38261545378953
30
0
41
1
10
113.683642792661
20
4.75208082823053
30
0
41
1
10
113.747461849635
20
4.42216072896213
30
0
41
1
10
113.875099963583
20
3.74352523909314
30
0
41
1
10
113.938919020557
20
3.39484446752803
30
0
41
1
10
114.066557134505
20
2.68949977198224
30
0
41
1
10
114.130376191479
20
2.33286466251744
30
0
41
1
10
114.258014305427
20
1.62168262438485
30
0
41
1
10
114.321833362401
20
1.26715478974145
30
0
41
1
10
114.417561947862
20
0.743378732701018
30
0
41
1
10
114.44947147635
20
0.570109421614575
30
0
41
1
10
114.49733576908
20
0.312863341259487
30
0
41
1
10
114.513290533323
20
0.227556685003293
30
0
41
1
10
114.54520006181
20
0.0579282573328328
30
0
41
1
10
114.561154826054
20
-0.0260813369695825
30
0
41
1
10
114.640928647271
20
-0.449529771957799
30
0
41
1
10
114.704747704245
20
-0.79634081724646
30
0
41
1
10
114.832385818193
20
-1.4989441181722
30
0
41
1
10
114.896204875167
20
-1.8547256684204
30
0
41
1
10
115.023842989115
20
-2.56632354725824
30
0
41
1
10
115.087662046089
20
-2.9221184759885
30
0
41
1
10
115.215300160037
20
-3.6234554492236
30
0
41
1
10
115.279119217011
20
-3.96896697491201
30
0
41
1
10
115.406757330959
20
-4.63889614256411
30
0
41
1
10
115.470576387933
20
-4.9632786821758
30
0
41
1
10
115.598214501881
20
-5.58056025014912
30
0
41
1
10
115.662033558855
20
-5.87342623405979
30
0
41
1
10
115.789671672803
20
-6.41878570800057
30
0
41
1
10
115.853490729777
20
-6.67125499093777
30
0
41
1
10
115.981128843725
20
-7.12931682327692
30
0
41
1
10
116.044947900699
20
-7.33489864287415
30
0
41
1
10
116.172586014647
20
-7.69560513098986
30
0
41
1
10
116.236405071621
20
-7.85073357019661
30
0
41
1
10
116.364043185569
20
-8.10998134573424
30
0
41
1
10
116.427862242543
20
-8.21411637365489
30
0
41
1
10
116.555500356491
20
-8.3735489429852
30
0
41
1
10
116.619319413465
20
-8.42886925377709
30
0
41
1
10
116.715047998926
20
-8.47844524621252
30
0
41
1
10
116.746957527413
20
-8.48941751163616
30
0
41
1
10
116.794821820144
20
-8.49805066865682
30
0
41
1
10
116.810776584387
20
-8.49962478739766
30
0
41
1
10
116.842686112874
20
-8.50025620753064
30
0
41
1
10
116.858640877118
20
-8.49932241102999
30
0
41
1
10
116.938414698335
20
-8.48819780607747
30
0
41
1
10
117.002233755309
20
-8.4585690534696
30
0
41
1
10
117.129871869257
20
-8.35272620688713
30
0
41
1
10
117.193690926231
20
-8.2764877164702
30
0
41
1
10
117.321329040179
20
-8.07396294550279
30
0
41
1
10
117.385148097153
20
-7.94765632523425
30
0
41
1
10
117.512786211101
20
-7.64393581348801
30
0
41
1
10
117.576605268075
20
-7.46651093740792
30
0
41
1
10
117.704243382023
20
-7.06238759084567
30
0
41
1
10
117.768062438997
20
-6.83569156431332
30
0
41
1
10
117.895700552945
20
-6.33789453342243
30
0
41
1
10
117.959519609919
20
-6.06681050695386
30
0
41
1
10
118.087157723867
20
-5.48785042906886
30
0
41
1
10
118.150976780841
20
-5.18000319275876
30
0
41
1
10
118.278614894789
20
-4.53717295234986
30
0
41
1
10
118.342433951763
20
-4.20222477246242
30
0
41
1
10
118.406253008737
20
-3.85906875368983
30
0
0
SPLINE
5
DE
100
AcDbEntity
8
1
62
256
6
ByLayer
370
13
48
1
60
0
100
AcDbSpline
70
4
71
3
72
20
73
16
40
0
40
0
40
0
40
0
40
0.125
40
0.125
40
0.25
40
0.25
40
0.375
40
0.375
40
0.5
40
0.5
40
0.625
40
0.625
40
0.75
40
0.75
40
1
40
1
40
1
40
1
41
1
10
109.3
20
5.91202996810057
30
0
41
1
10
109.348357996122
20
6.12695473116057
30
0
41
1
10
109.396715992244
20
6.3309557122642
30
0
41
1
10
109.493431984488
20
6.7138472576205
30
0
41
1
10
109.54178998061
20
6.89273327236685
30
0
41
1
10
109.638505972854
20
7.22300705294253
30
0
41
1
10
109.686863968976
20
7.37439300268471
30
0
41
1
10
109.78357996122
20
7.64826433394956
30
0
41
1
10
109.831937957342
20
7.77075064619766
30
0
41
1
10
109.928653949586
20
7.98641882160041
30
0
41
1
10
109.977011945708
20
8.07960398398595
30
0
41
1
10
110.073727937952
20
8.2371991635668
30
0
41
1
10
110.122085934074
20
8.30161419507434
30
0
41
1
10
110.26715992244
20
8.45369914061223
30
0
41
1
10
110.363875914684
20
8.5
30
0
41
1
10
110.460591906928
20
8.5
30
0
0
SPLINE
5
DF
100
AcDbEntity
8
1
62
256
6
ByLayer
370
13
48
1
60
0
100
AcDbSpline
70
4
71
3
72
70
73
66
40
0
40
0
40
0
40
0
40
0.03125
40
0.03125
40
0.0624999999999999
40
0.0624999999999999
40
0.0937499999999999
40
0.0937499999999999
40
0.125
40
0.125
40
0.15625
40
0.15625
40
0.1875
40
0.1875
40
0.21875
40
0.21875
40
0.25
40
0.25
40
0.28125
40
0.28125
40
0.3125
40
0.3125
40
0.34375
40
0.34375
40
0.375
40
0.375
40
0.40625
40
0.40625
40
0.4375
40
0.4375
40
0.46875
40
0.46875
40
0.5
40
0.5
40
0.53125
40
0.53125
40
0.5625
40
0.5625
40
0.59375
40
0.59375
40
0.625
40
0.625
40
0.65625
40
0.65625
40
0.6875
40
0.6875
40
0.71875
40
0.71875
40
0.75
40
0.75
40
0.78125
40
0.78125
40
0.8125
40
0.8125
40
0.84375
40
0.84375
40
0.875
40
0.875
40
0.90625
40
0.90625
40
0.9375
40
0.9375
40
0.96875
40
0.96875
40
1
40
1
40
1
40
1
41
1
10
111.783019691913
20
8.5
30
0
41
1
10
111.85201170563
20
8.5
30
0
41
1
10
111.921003719347
20
8.47651585520046
30
0
41
1
10
112.058987746781
20
8.37581755908082
30
0
41
1
10
112.127979760498
20
8.29856721263567
30
0
41
1
10
112.265963787932
20
8.08570500989993
30
0
41
1
10
112.334955801649
20
7.95006263636162
30
0
41
1
10
112.472939829083
20
7.61901696593142
30
0
41
1
10
112.541931842799
20
7.42359792852332
30
0
41
1
10
112.679915870233
20
6.9755604450078
30
0
41
1
10
112.74890788395
20
6.72294790174976
30
0
41
1
10
112.886891911384
20
6.16721594900451
30
0
41
1
10
112.955883925101
20
5.86412529887346
30
0
41
1
10
113.093867952535
20
5.21773869982763
30
0
41
1
10
113.162859966252
20
4.87448857304827
30
0
41
1
10
113.300843993686
20
4.16054594600578
30
0
41
1
10
113.369836007402
20
3.78990542538816
30
0
41
1
10
113.507820034836
20
3.03489387660406
30
0
41
1
10
113.576812048553
20
2.65056922629043
30
0
41
1
10
113.714796075987
20
1.88133066832594
30
0
41
1
10
113.783788089704
20
1.49644913270865
30
0
41
1
10
113.921772117138
20
0.737458156370366
30
0
41
1
10
113.990764130855
20
0.363396514219573
30
0
41
1
10
114.128748158289
20
-0.365225637386203
30
0
41
1
10
114.197740172005
20
-0.739345905839173
30
0
41
1
10
114.335724199439
20
-1.49837227832339
30
0
41
1
10
114.404716213156
20
-1.88326298571704
30
0
41
1
10
114.54270024059
20
-2.65249916107268
30
0
41
1
10
114.611692254307
20
-3.03681222949751
30
0
41
1
10
114.749676281741
20
-3.79177778301073
30
0
41
1
10
114.818668295458
20
-4.1623838724725
30
0
41
1
10
114.956652322891
20
-4.8762350406416
30
0
41
1
10
115.025644336608
20
-5.21942813975974
30
0
41
1
10
115.163628364042
20
-5.86568095571579
30
0
41
1
10
115.232620377759
20
-6.16869487077037
30
0
41
1
10
115.370604405193
20
-6.72425882432469
30
0
41
1
10
115.43959641891
20
-6.97678013875498
30
0
41
1
10
115.577580446344
20
-7.42462730155526
30
0
41
1
10
115.646572460061
20
-7.61994728624745
30
0
41
1
10
115.784556487494
20
-7.95079395862382
30
0
41
1
10
115.853548501211
20
-8.08633641844798
30
0
41
1
10
115.991532528645
20
-8.29900407225884
30
0
41
1
10
116.060524542362
20
-8.37615980068938
30
0
41
1
10
116.198508569796
20
-8.47667875789512
30
0
41
1
10
116.267500583513
20
-8.5000782048765
30
0
41
1
10
116.405484610947
20
-8.49992140149519
30
0
41
1
10
116.474476624664
20
-8.47635251855689
30
0
41
1
10
116.612460652097
20
-8.37547485089925
30
0
41
1
10
116.681452665814
20
-8.29812987323209
30
0
41
1
10
116.819436693248
20
-8.08507310428115
30
0
41
1
10
116.888428706965
20
-7.94933081297219
30
0
41
1
10
117.026412734399
20
-7.61808614760415
30
0
41
1
10
117.095404748116
20
-7.4225680646727
30
0
41
1
10
117.23338877555
20
-6.97434028656647
30
0
41
1
10
117.302380789267
20
-6.72163653341642
30
0
41
1
10
117.4403648167
20
-6.16573662961329
30
0
41
1
10
117.509356830418
20
-5.86256927358642
30
0
41
1
10
117.647340857851
20
-5.21604895679477
30
0
41
1
10
117.716332871568
20
-4.87274183848589
30
0
41
1
10
117.854316899002
20
-4.15870782749172
30
0
41
1
10
117.923308912719
20
-3.78803291447411
30
0
41
1
10
118.061292940153
20
-3.03297544625548
30
0
41
1
10
118.13028495387
20
-2.64863925110933
30
0
41
1
10
118.268268981303
20
-1.87939837954414
30
0
41
1
10
118.33726099502
20
-1.49452604764664
30
0
41
1
10
118.406253008737
20
-1.11504828592894
30
0
0
SPLINE
5
E0
100
AcDbEntity
8
1
62
256
6
ByLayer
370
13
48
1
60
0
100
AcDbSpline
70
4
71
3
72
14
73
10
40
0
40
0
40
0
40
0
40
0.25
40
0.25
40
0.5
40
0.5
40
0.75
40
0.75
40
1
40
1
40
1
40
1
41
1
10
109.3
20
7.67737588380564
30
0
41
1
10
109.355332338301
20
7.82003202484432
30
0
41
1
10
109.410664676601
20
7.9435659650907
30
0
41
1
10
109.521329353203
20
8.15248777522913
30
0
41
1
10
109.576661691503
20
8.23788418219294
30
0
41
1
10
109.687326368104
20
8.37212409626781
30
0
41
1
10
109.742658706405
20
8.42097888870487
30
0
41
1
10
109.853323383006
20
8.48491079736351
30
0
41
1
10
109.908655721307
20
8.5
30
0
41
1
10
109.963988059608
20
8.5
30
0
0
SPLINE
5
E1
100
AcDbEntity
8
1
62
256
6
ByLayer
370
13
48
1
60
0
100
AcDbSpline
70
4
71
3
72
85
73
81
40
0
40
0
40
0
40
0
40
0.0312500000000013
40
0.0312500000000013
40
0.0625000000000027
40
0.0625000000000027
40
0.093750000000004
40
0.093750000000004
40
0.125000000000005
40
0.125000000000005
40
0.156250000000007
40
0.156250000000007
40
0.187500000000008
40
0.187500000000008
40
0.218750000000009
40
0.218750000000009
40
0.25000000000001
40
0.25000000000001
40
0.281250000000012
40
0.281250000000012
40
0.312500000000013
40
0.312500000000013
40
0.320312500000013
40
0.320312500000013
40
0.328125000000013
40
0.328125000000013
40
0.343750000000013
40
0.343750000000013
40
0.375000000000014
40
0.375000000000014
40
0.406250000000014
40
0.406250000000014
40
0.437500000000015
40
0.437500000000015
40
0.468750000000015
40
0.468750000000015
40
0.500000000000016
40
0.500000000000016
40
0.531250000000017
40
0.531250000000017
40
0.562500000000017
40
0.562500000000017
40
0.593750000000018
40
0.593750000000018
40
0.625000000000018
40
0.625000000000018
40
0.632812500000018
40
0.636718750000018
40
0.636718750000018
40
0.640625000000018
40
0.640625000000018
40
0.656250000000017
40
0.656250000000017
40
0.687500000000016
40
0.687500000000016
40
0.718750000000014
40
0.718750000000014
40
0.750000000000012
40
0.750000000000012
40
0.78125000000001
40
0.78125000000001
40
0.812500000000009
40
0.812500000000009
40
0.843750000000007
40
0.843750000000007
40
0.875000000000005
40
0.875000000000005
40
0.906250000000003
40
0.906250000000003
40
0.937500000000002
40
0.937500000000002
40
0.953125000000001
40
0.953125000000001
40
0.957031250000001
40
0.957031250000001
40
0.960937500000001
40
0.960937500000001
40
0.96875
40
0.96875
40
1
40
1
40
1
40
1
41
1
10
111.286415844593
20
8.5
30
0
41
1
10
111.360580815053
20
8.5
30
0
41
1
10
111.434745785513
20
8.47284876905098
30
0
41
1
10
111.583075726432
20
8.35592771115412
30
0
41
1
10
111.657240696892
20
8.26610618693667
30
0
41
1
10
111.805570637812
20
8.01847357303416
30
0
41
1
10
111.879735608272
20
7.86062114018085
30
0
41
1
10
112.028065549191
20
7.47604986539301
30
0
41
1
10
112.102230519651
20
7.24931484533363
30
0
41
1
10
112.250560460571
20
6.7315142555083
30
0
41
1
10
112.324725431031
20
6.44046726742368
30
0
41
1
10
112.47305537195
20
5.80398372187557
30
0
41
1
10
112.54722034241
20
5.45859901724771
30
0
41
1
10
112.69555028333
20
4.72771138562251
30
0
41
1
10
112.76971525379
20
4.34228025150202
30
0
41
1
10
112.91804519471
20
3.54798546729964
30
0
41
1
10
112.992210165169
20
3.13919401309295
30
0
41
1
10
113.140540106089
20
2.31504133897522
30
0
41
1
10
113.214705076549
20
1.89973554834478
30
0
41
1
10
113.363035017469
20
1.0776190608301
30
0
41
1
10
113.437199987928
20
0.670838365390836
30
0
41
1
10
113.529906201003
20
0.1751476535199
30
0
41
1
10
113.548447443618
20
0.0768204462999904
30
0
41
1
10
113.585529928848
20
-0.119185476721384
30
0
41
1
10
113.604071171463
20
-0.21788439550798
30
0
41
1
10
113.659694899308
20
-0.515838970367469
30
0
41
1
10
113.696777384538
20
-0.716959355565763
30
0
41
1
10
113.808024840228
20
-1.32567966612419
30
0
41
1
10
113.882189810687
20
-1.73873310512062
30
0
41
1
10
114.030519751607
20
-2.56566906772079
30
0
41
1
10
114.104684722067
20
-2.9795074918753
30
0
41
1
10
114.253014662987
20
-3.79181759565071
30
0
41
1
10
114.327179633446
20
-4.19022315377637
30
0
41
1
10
114.475509574366
20
-4.95464153858907
30
0
41
1
10
114.549674544826
20
-5.32057990382927
30
0
41
1
10
114.698004485746
20
-6.0043781995748
30
0
41
1
10
114.772169456205
20
-6.32217480001046
30
0
41
1
10
114.920499397125
20
-6.89748860223534
30
0
41
1
10
114.994664367585
20
-7.15497082064886
30
0
41
1
10
115.142994308505
20
-7.60247448022596
30
0
41
1
10
115.217159278964
20
-7.79249658887716
30
0
41
1
10
115.365489219884
20
-8.10344943473112
30
0
41
1
10
115.439654190344
20
-8.22441153348785
30
0
41
1
10
115.587984131264
20
-8.40065431648716
30
0
41
1
10
115.662149101724
20
-8.45598377821796
30
0
41
1
10
115.754855314798
20
-8.48858994670866
30
0
41
1
10
115.782667178721
20
-8.49564071212154
30
0
41
1
10
115.810479042643
20
-8.49874780028793
30
0
41
1
10
115.829020285258
20
-8.4999606918837
30
0
41
1
10
115.838290906566
20
-8.50013892138625
30
0
41
1
10
115.884644013103
20
-8.49891588965508
30
0
41
1
10
115.921726498333
20
-8.49112507369526
30
0
41
1
10
116.032973954023
20
-8.44566638866894
30
0
41
1
10
116.107138924482
20
-8.38581023586477
30
0
41
1
10
116.255468865402
20
-8.20012241443132
30
0
41
1
10
116.329633835862
20
-8.07424270935874
30
0
41
1
10
116.477963776782
20
-7.75338855622968
30
0
41
1
10
116.552128747241
20
-7.55838457639769
30
0
41
1
10
116.700458688161
20
-7.10124410654331
30
0
41
1
10
116.774623658621
20
-6.83910948967119
30
0
41
1
10
116.922953599541
20
-6.25521076877843
30
0
41
1
10
116.99711857
20
-5.93348408427644
30
0
41
1
10
117.14544851092
20
-5.24286027091765
30
0
41
1
10
117.21961348138
20
-4.87402792913326
30
0
41
1
10
117.3679434223
20
-4.10503126066382
30
0
41
1
10
117.442108392759
20
-3.7049414164245
30
0
41
1
10
117.590438333679
20
-2.89048432087915
30
0
41
1
10
117.664603304139
20
-2.47618195502875
30
0
41
1
10
117.812933245059
20
-1.6494079849133
30
0
41
1
10
117.887098215518
20
-1.23697861767951
30
0
41
1
10
117.998345671208
20
-0.629842197676339
30
0
41
1
10
118.035428156438
20
-0.429357191812869
30
0
41
1
10
118.081781262975
20
-0.181970190001749
30
0
41
1
10
118.091051884283
20
-0.132653206559439
30
0
41
1
10
118.109593126898
20
-0.0343591769179739
30
0
41
1
10
118.118863748205
20
0.0145114512573343
30
0
41
1
10
118.146675612128
20
0.161814352144063
30
0
41
1
10
118.165216854743
20
0.260701624777937
30
0
41
1
10
118.257923067818
20
0.758176155552263
30
0
41
1
10
118.332088038277
20
1.16601243416449
30
0
41
1
10
118.406253008737
20
1.57763159400642
30
0
0
SPLINE
5
E2
100
AcDbEntity
8
1
62
256
6
ByLayer
370
13
48
1
60
0
100
AcDbSpline
70
4
71
3
72
8
73
4
40
0
40
0
40
0
40
0
40
1
40
1
40
1
40
1
41
1
10
109.3
20
8.45213991669834
30
0
41
1
10
109.355794737429
20
8.48465706750838
30
0
41
1
10
109.411589474858
20
8.5
30
0
41
1
10
109.467384212287
20
8.5
30
0
0
SPLINE
5
E3
100
AcDbEntity
8
1
62
256
6
ByLayer
370
13
48
1
60
0
100
AcDbSpline
70
4
71
3
72
85
73
81
40
0
40
0
40
0
40
0
40
0.0312499999999984
40
0.0312499999999984
40
0.0624999999999969
40
0.0624999999999969
40
0.0937499999999953
40
0.0937499999999953
40
0.124999999999994
40
0.124999999999994
40
0.156249999999992
40
0.156249999999992
40
0.187499999999991
40
0.187499999999991
40
0.218749999999989
40
0.218749999999989
40
0.249999999999988
40
0.249999999999988
40
0.281249999999986
40
0.281249999999986
40
0.296874999999985
40
0.296874999999985
40
0.300781249999985
40
0.300781249999985
40
0.304687499999985
40
0.312499999999985
40
0.312499999999985
40
0.343749999999986
40
0.343749999999986
40
0.374999999999986
40
0.374999999999986
40
0.406249999999987
40
0.406249999999987
40
0.437499999999988
40
0.437499999999988
40
0.468749999999989
40
0.468749999999989
40
0.49999999999999
40
0.49999999999999
40
0.53124999999999
40
0.53124999999999
40
0.562499999999991
40
0.562499999999991
40
0.593749999999992
40
0.593749999999992
40
0.601562499999992
40
0.601562499999992
40
0.609374999999992
40
0.609374999999992
40
0.624999999999992
40
0.624999999999992
40
0.656249999999993
40
0.656249999999993
40
0.687499999999994
40
0.687499999999994
40
0.718749999999995
40
0.718749999999995
40
0.749999999999995
40
0.749999999999995
40
0.781249999999996
40
0.781249999999996
40
0.812499999999997
40
0.812499999999997
40
0.843749999999998
40
0.843749999999998
40
0.874999999999998
40
0.874999999999998
40
0.890624999999999
40
0.890624999999999
40
0.894531249999999
40
0.894531249999999
40
0.898437499999999
40
0.898437499999999
40
0.906249999999999
40
0.906249999999999
40
0.937499999999999
40
0.937499999999999
40
0.96875
40
0.96875
40
1
40
1
40
1
40
1
41
1
10
110.789811997273
20
8.5
30
0
41
1
10
110.869149924476
20
8.5
30
0
41
1
10
110.948487851678
20
8.46891219585029
30
0
41
1
10
111.107163706084
20
8.33448546085347
30
0
41
1
10
111.186501633287
20
8.23107457951605
30
0
41
1
10
111.345177487692
20
7.94591368464606
30
0
41
1
10
111.424515414895
20
7.76410963033402
30
0
41
1
10
111.5831912693
20
7.32217865503313
30
0
41
1
10
111.662529196503
20
7.0620386517337
30
0
41
1
10
111.821205050909
20
6.47064773229849
30
0
41
1
10
111.900542978112
20
6.1394367847347
30
0
41
1
10
112.059218832517
20
5.41993814670334
30
0
41
1
10
112.13855675972
20
5.03173547986961
30
0
41
1
10
112.297232614125
20
4.21718293158469
30
0
41
1
10
112.376570541328
20
3.79093707404223
30
0
41
1
10
112.535246395734
20
2.92117421753181
30
0
41
1
10
112.614584322936
20
2.47774914367781
30
0
41
1
10
112.773260177342
20
1.59339400502293
30
0
41
1
10
112.852598104545
20
1.15252228189581
30
0
41
1
10
112.971604995349
20
0.505335776314922
30
0
41
1
10
113.01127395895
20
0.291928313733649
30
0
41
1
10
113.060860163452
20
0.029076318632093
30
0
41
1
10
113.070777404352
20
-0.0231921635045182
30
0
41
1
10
113.090611886153
20
-0.128303812048216
30
0
41
1
10
113.120363608854
20
-0.286556217127696
30
0
41
1
10
113.150115331555
20
-0.446460280362089
30
0
41
1
10
113.249287740558
20
-0.982642490804977
30
0
41
1
10
113.328625667761
20
-1.42189835051735
30
0
41
1
10
113.487301522167
20
-2.30536030737556
30
0
41
1
10
113.566639449369
20
-2.74951314347442
30
0
41
1
10
113.725315303775
20
-3.62340987496401
30
0
41
1
10
113.804653230978
20
-4.0530653138766
30
0
41
1
10
113.963329085383
20
-4.87710253516434
30
0
41
1
10
114.042667012586
20
-5.27138018571506
30
0
41
1
10
114.201342866991
20
-6.0052716325803
30
0
41
1
10
114.280680794194
20
-6.34479620334412
30
0
41
1
10
114.4393566486
20
-6.95428935048398
30
0
41
1
10
114.518694575802
20
-7.22421120340076
30
0
41
1
10
114.677370430208
20
-7.68623992670572
30
0
41
1
10
114.756708357411
20
-7.87835331108391
30
0
41
1
10
114.915384211816
20
-8.18376365878714
30
0
41
1
10
114.994722139019
20
-8.29711054780182
30
0
41
1
10
115.153397993424
20
-8.45034232740304
30
0
41
1
10
115.232735920627
20
-8.49029820638901
30
0
41
1
10
115.331908329631
20
-8.50045707245962
30
0
41
1
10
115.351742811431
20
-8.50052866782244
30
0
41
1
10
115.391411775033
20
-8.49676132458109
30
0
41
1
10
115.411246256833
20
-8.49289929947375
30
0
41
1
10
115.470749702235
20
-8.47512432408382
30
0
41
1
10
115.510418665837
20
-8.45501580708867
30
0
41
1
10
115.629425556641
20
-8.36808939192014
30
0
41
1
10
115.708763483844
20
-8.27450957341
30
0
41
1
10
115.867439338249
20
-8.00949213726406
30
0
41
1
10
115.946777265452
20
-7.83799676980502
30
0
41
1
10
116.105453119857
20
-7.41628537219947
30
0
41
1
10
116.18479104706
20
-7.16604990914763
30
0
41
1
10
116.343466901466
20
-6.5931235863853
30
0
41
1
10
116.422804828669
20
-6.27046580312171
30
0
41
1
10
116.581480683074
20
-5.56592286130905
30
0
41
1
10
116.660818610277
20
-5.18411806636649
30
0
41
1
10
116.819494464682
20
-4.37972883114554
30
0
41
1
10
116.898832391885
20
-3.95724776164582
30
0
41
1
10
117.05750824629
20
-3.09230943061073
30
0
41
1
10
117.136846173493
20
-2.64994719210327
30
0
41
1
10
117.295522027899
20
-1.76530960968162
30
0
41
1
10
117.374859955101
20
-1.3230976059192
30
0
41
1
10
117.493866845906
20
-0.67249735604841
30
0
41
1
10
117.533535809507
20
-0.457719451523616
30
0
41
1
10
117.583122014009
20
-0.192911184199886
30
0
41
1
10
117.593039254909
20
-0.140132023164597
30
0
41
1
10
117.61287373671
20
-0.0349621395188819
30
0
41
1
10
117.62279097761
20
0.0173096776569537
30
0
41
1
10
117.652542700311
20
0.174933330571747
30
0
41
1
10
117.672377182112
20
0.280798341045369
30
0
41
1
10
117.771549591115
20
0.813558217048836
30
0
41
1
10
117.850887518318
20
1.25093220304183
30
0
41
1
10
118.009563372724
20
2.13290573680925
30
0
41
1
10
118.088901299926
20
2.57745715046826
30
0
41
1
10
118.247577154332
20
3.45480283956951
30
0
41
1
10
118.326915081534
20
3.88751246272463
30
0
41
1
10
118.406253008737
20
4.30393036384723
30
0
0
SPLINE
5
E4
100
AcDbEntity
8
1
62
256
6
ByLayer
370
13
48
1
60
0
100
AcDbSpline
70
4
71
3
72
85
73
81
40
0
40
0
40
0
40
0
40
0.0312499999999984
40
0.0312499999999984
40
0.0624999999999968
40
0.0624999999999968
40
0.0937499999999952
40
0.0937499999999952
40
0.124999999999994
40
0.124999999999994
40
0.156249999999992
40
0.156249999999992
40
0.18749999999999
40
0.18749999999999
40
0.218749999999989
40
0.218749999999989
40
0.249999999999987
40
0.249999999999987
40
0.265624999999986
40
0.265624999999986
40
0.273437499999986
40
0.277343749999986
40
0.277343749999986
40
0.281249999999986
40
0.281249999999986
40
0.312499999999987
40
0.312499999999987
40
0.343749999999987
40
0.343749999999987
40
0.374999999999988
40
0.374999999999988
40
0.406249999999989
40
0.406249999999989
40
0.43749999999999
40
0.43749999999999
40
0.468749999999991
40
0.468749999999991
40
0.499999999999992
40
0.499999999999992
40
0.531249999999993
40
0.531249999999993
40
0.546874999999993
40
0.546874999999993
40
0.554687499999993
40
0.558593749999994
40
0.558593749999994
40
0.562499999999994
40
0.562499999999994
40
0.593749999999994
40
0.593749999999994
40
0.624999999999995
40
0.624999999999995
40
0.656249999999995
40
0.656249999999995
40
0.687499999999996
40
0.687499999999996
40
0.718749999999996
40
0.718749999999996
40
0.749999999999996
40
0.749999999999996
40
0.781249999999997
40
0.781249999999997
40
0.812499999999997
40
0.812499999999997
40
0.828124999999997
40
0.828124999999997
40
0.835937499999998
40
0.839843749999998
40
0.839843749999998
40
0.843749999999998
40
0.843749999999998
40
0.874999999999998
40
0.874999999999998
40
0.906249999999999
40
0.906249999999999
40
0.937499999999999
40
0.937499999999999
40
0.96875
40
0.96875
40
1
40
1
40
1
40
1
41
1
10
110.293208149953
20
8.5
30
0
41
1
10
110.377719033899
20
8.5
30
0
41
1
10
110.462229917844
20
8.46470504319254
30
0
41
1
10
110.631251685736
20
8.31147781868023
30
0
41
1
10
110.715762569681
20
8.19344767795275
30
0
41
1
10
110.884784337573
20
7.86800287292306
30
0
41
1
10
110.969295221518
20
7.66051998139767
30
0
41
1
10
111.13831698941
20
7.15754263463617
30
0
41
1
10
111.222827873355
20
6.86204400530167
30
0
41
1
10
111.391849641247
20
6.19373661962393
30
0
41
1
10
111.476360525192
20
5.82100092438267
30
0
41
1
10
111.645382293084
20
5.01723613173937
30
0
41
1
10
111.729893177029
20
4.58633657252503
30
0
41
1
10
111.898914944921
20
3.6904242183397
30
0
41
1
10
111.983425828866
20
3.22555204908733
30
0
41
1
10
112.152447596758
20
2.28679812663879
30
0
41
1
10
112.236958480703
20
1.81302364244797
30
0
41
1
10
112.363724806622
20
1.1122178547507
30
0
41
1
10
112.405980248595
20
0.880225340244635
30
0
41
1
10
112.469363411554
20
0.536349783542988
30
0
41
1
10
112.501054993034
20
0.365436133769663
30
0
41
1
10
112.532746574513
20
0.196338246963364
30
0
41
1
10
112.5538742955
20
0.0840381120667928
30
0
41
1
10
112.564438155993
20
0.0282170359006102
30
0
41
1
10
112.659512900432
20
-0.474473418469444
30
0
41
1
10
112.744023784377
20
-0.935971215900366
30
0
41
1
10
112.913045552269
20
-1.87139833570615
30
0
41
1
10
112.997556436214
20
-2.34527347602992
30
0
41
1
10
113.166578204106
20
-3.28323254191392
30
0
41
1
10
113.251089088052
20
-3.74720719310378
30
0
41
1
10
113.420110855943
20
-4.64027974138412
30
0
41
1
10
113.504621739888
20
-5.06923649259542
30
0
41
1
10
113.67364350778
20
-5.86819856851298
30
0
41
1
10
113.758154391725
20
-6.23807588067154
30
0
41
1
10
113.927176159617
20
-6.90003944942922
30
0
41
1
10
114.011687043563
20
-7.19205565608544
30
0
41
1
10
114.180708811454
20
-7.68782221328522
30
0
41
1
10
114.265219695399
20
-7.89157985493321
30
0
41
1
10
114.434241463291
20
-8.20970279354074
30
0
41
1
10
114.518752347236
20
-8.32413829077259
30
0
41
1
10
114.645518673155
20
-8.43397882366205
30
0
41
1
10
114.687774115128
20
-8.460345925372
30
0
41
1
10
114.751157278087
20
-8.48557710341757
30
0
41
1
10
114.782848859566
20
-8.49461633069632
30
0
41
1
10
114.814540441046
20
-8.49851511425021
30
0
41
1
10
114.835668162033
20
-8.49999840040874
30
0
41
1
10
114.846232022526
20
-8.50018398301478
30
0
41
1
10
114.941306766965
20
-8.49690844324459
30
0
41
1
10
115.02581765091
20
-8.45841409425469
30
0
41
1
10
115.194839418802
20
-8.29838052115164
30
0
41
1
10
115.279350302748
20
-8.17674390420748
30
0
41
1
10
115.448372070639
20
-7.84396759954583
30
0
41
1
10
115.532882954584
20
-7.63276171961516
30
0
41
1
10
115.701904722476
20
-7.12259432129855
30
0
41
1
10
115.786415606422
20
-6.82363177038494
30
0
41
1
10
115.955437374313
20
-6.14903205069643
30
0
41
1
10
116.039948258259
20
-5.77347091739799
30
0
41
1
10
116.20897002615
20
-4.96497825151454
30
0
41
1
10
116.293480910095
20
-4.5321777013848
30
0
41
1
10
116.462502677987
20
-3.6335106875093
30
0
41
1
10
116.547013561932
20
-3.16778425032371
30
0
41
1
10
116.716035329824
20
-2.22831672473222
30
0
41
1
10
116.80054621377
20
-1.75468086196776
30
0
41
1
10
116.927312539688
20
-1.05468948985171
30
0
41
1
10
116.969567981661
20
-0.823068701817675
30
0
41
1
10
117.03295114462
20
-0.479878881474235
30
0
41
1
10
117.0646427261
20
-0.309340101477318
30
0
41
1
10
117.096334307579
20
-0.140660700462945
30
0
41
1
10
117.117462028566
20
-0.0286487539640632
30
0
41
1
10
117.128025889059
20
0.0270207472969446
30
0
41
1
10
117.223100633498
20
0.531035924958701
30
0
41
1
10
117.307611517444
20
0.993421142608383
30
0
41
1
10
117.476633285335
20
1.92980042613087
30
0
41
1
10
117.561144169281
20
2.40373793609416
30
0
41
1
10
117.730165937172
20
3.34082048204408
30
0
41
1
10
117.814676821118
20
3.80385427833102
30
0
41
1
10
117.983698589009
20
4.69400200966888
30
0
41
1
10
118.068209472955
20
5.12097435872712
30
0
41
1
10
118.237231240846
20
5.91505960562031
30
0
41
1
10
118.321742124792
20
6.28204609691883
30
0
41
1
10
118.406253008737
20
6.60983081813302
30
0
0
SPLINE
5
E5
100
AcDbEntity
8
1
62
256
6
ByLayer
370
13
48
1
60
0
100
AcDbSpline
70
4
71
3
72
86
73
82
40
0
40
0
40
0
40
0
40
0.0312500000000001
40
0.0312500000000001
40
0.0625000000000002
40
0.0625000000000002
40
0.0937500000000003
40
0.0937500000000003
40
0.125
40
0.125
40
0.156250000000001
40
0.156250000000001
40
0.187500000000001
40
0.187500000000001
40
0.218750000000001
40
0.218750000000001
40
0.250000000000001
40
0.250000000000001
40
0.257812500000001
40
0.257812500000001
40
0.261718750000001
40
0.261718750000001
40
0.265625000000001
40
0.265625000000001
40
0.28125
40
0.28125
40
0.312499999999999
40
0.312499999999999
40
0.343749999999998
40
0.343749999999998
40
0.374999999999997
40
0.374999999999997
40
0.406249999999996
40
0.406249999999996
40
0.437499999999995
40
0.437499999999995
40
0.468749999999994
40
0.468749999999994
40
0.499999999999993
40
0.499999999999993
40
0.515624999999992
40
0.515624999999992
40
0.523437499999992
40
0.523437499999992
40
0.527343749999992
40
0.527343749999992
40
0.531249999999992
40
0.531249999999992
40
0.562499999999992
40
0.562499999999992
40
0.593749999999992
40
0.593749999999992
40
0.624999999999992
40
0.624999999999992
40
0.656249999999992
40
0.656249999999992
40
0.687499999999992
40
0.687499999999992
40
0.718749999999992
40
0.718749999999992
40
0.749999999999992
40
0.749999999999992
40
0.781249999999992
40
0.781249999999992
40
0.789062499999992
40
0.789062499999992
40
0.796874999999992
40
0.796874999999992
40
0.812499999999993
40
0.812499999999993
40
0.843749999999994
40
0.843749999999994
40
0.874999999999995
40
0.874999999999995
40
0.906249999999996
40
0.906249999999996
40
0.937499999999998
40
0.937499999999998
40
0.968749999999999
40
0.968749999999999
40
1
40
1
40
1
40
1
41
1
10
109.796604302633
20
8.5
30
0
41
1
10
109.886288143321
20
8.5
30
0
41
1
10
109.97597198401
20
8.46022610421488
30
0
41
1
10
110.155339665387
20
8.28689235884221
30
0
41
1
10
110.245023506076
20
8.15320206380639
30
0
41
1
10
110.424391187453
20
7.78472800148233
30
0
41
1
10
110.514075028142
20
7.5498610570047
30
0
41
1
10
110.693442709519
20
6.98232739612226
30
0
41
1
10
110.783126550207
20
6.64967415666405
30
0
41
1
10
110.962494231584
20
5.90167695439746
30
0
41
1
10
111.052178072273
20
5.48645399951212
30
0
41
1
10
111.23154575365
20
4.59821383754601
30
0
41
1
10
111.321229594339
20
4.12538230421802
30
0
41
1
10
111.500597275716
20
3.15179672361046
30
0
41
1
10
111.590281116405
20
2.65122090058631
30
0
41
1
10
111.769648797782
20
1.65125136528968
30
0
41
1
10
111.85933263847
20
1.15197140366522
30
0
41
1
10
111.971437439331
20
0.543466769180355
30
0
41
1
10
111.993858399503
20
0.422528813243247
30
0
41
1
10
112.027489839762
20
0.242489449258528
30
0
41
1
10
112.038700319847
20
0.182704022893205
30
0
41
1
10
112.06112128002
20
0.0636229242602155
30
0
41
1
10
112.072331760106
20
0.0044970393845745
30
0
41
1
10
112.128384160536
20
-0.292255872260142
30
0
41
1
10
112.17322608088
20
-0.533696323275194
30
0
41
1
10
112.307751841913
20
-1.26663159712498
30
0
41
1
10
112.397435682602
20
-1.7669427886685
30
0
41
1
10
112.576803363979
20
-2.76688696438484
30
0
41
1
10
112.666487204668
20
-3.26640010063318
30
0
41
1
10
112.845854886045
20
-4.23551913873294
30
0
41
1
10
112.935538726733
20
-4.70494377424737
30
0
41
1
10
113.114906408111
20
-5.58419497818971
30
0
41
1
10
113.204590248799
20
-5.99383839515372
30
0
41
1
10
113.383957930176
20
-6.72910187717366
30
0
41
1
10
113.473641770865
20
-7.05460833718604
30
0
41
1
10
113.653009452242
20
-7.60715361576751
30
0
41
1
10
113.742693292931
20
-7.83418747819957
30
0
41
1
10
113.922060974308
20
-8.18720456392191
30
0
41
1
10
114.011744814997
20
-8.31327662875964
30
0
41
1
10
114.146270576029
20
-8.43253269424119
30
0
41
1
10
114.191112496374
20
-8.4607149010684
30
0
41
1
10
114.25837537689
20
-8.48688546994339
30
0
41
1
10
114.280796337062
20
-8.49292818332023
30
0
41
1
10
114.31442777732
20
-8.49815035056847
30
0
41
1
10
114.325638257406
20
-8.49925089258929
30
0
41
1
10
114.348059217579
20
-8.50020297929836
30
0
41
1
10
114.359269697665
20
-8.50005920807416
30
0
41
1
10
114.460164018439
20
-8.49313759057966
30
0
41
1
10
114.549847859128
20
-8.44656928839765
30
0
41
1
10
114.729215540505
20
-8.25877631000932
30
0
41
1
10
114.818899381194
20
-8.11742280014082
30
0
41
1
10
114.998267062571
20
-7.73346596992792
30
0
41
1
10
115.087950903259
20
-7.49078545044043
30
0
41
1
10
115.267318584637
20
-6.90837440150165
30
0
41
1
10
115.357002425325
20
-6.5686659437014
30
0
41
1
10
115.536370106703
20
-5.80817783173924
30
0
41
1
10
115.626053947391
20
-5.38752631976863
30
0
41
1
10
115.805421628768
20
-4.49062922720819
30
0
41
1
10
115.895105469457
20
-4.01457138879815
30
0
41
1
10
116.074473150834
20
-3.03687523605913
30
0
41
1
10
116.164156991523
20
-2.53541175094145
30
0
41
1
10
116.3435246729
20
-1.53573393537329
30
0
41
1
10
116.433208513588
20
-1.03762716849292
30
0
41
1
10
116.545313314449
20
-0.431545913977885
30
0
41
1
10
116.567734274621
20
-0.311140117101502
30
0
41
1
10
116.612576194965
20
-0.0722376634957698
30
0
41
1
10
116.634997155138
20
0.0456795475137426
30
0
41
1
10
116.702260035654
20
0.403604511970883
30
0
41
1
10
116.747101955998
20
0.646094921793036
30
0
41
1
10
116.881627717031
20
1.3815763957802
30
0
41
1
10
116.97131155772
20
1.88277364476011
30
0
41
1
10
117.150679239097
20
2.88237058332481
30
0
41
1
10
117.240363079786
20
3.38064443840571
30
0
41
1
10
117.419730761163
20
4.34494038938951
30
0
41
1
10
117.509414601852
20
4.81077854616771
30
0
41
1
10
117.688782283229
20
5.68071346464575
30
0
41
1
10
117.778466123917
20
6.08463004693974
30
0
41
1
10
117.957833805294
20
6.80692608117451
30
0
41
1
10
118.047517645983
20
7.12519957551885
30
0
41
1
10
118.22688532736
20
7.66265635397295
30
0
41
1
10
118.316569168049
20
7.88184310372375
30
0
41
1
10
118.406253008737
20
8.05064089575541
30
0
0
SPLINE
5
E6
100
AcDbEntity
8
1
62
256
6
ByLayer
370
13
48
1
60
0
100
AcDbSpline
70
4
71
3
72
118
73
114
40
0
40
0
40
0
40
0
40
0.0312499999999998
40
0.0312499999999998
40
0.0468749999999996
40
0.0468749999999996
40
0.0624999999999994
40
0.0624999999999994
40
0.0781249999999992
40
0.0781249999999992
40
0.0937499999999989
40
0.0937499999999989
40
0.109374999999999
40
0.109374999999999
40
0.124999999999999
40
0.124999999999999
40
0.140624999999998
40
0.140624999999998
40
0.156249999999998
40
0.156249999999998
40
0.171874999999998
40
0.171874999999998
40
0.187499999999998
40
0.187499999999998
40
0.203124999999997
40
0.203124999999997
40
0.218749999999997
40
0.218749999999997
40
0.249999999999997
40
0.249999999999997
40
0.281249999999997
40
0.281249999999997
40
0.296874999999997
40
0.296874999999997
40
0.312499999999997
40
0.312499999999997
40
0.328124999999997
40
0.328124999999997
40
0.343749999999997
40
0.343749999999997
40
0.359374999999997
40
0.359374999999997
40
0.374999999999997
40
0.374999999999997
40
0.390624999999997
40
0.390624999999997
40
0.406249999999997
40
0.406249999999997
40
0.421874999999997
40
0.421874999999997
40
0.437499999999997
40
0.437499999999997
40
0.453124999999997
40
0.453124999999997
40
0.468749999999997
40
0.468749999999997
40
0.499999999999997
40
0.499999999999997
40
0.531249999999998
40
0.531249999999998
40
0.546874999999998
40
0.546874999999998
40
0.562499999999998
40
0.562499999999998
40
0.578124999999998
40
0.578124999999998
40
0.593749999999998
40
0.593749999999998
40
0.609374999999998
40
0.609374999999998
40
0.624999999999998
40
0.624999999999998
40
0.640624999999999
40
0.640624999999999
40
0.656249999999999
40
0.656249999999999
40
0.671874999999999
40
0.671874999999999
40
0.687499999999999
40
0.687499999999999
40
0.703124999999999
40
0.703124999999999
40
0.718749999999999
40
0.718749999999999
40
0.749999999999999
40
0.749999999999999
40
0.78125
40
0.78125
40
0.796875
40
0.796875
40
0.8125
40
0.8125
40
0.828125
40
0.828125
40
0.84375
40
0.84375
40
0.859375
40
0.859375
40
0.875
40
0.875
40
0.890625
40
0.890625
40
0.90625
40
0.90625
40
0.921875
40
0.921875
40
0.9375
40
0.9375
40
0.953125
40
0.953125
40
0.96875
40
0.96875
40
1
40
1
40
1
40
1
41
1
10
109.300000455313
20
8.5
30
0
41
1
10
109.394857252744
20
8.5
30
0
41
1
10
109.489714050176
20
8.455474052683
30
0
41
1
10
109.631999246323
20
8.30940644287998
30
0
41
1
10
109.679427645039
20
8.24755209656595
30
0
41
1
10
109.77428444247
20
8.09623026070841
30
0
41
1
10
109.821712841186
20
8.00675815063033
30
0
41
1
10
109.916569638617
20
7.79964309170003
30
0
41
1
10
109.963998037333
20
7.68199700464262
30
0
41
1
10
110.058854834765
20
7.41883130883744
30
0
41
1
10
110.10628323348
20
7.27331062829884
30
0
41
1
10
110.201140030912
20
6.95561334834579
30
0
41
1
10
110.248568429628
20
6.78343810273191
30
0
41
1
10
110.343425227059
20
6.41456647335565
30
0
41
1
10
110.390853625775
20
6.21787390007091
30
0
41
1
10
110.485710423206
20
5.80294187801883
30
0
41
1
10
110.533138821922
20
5.58470836149155
30
0
41
1
10
110.627995619354
20
5.13036040066513
30
0
41
1
10
110.67542401807
20
4.89425335552605
30
0
41
1
10
110.770280815501
20
4.40831318093169
30
0
41
1
10
110.817709214217
20
4.15848806454375
30
0
41
1
10
110.912566011648
20
3.64952085720424
30
0
41
1
10
110.959994410364
20
3.39038650566641
30
0
41
1
10
111.054851207795
20
2.86722449857706
30
0
41
1
10
111.102279606511
20
2.60320354578738
30
0
41
1
10
111.197136403943
20
2.07448713758092
30
0
41
1
10
111.244564802659
20
1.80979682347564
30
0
41
1
10
111.386849998806
20
1.0204658471535
30
0
41
1
10
111.481706796237
20
0.500867894007911
30
0
41
1
10
111.6714203911
20
-0.500866691926404
30
0
41
1
10
111.766277188532
20
-1.02046459421143
30
0
41
1
10
111.908562384679
20
-1.80979555555231
30
0
41
1
10
111.955990783395
20
-2.07448586753995
30
0
41
1
10
112.050847580826
20
-2.60320227798954
30
0
41
1
10
112.098275979542
20
-2.8672232351428
30
0
41
1
10
112.193132776974
20
-3.39038525792296
30
0
41
1
10
112.240561175689
20
-3.64951962079022
30
0
41
1
10
112.335417973121
20
-4.15848685791505
30
0
41
1
10
112.382846371837
20
-4.40831199275999
30
0
41
1
10
112.477703169268
20
-4.89425221118472
30
0
41
1
10
112.525131567984
20
-5.13035928169697
30
0
41
1
10
112.619988365415
20
-5.58470729958935
30
0
41
1
10
112.667416764131
20
-5.8029408478078
30
0
41
1
10
112.762273561563
20
-6.21787293860805
30
0
41
1
10
112.809701960278
20
-6.41456554894688
30
0
41
1
10
112.90455875771
20
-6.78343725655665
30
0
41
1
10
112.951987156426
20
-6.95561254334621
30
0
41
1
10
113.046843953857
20
-7.27330990835125
30
0
41
1
10
113.094272352573
20
-7.41883063276217
30
0
41
1
10
113.189129150004
20
-7.68199641752236
30
0
41
1
10
113.23655754872
20
-7.79964254965876
30
0
41
1
10
113.331414346152
20
-8.00675769851907
30
0
41
1
10
113.378842744867
20
-8.09622985344524
30
0
41
1
10
113.473699542299
20
-8.24755177748409
30
0
41
1
10
113.521127941015
20
-8.30940616712951
30
0
41
1
10
113.663413137162
20
-8.4554739030591
30
0
41
1
10
113.758269934594
20
-8.49999992916659
30
0
41
1
10
113.947983529457
20
-8.50000007083327
30
0
41
1
10
114.042840326888
20
-8.4554742023067
30
0
41
1
10
114.185125523035
20
-8.30940671863024
30
0
41
1
10
114.232553921751
20
-8.24755241564762
30
0
41
1
10
114.327410719183
20
-8.09623066797135
30
0
41
1
10
114.374839117898
20
-8.0067586027414
30
0
41
1
10
114.46969591533
20
-7.79964363374106
30
0
41
1
10
114.517124314046
20
-7.68199759176269
30
0
41
1
10
114.611981111477
20
-7.41883198491252
30
0
41
1
10
114.659409510193
20
-7.27331134824624
30
0
41
1
10
114.754266307624
20
-6.95561415334518
30
0
41
1
10
114.80169470634
20
-6.78343894890696
30
0
41
1
10
114.896551503772
20
-6.41456739776424
30
0
41
1
10
114.943979902487
20
-6.2178748615336
30
0
41
1
10
115.038836699919
20
-5.80294290822974
30
0
41
1
10
115.086265098634
20
-5.5847094233936
30
0
41
1
10
115.181121896066
20
-5.1303615196332
30
0
41
1
10
115.228550294782
20
-4.89425449986723
30
0
41
1
10
115.323407092213
20
-4.40831436910327
30
0
41
1
10
115.370835490929
20
-4.15848927117236
30
0
41
1
10
115.465692288361
20
-3.6495220936182
30
0
41
1
10
115.513120687076
20
-3.39038775340978
30
0
41
1
10
115.607977484508
20
-2.86722576201132
30
0
41
1
10
115.655405883224
20
-2.60320481358519
30
0
41
1
10
115.750262680655
20
-2.07448840762191
30
0
41
1
10
115.797691079371
20
-1.80979809139896
30
0
41
1
10
115.939976275518
20
-1.02046710009563
30
0
41
1
10
116.03483307295
20
-0.500869125429574
30
0
41
1
10
116.224546667813
20
0.50086551918497
30
0
41
1
10
116.319403465244
20
1.02046334126936
30
0
41
1
10
116.461688661391
20
1.80979428762902
30
0
41
1
10
116.509117060107
20
2.07448459749898
30
0
41
1
10
116.603973857539
20
2.6032010101917
30
0
41
1
10
116.651402256254
20
2.86722197170849
30
0
41
1
10
116.746259053686
20
3.39038401017947
30
0
41
1
10
116.793687452402
20
3.64951838437614
30
0
41
1
10
116.888544249833
20
4.15848565128627
30
0
41
1
10
116.935972648549
20
4.40831080458821
30
0
41
1
10
117.030829445981
20
4.89425106684331
30
0
41
1
10
117.078257844696
20
5.13035816272864
30
0
41
1
10
117.173114642128
20
5.58470623768699
30
0
41
1
10
117.220543040843
20
5.80293981759661
30
0
41
1
10
117.315399838275
20
6.21787197714502
30
0
41
1
10
117.362828236991
20
6.41456462453792
30
0
41
1
10
117.457685034422
20
6.7834364103812
30
0
41
1
10
117.505113433138
20
6.95561173834645
30
0
41
1
10
117.599970230569
20
7.27330918840346
30
0
41
1
10
117.647398629285
20
7.41882995668666
30
0
41
1
10
117.742255426717
20
7.68199583040186
30
0
41
1
10
117.789683825433
20
7.79964200761731
30
0
41
1
10
117.884540622864
20
8.0067572464076
30
0
41
1
10
117.93196902158
20
8.09622944618184
30
0
41
1
10
118.026825819011
20
8.24755145840203
30
0
41
1
10
118.074254217727
20
8.30940589137882
30
0
41
1
10
118.216539413874
20
8.455473753435
30
0
41
1
10
118.311396211306
20
8.49999985833298
30
0
41
1
10
118.406253008737
20
8.49999999999966
30
0
0
SPLINE
5
E7
100
AcDbEntity
8
1
62
256
6
ByLayer
370
13
48
1
60
0
100
AcDbSpline
70
4
71
3
72
84
73
80
40
0
40
0
40
0
40
0
40
0.0312499999999999
40
0.0312499999999999
40
0.0624999999999997
40
0.0624999999999997
40
0.0937499999999996
40
0.0937499999999996
40
0.125
40
0.125
40
0.156249999999999
40
0.156249999999999
40
0.187499999999999
40
0.187499999999999
40
0.203124999999999
40
0.203124999999999
40
0.210937499999999
40
0.210937499999999
40
0.218749999999999
40
0.218749999999999
40
0.249999999999999
40
0.249999999999999
40
0.281249999999999
40
0.281249999999999
40
0.312499999999999
40
0.312499999999999
40
0.343749999999998
40
0.343749999999998
40
0.374999999999998
40
0.374999999999998
40
0.406249999999998
40
0.406249999999998
40
0.437499999999998
40
0.437499999999998
40
0.468749999999998
40
0.468749999999998
40
0.472656249999998
40
0.472656249999998
40
0.476562499999998
40
0.484374999999998
40
0.484374999999998
40
0.499999999999998
40
0.499999999999998
40
0.531249999999998
40
0.531249999999998
40
0.562499999999998
40
0.562499999999998
40
0.593749999999998
40
0.593749999999998
40
0.624999999999998
40
0.624999999999998
40
0.656249999999999
40
0.656249999999999
40
0.687499999999999
40
0.687499999999999
40
0.718749999999999
40
0.718749999999999
40
0.734374999999999
40
0.734374999999999
40
0.738281249999999
40
0.738281249999999
40
0.742187499999999
40
0.749999999999999
40
0.749999999999999
40
0.781249999999999
40
0.781249999999999
40
0.812499999999999
40
0.812499999999999
40
0.843749999999999
40
0.843749999999999
40
0.875
40
0.875
40
0.90625
40
0.90625
40
0.9375
40
0.9375
40
0.96875
40
0.96875
40
1
40
1
40
1
40
1
41
1
10
109.3
20
8.05064260968049
30
0
41
1
10
109.389683850174
20
7.88184513773729
30
0
41
1
10
109.479367700349
20
7.66265870398647
30
0
41
1
10
109.658735400697
20
7.12520251215474
30
0
41
1
10
109.748419250872
20
6.80692928807559
30
0
41
1
10
109.92778695122
20
6.0846337156585
30
0
41
1
10
110.017470801394
20
5.68071732465327
30
0
41
1
10
110.196838501743
20
4.8107826911392
30
0
41
1
10
110.286522351917
20
4.34494462800362
30
0
41
1
10
110.465890052265
20
3.38064876708938
30
0
41
1
10
110.55557390244
20
2.88237490862741
30
0
41
1
10
110.734941602788
20
1.88277788321199
30
0
41
1
10
110.824625452963
20
1.38158055104813
30
0
41
1
10
110.959151228224
20
0.646098911810753
30
0
41
1
10
111.003993153311
20
0.403608440200145
30
0
41
1
10
111.071256040942
20
0.0456833755215769
30
0
41
1
10
111.093677003485
20
-0.0722338430922491
30
0
41
1
10
111.138518928572
20
-0.31113628123083
30
0
41
1
10
111.160939891116
20
-0.431542072034944
30
0
41
1
10
111.273044703834
20
-1.03762330506615
30
0
41
1
10
111.362728554008
20
-1.5357300834682
30
0
41
1
10
111.542096254357
20
-2.53540799000439
30
0
41
1
10
111.631780104531
20
-3.03687155471656
30
0
41
1
10
111.811147804879
20
-4.01456793492181
30
0
41
1
10
111.900831655054
20
-4.49062592122419
30
0
41
1
10
112.080199355402
20
-5.3875233647932
30
0
41
1
10
112.169883205577
20
-5.808175079726
30
0
41
1
10
112.349250905925
20
-6.5686636282893
30
0
41
1
10
112.438934756099
20
-6.90837231945986
30
0
41
1
10
112.618302456448
20
-7.49078383645394
30
0
41
1
10
112.707986306622
20
-7.73346459037819
30
0
41
1
10
112.887354006971
20
-8.11742186489968
30
0
41
1
10
112.977037857145
20
-8.25877558452055
30
0
41
1
10
113.156405557494
20
-8.44656894131109
30
0
41
1
10
113.246089407668
20
-8.49313741216665
30
0
41
1
10
113.346983739114
20
-8.50005919303896
30
0
41
1
10
113.358194220386
20
-8.50020298190717
30
0
41
1
10
113.380615182929
20
-8.49925093076337
30
0
41
1
10
113.414246626745
20
-8.49594963181522
30
0
41
1
10
113.44787807056
20
-8.48688561613662
30
0
41
1
10
113.515140958191
20
-8.46071515674643
30
0
41
1
10
113.559982883278
20
-8.43253302386628
30
0
41
1
10
113.694508658539
20
-8.31327718040183
30
0
41
1
10
113.784192508713
20
-8.18720526386915
30
0
41
1
10
113.963560209062
20
-7.8341884584575
30
0
41
1
10
114.053244059236
20
-7.6071547278714
30
0
41
1
10
114.232611759585
20
-7.05460967962901
30
0
41
1
10
114.322295609759
20
-6.72910331794978
30
0
41
1
10
114.501663310108
20
-5.99383998730357
30
0
41
1
10
114.591347160282
20
-5.58419662330562
30
0
41
1
10
114.77071486063
20
-4.70494547701017
30
0
41
1
10
114.860398710805
20
-4.23552084622747
30
0
41
1
10
115.039766411153
20
-3.26640177569723
30
0
41
1
10
115.129450261328
20
-2.76688860242507
30
0
41
1
10
115.308817961676
20
-1.766944323491
30
0
41
1
10
115.39850181185
20
-1.2666330658997
30
0
41
1
10
115.533027587112
20
-0.533697681957449
30
0
41
1
10
115.577869512199
20
-0.292257192407135
30
0
41
1
10
115.633921918558
20
0.0044957686862688
30
0
41
1
10
115.64513239983
20
0.0636216556378599
30
0
41
1
10
115.667553362373
20
0.182702759926798
30
0
41
1
10
115.701184806188
20
0.362058581302705
30
0
41
1
10
115.734816250004
20
0.543465525746512
30
0
41
1
10
115.846921062722
20
1.1519701988104
30
0
41
1
10
115.936604912896
20
1.65125020252037
30
0
41
1
10
116.115972613244
20
2.65121984229532
30
0
41
1
10
116.205656463419
20
3.15179572771129
30
0
41
1
10
116.385024163767
20
4.1253814465816
30
0
41
1
10
116.474708013941
20
4.59821305571344
30
0
41
1
10
116.65407571429
20
5.48645337213389
30
0
41
1
10
116.743759564464
20
5.90167640555654
30
0
41
1
10
116.923127264813
20
6.64967375613489
30
0
41
1
10
117.012811114987
20
6.98232706526412
30
0
41
1
10
117.192178815336
20
7.54986084762072
30
0
41
1
10
117.28186266551
20
7.78472784385903
30
0
41
1
10
117.461230365858
20
8.15320198759309
30
0
41
1
10
117.550914216032
20
8.28689231230575
30
0
41
1
10
117.730281916381
20
8.46022609575184
30
0
41
1
10
117.819965766555
20
8.5
30
0
41
1
10
117.90964961673
20
8.5
30
0
0
SPLINE
5
E8
100
AcDbEntity
8
1
62
256
6
ByLayer
370
13
48
1
60
0
100
AcDbSpline
70
4
71
3
72
85
73
81
40
0
40
0
40
0
40
0
40
0.0312500000000013
40
0.0312500000000013
40
0.0625000000000026
40
0.0625000000000026
40
0.0937500000000039
40
0.0937500000000039
40
0.125000000000005
40
0.125000000000005
40
0.156250000000006
40
0.156250000000006
40
0.160156250000007
40
0.160156250000007
40
0.164062500000007
40
0.171875000000007
40
0.171875000000007
40
0.187500000000007
40
0.187500000000007
40
0.218750000000007
40
0.218750000000007
40
0.250000000000007
40
0.250000000000007
40
0.281250000000007
40
0.281250000000007
40
0.312500000000007
40
0.312500000000007
40
0.343750000000007
40
0.343750000000007
40
0.375000000000007
40
0.375000000000007
40
0.406250000000007
40
0.406250000000007
40
0.437500000000007
40
0.437500000000007
40
0.441406250000007
40
0.441406250000007
40
0.445312500000007
40
0.453125000000007
40
0.453125000000007
40
0.468750000000006
40
0.468750000000006
40
0.500000000000005
40
0.500000000000005
40
0.531250000000003
40
0.531250000000003
40
0.562500000000001
40
0.562500000000001
40
0.593749999999999
40
0.593749999999999
40
0.624999999999998
40
0.624999999999998
40
0.656249999999996
40
0.656249999999996
40
0.687499999999994
40
0.687499999999994
40
0.718749999999993
40
0.718749999999993
40
0.722656249999993
40
0.722656249999993
40
0.726562499999993
40
0.734374999999993
40
0.734374999999993
40
0.749999999999993
40
0.749999999999993
40
0.781249999999994
40
0.781249999999994
40
0.812499999999995
40
0.812499999999995
40
0.843749999999996
40
0.843749999999996
40
0.874999999999997
40
0.874999999999997
40
0.906249999999998
40
0.906249999999998
40
0.937499999999998
40
0.937499999999998
40
0.968749999999999
40
0.968749999999999
40
1
40
1
40
1
40
1
41
1
10
109.3
20
6.60983435009146
30
0
41
1
10
109.384510893431
20
6.28204987146063
30
0
41
1
10
109.469021786863
20
5.91506358754287
30
0
41
1
10
109.638043573725
20
5.12097866587433
30
0
41
1
10
109.722554467157
20
4.69400643459161
30
0
41
1
10
109.891576254019
20
3.80385884549258
30
0
41
1
10
109.976087147451
20
3.34082507378054
30
0
41
1
10
110.145108934313
20
2.40374249502818
30
0
41
1
10
110.229619827745
20
1.92980492790318
30
0
41
1
10
110.398641614607
20
0.993425469336216
30
0
41
1
10
110.483152508039
20
0.531040134016536
30
0
41
1
10
110.578227263149
20
0.0270248034751432
30
0
41
1
10
110.588791124828
20
-0.0286447037055666
30
0
41
1
10
110.609918848186
20
-0.140656641487141
30
0
41
1
10
110.641610433223
20
-0.309336030573718
30
0
41
1
10
110.673302018259
20
-0.47987480220786
30
0
41
1
10
110.736685188333
20
-0.823064610879925
30
0
41
1
10
110.778940635049
20
-1.05468539788333
30
0
41
1
10
110.905706975196
20
-1.75467678921737
30
0
41
1
10
110.990217868627
20
-2.22831269482705
30
0
41
1
10
111.15923965549
20
-3.16778037164221
30
0
41
1
10
111.243750548921
20
-3.63350691728766
30
0
41
1
10
111.412772335784
20
-4.53217420908931
30
0
41
1
10
111.497283229215
20
-4.96497492864893
30
0
41
1
10
111.666305016078
20
-5.77346797872468
30
0
41
1
10
111.750815909509
20
-6.1490293266248
30
0
41
1
10
111.919837696372
20
-6.82362949703435
30
0
41
1
10
112.004348589803
20
-7.12259228384806
30
0
41
1
10
112.173370376666
20
-7.63276014954138
30
0
41
1
10
112.257881270097
20
-7.84396626076901
30
0
41
1
10
112.42690305696
20
-8.17674300189205
30
0
41
1
10
112.511413950391
20
-8.29837982392502
30
0
41
1
10
112.680435737254
20
-8.45841376761734
30
0
41
1
10
112.764946630685
20
-8.49690828213559
30
0
41
1
10
112.860021385796
20
-8.50018398329962
30
0
41
1
10
112.870585247475
20
-8.49999841829074
30
0
41
1
10
112.891712970832
20
-8.49851516779034
30
0
41
1
10
112.923404555869
20
-8.49461643798412
30
0
41
1
10
112.955096140906
20
-8.48557726514463
30
0
41
1
10
113.018479310979
20
-8.46034619663672
30
0
41
1
10
113.060734757695
20
-8.43397916883796
30
0
41
1
10
113.187501097842
20
-8.3241388579502
30
0
41
1
10
113.272011991273
20
-8.20970350913197
30
0
41
1
10
113.441033778136
20
-7.89158085326707
30
0
41
1
10
113.525544671568
20
-7.68782334582454
30
0
41
1
10
113.69456645843
20
-7.19205702761022
30
0
41
1
10
113.779077351862
20
-6.90004092560335
30
0
41
1
10
113.948099138724
20
-6.23807752510476
30
0
41
1
10
114.032610032156
20
-5.86820027647968
30
0
41
1
10
114.201631819018
20
-5.06923828203878
30
0
41
1
10
114.28614271245
20
-4.64028154878662
30
0
41
1
10
114.455164499312
20
-3.74720899435366
30
0
41
1
10
114.539675392744
20
-3.28323431914649
30
0
41
1
10
114.708697179606
20
-2.34527517298801
30
0
41
1
10
114.793208073038
20
-1.87139997652758
30
0
41
1
10
114.962229859901
20
-0.935972724908453
30
0
41
1
10
115.046740753332
20
-0.474474851895792
30
0
41
1
10
115.141815508442
20
0.0282156916568113
30
0
41
1
10
115.152379370121
20
0.0840367667947532
30
0
41
1
10
115.173507093479
20
0.196336907412189
30
0
41
1
10
115.205198678516
20
0.365434803281118
30
0
41
1
10
115.236890263552
20
0.536348463572011
30
0
41
1
10
115.300273433626
20
0.880224043260171
30
0
41
1
10
115.342528880342
20
1.11221657569956
30
0
41
1
10
115.469295220489
20
1.81302242487402
30
0
41
1
10
115.55380611392
20
2.28679696041357
30
0
41
1
10
115.722827900783
20
3.22555100259032
30
0
41
1
10
115.807338794214
20
3.69042324020069
30
0
41
1
10
115.976360581077
20
4.58633574060028
30
0
41
1
10
116.060871474508
20
5.01723537760159
30
0
41
1
10
116.229893261371
20
5.82100032527651
30
0
41
1
10
116.314404154802
20
6.19373609766998
30
0
41
1
10
116.483425941665
20
6.86204362710879
30
0
41
1
10
116.567936835096
20
7.15754232297877
30
0
41
1
10
116.736958621959
20
7.66051978495787
30
0
41
1
10
116.82146951539
20
7.86800272514208
30
0
41
1
10
116.990491302253
20
8.19344760656205
30
0
41
1
10
117.075002195684
20
8.31147777504808
30
0
41
1
10
117.244023982547
20
8.46470503522906
30
0
41
1
10
117.328534875978
20
8.5
30
0
41
1
10
117.41304576941
20
8.5
30
0
0
SPLINE
5
E9
100
AcDbEntity
8
1
62
256
6
ByLayer
370
13
48
1
60
0
100
AcDbSpline
70
4
71
3
72
84
73
80
40
0
40
0
40
0
40
0
40
0.0312500000000007
40
0.0312500000000007
40
0.0625000000000014
40
0.0625000000000014
40
0.0937500000000021
40
0.0937500000000021
40
0.101562500000002
40
0.101562500000002
40
0.105468750000002
40
0.105468750000002
40
0.109375000000002
40
0.125000000000001
40
0.125000000000001
40
0.15625
40
0.15625
40
0.187499999999998
40
0.187499999999998
40
0.218749999999997
40
0.218749999999997
40
0.249999999999995
40
0.249999999999995
40
0.281249999999994
40
0.281249999999994
40
0.312499999999992
40
0.312499999999992
40
0.34374999999999
40
0.34374999999999
40
0.374999999999989
40
0.374999999999989
40
0.390624999999988
40
0.390624999999988
40
0.398437499999988
40
0.398437499999988
40
0.406249999999988
40
0.406249999999988
40
0.437499999999987
40
0.437499999999987
40
0.468749999999986
40
0.468749999999986
40
0.499999999999985
40
0.499999999999985
40
0.531249999999984
40
0.531249999999984
40
0.562499999999983
40
0.562499999999983
40
0.593749999999982
40
0.593749999999982
40
0.624999999999982
40
0.624999999999982
40
0.656249999999981
40
0.656249999999981
40
0.68749999999998
40
0.68749999999998
40
0.69531249999998
40
0.69921874999998
40
0.69921874999998
40
0.70312499999998
40
0.70312499999998
40
0.718749999999981
40
0.718749999999981
40
0.749999999999983
40
0.749999999999983
40
0.781249999999985
40
0.781249999999985
40
0.812499999999987
40
0.812499999999987
40
0.843749999999989
40
0.843749999999989
40
0.874999999999992
40
0.874999999999992
40
0.906249999999994
40
0.906249999999994
40
0.937499999999996
40
0.937499999999996
40
0.968749999999998
40
0.968749999999998
40
1
40
1
40
1
40
1
41
1
10
109.3
20
4.30393514341014
30
0
41
1
10
109.379337936688
20
3.88751731720586
30
0
41
1
10
109.458675873377
20
3.45480772524732
30
0
41
1
10
109.617351746754
20
2.57746202010546
30
0
41
1
10
109.696689683442
20
2.13291055937285
30
0
41
1
10
109.855365556819
20
1.25093687090404
30
0
41
1
10
109.934703493507
20
0.813562777454194
30
0
41
1
10
110.033875914368
20
0.280802742585507
30
0
41
1
10
110.05371039854
20
0.174937699113059
30
0
41
1
10
110.083462124798
20
0.0173139951046721
30
0
41
1
10
110.093379366884
20
-0.0349578246404576
30
0
41
1
10
110.113213851057
20
-0.14012769959524
30
0
41
1
10
110.162800061487
20
-0.404020631891427
30
0
41
1
10
110.212386271917
20
-0.672493001909572
30
0
41
1
10
110.33139317695
20
-1.32309324613738
30
0
41
1
10
110.410731113638
20
-1.76530527285991
30
0
41
1
10
110.569406987015
20
-2.64994296174228
30
0
41
1
10
110.648744923703
20
-3.09230528383563
30
0
41
1
10
110.80742079708
20
-3.95724384225031
30
0
41
1
10
110.886758733769
20
-4.37972505555678
30
0
41
1
10
111.045434607145
20
-5.18411462896737
30
0
41
1
10
111.124772543834
20
-5.56591961821007
30
0
41
1
10
111.283448417211
20
-6.27046298126413
30
0
41
1
10
111.362786353899
20
-6.59312099131321
30
0
41
1
10
111.521462227276
20
-7.16604777776348
30
0
41
1
10
111.600800163964
20
-7.41628347755076
30
0
41
1
10
111.759476037341
20
-7.83799533673115
30
0
41
1
10
111.83881397403
20
-8.00949092891466
30
0
41
1
10
111.997489847407
20
-8.27450878556451
30
0
41
1
10
112.076827784095
20
-8.3680887998205
30
0
41
1
10
112.195834689128
20
-8.45501547955979
30
0
41
1
10
112.235503657472
20
-8.47512407996294
30
0
41
1
10
112.295007109988
20
-8.49289917288678
30
0
41
1
10
112.31484159416
20
-8.49676123591249
30
0
41
1
10
112.354510562505
20
-8.5005286524418
30
0
41
1
10
112.374345046677
20
-8.50045709208294
30
0
41
1
10
112.473517467537
20
-8.49029840482191
30
0
41
1
10
112.552855404226
20
-8.45034267406027
30
0
41
1
10
112.711531277603
20
-8.29711119044865
30
0
41
1
10
112.790869214291
20
-8.18376444913787
30
0
41
1
10
112.949545087668
20
-7.87835438299751
30
0
41
1
10
113.028883024356
20
-7.6862411323811
30
0
41
1
10
113.187558897733
20
-7.22421264926246
30
0
41
1
10
113.266896834422
20
-6.95429090266813
30
0
41
1
10
113.425572707798
20
-6.34479793036729
30
0
41
1
10
113.504910644487
20
-6.00527342805555
30
0
41
1
10
113.663586517864
20
-5.2713820755045
30
0
41
1
10
113.742924454552
20
-4.87710445081777
30
0
41
1
10
113.901600327929
20
-4.05306724059182
30
0
41
1
10
113.980938264618
20
-3.62341178694081
30
0
41
1
10
114.139614137994
20
-2.74951499290375
30
0
41
1
10
114.218952074683
20
-2.30536210908878
30
0
41
1
10
114.37762794806
20
-1.42190003449943
30
0
41
1
10
114.456965884748
20
-0.982644104855666
30
0
41
1
10
114.556138305609
20
-0.446461800035422
30
0
41
1
10
114.585890031867
20
-0.286557707962174
30
0
41
1
10
114.615641758125
20
-0.128305273434137
30
0
41
1
10
114.635476242297
20
-0.0231936051415289
30
0
41
1
10
114.645393484383
20
0.0290748828253697
30
0
41
1
10
114.694979694813
20
0.291926891671267
30
0
41
1
10
114.734648663158
20
0.505334367658691
30
0
41
1
10
114.85365556819
20
1.15252092080041
30
0
41
1
10
114.932993504879
20
1.59339268552603
30
0
41
1
10
115.091669378256
20
2.47774792556066
30
0
41
1
10
115.171007314944
20
2.92117305919834
30
0
41
1
10
115.329683188321
20
3.79093604860125
30
0
41
1
10
115.409021125009
20
4.21718197921908
30
0
41
1
10
115.567696998386
20
5.03173467924597
30
0
41
1
10
115.647034935075
20
5.41993742468244
30
0
41
1
10
115.805710808451
20
6.13943621640158
30
0
41
1
10
115.88504874514
20
6.47064723897955
30
0
41
1
10
116.043724618517
20
7.06203829656883
30
0
41
1
10
116.123062555205
20
7.32217836295922
30
0
41
1
10
116.281738428582
20
7.76410944687063
30
0
41
1
10
116.36107636527
20
7.94591354669203
30
0
41
1
10
116.519752238647
20
8.23107451290625
30
0
41
1
10
116.599090175336
20
8.33448542010336
30
0
41
1
10
116.757766048713
20
8.46891218838402
30
0
41
1
10
116.837103985401
20
8.5
30
0
41
1
10
116.91644192209
20
8.5
30
0
0
SPLINE
5
EA
100
AcDbEntity
8
1
62
256
6
ByLayer
370
13
48
1
60
0
100
AcDbSpline
70
4
71
3
72
8
73
4
40
0
40
0
40
0
40
0
40
1
40
1
40
1
40
1
41
1
10
118.238869707075
20
8.5
30
0
41
1
10
118.294664140962
20
8.5
30
0
41
1
10
118.35045857485
20
8.48465723476752
30
0
41
1
10
118.406253008737
20
8.45214044740888
30
0
0
SPLINE
5
EB
100
AcDbEntity
8
1
62
256
6
ByLayer
370
13
48
1
60
0
100
AcDbSpline
70
4
71
3
72
84
73
80
40
0
40
0
40
0
40
0
40
0.0312500000000004
40
0.0312500000000004
40
0.0390625000000005
40
0.0390625000000005
40
0.0429687500000007
40
0.0429687500000007
40
0.046875000000001
40
0.0625000000000012
40
0.0625000000000012
40
0.0937500000000012
40
0.0937500000000012
40
0.125000000000001
40
0.125000000000001
40
0.156250000000001
40
0.156250000000001
40
0.187500000000001
40
0.187500000000001
40
0.218750000000001
40
0.218750000000001
40
0.250000000000001
40
0.250000000000001
40
0.281250000000001
40
0.281250000000001
40
0.312500000000001
40
0.312500000000001
40
0.343750000000001
40
0.343750000000001
40
0.359375000000001
40
0.359375000000001
40
0.363281250000001
40
0.363281250000001
40
0.367187500000001
40
0.375000000000001
40
0.375000000000001
40
0.406250000000001
40
0.406250000000001
40
0.437500000000001
40
0.437500000000001
40
0.468750000000001
40
0.468750000000001
40
0.500000000000001
40
0.500000000000001
40
0.531250000000001
40
0.531250000000001
40
0.562500000000001
40
0.562500000000001
40
0.593750000000001
40
0.593750000000001
40
0.625000000000001
40
0.625000000000001
40
0.656250000000001
40
0.656250000000001
40
0.671875000000001
40
0.671875000000001
40
0.679687500000001
40
0.679687500000001
40
0.687500000000001
40
0.687500000000001
40
0.718750000000001
40
0.718750000000001
40
0.750000000000001
40
0.750000000000001
40
0.78125
40
0.78125
40
0.8125
40
0.8125
40
0.84375
40
0.84375
40
0.875
40
0.875
40
0.90625
40
0.90625
40
0.9375
40
0.9375
40
0.96875
40
0.96875
40
1
40
1
40
1
40
1
41
1
10
109.3
20
1.57763664802084
30
0
41
1
10
109.374164979946
20
1.16601740570786
30
0
41
1
10
109.448329959891
20
0.758181017312268
30
0
41
1
10
109.541036184823
20
0.260706326636552
30
0
41
1
10
109.559577429809
20
0.16181902088951
30
0
41
1
10
109.587389297289
20
0.0145160688461203
30
0
41
1
10
109.596659919782
20
-0.0343545611530658
30
0
41
1
10
109.615201164768
20
-0.132648582066764
30
0
41
1
10
109.661554277234
20
-0.379231295712401
30
0
41
1
10
109.7079073897
20
-0.629837541561329
30
0
41
1
10
109.819154859619
20
-1.23697395244474
30
0
41
1
10
109.893319839564
20
-1.64940333833684
30
0
41
1
10
110.041649799455
20
-2.47617740186234
30
0
41
1
10
110.115814779401
20
-2.89047984253381
30
0
41
1
10
110.264144739292
20
-3.70493714458615
30
0
41
1
10
110.338309719237
20
-4.10502712053326
30
0
41
1
10
110.486639679128
20
-4.87402410255058
30
0
41
1
10
110.560804659074
20
-5.24285662612917
30
0
41
1
10
110.709134618965
20
-5.93348083927634
30
0
41
1
10
110.78329959891
20
-6.25520774166628
30
0
41
1
10
110.931629558801
20
-6.83910691574465
30
0
41
1
10
111.005794538747
20
-7.10124176778345
30
0
41
1
10
111.154124498638
20
-7.55838270544922
30
0
41
1
10
111.228289478583
20
-7.7533869178159
30
0
41
1
10
111.376619438474
20
-8.07424151620663
30
0
41
1
10
111.45078441842
20
-8.20012143394871
30
0
41
1
10
111.599114378311
20
-8.38580964888385
30
0
41
1
10
111.673279358256
20
-8.44566598252021
30
0
41
1
10
111.784526828175
20
-8.49112491047697
30
0
41
1
10
111.821609318148
20
-8.49891580274104
30
0
41
1
10
111.867962430614
20
-8.50013892387372
30
0
41
1
10
111.877233053107
20
-8.49996071199089
30
0
41
1
10
111.895774298093
20
-8.49874785603748
30
0
41
1
10
111.923586165572
20
-8.49564082156436
30
0
41
1
10
111.951398033052
20
-8.48859011046517
30
0
41
1
10
112.044104257984
20
-8.45598412406594
30
0
41
1
10
112.11826923793
20
-8.40065481145072
30
0
41
1
10
112.26659919782
20
-8.22441232338323
30
0
41
1
10
112.340764177766
20
-8.10345037038803
30
0
41
1
10
112.489094137657
20
-7.79249780084163
30
0
41
1
10
112.563259117603
20
-7.6024758226593
30
0
41
1
10
112.711589077494
20
-7.15497239723015
30
0
41
1
10
112.785754057439
20
-6.89749028241917
30
0
41
1
10
112.93408401733
20
-6.32217665178504
30
0
41
1
10
113.008248997276
20
-6.00438011929023
30
0
41
1
10
113.156578957167
20
-5.32058191970629
30
0
41
1
10
113.230743937112
20
-4.95464358268714
30
0
41
1
10
113.379073897003
20
-4.19022521597219
30
0
41
1
10
113.453238876949
20
-3.79181964776879
30
0
41
1
10
113.60156883684
20
-2.97950949163271
30
0
41
1
10
113.675733816785
20
-2.56567102526512
30
0
41
1
10
113.824063776676
20
-1.73873495511236
30
0
41
1
10
113.898228756622
20
-1.32568145084409
30
0
41
1
10
114.00947622654
20
-0.716961032426383
30
0
41
1
10
114.046558716513
20
-0.51584060961585
30
0
41
1
10
114.102182451472
20
-0.217885976707492
30
0
41
1
10
114.120723696458
20
-0.119187038298861
30
0
41
1
10
114.157806186431
20
0.076818924377335
30
0
41
1
10
114.176347431418
20
0.175146125719095
30
0
41
1
10
114.269053656349
20
0.670836868749035
30
0
41
1
10
114.343218636295
20
1.07761759827432
30
0
41
1
10
114.491548596186
20
1.89973417189159
30
0
41
1
10
114.565713576132
20
2.31504001454991
30
0
41
1
10
114.714043536023
20
3.13919280770443
30
0
41
1
10
114.788208515968
20
3.547984328908
30
0
41
1
10
114.936538475859
20
4.34227925650166
30
0
41
1
10
115.010703455805
20
4.72771046697892
30
0
41
1
10
115.159033415696
20
5.45859825324521
30
0
41
1
10
115.233198395641
20
5.80398303610372
30
0
41
1
10
115.381528355532
20
6.44046673210428
30
0
41
1
10
115.455693335478
20
6.73151379235964
30
0
41
1
10
115.604023295369
20
7.24931451376352
30
0
41
1
10
115.678188275314
20
7.47604959320043
30
0
41
1
10
115.826518235205
20
7.86062096969434
30
0
41
1
10
115.900683215151
20
8.01847344487433
30
0
41
1
10
116.049013175042
20
8.2661061250636
30
0
41
1
10
116.123178154987
20
8.35592767326273
30
0
41
1
10
116.271508114878
20
8.47284876207988
30
0
41
1
10
116.345673094824
20
8.5
30
0
41
1
10
116.419838074769
20
8.5
30
0
0
SPLINE
5
EC
100
AcDbEntity
8
1
62
256
6
ByLayer
370
13
48
1
60
0
100
AcDbSpline
70
4
71
3
72
14
73
10
40
0
40
0
40
0
40
0
40
0.25
40
0.25
40
0.5
40
0.5
40
0.75
40
0.75
40
1
40
1
40
1
40
1
41
1
10
117.742265859755
20
8.5
30
0
41
1
10
117.79759812217
20
8.5
30
0
41
1
10
117.852930384585
20
8.48491083882905
30
0
41
1
10
117.963594909416
20
8.42097911027707
30
0
41
1
10
118.018927171831
20
8.37212445656397
30
0
41
1
10
118.129591696661
20
8.2378849265146
30
0
41
1
10
118.184923959077
20
8.15248876492464
30
0
41
1
10
118.295588483907
20
7.94356755412238
30
0
41
1
10
118.350920746322
20
7.82003396788119
30
0
41
1
10
118.406253008737
20
7.67737823155014
30
0
0
SPLINE
5
ED
100
AcDbEntity
8
1
62
256
6
ByLayer
370
13
48
1
60
0
100
AcDbSpline
70
4
71
3
72
70
73
66
40
0
40
0
40
0
40
0
40
0.03125
40
0.03125
40
0.0625
40
0.0625
40
0.0937500000000001
40
0.0937500000000001
40
0.125
40
0.125
40
0.15625
40
0.15625
40
0.1875
40
0.1875
40
0.21875
40
0.21875
40
0.25
40
0.25
40
0.28125
40
0.28125
40
0.3125
40
0.3125
40
0.34375
40
0.34375
40
0.375
40
0.375
40
0.40625
40
0.40625
40
0.4375
40
0.4375
40
0.46875
40
0.46875
40
0.5
40
0.5
40
0.53125
40
0.53125
40
0.5625
40
0.5625
40
0.59375
40
0.59375
40
0.625
40
0.625
40
0.65625
40
0.65625
40
0.6875
40
0.6875
40
0.71875
40
0.71875
40
0.75
40
0.75
40
0.78125
40
0.78125
40
0.8125
40
0.8125
40
0.84375
40
0.84375
40
0.875
40
0.875
40
0.90625
40
0.90625
40
0.9375
40
0.9375
40
0.96875
40
0.96875
40
1
40
1
40
1
40
1
41
1
10
109.3
20
-1.11504327720397
30
0
41
1
10
109.368992023203
20
-1.49452104445885
30
0
41
1
10
109.437984046405
20
-1.8793934058013
30
0
41
1
10
109.57596809281
20
-2.64863438893295
30
0
41
1
10
109.644960116013
20
-3.03297066624847
30
0
41
1
10
109.782944162418
20
-3.78802835135522
30
0
41
1
10
109.851936185621
20
-4.15870339910367
30
0
41
1
10
109.989920232026
20
-4.87273772589074
30
0
41
1
10
110.058912255229
20
-5.21604502522604
30
0
41
1
10
110.196896301634
20
-5.86256573841189
30
0
41
1
10
110.265888324836
20
-6.16573330972849
30
0
41
1
10
110.403872371242
20
-6.72163366243507
30
0
41
1
10
110.472864394444
20
-6.9743376491009
30
0
41
1
10
110.610848440849
20
-7.42256589525894
30
0
41
1
10
110.679840464052
20
-7.61808421263862
30
0
41
1
10
110.817824510457
20
-7.94932933223493
30
0
41
1
10
110.88681653366
20
-8.08507184326962
30
0
41
1
10
111.024800580065
20
-8.29812902514018
30
0
41
1
10
111.093792603268
20
-8.37547419598818
30
0
41
1
10
111.231776649673
20
-8.47635221646232
30
0
41
1
10
111.300768672875
20
-8.49992125905695
30
0
41
1
10
111.438752719281
20
-8.50007834589056
30
0
41
1
10
111.507744742483
20
-8.47667904546392
30
0
41
1
10
111.645728788888
20
-8.37616038379844
30
0
41
1
10
111.714720812091
20
-8.29900480424931
30
0
41
1
10
111.852704858496
20
-8.08633744083085
30
0
41
1
10
111.921696881699
20
-7.95079512246855
30
0
41
1
10
112.059680928104
20
-7.619948715215
30
0
41
1
10
112.128672951306
20
-7.42462885412368
30
0
41
1
10
112.266656997712
20
-6.97678191119769
30
0
41
1
10
112.335649020914
20
-6.72426069298697
30
0
41
1
10
112.473633067319
20
-6.16869689770306
30
0
41
1
10
112.542625090522
20
-5.86568304466965
30
0
41
1
10
112.680609136927
20
-5.21943031574935
30
0
41
1
10
112.74960116013
20
-4.87623724165036
30
0
41
1
10
112.887585206535
20
-4.16238608808141
30
0
41
1
10
112.956577229738
20
-3.79177998823616
30
0
41
1
10
113.094561276143
20
-3.03681438386627
30
0
41
1
10
113.163553299345
20
-2.65250127502051
30
0
41
1
10
113.301537345751
20
-1.88326499648434
30
0
41
1
10
113.370529368953
20
-1.49837422638274
30
0
41
1
10
113.508513415358
20
-0.739347714674579
30
0
41
1
10
113.577505438561
20
-0.365227369743849
30
0
41
1
10
113.715489484966
20
0.363394940705604
30
0
41
1
10
113.784481508169
20
0.737456553444702
30
0
41
1
10
113.922465554574
20
1.4964476050348
30
0
41
1
10
113.991457577777
20
1.88132918678636
30
0
41
1
10
114.129441624182
20
2.65056785224914
30
0
41
1
10
114.198433647384
20
3.03489256392498
30
0
41
1
10
114.33641769379
20
3.78990424671863
30
0
41
1
10
114.405409716992
20
4.16054483996356
30
0
41
1
10
114.543393763397
20
4.87448761773794
30
0
41
1
10
114.6123857866
20
5.21773782258632
30
0
41
1
10
114.750369833005
20
5.86412457642959
30
0
41
1
10
114.819361856208
20
6.1672153032477
30
0
41
1
10
114.957345902613
20
6.72294740139657
30
0
41
1
10
115.026337925815
20
6.97556001333695
30
0
41
1
10
115.164321972221
20
7.42359762098849
30
0
41
1
10
115.233313995423
20
7.6190167138333
30
0
41
1
10
115.371298041828
20
7.95006247882185
30
0
41
1
10
115.440290065031
20
8.08570489148474
30
0
41
1
10
115.578274111436
20
8.29856715545287
30
0
41
1
10
115.647266134639
20
8.37581752402383
30
0
41
1
10
115.785250181044
20
8.47651584872256
30
0
41
1
10
115.854242204247
20
8.5
30
0
41
1
10
115.923234227449
20
8.5
30
0
0
SPLINE
5
EE
100
AcDbEntity
8
1
62
256
6
ByLayer
370
13
48
1
60
0
100
AcDbSpline
70
4
71
3
72
20
73
16
40
0
40
0
40
0
40
0
40
0.249999999999999
40
0.249999999999999
40
0.374999999999999
40
0.374999999999999
40
0.5
40
0.5
40
0.625
40
0.625
40
0.75
40
0.75
40
0.875
40
0.875
40
1
40
1
40
1
40
1
41
1
10
117.245662012435
20
8.5
30
0
41
1
10
117.342377928793
20
8.5
30
0
41
1
10
117.439093845152
20
8.45369921378227
30
0
41
1
10
117.58416771969
20
8.30161451647649
30
0
41
1
10
117.632525677869
20
8.23719959061299
30
0
41
1
10
117.729241594228
20
8.07960466981228
30
0
41
1
10
117.777599552407
20
7.98641966057937
30
0
41
1
10
117.874315468765
20
7.77075183783228
30
0
41
1
10
117.922673426945
20
7.64826572509355
30
0
41
1
10
118.019389343303
20
7.3743948348191
30
0
41
1
10
118.067747301482
20
7.22300912655129
30
0
41
1
10
118.164463217841
20
6.89273586327425
30
0
41
1
10
118.21282117602
20
6.71385012433183
30
0
41
1
10
118.309537092379
20
6.33095915447373
30
0
41
1
10
118.357895050558
20
6.12695847303237
30
0
41
1
10
118.406253008737
20
5.91203401532908
30
0
0
SPLINE
5
EF
100
AcDbEntity
8
1
62
256
6
ByLayer
370
13
48
1
60
0
100
AcDbSpline
70
4
71
3
72
78
73
74
40
0
40
0
40
0
40
0
40
0.0312500000000004
40
0.0312500000000004
40
0.0625000000000008
40
0.0625000000000008
40
0.0937500000000012
40
0.0937500000000012
40
0.125000000000002
40
0.125000000000002
40
0.156250000000002
40
0.156250000000002
40
0.187500000000002
40
0.187500000000002
40
0.218750000000003
40
0.218750000000003
40
0.250000000000004
40
0.250000000000004
40
0.257812500000004
40
0.257812500000004
40
0.265625000000004
40
0.265625000000004
40
0.281250000000004
40
0.281250000000004
40
0.312500000000005
40
0.312500000000005
40
0.343750000000005
40
0.343750000000005
40
0.375000000000006
40
0.375000000000006
40
0.406250000000006
40
0.406250000000006
40
0.437500000000007
40
0.437500000000007
40
0.468750000000007
40
0.468750000000007
40
0.500000000000008
40
0.500000000000008
40
0.531250000000008
40
0.531250000000008
40
0.562500000000009
40
0.562500000000009
40
0.593750000000009
40
0.593750000000009
40
0.62500000000001
40
0.62500000000001
40
0.63281250000001
40
0.63281250000001
40
0.640625000000009
40
0.640625000000009
40
0.656250000000009
40
0.656250000000009
40
0.687500000000008
40
0.687500000000008
40
0.718750000000007
40
0.718750000000007
40
0.750000000000006
40
0.750000000000006
40
0.781250000000006
40
0.781250000000006
40
0.812500000000005
40
0.812500000000005
40
0.843750000000004
40
0.843750000000004
40
0.875000000000003
40
0.875000000000003
40
0.906250000000002
40
0.906250000000002
40
0.937500000000002
40
0.937500000000002
40
0.968750000000001
40
0.968750000000001
40
1
40
1
40
1
40
1
41
1
10
109.3
20
-3.85906385724357
30
0
41
1
10
109.36381906646
20
-4.20222000493226
30
0
41
1
10
109.427638132919
20
-4.53716833719881
30
0
41
1
10
109.555276265839
20
-5.17999892209167
30
0
41
1
10
109.619095332299
20
-5.48784635046923
30
0
41
1
10
109.746733465218
20
-6.06680684076895
30
0
41
1
10
109.810552531677
20
-6.33789108752194
30
0
41
1
10
109.938190664597
20
-6.83568857312039
30
0
41
1
10
110.002009731056
20
-7.06238483400378
30
0
41
1
10
110.129647863976
20
-7.46650864866473
30
0
41
1
10
110.193466930435
20
-7.64393375842991
30
0
41
1
10
110.321105063355
20
-7.94765472369178
30
0
41
1
10
110.384924129814
20
-8.07396156375179
30
0
41
1
10
110.512562262734
20
-8.27648675025813
30
0
41
1
10
110.576381329194
20
-8.35272543641148
30
0
41
1
10
110.704019462113
20
-8.45856864405511
30
0
41
1
10
110.767838528573
20
-8.48819756200038
30
0
41
1
10
110.847612361647
20
-8.49932235299667
30
0
41
1
10
110.863567128262
20
-8.5002561854167
30
0
41
1
10
110.895476661492
20
-8.49962483625748
30
0
41
1
10
110.911431428107
20
-8.49805075328032
30
0
41
1
10
110.959295727952
20
-8.48941770424372
30
0
41
1
10
110.991205261182
20
-8.47844551173696
30
0
41
1
10
111.086933860871
20
-8.4288697396033
30
0
41
1
10
111.150752927331
20
-8.37354957779002
30
0
41
1
10
111.27839106025
20
-8.21411730285686
30
0
41
1
10
111.34221012671
20
-8.1099824203236
30
0
41
1
10
111.469848259629
20
-7.85073492318645
30
0
41
1
10
111.533667326089
20
-7.69560661695084
30
0
41
1
10
111.661305459008
20
-7.33490037370618
30
0
41
1
10
111.725124525468
20
-7.12931866596526
30
0
41
1
10
111.852762658387
20
-6.67125702901072
30
0
41
1
10
111.916581724847
20
-6.41878782956843
30
0
41
1
10
112.044219857766
20
-5.87342848967415
30
0
41
1
10
112.108038924226
20
-5.58056255630171
30
0
41
1
10
112.235677057145
20
-4.96328105522227
30
0
41
1
10
112.299496123605
20
-4.63889853197645
30
0
41
1
10
112.427134256524
20
-3.96896936506258
30
0
41
1
10
112.490953322984
20
-3.62345782377602
30
0
41
1
10
112.618591455903
20
-2.92212079234847
30
0
41
1
10
112.682410522363
20
-2.56632582106283
30
0
41
1
10
112.810048655282
20
-1.85472783685586
30
0
41
1
10
112.873867721742
20
-1.49894622383144
30
0
41
1
10
113.001505854661
20
-0.796342784385416
30
0
41
1
10
113.065324921121
20
-0.449531663381066
30
0
41
1
10
113.145098754196
20
-0.0260831299115125
30
0
41
1
10
113.161053520811
20
0.0579264741177496
30
0
41
1
10
113.19296305404
20
0.22755491324935
30
0
41
1
10
113.208917820655
20
0.3128615757212
30
0
41
1
10
113.2567821205
20
0.570107676191327
30
0
41
1
10
113.28869165373
20
0.743377002648117
30
0
41
1
10
113.384420253419
20
1.26715311168687
30
0
41
1
10
113.448239319879
20
1.62168098889831
30
0
41
1
10
113.575877452798
20
2.33286312682961
30
0
41
1
10
113.639696519258
20
2.6894982935267
30
0
41
1
10
113.767334652177
20
3.39484311535253
30
0
41
1
10
113.831153718637
20
3.74352395595503
30
0
41
1
10
113.958791851556
20
4.42215959126119
30
0
41
1
10
114.022610918016
20
4.75207976690723
30
0
41
1
10
114.150249050936
20
5.38261454701654
30
0
41
1
10
114.214068117395
20
5.68319504643341
30
0
41
1
10
114.341706250315
20
6.2457490602402
30
0
41
1
10
114.405525316774
20
6.50769593392778
30
0
41
1
10
114.533163449694
20
6.98589708379444
30
0
41
1
10
114.596982516153
20
7.20213746086534
30
0
41
1
10
114.724620649073
20
7.58468175650148
30
0
41
1
10
114.788439715532
20
7.75098638540481
30
0
41
1
10
114.916077848452
20
8.03245846764946
30
0
41
1
10
114.979896914911
20
8.14763937035599
30
0
41
1
10
115.107535047831
20
8.32848354664691
30
0
41
1
10
115.17135411429
20
8.39416850506288
30
0
41
1
10
115.29899224721
20
8.47991443126679
30
0
41
1
10
115.362811313669
20
8.5
30
0
41
1
10
115.426630380129
20
8.5
30
0
0
SPLINE
5
F0
100
AcDbEntity
8
1
62
256
6
ByLayer
370
13
48
1
60
0
100
AcDbSpline
70
4
71
3
72
22
73
18
40
0
40
0
40
0
40
0
40
0.125
40
0.125
40
0.25
40
0.25
40
0.375
40
0.375
40
0.5
40
0.5
40
0.625
40
0.625
40
0.75
40
0.75
40
0.875
40
0.875
40
1
40
1
40
1
40
1
41
1
10
116.749058165115
20
8.5
30
0
41
1
10
116.818107950266
20
8.5
30
0
41
1
10
116.887157735416
20
8.47647638559602
30
0
41
1
10
117.025257305718
20
8.37560395256062
30
0
41
1
10
117.094307090869
20
8.2982187887489
30
0
41
1
10
117.232406661171
20
8.08498348573028
30
0
41
1
10
117.301456446322
20
7.94910271935206
30
0
41
1
10
117.439556016624
20
7.61748090566465
30
0
41
1
10
117.508605801775
20
7.42172410010599
30
0
41
1
10
117.646705372077
20
6.97293031412505
30
0
41
1
10
117.715755157228
20
6.71989934014886
30
0
41
1
10
117.85385472753
20
6.1632816225746
30
0
41
1
10
117.922904512681
20
5.8597238470353
30
0
41
1
10
118.061004082983
20
5.21239443067174
30
0
41
1
10
118.130053868134
20
4.86866886440711
30
0
41
1
10
118.268153438435
20
4.15380841405067
30
0
41
1
10
118.337203223586
20
3.78272572655342
30
0
41
1
10
118.406253008737
20
3.40481209422836
30
0
0
SPLINE
5
F1
100
AcDbEntity
8
1
62
256
6
ByLayer
370
13
48
1
60
0
100
AcDbSpline
70
4
71
3
72
76
73
72
40
0
40
0
40
0
40
0
40
0.0312499999999996
40
0.0312499999999996
40
0.0624999999999993
40
0.0624999999999993
40
0.0937499999999988
40
0.0937499999999988
40
0.124999999999998
40
0.124999999999998
40
0.156249999999998
40
0.156249999999998
40
0.187499999999998
40
0.187499999999998
40
0.195312499999997
40
0.195312499999997
40
0.203124999999997
40
0.218749999999997
40
0.218749999999997
40
0.249999999999997
40
0.249999999999997
40
0.281249999999996
40
0.281249999999996
40
0.312499999999996
40
0.312499999999996
40
0.343749999999995
40
0.343749999999995
40
0.374999999999995
40
0.374999999999995
40
0.406249999999994
40
0.406249999999994
40
0.437499999999994
40
0.437499999999994
40
0.468749999999993
40
0.468749999999993
40
0.499999999999993
40
0.499999999999993
40
0.531249999999992
40
0.531249999999992
40
0.562499999999991
40
0.562499999999991
40
0.593749999999991
40
0.593749999999991
40
0.601562499999991
40
0.601562499999991
40
0.609374999999991
40
0.624999999999992
40
0.624999999999992
40
0.656249999999993
40
0.656249999999993
40
0.687499999999993
40
0.687499999999993
40
0.718749999999994
40
0.718749999999994
40
0.749999999999995
40
0.749999999999995
40
0.781249999999995
40
0.781249999999995
40
0.812499999999996
40
0.812499999999996
40
0.843749999999996
40
0.843749999999996
40
0.874999999999997
40
0.874999999999997
40
0.906249999999998
40
0.906249999999998
40
0.937499999999999
40
0.937499999999999
40
0.968749999999999
40
0.968749999999999
40
1
40
1
40
1
40
1
41
1
10
109.3
20
-6.2727808777
30
0
41
1
10
109.358646109717
20
-6.5174841478084
30
0
41
1
10
109.417292219434
20
-6.74463294106792
30
0
41
1
10
109.534584438867
20
-7.15905637864631
30
0
41
1
10
109.593230548584
20
-7.34632471560712
30
0
41
1
10
109.710522768017
20
-7.67829490644925
30
0
41
1
10
109.769168877734
20
-7.8229991954575
30
0
41
1
10
109.886461097168
20
-8.06930885992455
30
0
41
1
10
109.945107206884
20
-8.17092397870641
30
0
41
1
10
110.062399426318
20
-8.33249300627233
30
0
41
1
10
110.121045536035
20
-8.39246133291113
30
0
41
1
10
110.238337755468
20
-8.47377122065404
30
0
41
1
10
110.296983865185
20
-8.49512891572311
30
0
41
1
10
110.370291502331
20
-8.50028523042369
30
0
41
1
10
110.38495302976
20
-8.50025078650688
30
0
41
1
10
110.414276084618
20
-8.49804698741025
30
0
41
1
10
110.458260666906
20
-8.49151374799214
30
0
41
1
10
110.502245249194
20
-8.47498009324892
30
0
41
1
10
110.590214413769
20
-8.42780374208482
30
0
41
1
10
110.648860523485
20
-8.37750022353413
30
0
41
1
10
110.766152742919
20
-8.23586640348344
30
0
41
1
10
110.824798852636
20
-8.14452100376857
30
0
41
1
10
110.942091072069
20
-7.91893232832624
30
0
41
1
10
111.000737181786
20
-7.78467791052961
30
0
41
1
10
111.11802940122
20
-7.47328807577495
30
0
41
1
10
111.176675510936
20
-7.29614826589611
30
0
41
1
10
111.29396773037
20
-6.90113585000128
30
0
41
1
10
111.352613840087
20
-6.68326739848206
30
0
41
1
10
111.46990605952
20
-6.21108640127025
30
0
41
1
10
111.528552169237
20
-5.95678663088589
30
0
41
1
10
111.64584438867
20
-5.41791661895684
30
0
41
1
10
111.704490498387
20
-5.13336589761056
30
0
41
1
10
111.821782717821
20
-4.54155900070407
30
0
41
1
10
111.880428827538
20
-4.23432571553366
30
0
41
1
10
111.997721046971
20
-3.60545977074114
30
0
41
1
10
112.056367156688
20
-3.28384946784644
30
0
41
1
10
112.173659376121
20
-2.63458275924947
30
0
41
1
10
112.232305485838
20
-2.30694482239977
30
0
41
1
10
112.349597705272
20
-1.65339882904124
30
0
41
1
10
112.408243814988
20
-1.32750330826741
30
0
41
1
10
112.525536034422
20
-0.684169233246763
30
0
41
1
10
112.584182144139
20
-0.366736764096572
30
0
41
1
10
112.657489781285
20
0.0213943299542905
30
0
41
1
10
112.672151308714
20
0.0987737839084559
30
0
41
1
10
112.701474363572
20
0.254893306132857
30
0
41
1
10
112.74545894586
20
0.490302127981891
30
0
41
1
10
112.789443528147
20
0.729054436333001
30
0
41
1
10
112.877412692722
20
1.20997411102172
30
0
41
1
10
112.936058802439
20
1.53517907494933
30
0
41
1
10
113.053351021873
20
2.18821880299379
30
0
41
1
10
113.111997131589
20
2.5160418127663
30
0
41
1
10
113.229289351023
20
3.1666591760372
30
0
41
1
10
113.28793546074
20
3.48943569981657
30
0
41
1
10
113.405227680173
20
4.12165427375652
30
0
41
1
10
113.46387378989
20
4.43107427984063
30
0
41
1
10
113.581166009323
20
5.02823353128346
30
0
41
1
10
113.63981211904
20
5.31594974472469
30
0
41
1
10
113.757104338474
20
5.86200445262449
30
0
41
1
10
113.815750448191
20
6.12032281922546
30
0
41
1
10
113.933042667624
20
6.60119691707752
30
0
41
1
10
113.991688777341
20
6.82373892131494
30
0
41
1
10
114.108980996774
20
7.22850793063103
30
0
41
1
10
114.167627106491
20
7.41072970368856
30
0
41
1
10
114.284919325925
20
7.73242926086664
30
0
41
1
10
114.343565435641
20
7.87191047130381
30
0
41
1
10
114.460857655075
20
8.10784912255519
30
0
41
1
10
114.519503764792
20
8.20431702649896
30
0
41
1
10
114.636795984225
20
8.3558824110201
30
0
41
1
10
114.695442093942
20
8.41099467157295
30
0
41
1
10
114.812734313375
20
8.48304538829836
30
0
41
1
10
114.871380423092
20
8.5
30
0
41
1
10
114.930026532809
20
8.5
30
0
0
SPLINE
5
F2
100
AcDbEntity
8
1
62
256
6
ByLayer
370
13
48
1
60
0
100
AcDbSpline
70
4
71
3
72
22
73
18
40
0
40
0
40
0
40
0
40
0.125
40
0.125
40
0.25
40
0.25
40
0.375
40
0.375
40
0.5
40
0.5
40
0.625
40
0.625
40
0.75
40
0.75
40
0.875
40
0.875
40
1
40
1
40
1
40
1
41
1
10
116.252454317794
20
8.5
30
0
41
1
10
116.342195929917
20
8.5
30
0
41
1
10
116.43193754204
20
8.4601745440458
30
0
41
1
10
116.611420766285
20
8.28660883483596
30
0
41
1
10
116.701162378408
20
8.15273773096416
30
0
41
1
10
116.880645602653
20
7.78376768029548
30
0
41
1
10
116.970387214775
20
7.54858538895661
30
0
41
1
10
117.149870439021
20
6.98031169770178
30
0
41
1
10
117.239612051143
20
6.64723403422565
30
0
41
1
10
117.419095275389
20
5.89833342060422
30
0
41
1
10
117.508836887511
20
5.48263210944577
30
0
41
1
10
117.688320111756
20
4.59345131374744
30
0
41
1
10
117.778061723879
20
4.12015819283272
30
0
41
1
10
117.957544948124
20
3.1457308476752
30
0
41
1
10
118.047286560247
20
2.64477525639407
30
0
41
1
10
118.226769784492
20
1.64416995518013
30
0
41
1
10
118.316511396615
20
1.14463400118459
30
0
41
1
10
118.406253008737
20
0.657642670968357
30
0
0
SPLINE
5
F3
100
AcDbEntity
8
1
62
256
6
ByLayer
370
13
48
1
60
0
100
AcDbSpline
70
4
71
3
72
78
73
74
40
0
40
0
40
0
40
0
40
0.0312500000000007
40
0.0312500000000007
40
0.0625000000000014
40
0.0625000000000014
40
0.0937500000000021
40
0.0937500000000021
40
0.109375000000002
40
0.109375000000002
40
0.117187500000002
40
0.117187500000002
40
0.125000000000002
40
0.125000000000002
40
0.156250000000001
40
0.156250000000001
40
0.1875
40
0.1875
40
0.218749999999999
40
0.218749999999999
40
0.249999999999998
40
0.249999999999998
40
0.281249999999997
40
0.281249999999997
40
0.312499999999997
40
0.312499999999997
40
0.343749999999996
40
0.343749999999996
40
0.374999999999995
40
0.374999999999995
40
0.406249999999994
40
0.406249999999994
40
0.437499999999993
40
0.437499999999993
40
0.468749999999992
40
0.468749999999992
40
0.499999999999991
40
0.499999999999991
40
0.53124999999999
40
0.53124999999999
40
0.546874999999989
40
0.546874999999989
40
0.554687499999989
40
0.554687499999989
40
0.562499999999989
40
0.562499999999989
40
0.59374999999999
40
0.59374999999999
40
0.624999999999991
40
0.624999999999991
40
0.656249999999991
40
0.656249999999991
40
0.687499999999992
40
0.687499999999992
40
0.718749999999993
40
0.718749999999993
40
0.749999999999994
40
0.749999999999994
40
0.781249999999995
40
0.781249999999995
40
0.812499999999995
40
0.812499999999995
40
0.843749999999996
40
0.843749999999996
40
0.874999999999997
40
0.874999999999997
40
0.906249999999998
40
0.906249999999998
40
0.937499999999999
40
0.937499999999999
40
0.968749999999999
40
0.968749999999999
40
1
40
1
40
1
40
1
41
1
10
109.3
20
-7.8785842262453
30
0
41
1
10
109.353473152974
20
-7.99782471555662
30
0
41
1
10
109.406946305948
20
-8.09914361975038
30
0
41
1
10
109.513892611895
20
-8.26670626371774
30
0
41
1
10
109.567365764869
20
-8.33295850582647
30
0
41
1
10
109.674312070817
20
-8.43234749132429
30
0
41
1
10
109.727785223791
20
-8.46549423820917
30
0
41
1
10
109.807994953251
20
-8.49252027847706
30
0
41
1
10
109.834731529738
20
-8.4977526489364
30
0
41
1
10
109.874836394469
20
-8.50024737268188
30
0
41
1
10
109.888204682712
20
-8.50019409283064
30
0
41
1
10
109.914941259199
20
-8.49831289434957
30
0
41
1
10
109.928309547443
20
-8.49647860105355
30
0
41
1
10
109.99515098866
20
-8.48270704469113
30
0
41
1
10
110.048624141634
20
-8.45694411734129
30
0
41
1
10
110.155570447581
20
-8.37292431455157
30
0
41
1
10
110.209043600555
20
-8.31465730309978
30
0
41
1
10
110.315989906503
20
-8.16342976804518
30
0
41
1
10
110.369463059477
20
-8.07046024867037
30
0
41
1
10
110.476409365425
20
-7.84874362027682
30
0
41
1
10
110.529882518398
20
-7.71999021692068
30
0
41
1
10
110.636828824346
20
-7.42697270266038
30
0
41
1
10
110.69030197732
20
-7.26270640376015
30
0
41
1
10
110.797248283268
20
-6.90041330566709
30
0
41
1
10
110.850721436241
20
-6.70238928593366
30
0
41
1
10
110.957667742189
20
-6.27580805038133
30
0
41
1
10
111.011140895163
20
-6.04725859319072
30
0
41
1
10
111.118087201111
20
-5.56417193493343
30
0
41
1
10
111.171560354085
20
-5.30964654144606
30
0
41
1
10
111.278506660032
20
-4.78017361639783
30
0
41
1
10
111.331979813006
20
-4.50524025069703
30
0
41
1
10
111.438926118954
20
-3.94114038128572
30
0
41
1
10
111.492399271927
20
-3.65198835557365
30
0
41
1
10
111.599345577875
20
-3.06582581860343
30
0
41
1
10
111.652818730849
20
-2.7688281805649
30
0
41
1
10
111.759765036797
20
-2.17311732046275
30
0
41
1
10
111.813238189771
20
-1.87441397636255
30
0
41
1
10
111.920184495718
20
-1.28085679267178
30
0
41
1
10
111.973657648692
20
-0.986009168545991
30
0
41
1
10
112.053867378153
20
-0.550182839485871
30
0
41
1
10
112.08060395464
20
-0.405974607036853
30
0
41
1
10
112.12070881937
20
-0.191640897267405
30
0
41
1
10
112.134077107614
20
-0.120525628501582
30
0
41
1
10
112.160813684101
20
0.0209890470398477
30
0
41
1
10
112.174181972344
20
0.0915535848314732
30
0
41
1
10
112.241023413561
20
0.447198934471146
30
0
41
1
10
112.294496566535
20
0.737240528990867
30
0
41
1
10
112.401442872483
20
1.32421763523155
30
0
41
1
10
112.454916025457
20
1.6211492142393
30
0
41
1
10
112.561862331404
20
2.216833997565
30
0
41
1
10
112.615335484378
20
2.51557955356179
30
0
41
1
10
112.722281790326
20
3.1090783409557
30
0
41
1
10
112.7757549433
20
3.40382042846713
30
0
41
1
10
112.882701249247
20
3.98304010619714
30
0
41
1
10
112.936174402221
20
4.26750400952685
30
0
41
1
10
113.043120708169
20
4.81981383944003
30
0
41
1
10
113.096593861143
20
5.08764516365
30
0
41
1
10
113.203540167091
20
5.60068630081912
30
0
41
1
10
113.257013320064
20
5.84588261731625
30
0
41
1
10
113.363959626012
20
6.30842969952556
30
0
41
1
10
113.417432778986
20
6.52577004155094
30
0
41
1
10
113.524379084934
20
6.92852680626817
30
0
41
1
10
113.577852237907
20
7.1139373158353
30
0
41
1
10
113.684798543855
20
7.45015166634798
30
0
41
1
10
113.738271696829
20
7.60095468093414
30
0
41
1
10
113.845218002777
20
7.86676933926577
30
0
41
1
10
113.89869115575
20
7.98178488179462
30
0
41
1
10
114.005637461698
20
8.17628960213864
30
0
41
1
10
114.059110614672
20
8.25578629091692
30
0
41
1
10
114.16605692062
20
8.38079197365482
30
0
41
1
10
114.219530073594
20
8.42631058050185
30
0
41
1
10
114.326476379541
20
8.48590949917923
30
0
41
1
10
114.379949532515
20
8.5
30
0
41
1
10
114.433422685489
20
8.5
30
0
0
SPLINE
5
F4
100
AcDbEntity
8
1
62
256
6
ByLayer
370
13
48
1
60
0
100
AcDbSpline
70
4
71
3
72
42
73
38
40
0
40
0
40
0
40
0
40
0.0625000000000003
40
0.0625000000000003
40
0.125000000000001
40
0.125000000000001
40
0.187500000000001
40
0.187500000000001
40
0.250000000000001
40
0.250000000000001
40
0.312500000000001
40
0.312500000000001
40
0.375000000000002
40
0.375000000000002
40
0.437500000000002
40
0.437500000000002
40
0.500000000000003
40
0.500000000000003
40
0.562500000000003
40
0.562500000000003
40
0.625000000000004
40
0.625000000000004
40
0.687500000000004
40
0.687500000000004
40
0.750000000000005
40
0.750000000000005
40
0.812500000000005
40
0.812500000000005
40
0.843750000000005
40
0.843750000000005
40
0.859375000000004
40
0.859375000000004
40
0.875000000000003
40
0.875000000000003
40
0.937500000000002
40
0.937500000000002
40
1
40
1
40
1
40
1
41
1
10
115.755850470474
20
8.5
30
0
41
1
10
115.811067190022
20
8.5
30
0
41
1
10
115.866283909569
20
8.48497390757564
30
0
41
1
10
115.976717348663
20
8.42131610066491
30
0
41
1
10
116.03193406821
20
8.37267242536598
30
0
41
1
10
116.142367507304
20
8.23901693631154
30
0
41
1
10
116.197584226852
20
8.15399394705346
30
0
41
1
10
116.308017665946
20
7.94598425345762
30
0
41
1
10
116.363234385493
20
7.82298907730555
30
0
41
1
10
116.473667824587
20
7.53890873658042
30
0
41
1
10
116.528884544134
20
7.37781966335305
30
0
41
1
10
116.639317983229
20
7.01908720884683
30
0
41
1
10
116.694534702776
20
6.82144577114295
30
0
41
1
10
116.80496814187
20
6.39283990690669
30
0
41
1
10
116.860184861417
20
6.16188354390528
30
0
41
1
10
116.970618300512
20
5.67142456602059
30
0
41
1
10
117.025835020059
20
5.41193518515297
30
0
41
1
10
117.136268459153
20
4.87040799564755
30
0
41
1
10
117.1914851787
20
4.58838659858097
30
0
41
1
10
117.301918617794
20
4.00856102883512
30
0
41
1
10
117.357135337342
20
3.71077391099905
30
0
41
1
10
117.467568776436
20
3.10643829479937
30
0
41
1
10
117.522785495983
20
2.79990506195296
30
0
41
1
10
117.633218935077
20
2.18486045978895
30
0
41
1
10
117.688435654624
20
1.87636078177746
30
0
41
1
10
117.798869093719
20
1.26351786834641
30
0
41
1
10
117.854085813266
20
0.959181892120881
30
0
41
1
10
117.936910892586
20
0.509694671041473
30
0
41
1
10
117.96451925236
20
0.361027095428341
30
0
41
1
10
118.00593179202
20
0.140179037053485
30
0
41
1
10
118.019735971907
20
0.0669618927697968
30
0
41
1
10
118.047344331681
20
-0.0788592626339266
30
0
41
1
10
118.061148511568
20
-0.152157558555189
30
0
41
1
10
118.130169411002
20
-0.52043202330313
30
0
41
1
10
118.185386130549
20
-0.820799674448637
30
0
41
1
10
118.295819569643
20
-1.42835977412577
30
0
41
1
10
118.35103628919
20
-1.7355471508364
30
0
41
1
10
118.406253008737
20
-2.04329794152821
30
0
0
SPLINE
5
F5
100
AcDbEntity
8
1
62
256
6
ByLayer
370
13
48
1
60
0
100
AcDbSpline
70
4
71
3
72
74
73
70
40
0
40
0
40
0
40
0
40
0.015625
40
0.015625
40
0.0234375
40
0.0234375
40
0.03125
40
0.03125
40
0.0624999999999999
40
0.0624999999999999
40
0.0937499999999998
40
0.0937499999999998
40
0.125
40
0.125
40
0.15625
40
0.15625
40
0.1875
40
0.1875
40
0.21875
40
0.21875
40
0.25
40
0.25
40
0.28125
40
0.28125
40
0.312499999999999
40
0.312499999999999
40
0.343749999999999
40
0.343749999999999
40
0.374999999999999
40
0.374999999999999
40
0.406249999999999
40
0.406249999999999
40
0.437499999999999
40
0.437499999999999
40
0.499999999999999
40
0.499999999999999
40
0.507812499999999
40
0.507812499999999
40
0.515624999999999
40
0.515624999999999
40
0.531249999999999
40
0.531249999999999
40
0.562499999999999
40
0.562499999999999
40
0.593749999999999
40
0.593749999999999
40
0.624999999999999
40
0.624999999999999
40
0.656249999999999
40
0.656249999999999
40
0.687499999999999
40
0.687499999999999
40
0.718749999999999
40
0.718749999999999
40
0.749999999999999
40
0.749999999999999
40
0.781249999999999
40
0.781249999999999
40
0.8125
40
0.8125
40
0.84375
40
0.84375
40
0.875
40
0.875
40
0.90625
40
0.90625
40
0.9375
40
0.9375
40
1
40
1
40
1
40
1
41
1
10
109.3
20
-8.48826901971671
30
0
41
1
10
109.324150098115
20
-8.49510812607915
30
0
41
1
10
109.348300196231
20
-8.4988977317789
30
0
41
1
10
109.384525343404
20
-8.50023932210064
30
0
41
1
10
109.396600392462
20
-8.49996880073056
30
0
41
1
10
109.420750490577
20
-8.4979707951185
30
0
41
1
10
109.432825539635
20
-8.49624064034143
30
0
41
1
10
109.493200784924
20
-8.48383726004218
30
0
41
1
10
109.541500981154
20
-8.46188965298452
30
0
41
1
10
109.638101373616
20
-8.39170667062851
30
0
41
1
10
109.686401569848
20
-8.34346517430254
30
0
41
1
10
109.783001962309
20
-8.21897252295494
30
0
41
1
10
109.83130215854
20
-8.14271574477021
30
0
41
1
10
109.927902551002
20
-7.96117752660427
30
0
41
1
10
109.976202747233
20
-7.85589172505757
30
0
41
1
10
110.072803139695
20
-7.61614014223767
30
0
41
1
10
110.121103335926
20
-7.48167199683459
30
0
41
1
10
110.217703728388
20
-7.18436374997054
30
0
41
1
10
110.266003924619
20
-7.02152383373908
30
0
41
1
10
110.36260431708
20
-6.66927799052172
30
0
41
1
10
110.410904513311
20
-6.4798750218726
30
0
41
1
10
110.507504905773
20
-6.07726028302392
30
0
41
1
10
110.555805102004
20
-5.86405405432834
30
0
41
1
10
110.652405494466
20
-5.41741261187556
30
0
41
1
10
110.700705690697
20
-5.18398492717978
30
0
41
1
10
110.797306083159
20
-4.70110425575706
30
0
41
1
10
110.84560627939
20
-4.45165989160361
30
0
41
1
10
110.942206671851
20
-3.94132743604038
30
0
41
1
10
110.990506868082
20
-3.68044804601047
30
0
41
1
10
111.087107260544
20
-3.15194116454236
30
0
41
1
10
111.135407456775
20
-2.88432151372683
30
0
41
1
10
111.232007849237
20
-2.34689214641821
30
0
41
1
10
111.280308045468
20
-2.07708870414672
30
0
41
1
10
111.425208634161
20
-1.27070264326412
30
0
41
1
10
111.521809026623
20
-0.737462883660498
30
0
41
1
10
111.630484468142
20
-0.157697832284356
30
0
41
1
10
111.6425595172
20
-0.0935527291949256
30
0
41
1
10
111.666709615315
20
0.034149210981866
30
0
41
1
10
111.678784664373
20
0.0979746003101525
30
0
41
1
10
111.715009811546
20
0.290714858470721
30
0
41
1
10
111.739159909662
20
0.420329060270291
30
0
41
1
10
111.811610204008
20
0.811995933885015
30
0
41
1
10
111.859910400239
20
1.07689201963075
30
0
41
1
10
111.956510792701
20
1.61091066212273
30
0
41
1
10
112.004810988932
20
1.88003007392137
30
0
41
1
10
112.101411381394
20
2.41857318302408
30
0
41
1
10
112.149711577625
20
2.68799170849371
30
0
41
1
10
112.246311970086
20
3.22275893589725
30
0
41
1
10
112.294612166317
20
3.48810063537192
30
0
41
1
10
112.391212558779
20
4.01007188038741
30
0
41
1
10
112.43951275501
20
4.26669311923391
30
0
41
1
10
112.536113147472
20
4.76654490766637
30
0
41
1
10
112.584413343703
20
5.00976666593166
30
0
41
1
10
112.681013736165
20
5.47836466764539
30
0
41
1
10
112.729313932396
20
5.70373262908385
30
0
41
1
10
112.825914324857
20
6.13265199204292
30
0
41
1
10
112.874214521088
20
6.33619660878531
30
0
41
1
10
112.97081491355
20
6.71821177341252
30
0
41
1
10
113.019115109781
20
6.89667782035968
30
0
41
1
10
113.115715502243
20
7.22616394858238
30
0
41
1
10
113.164015698474
20
7.37718224464038
30
0
41
1
10
113.260616090936
20
7.65038217445266
30
0
41
1
10
113.308916287167
20
7.77256474895773
30
0
41
1
10
113.405516679629
20
7.98769604328538
30
0
41
1
10
113.45381687586
20
8.08064805259895
30
0
41
1
10
113.550417268321
20
8.23784927846165
30
0
41
1
10
113.598717464552
20
8.30210348427167
30
0
41
1
10
113.743618053245
20
8.45381053525472
30
0
41
1
10
113.840218445707
20
8.5
30
0
41
1
10
113.936818838169
20
8.5
30
0
0
SPLINE
5
F6
100
AcDbEntity
8
1
62
256
6
ByLayer
370
13
48
1
60
0
100
AcDbSpline
70
4
71
3
72
42
73
38
40
0
40
0
40
0
40
0
40
0.0625000000000009
40
0.0625000000000009
40
0.125000000000002
40
0.125000000000002
40
0.187500000000003
40
0.187500000000003
40
0.250000000000004
40
0.250000000000004
40
0.312500000000005
40
0.312500000000005
40
0.375000000000006
40
0.375000000000006
40
0.437500000000007
40
0.437500000000007
40
0.500000000000007
40
0.500000000000007
40
0.562500000000008
40
0.562500000000008
40
0.625000000000009
40
0.625000000000009
40
0.68750000000001
40
0.68750000000001
40
0.718750000000011
40
0.718750000000011
40
0.734375000000011
40
0.734375000000011
40
0.75000000000001
40
0.75000000000001
40
0.812500000000008
40
0.812500000000008
40
0.875000000000005
40
0.875000000000005
40
0.937500000000003
40
0.937500000000003
40
1
40
1
40
1
40
1
41
1
10
115.259246623154
20
8.5
30
0
41
1
10
115.324809256187
20
8.5
30
0
41
1
10
115.39037188922
20
8.47879886681707
30
0
41
1
10
115.521497155286
20
8.38815429994739
30
0
41
1
10
115.587059788319
20
8.31868274522716
30
0
41
1
10
115.718185054385
20
8.12735358600855
30
0
41
1
10
115.783747687418
20
8.00547154144812
30
0
41
1
10
115.914872953484
20
7.70773804738144
30
0
41
1
10
115.980435586517
20
7.53187225074157
30
0
41
1
10
116.111560852583
20
7.12775502896378
30
0
41
1
10
116.177123485616
20
6.8995045896765
30
0
41
1
10
116.308248751682
20
6.39558739818173
30
0
41
1
10
116.373811384715
20
6.11993876000287
30
0
41
1
10
116.504936650781
20
5.5292962017495
30
0
41
1
10
116.570499283814
20
5.21433464387326
30
0
41
1
10
116.70162454988
20
4.5554660717313
30
0
41
1
10
116.767187182913
20
4.211598802769
30
0
41
1
10
116.898312448979
20
3.50653625638779
30
0
41
1
10
116.963875082012
20
3.145379667844
30
0
41
1
10
117.095000348078
20
2.41736419419337
30
0
41
1
10
117.160562981111
20
2.05053582019346
30
0
41
1
10
117.291688247177
20
1.3217475083396
30
0
41
1
10
117.35725088021
20
0.95980605646136
30
0
41
1
10
117.455594829759
20
0.427122206932467
30
0
41
1
10
117.488376146276
20
0.251249913927012
30
0
41
1
10
117.53754812105
20
-0.0093556618717514
30
0
41
1
10
117.553938779308
20
-0.0957734500543097
30
0
41
1
10
117.586720095825
20
-0.270353896468237
30
0
41
1
10
117.603110754083
20
-0.35815570603458
30
0
41
1
10
117.685064045375
20
-0.79944582536092
30
0
41
1
10
117.750626678408
20
-1.15985928041818
30
0
41
1
10
117.881751944473
20
-1.88702178220956
30
0
41
1
10
117.947314577506
20
-2.25375423406021
30
0
41
1
10
118.078439843572
20
-2.9832386547458
30
0
41
1
10
118.144002476605
20
-3.34596175205121
30
0
41
1
10
118.275127742671
20
-4.05591577488136
30
0
41
1
10
118.340690375704
20
-4.40310884333951
30
0
41
1
10
118.406253008737
20
-4.73671092200374
30
0
0
SPLINE
5
F7
100
AcDbEntity
8
1
62
256
6
ByLayer
370
13
48
1
60
0
100
AcDbSpline
70
4
71
3
72
44
73
40
40
0
40
0
40
0
40
0
40
0.0624999999999966
40
0.0624999999999966
40
0.124999999999993
40
0.124999999999993
40
0.18749999999999
40
0.18749999999999
40
0.249999999999986
40
0.249999999999986
40
0.312499999999983
40
0.312499999999983
40
0.37499999999998
40
0.37499999999998
40
0.437499999999976
40
0.437499999999976
40
0.445312499999976
40
0.445312499999976
40
0.453124999999976
40
0.453124999999976
40
0.468749999999977
40
0.468749999999977
40
0.499999999999978
40
0.499999999999978
40
0.562499999999981
40
0.562499999999981
40
0.624999999999984
40
0.624999999999984
40
0.687499999999986
40
0.687499999999986
40
0.749999999999989
40
0.749999999999989
40
0.812499999999992
40
0.812499999999992
40
0.874999999999995
40
0.874999999999995
40
0.937499999999997
40
0.937499999999997
40
1
40
1
40
1
40
1
41
1
10
109.3
20
-8.19373914981628
30
0
41
1
10
109.386254478976
20
-8.06104325079184
30
0
41
1
10
109.472508957952
20
-7.88256363941542
30
0
41
1
10
109.645017915904
20
-7.4323068229242
30
0
41
1
10
109.73127239488
20
-7.16049681427481
30
0
41
1
10
109.903781352832
20
-6.53156947313613
30
0
41
1
10
109.990035831808
20
-6.17450545098416
30
0
41
1
10
110.16254478976
20
-5.39273062274756
30
0
41
1
10
110.248799268736
20
-4.96814840347162
30
0
41
1
10
110.421308226688
20
-4.07585683709598
30
0
41
1
10
110.507562705664
20
-3.60830525952073
30
0
41
1
10
110.680071663616
20
-2.65695680746148
30
0
41
1
10
110.766326142592
20
-2.17329225191742
30
0
41
1
10
110.938835100544
20
-1.21440794520825
30
0
41
1
10
111.02508957952
20
-0.739261379215549
30
0
41
1
10
111.122125868368
20
-0.220336013135068
30
0
41
1
10
111.13290767824
20
-0.162890464268912
30
0
41
1
10
111.154471297984
20
-0.0484553906545955
30
0
41
1
10
111.165253107856
20
0.008379697946765
30
0
41
1
10
111.197598537472
20
0.179709416882247
30
0
41
1
10
111.219162157216
20
0.294855852179751
30
0
41
1
10
111.283853016448
20
0.642705387606469
30
0
41
1
10
111.326980255936
20
0.877831177871371
30
0
41
1
10
111.4563619744
20
1.58947123241285
30
0
41
1
10
111.542616453376
20
2.07240535254124
30
0
41
1
10
111.715125411328
20
3.03271656967704
30
0
41
1
10
111.801379890304
20
3.50998299584353
30
0
41
1
10
111.973888848256
20
4.43255305656541
30
0
41
1
10
112.060143327232
20
4.87770329356979
30
0
41
1
10
112.232652285184
20
5.70997016419034
30
0
41
1
10
112.31890676416
20
6.09693961422383
30
0
41
1
10
112.491415722113
20
6.7918262469961
30
0
41
1
10
112.577670201088
20
7.09965602332284
30
0
41
1
10
112.75017915904
20
7.62401019173174
30
0
41
1
10
112.836433638017
20
7.84053395066584
30
0
41
1
10
113.008942595969
20
8.18017620843244
30
0
41
1
10
113.095197074944
20
8.30336793596527
30
0
41
1
10
113.267706032896
20
8.46322580246076
30
0
41
1
10
113.353960511873
20
8.5
30
0
41
1
10
113.440214990849
20
8.5
30
0
0
SPLINE
5
F8
100
AcDbEntity
8
1
62
256
6
ByLayer
370
13
48
1
60
0
100
AcDbSpline
70
4
71
3
72
38
73
34
40
0
40
0
40
0
40
0
40
0.0624999999999999
40
0.0624999999999999
40
0.125
40
0.125
40
0.1875
40
0.1875
40
0.25
40
0.25
40
0.3125
40
0.3125
40
0.375
40
0.375
40
0.4375
40
0.4375
40
0.5
40
0.5
40
0.5625
40
0.5625
40
0.625
40
0.625
40
0.6875
40
0.6875
40
0.75
40
0.75
40
0.8125
40
0.8125
40
0.875
40
0.875
40
0.9375
40
0.9375
40
1
40
1
40
1
40
1
41
1
10
114.762642775834
20
8.5
30
0
41
1
10
114.838551322353
20
8.5
30
0
41
1
10
114.914459868872
20
8.47155208389194
30
0
41
1
10
115.066276961909
20
8.34887457205579
30
0
41
1
10
115.142185508428
20
8.25458702767489
30
0
41
1
10
115.294002601466
20
7.99461345600309
30
0
41
1
10
115.369911147985
20
7.82888200194893
30
0
41
1
10
115.521728241022
20
7.42539892997505
30
0
41
1
10
115.597636787541
20
7.18763168218402
30
0
41
1
10
115.749453880579
20
6.64543082639762
30
0
41
1
10
115.825362427098
20
6.34102189224438
30
0
41
1
10
115.977179520135
20
5.67676098886733
30
0
41
1
10
116.053088066654
20
5.31697084801783
30
0
41
1
10
116.204905159692
20
4.55771563501659
30
0
41
1
10
116.28081370621
20
4.15833258373408
30
0
41
1
10
116.432630799248
20
3.3379703021032
30
0
41
1
10
116.508539345767
20
2.91707014749701
30
0
41
1
10
116.660356438805
20
2.07155635304918
30
0
41
1
10
116.736264985323
20
1.64699998438093
30
0
41
1
10
116.888082078361
20
0.809750412151516
30
0
41
1
10
116.96399062488
20
0.397226988299224
30
0
41
1
10
117.115807717917
20
-0.404547576684649
30
0
41
1
10
117.191716264436
20
-0.817325879518506
30
0
41
1
10
117.343533357474
20
-1.65471615007527
30
0
41
1
10
117.419441903993
20
-2.07930047715749
30
0
41
1
10
117.57125899703
20
-2.92476686526521
30
0
41
1
10
117.647167543549
20
-3.34559148589636
30
0
41
1
10
117.798984636587
20
-4.16569094312126
30
0
41
1
10
117.874893183105
20
-4.56488662000251
30
0
41
1
10
118.026710276143
20
-5.32366144604848
30
0
41
1
10
118.102618822662
20
-5.68315862806972
30
0
41
1
10
118.2544359157
20
-6.34674925952018
30
0
41
1
10
118.330344462218
20
-6.65078106688733
30
0
41
1
10
118.406253008737
20
-6.92147857186737
30
0
0
SPLINE
5
F9
100
AcDbEntity
8
1
62
256
6
ByLayer
370
13
48
1
60
0
100
AcDbSpline
70
4
71
3
72
38
73
34
40
0
40
0
40
0
40
0
40
0.0625000000000001
40
0.0625000000000001
40
0.125
40
0.125
40
0.1875
40
0.1875
40
0.25
40
0.25
40
0.3125
40
0.3125
40
0.375
40
0.375
40
0.4375
40
0.4375
40
0.5
40
0.5
40
0.5625
40
0.5625
40
0.625
40
0.625
40
0.6875
40
0.6875
40
0.75
40
0.75
40
0.8125
40
0.8125
40
0.875
40
0.875
40
0.9375
40
0.9375
40
1
40
1
40
1
40
1
41
1
10
109.3
20
-6.92148181924705
30
0
41
1
10
109.37590856549
20
-6.65078451138757
30
0
41
1
10
109.45181713098
20
-6.34675286746219
30
0
41
1
10
109.603634261961
20
-5.68316248324757
30
0
41
1
10
109.679542827451
20
-5.32366538498209
30
0
41
1
10
109.831359958431
20
-4.56489064577792
30
0
41
1
10
109.907268523921
20
-4.16569497205339
30
0
41
1
10
110.059085654902
20
-3.3455954504993
30
0
41
1
10
110.134994220392
20
-2.92477076252533
30
0
41
1
10
110.286811351372
20
-2.07930418677859
30
0
41
1
10
110.362719916863
20
-1.65471973955502
30
0
41
1
10
110.514537047843
20
-0.817329196405836
30
0
41
1
10
110.590445613333
20
-0.404550741237841
30
0
41
1
10
110.742262744313
20
0.397224141373158
30
0
41
1
10
110.818171309804
20
0.809747508758477
30
0
41
1
10
110.969988440784
20
1.64699723805978
30
0
41
1
10
111.045897006274
20
2.07155370394037
30
0
41
1
10
111.197714137254
20
2.91706772506726
30
0
41
1
10
111.273622702745
20
3.33796800912441
30
0
41
1
10
111.425439833725
20
4.1583305711217
30
0
41
1
10
111.501348399215
20
4.55771377324555
30
0
41
1
10
111.653165530195
20
5.31696929418018
30
0
41
1
10
111.729074095686
20
5.67675959200668
30
0
41
1
10
111.880891226666
20
6.34102079888464
30
0
41
1
10
111.956799792156
20
6.64542987944671
30
0
41
1
10
112.108616923136
20
7.18763100302729
30
0
41
1
10
112.184525488627
20
7.42539837213158
30
0
41
1
10
112.336342619607
20
7.8288816522317
30
0
41
1
10
112.412251185097
20
7.99461319309046
30
0
41
1
10
112.564068316078
20
8.25458690074581
30
0
41
1
10
112.639976881568
20
8.34887449435121
30
0
41
1
10
112.791794012548
20
8.47155206961637
30
0
41
1
10
112.867702578038
20
8.5
30
0
41
1
10
112.943611143528
20
8.5
30
0
0
SPLINE
5
FA
100
AcDbEntity
8
1
62
256
6
ByLayer
370
13
48
1
60
0
100
AcDbSpline
70
4
71
3
72
44
73
40
40
0
40
0
40
0
40
0
40
0.0625
40
0.0625
40
0.125
40
0.125
40
0.1875
40
0.1875
40
0.25
40
0.25
40
0.3125
40
0.3125
40
0.375
40
0.375
40
0.4375
40
0.4375
40
0.5
40
0.5
40
0.53125
40
0.53125
40
0.546875
40
0.546875
40
0.5546875
40
0.5546875
40
0.5625
40
0.5625
40
0.625
40
0.625
40
0.6875
40
0.6875
40
0.75
40
0.75
40
0.8125
40
0.8125
40
0.875
40
0.875
40
0.9375
40
0.9375
40
1
40
1
40
1
40
1
41
1
10
114.266038928514
20
8.5
30
0
41
1
10
114.352293388519
20
8.5
30
0
41
1
10
114.438547848523
20
8.46322581872391
30
0
41
1
10
114.611056768533
20
8.30336802518255
30
0
41
1
10
114.697311228537
20
8.18017635445574
30
0
41
1
10
114.869820148546
20
7.840534252861
30
0
41
1
10
114.956074608551
20
7.62401059334758
30
0
41
1
10
115.12858352856
20
7.09965665967508
30
0
41
1
10
115.214837988565
20
6.79182701860597
30
0
41
1
10
115.387346908574
20
6.09694067666734
30
0
41
1
10
115.473601368579
20
5.70997138204419
30
0
41
1
10
115.646110288588
20
4.87770482152698
30
0
41
1
10
115.732364748593
20
4.43255473901644
30
0
41
1
10
115.904873668602
20
3.50998496587931
30
0
41
1
10
115.991128128607
20
3.03271867266469
30
0
41
1
10
116.163637048616
20
2.07240768510999
30
0
41
1
10
116.249891508621
20
1.58947366157992
30
0
41
1
10
116.379273198628
20
0.877833719831557
30
0
41
1
10
116.42240042863
20
0.642707961881371
30
0
41
1
10
116.487091273634
20
0.294858466963006
30
0
41
1
10
116.508654888635
20
0.179712043844631
30
0
41
1
10
116.541000311137
20
0.00838234121764
30
0
41
1
10
116.551782118637
20
-0.0484527297985551
30
0
41
1
10
116.573345733638
20
-0.162887764004807
30
0
41
1
10
116.584127541139
20
-0.220333293297415
30
0
41
1
10
116.681163808644
20
-0.73925848459541
30
0
41
1
10
116.767418268649
20
-1.21440490489638
30
0
41
1
10
116.939927188658
20
-2.17328896513553
30
0
41
1
10
117.026181648663
20
-2.65695342012523
30
0
41
1
10
117.198690568672
20
-3.60830174175044
30
0
41
1
10
117.284945028677
20
-4.07585328970566
30
0
41
1
10
117.457453948686
20
-4.96814488563436
30
0
41
1
10
117.543708408691
20
-5.39272716425458
30
0
41
1
10
117.7162173287
20
-6.17450220348243
30
0
41
1
10
117.802471788705
20
-6.53156637726033
30
0
41
1
10
117.974980708714
20
-7.16049410027603
30
0
41
1
10
118.061235168719
20
-7.43230433896471
30
0
41
1
10
118.233744088728
20
-7.8825616669159
30
0
41
1
10
118.319998548733
20
-8.06104155942066
30
0
41
1
10
118.406253008737
20
-8.19373774888743
30
0
0
SPLINE
5
FB
100
AcDbEntity
8
1
62
256
6
ByLayer
370
13
48
1
60
0
100
AcDbSpline
70
4
71
3
72
42
73
38
40
0
40
0
40
0
40
0
40
0.0625000000000025
40
0.0625000000000025
40
0.125000000000005
40
0.125000000000005
40
0.187500000000008
40
0.187500000000008
40
0.25000000000001
40
0.25000000000001
40
0.265625000000011
40
0.265625000000011
40
0.281250000000011
40
0.281250000000011
40
0.312500000000011
40
0.312500000000011
40
0.37500000000001
40
0.37500000000001
40
0.437500000000009
40
0.437500000000009
40
0.500000000000008
40
0.500000000000008
40
0.562500000000007
40
0.562500000000007
40
0.625000000000006
40
0.625000000000006
40
0.687500000000005
40
0.687500000000005
40
0.750000000000004
40
0.750000000000004
40
0.812500000000003
40
0.812500000000003
40
0.875000000000002
40
0.875000000000002
40
0.937500000000001
40
0.937500000000001
40
1
40
1
40
1
40
1
41
1
10
109.3
20
-4.73671555553381
30
0
41
1
10
109.365562652004
20
-4.40311350597591
30
0
41
1
10
109.431125304009
20
-4.0559204323998
30
0
41
1
10
109.562250608017
20
-3.3459663390615
30
0
41
1
10
109.627813260022
20
-2.98324317644702
30
0
41
1
10
109.758938564031
20
-2.25375857794367
30
0
41
1
10
109.824501216035
20
-1.88702601367169
30
0
41
1
10
109.955626520043
20
-1.15986325508197
30
0
41
1
10
110.021189172048
20
-0.7994496557194
30
0
41
1
10
110.103142487053
20
-0.358159345384763
30
0
41
1
10
110.119533150054
20
-0.270357497081989
30
0
41
1
10
110.152314476057
20
-0.0957769723402464
30
0
41
1
10
110.168705139058
20
-0.0093591416702168
30
0
41
1
10
110.217877128061
20
0.251246467020422
30
0
41
1
10
110.250658454063
20
0.427118785933686
30
0
41
1
10
110.349002432069
20
0.95980272530727
30
0
41
1
10
110.414565084074
20
1.32174425335424
30
0
41
1
10
110.545690388082
20
2.05053274866111
30
0
41
1
10
110.611253040087
20
2.41736122995533
30
0
41
1
10
110.742378344095
20
3.14537694425391
30
0
41
1
10
110.8079409961
20
3.50653366613534
30
0
41
1
10
110.939066300108
20
4.21159649657517
30
0
41
1
10
111.004628952113
20
4.55546391621442
30
0
41
1
10
111.135754256122
20
5.21433279570229
30
0
41
1
10
111.201316908126
20
5.52929451018386
30
0
41
1
10
111.332442212134
20
6.11993737519282
30
0
41
1
10
111.398004864139
20
6.39558616345568
30
0
41
1
10
111.529130168148
20
6.89950363718202
30
0
41
1
10
111.594692820152
20
7.1277542085669
30
0
41
1
10
111.72581812416
20
7.53187166790232
30
0
41
1
10
111.791380776165
20
7.70773756998111
30
0
41
1
10
111.922506080174
20
8.00547124347247
30
0
41
1
10
111.988068732178
20
8.12735336202795
30
0
41
1
10
112.119194036186
20
8.31868263702694
30
0
41
1
10
112.184756688191
20
8.38815423356371
30
0
41
1
10
112.3158819922
20
8.47879885451334
30
0
41
1
10
112.381444644204
20
8.5
30
0
41
1
10
112.447007296208
20
8.5
30
0
0
SPLINE
5
FC
100
AcDbEntity
8
1
62
256
6
ByLayer
370
13
48
1
60
0
100
AcDbSpline
70
4
71
3
72
74
73
70
40
0
40
0
40
0
40
0
40
0.0624999999999998
40
0.0624999999999998
40
0.09375
40
0.09375
40
0.125
40
0.125
40
0.15625
40
0.15625
40
0.187500000000001
40
0.187500000000001
40
0.218750000000001
40
0.218750000000001
40
0.250000000000001
40
0.250000000000001
40
0.281250000000001
40
0.281250000000001
40
0.312500000000001
40
0.312500000000001
40
0.343750000000001
40
0.343750000000001
40
0.375000000000001
40
0.375000000000001
40
0.406250000000001
40
0.406250000000001
40
0.437500000000001
40
0.437500000000001
40
0.468750000000002
40
0.468750000000002
40
0.484375000000001
40
0.484375000000001
40
0.492187500000001
40
0.492187500000001
40
0.500000000000002
40
0.500000000000002
40
0.562500000000001
40
0.562500000000001
40
0.593750000000001
40
0.593750000000001
40
0.625000000000001
40
0.625000000000001
40
0.656250000000001
40
0.656250000000001
40
0.687500000000001
40
0.687500000000001
40
0.718750000000001
40
0.718750000000001
40
0.750000000000001
40
0.750000000000001
40
0.781250000000001
40
0.781250000000001
40
0.812500000000001
40
0.812500000000001
40
0.843750000000001
40
0.843750000000001
40
0.875000000000001
40
0.875000000000001
40
0.906250000000002
40
0.906250000000002
40
0.937500000000002
40
0.937500000000002
40
0.968750000000002
40
0.968750000000002
40
0.976562500000002
40
0.976562500000002
40
0.984375000000001
40
0.984375000000001
40
1
40
1
40
1
40
1
41
1
10
113.769435081194
20
8.5
30
0
41
1
10
113.866035454684
20
8.5
30
0
41
1
10
113.962635828175
20
8.45381055352468
30
0
41
1
10
114.10753638841
20
8.30210356451798
30
0
41
1
10
114.155836575156
20
8.23784938508393
30
0
41
1
10
114.252436948646
20
8.08064822383153
30
0
41
1
10
114.300737135392
20
7.98769625275642
30
0
41
1
10
114.397337508882
20
7.7725650464825
30
0
41
1
10
114.445637695627
20
7.65038252179434
30
0
41
1
10
114.542238069118
20
7.37718270210502
30
0
41
1
10
114.590538255863
20
7.22616446635146
30
0
41
1
10
114.687138629353
20
6.89667846733107
30
0
41
1
10
114.735438816099
20
6.71821248927677
30
0
41
1
10
114.832039189589
20
6.33619746842481
30
0
41
1
10
114.880339376335
20
6.13265292655692
30
0
41
1
10
114.976939749825
20
5.70373371622202
30
0
41
1
10
115.02523993657
20
5.47836583252356
30
0
41
1
10
115.121840310061
20
5.00976798580948
30
0
41
1
10
115.170140496806
20
4.76654630479393
30
0
41
1
10
115.266740870296
20
4.26669466708435
30
0
41
1
10
115.315041057042
20
4.01007350170244
30
0
41
1
10
115.411641430532
20
3.48810239688618
30
0
41
1
10
115.459941617277
20
3.22276076414002
30
0
41
1
10
115.556541990768
20
2.68799366107837
30
0
41
1
10
115.604842177513
20
2.41857519321897
30
0
41
1
10
115.701442551004
20
1.88003218854322
30
0
41
1
10
115.749742737749
20
1.61091282356128
30
0
41
1
10
115.846343111239
20
1.07689426298305
30
0
41
1
10
115.894643297985
20
0.811998212336846
30
0
41
1
10
115.967093578103
20
0.42033138242175
30
0
41
1
10
115.991243671475
20
0.290717193702392
30
0
41
1
10
116.027468811534
20
0.0979769529562873
30
0
41
1
10
116.03954385822
20
0.0341515611692103
30
0
41
1
10
116.063693951593
20
-0.0935503393767192
30
0
41
1
10
116.075768998279
20
-0.157695422785792
30
0
41
1
10
116.184444418456
20
-0.737460298508552
30
0
41
1
10
116.281044791946
20
-1.27069991223638
30
0
41
1
10
116.425945352182
20
-2.07708579377231
30
0
41
1
10
116.474245538927
20
-2.34688918287921
30
0
41
1
10
116.570845912418
20
-2.88431846115492
30
0
41
1
10
116.619146099163
20
-3.15193807611507
30
0
41
1
10
116.715746472654
20
-3.68044490682649
30
0
41
1
10
116.764046659399
20
-3.94132428196778
30
0
41
1
10
116.86064703289
20
-4.45165673154858
30
0
41
1
10
116.908947219635
20
-4.70110110461849
30
0
41
1
10
117.005547593125
20
-5.18398181934077
30
0
41
1
10
117.05384777987
20
-5.41740953842555
30
0
41
1
10
117.150448153361
20
-5.86405107537627
30
0
41
1
10
117.198748340106
20
-6.07725736418107
30
0
41
1
10
117.295348713597
20
-6.47987224770654
30
0
41
1
10
117.343648900342
20
-6.66927530091766
30
0
41
1
10
117.440249273832
20
-7.02152133502167
30
0
41
1
10
117.488549460578
20
-7.1843613575673
30
0
41
1
10
117.585149834068
20
-7.48166983494087
30
0
41
1
10
117.633450020813
20
-7.61613810452562
30
0
41
1
10
117.730050394304
20
-7.85588994889548
30
0
41
1
10
117.778350581049
20
-7.96117588779589
30
0
41
1
10
117.87495095454
20
-8.14271438878211
30
0
41
1
10
117.923251141285
20
-8.21897131242011
30
0
41
1
10
118.019851514775
20
-8.34346425776093
30
0
41
1
10
118.068151701521
20
-8.39170590261639
30
0
41
1
10
118.164752075011
20
-8.46188918050208
30
0
41
1
10
118.213052261756
20
-8.4838369345531
30
0
41
1
10
118.273427495188
20
-8.49624049517323
30
0
41
1
10
118.285502541874
20
-8.4979706858453
30
0
41
1
10
118.309652635247
20
-8.49996876285539
30
0
41
1
10
118.321727681933
20
-8.50023931939842
30
0
41
1
10
118.357952821992
20
-8.49889783677293
30
0
41
1
10
118.382102915365
20
-8.49510830598001
30
0
41
1
10
118.406253008737
20
-8.48826927759677
30
0
0
SPLINE
5
FD
100
AcDbEntity
8
1
62
256
6
ByLayer
370
13
48
1
60
0
100
AcDbSpline
70
4
71
3
72
42
73
38
40
0
40
0
40
0
40
0
40
0.0625
40
0.0625
40
0.125
40
0.125
40
0.140625
40
0.140625
40
0.15625
40
0.15625
40
0.1875
40
0.1875
40
0.25
40
0.25
40
0.3125
40
0.3125
40
0.375
40
0.375
40
0.4375
40
0.4375
40
0.5
40
0.5
40
0.5625
40
0.5625
40
0.625
40
0.625
40
0.6875
40
0.6875
40
0.75
40
0.75
40
0.8125
40
0.8125
40
0.875
40
0.875
40
0.9375
40
0.9375
40
1
40
1
40
1
40
1
41
1
10
109.3
20
-2.04330301690496
30
0
41
1
10
109.355216738518
20
-1.73555211469733
30
0
41
1
10
109.410433477037
20
-1.42836460998453
30
0
41
1
10
109.520866954074
20
-0.820804232137647
30
0
41
1
10
109.576083692593
20
-0.520436430856137
30
0
41
1
10
109.645104615741
20
-0.152161771000408
30
0
41
1
10
109.65890880037
20
-0.0788634356830187
30
0
41
1
10
109.686517169629
20
0.0669577991148742
30
0
41
1
10
109.700321354259
20
0.140174927586571
30
0
41
1
10
109.741733908148
20
0.361023021969487
30
0
41
1
10
109.769342277407
20
0.509690624958637
30
0
41
1
10
109.852167385185
20
0.959177938371766
30
0
41
1
10
109.907384123703
20
1.26351398982618
30
0
41
1
10
110.017817600741
20
1.87635708011763
30
0
41
1
10
110.073034339259
20
2.18485685976694
30
0
41
1
10
110.183467816296
20
2.79990168851322
30
0
41
1
10
110.238684554815
20
3.10643504629979
30
0
41
1
10
110.349118031852
20
3.71077093036953
30
0
41
1
10
110.40433477037
20
4.00855819111908
30
0
41
1
10
110.514768247407
20
4.588384057452
30
0
41
1
10
110.569984985926
20
4.87040560816502
30
0
41
1
10
110.680418462963
20
5.4119331072452
30
0
41
1
10
110.735635201481
20
5.67142264400769
30
0
41
1
10
110.846068678518
20
6.16188192716797
30
0
41
1
10
110.901285417037
20
6.39283843951699
30
0
41
1
10
111.011718894074
20
6.82144458784504
30
0
41
1
10
111.066935632592
20
7.01908616026719
30
0
41
1
10
111.177369109629
20
7.37781886313297
30
0
41
1
10
111.232585848148
20
7.5389080499877
30
0
41
1
10
111.343019325185
20
7.82298859264623
30
0
41
1
10
111.398236063703
20
7.9459838571037
30
0
41
1
10
111.50866954074
20
8.15399370019557
30
0
41
1
10
111.563886279259
20
8.23901675065503
30
0
41
1
10
111.674319756296
20
8.37267233549434
30
0
41
1
10
111.729536494814
20
8.4213160453948
30
0
41
1
10
111.839969971851
20
8.48497389723107
30
0
41
1
10
111.89518671037
20
8.5
30
0
41
1
10
111.950403448888
20
8.5
30
0
0
SPLINE
5
FE
100
AcDbEntity
8
1
62
256
6
ByLayer
370
13
48
1
60
0
100
AcDbSpline
70
4
71
3
72
8
73
4
40
0
40
0
40
0
40
0
40
1
40
1
40
1
40
1
41
1
10
118.406253008737
20
8.41839116683167
30
0
41
1
10
119.437502005825
20
5.61104903172119
30
0
41
1
10
120.468751002913
20
2.80490521560432
30
0
41
1
10
121.5
20
-7.674E-13
30
0
0
SPLINE
5
FF
100
AcDbEntity
8
1
62
256
6
ByLayer
370
13
48
1
60
0
100
AcDbSpline
70
4
71
3
72
8
73
4
40
0
40
0
40
0
40
0
40
1
40
1
40
1
40
1
41
1
10
118.406253008737
20
-1.08020504611832
30
0
41
1
10
119.437502005825
20
-0.728831243086631
30
0
41
1
10
120.468751002912
20
-0.368761157356516
30
0
41
1
10
121.5
20
-5.68E-14
30
0
0
SPLINE
5
100
100
AcDbEntity
8
1
62
256
6
ByLayer
370
13
48
1
60
0
100
AcDbSpline
70
4
71
3
72
8
73
4
40
0
40
0
40
0
40
0
40
1
40
1
40
1
40
1
41
1
10
118.406253008737
20
5.62538955069152
30
0
41
1
10
119.437502005825
20
3.74368837078245
30
0
41
1
10
120.468751002912
20
1.86854955735467
30
0
41
1
10
121.499999999999
20
1.1369E-12
30
0
0
SPLINE
5
101
100
AcDbEntity
8
1
62
256
6
ByLayer
370
13
48
1
60
0
100
AcDbSpline
70
4
71
3
72
8
73
4
40
0
40
0
40
0
40
0
40
1
40
1
40
1
40
1
41
1
10
118.406253008737
20
-6.59181120095087
30
0
41
1
10
119.437502005825
20
-4.38900672752615
30
0
41
1
10
120.468751002912
20
-2.19172582071093
30
0
41
1
10
121.5
20
1.137E-13
30
0
0
SPLINE
5
102
100
AcDbEntity
8
1
62
256
6
ByLayer
370
13
48
1
60
0
100
AcDbSpline
70
4
71
3
72
8
73
4
40
0
40
0
40
0
40
0
40
1
40
1
40
1
40
1
41
1
10
118.406253008737
20
5.29184898339844
30
0
41
1
10
119.437502005825
20
3.53475897590261
30
0
41
1
10
120.468751002912
20
1.77080086221429
30
0
41
1
10
121.5
20
-8.53E-14
30
0
0
SPLINE
5
103
100
AcDbEntity
8
1
62
256
6
ByLayer
370
13
48
1
60
0
100
AcDbSpline
70
4
71
3
72
8
73
4
40
0
40
0
40
0
40
0
40
1
40
1
40
1
40
1
41
1
10
118.406253008737
20
-8.49721398048987
30
0
41
1
10
119.437502005825
20
-5.66503373150522
30
0
41
1
10
120.468751002912
20
-2.83261551613921
30
0
41
1
10
121.5
20
1.421E-13
30
0
0
SPLINE
5
104
100
AcDbEntity
8
1
62
256
6
ByLayer
370
13
48
1
60
0
100
AcDbSpline
70
4
71
3
72
8
73
4
40
0
40
0
40
0
40
0
40
1
40
1
40
1
40
1
41
1
10
118.406253008737
20
8.34721113704995
30
0
41
1
10
119.437502005825
20
5.56646194994462
30
0
41
1
10
120.468751002912
20
2.78404491939671
30
0
41
1
10
121.5
20
-2.84E-14
30
0
0
SPLINE
5
105
100
AcDbEntity
8
1
62
256
6
ByLayer
370
13
48
1
60
0
100
AcDbSpline
70
4
71
3
72
8
73
4
40
0
40
0
40
0
40
0
40
1
40
1
40
1
40
1
41
1
10
118.406253008737
20
4.29884205163464
30
0
41
1
10
119.437502005825
20
2.8734566438182
30
0
41
1
10
120.468751002912
20
1.44050242365256
30
0
41
1
10
121.5
20
-8.53E-14
30
0
0
SPLINE
5
106
100
AcDbEntity
8
1
62
256
6
ByLayer
370
13
48
1
60
0
100
AcDbSpline
70
4
71
3
72
8
73
4
40
0
40
0
40
0
40
0
40
1
40
1
40
1
40
1
41
1
10
118.406253008737
20
0.121961866913807
30
0
41
1
10
119.437502005825
20
0.0725431971715693
30
0
41
1
10
120.468751002912
20
0.031889060960367
30
0
41
1
10
121.5
20
0
30
0
0
SPLINE
5
107
100
AcDbEntity
8
1
62
256
6
ByLayer
370
13
48
1
60
0
100
AcDbSpline
70
4
71
3
72
8
73
4
40
0
40
0
40
0
40
0
40
1
40
1
40
1
40
1
41
1
10
118.406253008737
20
-1.51034092404078
30
0
41
1
10
119.437502005825
20
-0.998267819931215
30
0
41
1
10
120.468751002912
20
-0.494818449699778
30
0
41
1
10
121.5
20
8.53E-14
30
0
0
SPLINE
5
108
100
AcDbEntity
8
1
62
256
6
ByLayer
370
13
48
1
60
0
100
AcDbSpline
70
4
71
3
72
8
73
4
40
0
40
0
40
0
40
0
40
1
40
1
40
1
40
1
41
1
10
118.406253008737
20
-5.44022950253657
30
0
41
1
10
119.437502005825
20
-3.63355475097535
30
0
41
1
10
120.468751002912
20
-1.82013622774153
30
0
41
1
10
121.5
20
8.53E-14
30
0
0
SPLINE
5
109
100
AcDbEntity
8
1
62
256
6
ByLayer
370
13
48
1
60
0
100
AcDbSpline
70
4
71
3
72
8
73
4
40
0
40
0
40
0
40
0
40
1
40
1
40
1
40
1
41
1
10
118.406253008737
20
-8.09701826475026
30
0
41
1
10
119.437502005825
20
-5.400679165697
30
0
41
1
10
120.468751002912
20
-2.70166015674434
30
0
41
1
10
121.5
20
-4.547E-13
30
0
0
SPLINE
5
10A
100
AcDbEntity
8
1
62
256
6
ByLayer
370
13
48
1
60
0
100
AcDbSpline
70
4
71
3
72
8
73
4
40
0
40
0
40
0
40
0
40
1
40
1
40
1
40
1
41
1
10
118.406253008737
20
-7.28395253932513
30
0
41
1
10
119.437502005825
20
-4.85145035478135
30
0
41
1
10
120.468751002912
20
-2.4234545627761
30
0
41
1
10
121.5
20
1.421E-13
30
0
0
SPLINE
5
10B
100
AcDbEntity
8
1
62
256
6
ByLayer
370
13
48
1
60
0
100
AcDbSpline
70
4
71
3
72
8
73
4
40
0
40
0
40
0
40
0
40
1
40
1
40
1
40
1
41
1
10
118.406253008737
20
-8.38120864752983
30
0
41
1
10
119.437502005825
20
-5.5889327842641
30
0
41
1
10
120.468751002912
20
-2.79518319629963
30
0
41
1
10
121.5
20
-4.547E-13
30
0
0
SPLINE
5
10C
100
AcDbEntity
8
1
62
256
6
ByLayer
370
13
48
1
60
0
100
AcDbSpline
70
4
71
3
72
8
73
4
40
0
40
0
40
0
40
0
40
1
40
1
40
1
40
1
41
1
10
118.406253008737
20
8.49016316778341
30
0
41
1
10
119.437502005825
20
5.66053036817763
30
0
41
1
10
120.468751002912
20
2.83046243464682
30
0
41
1
10
121.5
20
0
30
0
0
SPLINE
5
10D
100
AcDbEntity
8
1
62
256
6
ByLayer
370
13
48
1
60
0
100
AcDbSpline
70
4
71
3
72
8
73
4
40
0
40
0
40
0
40
0
40
1
40
1
40
1
40
1
41
1
10
118.406253008737
20
-2.67714128651812
30
0
41
1
10
119.437502005825
20
-1.77644136132378
30
0
41
1
10
120.468751002912
20
-0.884056675151896
30
0
41
1
10
121.5
20
1.421E-13
30
0
0
SPLINE
5
10E
100
AcDbEntity
8
1
62
256
6
ByLayer
370
13
48
1
60
0
100
AcDbSpline
70
4
71
3
72
8
73
4
40
0
40
0
40
0
40
0
40
1
40
1
40
1
40
1
41
1
10
118.406253008737
20
-3.79021966693031
30
0
41
1
10
119.437502005825
20
-2.51896719468041
30
0
41
1
10
120.468751002912
20
-1.25555460535475
30
0
41
1
10
121.5
20
5.68E-14
30
0
0
SPLINE
5
10F
100
AcDbEntity
8
1
62
256
6
ByLayer
370
13
48
1
60
0
100
AcDbSpline
70
4
71
3
72
8
73
4
40
0
40
0
40
0
40
0
40
1
40
1
40
1
40
1
41
1
10
118.406253008737
20
3.21957059705238
30
0
41
1
10
119.437502005825
20
2.15449288494929
30
0
41
1
10
120.468751002912
20
1.08129753709795
30
0
41
1
10
121.5
20
-5.68E-14
30
0
0
SPLINE
5
110
100
AcDbEntity
8
1
62
256
6
ByLayer
370
13
48
1
60
0
100
AcDbSpline
70
4
71
3
72
8
73
4
40
0
40
0
40
0
40
0
40
1
40
1
40
1
40
1
41
1
10
118.406253008737
20
-4.46280255144444
30
0
41
1
10
119.437502005825
20
-2.98266194419304
30
0
41
1
10
120.468751002912
20
-1.49505396270166
30
0
41
1
10
121.5
20
-2.558E-13
30
0
0
SPLINE
5
111
100
AcDbEntity
8
1
62
256
6
ByLayer
370
13
48
1
60
0
100
AcDbSpline
70
4
71
3
72
8
73
4
40
0
40
0
40
0
40
0
40
1
40
1
40
1
40
1
41
1
10
118.406253008737
20
6.46935258476611
30
0
41
1
10
119.437502005825
20
4.30721604453609
30
0
41
1
10
120.468751002912
20
2.15075487203839
30
0
41
1
10
121.5
20
3.695E-13
30
0
0
SPLINE
5
112
100
AcDbEntity
8
1
62
256
6
ByLayer
370
13
48
1
60
0
100
AcDbSpline
70
4
71
3
72
8
73
4
40
0
40
0
40
0
40
0
40
1
40
1
40
1
40
1
41
1
10
118.406253008737
20
1.32168138082662
30
0
41
1
10
119.437502005825
20
0.872461918840315
30
0
41
1
10
120.468751002912
20
0.431899364017767
30
0
41
1
10
121.5
20
8.53E-14
30
0
0
SPLINE
5
113
100
AcDbEntity
8
1
62
256
6
ByLayer
370
13
48
1
60
0
100
AcDbSpline
70
4
71
3
72
8
73
4
40
0
40
0
40
0
40
0
40
1
40
1
40
1
40
1
41
1
10
118.406253008737
20
2.49487881919782
30
0
41
1
10
119.437502005825
20
1.65487301631586
30
0
41
1
10
120.468751002912
20
0.823242776760281
30
0
41
1
10
121.5
20
1.421E-13
30
0
0
SPLINE
5
114
100
AcDbEntity
8
1
62
256
6
ByLayer
370
13
48
1
60
0
100
AcDbSpline
70
4
71
3
72
8
73
4
40
0
40
0
40
0
40
0
40
1
40
1
40
1
40
1
41
1
10
118.406253008737
20
7.75348804385169
30
0
41
1
10
119.437502005825
20
5.16539987305117
30
0
41
1
10
120.468751002912
20
2.58089149571941
30
0
41
1
10
121.499999999999
20
1.5632E-12
30
0
0
SPLINE
5
115
100
AcDbEntity
8
1
62
256
6
ByLayer
370
13
48
1
60
0
100
AcDbSpline
70
4
71
3
72
8
73
4
40
0
40
0
40
0
40
0
40
1
40
1
40
1
40
1
41
1
10
118.406253008737
20
7.56502847515083
30
0
41
1
10
119.437502005825
20
5.04734903453507
30
0
41
1
10
120.468751002912
20
2.5256608019632
30
0
41
1
10
121.5
20
-5.68E-14
30
0
0
SPLINE
5
116
100
AcDbEntity
8
1
62
256
6
ByLayer
370
13
48
1
60
0
100
AcDbSpline
70
4
71
3
72
8
73
4
40
0
40
0
40
0
40
0
40
1
40
1
40
1
40
1
41
1
10
118.406253008737
20
-7.82992737925881
30
0
41
1
10
119.437502005825
20
-5.21654031218674
30
0
41
1
10
120.468751002912
20
-2.60655203416019
30
0
41
1
10
121.5
20
-4.263E-13
30
0
0
SPLINE
5
117
100
AcDbEntity
8
1
62
256
6
ByLayer
370
13
48
1
60
0
100
AcDbSpline
70
4
71
3
72
8
73
4
40
0
40
0
40
0
40
0
40
1
40
1
40
1
40
1
41
1
10
118.406253008737
20
7.18349563314101
30
0
41
1
10
119.437502005825
20
4.78431115521963
30
0
41
1
10
120.468751002912
20
2.38980115912705
30
0
41
1
10
121.5
20
3.979E-13
30
0
0
SPLINE
5
118
100
AcDbEntity
8
1
62
256
6
ByLayer
370
13
48
1
60
0
100
AcDbSpline
70
4
71
3
72
8
73
4
40
0
40
0
40
0
40
0
40
1
40
1
40
1
40
1
41
1
10
118.406253008737
20
6.94149384148284
30
0
41
1
10
119.437502005825
20
4.6327215350986
30
0
41
1
10
120.468751002912
20
2.31887917339054
30
0
41
1
10
121.5
20
0
30
0
0
SPLINE
5
119
100
AcDbEntity
8
1
62
256
6
ByLayer
370
13
48
1
60
0
100
AcDbSpline
70
4
71
3
72
8
73
4
40
0
40
0
40
0
40
0
40
1
40
1
40
1
40
1
41
1
10
118.406253008737
20
-3.39582089517657
30
0
41
1
10
119.437502005825
20
-2.27191629651702
30
0
41
1
10
120.468751002912
20
-1.13997056825724
30
0
41
1
10
121.5
20
-1.99E-13
30
0
0
SPLINE
5
11A
100
AcDbEntity
8
1
62
256
6
ByLayer
370
13
48
1
60
0
100
AcDbSpline
70
4
71
3
72
8
73
4
40
0
40
0
40
0
40
0
40
1
40
1
40
1
40
1
41
1
10
118.406253008737
20
2.07569227441152
30
0
41
1
10
119.437502005825
20
1.39229508807588
30
0
41
1
10
120.468751002912
20
0.700394338546346
30
0
41
1
10
121.5
20
2.84E-14
30
0
0
SPLINE
5
11B
100
AcDbEntity
8
1
62
256
6
ByLayer
370
13
48
1
60
0
100
AcDbSpline
70
4
71
3
72
8
73
4
40
0
40
0
40
0
40
0
40
1
40
1
40
1
40
1
41
1
10
118.406253008737
20
-7.65034565804376
30
0
41
1
10
119.437502005825
20
-5.10405054625082
30
0
41
1
10
120.468751002912
20
-2.55392311689749
30
0
41
1
10
121.5
20
1.421E-13
30
0
0
SPLINE
5
11C
100
AcDbEntity
8
1
62
256
6
ByLayer
370
13
48
1
60
0
100
AcDbSpline
70
4
71
3
72
8
73
4
40
0
40
0
40
0
40
0
40
1
40
1
40
1
40
1
41
1
10
118.406253008737
20
-2.26069557008333
30
0
41
1
10
119.437502005825
20
-1.51558028454096
30
0
41
1
10
120.468751002912
20
-0.762011474748618
30
0
41
1
10
121.5
20
-1.137E-13
30
0
0
SPLINE
5
11D
100
AcDbEntity
8
1
62
256
6
ByLayer
370
13
48
1
60
0
100
AcDbSpline
70
4
71
3
72
8
73
4
40
0
40
0
40
0
40
0
40
1
40
1
40
1
40
1
41
1
10
118.406253008737
20
-8.21877968690092
30
0
41
1
10
119.437502005825
20
-5.47695036849547
30
0
41
1
10
120.468751002912
20
-2.73734403241207
30
0
41
1
10
121.5
20
1.421E-13
30
0
0
SPLINE
5
11E
100
AcDbEntity
8
1
62
256
6
ByLayer
370
13
48
1
60
0
100
AcDbSpline
70
4
71
3
72
8
73
4
40
0
40
0
40
0
40
0
40
1
40
1
40
1
40
1
41
1
10
118.406253008737
20
8.03675628184592
30
0
41
1
10
119.437502005825
20
5.36069178083758
30
0
41
1
10
120.468751002912
20
2.68176019535139
30
0
41
1
10
121.5
20
8.53E-14
30
0
0
SPLINE
5
11F
100
AcDbEntity
8
1
62
256
6
ByLayer
370
13
48
1
60
0
100
AcDbSpline
70
4
71
3
72
8
73
4
40
0
40
0
40
0
40
0
40
1
40
1
40
1
40
1
41
1
10
118.406253008737
20
-4.82724000961576
30
0
41
1
10
119.437502005825
20
-3.21094511293936
30
0
41
1
10
120.468751002912
20
-1.60185742077954
30
0
41
1
10
121.5
20
8.53E-14
30
0
0
SPLINE
5
120
100
AcDbEntity
8
1
62
256
6
ByLayer
370
13
48
1
60
0
100
AcDbSpline
70
4
71
3
72
8
73
4
40
0
40
0
40
0
40
0
40
1
40
1
40
1
40
1
41
1
10
118.406253008737
20
3.61801172199344
30
0
41
1
10
119.437502005825
20
2.40407590810187
30
0
41
1
10
120.468751002912
20
1.19806624193367
30
0
41
1
10
121.5
20
1.99E-13
30
0
0
SPLINE
5
121
100
AcDbEntity
8
1
62
256
6
ByLayer
370
13
48
1
60
0
100
AcDbSpline
70
4
71
3
72
8
73
4
40
0
40
0
40
0
40
0
40
1
40
1
40
1
40
1
41
1
10
118.406253008737
20
0.890161199373807
30
0
41
1
10
119.437502005825
20
0.602158215992745
30
0
41
1
10
120.468751002912
20
0.305436382300883
30
0
41
1
10
121.5
20
2.84E-14
30
0
0
SPLINE
5
122
100
AcDbEntity
8
1
62
256
6
ByLayer
370
13
48
1
60
0
100
AcDbSpline
70
4
71
3
72
8
73
4
40
0
40
0
40
0
40
0
40
1
40
1
40
1
40
1
41
1
10
118.406253008737
20
-7.05015417121561
30
0
41
1
10
119.437502005825
20
-4.70499934892817
30
0
41
1
10
120.468751002912
20
-2.3549367042321
30
0
41
1
10
121.5
20
1.137E-13
30
0
0
SPLINE
5
123
100
AcDbEntity
8
1
62
256
6
ByLayer
370
13
48
1
60
0
100
AcDbSpline
70
4
71
3
72
8
73
4
40
0
40
0
40
0
40
0
40
1
40
1
40
1
40
1
41
1
10
118.406253008737
20
8.16789182435753
30
0
41
1
10
119.437502005825
20
5.44283492092515
30
0
41
1
10
120.468751002913
20
2.72019128716963
30
0
41
1
10
121.5
20
-7.39E-13
30
0
0
SPLINE
5
124
100
AcDbEntity
8
1
62
256
6
ByLayer
370
13
48
1
60
0
100
AcDbSpline
70
4
71
3
72
8
73
4
40
0
40
0
40
0
40
0
40
1
40
1
40
1
40
1
41
1
10
118.406253008737
20
-8.44270639380593
30
0
41
1
10
119.437502005825
20
-5.62745489574277
30
0
41
1
10
120.468751002912
20
-2.8132059648681
30
0
41
1
10
121.5
20
-4.547E-13
30
0
0
SPLINE
5
125
100
AcDbEntity
8
1
62
256
6
ByLayer
370
13
48
1
60
0
100
AcDbSpline
70
4
71
3
72
8
73
4
40
0
40
0
40
0
40
0
40
1
40
1
40
1
40
1
41
1
10
118.406253008737
20
4.66854227024797
30
0
41
1
10
119.437502005825
20
3.10503639913424
30
0
41
1
10
120.468751002912
20
1.54884820676261
30
0
41
1
10
121.5
20
2.558E-13
30
0
0
SPLINE
5
126
100
AcDbEntity
8
1
62
256
6
ByLayer
370
13
48
1
60
0
100
AcDbSpline
70
4
71
3
72
8
73
4
40
0
40
0
40
0
40
0
40
1
40
1
40
1
40
1
41
1
10
118.406253008737
20
-5.76739250952926
30
0
41
1
10
119.437502005825
20
-3.83848925004591
30
0
41
1
10
120.468751002912
20
-1.91601589026959
30
0
41
1
10
121.5
20
1.137E-13
30
0
0
SPLINE
5
127
100
AcDbEntity
8
1
62
256
6
ByLayer
370
13
48
1
60
0
100
AcDbSpline
70
4
71
3
72
8
73
4
40
0
40
0
40
0
40
0
40
1
40
1
40
1
40
1
41
1
10
118.406253008737
20
6.17866480092812
30
0
41
1
10
119.437502005825
20
4.12512957970503
30
0
41
1
10
120.468751002912
20
2.06556478018882
30
0
41
1
10
121.5
20
0
30
0
0
SPLINE
5
128
100
AcDbEntity
8
1
62
256
6
ByLayer
370
13
48
1
60
0
100
AcDbSpline
70
4
71
3
72
8
73
4
40
0
40
0
40
0
40
0
40
1
40
1
40
1
40
1
41
1
10
118.406253008737
20
-0.313232669917113
30
0
41
1
10
119.437502005825
20
-0.200062117296881
30
0
41
1
10
120.468751002912
20
-0.0956507416260024
30
0
41
1
10
121.5
20
0
30
0
0
SPLINE
5
129
100
AcDbEntity
8
1
62
256
6
ByLayer
370
13
48
1
60
0
100
AcDbSpline
70
4
71
3
72
8
73
4
40
0
40
0
40
0
40
0
40
1
40
1
40
1
40
1
41
1
10
118.406253008737
20
-6.30848779927402
30
0
41
1
10
119.437502005825
20
-4.21153330248544
30
0
41
1
10
120.468751002912
20
-2.10869396332345
30
0
41
1
10
121.5
20
1.137E-13
30
0
0
LINE
5
7D
100
AcDbEntity
8
4
62
256
6
ByLayer
370
18
48
0.05
60
0
100
AcDbLine
10
-5
20
0
30
0
11
126.5
21
0
31
0
39
0
210
0
220
0
230
1
0
LINE
5
7F
100
AcDbEntity
8
81
62
256
6
ByLayer
370
18
48
1
60
0
100
AcDbLine
10
121.5
20
0
30
0
11
126.5
21
0
31
0
39
0
210
0
220
0
230
1
0
LINE
5
80
100
AcDbEntity
8
SK4
62
256
6
ByLayer
370
18
48
0.05
60
0
100
AcDbLine
10
-55
20
0
30
0
11
126.5
21
0
31
0
39
0
210
0
220
0
230
1
0
LINE
5
82
100
AcDbEntity
8
80
62
256
6
ByLayer
370
18
48
1
60
0
100
AcDbLine
10
0
20
0
30
0
11
-5
21
0
31
0
39
0
210
0
220
0
230
1
0
LINE
5
83
100
AcDbEntity
8
1
62
256
6
ByLayer
370
18
48
1
60
0
100
AcDbLine
10
0
20
10
30
0
11
0
21
-10
31
0
39
0
210
0
220
0
230
1
0
LINE
5
84
100
AcDbEntity
8
1
62
256
6
ByLayer
370
18
48
1
60
0
100
AcDbLine
10
118.406253
20
8.5
30
0
11
118.406253
21
8.230103
31
0
39
0
210
0
220
0
230
1
0
LINE
5
85
100
AcDbEntity
8
1
62
256
6
ByLayer
370
18
48
1
60
0
100
AcDbLine
10
118.406253
20
-8.5
30
0
11
118.406253
21
-1.215204
31
0
39
0
210
0
220
0
230
1
0
LINE
5
86
100
AcDbEntity
8
1
62
256
6
ByLayer
370
18
48
1
60
0
100
AcDbLine
10
10
20
-3.689071
30
0
11
10
21
7.928157
31
0
39
0
210
0
220
0
230
1
0
LINE
5
87
100
AcDbEntity
8
SK1
62
256
6
ByLayer
370
13
48
1
60
0
100
AcDbLine
10
-14.992177
20
-6.1943
30
0
11
-14.992177
21
6.1943
31
0
39
0
210
0
220
0
230
1
0
LINE
5
89
100
AcDbEntity
8
SK1
62
256
6
ByLayer
370
13
48
1
60
0
100
AcDbLine
10
-42.24218
20
4.745825
30
0
11
-42.24218
21
-4.745825
31
0
39
0
210
0
220
0
230
1
0
LINE
5
8A
100
AcDbEntity
8
SK1
62
256
6
ByLayer
370
13
48
1
60
0
100
AcDbLine
10
-13.845141
20
5.608199
30
0
11
-13.845141
21
-5.608199
31
0
39
0
210
0
220
0
230
1
0
LINE
5
8B
100
AcDbEntity
8
SK1
62
256
6
ByLayer
370
18
48
1
60
0
100
AcDbLine
10
0
20
10
30
0
11
0
21
-10
31
0
39
0
210
0
220
0
230
1
0
LINE
5
8C
100
AcDbEntity
8
SK1
62
256
6
ByLayer
370
13
48
1
60
0
100
AcDbLine
10
-43.356507
20
-3.65035
30
0
11
-43.356507
21
3.65035
31
0
39
0
210
0
220
0
230
1
0
LINE
5
8D
100
AcDbEntity
8
SK1
62
256
6
ByLayer
370
18
48
1
60
0
100
AcDbLine
10
-50
20
-9
30
0
11
-50
21
9
31
0
39
0
210
0
220
0
230
1
0
LINE
5
8E
100
AcDbEntity
8
SK1
62
256
6
ByLayer
370
18
48
1
60
0
100
AcDbLine
10
-49
20
-10
30
0
11
-49
21
10
31
0
39
0
210
0
220
0
230
1
0
LINE
5
8F
100
AcDbEntity
8
1
62
256
6
ByLayer
370
18
48
1
60
0
100
AcDbLine
10
39.540278
20
-8.1
30
0
11
77.969682
21
-8.1
31
0
39
0
210
0
220
0
230
1
0
LINE
5
90
100
AcDbEntity
8
1
62
256
6
ByLayer
370
18
48
1
60
0
100
AcDbLine
10
77.969682
20
8.1
30
0
11
39.540278
21
8.1
31
0
39
0
210
0
220
0
230
1
0
LINE
5
91
100
AcDbEntity
8
1
62
256
6
ByLayer
370
18
48
1
60
0
100
AcDbLine
10
121.5
20
0
30
0
11
118.406253
21
8.5
31
0
39
0
210
0
220
0
230
1
0
LINE
5
92
100
AcDbEntity
8
1
62
256
6
ByLayer
370
18
48
1
60
0
100
AcDbLine
10
118.406253
20
-8.5
30
0
11
121.5
21
0
31
0
39
0
210
0
220
0
230
1
0
LINE
5
93
100
AcDbEntity
8
1
62
256
6
ByLayer
370
18
48
1
60
0
100
AcDbLine
10
6.80097
20
8.707816
30
0
11
0
21
10
31
0
39
0
210
0
220
0
230
1
0
LINE
5
94
100
AcDbEntity
8
1
62
256
6
ByLayer
370
18
48
1
60
0
100
AcDbLine
10
0
20
-10
30
0
11
6.80097
21
-8.707816
31
0
39
0
210
0
220
0
230
1
0
LINE
5
95
100
AcDbEntity
8
1
62
256
6
ByLayer
370
18
48
1
60
0
100
AcDbLine
10
109.3
20
-8.5
30
0
11
118.406253
21
-8.5
31
0
39
0
210
0
220
0
230
1
0
LINE
5
96
100
AcDbEntity
8
1
62
256
6
ByLayer
370
18
48
1
60
0
100
AcDbLine
10
121.5
20
0
30
0
11
118.406253
21
8.5
31
0
39
0
210
0
220
0
230
1
0
LINE
5
97
100
AcDbEntity
8
1
62
256
6
ByLayer
370
18
48
1
60
0
100
AcDbLine
10
118.406253
20
-8.5
30
0
11
121.5
21
0
31
0
39
0
210
0
220
0
230
1
0
LINE
5
98
100
AcDbEntity
8
SK1
62
256
6
ByLayer
370
18
48
1
60
0
100
AcDbLine
10
-49
20
-10
30
0
11
0
21
-10
31
0
39
0
210
0
220
0
230
1
0
LINE
5
99
100
AcDbEntity
8
SK1
62
256
6
ByLayer
370
18
48
1
60
0
100
AcDbLine
10
0
20
10
30
0
11
-49
21
10
31
0
39
0
210
0
220
0
230
1
0
LINE
5
9A
100
AcDbEntity
8
SK1
62
256
6
ByLayer
370
18
48
1
60
0
100
AcDbLine
10
-50
20
-9
30
0
11
-49
21
-10
31
0
39
0
210
0
220
0
230
1
0
LINE
5
9B
100
AcDbEntity
8
SK1
62
256
6
ByLayer
370
18
48
1
60
0
100
AcDbLine
10
-49
20
10
30
0
11
-50
21
9
31
0
39
0
210
0
220
0
230
1
0
LINE
5
9C
100
AcDbEntity
8
1
62
256
6
ByLayer
370
18
48
1
60
0
100
AcDbLine
10
118.406253
20
8.5
30
0
11
118.406253
21
-8.5
31
0
39
0
210
0
220
0
230
1
0
LINE
5
9D
100
AcDbEntity
8
1
62
256
6
ByLayer
370
18
48
1
60
0
100
AcDbLine
10
118.406253
20
8.5
30
0
11
118.406253
21
-8.5
31
0
39
0
210
0
220
0
230
1
0
LINE
5
9E
100
AcDbEntity
8
1
62
256
6
ByLayer
370
18
48
1
60
0
100
AcDbLine
10
118.406253
20
8.5
30
0
11
118.406253
21
-8.5
31
0
39
0
210
0
220
0
230
1
0
LINE
5
9F
100
AcDbEntity
8
1
62
256
6
ByLayer
370
18
48
1
60
0
100
AcDbLine
10
109.3
20
8.5
30
0
11
109.3
21
-8.5
31
0
39
0
210
0
220
0
230
1
0
LINE
5
A0
100
AcDbEntity
8
1
62
256
6
ByLayer
370
18
48
1
60
0
100
AcDbLine
10
109.3
20
8.5
30
0
11
109.3
21
-8.5
31
0
39
0
210
0
220
0
230
1
0
LINE
5
A1
100
AcDbEntity
8
1
62
256
6
ByLayer
370
18
48
1
60
0
100
AcDbLine
10
118.406253
20
8.5
30
0
11
118.406253
21
-8.5
31
0
39
0
210
0
220
0
230
1
0
LINE
5
A2
100
AcDbEntity
8
1
62
256
6
ByLayer
370
18
48
1
60
0
100
AcDbLine
10
109.3
20
8.5
30
0
11
109.3
21
-8.5
31
0
39
0
210
0
220
0
230
1
0
LINE
5
A3
100
AcDbEntity
8
1
62
256
6
ByLayer
370
18
48
1
60
0
100
AcDbLine
10
118.406253
20
8.5
30
0
11
118.406253
21
-8.5
31
0
39
0
210
0
220
0
230
1
0
LINE
5
A4
100
AcDbEntity
8
SK2
62
256
6
ByLayer
370
13
48
1
60
0
100
AcDbLine
10
-56.5
20
-10
30
0
11
-56.5
21
39.024569
31
0
39
0
210
0
220
0
230
1
0
LINE
5
A6
100
AcDbEntity
8
SK2
62
256
6
ByLayer
370
13
48
1
60
0
100
AcDbLine
10
-51.5875
20
10
30
0
11
-58.5
21
10
31
0
39
0
210
0
220
0
230
1
0
LINE
5
A7
100
AcDbEntity
8
SK2
62
256
6
ByLayer
370
13
48
1
60
0
100
AcDbLine
10
-51.5875
20
-10
30
0
11
-58.5
21
-10
31
0
39
0
210
0
220
0
230
1
0
LINE
5
A8
100
AcDbEntity
8
1
62
256
6
ByLayer
370
18
48
1
60
1
100
AcDbLine
10
-56.5
20
10
30
0
11
-56.039216
21
6.500002
31
0
39
0
210
0
220
0
230
1
0
LINE
5
A9
100
AcDbEntity
8
1
62
256
6
ByLayer
370
18
48
1
60
1
100
AcDbLine
10
-56.039216
20
6.500002
30
0
11
-56.960784
21
6.499998
31
0
39
0
210
0
220
0
230
1
0
LINE
5
AA
100
AcDbEntity
8
1
62
256
6
ByLayer
370
18
48
1
60
1
100
AcDbLine
10
-56.960784
20
6.499998
30
0
11
-56.5
21
10
31
0
39
0
210
0
220
0
230
1
0
LINE
5
AB
100
AcDbEntity
8
1
62
256
6
ByLayer
370
18
48
1
60
1
100
AcDbLine
10
-56.5
20
-10
30
0
11
-56.960784
21
-6.500002
31
0
39
0
210
0
220
0
230
1
0
LINE
5
AC
100
AcDbEntity
8
1
62
256
6
ByLayer
370
18
48
1
60
1
100
AcDbLine
10
-56.960784
20
-6.500002
30
0
11
-56.039216
21
-6.499998
31
0
39
0
210
0
220
0
230
1
0
LINE
5
AD
100
AcDbEntity
8
1
62
256
6
ByLayer
370
18
48
1
60
1
100
AcDbLine
10
-56.039216
20
-6.499998
30
0
11
-56.5
21
-10
31
0
39
0
210
0
220
0
230
1
0
LINE
5
AE
100
AcDbEntity
8
2
62
256
6
ByLayer
370
13
48
1
60
0
100
AcDbLine
10
129
20
-8.5
30
0
11
129
21
36.774683
31
0
39
0
210
0
220
0
230
1
0
LINE
5
B0
100
AcDbEntity
8
2
62
256
6
ByLayer
370
13
48
1
60
0
100
AcDbLine
10
119.993753
20
8.5
30
0
11
131
21
8.5
31
0
39
0
210
0
220
0
230
1
0
LINE
5
B1
100
AcDbEntity
8
2
62
256
6
ByLayer
370
13
48
1
60
0
100
AcDbLine
10
119.993753
20
-8.5
30
0
11
131
21
-8.5
31
0
39
0
210
0
220
0
230
1
0
LINE
5
B2
100
AcDbEntity
8
1
62
256
6
ByLayer
370
18
48
1
60
1
100
AcDbLine
10
129
20
8.5
30
0
11
129.460784
21
5.000002
31
0
39
0
210
0
220
0
230
1
0
LINE
5
B3
100
AcDbEntity
8
1
62
256
6
ByLayer
370
18
48
1
60
1
100
AcDbLine
10
129.460784
20
5.000002
30
0
11
128.539216
21
4.999998
31
0
39
0
210
0
220
0
230
1
0
LINE
5
B4
100
AcDbEntity
8
1
62
256
6
ByLayer
370
18
48
1
60
1
100
AcDbLine
10
128.539216
20
4.999998
30
0
11
129
21
8.5
31
0
39
0
210
0
220
0
230
1
0
LINE
5
B5
100
AcDbEntity
8
1
62
256
6
ByLayer
370
18
48
1
60
1
100
AcDbLine
10
129
20
-8.5
30
0
11
128.539216
21
-5.000002
31
0
39
0
210
0
220
0
230
1
0
LINE
5
B6
100
AcDbEntity
8
1
62
256
6
ByLayer
370
18
48
1
60
1
100
AcDbLine
10
128.539216
20
-5.000002
30
0
11
129.460784
21
-4.999998
31
0
39
0
210
0
220
0
230
1
0
LINE
5
B7
100
AcDbEntity
8
1
62
256
6
ByLayer
370
18
48
1
60
1
100
AcDbLine
10
129.460784
20
-4.999998
30
0
11
129
21
-8.5
31
0
39
0
210
0
220
0
230
1
0
LINE
5
B8
100
AcDbEntity
8
SK2
62
256
6
ByLayer
370
13
48
1
60
0
100
AcDbLine
10
122.042957
20
-1.491762
30
0
11
128.682423
21
-19.733545
31
0
39
0
210
0
220
0
230
1
0
LINE
5
B9
100
AcDbEntity
8
SK2
62
256
6
ByLayer
370
13
48
1
60
0
100
AcDbLine
10
122.042957
20
1.491762
30
0
11
128.682423
21
19.733545
31
0
39
0
210
0
220
0
230
1
0
LINE
5
BA
100
AcDbEntity
8
1
62
256
6
ByLayer
370
18
48
1
60
1
100
AcDbLine
10
127.998383
20
-17.85416
30
0
11
131.051575
21
-16.082064
31
0
39
0
210
0
220
0
230
1
0
LINE
5
BB
100
AcDbEntity
8
1
62
256
6
ByLayer
370
18
48
1
60
1
100
AcDbLine
10
131.051575
20
-16.082064
30
0
11
131.406196
21
-16.93267
31
0
39
0
210
0
220
0
230
1
0
LINE
5
BC
100
AcDbEntity
8
1
62
256
6
ByLayer
370
18
48
1
60
1
100
AcDbLine
10
131.406196
20
-16.93267
30
0
11
127.998383
21
-17.85416
31
0
39
0
210
0
220
0
230
1
0
LINE
5
BD
100
AcDbEntity
8
1
62
256
6
ByLayer
370
18
48
1
60
1
100
AcDbLine
10
127.998383
20
17.85416
30
0
11
131.406193
21
16.932671
31
0
39
0
210
0
220
0
230
1
0
LINE
5
BE
100
AcDbEntity
8
1
62
256
6
ByLayer
370
18
48
1
60
1
100
AcDbLine
10
131.406193
20
16.932671
30
0
11
131.051579
21
16.082063
31
0
39
0
210
0
220
0
230
1
0
LINE
5
BF
100
AcDbEntity
8
1
62
256
6
ByLayer
370
18
48
1
60
1
100
AcDbLine
10
131.051579
20
16.082063
30
0
11
127.998383
21
17.85416
31
0
39
0
210
0
220
0
230
1
0
LINE
5
12E
100
AcDbEntity
8
1
62
256
6
ByLayer
370
18
48
1
60
1
100
AcDbLine
10
-56.5
20
10
30
0
11
-56.039216
21
6.500002
31
0
39
0
210
0
220
0
230
1
0
LINE
5
12F
100
AcDbEntity
8
1
62
256
6
ByLayer
370
18
48
1
60
1
100
AcDbLine
10
-56.039216
20
6.500002
30
0
11
-56.960784
21
6.499998
31
0
39
0
210
0
220
0
230
1
0
LINE
5
130
100
AcDbEntity
8
1
62
256
6
ByLayer
370
18
48
1
60
1
100
AcDbLine
10
-56.960784
20
6.499998
30
0
11
-56.5
21
10
31
0
39
0
210
0
220
0
230
1
0
LINE
5
132
100
AcDbEntity
8
1
62
256
6
ByLayer
370
18
48
1
60
1
100
AcDbLine
10
-56.5
20
-10
30
0
11
-56.960784
21
-6.500002
31
0
39
0
210
0
220
0
230
1
0
LINE
5
133
100
AcDbEntity
8
1
62
256
6
ByLayer
370
18
48
1
60
1
100
AcDbLine
10
-56.960784
20
-6.500002
30
0
11
-56.039216
21
-6.499998
31
0
39
0
210
0
220
0
230
1
0
LINE
5
134
100
AcDbEntity
8
1
62
256
6
ByLayer
370
18
48
1
60
1
100
AcDbLine
10
-56.039216
20
-6.499998
30
0
11
-56.5
21
-10
31
0
39
0
210
0
220
0
230
1
0
LINE
5
138
100
AcDbEntity
8
1
62
256
6
ByLayer
370
18
48
1
60
1
100
AcDbLine
10
129
20
8.5
30
0
11
129.460784
21
5.000002
31
0
39
0
210
0
220
0
230
1
0
LINE
5
139
100
AcDbEntity
8
1
62
256
6
ByLayer
370
18
48
1
60
1
100
AcDbLine
10
129.460784
20
5.000002
30
0
11
128.539216
21
4.999998
31
0
39
0
210
0
220
0
230
1
0
LINE
5
13A
100
AcDbEntity
8
1
62
256
6
ByLayer
370
18
48
1
60
1
100
AcDbLine
10
128.539216
20
4.999998
30
0
11
129
21
8.5
31
0
39
0
210
0
220
0
230
1
0
LINE
5
13C
100
AcDbEntity
8
1
62
256
6
ByLayer
370
18
48
1
60
1
100
AcDbLine
10
129
20
-8.5
30
0
11
128.539216
21
-5.000002
31
0
39
0
210
0
220
0
230
1
0
LINE
5
13D
100
AcDbEntity
8
1
62
256
6
ByLayer
370
18
48
1
60
1
100
AcDbLine
10
128.539216
20
-5.000002
30
0
11
129.460784
21
-4.999998
31
0
39
0
210
0
220
0
230
1
0
LINE
5
13E
100
AcDbEntity
8
1
62
256
6
ByLayer
370
18
48
1
60
1
100
AcDbLine
10
129.460784
20
-4.999998
30
0
11
129
21
-8.5
31
0
39
0
210
0
220
0
230
1
0
LINE
5
141
100
AcDbEntity
8
1
62
256
6
ByLayer
370
18
48
1
60
1
100
AcDbLine
10
127.998383
20
-17.85416
30
0
11
131.051575
21
-16.082064
31
0
39
0
210
0
220
0
230
1
0
LINE
5
142
100
AcDbEntity
8
1
62
256
6
ByLayer
370
18
48
1
60
1
100
AcDbLine
10
131.051575
20
-16.082064
30
0
11
131.406196
21
-16.93267
31
0
39
0
210
0
220
0
230
1
0
LINE
5
143
100
AcDbEntity
8
1
62
256
6
ByLayer
370
18
48
1
60
1
100
AcDbLine
10
131.406196
20
-16.93267
30
0
11
127.998383
21
-17.85416
31
0
39
0
210
0
220
0
230
1
0
LINE
5
145
100
AcDbEntity
8
1
62
256
6
ByLayer
370
18
48
1
60
1
100
AcDbLine
10
127.998383
20
17.85416
30
0
11
131.406193
21
16.932671
31
0
39
0
210
0
220
0
230
1
0
LINE
5
146
100
AcDbEntity
8
1
62
256
6
ByLayer
370
18
48
1
60
1
100
AcDbLine
10
131.406193
20
16.932671
30
0
11
131.051579
21
16.082063
31
0
39
0
210
0
220
0
230
1
0
LINE
5
147
100
AcDbEntity
8
1
62
256
6
ByLayer
370
18
48
1
60
1
100
AcDbLine
10
131.051579
20
16.082063
30
0
11
127.998383
21
17.85416
31
0
39
0
210
0
220
0
230
1
0
MTEXT
5
12A
100
AcDbEntity
8
SK2
62
256
6
ByLayer
370
18
48
1
60
0
100
AcDbMText
10
-57.841114
20
21.658438
30
0
210
0
220
0
230
1
1
%%c
40
3
41
0
44
1.084337
50
90
71
7
72
5
7
iso_b_vert
0
MTEXT
5
12D
100
AcDbEntity
8
SK2
62
256
6
ByLayer
370
18
48
1
60
0
100
AcDbMText
10
-57.841114
20
27.635
30
0
210
0
220
0
230
1
1
\W0.7513;20.000
40
3
41
0
44
1.084337
50
90
71
7
72
5
7
iso_b_vert
0
MTEXT
5
136
100
AcDbEntity
8
2
62
256
6
ByLayer
370
18
48
1
60
0
100
AcDbMText
10
127.658886
20
20.158438
30
0
210
0
220
0
230
1
1
%%c
40
3
41
0
44
1.084337
50
90
71
7
72
5
7
iso_b_vert
0
MTEXT
5
137
100
AcDbEntity
8
2
62
256
6
ByLayer
370
18
48
1
60
0
100
AcDbMText
10
127.658886
20
26.135
30
0
210
0
220
0
230
1
1
\W0.7022;17.000
40
3
41
0
44
1.084337
50
90
71
7
72
5
7
iso_b_vert
0
MTEXT
5
140
100
AcDbEntity
8
SK2
62
256
6
ByLayer
370
18
48
1
60
0
100
AcDbMText
10
141.409114
20
3.734657
30
0
210
0
220
0
230
1
1
\W0.7071;140%%d
40
3
41
0
44
1.084337
50
270
71
7
72
5
7
iso_b_vert
0
MTEXT
5
149
100
AcDbEntity
8
SK6
62
256
6
ByLayer
370
18
48
1
60
0
100
AcDbMText
10
12.212746
20
-67.114886
30
0
210
0
220
0
230
1
1
\W0.7358;H85517.0
40
3
41
0
44
1.084337
50
0
71
7
72
5
7
iso_b_vert
0
HATCH
5
131
100
AcDbEntity
8
SK2
62
256
6
ByLayer
370
13
48
1
60
0
100
AcDbHatch
10
0
20
0
30
0
210
0
220
0
230
1
2
ANSI31
70
0
71
0
91
1
92
5
93
3
72
1
10
-56.5
20
10
11
-56.0392162584472
21
6.50000169255318
72
1
10
-56.0392162584472
20
6.50000169255318
11
-56.9607837415528
21
6.49999830744682
72
1
10
-56.9607837415528
20
6.49999830744682
11
-56.5
21
10
97
0
75
0
76
1
52
0
41
0.0062
77
0
78
1
53
45
43
0
44
0
45
-0.0139193969876572
46
0.0139193969876572
79
0
47
0
98
1
10
0
20
0
0
HATCH
5
135
100
AcDbEntity
8
SK2
62
256
6
ByLayer
370
13
48
1
60
0
100
AcDbHatch
10
0
20
0
30
0
210
0
220
0
230
1
2
ANSI31
70
0
71
0
91
1
92
5
93
3
72
1
10
-56.5
20
-10
11
-56.9607837415528
21
-6.50000169255318
72
1
10
-56.9607837415528
20
-6.50000169255318
11
-56.0392162584472
21
-6.49999830744682
72
1
10
-56.0392162584472
20
-6.49999830744682
11
-56.5
21
-10
97
0
75
0
76
1
52
0
41
0.0062
77
0
78
1
53
45
43
0
44
0
45
-0.0139193969876572
46
0.0139193969876572
79
0
47
0
98
1
10
0
20
0
0
HATCH
5
13B
100
AcDbEntity
8
2
62
256
6
ByLayer
370
13
48
1
60
0
100
AcDbHatch
10
0
20
0
30
0
210
0
220
0
230
1
2
ANSI31
70
0
71
0
91
1
92
5
93
3
72
1
10
129
20
8.5
11
129.460783741553
21
5.00000169255318
72
1
10
129.460783741553
20
5.00000169255318
11
128.539216258447
21
4.99999830744682
72
1
10
128.539216258447
20
4.99999830744682
11
129
21
8.5
97
0
75
0
76
1
52
0
41
0.0062
77
0
78
1
53
45
43
0
44
0
45
-0.0139193969876572
46
0.0139193969876572
79
0
47
0
98
1
10
0
20
0
0
HATCH
5
13F
100
AcDbEntity
8
2
62
256
6
ByLayer
370
13
48
1
60
0
100
AcDbHatch
10
0
20
0
30
0
210
0
220
0
230
1
2
ANSI31
70
0
71
0
91
1
92
5
93
3
72
1
10
129
20
-8.5
11
128.539216258447
21
-5.00000169255318
72
1
10
128.539216258447
20
-5.00000169255318
11
129.460783741553
21
-4.99999830744682
72
1
10
129.460783741553
20
-4.99999830744682
11
129
21
-8.5
97
0
75
0
76
1
52
0
41
0.0062
77
0
78
1
53
45
43
0
44
0
45
-0.0139193969876572
46
0.0139193969876572
79
0
47
0
98
1
10
0
20
0
0
HATCH
5
144
100
AcDbEntity
8
SK2
62
256
6
ByLayer
370
13
48
1
60
0
100
AcDbHatch
10
0
20
0
30
0
210
0
220
0
230
1
2
ANSI31
70
0
71
0
91
1
92
5
93
3
72
1
10
127.998382723188
20
-17.8541597949323
11
131.051575425693
21
-16.0820638240608
72
1
10
131.051575425693
20
-16.0820638240608
11
131.406195833975
21
-16.9326700737196
72
1
10
131.406195833975
20
-16.9326700737196
11
127.998382723188
21
-17.8541597949323
97
0
75
0
76
1
52
0
41
0.0062
77
0
78
1
53
45
43
0
44
0
45
-0.0139193969876572
46
0.0139193969876572
79
0
47
0
98
1
10
0
20
0
0
HATCH
5
148
100
AcDbEntity
8
SK2
62
256
6
ByLayer
370
13
48
1
60
0
100
AcDbHatch
10
0
20
0
30
0
210
0
220
0
230
1
2
ANSI31
70
0
71
0
91
1
92
5
93
3
72
1
10
127.998382723188
20
17.8541597949323
11
131.406192709519
21
16.9326713763016
72
1
10
131.406192709519
20
16.9326713763016
11
131.051578550149
21
16.0820625214788
72
1
10
131.051578550149
20
16.0820625214788
11
127.998382723188
21
17.8541597949323
97
0
75
0
76
1
52
0
41
0.0062
77
0
78
1
53
45
43
0
44
0
45
-0.0139193969876572
46
0.0139193969876572
79
0
47
0
98
1
10
0
20
0
0
DIMENSION
5
14C
100
AcDbEntity
8
SK2
62
256
6
ByLayer
370
18
48
1
60
0
100
AcDbDimension
2
_U0
10
121.5
20
-45.952229
30
0
11
35.75
21
-45.952229
31
0
70
32
71
1
72
1
41
1
210
0
220
0
230
1
3
Standard
100
AcDbAlignedDimension
13
-50
23
-10
33
0
14
121.5
24
0
34
0
50
0
100
AcDbRotatedDimension
1001
ACAD
1000
DSTYLE
1002
{
1070
   371
1070
    13
1070
   372
1070
    13
1070
     3
1000

1070
   170
1070
     0
1070
   144
1040
1.0
1070
   277
1070
     2
1070
   284
1070
     8
1070
   278
1070
    46
1070
   146
1040
1.166667
1070
   345
1005
16
1070
   347
1005
16
1070
   346
1005
16
1070
   344
1005
0
1070
   343
1005
0
1070
   172
1070
     1
1070
    76
1070
     0
1070
    75
1070
     0
1070
   282
1070
     0
1070
   281
1070
     0
1070
    71
1070
     0
1070
    74
1070
     0
1070
   279
1070
     0
1070
   173
1070
     1
1070
   340
1005
12B
1070
   271
1070
     2
1070
   272
1070
     3
1070
    77
1070
     1
1070
    73
1070
     1
1070
   171
1070
     3
1070
   274
1070
     4
1070
   177
1070
     2
1070
   176
1070
     2
1070
   178
1070
     2
1070
    78
1070
     8
1070
    48
1040
-0.1
1070
    41
1040
3.5
1070
   147
1040
1.5
1070
    42
1040
1.5875
1070
    44
1040
2.0
1070
   140
1040
3.0
1002
}
1001
ACAD_DSTYLE_DIM_LINETYPE
1070
   380
1005
16
1001
ACAD_DSTYLE_DIM_EXT1_LINETYPE
1070
   381
1005
16
1001
ACAD_DSTYLE_DIM_EXT2_LINETYPE
1070
   382
1005
16
0
DIMENSION
5
165
100
AcDbEntity
8
SK2
62
256
6
ByLayer
370
18
48
1
60
0
100
AcDbDimension
2
_U1
10
3
20
-35.952229
30
0
11
62.25
21
-35.952229
31
0
70
32
71
1
72
1
41
1
210
0
220
0
230
1
3
Standard
100
AcDbAlignedDimension
13
121.5
23
0
33
0
14
3
24
-8.5
34
0
50
0
100
AcDbRotatedDimension
1001
ACAD
1000
DSTYLE
1002
{
1070
   371
1070
    13
1070
   372
1070
    13
1070
     3
1000

1070
   170
1070
     0
1070
   144
1040
1.0
1070
   277
1070
     2
1070
   284
1070
     8
1070
   278
1070
    46
1070
   146
1040
1.166667
1070
   345
1005
16
1070
   347
1005
16
1070
   346
1005
16
1070
   344
1005
0
1070
   343
1005
0
1070
   172
1070
     1
1070
    76
1070
     0
1070
    75
1070
     0
1070
   282
1070
     0
1070
   281
1070
     0
1070
    71
1070
     0
1070
    74
1070
     0
1070
   279
1070
     0
1070
   173
1070
     1
1070
   340
1005
12B
1070
   271
1070
     2
1070
   272
1070
     3
1070
    77
1070
     1
1070
    73
1070
     1
1070
   171
1070
     3
1070
   274
1070
     4
1070
   177
1070
     2
1070
   176
1070
     2
1070
   178
1070
     2
1070
    78
1070
     8
1070
    48
1040
-0.1
1070
    41
1040
3.5
1070
   147
1040
1.5
1070
    42
1040
1.5875
1070
    44
1040
2.0
1070
   140
1040
3.0
1002
}
1001
ACAD_DSTYLE_DIM_LINETYPE
1070
   380
1005
16
1001
ACAD_DSTYLE_DIM_EXT1_LINETYPE
1070
   381
1005
16
1001
ACAD_DSTYLE_DIM_EXT2_LINETYPE
1070
   382
1005
16
0
DIMENSION
5
17D
100
AcDbEntity
8
SK2
62
256
6
ByLayer
370
18
48
1
60
0
100
AcDbDimension
2
_U2
10
0
20
-35.952229
30
0
11
-25
21
-35.952229
31
0
70
32
71
1
72
1
41
1
210
0
220
0
230
1
3
Standard
100
AcDbAlignedDimension
13
-50
23
-10
33
0
14
0
24
-10
34
0
50
0
100
AcDbRotatedDimension
1001
ACAD
1000
DSTYLE
1002
{
1070
   371
1070
    13
1070
   372
1070
    13
1070
     3
1000

1070
   170
1070
     0
1070
   144
1040
1.0
1070
   277
1070
     2
1070
   284
1070
     8
1070
   278
1070
    46
1070
   146
1040
1.166667
1070
   345
1005
16
1070
   347
1005
16
1070
   346
1005
16
1070
   344
1005
0
1070
   343
1005
0
1070
   172
1070
     1
1070
    76
1070
     0
1070
    75
1070
     0
1070
   282
1070
     0
1070
   281
1070
     0
1070
    71
1070
     0
1070
    74
1070
     0
1070
   279
1070
     0
1070
   173
1070
     1
1070
   340
1005
12B
1070
   271
1070
     2
1070
   272
1070
     3
1070
    77
1070
     1
1070
    73
1070
     1
1070
   171
1070
     3
1070
   274
1070
     4
1070
   177
1070
     2
1070
   176
1070
     2
1070
   178
1070
     2
1070
    78
1070
     8
1070
    48
1040
-0.1
1070
    41
1040
3.5
1070
   147
1040
1.5
1070
    42
1040
1.5875
1070
    44
1040
2.0
1070
   140
1040
3.0
1002
}
1001
ACAD_DSTYLE_DIM_LINETYPE
1070
   380
1005
16
1001
ACAD_DSTYLE_DIM_EXT1_LINETYPE
1070
   381
1005
16
1001
ACAD_DSTYLE_DIM_EXT2_LINETYPE
1070
   382
1005
16
0
DIMENSION
5
195
100
AcDbEntity
8
SK2
62
256
6
ByLayer
370
18
48
1
60
0
100
AcDbDimension
2
_U3
10
24
20
32.952229
30
0
11
72.75
21
32.952229
31
0
70
32
71
1
72
1
41
1
210
0
220
0
230
1
3
Standard
100
AcDbAlignedDimension
13
121.5
23
0
33
0
14
24
24
8.5
34
0
50
0
100
AcDbRotatedDimension
1001
ACAD
1000
DSTYLE
1002
{
1070
   371
1070
    13
1070
   372
1070
    13
1070
     3
1000

1070
   170
1070
     0
1070
   144
1040
1.0
1070
   277
1070
     2
1070
   284
1070
     8
1070
   278
1070
    46
1070
   146
1040
1.166667
1070
   345
1005
16
1070
   347
1005
16
1070
   346
1005
16
1070
   344
1005
0
1070
   343
1005
0
1070
   172
1070
     1
1070
    76
1070
     0
1070
    75
1070
     0
1070
   282
1070
     0
1070
   281
1070
     0
1070
    71
1070
     0
1070
    74
1070
     0
1070
   279
1070
     0
1070
   173
1070
     1
1070
   340
1005
12B
1070
   271
1070
     2
1070
   272
1070
     3
1070
    77
1070
     1
1070
    73
1070
     1
1070
   171
1070
     3
1070
   274
1070
     4
1070
   177
1070
     2
1070
   176
1070
     2
1070
   178
1070
     2
1070
    78
1070
     8
1070
    48
1040
-0.1
1070
    41
1040
3.5
1070
   147
1040
1.5
1070
    42
1040
1.5875
1070
    44
1040
2.0
1070
   140
1040
3.0
1002
}
1001
ACAD_DSTYLE_DIM_LINETYPE
1070
   380
1005
16
1001
ACAD_DSTYLE_DIM_EXT1_LINETYPE
1070
   381
1005
16
1001
ACAD_DSTYLE_DIM_EXT2_LINETYPE
1070
   382
1005
16
0
ENDSEC
0
SECTION
2
OBJECTS
0
DICTIONARY
5
21d
330
0
100
AcDbDictionary
280
0
281
1
3
ACAD_GROUP
350
21e
3
ACAD_MLINESTYLE
350
21f
0
DICTIONARY
5
21e
330
0
100
AcDbDictionary
280
0
281
1
0
DICTIONARY
5
21f
330
0
100
AcDbDictionary
280
0
281
1
3
Standard
350
18
0
MLINESTYLE
5
18
330
21f
100
AcDbMlineStyle
2
Standard
70
0
3

62
256
51
90
52
90
71
2
49
-0.5
62
256
6
ByLayer
49
0.5
62
256
6
ByLayer
0
RASTERVARIABLES
5
20b
330

100
AcDbRasterVariables
90
0
70
1
71
1
72
1
0
ENDSEC
0
EOF
