0
SECTION
2
HEADER
9
$ACADVER
1
AC1015
9
$DWGCODEPAGE
3
ANSI_1252
9
$HANDSEED
5
217
9
$ANGBASE
50
0
9
$ANGDIR
70
0
9
$ATTMODE
70
1
9
$AUNITS
70
0
9
$AUPREC
70
0
9
$CECOLOR
62
256
9
$CELTSCALE
40
1
9
$CELTYPE
6
ByLayer
9
$CELWEIGHT
370
18
9
$CLAYER
8
0
9
$CMLJUST
70
0
9
$CMLSCALE
40
1
9
$CMLSTYLE
2
Standard
9
$DIMSTYLE
2
Standard
9
$TEXTSIZE
40
0.2
9
$TEXTSTYLE
7
Standard
9
$LUNITS
70
2
9
$LUPREC
70
4
9
$EXTNAMES
290
1
9
$INSUNITS
70
4
9
$LTSCALE
40
1
9
$LWDISPLAY
290
1
9
$PDMODE
70
0
9
$PDSIZE
40
0
9
$PLINEGEN
70
0
0
ENDSEC
0
SECTION
2
CLASSES
0
CLASS
1
RASTERVARIABLES
2
AcDbRasterVariables
3
ISM
90
0
280
0
281
0
0
ENDSEC
0
SECTION
2
TABLES
0
TABLE
2
VPORT
5
20d
100
AcDbSymbolTable
0
VPORT
5
1
100
AcDbSymbolTableRecord
100
AcDbViewportTableRecord
2
*Active
70
0
10
0
20
0
11
1
21
1
12
-1
22
1
13
0
23
0
14
0.5
24
0.5
15
10
25
10
16
0
26
0
36
1
17
0
27
0
37
0
0
ENDTAB
0
TABLE
2
LTYPE
5
20e
100
AcDbSymbolTable
0
LTYPE
5
14
100
AcDbSymbolTableRecord
100
AcDbLinetypeTableRecord
70
0
2
ByBlock
3

72
65
73
0
40
0
0
LTYPE
5
15
100
AcDbSymbolTableRecord
100
AcDbLinetypeTableRecord
70
0
2
ByLayer
3

72
65
73
0
40
0
0
LTYPE
5
16
100
AcDbSymbolTableRecord
100
AcDbLinetypeTableRecord
70
0
2
Continuous
3
Solid line
72
65
73
0
40
0
0
LTYPE
5
6E
100
AcDbSymbolTableRecord
100
AcDbLinetypeTableRecord
70
0
2
CENTER
3
____ _ ____ _ ____ _ ____
72
65
73
4
40
47.5
49
22
74
0
49
-8.5
74
0
49
8.5
74
0
49
-8.5
74
0
0
LTYPE
5
6F
100
AcDbSymbolTableRecord
100
AcDbLinetypeTableRecord
70
0
2
DASHED
3
__ __ __ __ __ __ __ __ __
72
65
73
2
40
25.72
49
12.86
74
0
49
-12.86
74
0
0
ENDTAB
0
TABLE
2
LAYER
5
20f
100
AcDbSymbolTable
0
LAYER
5
10
100
AcDbSymbolTableRecord
100
AcDbLayerTableRecord
2
0
70
0
62
7
6
Continuous
290
1
370
-3
390
0
0
LAYER
5
71
100
AcDbSymbolTableRecord
100
AcDbLayerTableRecord
2
80
70
0
62
-6
6
Continuous
290
1
370
-3
390
0
0
LAYER
5
73
100
AcDbSymbolTableRecord
100
AcDbLayerTableRecord
2
81
70
0
62
-3
6
Continuous
290
1
370
-3
390
0
0
LAYER
5
75
100
AcDbSymbolTableRecord
100
AcDbLayerTableRecord
2
1
70
0
62
4
6
Continuous
290
1
370
-3
390
0
0
LAYER
5
7E
100
AcDbSymbolTableRecord
100
AcDbLayerTableRecord
2
4
70
0
62
-2
6
CENTER
290
1
370
-3
390
0
0
LAYER
5
AF
100
AcDbSymbolTableRecord
100
AcDbLayerTableRecord
2
2
70
0
62
7
6
Continuous
290
1
370
-3
390
0
0
LAYER
5
13C
100
AcDbSymbolTableRecord
100
AcDbLayerTableRecord
2
Defpoints
70
0
62
7
6
Continuous
290
0
370
-3
390
0
0
LAYER
5
1f9
100
AcDbSymbolTableRecord
100
AcDbLayerTableRecord
2
SK4
70
0
62
2
6
CENTER
290
1
370
-3
390
0
0
LAYER
5
1fa
100
AcDbSymbolTableRecord
100
AcDbLayerTableRecord
2
SK1
70
0
62
4
6
Continuous
290
1
370
-3
390
0
0
LAYER
5
1fb
100
AcDbSymbolTableRecord
100
AcDbLayerTableRecord
2
SK2
70
0
62
7
6
Continuous
290
1
370
-3
390
0
0
LAYER
5
1fc
100
AcDbSymbolTableRecord
100
AcDbLayerTableRecord
2
SK6
70
0
62
5
6
Continuous
290
1
370
-3
390
0
0
ENDTAB
0
TABLE
2
STYLE
5
210
100
AcDbSymbolTable
0
STYLE
5
11
100
AcDbSymbolTableRecord
100
AcDbTextStyleTableRecord
2
Standard
3
txt
70
0
71
0
40
0
41
1
42
0
50
0
0
STYLE
5
118
100
AcDbSymbolTableRecord
100
AcDbTextStyleTableRecord
2
iso_b_vert
3
simplex.shx
70
0
71
0
40
0
41
1
42
0
50
0
0
STYLE
5
119
100
AcDbSymbolTableRecord
100
AcDbTextStyleTableRecord
2
DWGDirectTextStyle
3
simplex
70
0
71
0
40
0
41
1
42
0
50
0
0
ENDTAB
0
TABLE
2
DIMSTYLE
5
211
100
AcDbSymbolTable
100
AcDbDimStyleTable
0
DIMSTYLE
105
27
100
AcDbSymbolTableRecord
100
AcDbDimStyleTableRecord
2
Standard
70
0
3
<>
41
0.18
42
0.0625
44
0.18
140
0.18
147
0.09
73
0
74
0
77
1
271
2
275
0
278
52
280
0
340
11
0
ENDTAB
0
TABLE
2
VIEW
5
212
100
AcDbSymbolTable
0
ENDTAB
0
TABLE
2
UCS
5
213
100
AcDbSymbolTable
0
ENDTAB
0
TABLE
2
APPID
5
214
100
AcDbSymbolTable
0
APPID
5
12
100
AcDbSymbolTableRecord
100
AcDbRegAppTableRecord
2
ACAD
70
0
0
APPID
5
138
100
AcDbSymbolTableRecord
100
AcDbRegAppTableRecord
2
ACAD_DSTYLE_DIMBREAK
70
0
0
APPID
5
1B8
100
AcDbSymbolTableRecord
100
AcDbRegAppTableRecord
2
ACAD_DSTYLE_DIM_LINETYPE
70
0
0
APPID
5
1B9
100
AcDbSymbolTableRecord
100
AcDbRegAppTableRecord
2
ACAD_DSTYLE_DIM_EXT1_LINETYPE
70
0
0
APPID
5
1BA
100
AcDbSymbolTableRecord
100
AcDbRegAppTableRecord
2
ACAD_DSTYLE_DIM_EXT2_LINETYPE
70
0
0
APPID
5
1F5
100
AcDbSymbolTableRecord
100
AcDbRegAppTableRecord
2
ACAD_MLEADERVER
70
0
0
ENDTAB
0
TABLE
2
BLOCK_RECORD
5
215
100
AcDbSymbolTable
0
BLOCK_RECORD
5
1F
100
AcDbSymbolTableRecord
100
AcDbBlockTableRecord
2
*Model_Space
340
0
70
0
0
BLOCK_RECORD
5
1B
100
AcDbSymbolTableRecord
100
AcDbBlockTableRecord
2
*Paper_Space
340
0
70
0
0
BLOCK_RECORD
5
23
100
AcDbSymbolTableRecord
100
AcDbBlockTableRecord
2
*Paper_Space0
340
0
70
0
0
BLOCK_RECORD
5
13D
100
AcDbSymbolTableRecord
100
AcDbBlockTableRecord
2
*D1
340
0
70
0
0
BLOCK_RECORD
5
149
100
AcDbSymbolTableRecord
100
AcDbBlockTableRecord
2
_U0
340
0
70
0
0
BLOCK_RECORD
5
155
100
AcDbSymbolTableRecord
100
AcDbBlockTableRecord
2
*D3
340
0
70
0
0
BLOCK_RECORD
5
161
100
AcDbSymbolTableRecord
100
AcDbBlockTableRecord
2
_U1
340
0
70
0
0
BLOCK_RECORD
5
16D
100
AcDbSymbolTableRecord
100
AcDbBlockTableRecord
2
*D5
340
0
70
0
0
BLOCK_RECORD
5
179
100
AcDbSymbolTableRecord
100
AcDbBlockTableRecord
2
_U2
340
0
70
0
0
BLOCK_RECORD
5
185
100
AcDbSymbolTableRecord
100
AcDbBlockTableRecord
2
*D7
340
0
70
0
0
BLOCK_RECORD
5
191
100
AcDbSymbolTableRecord
100
AcDbBlockTableRecord
2
_U3
340
0
70
0
0
ENDTAB
0
ENDSEC
0
SECTION
2
BLOCKS
0
BLOCK
5
20
100
AcDbEntity
8
0
100
AcDbBlockBegin
2
*Model_Space
70
0
10
0
20
0
30
0
3
*Model_Space
0
ENDBLK
5
21
100
AcDbEntity
8
0
100
AcDbBlockEnd
0
BLOCK
5
1C
100
AcDbEntity
8
0
100
AcDbBlockBegin
2
*Paper_Space
70
0
10
0
20
0
30
0
3
*Paper_Space
0
ENDBLK
5
1D
100
AcDbEntity
8
0
100
AcDbBlockEnd
0
BLOCK
5
24
100
AcDbEntity
8
0
100
AcDbBlockBegin
2
*Paper_Space0
70
0
10
0
20
0
30
0
3
*Paper_Space0
0
ENDBLK
5
25
100
AcDbEntity
8
0
100
AcDbBlockEnd
0
BLOCK
5
13E
100
AcDbEntity
8
0
100
AcDbBlockBegin
2
*D1
70
1
10
0
20
0
30
0
3
*D1
0
LINE
5
140
100
AcDbEntity
8
0
62
256
6
ByLayer
370
-2
48
1
60
0
100
AcDbLine
10
-48
20
-9.525
30
0
11
-48
21
-47.952229
31
0
39
0
210
0
220
0
230
1
0
LINE
5
141
100
AcDbEntity
8
0
62
256
6
ByLayer
370
-2
48
1
60
0
100
AcDbLine
10
92
20
-1.5875
30
0
11
92
21
-47.952229
31
0
39
0
210
0
220
0
230
1
0
LINE
5
142
100
AcDbEntity
8
0
62
256
6
ByLayer
370
-2
48
1
60
0
100
AcDbLine
10
-44.5
20
-45.952229
30
0
11
88.5
21
-45.952229
31
0
39
0
210
0
220
0
230
1
0
SOLID
5
143
100
AcDbEntity
8
0
62
256
6
ByLayer
370
-1
48
1
60
0
100
AcDbTrace
10
-44.5
20
-45.368896
30
0
11
-44.5
21
-46.535563
31
0
12
-48
22
-45.952229
32
0
13
-48
23
-45.952229
33
0
39
0
210
0
220
0
230
1
0
SOLID
5
144
100
AcDbEntity
8
0
62
256
6
ByLayer
370
-1
48
1
60
0
100
AcDbTrace
10
88.5
20
-46.535563
30
0
11
88.5
21
-45.368896
31
0
12
92
22
-45.952229
32
0
13
92
23
-45.952229
33
0
39
0
210
0
220
0
230
1
0
MTEXT
5
145
100
AcDbEntity
8
0
62
256
6
ByLayer
370
18
48
1
60
0
100
AcDbMText
10
22
20
-39.952229
30
0
210
0
220
0
230
1
1
\A1;140
40
3
41
0
44
1
50
0
71
5
72
5
7
iso_b_vert
0
POINT
5
146
100
AcDbEntity
8
Defpoints
62
0
6
ByLayer
370
-1
48
1
60
0
100
AcDbPoint
10
-48
20
-7.9375
30
0
39
0
210
0
220
0
230
1
50
360
0
POINT
5
147
100
AcDbEntity
8
Defpoints
62
0
6
ByLayer
370
-1
48
1
60
0
100
AcDbPoint
10
92
20
0
30
0
39
0
210
0
220
0
230
1
50
360
0
POINT
5
148
100
AcDbEntity
8
Defpoints
62
0
6
ByLayer
370
-1
48
1
60
0
100
AcDbPoint
10
92
20
-45.952229
30
0
39
0
210
0
220
0
230
1
50
360
0
ENDBLK
5
13F
100
AcDbEntity
8
0
100
AcDbBlockEnd
0
BLOCK
5
150
100
AcDbEntity
8
0
100
AcDbBlockBegin
2
_U0
70
0
10
0
20
0
30
0
3
_U0
0
MTEXT
5
14A
100
AcDbEntity
8
SK2
62
256
6
ByLayer
370
18
48
1
60
0
100
AcDbMText
10
16.613715
20
-45.067115
30
0
210
0
220
0
230
1
1
\W0.7237;140.00
40
3
41
0
44
1.084337
50
0
71
7
72
5
7
iso_b_vert
0
LINE
5
14B
100
AcDbEntity
8
SK2
62
256
6
ByLayer
370
13
48
1
60
0
100
AcDbLine
10
-48
20
-9.525
30
0
11
-48
21
-47.952229
31
0
39
0
210
0
220
0
230
1
0
LINE
5
14C
100
AcDbEntity
8
SK2
62
256
6
ByLayer
370
13
48
1
60
0
100
AcDbLine
10
92
20
-1.5875
30
0
11
92
21
-47.952229
31
0
39
0
210
0
220
0
230
1
0
LINE
5
14D
100
AcDbEntity
8
SK2
62
256
6
ByLayer
370
13
48
1
60
0
100
AcDbLine
10
-48
20
-45.952229
30
0
11
92
21
-45.952229
31
0
39
0
210
0
220
0
230
1
0
SOLID
5
14E
100
AcDbEntity
8
SK2
62
256
6
ByLayer
370
18
48
1
60
0
100
AcDbTrace
10
-48
20
-45.952229
30
0
11
-44.500002
21
-45.491446
31
0
12
-44.499998
22
-46.413013
32
0
13
-44.499998
23
-46.413013
33
0
39
0
210
0
220
0
230
1
0
SOLID
5
14F
100
AcDbEntity
8
SK2
62
256
6
ByLayer
370
18
48
1
60
0
100
AcDbTrace
10
92
20
-45.952229
30
0
11
88.500002
21
-46.413013
31
0
12
88.499998
22
-45.491446
32
0
13
88.499998
23
-45.491446
33
0
39
0
210
0
220
0
230
1
0
ENDBLK
5
151
100
AcDbEntity
8
0
100
AcDbBlockEnd
0
BLOCK
5
156
100
AcDbEntity
8
0
100
AcDbBlockBegin
2
*D3
70
1
10
0
20
0
30
0
3
*D3
0
LINE
5
158
100
AcDbEntity
8
0
62
256
6
ByLayer
370
-2
48
1
60
0
100
AcDbLine
10
92
20
-1.5875
30
0
11
92
21
-37.952229
31
0
39
0
210
0
220
0
230
1
0
LINE
5
159
100
AcDbEntity
8
0
62
256
6
ByLayer
370
-2
48
1
60
0
100
AcDbLine
10
3
20
-8.3345
30
0
11
3
21
-37.952229
31
0
39
0
210
0
220
0
230
1
0
LINE
5
15A
100
AcDbEntity
8
0
62
256
6
ByLayer
370
-2
48
1
60
0
100
AcDbLine
10
88.5
20
-35.952229
30
0
11
6.5
21
-35.952229
31
0
39
0
210
0
220
0
230
1
0
SOLID
5
15B
100
AcDbEntity
8
0
62
256
6
ByLayer
370
-1
48
1
60
0
100
AcDbTrace
10
88.5
20
-36.535563
30
0
11
88.5
21
-35.368896
31
0
12
92
22
-35.952229
32
0
13
92
23
-35.952229
33
0
39
0
210
0
220
0
230
1
0
SOLID
5
15C
100
AcDbEntity
8
0
62
256
6
ByLayer
370
-1
48
1
60
0
100
AcDbTrace
10
6.5
20
-35.368896
30
0
11
6.5
21
-36.535563
31
0
12
3
22
-35.952229
32
0
13
3
23
-35.952229
33
0
39
0
210
0
220
0
230
1
0
MTEXT
5
15D
100
AcDbEntity
8
0
62
256
6
ByLayer
370
18
48
1
60
0
100
AcDbMText
10
47.5
20
-29.952229
30
0
210
0
220
0
230
1
1
\A1;89
40
3
41
0
44
1
50
0
71
5
72
5
7
iso_b_vert
0
POINT
5
15E
100
AcDbEntity
8
Defpoints
62
0
6
ByLayer
370
-1
48
1
60
0
100
AcDbPoint
10
92
20
0
30
0
39
0
210
0
220
0
230
1
50
360
0
POINT
5
15F
100
AcDbEntity
8
Defpoints
62
0
6
ByLayer
370
-1
48
1
60
0
100
AcDbPoint
10
3
20
-6.747
30
0
39
0
210
0
220
0
230
1
50
360
0
POINT
5
160
100
AcDbEntity
8
Defpoints
62
0
6
ByLayer
370
-1
48
1
60
0
100
AcDbPoint
10
3
20
-35.952229
30
0
39
0
210
0
220
0
230
1
50
360
0
ENDBLK
5
157
100
AcDbEntity
8
0
100
AcDbBlockEnd
0
BLOCK
5
168
100
AcDbEntity
8
0
100
AcDbBlockBegin
2
_U1
70
0
10
0
20
0
30
0
3
_U1
0
MTEXT
5
162
100
AcDbEntity
8
SK2
62
256
6
ByLayer
370
18
48
1
60
0
100
AcDbMText
10
43.01763
20
-35.067115
30
0
210
0
220
0
230
1
1
\W0.7468;89.00
40
3
41
0
44
1.084337
50
0
71
7
72
5
7
iso_b_vert
0
LINE
5
163
100
AcDbEntity
8
SK2
62
256
6
ByLayer
370
13
48
1
60
0
100
AcDbLine
10
92
20
-1.5875
30
0
11
92
21
-37.952229
31
0
39
0
210
0
220
0
230
1
0
LINE
5
164
100
AcDbEntity
8
SK2
62
256
6
ByLayer
370
13
48
1
60
0
100
AcDbLine
10
3
20
-8.3345
30
0
11
3
21
-37.952229
31
0
39
0
210
0
220
0
230
1
0
LINE
5
165
100
AcDbEntity
8
SK2
62
256
6
ByLayer
370
13
48
1
60
0
100
AcDbLine
10
92
20
-35.952229
30
0
11
3
21
-35.952229
31
0
39
0
210
0
220
0
230
1
0
SOLID
5
166
100
AcDbEntity
8
SK2
62
256
6
ByLayer
370
18
48
1
60
0
100
AcDbTrace
10
92
20
-35.952229
30
0
11
88.500002
21
-36.413013
31
0
12
88.499998
22
-35.491446
32
0
13
88.499998
23
-35.491446
33
0
39
0
210
0
220
0
230
1
0
SOLID
5
167
100
AcDbEntity
8
SK2
62
256
6
ByLayer
370
18
48
1
60
0
100
AcDbTrace
10
3
20
-35.952229
30
0
11
6.499998
21
-35.491446
31
0
12
6.500002
22
-36.413013
32
0
13
6.500002
23
-36.413013
33
0
39
0
210
0
220
0
230
1
0
ENDBLK
5
169
100
AcDbEntity
8
0
100
AcDbBlockEnd
0
BLOCK
5
16E
100
AcDbEntity
8
0
100
AcDbBlockBegin
2
*D5
70
1
10
0
20
0
30
0
3
*D5
0
LINE
5
170
100
AcDbEntity
8
0
62
256
6
ByLayer
370
-2
48
1
60
0
100
AcDbLine
10
-48
20
-9.525
30
0
11
-48
21
-37.952229
31
0
39
0
210
0
220
0
230
1
0
LINE
5
171
100
AcDbEntity
8
0
62
256
6
ByLayer
370
-2
48
1
60
0
100
AcDbLine
10
0
20
-9.525
30
0
11
0
21
-37.952229
31
0
39
0
210
0
220
0
230
1
0
LINE
5
172
100
AcDbEntity
8
0
62
256
6
ByLayer
370
-2
48
1
60
0
100
AcDbLine
10
-44.5
20
-35.952229
30
0
11
-3.5
21
-35.952229
31
0
39
0
210
0
220
0
230
1
0
SOLID
5
173
100
AcDbEntity
8
0
62
256
6
ByLayer
370
-1
48
1
60
0
100
AcDbTrace
10
-44.5
20
-35.368896
30
0
11
-44.5
21
-36.535563
31
0
12
-48
22
-35.952229
32
0
13
-48
23
-35.952229
33
0
39
0
210
0
220
0
230
1
0
SOLID
5
174
100
AcDbEntity
8
0
62
256
6
ByLayer
370
-1
48
1
60
0
100
AcDbTrace
10
-3.5
20
-36.535563
30
0
11
-3.5
21
-35.368896
31
0
12
0
22
-35.952229
32
0
13
0
23
-35.952229
33
0
39
0
210
0
220
0
230
1
0
MTEXT
5
175
100
AcDbEntity
8
0
62
256
6
ByLayer
370
18
48
1
60
0
100
AcDbMText
10
-24
20
-29.952229
30
0
210
0
220
0
230
1
1
\A1;48
40
3
41
0
44
1
50
0
71
5
72
5
7
iso_b_vert
0
POINT
5
176
100
AcDbEntity
8
Defpoints
62
0
6
ByLayer
370
-1
48
1
60
0
100
AcDbPoint
10
-48
20
-7.9375
30
0
39
0
210
0
220
0
230
1
50
360
0
POINT
5
177
100
AcDbEntity
8
Defpoints
62
0
6
ByLayer
370
-1
48
1
60
0
100
AcDbPoint
10
0
20
-7.9375
30
0
39
0
210
0
220
0
230
1
50
360
0
POINT
5
178
100
AcDbEntity
8
Defpoints
62
0
6
ByLayer
370
-1
48
1
60
0
100
AcDbPoint
10
0
20
-35.952229
30
0
39
0
210
0
220
0
230
1
50
360
0
ENDBLK
5
16F
100
AcDbEntity
8
0
100
AcDbBlockEnd
0
BLOCK
5
180
100
AcDbEntity
8
0
100
AcDbBlockBegin
2
_U2
70
0
10
0
20
0
30
0
3
_U2
0
MTEXT
5
17A
100
AcDbEntity
8
SK2
62
256
6
ByLayer
370
18
48
1
60
0
100
AcDbMText
10
-28.640313
20
-35.067115
30
0
210
0
220
0
230
1
1
\W0.7694;48.00
40
3
41
0
44
1.084337
50
0
71
7
72
5
7
iso_b_vert
0
LINE
5
17B
100
AcDbEntity
8
SK2
62
256
6
ByLayer
370
13
48
1
60
0
100
AcDbLine
10
-48
20
-9.525
30
0
11
-48
21
-37.952229
31
0
39
0
210
0
220
0
230
1
0
LINE
5
17C
100
AcDbEntity
8
SK2
62
256
6
ByLayer
370
13
48
1
60
0
100
AcDbLine
10
0
20
-9.525
30
0
11
0
21
-37.952229
31
0
39
0
210
0
220
0
230
1
0
LINE
5
17D
100
AcDbEntity
8
SK2
62
256
6
ByLayer
370
13
48
1
60
0
100
AcDbLine
10
-48
20
-35.952229
30
0
11
0
21
-35.952229
31
0
39
0
210
0
220
0
230
1
0
SOLID
5
17E
100
AcDbEntity
8
SK2
62
256
6
ByLayer
370
18
48
1
60
0
100
AcDbTrace
10
-48
20
-35.952229
30
0
11
-44.500002
21
-35.491446
31
0
12
-44.499998
22
-36.413013
32
0
13
-44.499998
23
-36.413013
33
0
39
0
210
0
220
0
230
1
0
SOLID
5
17F
100
AcDbEntity
8
SK2
62
256
6
ByLayer
370
18
48
1
60
0
100
AcDbTrace
10
0
20
-35.952229
30
0
11
-3.499998
21
-36.413013
31
0
12
-3.500002
22
-35.491446
32
0
13
-3.500002
23
-35.491446
33
0
39
0
210
0
220
0
230
1
0
ENDBLK
5
181
100
AcDbEntity
8
0
100
AcDbBlockEnd
0
BLOCK
5
186
100
AcDbEntity
8
0
100
AcDbBlockBegin
2
*D7
70
1
10
0
20
0
30
0
3
*D7
0
LINE
5
188
100
AcDbEntity
8
0
62
256
6
ByLayer
370
-2
48
1
60
0
100
AcDbLine
10
92
20
1.5875
30
0
11
92
21
34.952229
31
0
39
0
210
0
220
0
230
1
0
LINE
5
189
100
AcDbEntity
8
0
62
256
6
ByLayer
370
-2
48
1
60
0
100
AcDbLine
10
18
20
8.3345
30
0
11
18
21
34.952229
31
0
39
0
210
0
220
0
230
1
0
LINE
5
18A
100
AcDbEntity
8
0
62
256
6
ByLayer
370
-2
48
1
60
0
100
AcDbLine
10
88.5
20
32.952229
30
0
11
21.5
21
32.952229
31
0
39
0
210
0
220
0
230
1
0
SOLID
5
18B
100
AcDbEntity
8
0
62
256
6
ByLayer
370
-1
48
1
60
0
100
AcDbTrace
10
88.5
20
32.368896
30
0
11
88.5
21
33.535563
31
0
12
92
22
32.952229
32
0
13
92
23
32.952229
33
0
39
0
210
0
220
0
230
1
0
SOLID
5
18C
100
AcDbEntity
8
0
62
256
6
ByLayer
370
-1
48
1
60
0
100
AcDbTrace
10
21.5
20
33.535563
30
0
11
21.5
21
32.368896
31
0
12
18
22
32.952229
32
0
13
18
23
32.952229
33
0
39
0
210
0
220
0
230
1
0
MTEXT
5
18D
100
AcDbEntity
8
0
62
256
6
ByLayer
370
18
48
1
60
0
100
AcDbMText
10
55
20
38.952229
30
0
210
0
220
0
230
1
1
\A1;74
40
3
41
0
44
1
50
0
71
5
72
5
7
iso_b_vert
0
POINT
5
18E
100
AcDbEntity
8
Defpoints
62
0
6
ByLayer
370
-1
48
1
60
0
100
AcDbPoint
10
92
20
0
30
0
39
0
210
0
220
0
230
1
50
360
0
POINT
5
18F
100
AcDbEntity
8
Defpoints
62
0
6
ByLayer
370
-1
48
1
60
0
100
AcDbPoint
10
18
20
6.747
30
0
39
0
210
0
220
0
230
1
50
360
0
POINT
5
190
100
AcDbEntity
8
Defpoints
62
0
6
ByLayer
370
-1
48
1
60
0
100
AcDbPoint
10
18
20
32.952229
30
0
39
0
210
0
220
0
230
1
50
360
0
ENDBLK
5
187
100
AcDbEntity
8
0
100
AcDbBlockEnd
0
BLOCK
5
198
100
AcDbEntity
8
0
100
AcDbBlockBegin
2
_U3
70
0
10
0
20
0
30
0
3
_U3
0
MTEXT
5
192
100
AcDbEntity
8
SK2
62
256
6
ByLayer
370
18
48
1
60
0
100
AcDbMText
10
50.359687
20
33.837344
30
0
210
0
220
0
230
1
1
\W0.7694;74.00
40
3
41
0
44
1.084337
50
0
71
7
72
5
7
iso_b_vert
0
LINE
5
193
100
AcDbEntity
8
SK2
62
256
6
ByLayer
370
13
48
1
60
0
100
AcDbLine
10
92
20
1.5875
30
0
11
92
21
34.952229
31
0
39
0
210
0
220
0
230
1
0
LINE
5
194
100
AcDbEntity
8
SK2
62
256
6
ByLayer
370
13
48
1
60
0
100
AcDbLine
10
18
20
8.3345
30
0
11
18
21
34.952229
31
0
39
0
210
0
220
0
230
1
0
LINE
5
195
100
AcDbEntity
8
SK2
62
256
6
ByLayer
370
13
48
1
60
0
100
AcDbLine
10
92
20
32.952229
30
0
11
18
21
32.952229
31
0
39
0
210
0
220
0
230
1
0
SOLID
5
196
100
AcDbEntity
8
SK2
62
256
6
ByLayer
370
18
48
1
60
0
100
AcDbTrace
10
92
20
32.952229
30
0
11
88.500002
21
32.491446
31
0
12
88.499998
22
33.413013
32
0
13
88.499998
23
33.413013
33
0
39
0
210
0
220
0
230
1
0
SOLID
5
197
100
AcDbEntity
8
SK2
62
256
6
ByLayer
370
18
48
1
60
0
100
AcDbTrace
10
18
20
32.952229
30
0
11
21.499998
21
33.413013
31
0
12
21.500002
22
32.491446
32
0
13
21.500002
23
32.491446
33
0
39
0
210
0
220
0
230
1
0
ENDBLK
5
199
100
AcDbEntity
8
0
100
AcDbBlockEnd
0
ENDSEC
0
SECTION
2
ENTITIES
0
ARC
5
C0
100
AcDbEntity
8
SK2
62
256
6
ByLayer
370
13
48
1
60
0
100
AcDbCircle
39
0
10
92
20
0
30
0
40
19.0000000000001
210
0
220
0
230
1
100
AcDbArc
50
290
51
70
0
ELLIPSE
5
C1
100
AcDbEntity
8
SK1
62
256
6
ByLayer
370
18
48
1
60
0
100
AcDbEllipse
10
-15.511927
20
0
30
0
11
8.51192663582145
21
-9.64486143630667E-15
31
0
210
0
220
0
230
1
40
0.932515
41
-0.661655103696894
42
0.661655103696897
0
ELLIPSE
5
C2
100
AcDbEntity
8
SK1
62
256
6
ByLayer
370
18
48
1
60
0
100
AcDbEllipse
10
-33.598162
20
0
30
0
11
-1.45804694001977E-15
21
-7.93749999999999
31
0
210
0
220
0
230
1
40
0.932515
41
-2.23245143049182
42
-0.909141223097976
0
POINT
5
70
100
AcDbEntity
8
80
62
256
6
ByLayer
370
18
48
1
60
0
100
AcDbPoint
10
0
20
0
30
0
39
0
210
0
220
0
230
1
50
360
0
POINT
5
72
100
AcDbEntity
8
81
62
256
6
ByLayer
370
18
48
1
60
0
100
AcDbPoint
10
92
20
0
30
0
39
0
210
0
220
0
230
1
50
360
0
POINT
5
74
100
AcDbEntity
8
1
62
256
6
ByLayer
370
18
48
1
60
1
100
AcDbPoint
10
-48
20
-7.9375
30
0
39
0
210
0
220
0
230
1
50
360
0
POINT
5
76
100
AcDbEntity
8
1
62
256
6
ByLayer
370
18
48
1
60
1
100
AcDbPoint
10
92
20
0
30
0
39
0
210
0
220
0
230
1
50
360
0
POINT
5
77
100
AcDbEntity
8
1
62
256
6
ByLayer
370
18
48
1
60
1
100
AcDbPoint
10
92
20
0
30
0
39
0
210
0
220
0
230
1
50
360
0
POINT
5
78
100
AcDbEntity
8
1
62
256
6
ByLayer
370
18
48
1
60
1
100
AcDbPoint
10
3
20
-6.747
30
0
39
0
210
0
220
0
230
1
50
360
0
POINT
5
79
100
AcDbEntity
8
1
62
256
6
ByLayer
370
18
48
1
60
1
100
AcDbPoint
10
-48
20
-7.9375
30
0
39
0
210
0
220
0
230
1
50
360
0
POINT
5
7A
100
AcDbEntity
8
1
62
256
6
ByLayer
370
18
48
1
60
1
100
AcDbPoint
10
0
20
-7.9375
30
0
39
0
210
0
220
0
230
1
50
360
0
POINT
5
7B
100
AcDbEntity
8
1
62
256
6
ByLayer
370
18
48
1
60
1
100
AcDbPoint
10
92
20
0
30
0
39
0
210
0
220
0
230
1
50
360
0
POINT
5
7C
100
AcDbEntity
8
1
62
256
6
ByLayer
370
18
48
1
60
1
100
AcDbPoint
10
18
20
6.747
30
0
39
0
210
0
220
0
230
1
50
360
0
SPLINE
5
C3
100
AcDbEntity
8
1
62
256
6
ByLayer
370
18
48
1
60
0
100
AcDbSpline
70
4
71
3
72
14
73
10
40
0
40
0
40
0
40
0
40
0.25
40
0.25
40
0.5
40
0.5
40
0.75
40
0.75
40
1
40
1
40
1
40
1
41
1
10
12.3801820152425
20
5.0918602743788
30
0
41
1
10
12.1796528732866
20
5.13972632155998
30
0
41
1
10
11.9798935717751
20
5.18781034675106
30
0
41
1
10
11.58151990273
20
5.28352647446943
30
0
41
1
10
11.3829045058123
20
5.33115796280947
30
0
41
1
10
10.9865196116099
20
5.42531278534466
30
0
41
1
10
10.7887494308799
20
5.47183654865933
30
0
41
1
10
10.393880432678
20
5.56335755295342
30
0
41
1
10
10.1967813811079
20
5.6083561963404
30
0
41
1
10
10
20
5.65248732947677
30
0
0
SPLINE
5
C4
100
AcDbEntity
8
1
62
256
6
ByLayer
370
18
48
1
60
0
100
AcDbSpline
70
4
71
3
72
14
73
10
40
0
40
0
40
0
40
0
40
0.1915109556264
40
0.1915109556264
40
0.326259129688664
40
0.326259129688664
40
0.461007303750928
40
0.461007303750928
40
1
40
1
40
1
40
1
41
1
10
12.9039266627583
20
4.96058549103384
30
0
41
1
10
13.0613842481167
20
4.98579510491811
30
0
41
1
10
13.2184311536909
20
5.01244730380714
30
0
41
1
10
13.4853458127535
20
5.05986660703985
30
0
41
1
10
13.5954008952296
20
5.0800357753275
30
0
41
1
10
13.815174841208
20
5.12135461257225
30
0
41
1
10
13.9249442168906
20
5.1425143204068
30
0
41
1
10
14.4721282805025
20
5.25010880948099
30
0
41
1
10
14.9049433907865
20
5.34188990905136
30
0
41
1
10
15.3348945832855
20
5.4338693366193
30
0
0
SPLINE
5
C5
100
AcDbEntity
8
1
62
256
6
ByLayer
370
18
48
1
60
0
100
AcDbSpline
70
4
71
3
72
14
73
10
40
0
40
0
40
0
40
0
40
0.25
40
0.25
40
0.5
40
0.5
40
0.75
40
0.75
40
1
40
1
40
1
40
1
41
1
10
12.3801820152425
20
-5.09186027437883
30
0
41
1
10
12.1796528732866
20
-5.13972632155998
30
0
41
1
10
11.9798935717751
20
-5.18781034675109
30
0
41
1
10
11.58151990273
20
-5.28352647446943
30
0
41
1
10
11.3829045058123
20
-5.33115796280947
30
0
41
1
10
10.9865196116099
20
-5.42531278534469
30
0
41
1
10
10.7887494308799
20
-5.4718365486593
30
0
41
1
10
10.393880432678
20
-5.56335755295339
30
0
41
1
10
10.1967813811079
20
-5.60835619634048
30
0
41
1
10
9.99999999999997
20
-5.65248732947683
30
0
0
SPLINE
5
C6
100
AcDbEntity
8
1
62
256
6
ByLayer
370
18
48
1
60
0
100
AcDbSpline
70
4
71
3
72
20
73
16
40
0
40
0
40
0
40
0
40
0.125000000000001
40
0.125000000000001
40
0.250000000000002
40
0.250000000000002
40
0.5
40
0.5
40
0.625000000000001
40
0.625000000000001
40
0.687499999999999
40
0.687499999999999
40
0.749999999999998
40
0.749999999999998
40
1
40
1
40
1
40
1
41
1
10
10
20
-4.71249672262317
30
0
41
1
10
10.2303296879068
20
-4.71209177352395
30
0
41
1
10
10.4594384253711
20
-4.71699964268691
30
0
41
1
10
10.9154090756447
20
-4.73649709916734
30
0
41
1
10
11.1422702324683
20
-4.75108824812867
30
0
41
1
10
11.8197491688304
20
-4.80782213420747
30
0
41
1
10
12.2672520362377
20
-4.86300126360493
30
0
41
1
10
12.9334203025882
20
-4.96428503977597
30
0
41
1
10
13.1546308104779
20
-5.00111271532185
30
0
41
1
10
13.4853458127535
20
-5.05986660703988
30
0
41
1
10
13.5954008952296
20
-5.08003577532747
30
0
41
1
10
13.815174841208
20
-5.12135461257222
30
0
41
1
10
13.9249442168906
20
-5.14251432040678
30
0
41
1
10
14.4721282805025
20
-5.25010880948099
30
0
41
1
10
14.9049433907865
20
-5.34188990905136
30
0
41
1
10
15.3348945832855
20
-5.43386933661927
30
0
0
SPLINE
5
C7
100
AcDbEntity
8
1
62
256
6
ByLayer
370
18
48
1
60
0
100
AcDbSpline
70
4
71
3
72
20
73
16
40
0
40
0
40
0
40
0
40
0.249999999999993
40
0.249999999999993
40
0.312499999999989
40
0.312499999999989
40
0.374999999999985
40
0.374999999999985
40
0.499999999999986
40
0.499999999999986
40
0.749999999999998
40
0.749999999999998
40
0.874999999999999
40
0.874999999999999
40
1
40
1
40
1
40
1
41
1
10
89.5442928294106
20
-0.963852016702447
30
0
41
1
10
88.8892404896883
20
-0.728621717592745
30
0
41
1
10
88.2349651555359
20
-0.492091415481411
30
0
41
1
10
87.4183886980719
20
-0.193989412574325
30
0
41
1
10
87.2551404236497
20
-0.134237318033314
30
0
41
1
10
86.928630189649
20
-0.0148804643840208
30
0
41
1
10
86.7653572259557
20
0.0446938633837988
30
0
41
1
10
86.2754899960153
20
0.223120610229472
30
0
41
1
10
85.9488529626731
20
0.341692422290493
30
0
41
1
10
84.9688395762993
20
0.696482444090321
30
0
41
1
10
84.3153473610068
20
0.931740824404784
30
0
41
1
10
83.3352435973823
20
1.28369635639584
30
0
41
1
10
83.0086341833406
20
1.40104752850451
30
0
41
1
10
82.3547406181204
20
1.63346418517275
30
0
41
1
10
82.0275008382891
20
1.74865245118829
30
0
41
1
10
81.7000000000004
20
1.8629098424872
30
0
0
SPLINE
5
C8
100
AcDbEntity
8
1
62
256
6
ByLayer
370
18
48
1
60
0
100
AcDbSpline
70
4
71
3
72
81
73
77
40
0
40
0
40
0
40
0
40
0.0625000000000051
40
0.0625000000000051
40
0.12500000000001
40
0.12500000000001
40
0.14062500000001
40
0.14062500000001
40
0.15625000000001
40
0.15625000000001
40
0.187500000000013
40
0.187500000000013
40
0.250000000000015
40
0.250000000000015
40
0.281250000000015
40
0.281250000000015
40
0.296875000000014
40
0.296875000000014
40
0.312500000000013
40
0.312500000000013
40
0.343750000000013
40
0.343750000000013
40
0.375000000000014
40
0.375000000000014
40
0.406250000000014
40
0.406250000000014
40
0.437500000000014
40
0.437500000000014
40
0.445312500000014
40
0.445312500000014
40
0.453125000000015
40
0.468750000000016
40
0.468750000000016
40
0.500000000000019
40
0.500000000000019
40
0.531250000000021
40
0.531250000000021
40
0.539062500000021
40
0.539062500000021
40
0.546875000000022
40
0.562500000000022
40
0.562500000000022
40
0.593750000000021
40
0.593750000000021
40
0.625000000000021
40
0.625000000000021
40
0.632812500000021
40
0.632812500000021
40
0.640625000000021
40
0.656250000000022
40
0.656250000000022
40
0.687500000000026
40
0.687500000000026
40
0.718750000000029
40
0.718750000000029
40
0.72656250000003
40
0.72656250000003
40
0.73437500000003
40
0.73437500000003
40
0.75000000000003
40
0.75000000000003
40
0.781250000000031
40
0.781250000000031
40
0.812500000000032
40
0.843750000000033
40
0.843750000000033
40
0.851562500000033
40
0.851562500000033
40
0.859375000000033
40
0.87500000000003
40
0.87500000000003
40
0.906250000000023
40
0.937500000000015
40
0.968750000000008
40
0.968750000000008
40
1
40
1
40
1
40
1
41
1
10
89.5442928294059
20
6.53276434762961
30
0
41
1
10
89.6285760265473
20
6.32376094711378
30
0
41
1
10
89.7131308483453
20
6.10851345826239
30
0
41
1
10
89.8832743075209
20
5.66722232248975
30
0
41
1
10
89.9688649288045
20
5.4411612030388
30
0
41
1
10
90.0765873172531
20
5.15235171776544
30
0
41
1
10
90.0981675167006
20
5.09427660530551
30
0
41
1
10
90.141397166283
20
4.977507061967
30
0
41
1
10
90.1630551538822
20
4.9187886974226
30
0
41
1
10
90.2277453320224
20
4.7427526086974
30
0
41
1
10
90.2706228994376
20
4.62521238050348
30
0
41
1
10
90.3984554268798
20
4.27204003007071
30
0
41
1
10
90.4826525548691
20
4.03587234481355
30
0
41
1
10
90.6065831914302
20
3.68028094936133
30
0
41
1
10
90.6474902007349
20
3.56152363763115
30
0
41
1
10
90.7080183214815
20
3.38296771797582
30
0
41
1
10
90.7280545357747
20
3.32337867630619
30
0
41
1
10
90.7677929900476
20
3.20404040648373
30
0
41
1
10
90.7874989231424
20
3.14427814828244
30
0
41
1
10
90.8457331317759
20
2.96558420979656
30
0
41
1
10
90.8834840650798
20
2.84696003186778
30
0
41
1
10
90.956151543818
20
2.61052817702156
30
0
41
1
10
90.9910728810549
20
2.4927212809537
30
0
41
1
10
91.0570193691836
20
2.25767957847009
30
0
41
1
10
91.0880501256856
20
2.1404452926609
30
0
41
1
10
91.1446153744338
20
1.90623086866557
30
0
41
1
10
91.170152440612
20
1.78924980578671
30
0
41
1
10
91.1972127520925
20
1.64293779161559
30
0
41
1
10
91.2023854922735
20
1.61363794744639
30
0
41
1
10
91.2121715860721
20
1.55519133184191
30
0
41
1
10
91.2260015099115
20
1.46782550460645
30
0
41
1
10
91.2371346342328
20
1.38138342662751
30
0
41
1
10
91.2554412824869
20
1.20977802774075
30
0
41
1
10
91.2623273893973
20
1.09707340794031
30
0
41
1
10
91.2641639293309
20
0.875459478385523
30
0
41
1
10
91.2591033624803
20
0.766551963921557
30
0
41
1
10
91.2453562735412
20
0.633145156069645
30
0
41
1
10
91.2422333948367
20
0.606557190222333
30
0
41
1
10
91.2352981565522
20
0.553891294554148
30
0
41
1
10
91.2238752000778
20
0.475728587578715
30
0
41
1
10
91.2095679698142
20
0.400043972640418
30
0
41
1
10
91.1775859627252
20
0.251900343434841
30
0
41
1
10
91.1517928843726
20
0.157432759370096
30
0
41
1
10
91.0935809238204
20
-0.023240300273585
30
0
41
1
10
91.0611670094449
20
-0.109448226708309
30
0
41
1
10
91.0175820608144
20
-0.212118073729613
30
0
41
1
10
91.008699610737
20
-0.232419890760298
30
0
41
1
10
90.990702627722
20
-0.272386377629004
30
0
41
1
10
90.9633695960194
20
-0.331360413602312
30
0
41
1
10
90.9351282053294
20
-0.387464201853845
30
0
41
1
10
90.8776529482641
20
-0.495958157018663
30
0
41
1
10
90.8380258583611
20
-0.563346269131216
30
0
41
1
10
90.7569177226895
20
-0.688562583686121
30
0
41
1
10
90.7154312320297
20
-0.74638903191169
30
0
41
1
10
90.6626630298098
20
-0.812701829907667
30
0
41
1
10
90.6520632147426
20
-0.825665175817335
30
0
41
1
10
90.6307751539228
20
-0.850990844376042
30
0
41
1
10
90.6200896748095
20
-0.863348902900327
30
0
41
1
10
90.5880477663125
20
-0.89936273485759
30
0
41
1
10
90.5666594564524
20
-0.922015188325133
30
0
41
1
10
90.5024468711592
20
-0.985991827363705
30
0
41
1
10
90.4595781297784
20
-1.02334347661488
30
0
41
1
10
90.3737978814293
20
-1.08770682724872
30
0
41
1
10
90.2879722119599
20
-1.1417281689443
30
0
41
1
10
90.2020337750952
20
-1.17507944167795
30
0
41
1
10
90.14824166012
20
-1.18932051691377
30
0
41
1
10
90.1374847715109
20
-1.1918355654349
30
0
41
1
10
90.1160595157249
20
-1.19618317151
30
0
41
1
10
90.0840184533819
20
-1.20169061287243
30
0
41
1
10
90.0522574797716
20
-1.20418927528488
30
0
41
1
10
89.9890814223789
20
-1.20524128217156
30
0
41
1
10
89.9057688895767
20
-1.19613646120021
30
0
41
1
10
89.7831308375128
20
-1.15150139565728
30
0
41
1
10
89.7026390211231
20
-1.10103551927054
30
0
41
1
10
89.6226361607607
20
-1.0399793589616
30
0
41
1
10
89.5832156493623
20
-1.00441244840064
30
0
41
1
10
89.5442928294059
20
-0.963852016700741
30
0
0
SPLINE
5
C9
100
AcDbEntity
8
1
62
256
6
ByLayer
370
18
48
1
60
0
100
AcDbSpline
70
4
71
3
72
14
73
10
40
0
40
0
40
0
40
0
40
0.162895382966093
40
0.162895382966093
40
0.372171537224574
40
0.372171537224574
40
0.581447691483055
40
0.581447691483055
40
1
40
1
40
1
40
1
41
1
10
84.8596655567712
20
6.74616929584701
30
0
41
1
10
85.1139312255101
20
6.74621897807521
30
0
41
1
10
85.3681167169526
20
6.74436674773483
30
0
41
1
10
85.9486238282402
20
6.73576222080879
30
0
41
1
10
86.2747881450723
20
6.72770932204773
30
0
41
1
10
86.9277808262483
20
6.70540134808746
30
0
41
1
10
87.254516066579
20
6.69115529815161
30
0
41
1
10
88.235174719004
20
6.63919154479876
30
0
41
1
10
88.8895997738211
20
6.59231679314209
30
0
41
1
10
89.5442928294107
20
6.53276434762921
30
0
0
SPLINE
5
CA
100
AcDbEntity
8
1
62
256
6
ByLayer
370
18
48
1
60
0
100
AcDbSpline
70
4
71
3
72
34
73
30
40
0
40
0
40
0
40
0
40
0.182099602113737
40
0.182099602113737
40
0.273149403170605
40
0.273149403170605
40
0.318674303699039
40
0.318674303699039
40
0.364199204227473
40
0.364199204227473
40
0.409724104755907
40
0.409724104755907
40
0.455249005284342
40
0.455249005284342
40
0.54629880634121
40
0.54629880634121
40
0.637348607398078
40
0.637348607398078
40
0.682873507926512
40
0.682873507926512
40
0.728398408454947
40
0.728398408454947
40
0.773923308983381
40
0.773923308983381
40
0.819448209511815
40
0.819448209511815
40
0.910498010568683
40
0.910498010568683
40
1
40
1
40
1
40
1
41
1
10
15.3348945832855
20
-5.4338693366193
30
0
41
1
10
16.026873906639
20
-5.57815303491475
30
0
41
1
10
16.7188200243312
20
-5.70914090853506
30
0
41
1
10
17.7559371663081
20
-5.88758808433317
30
0
41
1
10
18.1015113049191
20
-5.94404373028542
30
0
41
1
10
18.6195874291808
20
-6.02426647967422
30
0
41
1
10
18.792232112814
20
-6.05026274580638
30
0
41
1
10
19.1374131731034
20
-6.10076621253026
30
0
41
1
10
19.3099361869392
20
-6.12528741345358
30
0
41
1
10
19.654939270794
20
-6.17274992529161
30
0
41
1
10
19.8274515590047
20
-6.19565619532139
30
0
41
1
10
20.1726346138386
20
-6.23969571140799
30
0
41
1
10
20.3452845149059
20
-6.26085184446637
30
0
41
1
10
20.8633588878741
20
-6.32180328480663
30
0
41
1
10
21.2089061519147
20
-6.35908604701149
30
0
41
1
10
21.9002276909368
20
-6.4270729112489
30
0
41
1
10
22.2460022361778
20
-6.45777745308499
30
0
41
1
10
22.7647430282147
20
-6.49891170234858
30
0
41
1
10
22.937670034017
20
-6.51180144774389
30
0
41
1
10
23.2835390273409
20
-6.53592486879023
30
0
41
1
10
23.4564688256518
20
-6.54716412074293
30
0
41
1
10
23.8024014683263
20
-6.567933386654
30
0
41
1
10
23.9754496080362
20
-6.5774481369431
30
0
41
1
10
24.3214958817529
20
-6.59467245510399
30
0
41
1
10
24.4945131739012
20
-6.60239570703521
30
0
41
1
10
25.0134995444791
20
-6.62295056502822
30
0
41
1
10
25.3594005841381
20
-6.63317101881484
30
0
41
1
10
26.0450477261103
20
-6.64662818914243
30
0
41
1
10
26.3847990901509
20
-6.64998115782004
30
0
41
1
10
26.7243569301591
20
-6.6499999243066
30
0
0
SPLINE
5
CB
100
AcDbEntity
8
1
62
256
6
ByLayer
370
18
48
1
60
0
100
AcDbSpline
70
4
71
3
72
26
73
22
40
0
40
0
40
0
40
0
40
0.0008991921771938
40
0.0008991921771938
40
0.200719353741761
40
0.200719353741761
40
0.250674394132902
40
0.250674394132902
40
0.300629434524044
40
0.300629434524044
40
0.400539515306325
40
0.400539515306325
40
0.600359676870886
40
0.600359676870886
40
0.650314717262021
40
0.650314717262021
40
0.700269757653157
40
0.700269757653157
40
0.800179838435435
40
0.800179838435435
40
1
40
1
40
1
40
1
41
1
10
71.3173361592069
20
4.92893774524137
30
0
41
1
10
71.3204476261349
20
4.92968402578731
30
0
41
1
10
71.3235590999586
20
4.93043009880947
30
0
41
1
10
72.0181096156457
20
5.09692360834472
30
0
41
1
10
72.7098912375411
20
5.25246769279409
30
0
41
1
10
73.5745024048137
20
5.43472313754495
30
0
41
1
10
73.7474256828973
20
5.47054778450436
30
0
41
1
10
74.0935227164562
20
5.54053912650542
30
0
41
1
10
74.2665990202399
20
5.57470247456982
30
0
41
1
10
74.7857542598129
20
5.67478882943502
30
0
41
1
10
75.1317960504429
20
5.73833634634786
30
0
41
1
10
76.1695609107897
20
5.91983709700895
30
0
41
1
10
76.8609347806434
20
6.02869550455503
30
0
41
1
10
77.7239867186096
20
6.14992138033605
30
0
41
1
10
77.8965421564516
20
6.17341235735287
30
0
41
1
10
78.2417939363742
20
6.21862435588025
30
0
41
1
10
78.4144863455009
20
6.24035287095856
30
0
41
1
10
78.9327111815595
20
6.30298953556971
30
0
41
1
10
79.2783804709471
20
6.34136218698023
30
0
41
1
10
80.3157581720639
20
6.44658109376695
30
0
41
1
10
81.0078467102643
20
6.50358397395544
30
0
41
1
10
81.7
20
6.54730994263429
30
0
0
SPLINE
5
CC
100
AcDbEntity
8
1
62
256
6
ByLayer
370
18
48
1
60
0
100
AcDbSpline
70
4
71
4
72
10
73
5
40
0
40
0
40
0
40
0
40
0
40
1
40
1
40
1
40
1
40
1
41
0.996605126979712
10
12.4025539376997
20
-4.88812177828661
30
0
41
0.99673321024402
10
12.3965223626735
20
-4.93872499117627
30
0
41
0.996868832797254
10
12.3907823715214
20
-4.98956930679384
30
0
41
0.99701077666612
10
12.3853354089065
20
-5.04062471223733
30
0
41
0.997157516894347
10
12.3801820152425
20
-5.09186027437882
30
0
0
SPLINE
5
CD
100
AcDbEntity
8
1
62
256
6
ByLayer
370
18
48
1
60
0
100
AcDbSpline
70
4
71
3
72
59
73
55
40
0
40
0
40
0
40
0
40
0.0900860303369059
40
0.0900860303369059
40
0.13512904550536
40
0.13512904550536
40
0.180172060673815
40
0.180172060673815
40
0.270258091010724
40
0.270258091010724
40
0.292779598594952
40
0.292779598594952
40
0.315301106179181
40
0.315301106179181
40
0.337822613763409
40
0.337822613763409
40
0.360344121347637
40
0.360344121347637
40
0.450430151684547
40
0.450430151684547
40
0.472951659268774
40
0.472951659268774
40
0.495473166853001
40
0.495473166853001
40
0.540516182021454
40
0.540516182021454
40
0.585559197189907
40
0.585559197189907
40
0.630602212358361
40
0.630602212358361
40
0.653123719942586
40
0.653123719942586
40
0.675645227526812
40
0.698166735111038
40
0.698166735111038
40
0.720688242695264
40
0.720688242695264
40
0.765731257863714
40
0.765731257863714
40
0.788252765447939
40
0.788252765447939
40
0.810774273032164
40
0.810774273032164
40
0.855817288200614
40
0.855817288200614
40
0.900860303369064
40
0.900860303369064
40
0.945903318537514
40
0.945903318537514
40
0.96842482612174
40
0.96842482612174
40
0.990946333705966
40
0.990946333705966
40
1
40
1
40
1
40
1
41
1
10
81.7
20
1.80139938056942
30
0
41
1
10
80.9766137520783
20
2.05066831968168
30
0
41
1
10
80.2540586902174
20
2.29479382468415
30
0
41
1
10
79.1719146173799
20
2.65441124982669
30
0
41
1
10
78.8115616990809
20
2.77337642211742
30
0
41
1
10
78.0905465573694
20
3.00683530022388
30
0
41
1
10
77.7299550774488
20
3.12152311317484
30
0
41
1
10
76.6480334051514
20
3.45979374692089
30
0
41
1
10
75.926539643102
20
3.67757379291979
30
0
41
1
10
75.0247648106873
20
3.9408248295405
30
0
41
1
10
74.8444262603381
20
3.99304995336712
30
0
41
1
10
74.4836254684455
20
4.09628786430341
30
0
41
1
10
74.303140248195
20
4.14724975624722
30
0
41
1
10
73.9419904286398
20
4.24784542734756
30
0
41
1
10
73.7613293340107
20
4.29748711530073
30
0
41
1
10
73.3998453134525
20
4.39548593994638
30
0
41
1
10
73.2189772721326
20
4.44385383216849
30
0
41
1
10
72.3148719908285
20
4.6823520499583
30
0
41
1
10
71.592510188849
20
4.86248280633762
30
0
41
1
10
70.6910602532576
20
5.07480465954734
30
0
41
1
10
70.5108397075578
20
5.11661016637302
30
0
41
1
10
70.1503394654079
20
5.19854834718038
30
0
41
1
10
69.9700686493507
20
5.238699199584
30
0
41
1
10
69.4292099528473
20
5.35674798677221
30
0
41
1
10
69.0685785504752
20
5.43224952544975
30
0
41
1
10
68.3472524213223
20
5.57700110801625
30
0
41
1
10
67.9865553386668
20
5.64624807316386
30
0
41
1
10
67.2651762464496
20
5.7785752657359
30
0
41
1
10
66.9045193011674
20
5.84168764374527
30
0
41
1
10
66.3635061981844
20
5.93158685904862
30
0
41
1
10
66.1831318105325
20
5.96071497666347
30
0
41
1
10
65.8221782713624
20
6.01713606961294
30
0
41
1
10
65.4610529458909
20
6.0717661484523
30
0
41
1
10
65.0996081230306
20
6.12286371423758
30
0
41
1
10
64.7380103219939
20
6.17220698117038
30
0
41
1
10
64.5571168072162
20
6.19600329763296
30
0
41
1
10
64.0147526421052
20
6.26470469176908
30
0
41
1
10
63.6534250071573
20
6.3069496595331
30
0
41
1
10
63.1118733602712
20
6.36502562167075
30
0
41
1
10
62.9314292652071
20
6.38350106025081
30
0
41
1
10
62.5706926795249
20
6.41867603948509
30
0
41
1
10
62.3904139176413
20
6.43538414828225
30
0
41
1
10
61.8496382215453
20
6.48270593985848
30
0
41
1
10
61.4890698356092
20
6.51043677828355
30
0
41
1
10
60.7678325132242
20
6.55840220691945
30
0
41
1
10
60.4071745329587
20
6.57864380848574
30
0
41
1
10
59.6858348442772
20
6.61170374576861
30
0
41
1
10
59.3251544351302
20
6.62452342070205
30
0
41
1
10
58.7841818958842
20
6.63814794934089
30
0
41
1
10
58.6038648271274
20
6.64175400228405
30
0
41
1
10
58.2432492573962
20
6.64707619807265
30
0
41
1
10
58.0629535032791
20
6.6487898536252
30
0
41
1
10
57.8100562678093
20
6.64985225592764
30
0
41
1
10
57.7375283825342
20
6.65000305263482
30
0
41
1
10
57.6649871172712
20
6.65000038367145
30
0
0
SPLINE
5
CE
100
AcDbEntity
8
1
62
256
6
ByLayer
370
18
48
1
60
0
100
AcDbSpline
70
4
71
3
72
8
73
4
40
0
40
0
40
0
40
0
40
1
40
1
40
1
40
1
41
1
10
12.9037822366528
20
-4.96850314305675
30
0
41
1
10
12.7292436148383
20
-5.01020840437897
30
0
41
1
10
12.554708632963
20
-5.05132578872608
30
0
41
1
10
12.3801820152425
20
-5.09186027437877
30
0
0
SPLINE
5
CF
100
AcDbEntity
8
1
62
256
6
ByLayer
370
18
48
1
60
0
100
AcDbSpline
70
4
71
3
72
14
73
10
40
0
40
0
40
0
40
0
40
0.155201183048516
40
0.155201183048516
40
0.310402366097032
40
0.310402366097032
40
0.620804732194063
40
0.620804732194063
40
1
40
1
40
1
40
1
41
1
10
81.7
20
-6.64779868114201
30
0
41
1
10
81.8635955452931
20
-6.65798811943165
30
0
41
1
10
82.0270877390643
20
-6.66740966680527
30
0
41
1
10
82.3540754845034
20
-6.6846269128319
30
0
41
1
10
82.5175808280561
20
-6.69242169503266
30
0
41
1
10
83.0080912091506
20
-6.7134157127262
30
0
41
1
10
83.3350792793066
20
-6.72423161649709
30
0
41
1
10
84.0613512279413
20
-6.74132858098139
30
0
41
1
10
84.4606072345198
20
-6.74609132337162
30
0
41
1
10
84.8596657492595
20
-6.74616929588456
30
0
0
SPLINE
5
D0
100
AcDbEntity
8
1
62
256
6
ByLayer
370
18
48
1
60
0
100
AcDbSpline
70
4
71
3
72
164
73
160
40
0
40
0
40
0
40
0
40
0.0312499999999964
40
0.0312499999999964
40
0.0468749999999945
40
0.0468749999999945
40
0.0546874999999936
40
0.0546874999999936
40
0.0624999999999927
40
0.0624999999999927
40
0.0703124999999918
40
0.0703124999999918
40
0.0781249999999909
40
0.0781249999999909
40
0.0937499999999891
40
0.0937499999999891
40
0.109374999999987
40
0.109374999999987
40
0.117187499999986
40
0.117187499999986
40
0.124999999999985
40
0.124999999999985
40
0.132812499999985
40
0.132812499999985
40
0.140624999999984
40
0.140624999999984
40
0.156249999999982
40
0.156249999999982
40
0.17187499999998
40
0.17187499999998
40
0.179687499999979
40
0.179687499999979
40
0.187499999999978
40
0.187499999999978
40
0.195312499999977
40
0.195312499999977
40
0.203124999999976
40
0.203124999999976
40
0.218749999999974
40
0.218749999999974
40
0.234374999999973
40
0.234374999999973
40
0.242187499999972
40
0.242187499999972
40
0.249999999999971
40
0.249999999999971
40
0.25781249999997
40
0.25781249999997
40
0.265624999999969
40
0.265624999999969
40
0.281249999999967
40
0.281249999999967
40
0.296874999999965
40
0.296874999999965
40
0.304687499999964
40
0.304687499999964
40
0.312499999999964
40
0.312499999999964
40
0.320312499999963
40
0.320312499999963
40
0.328124999999962
40
0.328124999999962
40
0.34374999999996
40
0.34374999999996
40
0.359374999999958
40
0.359374999999958
40
0.374999999999956
40
0.374999999999956
40
0.382812499999956
40
0.382812499999956
40
0.390624999999955
40
0.390624999999955
40
0.406249999999954
40
0.406249999999954
40
0.421874999999953
40
0.421874999999953
40
0.437499999999951
40
0.437499999999951
40
0.445312499999951
40
0.445312499999951
40
0.453124999999951
40
0.453124999999951
40
0.468749999999951
40
0.468749999999951
40
0.48437499999995
40
0.48437499999995
40
0.49999999999995
40
0.49999999999995
40
0.50781249999995
40
0.50781249999995
40
0.51562499999995
40
0.51562499999995
40
0.53124999999995
40
0.53124999999995
40
0.54687499999995
40
0.54687499999995
40
0.56249999999995
40
0.56249999999995
40
0.57031249999995
40
0.57031249999995
40
0.57812499999995
40
0.57812499999995
40
0.593749999999951
40
0.593749999999951
40
0.609374999999952
40
0.609374999999952
40
0.624999999999953
40
0.624999999999953
40
0.632812499999954
40
0.632812499999954
40
0.640624999999955
40
0.640624999999955
40
0.656249999999956
40
0.656249999999956
40
0.671874999999958
40
0.671874999999958
40
0.687499999999959
40
0.687499999999959
40
0.69531249999996
40
0.69531249999996
40
0.703124999999961
40
0.703124999999961
40
0.718749999999963
40
0.718749999999963
40
0.749999999999966
40
0.749999999999966
40
0.757812499999967
40
0.757812499999967
40
0.765624999999968
40
0.765624999999968
40
0.773437499999969
40
0.773437499999969
40
0.78124999999997
40
0.78124999999997
40
0.812499999999975
40
0.812499999999975
40
0.820312499999976
40
0.820312499999976
40
0.828124999999978
40
0.828124999999978
40
0.84374999999998
40
0.84374999999998
40
0.874999999999985
40
0.874999999999985
40
0.882812499999986
40
0.882812499999986
40
0.890624999999988
40
0.890624999999988
40
0.90624999999999
40
0.90624999999999
40
0.937499999999995
40
0.937499999999995
40
0.945312499999995
40
0.945312499999995
40
0.953124999999995
40
0.953124999999995
40
0.968749999999996
40
0.968749999999996
40
1
40
1
40
1
40
1
41
1
10
15.3348945832855
20
5.43386933661932
30
0
41
1
10
16.026873906639
20
5.57815303491478
30
0
41
1
10
16.7188200243312
20
5.70914090853509
30
0
41
1
10
17.7559371663081
20
5.8875880843332
30
0
41
1
10
18.1015113049191
20
5.94404373028542
30
0
41
1
10
18.6195874291809
20
6.02426647967422
30
0
41
1
10
18.792232112814
20
6.05026274580638
30
0
41
1
10
19.1374131731034
20
6.10076621253026
30
0
41
1
10
19.3099361869392
20
6.12528741345358
30
0
41
1
10
19.654939270794
20
6.17274992529161
30
0
41
1
10
19.8274515590047
20
6.19565619532139
30
0
41
1
10
20.1726346138386
20
6.23969571140799
30
0
41
1
10
20.3452845149059
20
6.26085184446637
30
0
41
1
10
20.863358887874
20
6.32180328480663
30
0
41
1
10
21.2089061519147
20
6.35908604701149
30
0
41
1
10
21.9002276909368
20
6.4270729112489
30
0
41
1
10
22.2460022361778
20
6.45777745308499
30
0
41
1
10
22.7647430282147
20
6.49891170234858
30
0
41
1
10
22.937670034017
20
6.51180144774389
30
0
41
1
10
23.2835390273409
20
6.53592486879023
30
0
41
1
10
23.4564688256519
20
6.54716412074293
30
0
41
1
10
23.8024014683263
20
6.567933386654
30
0
41
1
10
23.9754496080362
20
6.5774481369431
30
0
41
1
10
24.3214958817529
20
6.59467245510399
30
0
41
1
10
24.4945131739012
20
6.60239570703521
30
0
41
1
10
25.0134995444791
20
6.62295056502822
30
0
41
1
10
25.3594005841381
20
6.63317101881484
30
0
41
1
10
26.0509255554827
20
6.64674355307551
30
0
41
1
10
26.396550098826
20
6.65009613532979
30
0
41
1
10
26.9146848838513
20
6.64994879190081
30
0
41
1
10
27.0873463008033
20
6.64903582042103
30
0
41
1
10
27.4325555125573
20
6.64546491621741
30
0
41
1
10
27.6050919363487
20
6.64280494400853
30
0
41
1
10
27.9501007254436
20
6.63572550085351
30
0
41
1
10
28.1226022505207
20
6.63130948250515
30
0
41
1
10
28.4677638384688
20
6.62077601699238
30
0
41
1
10
28.6404015069087
20
6.61465582114681
30
0
41
1
10
29.1584344907958
20
6.59374948757502
30
0
41
1
10
29.5039459743343
20
6.57641930011593
30
0
41
1
10
30.1951782611395
20
6.53497843564827
30
0
41
1
10
30.5409000851196
20
6.51086890780218
30
0
41
1
10
31.0595489979499
20
6.4695160063186
30
0
41
1
10
31.232443213141
20
6.45486590438875
30
0
41
1
10
31.5782421104248
20
6.42380545842607
30
0
41
1
10
31.7511367311639
20
6.40738693179173
30
0
41
1
10
32.0969788657348
20
6.37279641956806
30
0
41
1
10
32.2699890997687
20
6.35464058812281
30
0
41
1
10
32.616118180277
20
6.31679469883829
30
0
41
1
10
32.7891751764534
20
6.29709234053928
30
0
41
1
10
33.3082756331964
20
6.23563462304099
30
0
41
1
10
33.6542442103958
20
6.1915270901444
30
0
41
1
10
34.3458859684823
20
6.09700875204032
30
0
41
1
10
34.6915605290122
20
6.04659992054647
30
0
41
1
10
35.2097576397618
20
5.96612683648965
30
0
41
1
10
35.3824376809122
20
5.93849165682101
30
0
41
1
10
35.7276797157895
20
5.88156889647624
30
0
41
1
10
35.9002325511793
20
5.85226874248096
30
0
41
1
10
36.2452547286761
20
5.79204381746982
30
0
41
1
10
36.4177496568026
20
5.76115228792133
30
0
41
1
10
36.7628957130444
20
5.69808817962968
30
0
41
1
10
36.9355240620237
20
5.66588560417253
30
0
41
1
10
37.4535243059701
20
5.56721807314204
30
0
41
1
10
37.7990058976491
20
5.49868764050584
30
0
41
1
10
38.4901600892704
20
5.35600160858016
30
0
41
1
10
38.8358344960259
20
5.28184947688541
30
0
41
1
10
39.5272541513051
20
5.12765903388453
30
0
41
1
10
39.8729798948054
20
5.04758291291458
30
0
41
1
10
40.3916169013749
20
4.92292734423367
30
0
41
1
10
40.5645363820872
20
4.88067772546154
30
0
41
1
10
40.9106535814101
20
4.7951768484152
30
0
41
1
10
41.0837872579738
20
4.7518940437979
30
0
41
1
10
41.6030081322092
20
4.62046134164851
30
0
41
1
10
41.9490487530537
20
4.53068246496056
30
0
41
1
10
42.6408162111714
20
4.34664842735125
30
0
41
1
10
42.9865452285416
20
4.25239814646665
30
0
41
1
10
43.6775669083428
20
4.05913785236436
30
0
41
1
10
44.0228426210124
20
3.96008858833201
30
0
41
1
10
44.5404054710493
20
3.80783135620897
30
0
41
1
10
44.7128973061197
20
3.75653052135814
30
0
41
1
10
45.0580323724426
20
3.65332509258013
30
0
41
1
10
45.230653672526
20
3.60137103652514
30
0
41
1
10
45.7486280032598
20
3.44435216792886
30
0
41
1
10
46.094084504082
20
3.33811575948735
30
0
41
1
10
46.7851700579735
20
3.12229727768832
30
0
41
1
10
47.1308017323358
20
3.01272194928552
30
0
41
1
10
47.8221187042609
20
2.78989382744487
30
0
41
1
10
48.1677904856539
20
2.67660504128395
30
0
41
1
10
48.6863111055593
20
2.50376902579572
30
0
41
1
10
48.8591789892823
20
2.44573858136871
30
0
41
1
10
49.2051870881501
20
2.32942399359573
30
0
41
1
10
49.3783461556297
20
2.27107219654866
30
0
41
1
10
49.8976940097691
20
2.09549171861048
30
0
41
1
10
50.2438112839985
20
1.9776969807188
30
0
41
1
10
50.9357135039938
20
1.74035521694179
30
0
41
1
10
51.2815014542436
20
1.62081645718814
30
0
41
1
10
51.9726244290094
20
1.37965201751234
30
0
41
1
10
52.3179480824761
20
1.25799471584708
30
0
41
1
10
52.8355499419092
20
1.07380891016169
30
0
41
1
10
53.0080423194262
20
1.01219191983904
30
0
41
1
10
53.3531708842004
20
0.889146770513321
30
0
41
1
10
53.5257873798061
20
0.827664206830178
30
0
41
1
10
54.0437425456903
20
0.643198397678418
30
0
41
1
10
54.3891786937362
20
0.520174500714404
30
0
41
1
10
55.0802049653381
20
0.27372823858471
30
0
41
1
10
55.4257985452263
20
0.15031564399635
30
0
41
1
10
56.1170222742858
20
-0.0972461682584935
30
0
41
1
10
56.4626438703815
20
-0.221419826396357
30
0
41
1
10
56.9810578406657
20
-0.408379085531095
30
0
41
1
10
57.1538779421716
20
-0.47076300560687
30
0
41
1
10
57.4997815635535
20
-0.594994169852413
30
0
41
1
10
57.6728488898866
20
-0.656892631344675
30
0
41
1
10
58.1923302989172
20
-0.842077300923279
30
0
41
1
10
58.5385288281501
20
-0.964704720765752
30
0
41
1
10
59.2305748710817
20
-1.20863499684995
30
0
41
1
10
59.5764262293182
20
-1.32992711177585
30
0
41
1
10
60.2676595760792
20
-1.57150882508722
30
0
41
1
10
60.6130346819226
20
-1.69181691038958
30
0
41
1
10
61.1306849595168
20
-1.87165686445212
30
0
41
1
10
61.3031816684954
20
-1.93145685831803
30
0
41
1
10
61.6483082037176
20
-2.05011972350857
30
0
41
1
10
61.8209221297566
20
-2.10902647778275
30
0
41
1
10
62.3388648467422
20
-2.28462034882423
30
0
41
1
10
62.684285342582
20
-2.40020668765442
30
0
41
1
10
63.7207497691523
20
-2.74302495780307
30
0
41
1
10
64.4119918869767
20
-2.96635050044415
30
0
41
1
10
65.2758535480569
20
-3.24013495591586
30
0
41
1
10
65.4486298264998
20
-3.2945865391271
30
0
41
1
10
65.7944335469246
20
-3.40227548942451
30
0
41
1
10
65.9674478440243
20
-3.45554663378411
30
0
41
1
10
66.3136663771099
20
-3.5610348873513
30
0
41
1
10
66.4868817876658
20
-3.61325864117441
30
0
41
1
10
66.8331680268189
20
-3.71661690404125
30
0
41
1
10
67.0062779272282
20
-3.76776122870214
30
0
41
1
10
67.8716315300906
20
-4.02089350917083
30
0
41
1
10
68.5632818308175
20
-4.21518610861344
30
0
41
1
10
69.426489927781
20
-4.44875018654571
30
0
41
1
10
69.5990738237277
20
-4.49497071626553
30
0
41
1
10
69.9443746631207
20
-4.58591552151313
30
0
41
1
10
70.1170809832144
20
-4.63066418934866
30
0
41
1
10
70.6353161355639
20
-4.76286756882803
30
0
41
1
10
70.9809510631283
20
-4.84830214244269
30
0
41
1
10
72.0181096156458
20
-5.09692360834478
30
0
41
1
10
72.7098912375412
20
-5.25246769279406
30
0
41
1
10
73.5745024048137
20
-5.43472313754498
30
0
41
1
10
73.7474256828974
20
-5.47054778450439
30
0
41
1
10
74.0935227164563
20
-5.54053912650545
30
0
41
1
10
74.2665990202401
20
-5.57470247456985
30
0
41
1
10
74.785754259813
20
-5.67478882943504
30
0
41
1
10
75.131796050443
20
-5.73833634634789
30
0
41
1
10
76.1695609107897
20
-5.91983709700895
30
0
41
1
10
76.8609347806434
20
-6.02869550455509
30
0
41
1
10
77.7239867186097
20
-6.14992138033605
30
0
41
1
10
77.8965421564517
20
-6.1734123573529
30
0
41
1
10
78.2417939363744
20
-6.21862435588028
30
0
41
1
10
78.4144863455011
20
-6.24035287095859
30
0
41
1
10
78.9327111815596
20
-6.30298953556974
30
0
41
1
10
79.2783804709471
20
-6.34136218698026
30
0
41
1
10
80.3157581720639
20
-6.44658109376695
30
0
41
1
10
81.0078467102643
20
-6.50358397395541
30
0
41
1
10
81.7
20
-6.54730994263429
30
0
0
SPLINE
5
D1
100
AcDbEntity
8
1
62
256
6
ByLayer
370
18
48
1
60
0
100
AcDbSpline
70
4
71
4
72
10
73
5
40
0
40
0
40
0
40
0
40
0
40
1
40
1
40
1
40
1
40
1
41
0.997157516894346
10
15.3348945832855
20
5.4338693366193
30
0
41
0.996400328231936
10
15.3082864613443
20
5.16316889162829
30
0
41
0.995770848579793
10
15.2738585618044
20
4.89551481398628
30
0
41
0.995478596317891
10
15.2317083784012
20
4.63531393250051
30
0
41
0.99551545221929
10
15.1825622745559
20
4.38626338738724
30
0
0
SPLINE
5
D2
100
AcDbEntity
8
1
62
256
6
ByLayer
370
18
48
1
60
0
100
AcDbSpline
70
4
71
3
72
144
73
140
40
0
40
0
40
0
40
0
40
0.0075718524701344
40
0.0075718524701344
40
0.0167610019843002
40
0.0167610019843002
40
0.0259501514984661
40
0.0259501514984661
40
0.0443284505267978
40
0.0443284505267978
40
0.0627067495551295
40
0.0627067495551295
40
0.0810850485834612
40
0.0810850485834612
40
0.0902741980976271
40
0.0902741980976271
40
0.0994633476117929
40
0.108652497125959
40
0.108652497125959
40
0.117841646640125
40
0.117841646640125
40
0.136219945668456
40
0.136219945668456
40
0.145409095182621
40
0.145409095182621
40
0.154598244696787
40
0.154598244696787
40
0.172976543725118
40
0.172976543725118
40
0.191354842753449
40
0.191354842753449
40
0.20973314178178
40
0.20973314178178
40
0.218922291295945
40
0.218922291295945
40
0.228111440810111
40
0.228111440810111
40
0.24648973983844
40
0.24648973983844
40
0.26486803886677
40
0.26486803886677
40
0.2832463378951
40
0.2832463378951
40
0.292435487409265
40
0.292435487409265
40
0.301624636923431
40
0.301624636923431
40
0.320002935951761
40
0.320002935951761
40
0.338381234980091
40
0.338381234980091
40
0.356759534008422
40
0.356759534008422
40
0.365948683522588
40
0.365948683522588
40
0.375137833036753
40
0.375137833036753
40
0.393516132065085
40
0.393516132065085
40
0.40270528157925
40
0.40270528157925
40
0.411894431093416
40
0.411894431093416
40
0.430272730121746
40
0.430272730121746
40
0.439461879635911
40
0.439461879635911
40
0.448651029150077
40
0.448651029150077
40
0.485407627206739
40
0.485407627206739
40
0.50378592623507
40
0.50378592623507
40
0.512975075749236
40
0.512975075749236
40
0.522164225263401
40
0.522164225263401
40
0.540542524291733
40
0.540542524291733
40
0.549731673805899
40
0.549731673805899
40
0.558920823320065
40
0.568109972834231
40
0.568109972834231
40
0.577299122348397
40
0.577299122348397
40
0.586488271862562
40
0.586488271862562
40
0.595677421376728
40
0.595677421376728
40
0.632434019433392
40
0.632434019433392
40
0.641623168947558
40
0.641623168947558
40
0.650812318461723
40
0.650812318461723
40
0.669190617490054
40
0.669190617490054
40
0.687568916518384
40
0.687568916518384
40
0.69675806603255
40
0.69675806603255
40
0.705947215546715
40
0.705947215546715
40
0.71513636506088
40
0.71513636506088
40
0.724325514575046
40
0.724325514575046
40
0.742703813603376
40
0.742703813603376
40
0.779460411660037
40
0.779460411660037
40
0.797838710688368
40
0.797838710688368
40
0.816217009716698
40
0.816217009716698
40
0.825406159230864
40
0.825406159230864
40
0.834595308745029
40
0.834595308745029
40
0.852973607773361
40
0.852973607773361
40
0.862162757287526
40
0.862162757287526
40
0.871351906801691
40
0.871351906801691
40
0.889730205830021
40
0.889730205830021
40
0.908108504858351
40
0.908108504858351
40
0.926486803886681
40
0.926486803886681
40
0.935675953400846
40
0.935675953400846
40
0.944865102915011
40
0.944865102915011
40
0.963243401943341
40
0.963243401943341
40
1
40
1
40
1
40
1
41
1
10
71.3171772550053
20
-4.92605714133308
30
0
41
1
10
71.1685188768461
20
-4.9619231124112
30
0
41
1
10
71.0199090577286
20
-4.99734967859456
30
0
41
1
10
70.6910602532576
20
-5.07480465954731
30
0
41
1
10
70.5108397075578
20
-5.11661016637305
30
0
41
1
10
70.150339465408
20
-5.19854834718038
30
0
41
1
10
69.9700686493507
20
-5.23869919958398
30
0
41
1
10
69.4292099528474
20
-5.35674798677221
30
0
41
1
10
69.0685785504753
20
-5.43224952544972
30
0
41
1
10
68.3472524213223
20
-5.57700110801625
30
0
41
1
10
67.9865553386668
20
-5.64624807316386
30
0
41
1
10
67.2651762464497
20
-5.7785752657359
30
0
41
1
10
66.9045193011675
20
-5.84168764374527
30
0
41
1
10
66.3635061981845
20
-5.93158685904859
30
0
41
1
10
66.1831318105326
20
-5.96071497666344
30
0
41
1
10
65.8221782713624
20
-6.01713606961294
30
0
41
1
10
65.4610528778185
20
-6.0717661281833
30
0
41
1
10
65.0996081230306
20
-6.12286371423758
30
0
41
1
10
64.7380103219939
20
-6.17220698117038
30
0
41
1
10
64.5571168072162
20
-6.19600329763296
30
0
41
1
10
64.0147526421052
20
-6.26470469176908
30
0
41
1
10
63.6534250071573
20
-6.3069496595331
30
0
41
1
10
63.1118733602712
20
-6.36502562167075
30
0
41
1
10
62.9314292652071
20
-6.38350106025081
30
0
41
1
10
62.5706926795249
20
-6.41867603948509
30
0
41
1
10
62.3904139176412
20
-6.43538414828225
30
0
41
1
10
61.8496382215453
20
-6.48270593985848
30
0
41
1
10
61.4890698356091
20
-6.51043677828355
30
0
41
1
10
60.7678325132242
20
-6.55840220691945
30
0
41
1
10
60.4071745329587
20
-6.57864380848577
30
0
41
1
10
59.6858348442772
20
-6.61170374576861
30
0
41
1
10
59.3251544351302
20
-6.62452342070205
30
0
41
1
10
58.7841818958842
20
-6.63814794934089
30
0
41
1
10
58.6038648271273
20
-6.64175400228405
30
0
41
1
10
58.2432492573962
20
-6.64707619807265
30
0
41
1
10
58.0629535032791
20
-6.6487898536252
30
0
41
1
10
57.5218042736385
20
-6.6510631809175
30
0
41
1
10
57.16069836928
20
-6.648771174632
30
0
41
1
10
56.4378923626005
20
-6.63666173394097
30
0
41
1
10
56.0760673945896
20
-6.62683794040669
30
0
41
1
10
55.3528406273459
20
-6.59968011861127
30
0
41
1
10
54.9913675549846
20
-6.58234679302996
30
0
41
1
10
54.4494278690945
20
-6.55063502797458
30
0
41
1
10
54.2688316257089
20
-6.53910840318443
30
0
41
1
10
53.9077002351425
20
-6.5141456832018
30
0
41
1
10
53.727145372038
20
-6.50071861257462
30
0
41
1
10
53.1852823033306
20
-6.45774985740195
30
0
41
1
10
52.8238473707987
20
-6.42548908300574
30
0
41
1
10
52.100668230667
20
-6.35377628993083
30
0
41
1
10
51.7388619706726
20
-6.31431879270906
30
0
41
1
10
51.0156985701962
20
-6.22823793835528
30
0
41
1
10
50.6542703978365
20
-6.18160249747399
30
0
41
1
10
50.1124083060889
20
-6.1061412292928
30
0
41
1
10
49.9318469611405
20
-6.08005324996617
30
0
41
1
10
49.5707187767381
20
-6.02613670395164
30
0
41
1
10
49.3901229138379
20
-5.99834272008809
30
0
41
1
10
48.8481747303576
20
-5.91255585016035
30
0
41
1
10
48.4866964912115
20
-5.85212135575668
30
0
41
1
10
47.944260285416
20
-5.75659081339603
30
0
41
1
10
47.7633791994987
20
-5.72392804577342
30
0
41
1
10
47.4017174995392
20
-5.65699621843254
30
0
41
1
10
47.2209553854923
20
-5.62273084741554
30
0
41
1
10
46.6788912066672
20
-5.51751076841069
30
0
41
1
10
46.3178159891693
20
-5.44412718932239
30
0
41
1
10
45.776695986957
20
-5.32907729103368
30
0
41
1
10
45.5964106999681
20
-5.28988565965977
30
0
41
1
10
45.2358196433207
20
-5.21015489063612
30
0
41
1
10
45.0555110039752
20
-5.16962281401845
30
0
41
1
10
44.1539274660325
20
-4.96362121580944
30
0
41
1
10
43.4325346798549
20
-4.7881756721282
30
0
41
1
10
42.3506413265319
20
-4.50840166969653
30
0
41
1
10
41.9900630032037
20
-4.41232261635631
30
0
41
1
10
41.4492508691214
20
-4.26394783809022
30
0
41
1
10
41.2689680578054
20
-4.21382410575168
30
0
41
1
10
40.9082116521812
20
-4.11261455124023
30
0
41
1
10
40.7277548356897
20
-4.06149341711523
30
0
41
1
10
40.186166158374
20
-3.90655650382595
30
0
41
1
10
39.8248176393947
20
-3.80116601043403
30
0
41
1
10
39.2824009283524
20
-3.63985237975453
30
0
41
1
10
39.1015031014836
20
-3.58553465950226
30
0
41
1
10
38.7399357766714
20
-3.47590298164343
30
0
41
1
10
38.3785178143972
20
-3.36525161442009
30
0
41
1
10
38.0174228927475
20
-3.25249707441372
30
0
41
1
10
37.6564947661309
20
-3.13867348823206
30
0
41
1
10
37.476126547173
20
-3.08119558214909
30
0
41
1
10
37.115477683378
20
-2.96536506662602
30
0
41
1
10
36.9351678011478
20
-2.90708647133101
30
0
41
1
10
36.574512923286
20
-2.78997224690278
30
0
41
1
10
36.3941782811014
20
-2.73111053615281
30
0
41
1
10
35.4924963553798
20
-2.43522231759246
30
0
41
1
10
34.7710984157772
20
-2.19354607842297
30
0
41
1
10
33.8696415179592
20
-1.88428706300613
30
0
41
1
10
33.6893649879249
20
-1.82207454978408
30
0
41
1
10
33.3288463089071
20
-1.69690911635271
30
0
41
1
10
33.1486144897365
20
-1.63392720581405
30
0
41
1
10
32.6077253531216
20
-1.44453598997305
30
0
41
1
10
32.2468234335708
20
-1.31782620555396
30
0
41
1
10
31.5244831814912
20
-1.0633168778177
30
0
41
1
10
31.1630426462831
20
-0.935523315395585
30
0
41
1
10
30.6205184925943
20
-0.742903699211467
30
0
41
1
10
30.4396747367653
20
-0.678561736970124
30
0
41
1
10
30.0781975810565
20
-0.549647151213719
30
0
41
1
10
29.8975340740518
20
-0.485061578185622
30
0
41
1
10
29.5363645112965
20
-0.355614073066704
30
0
41
1
10
29.3558611941016
20
-0.290744407931754
30
0
41
1
10
28.9950032122673
20
-0.160755053420019
30
0
41
1
10
28.8146367812514
20
-0.0956688229802864
30
0
41
1
10
28.2734512056762
20
0.0990925930954063
30
0
41
1
10
27.9126084005358
20
0.228448320398826
30
0
41
1
10
26.8300360171749
20
0.615394073921294
30
0
41
1
10
26.1082383629512
20
0.871800548445577
30
0
41
1
10
25.025859085053
20
1.25528045613257
30
0
41
1
10
24.6651880213474
20
1.3831066281441
30
0
41
1
10
23.9430568235733
20
1.63589728259873
30
0
41
1
10
23.5816787164636
20
1.76109090670917
30
0
41
1
10
23.0391965006521
20
1.94723114181608
30
0
41
1
10
22.8583225062687
20
2.0089929742164
30
0
41
1
10
22.4967128681606
20
2.13189009398565
30
0
41
1
10
22.315945579453
20
2.19303636164381
30
0
41
1
10
21.7737720550628
20
2.37560888508497
30
0
41
1
10
21.4124989457889
20
2.49618296980901
30
0
41
1
10
20.8708973641659
20
2.67541504105171
30
0
41
1
10
20.6904267619502
20
2.73491678717397
30
0
41
1
10
20.3294379812537
20
2.85298775766904
30
0
41
1
10
20.1489012161058
20
2.91151079247496
30
0
41
1
10
19.6071652914217
20
3.08555841702912
30
0
41
1
10
19.2458500783757
20
3.1995872175716
30
0
41
1
10
18.522965488998
20
3.42382033691814
30
0
41
1
10
18.1613928498003
20
3.53401691737267
30
0
41
1
10
17.4380636447206
20
3.75073747095371
30
0
41
1
10
17.0766140933523
20
3.85719502002274
30
0
41
1
10
16.534888511009
20
4.01398377062813
30
0
41
1
10
16.3543721220545
20
4.06574042441835
30
0
41
1
10
15.9932646872619
20
4.16781775275126
30
0
41
1
10
15.8126866761908
20
4.21816894992133
30
0
41
1
10
15.270894819631
20
4.36721099077604
30
0
41
1
10
14.9096246151477
20
4.46389578325415
30
0
41
1
10
13.825680894749
20
4.74617639237149
30
0
41
1
10
13.1028597485703
20
4.92401556051382
30
0
41
1
10
12.3801820152425
20
5.09186027437877
30
0
0
SPLINE
5
D3
100
AcDbEntity
8
1
62
256
6
ByLayer
370
18
48
1
60
0
100
AcDbSpline
70
4
71
3
72
102
73
98
40
0
40
0
40
0
40
0
40
0.062500000000002
40
0.062500000000002
40
0.125000000000004
40
0.125000000000004
40
0.156250000000004
40
0.156250000000004
40
0.187500000000005
40
0.187500000000005
40
0.218750000000005
40
0.218750000000005
40
0.250000000000006
40
0.250000000000006
40
0.281250000000006
40
0.281250000000006
40
0.296875000000006
40
0.296875000000006
40
0.304687500000005
40
0.304687500000005
40
0.312500000000005
40
0.312500000000005
40
0.343750000000004
40
0.343750000000004
40
0.375000000000003
40
0.375000000000003
40
0.390625000000003
40
0.390625000000003
40
0.398437500000003
40
0.398437500000003
40
0.406250000000003
40
0.406250000000003
40
0.421875000000002
40
0.421875000000002
40
0.4375
40
0.4375
40
0.44140625
40
0.44140625
40
0.4453125
40
0.4453125
40
0.453125000000001
40
0.453125000000001
40
0.468750000000002
40
0.468750000000002
40
0.484375000000002
40
0.484375000000002
40
0.492187500000003
40
0.492187500000003
40
0.500000000000003
40
0.500000000000003
40
0.515625000000004
40
0.515625000000004
40
0.523437500000005
40
0.527343750000005
40
0.527343750000005
40
0.531250000000005
40
0.531250000000005
40
0.546875000000005
40
0.546875000000005
40
0.562500000000006
40
0.562500000000006
40
0.578125000000006
40
0.578125000000006
40
0.585937500000006
40
0.585937500000006
40
0.593750000000006
40
0.593750000000006
40
0.625000000000003
40
0.625000000000003
40
0.656250000000001
40
0.656250000000001
40
0.664062500000001
40
0.664062500000001
40
0.671875000000001
40
0.687500000000001
40
0.687500000000001
40
0.718750000000001
40
0.718750000000001
40
0.750000000000001
40
0.750000000000001
40
0.78125
40
0.78125
40
0.8125
40
0.8125
40
0.84375
40
0.84375
40
0.859375
40
0.859375
40
0.875000000000001
40
0.875000000000001
40
0.906250000000001
40
0.906250000000001
40
0.9375
40
0.9375
40
0.96875
40
0.96875
40
1
40
1
40
1
40
1
41
1
10
10
20
-4.71249672262317
30
0
41
1
10
9.62077471396489
20
-4.75266837485978
30
0
41
1
10
9.24480437594789
20
-4.80439072844919
30
0
41
1
10
8.49967700512957
20
-4.93168666462296
30
0
41
1
10
8.13051366542118
20
-5.00724182852744
30
0
41
1
10
7.58212452207323
20
-5.1387148188272
30
0
41
1
10
7.40022160028892
20
-5.18556120487381
30
0
41
1
10
7.0382661716003
20
-5.28535588884426
30
0
41
1
10
6.85821321710455
20
-5.33830324467468
30
0
41
1
10
6.50004773175337
20
-5.4503935108217
30
0
41
1
10
6.32191593374111
20
-5.50954148054092
30
0
41
1
10
5.96780141539887
20
-5.63417240207417
30
0
41
1
10
5.7936725686275
20
-5.69900326834326
30
0
41
1
10
5.45169221500728
20
-5.83341964126575
30
0
41
1
10
5.28383653734119
20
-5.90300463012275
30
0
41
1
10
5.03726609712288
20
-6.01076711559546
30
0
41
1
10
4.95594716043536
20
-6.04725243155889
30
0
41
1
10
4.83536786009245
20
-6.10280835871703
30
0
41
1
10
4.79540817974907
20
-6.12146502401225
30
0
41
1
10
4.71597433236207
20
-6.15905169654874
30
0
41
1
10
4.67649354999227
20
-6.17798572813419
30
0
41
1
10
4.4813549893606
20
-6.2728399419305
30
0
41
1
10
4.3316569146119
20
-6.34969099656377
30
0
41
1
10
4.04681540411434
20
-6.50445074416024
30
0
41
1
10
3.91164209751381
20
-6.5823641670828
30
0
41
1
10
3.72207029447282
20
-6.69924671484279
30
0
41
1
10
3.66109028091262
20
-6.73820795940634
30
0
41
1
10
3.57340184490511
20
-6.79652751845015
30
0
41
1
10
3.54477446617028
20
-6.81596744822352
30
0
41
1
10
3.48901079257479
20
-6.85469452128791
30
0
41
1
10
3.462041705866
20
-6.87386477728228
30
0
41
1
10
3.38397125715034
20
-6.9307432368571
30
0
41
1
10
3.33569887674591
20
-6.96782099538422
30
0
41
1
10
3.24739191829991
20
-7.03997676554491
30
0
41
1
10
3.20735353111812
20
-7.07505583826628
30
0
41
1
10
3.1630655412456
20
-7.11741246977465
30
0
41
1
10
3.15449684324005
20
-7.12580896003132
30
0
41
1
10
3.13795660129233
20
-7.1424451786539
30
0
41
1
10
3.12998337118583
20
-7.15068775370091
30
0
41
1
10
3.10714952357438
20
-7.17499421395735
30
0
41
1
10
3.09331345712849
20
-7.19069678415661
30
0
41
1
10
3.05600172114293
20
-7.23626426924707
30
0
41
1
10
3.03671448923171
20
-7.2645908106083
30
0
41
1
10
3.00969449048051
20
-7.31691372624644
30
0
41
1
10
3.00196005217407
20
-7.34091072119929
30
0
41
1
10
2.99951492670419
20
-7.37343942262191
30
0
41
1
10
3.00024545667532
20
-7.38373264944741
30
0
41
1
10
3.00476634309294
20
-7.40282795065895
30
0
41
1
10
3.0085437027785
20
-7.41166754613522
30
0
41
1
10
3.02426964924666
20
-7.43613661204625
30
0
41
1
10
3.0406043315273
20
-7.44971903807036
30
0
41
1
10
3.07341790520243
20
-7.46623883850498
30
0
41
1
10
3.09190568503954
20
-7.47353420906239
30
0
41
1
10
3.11345268287891
20
-7.47941954898079
30
0
41
1
10
3.12849173182872
20
-7.48303334804302
30
0
41
1
10
3.13633833529551
20
-7.48468221107152
30
0
41
1
10
3.17695937323245
20
-7.49212208141688
30
0
41
1
10
3.21405932552278
20
-7.49555222932261
30
0
41
1
10
3.29630839576797
20
-7.49807886520162
30
0
41
1
10
3.34146195099396
20
-7.49717303089346
30
0
41
1
10
3.43897340064501
20
-7.4915643104766
30
0
41
1
10
3.4913339567558
20
-7.48686003427124
30
0
41
1
10
3.57479106256182
20
-7.4772741719469
30
0
41
1
10
3.60328521563309
20
-7.47367304497533
30
0
41
1
10
3.6614052110861
20
-7.46574530670486
30
0
41
1
10
3.69105058141292
20
-7.46141640519829
30
0
41
1
10
3.84199294523964
20
-7.4381025579454
30
0
41
1
10
3.97135886321487
20
-7.41416876752419
30
0
41
1
10
4.24339697451296
20
-7.35860311543237
30
0
41
1
10
4.38610131444008
20
-7.32694879784063
30
0
41
1
10
4.57122893327494
20
-7.28366796231464
30
0
41
1
10
4.60854173588842
20
-7.27483637269569
30
0
41
1
10
4.68349018481274
20
-7.25689921517267
30
0
41
1
10
4.79649793869018
20
-7.22955854182297
30
0
41
1
10
4.91114519296798
20
-7.20101401518704
30
0
41
1
10
5.14236521804975
20
-7.14253439446475
30
0
41
1
10
5.29907012393727
20
-7.10170508824746
30
0
41
1
10
5.61650727026299
20
-7.01715230223169
30
0
41
1
10
5.77724372967313
20
-6.97342420483477
30
0
41
1
10
6.1019143256938
20
-6.88354402004413
30
0
41
1
10
6.26585048610659
20
-6.83738930491887
30
0
41
1
10
6.59624679284173
20
-6.7429234169681
30
0
41
1
10
6.76270781701626
20
-6.69461049223773
30
0
41
1
10
7.09759597921561
20
-6.59595514336993
30
0
41
1
10
7.26602332861
20
-6.54561132229236
30
0
41
1
10
7.51979634871739
20
-6.4685973791718
30
0
41
1
10
7.6045767995719
20
-6.44267574486696
30
0
41
1
10
7.77446895347566
20
-6.39033040839925
30
0
41
1
10
7.85960027955409
20
-6.36390045289744
30
0
41
1
10
8.11518367017842
20
-6.28392920457648
30
0
41
1
10
8.28588014343882
20
-6.22968860316402
30
0
41
1
10
8.62770119958051
20
-6.119315568454
30
0
41
1
10
8.79882542493215
20
-6.06318175801769
30
0
41
1
10
9.14141016876022
20
-5.9490130697329
30
0
41
1
10
9.31287041040065
20
-5.8909768728393
30
0
41
1
10
9.65614117710714
20
-5.77306739888203
30
0
41
1
10
9.8279516207931
20
-5.71319298164488
30
0
41
1
10
10
20
-5.65248732947683
30
0
0
SPLINE
5
D4
100
AcDbEntity
8
1
62
256
6
ByLayer
370
18
48
1
60
0
100
AcDbSpline
70
4
71
3
72
41
73
37
40
0
40
0
40
0
40
0
40
0.0064487240749622
40
0.0064487240749622
40
0.0251949745641131
40
0.0251949745641131
40
0.10017997652072
40
0.10017997652072
40
0.175164978477326
40
0.175164978477326
40
0.193911228966478
40
0.193911228966478
40
0.212657479455631
40
0.250149980433935
40
0.250149980433935
40
0.325134982390542
40
0.325134982390542
40
0.400119984347149
40
0.400119984347149
40
0.475104986303756
40
0.475104986303756
40
0.550089988260362
40
0.550089988260362
40
0.625074990216969
40
0.625074990216969
40
0.662567491195271
40
0.662567491195271
40
0.700059992173573
40
0.700059992173573
40
0.77504499413018
40
0.77504499413018
40
0.850029996086787
40
0.850029996086787
40
0.925014998043393
40
0.925014998043393
40
1
40
1
40
1
40
1
41
1
10
3.6025605595527
20
7.47366936628282
30
0
41
1
10
3.61241885189
20
7.4723933980444
30
0
41
1
10
3.62234855258384
20
7.47107274976315
30
0
41
1
10
3.6614052110861
20
7.46574530670489
30
0
41
1
10
3.69105058141298
20
7.46141640519829
30
0
41
1
10
3.84199294523964
20
7.43810255794537
30
0
41
1
10
3.9713588632149
20
7.41416876752419
30
0
41
1
10
4.24339697451293
20
7.35860311543237
30
0
41
1
10
4.38610131444011
20
7.32694879784063
30
0
41
1
10
4.57122893327494
20
7.28366796231464
30
0
41
1
10
4.60854173588839
20
7.27483637269569
30
0
41
1
10
4.68349018481268
20
7.25689921517267
30
0
41
1
10
4.79649793869018
20
7.22955854182297
30
0
41
1
10
4.91114519296798
20
7.20101401518701
30
0
41
1
10
5.14236521804975
20
7.14253439446475
30
0
41
1
10
5.29907012393727
20
7.10170508824748
30
0
41
1
10
5.61650727026299
20
7.01715230223172
30
0
41
1
10
5.7772437296731
20
6.97342420483477
30
0
41
1
10
6.1019143256938
20
6.88354402004413
30
0
41
1
10
6.26585048610656
20
6.83738930491887
30
0
41
1
10
6.59624679284173
20
6.7429234169681
30
0
41
1
10
6.76270781701626
20
6.69461049223773
30
0
41
1
10
7.09759597921561
20
6.59595514336991
30
0
41
1
10
7.26602332861
20
6.54561132229236
30
0
41
1
10
7.51979634871736
20
6.46859737917183
30
0
41
1
10
7.60457679957187
20
6.44267574486696
30
0
41
1
10
7.77446895347566
20
6.39033040839925
30
0
41
1
10
7.85960027955412
20
6.36390045289744
30
0
41
1
10
8.11518367017842
20
6.28392920457651
30
0
41
1
10
8.28588014343879
20
6.22968860316402
30
0
41
1
10
8.62770119958054
20
6.119315568454
30
0
41
1
10
8.79882542493215
20
6.06318175801769
30
0
41
1
10
9.14141016876019
20
5.94901306973287
30
0
41
1
10
9.31287041040065
20
5.89097687283927
30
0
41
1
10
9.65614117710717
20
5.77306739888201
30
0
41
1
10
9.8279516207931
20
5.71319298164488
30
0
41
1
10
10
20
5.65248732947683
30
0
0
SPLINE
5
D5
100
AcDbEntity
8
1
62
256
6
ByLayer
370
13
48
1
60
0
100
AcDbSpline
70
4
71
3
72
74
73
70
40
0
40
0
40
0
40
0
40
0.0312500000000007
40
0.0312500000000007
40
0.0625000000000015
40
0.0625000000000015
40
0.0781250000000015
40
0.0781250000000015
40
0.0937500000000015
40
0.0937500000000015
40
0.125000000000001
40
0.125000000000001
40
0.15625
40
0.15625
40
0.187499999999999
40
0.187499999999999
40
0.218749999999998
40
0.218749999999998
40
0.249999999999998
40
0.249999999999998
40
0.281249999999997
40
0.281249999999997
40
0.312499999999996
40
0.312499999999996
40
0.343749999999995
40
0.343749999999995
40
0.374999999999994
40
0.374999999999994
40
0.406249999999993
40
0.406249999999993
40
0.437499999999993
40
0.437499999999993
40
0.468749999999992
40
0.468749999999992
40
0.499999999999991
40
0.499999999999991
40
0.53124999999999
40
0.53124999999999
40
0.54687499999999
40
0.54687499999999
40
0.56249999999999
40
0.56249999999999
40
0.593749999999991
40
0.593749999999991
40
0.624999999999991
40
0.624999999999991
40
0.656249999999992
40
0.656249999999992
40
0.687499999999993
40
0.687499999999993
40
0.718749999999994
40
0.718749999999994
40
0.749999999999994
40
0.749999999999994
40
0.781249999999995
40
0.781249999999995
40
0.812499999999996
40
0.812499999999996
40
0.843749999999997
40
0.843749999999997
40
0.874999999999997
40
0.874999999999997
40
0.906249999999998
40
0.906249999999998
40
0.937499999999999
40
0.937499999999999
40
0.968749999999999
40
0.968749999999999
40
1
40
1
40
1
40
1
41
1
10
81.6999999999999
20
-6.43232952001887
30
0
41
1
10
81.7450511146884
20
-6.50548390254306
30
0
41
1
10
81.7901022293768
20
-6.56519066441078
30
0
41
1
10
81.8802044587536
20
-6.65890349368181
30
0
41
1
10
81.9252555734421
20
-6.69291644879695
30
0
41
1
10
81.9928322454747
20
-6.72610495738852
30
0
41
1
10
82.0153578028189
20
-6.73420093079841
30
0
41
1
10
82.0604089175073
20
-6.74474850235629
30
0
41
1
10
82.0829344748515
20
-6.74720081797551
30
0
41
1
10
82.1505111468841
20
-6.74655998090611
30
0
41
1
10
82.1955622615725
20
-6.73540890623875
30
0
41
1
10
82.2856644909493
20
-6.68925859047715
30
0
41
1
10
82.3307156056377
20
-6.65425211001372
30
0
41
1
10
82.4208178350146
20
-6.55848879694074
30
0
41
1
10
82.465868949703
20
-6.49772511115856
30
0
41
1
10
82.5559711790797
20
-6.3492719905266
30
0
41
1
10
82.6010222937682
20
-6.26157712402963
30
0
41
1
10
82.6911245231451
20
-6.05900145440199
30
0
41
1
10
82.7361756378335
20
-5.94411767486304
30
0
41
1
10
82.8262778672103
20
-5.68794923587063
30
0
41
1
10
82.8713289818987
20
-5.54666483978534
30
0
41
1
10
82.9614312112756
20
-5.23956885232738
30
0
41
1
10
83.0064823259639
20
-5.07376106427139
30
0
41
1
10
83.0965845553408
20
-4.72052020915388
30
0
41
1
10
83.1416356700292
20
-4.53309416616202
30
0
41
1
10
83.231737899406
20
-4.14038267203316
30
0
41
1
10
83.2767890140945
20
-3.93510655629541
30
0
41
1
10
83.3668912434713
20
-3.51107530176103
30
0
41
1
10
83.4119423581597
20
-3.29233050744025
30
0
41
1
10
83.5020445875365
20
-2.84605627624418
30
0
41
1
10
83.547095702225
20
-2.61853679983179
30
0
41
1
10
83.6371979316018
20
-2.15941164028899
30
0
41
1
10
83.6822490462902
20
-1.92781435300091
30
0
41
1
10
83.7723512756671
20
-1.46495643600642
30
0
41
1
10
83.8174023903554
20
-1.23370187929513
30
0
41
1
10
83.9075046197322
20
-0.775457180269967
30
0
41
1
10
83.9525557344206
20
-0.548470521692735
30
0
41
1
10
84.0201324064533
20
-0.213655375945422
30
0
41
1
10
84.0426579637974
20
-0.103074894137109
30
0
41
1
10
84.0877090784858
20
0.116211782849149
30
0
41
1
10
84.11023463583
20
0.226959904723827
30
0
41
1
10
84.1778113078626
20
0.561998746338617
30
0
41
1
10
84.2228624225511
20
0.78910509648469
30
0
41
1
10
84.3129646519279
20
1.24751673712254
30
0
41
1
10
84.3580157666163
20
1.4788184925398
30
0
41
1
10
84.4481179959931
20
1.94168680404425
30
0
41
1
10
84.4931691106816
20
2.17324723652385
30
0
41
1
10
84.5832713400584
20
2.63220677466654
30
0
41
1
10
84.6283224547468
20
2.85959744419867
30
0
41
1
10
84.7184246841237
20
3.30551929566437
30
0
41
1
10
84.7634757988121
20
3.52404049677131
30
0
41
1
10
84.8535780281889
20
3.94753294521323
30
0
41
1
10
84.8986291428773
20
4.15249385435988
30
0
41
1
10
84.9887313722541
20
4.54449269551318
30
0
41
1
10
85.0337824869425
20
4.73152132638737
30
0
41
1
10
85.1238847163195
20
5.08390012162687
30
0
41
1
10
85.1689358310078
20
5.24924331908898
30
0
41
1
10
85.2590380603846
20
5.55536212081029
30
0
41
1
10
85.3040891750729
20
5.69613399146661
30
0
41
1
10
85.3941914044499
20
5.95125088568875
30
0
41
1
10
85.4392425191382
20
6.06559571546111
30
0
41
1
10
85.5293447485151
20
6.26708864259996
30
0
41
1
10
85.5743958632036
20
6.35423977434593
30
0
41
1
10
85.6644980925804
20
6.5016204186893
30
0
41
1
10
85.7095492072688
20
6.56185540183589
30
0
41
1
10
85.7996514366456
20
6.65659284666813
30
0
41
1
10
85.844702551334
20
6.69110217900524
30
0
41
1
10
85.9348047807108
20
6.73630213687565
30
0
41
1
10
85.9798558953992
20
6.74700000000001
30
0
41
1
10
86.0249070100876
20
6.74700000000001
30
0
0
SPLINE
5
D6
100
AcDbEntity
8
1
62
256
6
ByLayer
370
13
48
1
60
0
100
AcDbSpline
70
4
71
3
72
14
73
10
40
0
40
0
40
0
40
0
40
0.25
40
0.25
40
0.5
40
0.5
40
0.75
40
0.75
40
1
40
1
40
1
40
1
41
1
10
88.7387728152805
20
6.74700000000001
30
0
41
1
10
88.8058994831243
20
6.74700000000001
30
0
41
1
10
88.8730261509681
20
6.72319789418728
30
0
41
1
10
89.0072794866557
20
6.62038962553888
30
0
41
1
10
89.0744061544995
20
6.5413311545141
30
0
41
1
10
89.208659490187
20
6.32332979616646
30
0
41
1
10
89.2757861580308
20
6.1843468990975
30
0
41
1
10
89.4100394937184
20
5.84628277968645
30
0
41
1
10
89.4771661615622
20
5.64719012972296
30
0
41
1
10
89.544292829406
20
5.42059046900999
30
0
0
SPLINE
5
D7
100
AcDbEntity
8
1
62
256
6
ByLayer
370
13
48
1
60
0
100
AcDbSpline
70
4
71
3
72
44
73
40
40
0
40
0
40
0
40
0
40
0.0625000000000013
40
0.0625000000000013
40
0.125000000000003
40
0.125000000000003
40
0.187500000000004
40
0.187500000000004
40
0.250000000000005
40
0.250000000000005
40
0.312500000000007
40
0.312500000000007
40
0.375000000000008
40
0.375000000000008
40
0.437500000000009
40
0.437500000000009
40
0.46875000000001
40
0.46875000000001
40
0.48437500000001
40
0.48437500000001
40
0.49218750000001
40
0.49218750000001
40
0.50000000000001
40
0.50000000000001
40
0.562500000000009
40
0.562500000000009
40
0.625000000000007
40
0.625000000000007
40
0.687500000000006
40
0.687500000000006
40
0.750000000000005
40
0.750000000000005
40
0.812500000000004
40
0.812500000000004
40
0.875000000000002
40
0.875000000000002
40
0.937500000000001
40
0.937500000000001
40
1
40
1
40
1
40
1
41
1
10
81.7
20
-6.72894114618455
30
0
41
1
10
81.7796278656519
20
-6.69978695400022
30
0
41
1
10
81.859255731304
20
-6.63417278879061
30
0
41
1
10
82.018511462608
20
-6.42002608036452
30
0
41
1
10
82.0981393282602
20
-6.27138682272181
30
0
41
1
10
82.2573950595641
20
-5.88894385791758
30
0
41
1
10
82.3370229252163
20
-5.6551032479494
30
0
41
1
10
82.4962786565203
20
-5.11036982975284
30
0
41
1
10
82.5759065221723
20
-4.79954339734672
30
0
41
1
10
82.7351622534764
20
-4.1189554568503
30
0
41
1
10
82.8147901191284
20
-3.74934613027835
30
0
41
1
10
82.9740458504324
20
-2.97591335934695
30
0
41
1
10
83.0536737160844
20
-2.57226520222
30
0
41
1
10
83.2129294473884
20
-1.75689959937392
30
0
41
1
10
83.2925573130405
20
-1.34531393979611
30
0
41
1
10
83.4119991115186
20
-0.738927637110578
30
0
41
1
10
83.4518130443446
20
-0.53859164962364
30
0
41
1
10
83.5115339435836
20
-0.242463751730043
30
0
41
1
10
83.5314409099965
20
-0.144480554856614
30
0
41
1
10
83.5613013596161
20
0.0012241608835666
30
0
41
1
10
83.5712548428226
20
0.0495879561125889
30
0
41
1
10
83.5911618092356
20
0.14701622575015
30
0
41
1
10
83.6011152924421
20
0.195936807973936
30
0
41
1
10
83.6906966413006
20
0.637945526352439
30
0
41
1
10
83.7703245069526
20
1.04336631479916
30
0
41
1
10
83.9295802382567
20
1.86018467162691
30
0
41
1
10
84.0092081039087
20
2.27149329357513
30
0
41
1
10
84.1684638352128
20
3.0755778049166
30
0
41
1
10
84.2480917008648
20
3.46819727158885
30
0
41
1
10
84.4073474321689
20
4.20873425529581
30
0
41
1
10
84.4869752978209
20
4.55647715068372
30
0
41
1
10
84.6462310291249
20
5.18462624150519
30
0
41
1
10
84.725858894777
20
5.46491047554773
30
0
41
1
10
84.885114626081
20
5.94376325697576
30
0
41
1
10
84.964742491733
20
6.14230985333108
30
0
41
1
10
85.1239982230371
20
6.45386108528251
30
0
41
1
10
85.2036260886891
20
6.56693800952601
30
0
41
1
10
85.3628818199931
20
6.71344759596801
30
0
41
1
10
85.4425096856452
20
6.74700000000001
30
0
41
1
10
85.5221375512972
20
6.74700000000001
30
0
0
SPLINE
5
D8
100
AcDbEntity
8
1
62
256
6
ByLayer
370
13
48
1
60
0
100
AcDbSpline
70
4
71
3
72
22
73
18
40
0
40
0
40
0
40
0
40
0.125
40
0.125
40
0.25
40
0.25
40
0.375
40
0.375
40
0.5
40
0.5
40
0.625
40
0.625
40
0.75
40
0.75
40
0.875
40
0.875
40
1
40
1
40
1
40
1
41
1
10
88.2360033564901
20
6.74700000000001
30
0
41
1
10
88.2905154178616
20
6.74700000000001
30
0
41
1
10
88.3450274792331
20
6.7313247999717
30
0
41
1
10
88.4540516019761
20
6.66443810785105
30
0
41
1
10
88.5085636633476
20
6.61320789133319
30
0
41
1
10
88.6175877860906
20
6.4721751009539
30
0
41
1
10
88.6720998474621
20
6.38235595299582
30
0
41
1
10
88.7811239702051
20
6.1628377199566
30
0
41
1
10
88.8356360315767
20
6.03312819219099
30
0
41
1
10
88.9446601543196
20
5.73467094047979
30
0
41
1
10
88.999172215691
20
5.56592231060219
30
0
41
1
10
89.108196338434
20
5.19256011887549
30
0
41
1
10
89.1627083998055
20
4.98795667392156
30
0
41
1
10
89.2717325225485
20
4.54825479153959
30
0
41
1
10
89.32624458392
20
4.31317621716775
30
0
41
1
10
89.435268706663
20
3.81963321614848
30
0
41
1
10
89.4897807680344
20
3.56119455243106
30
0
41
1
10
89.5442928294059
20
3.29513644648472
30
0
0
SPLINE
5
D9
100
AcDbEntity
8
1
62
256
6
ByLayer
370
13
48
1
60
0
100
AcDbSpline
70
4
71
3
72
43
73
39
40
0
40
0
40
0
40
0
40
0.0624999999999978
40
0.0624999999999978
40
0.124999999999996
40
0.124999999999996
40
0.187499999999993
40
0.187499999999993
40
0.249999999999991
40
0.249999999999991
40
0.312499999999989
40
0.312499999999989
40
0.374999999999987
40
0.374999999999987
40
0.406249999999985
40
0.406249999999985
40
0.414062499999985
40
0.414062499999985
40
0.421874999999985
40
0.437499999999984
40
0.437499999999984
40
0.499999999999986
40
0.499999999999986
40
0.562499999999988
40
0.562499999999988
40
0.624999999999989
40
0.624999999999989
40
0.687499999999991
40
0.687499999999991
40
0.749999999999993
40
0.749999999999993
40
0.812499999999995
40
0.812499999999995
40
0.874999999999996
40
0.874999999999996
40
0.937499999999998
40
0.937499999999998
40
1
40
1
40
1
40
1
41
1
10
81.7
20
-6.01873962190177
30
0
41
1
10
81.7691535019272
20
-5.84501953602677
30
0
41
1
10
81.8383070038544
20
-5.63937307967927
30
0
41
1
10
81.9766140077089
20
-5.16985944175457
30
0
41
1
10
82.0457675096361
20
-4.90602376023676
30
0
41
1
10
82.1840745134906
20
-4.33145934717393
30
0
41
1
10
82.2532280154178
20
-4.02080111462058
30
0
41
1
10
82.3915350192722
20
-3.36807032464782
30
0
41
1
10
82.4606885211995
20
-3.02608525086609
30
0
41
1
10
82.5989955250539
20
-2.32786453324769
30
0
41
1
10
82.6681490269812
20
-1.97170653256313
30
0
41
1
10
82.8064560308355
20
-1.26141046414244
30
0
41
1
10
82.8756095327628
20
-0.907321537404471
30
0
41
1
10
82.9793397856537
20
-0.387764664963356
30
0
41
1
10
83.0139165366172
20
-0.216481674646275
30
0
41
1
10
83.0571374753217
20
-0.0055789272519746
30
0
41
1
10
83.0657816630628
20
0.0364150789390862
30
0
41
1
10
83.0830700385445
20
0.12093069127468
30
0
41
1
10
83.1090026017672
20
0.248175351978375
30
0
41
1
10
83.1349351649899
20
0.376748280517148
30
0
41
1
10
83.2213770423989
20
0.807860615852462
30
0
41
1
10
83.2905305443262
20
1.16100627074465
30
0
41
1
10
83.4288375481807
20
1.87082230656429
30
0
41
1
10
83.4979910501079
20
2.22744669370729
30
0
41
1
10
83.6362980539623
20
2.92820862568053
30
0
41
1
10
83.7054515558895
20
3.27227062884924
30
0
41
1
10
83.8437585597439
20
3.93074740158605
30
0
41
1
10
83.9129120616713
20
4.24507451247467
30
0
41
1
10
84.0512190655256
20
4.82830114556427
30
0
41
1
10
84.1203725674528
20
5.09712744195983
30
0
41
1
10
84.2586795713073
20
5.57747152743701
30
0
41
1
10
84.3278330732345
20
5.78895357797859
30
0
41
1
10
84.466140077089
20
6.14834095037648
30
0
41
1
10
84.5352935790162
20
6.29625577494568
30
0
41
1
10
84.6736005828707
20
6.52825885262311
30
0
41
1
10
84.7427540847979
20
6.61239197415469
30
0
41
1
10
84.8810610886524
20
6.72173229949789
30
0
41
1
10
84.9502145905795
20
6.74700000000001
30
0
41
1
10
85.0193680925067
20
6.74700000000001
30
0
0
SPLINE
5
DA
100
AcDbEntity
8
1
62
256
6
ByLayer
370
13
48
1
60
0
100
AcDbSpline
70
4
71
3
72
22
73
18
40
0
40
0
40
0
40
0
40
0.125
40
0.125
40
0.25
40
0.25
40
0.375
40
0.375
40
0.5
40
0.5
40
0.625
40
0.625
40
0.75
40
0.75
40
0.875
40
0.875
40
1
40
1
40
1
40
1
41
1
10
87.7332338976997
20
6.74700000000001
30
0
41
1
10
87.8086946865209
20
6.74700000000001
30
0
41
1
10
87.8841554753419
20
6.71688662323268
30
0
41
1
10
88.0350770529841
20
6.5858528422126
30
0
41
1
10
88.1105378418051
20
6.48483999333638
30
0
41
1
10
88.2614594194473
20
6.2063742049254
30
0
41
1
10
88.3369202082684
20
6.02886004381477
30
0
41
1
10
88.4878417859106
20
5.59933290788555
30
0
41
1
10
88.5633025747317
20
5.34732398260672
30
0
41
1
10
88.7142241523739
20
4.77929879754103
30
0
41
1
10
88.789684941195
20
4.46336168631086
30
0
41
1
10
88.9406065188373
20
3.7852778727399
30
0
41
1
10
89.0160673076583
20
3.42325952608735
30
0
41
1
10
89.1669888853005
20
2.67487235810856
30
0
41
1
10
89.2424496741216
20
2.2886331101441
30
0
41
1
10
89.3933712517638
20
1.51366304647882
30
0
41
1
10
89.4688320405849
20
1.12502152704306
30
0
41
1
10
89.544292829406
20
0.744351458821342
30
0
0
SPLINE
5
DB
100
AcDbEntity
8
1
62
256
6
ByLayer
370
13
48
1
60
0
100
AcDbSpline
70
4
71
3
72
42
73
38
40
0
40
0
40
0
40
0
40
0.0624999999999951
40
0.0624999999999951
40
0.12499999999999
40
0.12499999999999
40
0.187499999999985
40
0.187499999999985
40
0.24999999999998
40
0.24999999999998
40
0.281249999999978
40
0.281249999999978
40
0.296874999999978
40
0.296874999999978
40
0.312499999999978
40
0.312499999999978
40
0.37499999999998
40
0.37499999999998
40
0.437499999999982
40
0.437499999999982
40
0.499999999999984
40
0.499999999999984
40
0.562499999999986
40
0.562499999999986
40
0.624999999999988
40
0.624999999999988
40
0.68749999999999
40
0.68749999999999
40
0.749999999999992
40
0.749999999999992
40
0.812499999999994
40
0.812499999999994
40
0.874999999999996
40
0.874999999999996
40
0.937499999999998
40
0.937499999999998
40
1
40
1
40
1
40
1
41
1
10
81.7
20
-4.24182561922777
30
0
41
1
10
81.7586791382024
20
-3.98243195155973
30
0
41
1
10
81.8173582764049
20
-3.70845331135718
30
0
41
1
10
81.9347165528097
20
-3.14124021716734
30
0
41
1
10
81.9933956910122
20
-2.84804433357553
30
0
41
1
10
82.1107539674169
20
-2.25287450012741
30
0
41
1
10
82.1694331056194
20
-1.95093361635045
30
0
41
1
10
82.2867913820241
20
-1.34813842621537
30
0
41
1
10
82.3454705202266
20
-1.04730621396251
30
0
41
1
10
82.4334892275303
20
-0.603177635562531
30
0
41
1
10
82.4628287966316
20
-0.456307983639164
30
0
41
1
10
82.5068381502834
20
-0.238415527910547
30
0
41
1
10
82.521507934834
20
-0.166185741609922
30
0
41
1
10
82.5508475039352
20
-0.0226250945482036
30
0
41
1
10
82.5655172884858
20
0.0485383688952652
30
0
41
1
10
82.6388662112388
20
0.407978894904943
30
0
41
1
10
82.6975453494413
20
0.702710599460914
30
0
41
1
10
82.8149036258461
20
1.29951947549742
30
0
41
1
10
82.8735827640485
20
1.60158361357836
30
0
41
1
10
82.9909410404533
20
2.20420256266576
30
0
41
1
10
83.0496201786558
20
2.50473188086732
30
0
41
1
10
83.1669784550606
20
3.09416497181644
30
0
41
1
10
83.225657593263
20
3.38303342604166
30
0
41
1
10
83.3430158696679
20
3.938693589346
30
0
41
1
10
83.4016950078703
20
4.20544660958947
30
0
41
1
10
83.5190532842752
20
4.70722822295033
30
0
41
1
10
83.5777324224777
20
4.94222338838358
30
0
41
1
10
83.6950906988824
20
5.37276115122401
30
0
41
1
10
83.7537698370849
20
5.56828332515857
30
0
41
1
10
83.8711281134897
20
5.91490183349646
30
0
41
1
10
83.9298072516921
20
6.06599465369916
30
0
41
1
10
84.047165528097
20
6.32190560369952
30
0
41
1
10
84.1058446662994
20
6.42673599417293
30
0
41
1
10
84.2232029427043
20
6.59125742994306
30
0
41
1
10
84.2818820809067
20
6.65097140475092
30
0
41
1
10
84.3992403573116
20
6.72882920106287
30
0
41
1
10
84.4579194955139
20
6.74700000000001
30
0
41
1
10
84.5165986337163
20
6.74700000000001
30
0
0
SPLINE
5
DC
100
AcDbEntity
8
1
62
256
6
ByLayer
370
13
48
1
60
0
100
AcDbSpline
70
4
71
3
72
42
73
38
40
0
40
0
40
0
40
0
40
0.0624999999999996
40
0.0624999999999996
40
0.124999999999999
40
0.124999999999999
40
0.187499999999999
40
0.187499999999999
40
0.249999999999998
40
0.249999999999998
40
0.312499999999998
40
0.312499999999998
40
0.374999999999998
40
0.374999999999998
40
0.437499999999997
40
0.437499999999997
40
0.499999999999997
40
0.499999999999997
40
0.562499999999996
40
0.562499999999996
40
0.624999999999996
40
0.624999999999996
40
0.687499999999996
40
0.687499999999996
40
0.749999999999995
40
0.749999999999995
40
0.812499999999995
40
0.812499999999995
40
0.843749999999996
40
0.843749999999996
40
0.859374999999997
40
0.859374999999997
40
0.874999999999998
40
0.874999999999998
40
0.937499999999999
40
0.937499999999999
40
1
40
1
40
1
40
1
41
1
10
87.2304644389093
20
6.74700000000001
30
0
41
1
10
87.2786691970446
20
6.74700000000001
30
0
41
1
10
87.32687395518
20
6.73474903673079
30
0
41
1
10
87.4232834714506
20
6.68281292387093
30
0
41
1
10
87.471488229586
20
6.64311762490269
30
0
41
1
10
87.5678977458567
20
6.53402663516371
30
0
41
1
10
87.6161025039921
20
6.46462150245608
30
0
41
1
10
87.7125120202628
20
6.29482932358678
30
0
41
1
10
87.7607167783981
20
6.19443521761502
30
0
41
1
10
87.8571262946688
20
5.96262245231497
30
0
41
1
10
87.9053310528041
20
5.83120072320352
30
0
41
1
10
88.0017405690749
20
5.53868687536703
30
0
41
1
10
88.0499453272101
20
5.37759675983654
30
0
41
1
10
88.1463548434809
20
5.02851658370693
30
0
41
1
10
88.1945596016162
20
4.84053376272428
30
0
41
1
10
88.2909691178868
20
4.44171586266785
30
0
41
1
10
88.3391738760222
20
4.23089234918746
30
0
41
1
10
88.435583392293
20
3.79143135215088
30
0
41
1
10
88.4837881504283
20
3.56280795822914
30
0
41
1
10
88.580197666699
20
3.09338356992527
30
0
41
1
10
88.6284024248343
20
2.8525969647728
30
0
41
1
10
88.7248119411051
20
2.36464462843986
30
0
41
1
10
88.7730166992404
20
2.11749151413738
30
0
41
1
10
88.8694262155111
20
1.62235397483298
30
0
41
1
10
88.9176309736464
20
1.3743789399314
30
0
41
1
10
89.0140404899172
20
0.882559673003328
30
0
41
1
10
89.0622452480525
20
0.638720980001011
30
0
41
1
10
89.1345523852555
20
0.279174165819285
30
0
41
1
10
89.1586547643233
20
0.16035360156161
30
0
41
1
10
89.1948083329247
20
-0.0160103389813742
30
0
41
1
10
89.2068595224585
20
-0.074617969431273
30
0
41
1
10
89.2309619015263
20
-0.192819241514286
30
0
41
1
10
89.2430130910601
20
-0.252217368937607
30
0
41
1
10
89.3032690387291
20
-0.550560184211577
30
0
41
1
10
89.3514737968645
20
-0.793596437908946
30
0
41
1
10
89.4478833131353
20
-1.28436045913426
30
0
41
1
10
89.4960880712706
20
-1.53208315845981
30
0
41
1
10
89.544292829406
20
-1.77971884417477
30
0
0
SPLINE
5
DD
100
AcDbEntity
8
1
62
256
6
ByLayer
370
13
48
1
60
0
100
AcDbSpline
70
4
71
3
72
42
73
38
40
0
40
0
40
0
40
0
40
0.0625000000000049
40
0.0625000000000049
40
0.12500000000001
40
0.12500000000001
40
0.14062500000001
40
0.14062500000001
40
0.15625000000001
40
0.15625000000001
40
0.18750000000001
40
0.18750000000001
40
0.25000000000001
40
0.25000000000001
40
0.312500000000009
40
0.312500000000009
40
0.375000000000008
40
0.375000000000008
40
0.437500000000007
40
0.437500000000007
40
0.500000000000007
40
0.500000000000007
40
0.562500000000006
40
0.562500000000006
40
0.625000000000005
40
0.625000000000005
40
0.687500000000004
40
0.687500000000004
40
0.750000000000003
40
0.750000000000003
40
0.812500000000003
40
0.812500000000003
40
0.875000000000002
40
0.875000000000002
40
0.937500000000001
40
0.937500000000001
40
1
40
1
40
1
40
1
41
1
10
81.7
20
-1.77972287391555
30
0
41
1
10
81.7482047744776
20
-1.53208710551539
30
0
41
1
10
81.7964095489552
20
-1.28436430930839
30
0
41
1
10
81.8928190979105
20
-0.793600074735906
30
0
41
1
10
81.9410238723881
20
-0.550563704601046
30
0
41
1
10
82.0012798404852
20
-0.252220736870043
30
0
41
1
10
82.0133310341046
20
-0.192822578607917
30
0
41
1
10
82.0374334213434
20
-0.074621244275761
30
0
41
1
10
82.0494846149628
20
-0.0160135762298523
30
0
41
1
10
82.0856381958209
20
0.160350389992857
30
0
41
1
10
82.1097405830599
20
0.279170974062055
30
0
41
1
10
82.1820477447763
20
0.638717855877019
30
0
41
1
10
82.2302525192539
20
0.882556604952384
30
0
41
1
10
82.3266620682091
20
1.37437600550308
30
0
41
1
10
82.3748668426867
20
1.62235111796062
30
0
41
1
10
82.4712763916419
20
2.11748883161337
30
0
41
1
10
82.5194811661196
20
2.3646420427061
30
0
41
1
10
82.6158907150748
20
2.85259458776889
30
0
41
1
10
82.6640954895524
20
3.09338130484861
30
0
41
1
10
82.7605050385076
20
3.56280592643702
30
0
41
1
10
82.8087098129853
20
3.79142944169422
30
0
41
1
10
82.9051193619406
20
4.23089068400014
30
0
41
1
10
82.9533241364182
20
4.4417143213868
30
0
41
1
10
83.0497336853735
20
4.8405324646703
30
0
41
1
10
83.097938459851
20
5.02851540494586
30
0
41
1
10
83.1943480088064
20
5.37759580839747
30
0
41
1
10
83.242552783284
20
5.53868603193473
30
0
41
1
10
83.3389623322392
20
5.83120007912407
30
0
41
1
10
83.3871671067168
20
5.9626218995692
30
0
41
1
10
83.483576655672
20
6.19443482729648
30
0
41
1
10
83.5317814301497
20
6.29482900436065
30
0
41
1
10
83.6281909791049
20
6.4646213036188
30
0
41
1
10
83.6763957535826
20
6.53402648563153
30
0
41
1
10
83.7728053025378
20
6.64311755253203
30
0
41
1
10
83.8210100770154
20
6.68281287937162
30
0
41
1
10
83.9174196259706
20
6.73474902840826
30
0
41
1
10
83.9656244004483
20
6.74700000000001
30
0
41
1
10
84.0138291749259
20
6.74700000000001
30
0
0
SPLINE
5
DE
100
AcDbEntity
8
1
62
256
6
ByLayer
370
13
48
1
60
0
100
AcDbSpline
70
4
71
3
72
42
73
38
40
0
40
0
40
0
40
0
40
0.0624999999999998
40
0.0624999999999998
40
0.125
40
0.125
40
0.187499999999999
40
0.187499999999999
40
0.249999999999999
40
0.249999999999999
40
0.312499999999999
40
0.312499999999999
40
0.374999999999999
40
0.374999999999999
40
0.437499999999999
40
0.437499999999999
40
0.499999999999998
40
0.499999999999998
40
0.562499999999998
40
0.562499999999998
40
0.624999999999998
40
0.624999999999998
40
0.687499999999998
40
0.687499999999998
40
0.703124999999997
40
0.703124999999997
40
0.718749999999997
40
0.718749999999997
40
0.749999999999997
40
0.749999999999997
40
0.812499999999997
40
0.812499999999997
40
0.874999999999998
40
0.874999999999998
40
0.937499999999999
40
0.937499999999999
40
1
40
1
40
1
40
1
41
1
10
86.7276949801188
20
6.74700000000001
30
0
41
1
10
86.7863741019791
20
6.74700000000001
30
0
41
1
10
86.8450532238392
20
6.72882921121487
30
0
41
1
10
86.9624114675594
20
6.65097145964961
30
0
41
1
10
87.0210905894196
20
6.59125751947363
30
0
41
1
10
87.1384488331399
20
6.42673617955992
30
0
41
1
10
87.1971279550001
20
6.32190585033868
30
0
41
1
10
87.3144861987204
20
6.06599504850604
30
0
41
1
10
87.3731653205805
20
5.91490231522431
30
0
41
1
10
87.4905235643008
20
5.56828400183926
30
0
41
1
10
87.549202686161
20
5.37276193591251
30
0
41
1
10
87.6665609298813
20
4.9422244022814
30
0
41
1
10
87.7252400517414
20
4.70722935799932
30
0
41
1
10
87.8425982954617
20
4.20544798999245
30
0
41
1
10
87.9012774173219
20
3.93869509388944
30
0
41
1
10
88.0186356610421
20
3.38303517130356
30
0
41
1
10
88.0773147829022
20
3.09416683360109
30
0
41
1
10
88.1946730266226
20
2.50473395888616
30
0
41
1
10
88.2533521484827
20
2.204204740363
30
0
41
1
10
88.370710392203
20
1.60158596731213
30
0
41
1
10
88.4293895140631
20
1.29952190558356
30
0
41
1
10
88.5467477577835
20
0.702713155754765
30
0
41
1
10
88.6054268796436
20
0.407981501070651
30
0
41
1
10
88.6787757819688
20
0.0485410208198402
30
0
41
1
10
88.6934455624338
20
-0.0226224270136868
30
0
41
1
10
88.7227851233639
20
-0.166183011578369
30
0
41
1
10
88.737454903829
20
-0.238412766961858
30
0
41
1
10
88.781464245224
20
-0.456305131206449
30
0
41
1
10
88.810803806154
20
-0.603174723827294
30
0
41
1
10
88.8988224889443
20
-1.04730313169281
30
0
41
1
10
88.9575016108045
20
-1.34813524008246
30
0
41
1
10
89.0748598545247
20
-1.95093025516877
30
0
41
1
10
89.133538976385
20
-2.25287106783577
30
0
41
1
10
89.2508972201052
20
-2.84804080410709
30
0
41
1
10
89.3095763419653
20
-3.14123666171253
30
0
41
1
10
89.4269345856857
20
-3.70844975815351
30
0
41
1
10
89.4856137075459
20
-3.98242842665391
30
0
41
1
10
89.5442928294059
20
-4.24182215162338
30
0
0
SPLINE
5
DF
100
AcDbEntity
8
1
62
256
6
ByLayer
370
13
48
1
60
0
100
AcDbSpline
70
4
71
3
72
22
73
18
40
0
40
0
40
0
40
0
40
0.125
40
0.125
40
0.25
40
0.25
40
0.375
40
0.375
40
0.5
40
0.5
40
0.625
40
0.625
40
0.75
40
0.75
40
0.875
40
0.875
40
1
40
1
40
1
40
1
41
1
10
81.7
20
0.744347501683762
30
0
41
1
10
81.7754608215057
20
1.12501768090925
30
0
41
1
10
81.8509216430114
20
1.51365934604831
30
0
41
1
10
82.0018432860226
20
2.28862976160832
30
0
41
1
10
82.0773041075283
20
2.67486921573186
30
0
41
1
10
82.2282257505396
20
3.42325683374324
30
0
41
1
10
82.3036865720452
20
3.78527542405001
30
0
41
1
10
82.4546082150565
20
4.46335972949362
30
0
41
1
10
82.5300690365621
20
4.77929708860873
30
0
41
1
10
82.6809906795734
20
5.34732273917348
30
0
41
1
10
82.7564515010791
20
5.59933188177862
30
0
41
1
10
82.9073731440903
20
6.0288593955402
30
0
41
1
10
82.982833965596
20
6.20637371704896
30
0
41
1
10
83.1337556086073
20
6.48483975753643
30
0
41
1
10
83.209216430113
20
6.5858526981784
30
0
41
1
10
83.3601380731242
20
6.71688659700172
30
0
41
1
10
83.4355988946299
20
6.74700000000001
30
0
41
1
10
83.5110597161355
20
6.74700000000001
30
0
0
SPLINE
5
E0
100
AcDbEntity
8
1
62
256
6
ByLayer
370
13
48
1
60
0
100
AcDbSpline
70
4
71
3
72
43
73
39
40
0
40
0
40
0
40
0
40
0.0625000000000001
40
0.0625000000000001
40
0.125
40
0.125
40
0.1875
40
0.1875
40
0.25
40
0.25
40
0.312500000000001
40
0.312500000000001
40
0.375000000000001
40
0.375000000000001
40
0.437500000000001
40
0.437500000000001
40
0.500000000000001
40
0.500000000000001
40
0.562500000000001
40
0.562500000000001
40
0.578125
40
0.5859375
40
0.5859375
40
0.593749999999999
40
0.593749999999999
40
0.624999999999999
40
0.624999999999999
40
0.687499999999999
40
0.687499999999999
40
0.749999999999999
40
0.749999999999999
40
0.8125
40
0.8125
40
0.875
40
0.875
40
0.9375
40
0.9375
40
1
40
1
40
1
40
1
41
1
10
86.2249255213285
20
6.74700000000001
30
0
41
1
10
86.2940790069134
20
6.74700000000001
30
0
41
1
10
86.3632324924983
20
6.72173231149406
30
0
41
1
10
86.5015394636682
20
6.61239203967605
30
0
41
1
10
86.5706929492532
20
6.52825895974325
30
0
41
1
10
86.708999920423
20
6.2962559967857
30
0
41
1
10
86.778153406008
20
6.14834124537776
30
0
41
1
10
86.9164603771779
20
5.78895404734732
30
0
41
1
10
86.9856138627629
20
5.57747209799251
30
0
41
1
10
87.1239208339327
20
5.09712823357651
30
0
41
1
10
87.1930743195178
20
4.82830205697121
30
0
41
1
10
87.3313812906877
20
4.2450756684793
30
0
41
1
10
87.4005347762725
20
3.93074868227939
30
0
41
1
10
87.5388417474425
20
3.27227214914433
30
0
41
1
10
87.6079952330274
20
2.92821026078491
30
0
41
1
10
87.7463022041973
20
2.2274485362712
30
0
41
1
10
87.8154556897823
20
1.87082424172777
30
0
41
1
10
87.9537626609521
20
1.16100836141115
30
0
41
1
10
88.0229161465371
20
0.807862769431381
30
0
41
1
10
88.1093580035183
20
0.376750492881854
30
0
41
1
10
88.1352905606126
20
0.248177580508127
30
0
41
1
10
88.161223117707
20
0.120932933779272
30
0
41
1
10
88.1785114891034
20
0.0364173302771746
30
0
41
1
10
88.1871556748014
20
-0.0055766702287769
30
0
41
1
10
88.230376603292
20
-0.216479339152414
30
0
41
1
10
88.2649533460844
20
-0.387762268157786
30
0
41
1
10
88.3686835744618
20
-0.907318964150875
30
0
41
1
10
88.4378370600467
20
-1.26140778322048
30
0
41
1
10
88.5761440312167
20
-1.97170367422544
30
0
41
1
10
88.6452975168016
20
-2.32786160530668
30
0
41
1
10
88.7836044879714
20
-3.0260822387088
30
0
41
1
10
88.8527579735564
20
-3.36806729802947
30
0
41
1
10
88.9910649447264
20
-4.02079812538688
30
0
41
1
10
89.0602184303112
20
-4.33145640987894
30
0
41
1
10
89.1985254014812
20
-4.90602099475325
30
0
41
1
10
89.2676788870662
20
-5.16985679612753
30
0
41
1
10
89.4059858582361
20
-5.63937073233251
30
0
41
1
10
89.475139343821
20
-5.84501736698075
30
0
41
1
10
89.5442928294059
20
-6.01873765134047
30
0
0
SPLINE
5
E1
100
AcDbEntity
8
1
62
256
6
ByLayer
370
13
48
1
60
0
100
AcDbSpline
70
4
71
3
72
22
73
18
40
0
40
0
40
0
40
0
40
0.125
40
0.125
40
0.25
40
0.25
40
0.375
40
0.375
40
0.5
40
0.5
40
0.625
40
0.625
40
0.75
40
0.75
40
0.875
40
0.875
40
1
40
1
40
1
40
1
41
1
10
81.7
20
3.29513261790464
30
0
41
1
10
81.7545120940561
20
3.56119095625041
30
0
41
1
10
81.8090241881121
20
3.81962986333656
30
0
41
1
10
81.9180483762242
20
4.31317335564955
30
0
41
1
10
81.9725604702803
20
4.54825217785523
30
0
41
1
10
82.0815846583923
20
4.98795454211793
30
0
41
1
10
82.1360967524483
20
5.19255822103008
30
0
41
1
10
82.2451209405605
20
5.56592085051739
30
0
41
1
10
82.2996330346165
20
5.73466968413456
30
0
41
1
10
82.4086572227286
20
6.03312730113367
30
0
41
1
10
82.4631693167846
20
6.16283699042464
30
0
41
1
10
82.5721935048968
20
6.38235549795104
30
0
41
1
10
82.6267055989528
20
6.47217475888763
30
0
41
1
10
82.7357297870649
20
6.61320772603338
30
0
41
1
10
82.7902418811209
20
6.66443800638376
30
0
41
1
10
82.899266069233
20
6.73132478112643
30
0
41
1
10
82.953778163289
20
6.74700000000001
30
0
41
1
10
83.008290257345
20
6.74700000000001
30
0
0
SPLINE
5
E2
100
AcDbEntity
8
1
62
256
6
ByLayer
370
13
48
1
60
0
100
AcDbSpline
70
4
71
3
72
44
73
40
40
0
40
0
40
0
40
0
40
0.0624999999999979
40
0.0624999999999979
40
0.124999999999996
40
0.124999999999996
40
0.187499999999994
40
0.187499999999994
40
0.249999999999992
40
0.249999999999992
40
0.312499999999989
40
0.312499999999989
40
0.374999999999987
40
0.374999999999987
40
0.437499999999985
40
0.437499999999985
40
0.499999999999983
40
0.499999999999983
40
0.507812499999983
40
0.507812499999983
40
0.515624999999983
40
0.515624999999983
40
0.531249999999984
40
0.531249999999984
40
0.562499999999984
40
0.562499999999984
40
0.624999999999986
40
0.624999999999986
40
0.687499999999989
40
0.687499999999989
40
0.749999999999991
40
0.749999999999991
40
0.812499999999993
40
0.812499999999993
40
0.874999999999995
40
0.874999999999995
40
0.937499999999998
40
0.937499999999998
40
1
40
1
40
1
40
1
41
1
10
85.722156062538
20
6.74700000000001
30
0
41
1
10
85.8017839118478
20
6.74700000000001
30
0
41
1
10
85.8814117611575
20
6.7134476098272
30
0
41
1
10
86.040667459777
20
6.56693808587269
30
0
41
1
10
86.1202953090868
20
6.45386121037527
30
0
41
1
10
86.2795510077063
20
6.14231011188213
30
0
41
1
10
86.359178857016
20
5.94376360028141
30
0
41
1
10
86.5184345556355
20
5.4649110167301
30
0
41
1
10
86.5980624049453
20
5.18462689572144
30
0
41
1
10
86.7573181035647
20
4.5564780434714
30
0
41
1
10
86.8369459528744
20
4.20873527342792
30
0
41
1
10
86.996201651494
20
3.46819853319749
30
0
41
1
10
87.0758295008038
20
3.07557918446207
30
0
41
1
10
87.2350851994232
20
2.27149488447569
30
0
41
1
10
87.314713048733
20
1.86018635584713
30
0
41
1
10
87.4739687473525
20
1.04336815098102
30
0
41
1
10
87.5535965966623
20
0.637947421196969
30
0
41
1
10
87.6431779271358
20
0.1959387482745
30
0
41
1
10
87.6531314082994
20
0.147018170820843
30
0
41
1
10
87.6730383706269
20
0.0495899101663895
30
0
41
1
10
87.6829918517906
20
0.0012261188154525
30
0
41
1
10
87.7128522952818
20
-0.1444785498405
30
0
41
1
10
87.7327592576091
20
-0.242461715747481
30
0
41
1
10
87.7924801445914
20
-0.538589522512865
30
0
41
1
10
87.8322940692464
20
-0.738925451602768
30
0
41
1
10
87.951735843211
20
-1.34531159048163
30
0
41
1
10
88.0313636925208
20
-1.75689715609462
30
0
41
1
10
88.1906193911402
20
-2.57226262529804
30
0
41
1
10
88.27024724045
20
-2.9759107430192
30
0
41
1
10
88.4295029390695
20
-3.74934350838254
30
0
41
1
10
88.5091307883791
20
-4.11895286900142
30
0
41
1
10
88.6683864869987
20
-4.79954095674344
30
0
41
1
10
88.7480143363085
20
-5.11036750235718
30
0
41
1
10
88.907270034928
20
-5.65510121524687
30
0
41
1
10
88.9868978842377
20
-5.88894200649057
30
0
41
1
10
89.1461535828572
20
-6.27138537756807
30
0
41
1
10
89.225781432167
20
-6.42002485990341
30
0
41
1
10
89.3850371307865
20
-6.63417203149936
30
0
41
1
10
89.4646649800962
20
-6.69978643494562
30
0
41
1
10
89.544292829406
20
-6.72894085897988
30
0
0
SPLINE
5
E3
100
AcDbEntity
8
1
62
256
6
ByLayer
370
13
48
1
60
0
100
AcDbSpline
70
4
71
3
72
14
73
10
40
0
40
0
40
0
40
0
40
0.25
40
0.25
40
0.5
40
0.5
40
0.75
40
0.75
40
1
40
1
40
1
40
1
41
1
10
81.7
20
5.42058782100889
30
0
41
1
10
81.767126733213
20
5.64718791496227
30
0
41
1
10
81.8342534664258
20
5.84628095928187
30
0
41
1
10
81.9685069328516
20
6.18434575658659
30
0
41
1
10
82.0356336660645
20
6.32332893714548
30
0
41
1
10
82.1698871324903
20
6.54133073977354
30
0
41
1
10
82.2370138657031
20
6.62038937174131
30
0
41
1
10
82.3712673321289
20
6.7231978476353
30
0
41
1
10
82.4383940653419
20
6.74700000000001
30
0
41
1
10
82.5055207985547
20
6.74700000000001
30
0
0
SPLINE
5
E4
100
AcDbEntity
8
1
62
256
6
ByLayer
370
13
48
1
60
0
100
AcDbSpline
70
4
71
3
72
74
73
70
40
0
40
0
40
0
40
0
40
0.0312499999999996
40
0.0312499999999996
40
0.0624999999999993
40
0.0624999999999993
40
0.0937499999999989
40
0.0937499999999989
40
0.124999999999999
40
0.124999999999999
40
0.156249999999998
40
0.156249999999998
40
0.187499999999998
40
0.187499999999998
40
0.218749999999997
40
0.218749999999997
40
0.249999999999997
40
0.249999999999997
40
0.281249999999997
40
0.281249999999997
40
0.312499999999996
40
0.312499999999996
40
0.343749999999996
40
0.343749999999996
40
0.374999999999995
40
0.374999999999995
40
0.406249999999995
40
0.406249999999995
40
0.437499999999994
40
0.437499999999994
40
0.453124999999994
40
0.453124999999994
40
0.468749999999994
40
0.468749999999994
40
0.499999999999994
40
0.499999999999994
40
0.531249999999994
40
0.531249999999994
40
0.562499999999994
40
0.562499999999994
40
0.593749999999995
40
0.593749999999995
40
0.624999999999995
40
0.624999999999995
40
0.656249999999995
40
0.656249999999995
40
0.687499999999996
40
0.687499999999996
40
0.718749999999996
40
0.718749999999996
40
0.749999999999996
40
0.749999999999996
40
0.781249999999996
40
0.781249999999996
40
0.812499999999997
40
0.812499999999997
40
0.843749999999997
40
0.843749999999997
40
0.874999999999997
40
0.874999999999997
40
0.906249999999997
40
0.906249999999997
40
0.921874999999998
40
0.921874999999998
40
0.937499999999998
40
0.937499999999998
40
0.968749999999999
40
0.968749999999999
40
1
40
1
40
1
40
1
41
1
10
85.2193866037476
20
6.74700000000001
30
0
41
1
10
85.2644377102649
20
6.74700000000001
30
0
41
1
10
85.3094888167822
20
6.73630214076266
30
0
41
1
10
85.3995910298166
20
6.69110219971265
30
0
41
1
10
85.444642136334
20
6.65659288031543
30
0
41
1
10
85.5347443493686
20
6.56185547128652
30
0
41
1
10
85.5797954558858
20
6.50162051100924
30
0
41
1
10
85.6698976689203
20
6.35423992260624
30
0
41
1
10
85.7149487754376
20
6.26708882393513
30
0
41
1
10
85.8050509884721
20
6.06559597267483
30
0
41
1
10
85.8501020949894
20
5.95125118570672
30
0
41
1
10
85.940204308024
20
5.69613438552531
30
0
41
1
10
85.9852554145413
20
5.5553625661021
30
0
41
1
10
86.0753576275758
20
5.24924387319749
30
0
41
1
10
86.1204087340931
20
5.08390073331179
30
0
41
1
10
86.2105109471277
20
4.73152205686787
30
0
41
1
10
86.2555620536448
20
4.54449348720294
30
0
41
1
10
86.3456642666795
20
4.15249476903935
30
0
41
1
10
86.3907153731967
20
3.94753392166226
30
0
41
1
10
86.4808175862314
20
3.52404159421567
30
0
41
1
10
86.5258686927485
20
3.3055204523246
30
0
41
1
10
86.6159709057831
20
2.85959871390833
30
0
41
1
10
86.6610220123005
20
2.63220809820251
30
0
41
1
10
86.7511242253349
20
2.1732486600302
30
0
41
1
10
86.7961753318522
20
1.94168827369097
30
0
41
1
10
86.8862775448869
20
1.47882004518885
30
0
41
1
10
86.931328651404
20
1.2475183266335
30
0
41
1
10
87.0214308644386
20
0.78910674960278
30
0
41
1
10
87.0664819709559
20
0.562000426204833
30
0
41
1
10
87.1340586307317
20
0.226961617030554
30
0
41
1
10
87.1565841839904
20
0.116213504694372
30
0
41
1
10
87.2016352905076
20
-0.103073155723848
30
0
41
1
10
87.2241608437664
20
-0.21365358457345
30
0
41
1
10
87.2917375035422
20
-0.548468639003346
30
0
41
1
10
87.3367886100596
20
-0.775455239322525
30
0
41
1
10
87.426890823094
20
-1.2336998307681
30
0
41
1
10
87.4719419296114
20
-1.46495433816844
30
0
41
1
10
87.562044142646
20
-1.92781216934935
30
0
41
1
10
87.6070952491632
20
-2.15940942014808
30
0
41
1
10
87.6971974621977
20
-2.61853452319022
30
0
41
1
10
87.742248568715
20
-2.84605397960559
30
0
41
1
10
87.8323507817495
20
-3.29232819033254
30
0
41
1
10
87.8774018882668
20
-3.51107298419385
30
0
41
1
10
87.9675041013014
20
-3.9351042593463
30
0
41
1
10
88.0125552078187
20
-4.14038039616983
30
0
41
1
10
88.1026574208532
20
-4.53309195466181
30
0
41
1
10
88.1477085273705
20
-4.72051804093294
30
0
41
1
10
88.2378107404051
20
-5.07375900393731
30
0
41
1
10
88.2828618469222
20
-5.23956685659587
30
0
41
1
10
88.3729640599568
20
-5.5466629922513
30
0
41
1
10
88.4180151664741
20
-5.68794747192044
30
0
41
1
10
88.5081173795087
20
-5.94411609351127
30
0
41
1
10
88.5531684860259
20
-6.05899997204986
30
0
41
1
10
88.6432706990604
20
-6.26157585072053
30
0
41
1
10
88.6883218055777
20
-6.34927082724499
30
0
41
1
10
88.7784240186123
20
-6.49772417423694
30
0
41
1
10
88.8234751251296
20
-6.55848797633743
30
0
41
1
10
88.913577338164
20
-6.65425152372177
30
0
41
1
10
88.9586284446814
20
-6.68925812216773
30
0
41
1
10
89.048730657716
20
-6.73540867142387
30
0
41
1
10
89.0937817642333
20
-6.74655986159712
30
0
41
1
10
89.1613584240092
20
-6.74720086751654
30
0
41
1
10
89.1838839772678
20
-6.74474861032832
30
0
41
1
10
89.228935083785
20
-6.73420116143677
30
0
41
1
10
89.2514606370437
20
-6.72610525200696
30
0
41
1
10
89.3190372968196
20
-6.69291694307771
30
0
41
1
10
89.3640884033369
20
-6.65890413141889
30
0
41
1
10
89.4541906163714
20
-6.56519160740606
30
0
41
1
10
89.4992417228887
20
-6.50548500734169
30
0
41
1
10
89.5442928294059
20
-6.43233079378041
30
0
0
SPLINE
5
E5
100
AcDbEntity
8
1
62
256
6
ByLayer
370
13
48
1
60
0
100
AcDbSpline
70
4
71
3
72
10
73
6
40
0
40
0
40
0
40
0
40
0.5
40
0.5
40
1
40
1
40
1
40
1
41
1
10
81.7
20
6.57288125761812
30
0
41
1
10
81.7504585566275
20
6.63288512313824
30
0
41
1
10
81.8009171132547
20
6.67652312606552
30
0
41
1
10
81.9018342265096
20
6.7335741906881
30
0
41
1
10
81.9522927831368
20
6.74700000000001
30
0
41
1
10
82.0027513397642
20
6.74700000000001
30
0
0
SPLINE
5
E6
100
AcDbEntity
8
1
62
256
6
ByLayer
370
13
48
1
60
0
100
AcDbSpline
70
4
71
3
72
70
73
66
40
0
40
0
40
0
40
0
40
0.03125
40
0.03125
40
0.0625
40
0.0625
40
0.09375
40
0.09375
40
0.125
40
0.125
40
0.15625
40
0.15625
40
0.1875
40
0.1875
40
0.21875
40
0.21875
40
0.25
40
0.25
40
0.28125
40
0.28125
40
0.3125
40
0.3125
40
0.34375
40
0.34375
40
0.375
40
0.375
40
0.40625
40
0.40625
40
0.4375
40
0.4375
40
0.46875
40
0.46875
40
0.5
40
0.5
40
0.53125
40
0.53125
40
0.5625
40
0.5625
40
0.59375
40
0.59375
40
0.625
40
0.625
40
0.65625
40
0.65625
40
0.6875
40
0.6875
40
0.71875
40
0.71875
40
0.75
40
0.75
40
0.78125
40
0.78125
40
0.8125
40
0.8125
40
0.84375
40
0.84375
40
0.875
40
0.875
40
0.90625
40
0.90625
40
0.9375
40
0.9375
40
0.96875
40
0.96875
40
1
40
1
40
1
40
1
41
1
10
84.7166171449571
20
6.74700000000001
30
0
41
1
10
84.7669054333368
20
6.74700000000001
30
0
41
1
10
84.8171937217165
20
6.73366483813854
30
0
41
1
10
84.9177702984759
20
6.67700899144336
30
0
41
1
10
84.9680585868555
20
6.63367577195959
30
0
41
1
10
85.0686351636149
20
6.51451202086577
30
0
41
1
10
85.1189234519946
20
6.43867000185662
30
0
41
1
10
85.2195000287539
20
6.25317191013639
30
0
41
1
10
85.2697883171336
20
6.14350765774259
30
0
41
1
10
85.370364893893
20
5.89054737050898
30
0
41
1
10
85.4206531822726
20
5.747248562392
30
0
41
1
10
85.5212297590319
20
5.42887242411615
30
0
41
1
10
85.5715180474116
20
5.25379899535281
30
0
41
1
10
85.672094624171
20
4.87538474903744
30
0
41
1
10
85.7223829125506
20
4.67205441665698
30
0
41
1
10
85.8229594893099
20
4.24207773558209
30
0
41
1
10
85.8732477776897
20
4.01544688295803
30
0
41
1
10
85.973824354449
20
3.54486359519905
30
0
41
1
10
86.0241126428288
20
3.30092900158885
30
0
41
1
10
86.1246892195881
20
2.80226456168572
30
0
41
1
10
86.1749775079677
20
2.54755190535866
30
0
41
1
10
86.2755540847271
20
2.03385251964645
30
0
41
1
10
86.3258423731068
20
1.77487981330785
30
0
41
1
10
86.4264189498661
20
1.2586991480394
30
0
41
1
10
86.4767072382458
20
1.00150056072903
30
0
41
1
10
86.5772838150051
20
0.494068993809293
30
0
41
1
10
86.6275721033848
20
0.243865229114391
30
0
41
1
10
86.7281486801442
20
-0.245519941934447
30
0
41
1
10
86.7784369685238
20
-0.495769314876981
30
0
41
1
10
86.8790135452832
20
-1.00323189453206
30
0
41
1
10
86.9293018336629
20
-1.26044068910338
30
0
41
1
10
87.0298784104223
20
-1.77662901469509
30
0
41
1
10
87.0801666988019
20
-2.03559916283513
30
0
41
1
10
87.1807432755613
20
-2.54927913320609
30
0
41
1
10
87.2310315639409
20
-2.80397492313747
30
0
41
1
10
87.3316081407003
20
-3.30259073728064
30
0
41
1
10
87.3818964290799
20
-3.54649356691613
30
0
41
1
10
87.4824730058393
20
-4.01699900835291
30
0
41
1
10
87.532761294219
20
-4.24358378050863
30
0
41
1
10
87.6333378709784
20
-4.67345577237467
30
0
41
1
10
87.6836261593579
20
-4.87672750459794
30
0
41
1
10
87.7842027361173
20
-5.25501486995549
30
0
41
1
10
87.834491024497
20
-5.43002003151139
30
0
41
1
10
87.9350676012564
20
-5.74825351891556
30
0
41
1
10
87.985355889636
20
-5.89147795888397
30
0
41
1
10
88.0859324663953
20
-6.14428722460698
30
0
41
1
10
88.1362207547751
20
-6.25387483768512
30
0
41
1
10
88.2367973315344
20
-6.43922100754565
30
0
41
1
10
88.2870856199141
20
-6.51498775401265
30
0
41
1
10
88.3876621966735
20
-6.63400539997909
30
0
41
1
10
88.4379504850531
20
-6.67726779172153
30
0
41
1
10
88.5385270618125
20
-6.73378872172756
30
0
41
1
10
88.5888153501921
20
-6.74705981290884
30
0
41
1
10
88.6893919269514
20
-6.74693978124952
30
0
41
1
10
88.7396802153311
20
-6.73354051333371
30
0
41
1
10
88.8402567920905
20
-6.67674971989356
30
0
41
1
10
88.8905450804702
20
-6.63334565975057
30
0
41
1
10
88.9911216572295
20
-6.51403578379305
30
0
41
1
10
89.0414099456093
20
-6.43811848543501
30
0
41
1
10
89.1419865223687
20
-6.2524684659154
30
0
41
1
10
89.1922748107482
20
-6.14272757508391
30
0
41
1
10
89.2928513875075
20
-5.88961627666708
30
0
41
1
10
89.3431396758873
20
-5.74624310985757
30
0
41
1
10
89.4437162526466
20
-5.4277243481356
30
0
41
1
10
89.4940045410262
20
-5.25258267013405
30
0
41
1
10
89.5442928294059
20
-5.06331212816505
30
0
0
SPLINE
5
E7
100
AcDbEntity
8
1
62
256
6
ByLayer
370
13
48
1
60
0
100
AcDbSpline
70
4
71
3
72
78
73
74
40
0
40
0
40
0
40
0
40
0.03125
40
0.03125
40
0.0625
40
0.0625
40
0.09375
40
0.09375
40
0.125
40
0.125
40
0.15625
40
0.15625
40
0.1875
40
0.1875
40
0.21875
40
0.21875
40
0.25
40
0.25
40
0.28125
40
0.28125
40
0.3125
40
0.3125
40
0.34375
40
0.34375
40
0.359375
40
0.359375
40
0.3671875
40
0.3671875
40
0.375000000000001
40
0.375000000000001
40
0.406250000000001
40
0.406250000000001
40
0.437500000000001
40
0.437500000000001
40
0.468750000000001
40
0.468750000000001
40
0.500000000000001
40
0.500000000000001
40
0.531250000000001
40
0.531250000000001
40
0.562500000000001
40
0.562500000000001
40
0.593750000000001
40
0.593750000000001
40
0.625000000000001
40
0.625000000000001
40
0.656250000000001
40
0.656250000000001
40
0.687500000000001
40
0.687500000000001
40
0.718750000000001
40
0.718750000000001
40
0.734375000000001
40
0.734375000000001
40
0.7421875
40
0.7421875
40
0.75
40
0.75
40
0.78125
40
0.78125
40
0.8125
40
0.8125
40
0.84375
40
0.84375
40
0.875
40
0.875
40
0.90625
40
0.90625
40
0.9375
40
0.9375
40
0.96875
40
0.96875
40
1
40
1
40
1
40
1
41
1
10
84.2138476861667
20
6.74700000000001
30
0
41
1
10
84.2693731564088
20
6.74699999999999
30
0
41
1
10
84.324898626651
20
6.73073499526211
30
0
41
1
10
84.435949567135
20
6.66126074724326
30
0
41
1
10
84.4914750373771
20
6.60803098642171
30
0
41
1
10
84.6025259778613
20
6.46146118993894
30
0
41
1
10
84.6580514481034
20
6.36810316044054
30
0
41
1
10
84.7691023885876
20
6.13999122515168
30
0
41
1
10
84.8246278588296
20
6.00522637406377
30
0
41
1
10
84.9356787993137
20
5.69534736771206
30
0
41
1
10
84.9912042695558
20
5.52023309864529
30
0
41
1
10
85.10225521004
20
5.13321303285116
30
0
41
1
10
85.157780680282
20
4.92131942710546
30
0
41
1
10
85.2688316207662
20
4.46663131631311
30
0
41
1
10
85.3243570910082
20
4.22385955487155
30
0
41
1
10
85.4354080314923
20
3.71510456119591
30
0
41
1
10
85.4909335017344
20
3.44915000125624
30
0
41
1
10
85.6019844422186
20
2.90272625443285
30
0
41
1
10
85.6575099124608
20
2.62228573250087
30
0
41
1
10
85.7685608529448
20
2.05571091334352
30
0
41
1
10
85.8240863231869
20
1.76960001972043
30
0
41
1
10
85.9351372636711
20
1.19982936768352
30
0
41
1
10
85.9906627339132
20
0.916184644371185
30
0
41
1
10
86.0739509392762
20
0.49771793215092
30
0
41
1
10
86.1017136743974
20
0.359384531954106
30
0
41
1
10
86.1433577770789
20
0.154151967833911
30
0
41
1
10
86.1572391446393
20
0.0861182483430696
30
0
41
1
10
86.1850018797603
20
-0.04911542765268
30
0
41
1
10
86.198883247321
20
-0.116870361039702
30
0
41
1
10
86.2682900851235
20
-0.458229931273564
30
0
41
1
10
86.3238155553656
20
-0.737533917118611
30
0
41
1
10
86.4348664958497
20
-1.30255166574852
30
0
41
1
10
86.4903919660919
20
-1.58825534443707
30
0
41
1
10
86.601442906576
20
-2.1585783750171
30
0
41
1
10
86.656968376818
20
-2.44317867080261
30
0
41
1
10
86.7680193173022
20
-3.00276973320743
30
0
41
1
10
86.8235447875443
20
-3.27773416909668
30
0
41
1
10
86.9345957280284
20
-3.80918721507183
30
0
41
1
10
86.9901211982705
20
-4.06564642041414
30
0
41
1
10
87.1011721387546
20
-4.55173621611254
30
0
41
1
10
87.1566976089968
20
-4.7813401247177
30
0
41
1
10
87.2677485494809
20
-5.20674465889195
30
0
41
1
10
87.3232740197229
20
-5.40252691022857
30
0
41
1
10
87.4343249602071
20
-5.75538790677277
30
0
41
1
10
87.4898504304491
20
-5.91246003650423
30
0
41
1
10
87.6009013709333
20
-6.18546047791037
30
0
41
1
10
87.6564268411754
20
-6.30139417910559
30
0
41
1
10
87.7674777816596
20
-6.49215355108862
30
0
41
1
10
87.8230032519017
20
-6.56699392153709
30
0
41
1
10
87.9340541923858
20
-6.67776443907246
30
0
41
1
10
87.9895796626279
20
-6.71371427385802
30
0
41
1
10
88.072867867991
20
-6.74132620785659
30
0
41
1
10
88.100630603112
20
-6.74615549056804
30
0
41
1
10
88.1422747057935
20
-6.74726988031526
30
0
41
1
10
88.1561560733541
20
-6.74662940869106
30
0
41
1
10
88.1839188084751
20
-6.74326307860326
30
0
41
1
10
88.1978001760357
20
-6.74053513950102
30
0
41
1
10
88.2672070138382
20
-6.72149239403024
30
0
41
1
10
88.3227324840803
20
-6.68892077926719
30
0
41
1
10
88.4337834245645
20
-6.58519792606114
30
0
41
1
10
88.4893088948065
20
-6.51402677245343
30
0
41
1
10
88.6003598352908
20
-6.33072491826303
30
0
41
1
10
88.6558853055328
20
-6.21857887207182
30
0
41
1
10
88.7669362460169
20
-5.95305894581043
30
0
41
1
10
88.8224617162589
20
-5.79967867875592
30
0
41
1
10
88.933512656743
20
-5.45387605750358
30
0
41
1
10
88.9890381269851
20
-5.26145918311545
30
0
41
1
10
89.1000890674692
20
-4.84224577499987
30
0
41
1
10
89.1556145377115
20
-4.61546664109582
30
0
41
1
10
89.2666654781956
20
-4.13432161041538
30
0
41
1
10
89.3221909484376
20
-3.87998184920102
30
0
41
1
10
89.4332418889217
20
-3.35197062064188
30
0
41
1
10
89.4887673591639
20
-3.07832856153911
30
0
41
1
10
89.5442928294059
20
-2.79945138119442
30
0
0
SPLINE
5
E8
100
AcDbEntity
8
1
62
256
6
ByLayer
370
13
48
1
60
0
100
AcDbSpline
70
4
71
3
72
78
73
74
40
0
40
0
40
0
40
0
40
0.0312499999999993
40
0.0312499999999993
40
0.0624999999999986
40
0.0624999999999986
40
0.0937499999999978
40
0.0937499999999978
40
0.124999999999997
40
0.124999999999997
40
0.156249999999996
40
0.156249999999996
40
0.187499999999996
40
0.187499999999996
40
0.218749999999995
40
0.218749999999995
40
0.249999999999994
40
0.249999999999994
40
0.281249999999993
40
0.281249999999993
40
0.312499999999993
40
0.312499999999993
40
0.328124999999992
40
0.328124999999992
40
0.335937499999993
40
0.335937499999993
40
0.343749999999993
40
0.343749999999993
40
0.374999999999992
40
0.374999999999992
40
0.406249999999991
40
0.406249999999991
40
0.43749999999999
40
0.43749999999999
40
0.46874999999999
40
0.46874999999999
40
0.499999999999989
40
0.499999999999989
40
0.531249999999988
40
0.531249999999988
40
0.562499999999987
40
0.562499999999987
40
0.593749999999987
40
0.593749999999987
40
0.624999999999986
40
0.624999999999986
40
0.656249999999985
40
0.656249999999985
40
0.671874999999985
40
0.671874999999985
40
0.679687499999985
40
0.679687499999985
40
0.687499999999985
40
0.687499999999985
40
0.718749999999986
40
0.718749999999986
40
0.749999999999988
40
0.749999999999988
40
0.781249999999989
40
0.781249999999989
40
0.812499999999991
40
0.812499999999991
40
0.843749999999992
40
0.843749999999992
40
0.874999999999994
40
0.874999999999994
40
0.906249999999995
40
0.906249999999995
40
0.937499999999997
40
0.937499999999997
40
0.968749999999998
40
0.968749999999998
40
1
40
1
40
1
40
1
41
1
10
83.7110782273764
20
6.74700000000001
30
0
41
1
10
83.7718408794809
20
6.74700000000001
30
0
41
1
10
83.8326035315852
20
6.72751160303474
30
0
41
1
10
83.9541288357941
20
6.64383873272351
30
0
41
1
10
84.0148914878988
20
6.57962220579029
30
0
41
1
10
84.1364167921078
20
6.40264096822335
30
0
41
1
10
84.1971794442121
20
6.28984963080183
30
0
41
1
10
84.3187047484211
20
6.01470523750987
30
0
41
1
10
84.3794674005256
20
5.85233937753378
30
0
41
1
10
84.5009927047345
20
5.48049452552243
30
0
41
1
10
84.5617553568389
20
5.2710226336456
30
0
41
1
10
84.6832806610479
20
4.8109814501602
30
0
41
1
10
84.7440433131524
20
4.56043970817106
30
0
41
1
10
84.8655686173613
20
4.02731755507114
30
0
41
1
10
84.9263312694658
20
3.74477911223505
30
0
41
1
10
85.0478565736747
20
3.15869325400479
30
0
41
1
10
85.1086192257793
20
2.85519178180198
30
0
41
1
10
85.2301445299883
20
2.23881901278458
30
0
41
1
10
85.2909071820927
20
1.92598702072237
30
0
41
1
10
85.4124324863016
20
1.30188388663666
30
0
41
1
10
85.4731951384061
20
0.990638462378826
30
0
41
1
10
85.5643391165628
20
0.531859350088268
30
0
41
1
10
85.5947204426151
20
0.380265471969295
30
0
41
1
10
85.6402924316934
20
0.155580122546297
30
0
41
1
10
85.6554830947195
20
0.0811347911824214
30
0
41
1
10
85.6858644207718
20
-0.0667521998647089
30
0
41
1
10
85.7010550837979
20
-0.141073426517409
30
0
41
1
10
85.7770083989285
20
-0.515256430066529
30
0
41
1
10
85.837771051033
20
-0.821944176920198
30
0
41
1
10
85.9592963552419
20
-1.44193616101722
30
0
41
1
10
86.0200590073464
20
-1.75522269860139
30
0
41
1
10
86.1415843115554
20
-2.37829547300683
30
0
41
1
10
86.2023469636598
20
-2.68804887536052
30
0
41
1
10
86.3238722678688
20
-3.29265425585317
30
0
41
1
10
86.3846349199733
20
-3.58746255589117
30
0
41
1
10
86.5061602241822
20
-4.15066196895185
30
0
41
1
10
86.5669228762866
20
-4.41900763962565
30
0
41
1
10
86.6884481804956
20
-4.91902724433717
30
0
41
1
10
86.7492108326001
20
-5.1506650682569
30
0
41
1
10
86.870736136809
20
-5.56954188727403
30
0
41
1
10
86.9314987889135
20
-5.75676286561878
30
0
41
1
10
87.0530240931224
20
-6.08244788381973
30
0
41
1
10
87.1137867452269
20
-6.22091492216703
30
0
41
1
10
87.2353120494359
20
-6.44833306990299
30
0
41
1
10
87.2960747015404
20
-6.53730465974095
30
0
41
1
10
87.4176000057493
20
-6.66820077396503
30
0
41
1
10
87.4783626578537
20
-6.71015560260167
30
0
41
1
10
87.5695066360105
20
-6.74147982396687
30
0
41
1
10
87.5998879620628
20
-6.74666920408865
30
0
41
1
10
87.6454599511411
20
-6.74714239326784
30
0
41
1
10
87.6606506141673
20
-6.74608786367082
30
0
41
1
10
87.6910319402195
20
-6.74145925404105
30
0
41
1
10
87.7062226032456
20
-6.73788475332066
30
0
41
1
10
87.7821759183762
20
-6.71347936810091
30
0
41
1
10
87.8429385704808
20
-6.67297747031446
30
0
41
1
10
87.9644638746896
20
-6.54511339189759
30
0
41
1
10
88.0252265267941
20
-6.45772073264601
30
0
41
1
10
88.146751831003
20
-6.23349418929183
30
0
41
1
10
88.2075144831075
20
-6.09663937341909
30
0
41
1
10
88.3290397873164
20
-5.77409956488287
30
0
41
1
10
88.3898024394209
20
-5.58841092050017
30
0
41
1
10
88.5113277436299
20
-5.1724029885288
30
0
41
1
10
88.5720903957343
20
-4.94210104519792
30
0
41
1
10
88.6936156999433
20
-4.44445798262996
30
0
41
1
10
88.7543783520478
20
-4.17715249967614
30
0
41
1
10
88.8759036562568
20
-3.61567393148425
30
0
41
1
10
88.9366663083612
20
-3.32154615955807
30
0
41
1
10
89.0581916125701
20
-2.71792261178993
30
0
41
1
10
89.1189542646746
20
-2.40847073464764
30
0
41
1
10
89.2404795688835
20
-1.7856452153589
30
0
41
1
10
89.3012422209881
20
-1.4723048556348
30
0
41
1
10
89.4227675251971
20
-0.851905391729559
30
0
41
1
10
89.4835301773014
20
-0.544864491071962
30
0
41
1
10
89.5442928294059
20
-0.245051790668668
30
0
0
SPLINE
5
E9
100
AcDbEntity
8
1
62
256
6
ByLayer
370
13
48
1
60
0
100
AcDbSpline
70
4
71
3
72
84
73
80
40
0
40
0
40
0
40
0
40
0.0312499999999977
40
0.0312499999999977
40
0.0624999999999954
40
0.0624999999999954
40
0.0937499999999931
40
0.0937499999999931
40
0.124999999999991
40
0.124999999999991
40
0.156249999999989
40
0.156249999999989
40
0.187499999999986
40
0.187499999999986
40
0.218749999999984
40
0.218749999999984
40
0.249999999999982
40
0.249999999999982
40
0.281249999999979
40
0.281249999999979
40
0.296874999999978
40
0.296874999999978
40
0.304687499999978
40
0.304687499999978
40
0.312499999999978
40
0.312499999999978
40
0.343749999999977
40
0.343749999999977
40
0.374999999999976
40
0.374999999999976
40
0.406249999999975
40
0.406249999999975
40
0.437499999999975
40
0.437499999999975
40
0.468749999999974
40
0.468749999999974
40
0.499999999999973
40
0.499999999999973
40
0.531249999999972
40
0.531249999999972
40
0.562499999999971
40
0.562499999999971
40
0.593749999999971
40
0.593749999999971
40
0.60937499999997
40
0.60937499999997
40
0.61718749999997
40
0.61718749999997
40
0.62109374999997
40
0.62109374999997
40
0.62499999999997
40
0.62499999999997
40
0.656249999999973
40
0.656249999999973
40
0.687499999999976
40
0.687499999999976
40
0.718749999999979
40
0.718749999999979
40
0.749999999999982
40
0.749999999999982
40
0.781249999999985
40
0.781249999999985
40
0.812499999999987
40
0.812499999999987
40
0.84374999999999
40
0.84374999999999
40
0.874999999999993
40
0.874999999999993
40
0.906249999999996
40
0.906249999999996
40
0.921874999999998
40
0.921874999999998
40
0.929687499999998
40
0.929687499999998
40
0.937499999999998
40
0.937499999999998
40
0.968749999999999
40
0.968749999999999
40
1
40
1
40
1
40
1
41
1
10
83.2083087685859
20
6.74700000000001
30
0
41
1
10
83.2743086025528
20
6.74700000000001
30
0
41
1
10
83.3403084365196
20
6.72399350112053
30
0
41
1
10
83.4723081044534
20
6.62472497729001
30
0
41
1
10
83.5383079384203
20
6.54841480807707
30
0
41
1
10
83.6703076063541
20
6.33800196457588
30
0
41
1
10
83.736307440321
20
6.20386186695634
30
0
41
1
10
83.8683071082546
20
5.87738823800919
30
0
41
1
10
83.9343069422215
20
5.68504258141479
30
0
41
1
10
84.0663066101553
20
5.24669043588077
30
0
41
1
10
84.1323064441222
20
5.00070574295981
30
0
41
1
10
84.2643061120559
20
4.46442041270407
30
0
41
1
10
84.3303059460228
20
4.17417234486999
30
0
41
1
10
84.4623056139566
20
3.56237695127649
30
0
41
1
10
84.5283054479235
20
3.24089818745148
30
0
41
1
10
84.6603051158572
20
2.58144687988417
30
0
41
1
10
84.7263049498241
20
2.24353928918094
30
0
41
1
10
84.8583046177578
20
1.56574593285003
30
0
41
1
10
84.9243044517247
20
1.22590603845296
30
0
41
1
10
85.0233042026749
20
0.724045699313649
30
0
41
1
10
85.0563041196584
20
0.558055574488947
30
0
41
1
10
85.1058039951336
20
0.311976673009866
30
0
41
1
10
85.1223039536253
20
0.230433222211531
30
0
41
1
10
85.1553038706087
20
0.0684534462122031
30
0
41
1
10
85.1718038291006
20
-0.0115958918350714
30
0
41
1
10
85.2543036215591
20
-0.41522447006065
30
0
41
1
10
85.320303455526
20
-0.747360502774114
30
0
41
1
10
85.4523031234596
20
-1.42003819676583
30
0
41
1
10
85.5183029574266
20
-1.76055430055752
30
0
41
1
10
85.6503026253604
20
-2.43704545314193
30
0
41
1
10
85.7163024593272
20
-2.77297020067024
30
0
41
1
10
85.8483021272608
20
-3.42559095450801
30
0
41
1
10
85.9143019612278
20
-3.74221988665022
30
0
41
1
10
86.0463016291616
20
-4.34162210180702
30
0
41
1
10
86.1123014631285
20
-4.6243283824993
30
0
41
1
10
86.2443011310622
20
-5.14340211851777
30
0
41
1
10
86.310300965029
20
-5.37972203927743
30
0
41
1
10
86.4423006329628
20
-5.79747472913564
30
0
41
1
10
86.5083004669297
20
-5.97889234751412
30
0
41
1
10
86.6403001348634
20
-6.28320707336292
30
0
41
1
10
86.7062999688304
20
-6.40612209456316
30
0
41
1
10
86.8382996367641
20
-6.59466213807059
30
0
41
1
10
86.904299470731
20
-6.66032781393719
30
0
41
1
10
87.0032992216814
20
-6.7197349581599
30
0
41
1
10
87.0362991386647
20
-6.73304866730894
30
0
41
1
10
87.0857990141399
20
-6.74395609081108
30
0
41
1
10
87.1022989726316
20
-6.74608246448932
30
0
41
1
10
87.1270489103691
20
-6.74709997970254
30
0
41
1
10
87.135298889615
20
-6.74707928862722
30
0
41
1
10
87.1517988481068
20
-6.74631680799905
30
0
41
1
10
87.1600488273526
20
-6.74557315258747
30
0
41
1
10
87.2342986405653
20
-6.73554865757282
30
0
41
1
10
87.3002984745322
20
-6.70285567445498
30
0
41
1
10
87.432298142466
20
-6.58308581764987
30
0
41
1
10
87.4982979764329
20
-6.49596169151874
30
0
41
1
10
87.6302976443666
20
-6.26348982527503
30
0
41
1
10
87.6962974783335
20
-6.118108447125
30
0
41
1
10
87.8282971462672
20
-5.76962654081584
30
0
41
1
10
87.8942969802341
20
-5.56652001010013
30
0
41
1
10
88.0262966481679
20
-5.10808168364082
30
0
41
1
10
88.0922964821347
20
-4.85277821421315
30
0
41
1
10
88.2242961500685
20
-4.30010970758804
30
0
41
1
10
88.2902959840354
20
-4.00280171280562
30
0
41
1
10
88.4222956519691
20
-3.37964278354127
30
0
41
1
10
88.488295485936
20
-3.0538612256959
30
0
41
1
10
88.6202951538697
20
-2.38866168591207
30
0
41
1
10
88.6862949878366
20
-2.04930595422354
30
0
41
1
10
88.8182946557703
20
-1.37120437952015
30
0
41
1
10
88.8842944897372
20
-1.03249975966378
30
0
41
1
10
88.9832942406876
20
-0.533891562492158
30
0
41
1
10
89.016294157671
20
-0.369242192405551
30
0
41
1
10
89.0657940331461
20
-0.125502475899282
30
0
41
1
10
89.0822939916378
20
-0.0450651236989472
30
0
41
1
10
89.1152939086212
20
0.115843321184968
30
0
41
1
10
89.1317938671129
20
0.196882197654446
30
0
41
1
10
89.2142936595716
20
0.604661321953699
30
0
41
1
10
89.2802934935385
20
0.939277271778735
30
0
41
1
10
89.4122931614722
20
1.61463870563332
30
0
41
1
10
89.4782929954391
20
1.95535376168598
30
0
41
1
10
89.5442928294059
20
2.29243814643155
30
0
0
SPLINE
5
EA
100
AcDbEntity
8
1
62
256
6
ByLayer
370
13
48
1
60
0
100
AcDbSpline
70
4
71
3
72
85
73
81
40
0
40
0
40
0
40
0
40
0.0312499999999992
40
0.0312499999999992
40
0.0624999999999984
40
0.0624999999999984
40
0.0937499999999976
40
0.0937499999999976
40
0.124999999999997
40
0.124999999999997
40
0.156249999999996
40
0.156249999999996
40
0.187499999999995
40
0.187499999999995
40
0.218749999999994
40
0.218749999999994
40
0.249999999999994
40
0.249999999999994
40
0.281249999999993
40
0.281249999999993
40
0.285156249999993
40
0.285156249999993
40
0.289062499999993
40
0.289062499999993
40
0.296874999999993
40
0.296874999999993
40
0.312499999999992
40
0.312499999999992
40
0.343749999999991
40
0.343749999999991
40
0.37499999999999
40
0.37499999999999
40
0.406249999999989
40
0.406249999999989
40
0.437499999999987
40
0.437499999999987
40
0.468749999999986
40
0.468749999999986
40
0.499999999999985
40
0.499999999999985
40
0.531249999999984
40
0.531249999999984
40
0.562499999999982
40
0.562499999999982
40
0.570312499999982
40
0.570312499999982
40
0.578124999999982
40
0.578124999999982
40
0.593749999999982
40
0.593749999999982
40
0.624999999999983
40
0.624999999999983
40
0.656249999999984
40
0.656249999999984
40
0.687499999999984
40
0.687499999999984
40
0.718749999999985
40
0.718749999999985
40
0.749999999999986
40
0.749999999999986
40
0.781249999999986
40
0.781249999999986
40
0.812499999999987
40
0.812499999999987
40
0.843749999999988
40
0.843749999999988
40
0.859374999999988
40
0.859374999999988
40
0.863281249999988
40
0.863281249999988
40
0.867187499999989
40
0.874999999999989
40
0.874999999999989
40
0.906249999999992
40
0.906249999999992
40
0.937499999999995
40
0.937499999999995
40
0.968749999999997
40
0.968749999999997
40
1
40
1
40
1
40
1
41
1
10
82.7055393097955
20
6.74700000000001
30
0
41
1
10
82.7767763256247
20
6.74700000000001
30
0
41
1
10
82.8480133414541
20
6.72017936881156
30
0
41
1
10
82.9904873731126
20
6.60390231106197
30
0
41
1
10
83.0617243889419
20
6.51437597006682
30
0
41
1
10
83.2041984206004
20
6.26750806569234
30
0
41
1
10
83.2754354364297
20
6.11011639870836
30
0
41
1
10
83.4179094680882
20
5.72818334628806
30
0
41
1
10
83.4891464839176
20
5.50363550907815
30
0
41
1
10
83.6316205155761
20
4.99483463580972
30
0
41
1
10
83.7028575314054
20
4.71062917031398
30
0
41
1
10
83.845331563064
20
4.09613989244116
30
0
41
1
10
83.9165685788932
20
3.76594545656062
30
0
41
1
10
84.0590426105517
20
3.07716356343778
30
0
41
1
10
84.130279626381
20
2.71867729244818
30
0
41
1
10
84.2727536580395
20
1.99207105883573
30
0
41
1
10
84.3439906738688
20
1.62403258735489
30
0
41
1
10
84.4864647055274
20
0.89530069150149
30
0
41
1
10
84.5577017213566
20
0.534651206599136
30
0
41
1
10
84.6378433641646
20
0.140513390843864
30
0
41
1
10
84.6467479911432
20
0.096878577645839
30
0
41
1
10
84.6645572451006
20
0.0099464772664817
30
0
41
1
10
84.6734618720792
20
-0.0333037929825082
30
0
41
1
10
84.7001757530152
20
-0.163882622424723
30
0
41
1
10
84.7179850069725
20
-0.251603402615416
30
0
41
1
10
84.7714127688446
20
-0.516509924243252
30
0
41
1
10
84.8070312767592
20
-0.695448201470441
30
0
41
1
10
84.9138868005031
20
-1.2368735041409
30
0
41
1
10
84.9851238163323
20
-1.60407798965252
30
0
41
1
10
85.127597847991
20
-2.33530557117842
30
0
41
1
10
85.1988348638202
20
-2.69925933204178
30
0
41
1
10
85.3413088954786
20
-3.40561934864513
30
0
41
1
10
85.4125459113079
20
-3.74792823502276
30
0
41
1
10
85.5550199429666
20
-4.39257951461497
30
0
41
1
10
85.6262569587958
20
-4.69482446893306
30
0
41
1
10
85.7687309904543
20
-5.24391870477095
30
0
41
1
10
85.8399680062835
20
-5.49070310955457
30
0
41
1
10
85.9824420379422
20
-5.91899334970679
30
0
41
1
10
86.0536790537715
20
-6.10048668866239
30
0
41
1
10
86.19615308543
20
-6.39507571929326
30
0
41
1
10
86.2673901012593
20
-6.5082084546456
30
0
41
1
10
86.4098641329178
20
-6.66932027284221
30
0
41
1
10
86.481101148747
20
-6.71736524214944
30
0
41
1
10
86.5701474185337
20
-6.74168322215601
30
0
41
1
10
86.587956672491
20
-6.74476846924202
30
0
41
1
10
86.6235751804056
20
-6.74753466637372
30
0
41
1
10
86.641384434363
20
-6.74723847771637
30
0
41
1
10
86.694812196235
20
-6.74124922189594
30
0
41
1
10
86.7304307041496
20
-6.73038658987318
30
0
41
1
10
86.8372862278934
20
-6.675441783971
30
0
41
1
10
86.9085232437228
20
-6.60886230471652
30
0
41
1
10
87.0509972753813
20
-6.40913194415194
30
0
41
1
10
87.1222342912106
20
-6.27592100357367
30
0
41
1
10
87.2647083228691
20
-5.94136052326485
30
0
41
1
10
87.3359453386985
20
-5.73998696854238
30
0
41
1
10
87.478419370357
20
-5.27413810111074
30
0
41
1
10
87.5496563861862
20
-5.0096914875113
30
0
41
1
10
87.6921304178449
20
-4.42931564756577
30
0
41
1
10
87.763367433674
20
-4.11346384121538
30
0
41
1
10
87.9058414653326
20
-3.44684847205727
30
0
41
1
10
87.9770784811619
20
-3.09618584524946
30
0
41
1
10
88.1195525128205
20
-2.37868289445902
30
0
41
1
10
88.1907895286497
20
-2.01193396299161
30
0
41
1
10
88.3332635603083
20
-1.28014449667481
30
0
41
1
10
88.4045005761375
20
-0.91516201111267
30
0
41
1
10
88.5113560998815
20
-0.380009119690129
30
0
41
1
10
88.5469746077961
20
-0.203648251593933
30
0
41
1
10
88.5914977426894
20
0.0133775784939587
30
0
41
1
10
88.600402369668
20
0.0566940190599325
30
0
41
1
10
88.6182116236254
20
0.143865696261884
30
0
41
1
10
88.6449255045612
20
0.275118129856679
30
0
41
1
10
88.6716393854973
20
0.407761069879797
30
0
41
1
10
88.760685655284
20
0.852534887598495
30
0
41
1
10
88.8319226711132
20
1.21692908261116
30
0
41
1
10
88.9743967027718
20
1.94848967624202
30
0
41
1
10
89.045633718601
20
2.31560030737924
30
0
41
1
10
89.1881077502596
20
3.03490579351765
30
0
41
1
10
89.2593447660888
20
3.38701068808817
30
0
41
1
10
89.4018187977474
20
4.0575632726102
30
0
41
1
10
89.4730558135767
20
4.37590969475383
30
0
41
1
10
89.5442928294059
20
4.66901663509177
30
0
0
SPLINE
5
EB
100
AcDbEntity
8
1
62
256
6
ByLayer
370
13
48
1
60
0
100
AcDbSpline
70
4
71
3
72
84
73
80
40
0
40
0
40
0
40
0
40
0.0312499999999999
40
0.0312499999999999
40
0.0624999999999998
40
0.0624999999999998
40
0.0937499999999997
40
0.0937499999999997
40
0.125
40
0.125
40
0.156249999999999
40
0.156249999999999
40
0.187499999999999
40
0.187499999999999
40
0.218749999999999
40
0.218749999999999
40
0.249999999999999
40
0.249999999999999
40
0.265624999999999
40
0.265624999999999
40
0.269531249999999
40
0.269531249999999
40
0.273437499999999
40
0.281249999999999
40
0.281249999999999
40
0.312499999999999
40
0.312499999999999
40
0.343749999999999
40
0.343749999999999
40
0.374999999999999
40
0.374999999999999
40
0.40625
40
0.40625
40
0.4375
40
0.4375
40
0.46875
40
0.46875
40
0.5
40
0.5
40
0.531250000000001
40
0.531250000000001
40
0.535156250000001
40
0.535156250000001
40
0.539062500000001
40
0.546875000000001
40
0.546875000000001
40
0.562500000000001
40
0.562500000000001
40
0.593750000000001
40
0.593750000000001
40
0.625000000000001
40
0.625000000000001
40
0.656250000000001
40
0.656250000000001
40
0.6875
40
0.6875
40
0.71875
40
0.71875
40
0.75
40
0.75
40
0.78125
40
0.78125
40
0.796875
40
0.796875
40
0.8046875
40
0.8046875
40
0.812500000000001
40
0.812500000000001
40
0.84375
40
0.84375
40
0.875
40
0.875
40
0.90625
40
0.90625
40
0.9375
40
0.9375
40
0.96875
40
0.96875
40
1
40
1
40
1
40
1
41
1
10
82.202769851005
20
6.74700000000001
30
0
41
1
10
82.2792440486967
20
6.74700000000001
30
0
41
1
10
82.3557182463885
20
6.71606771603317
30
0
41
1
10
82.5086666417718
20
6.58135440155988
30
0
41
1
10
82.5851408394634
20
6.47747477712039
30
0
41
1
10
82.7380892348468
20
6.19113704195087
30
0
41
1
10
82.8145634325385
20
6.00861499664239
30
0
41
1
10
82.9675118279218
20
5.56730356798036
30
0
41
1
10
83.0439860256135
20
5.3085218058184
30
0
41
1
10
83.1969344209969
20
4.72601463879377
30
0
41
1
10
83.2734086186886
20
4.40237765376995
30
0
41
1
10
83.4263570140719
20
3.70905315197504
30
0
41
1
10
83.5028312117636
20
3.33950456124202
30
0
41
1
10
83.6557796071469
20
2.57725733703808
30
0
41
1
10
83.7322538048386
20
2.18469503610004
30
0
41
1
10
83.8852022002219
20
1.3989885427896
30
0
41
1
10
83.9616763979136
20
1.00593440617894
30
0
41
1
10
84.0763876944511
20
0.429937368826501
30
0
41
1
10
84.114624793297
20
0.240163790218361
30
0
41
1
10
84.1624211668542
20
0.0068544762618501
30
0
41
1
10
84.1719804415658
20
-0.0395763885683778
30
0
41
1
10
84.1910989909886
20
-0.13308083879096
30
0
41
1
10
84.219776815123
20
-0.273911684740256
30
0
41
1
10
84.2484546392574
20
-0.41634903628713
30
0
41
1
10
84.3440473863719
20
-0.89414091388457
30
0
41
1
10
84.4205215840637
20
-1.2861825786446
30
0
41
1
10
84.5734699794471
20
-2.07185308025981
30
0
41
1
10
84.6499441771387
20
-2.46539753419663
30
0
41
1
10
84.8028925725221
20
-3.23184435485678
30
0
41
1
10
84.8793667702138
20
-3.60461332022416
30
0
41
1
10
85.0323151655971
20
-4.30646972826599
30
0
41
1
10
85.1087893632887
20
-4.6354160989857
30
0
41
1
10
85.2617377586721
20
-5.23007982496813
30
0
41
1
10
85.3382119563638
20
-5.49570203905114
30
0
41
1
10
85.4911603517471
20
-5.95140783297094
30
0
41
1
10
85.5676345494388
20
-6.14147583761897
30
0
41
1
10
85.7205829448222
20
-6.44275840231015
30
0
41
1
10
85.7970571425138
20
-6.5540313962961
30
0
41
1
10
85.9500055378972
20
-6.70270239359246
30
0
41
1
10
86.0264797355889
20
-6.74019750262258
30
0
41
1
10
86.112513207992
20
-6.74689210610788
30
0
41
1
10
86.1220724827034
20
-6.74714664471065
30
0
41
1
10
86.1411910321264
20
-6.74669480107403
30
0
41
1
10
86.1698688562607
20
-6.74456566916399
30
0
41
1
10
86.1985466803952
20
-6.73797186562177
30
0
41
1
10
86.2559023286639
20
-6.71855343078275
30
0
41
1
10
86.2941394275098
20
-6.6972911073147
30
0
41
1
10
86.4088507240473
20
-6.60660477723073
30
0
41
1
10
86.485324921739
20
-6.51006423221517
30
0
41
1
10
86.6382733171222
20
-6.23863770587676
30
0
41
1
10
86.714747514814
20
-6.06368264970959
30
0
41
1
10
86.8676959101973
20
-5.63689218651044
30
0
41
1
10
86.944170107889
20
-5.38505654230704
30
0
41
1
10
87.0971185032724
20
-4.81498835632814
30
0
41
1
10
87.173592700964
20
-4.49683722118613
30
0
41
1
10
87.3265410963473
20
-3.81243489077732
30
0
41
1
10
87.4030152940391
20
-3.44631996122413
30
0
41
1
10
87.5559636894224
20
-2.68869517872977
30
0
41
1
10
87.6324378871141
20
-2.29732417257185
30
0
41
1
10
87.7853862824975
20
-1.51196306340714
30
0
41
1
10
87.8618604801891
20
-1.11806856492555
30
0
41
1
10
87.9765717767267
20
-0.539642739900245
30
0
41
1
10
88.0148088755725
20
-0.348866391339954
30
0
41
1
10
88.0721645238413
20
-0.0671535487576307
30
0
41
1
10
88.0912830732642
20
0.0255215105435411
30
0
41
1
10
88.12952017211
20
0.212886242595687
30
0
41
1
10
88.1486387215329
20
0.307323288264911
30
0
41
1
10
88.2442314686475
20
0.782734130932681
30
0
41
1
10
88.3207056663392
20
1.17359589993095
30
0
41
1
10
88.4736540617225
20
1.95885609818103
30
0
41
1
10
88.5501282594142
20
2.35317591226925
30
0
41
1
10
88.7030766547975
20
3.12340050521678
30
0
41
1
10
88.7795508524892
20
3.49917520747235
30
0
41
1
10
88.9324992478725
20
4.20916667392288
30
0
41
1
10
89.0089734455642
20
4.54324073919159
30
0
41
1
10
89.1619218409476
20
5.14976558553374
30
0
41
1
10
89.2383960386393
20
5.42211482880396
30
0
41
1
10
89.3913444340226
20
5.89207256135506
30
0
41
1
10
89.4678186317142
20
6.08965746173018
30
0
41
1
10
89.5442928294059
20
6.24778079849287
30
0
0
SPLINE
5
EC
100
AcDbEntity
8
1
62
256
6
ByLayer
370
13
48
1
60
0
100
AcDbSpline
70
4
71
3
72
70
73
66
40
0
40
0
40
0
40
0
40
0.03125
40
0.03125
40
0.0625
40
0.0625
40
0.09375
40
0.09375
40
0.125
40
0.125
40
0.15625
40
0.15625
40
0.1875
40
0.1875
40
0.21875
40
0.21875
40
0.25
40
0.25
40
0.28125
40
0.28125
40
0.3125
40
0.3125
40
0.34375
40
0.34375
40
0.375
40
0.375
40
0.40625
40
0.40625
40
0.4375
40
0.4375
40
0.46875
40
0.46875
40
0.5
40
0.5
40
0.53125
40
0.53125
40
0.5625
40
0.5625
40
0.59375
40
0.59375
40
0.625
40
0.625
40
0.65625
40
0.65625
40
0.6875
40
0.6875
40
0.71875
40
0.71875
40
0.75
40
0.75
40
0.78125
40
0.78125
40
0.8125
40
0.8125
40
0.84375
40
0.84375
40
0.875
40
0.875
40
0.90625
40
0.90625
40
0.9375
40
0.9375
40
0.96875
40
0.96875
40
1
40
1
40
1
40
1
41
1
10
81.7000003922146
20
6.74700000000001
30
0
41
1
10
81.7817117717688
20
6.74700000000001
30
0
41
1
10
81.8634231513228
20
6.71165687452378
30
0
41
1
10
82.0268459104309
20
6.55706579007813
30
0
41
1
10
82.108557289985
20
6.43768234042403
30
0
41
1
10
82.2719800490931
20
6.10888109275277
30
0
41
1
10
82.3536914286473
20
5.89938571565338
30
0
41
1
10
82.5171141877555
20
5.39503193969028
30
0
41
1
10
82.5988255673095
20
5.100208044726
30
0
41
1
10
82.7622483264176
20
4.44149125583533
30
0
41
1
10
82.8439597059717
20
4.0777466551445
30
0
41
1
10
83.0073824650798
20
3.30630233561789
30
0
41
1
10
83.0890938446339
20
2.89880291584083
30
0
41
1
10
83.252516603742
20
2.06826784246866
30
0
41
1
10
83.3342279832962
20
1.64540053338101
30
0
41
1
10
83.4976507424043
20
0.810009773028781
30
0
41
1
10
83.5793621219584
20
0.397571256573116
30
0
41
1
10
83.7427848810665
20
-0.397570302403238
30
0
41
1
10
83.8244962606207
20
-0.810008778487571
30
0
41
1
10
83.9879190197288
20
-1.64539952298438
30
0
41
1
10
84.0696303992829
20
-2.06826683337172
30
0
41
1
10
84.233053158391
20
-2.89880193165354
30
0
41
1
10
84.3147645379451
20
-3.30630137509363
30
0
41
1
10
84.4781872970532
20
-4.07774576420226
30
0
41
1
10
84.5598986766073
20
-4.44149041080524
30
0
41
1
10
84.7233214357154
20
-5.10020730883568
30
0
41
1
10
84.8050328152695
20
-5.39503126695442
30
0
41
1
10
84.9684555743777
20
-5.89938517794005
30
0
41
1
10
85.0501669539318
20
-6.10888062680795
30
0
41
1
10
85.2135897130399
20
-6.43768201724569
30
0
41
1
10
85.2953010925939
20
-6.55706553782554
30
0
41
1
10
85.4587238517021
20
-6.71165675575762
30
0
41
1
10
85.5404352312563
20
-6.74699994377494
30
0
41
1
10
85.7038579903644
20
-6.74700005622495
30
0
41
1
10
85.7855693699184
20
-6.71165699328981
30
0
41
1
10
85.9489921290266
20
-6.55706604233058
30
0
41
1
10
86.0307035085807
20
-6.4376826636022
30
0
41
1
10
86.1941262676888
20
-6.10888155869745
30
0
41
1
10
86.275837647243
20
-5.89938625336657
30
0
41
1
10
86.4392604063511
20
-5.39503261242604
30
0
41
1
10
86.5209717859051
20
-5.10020878061621
30
0
41
1
10
86.6843945450133
20
-4.44149210086533
30
0
41
1
10
86.7661059245673
20
-4.07774754608664
30
0
41
1
10
86.9295286836756
20
-3.30630329614206
30
0
41
1
10
87.0112400632296
20
-2.89880390002807
30
0
41
1
10
87.1746628223377
20
-2.06826885156559
30
0
41
1
10
87.2563742018918
20
-1.64540154377764
30
0
41
1
10
87.4197969609999
20
-0.81001076757002
30
0
41
1
10
87.5015083405541
20
-0.397572234032168
30
0
41
1
10
87.6649310996622
20
0.397569371522479
30
0
41
1
10
87.7466424792162
20
0.810007783946418
30
0
41
1
10
87.9100652383244
20
1.64539851258775
30
0
41
1
10
87.9917766178786
20
2.06826582427476
30
0
41
1
10
88.1551993769867
20
2.89880094746621
30
0
41
1
10
88.2369107565407
20
3.30630041456931
30
0
41
1
10
88.4003335156489
20
4.07774487325995
30
0
41
1
10
88.482044895203
20
4.44148956577502
30
0
41
1
10
88.6454676543111
20
5.10020657294518
30
0
41
1
10
88.7271790338652
20
5.39503059421835
30
0
41
1
10
88.8906017929734
20
5.89938464022651
30
0
41
1
10
88.9723131725274
20
6.10888016086292
30
0
41
1
10
89.1357359316355
20
6.43768169406721
30
0
41
1
10
89.2174473111896
20
6.55706528557278
30
0
41
1
10
89.3808700702978
20
6.71165663699128
30
0
41
1
10
89.4625814498518
20
6.74699988754972
30
0
41
1
10
89.5442928294059
20
6.74699999999973
30
0
0
SPLINE
5
ED
100
AcDbEntity
8
1
62
256
6
ByLayer
370
13
48
1
60
0
100
AcDbSpline
70
4
71
3
72
84
73
80
40
0
40
0
40
0
40
0
40
0.0312499999999983
40
0.0312499999999983
40
0.0624999999999966
40
0.0624999999999966
40
0.0937499999999949
40
0.0937499999999949
40
0.124999999999993
40
0.124999999999993
40
0.156249999999992
40
0.156249999999992
40
0.18749999999999
40
0.18749999999999
40
0.19531249999999
40
0.19531249999999
40
0.20312499999999
40
0.20312499999999
40
0.218749999999989
40
0.218749999999989
40
0.249999999999987
40
0.249999999999987
40
0.281249999999985
40
0.281249999999985
40
0.312499999999984
40
0.312499999999984
40
0.343749999999982
40
0.343749999999982
40
0.37499999999998
40
0.37499999999998
40
0.406249999999979
40
0.406249999999979
40
0.437499999999977
40
0.437499999999977
40
0.453124999999976
40
0.453124999999976
40
0.460937499999976
40
0.464843749999976
40
0.464843749999976
40
0.468749999999976
40
0.468749999999976
40
0.499999999999975
40
0.499999999999975
40
0.531249999999975
40
0.531249999999975
40
0.562499999999974
40
0.562499999999974
40
0.593749999999974
40
0.593749999999974
40
0.624999999999974
40
0.624999999999974
40
0.656249999999973
40
0.656249999999973
40
0.687499999999973
40
0.687499999999973
40
0.718749999999972
40
0.718749999999972
40
0.726562499999973
40
0.730468749999973
40
0.730468749999973
40
0.734374999999973
40
0.734374999999973
40
0.749999999999975
40
0.749999999999975
40
0.781249999999978
40
0.781249999999978
40
0.812499999999981
40
0.812499999999981
40
0.843749999999984
40
0.843749999999984
40
0.874999999999987
40
0.874999999999987
40
0.90624999999999
40
0.90624999999999
40
0.937499999999994
40
0.937499999999994
40
0.968749999999997
40
0.968749999999997
40
1
40
1
40
1
40
1
41
1
10
81.7
20
6.24778242043166
30
0
41
1
10
81.7764742058629
20
6.08965933409596
30
0
41
1
10
81.8529484117257
20
5.89207467617876
30
0
41
1
10
82.0058968234513
20
5.42211738389713
30
0
41
1
10
82.0823710293141
20
5.14976833817323
30
0
41
1
10
82.2353194410397
20
4.54324381910374
30
0
41
1
10
82.3117936469025
20
4.2091698834069
30
0
41
1
10
82.4647420586282
20
3.49917859792745
30
0
41
1
10
82.541216264491
20
3.12340394710256
30
0
41
1
10
82.6941646762167
20
2.353179383347
30
0
41
1
10
82.7706388820794
20
1.95885954719895
30
0
41
1
10
82.923587293805
20
1.17359924711437
30
0
41
1
10
83.0000614996679
20
0.782737398558311
30
0
41
1
10
83.0956542569964
20
0.307326433512458
30
0
41
1
10
83.1147728084622
20
0.212889362224502
30
0
41
1
10
83.1530099113936
20
0.0255245769728276
30
0
41
1
10
83.1721284628592
20
-0.0671504845589936
30
0
41
1
10
83.2294841172563
20
-0.34886330897308
30
0
41
1
10
83.2677212201877
20
-0.539639650662224
30
0
41
1
10
83.3824325289819
20
-1.11806547282941
30
0
41
1
10
83.4589067348447
20
-1.51195999331776
30
0
41
1
10
83.6118551465704
20
-2.29732120081707
30
0
41
1
10
83.6883293524332
20
-2.68869228339864
30
0
41
1
10
83.8412777641588
20
-3.44631727094119
30
0
41
1
10
83.9177519700216
20
-3.81243232910418
30
0
41
1
10
84.0707003817473
20
-4.49683495646141
30
0
41
1
10
84.14717458761
20
-4.81498625979825
30
0
41
1
10
84.3001229993357
20
-5.38505480145443
30
0
41
1
10
84.3765972051984
20
-5.63689063292958
30
0
41
1
10
84.5295456169241
20
-6.06368146717924
30
0
41
1
10
84.6060198227869
20
-6.23863670695098
30
0
41
1
10
84.7589682345126
20
-6.51006357805656
30
0
41
1
10
84.8354424403753
20
-6.60660428416605
30
0
41
1
10
84.9501537491697
20
-6.69729083060366
30
0
41
1
10
84.988390852101
20
-6.71855322204064
30
0
41
1
10
85.0457465064981
20
-6.73797175213548
30
0
41
1
10
85.0744243336967
20
-6.74456560163702
30
0
41
1
10
85.1031021608953
20
-6.74669477696349
30
0
41
1
10
85.122220712361
20
-6.74714664897803
30
0
41
1
10
85.1317799880939
20
-6.74689212436431
30
0
41
1
10
85.2178134696895
20
-6.74019764841356
30
0
41
1
10
85.2942876755523
20
-6.70270265746586
30
0
41
1
10
85.4472360872778
20
-6.55403189491375
30
0
41
1
10
85.5237102931408
20
-6.44275901750828
30
0
41
1
10
85.6766587048663
20
-6.14147667103913
30
0
41
1
10
85.7531329107292
20
-5.9514087679068
30
0
41
1
10
85.9060813224548
20
-5.4957031491532
30
0
41
1
10
85.9825555283176
20
-5.23008100860426
30
0
41
1
10
86.1355039400432
20
-4.63541739336279
30
0
41
1
10
86.2119781459061
20
-4.30647105980515
30
0
41
1
10
86.3649265576317
20
-3.60461468840279
30
0
41
1
10
86.4414007634945
20
-3.23184572256233
30
0
41
1
10
86.5943491752201
20
-2.46539886897787
30
0
41
1
10
86.670823381083
20
-2.07185438269909
30
0
41
1
10
86.8237717928085
20
-1.28618379463214
30
0
41
1
10
86.9002459986714
20
-0.894142075871173
30
0
41
1
10
86.9958387559999
20
-0.416350124174301
30
0
41
1
10
87.0245165831984
20
-0.273912749899978
30
0
41
1
10
87.053194410397
20
-0.133081880656277
30
0
41
1
10
87.0723129618627
20
-0.0395774147970371
30
0
41
1
10
87.0818722375956
20
0.0068534570103225
30
0
41
1
10
87.1296686162598
20
0.240162781769016
30
0
41
1
10
87.1679057191913
20
0.429936371160096
30
0
41
1
10
87.2826170279855
20
1.00593344738513
30
0
41
1
10
87.3590912338482
20
1.39898761872428
30
0
41
1
10
87.5120396455739
20
2.18469419718585
30
0
41
1
10
87.5885138514367
20
2.57725654854247
30
0
41
1
10
87.7414622631624
20
3.3395038837308
30
0
41
1
10
87.8179364690251
20
3.70905253497557
30
0
41
1
10
87.9708848807508
20
4.40237715956118
30
0
41
1
10
88.0473590866136
20
4.72601420677699
30
0
41
1
10
88.2003074983392
20
5.30852149095634
30
0
41
1
10
88.276781704202
20
5.56730330800352
30
0
41
1
10
88.4297301159277
20
6.00861483223886
30
0
41
1
10
88.5062043217905
20
6.19113691820473
30
0
41
1
10
88.6591527335161
20
6.47747471729829
30
0
41
1
10
88.7356269393789
20
6.58135436502621
30
0
41
1
10
88.8885753511046
20
6.71606770938516
30
0
41
1
10
88.9650495569674
20
6.74700000000001
30
0
41
1
10
89.0415237628301
20
6.74700000000001
30
0
0
SPLINE
5
EE
100
AcDbEntity
8
1
62
256
6
ByLayer
370
13
48
1
60
0
100
AcDbSpline
70
4
71
3
72
85
73
81
40
0
40
0
40
0
40
0
40
0.031249999999999
40
0.031249999999999
40
0.062499999999998
40
0.062499999999998
40
0.093749999999997
40
0.093749999999997
40
0.124999999999996
40
0.124999999999996
40
0.132812499999996
40
0.136718749999996
40
0.136718749999996
40
0.140624999999996
40
0.140624999999996
40
0.156249999999995
40
0.156249999999995
40
0.187499999999995
40
0.187499999999995
40
0.218749999999994
40
0.218749999999994
40
0.249999999999994
40
0.249999999999994
40
0.281249999999993
40
0.281249999999993
40
0.312499999999993
40
0.312499999999993
40
0.343749999999992
40
0.343749999999992
40
0.374999999999992
40
0.374999999999992
40
0.406249999999991
40
0.406249999999991
40
0.421874999999991
40
0.421874999999991
40
0.429687499999991
40
0.429687499999991
40
0.437499999999991
40
0.437499999999991
40
0.468749999999991
40
0.468749999999991
40
0.49999999999999
40
0.49999999999999
40
0.53124999999999
40
0.53124999999999
40
0.562499999999989
40
0.562499999999989
40
0.593749999999989
40
0.593749999999989
40
0.624999999999988
40
0.624999999999988
40
0.656249999999988
40
0.656249999999988
40
0.687499999999987
40
0.687499999999987
40
0.703124999999987
40
0.703124999999987
40
0.710937499999987
40
0.710937499999987
40
0.714843749999987
40
0.714843749999987
40
0.718749999999987
40
0.718749999999987
40
0.749999999999989
40
0.749999999999989
40
0.78124999999999
40
0.78124999999999
40
0.812499999999992
40
0.812499999999992
40
0.843749999999993
40
0.843749999999993
40
0.874999999999994
40
0.874999999999994
40
0.906249999999996
40
0.906249999999996
40
0.937499999999997
40
0.937499999999997
40
0.968749999999999
40
0.968749999999999
40
1
40
1
40
1
40
1
41
1
10
81.7
20
4.66901986264963
30
0
41
1
10
81.7712370240004
20
4.37591307283537
30
0
41
1
10
81.8424740480008
20
4.05756676813851
30
0
41
1
10
81.9849480960016
20
3.38701434563112
30
0
41
1
10
82.0561851200021
20
3.0349094956693
30
0
41
1
10
82.1986591680029
20
2.31560403084708
30
0
41
1
10
82.2698961920033
20
1.94849337655648
30
0
41
1
10
82.4123702400041
20
1.21693268269237
30
0
41
1
10
82.4836072640045
20
0.852538410763742
30
0
41
1
10
82.5726535440051
20
0.407764474528022
30
0
41
1
10
82.5993674280052
20
0.275121497276956
30
0
41
1
10
82.6260813120053
20
0.143869024263296
30
0
41
1
10
82.6438905680055
20
0.0566973203301018
30
0
41
1
10
82.6527951960056
20
0.0133808608246113
30
0
41
1
10
82.6973183360058
20
-0.203644951120992
30
0
41
1
10
82.732936848006
20
-0.380005809420879
30
0
41
1
10
82.8397923840066
20
-0.915158687454607
30
0
41
1
10
82.911029408007
20
-1.28014118559795
30
0
41
1
10
83.0535034560079
20
-2.01193072683853
30
0
41
1
10
83.1247404800083
20
-2.37867972073272
30
0
41
1
10
83.267214528009
20
-3.09618284646547
30
0
41
1
10
83.3384515520095
20
-3.44684558580585
30
0
41
1
10
83.4809256000103
20
-4.11346122211952
30
0
41
1
10
83.5521626240107
20
-4.42931318301683
30
0
41
1
10
83.6946366720116
20
-5.0096893586487
30
0
41
1
10
83.7658736960119
20
-5.27413615324082
30
0
41
1
10
83.9083477440128
20
-5.73998538973302
30
0
41
1
10
83.9795847680132
20
-5.94135913236883
30
0
41
1
10
84.1220588160141
20
-6.27591997682632
30
0
41
1
10
84.1932958400145
20
-6.40913109354017
30
0
41
1
10
84.3357698880153
20
-6.60886178074043
30
0
41
1
10
84.4070069120158
20
-6.67544141047492
30
0
41
1
10
84.5138624480164
20
-6.73038641738583
30
0
41
1
10
84.5494809600166
20
-6.74124911234588
30
0
41
1
10
84.6029087280169
20
-6.74723845623507
30
0
41
1
10
84.6207179840169
20
-6.74753467277631
30
0
41
1
10
84.6563364960172
20
-6.74476853232579
30
0
41
1
10
84.6741457520172
20
-6.74168331384661
30
0
41
1
10
84.7631920320179
20
-6.7173654778866
30
0
41
1
10
84.8344290560182
20
-6.66932062716222
30
0
41
1
10
84.976903104019
20
-6.5082090428098
30
0
41
1
10
85.0481401280194
20
-6.39507642265028
30
0
41
1
10
85.1906141760203
20
-6.10048760724416
30
0
41
1
10
85.2618512000207
20
-5.91899436822399
30
0
41
1
10
85.4043252480216
20
-5.49070430172517
30
0
41
1
10
85.475562272022
20
-5.24391997057242
30
0
41
1
10
85.6180363200228
20
-4.6948258484195
30
0
41
1
10
85.6892733440232
20
-4.3925809341188
30
0
41
1
10
85.831747392024
20
-3.74792969932636
30
0
41
1
10
85.9029844160245
20
-3.4056208177613
30
0
41
1
10
86.0454584640252
20
-2.69926077971738
30
0
41
1
10
86.1166954880257
20
-2.33530699267865
30
0
41
1
10
86.2591695360265
20
-1.60407933600732
30
0
41
1
10
86.3304065600269
20
-1.2368748016118
30
0
41
1
10
86.4372620960274
20
-0.695449415837061
30
0
41
1
10
86.4728806080278
20
-0.516511109281652
30
0
41
1
10
86.5263083760281
20
-0.251604542082134
30
0
41
1
10
86.5441176320281
20
-0.163883746437051
30
0
41
1
10
86.5708315160283
20
-0.0333048935182489
30
0
41
1
10
86.5797361440284
20
0.0099453832357597
30
0
41
1
10
86.5975454000285
20
0.0968774879356147
30
0
41
1
10
86.6064500280286
20
0.14051230341812
30
0
41
1
10
86.686591680029
20
0.534650140860265
30
0
41
1
10
86.7578287040294
20
0.895299653155007
30
0
41
1
10
86.9003027520303
20
1.62403161958622
30
0
41
1
10
86.9715397760306
20
1.99207013426425
30
0
41
1
10
87.1140138240315
20
2.71867646678911
30
0
41
1
10
87.1852508480318
20
3.07716279347287
30
0
41
1
10
87.3277248960327
20
3.76594480442245
30
0
41
1
10
87.3989619200331
20
4.09613930238146
30
0
41
1
10
87.5414359680339
20
4.71062870311215
30
0
41
1
10
87.6126729920344
20
4.99483422931996
30
0
41
1
10
87.7551470400352
20
5.50363521523272
30
0
41
1
10
87.8263840640356
20
5.7281831043239
30
0
41
1
10
87.9688581120364
20
6.11011624639082
30
0
41
1
10
88.0400951360368
20
6.26750795112571
30
0
41
1
10
88.1825691840377
20
6.51437591473368
30
0
41
1
10
88.253806208038
20
6.60390227723235
30
0
41
1
10
88.3962802560389
20
6.72017936262901
30
0
41
1
10
88.4675172800393
20
6.74700000000001
30
0
41
1
10
88.5387543040397
20
6.74700000000001
30
0
0
SPLINE
5
EF
100
AcDbEntity
8
1
62
256
6
ByLayer
370
13
48
1
60
0
100
AcDbSpline
70
4
71
3
72
84
73
80
40
0
40
0
40
0
40
0
40
0.0312499999999986
40
0.0312499999999986
40
0.0624999999999972
40
0.0624999999999972
40
0.0703124999999971
40
0.0703124999999971
40
0.0781249999999971
40
0.0781249999999971
40
0.0937499999999974
40
0.0937499999999974
40
0.124999999999998
40
0.124999999999998
40
0.156249999999999
40
0.156249999999999
40
0.1875
40
0.1875
40
0.21875
40
0.21875
40
0.250000000000001
40
0.250000000000001
40
0.281250000000002
40
0.281250000000002
40
0.312500000000002
40
0.312500000000002
40
0.343750000000003
40
0.343750000000003
40
0.375000000000004
40
0.375000000000004
40
0.378906250000004
40
0.378906250000004
40
0.382812500000004
40
0.382812500000004
40
0.390625000000004
40
0.390625000000004
40
0.406250000000003
40
0.406250000000003
40
0.437500000000002
40
0.437500000000002
40
0.46875
40
0.46875
40
0.499999999999999
40
0.499999999999999
40
0.531249999999998
40
0.531249999999998
40
0.562499999999997
40
0.562499999999997
40
0.593749999999996
40
0.593749999999996
40
0.624999999999994
40
0.624999999999994
40
0.656249999999993
40
0.656249999999993
40
0.687499999999992
40
0.687499999999992
40
0.695312499999992
40
0.695312499999992
40
0.703124999999992
40
0.703124999999992
40
0.718749999999992
40
0.718749999999992
40
0.749999999999993
40
0.749999999999993
40
0.781249999999994
40
0.781249999999994
40
0.812499999999995
40
0.812499999999995
40
0.843749999999996
40
0.843749999999996
40
0.874999999999997
40
0.874999999999997
40
0.906249999999997
40
0.906249999999997
40
0.937499999999998
40
0.937499999999998
40
0.968749999999999
40
0.968749999999999
40
1
40
1
40
1
40
1
41
1
10
81.7
20
2.29244215278777
30
0
41
1
10
81.7659998421381
20
1.95535775574561
30
0
41
1
10
81.8319996842761
20
1.61464265802508
30
0
41
1
10
81.963999368552
20
0.939281095435064
30
0
41
1
10
82.0299992106901
20
0.604665058659464
30
0
41
1
10
82.1124990133627
20
0.196885807152967
30
0
41
1
10
82.1289989738972
20
0.115846904316726
30
0
41
1
10
82.1619988949661
20
-0.0450615949114876
30
0
41
1
10
82.1784988555006
20
-0.125498920726017
30
0
41
1
10
82.2279987371041
20
-0.369238620342202
30
0
41
1
10
82.2609986581731
20
-0.533887983740982
30
0
41
1
10
82.3599984213802
20
-1.03249617607634
30
0
41
1
10
82.4259982635182
20
-1.37120081315632
30
0
41
1
10
82.5579979477941
20
-2.04930246856381
30
0
41
1
10
82.6239977899322
20
-2.38865826379322
30
0
41
1
10
82.7559974742081
20
-3.05385797703343
30
0
41
1
10
82.8219973163463
20
-3.37963964480795
30
0
41
1
10
82.9539970006223
20
-4.00279883380196
30
0
41
1
10
83.0199968427603
20
-4.30010697833472
30
0
41
1
10
83.1519965270363
20
-4.85277581171283
30
0
41
1
10
83.2179963691743
20
-5.10807945804046
30
0
41
1
10
83.3499960534504
20
-5.56651814918379
30
0
41
1
10
83.4159958955884
20
-5.76962486756594
30
0
41
1
10
83.5479955798644
20
-6.11810714344065
30
0
41
1
10
83.6139954220024
20
-6.26348870340004
30
0
41
1
10
83.7459951062784
20
-6.4959609138279
30
0
41
1
10
83.8119949484166
20
-6.58308520229662
30
0
41
1
10
83.9439946326925
20
-6.70285535563312
30
0
41
1
10
84.0099944748305
20
-6.73554847295816
30
0
41
1
10
84.0842442972357
20
-6.7455731011986
30
0
41
1
10
84.092494277503
20
-6.74631677116949
30
0
41
1
10
84.1089942380376
20
-6.7470792804275
30
0
41
1
10
84.1172442183048
20
-6.74709998548789
30
0
41
1
10
84.1419941591065
20
-6.74608251262904
30
0
41
1
10
84.158494119641
20
-6.7439561674444
30
0
41
1
10
84.2079940012445
20
-6.73304883003428
30
0
41
1
10
84.2409939223136
20
-6.71973517909979
30
0
41
1
10
84.3399936855206
20
-6.66032821051789
30
0
41
1
10
84.4059935276586
20
-6.59466265312284
30
0
41
1
10
84.5379932119346
20
-6.40612283999332
30
0
41
1
10
84.6039930540726
20
-6.28320793064012
30
0
41
1
10
84.7359927383487
20
-5.97889341170284
30
0
41
1
10
84.8019925804867
20
-5.79747588831623
30
0
41
1
10
84.9339922647627
20
-5.37972336265881
30
0
41
1
10
84.9999921069007
20
-5.14340351104832
30
0
41
1
10
85.1319917911767
20
-4.62432988185503
30
0
41
1
10
85.1979916333147
20
-4.3416236388166
30
0
41
1
10
85.3299913175907
20
-3.74222146642896
30
0
41
1
10
85.3959911597287
20
-3.42559253942576
30
0
41
1
10
85.5279908440048
20
-2.77297176687423
30
0
41
1
10
85.5939906861428
20
-2.43704699554979
30
0
41
1
10
85.7259903704188
20
-1.76055577326781
30
0
41
1
10
85.7919902125568
20
-1.42003962363916
30
0
41
1
10
85.9239898968329
20
-0.747361824178995
30
0
41
1
10
85.9899897389709
20
-0.415225731884448
30
0
41
1
10
86.0724895416433
20
-0.0115970755215642
30
0
41
1
10
86.0889895021779
20
0.0684522683681337
30
0
41
1
10
86.1219894232469
20
0.230432053740401
30
0
41
1
10
86.1384893837815
20
0.311975509688409
30
0
41
1
10
86.1879892653849
20
0.558054428018664
30
0
41
1
10
86.220989186454
20
0.724044565950891
30
0
41
1
10
86.3199889496611
20
1.22590494999443
30
0
41
1
10
86.385988791799
20
1.56574488184458
30
0
41
1
10
86.517988476075
20
2.24353832623834
30
0
41
1
10
86.583988318213
20
2.58144596754661
30
0
41
1
10
86.7159880024891
20
3.24089738527221
30
0
41
1
10
86.7819878446271
20
3.56237620862152
30
0
41
1
10
86.9139875289031
20
4.17417172414022
30
0
41
1
10
86.9799873710411
20
4.46441985432844
30
0
41
1
10
87.1119870553171
20
5.00070530540981
30
0
41
1
10
87.1779868974551
20
5.2466900567544
30
0
41
1
10
87.3099865817311
20
5.68504230929653
30
0
41
1
10
87.3759864238691
20
5.87738801444479
30
0
41
1
10
87.5079861081452
20
6.20386172674785
30
0
41
1
10
87.5739859502833
20
6.33800185916519
30
0
41
1
10
87.7059856345592
20
6.54841475718621
30
0
41
1
10
87.7719854766972
20
6.62472494613962
30
0
41
1
10
87.9039851609733
20
6.72399349540095
30
0
41
1
10
87.9699850031113
20
6.74700000000001
30
0
41
1
10
88.0359848452493
20
6.74700000000001
30
0
0
SPLINE
5
F0
100
AcDbEntity
8
1
62
256
6
ByLayer
370
13
48
1
60
0
100
AcDbSpline
70
4
71
3
72
78
73
74
40
0
40
0
40
0
40
0
40
0.0312500000000008
40
0.0312500000000008
40
0.0625000000000016
40
0.0625000000000016
40
0.0937500000000024
40
0.0937500000000024
40
0.125000000000003
40
0.125000000000003
40
0.156250000000004
40
0.156250000000004
40
0.187500000000005
40
0.187500000000005
40
0.218750000000006
40
0.218750000000006
40
0.250000000000007
40
0.250000000000007
40
0.281250000000007
40
0.281250000000007
40
0.312500000000008
40
0.312500000000008
40
0.320312500000008
40
0.320312500000008
40
0.328125000000008
40
0.328125000000008
40
0.343750000000007
40
0.343750000000007
40
0.375000000000006
40
0.375000000000006
40
0.406250000000005
40
0.406250000000005
40
0.437500000000003
40
0.437500000000003
40
0.468750000000002
40
0.468750000000002
40
0.5
40
0.5
40
0.531249999999999
40
0.531249999999999
40
0.562499999999997
40
0.562499999999997
40
0.593749999999996
40
0.593749999999996
40
0.624999999999994
40
0.624999999999994
40
0.656249999999993
40
0.656249999999993
40
0.664062499999993
40
0.664062499999993
40
0.671874999999993
40
0.671874999999993
40
0.687499999999993
40
0.687499999999993
40
0.718749999999994
40
0.718749999999994
40
0.749999999999994
40
0.749999999999994
40
0.781249999999995
40
0.781249999999995
40
0.812499999999996
40
0.812499999999996
40
0.843749999999996
40
0.843749999999996
40
0.874999999999997
40
0.874999999999997
40
0.906249999999998
40
0.906249999999998
40
0.937499999999999
40
0.937499999999999
40
0.968749999999999
40
0.968749999999999
40
1
40
1
40
1
40
1
41
1
10
81.7
20
-0.245047920168872
30
0
41
1
10
81.7607626602756
20
-0.544860599492154
30
0
41
1
10
81.8215253205512
20
-0.851901496137288
30
0
41
1
10
81.9430506411024
20
-1.47230099232661
30
0
41
1
10
82.003813301378
20
-1.78564138839985
30
0
41
1
10
82.1253386219293
20
-2.40846702363061
30
0
41
1
10
82.1861012822048
20
-2.71791898039888
30
0
41
1
10
82.3076266027562
20
-3.32154272889071
30
0
41
1
10
82.3683892630318
20
-3.61567062191116
30
0
41
1
10
82.489914583583
20
-4.17714946677978
30
0
41
1
10
82.5506772438586
20
-4.44445510527004
30
0
41
1
10
82.6722025644099
20
-4.94209850193832
30
0
41
1
10
82.7329652246854
20
-5.17240062375561
30
0
41
1
10
82.8544905452366
20
-5.5884089217007
30
0
41
1
10
82.9152532055123
20
-5.77409775348642
30
0
41
1
10
83.0367785260635
20
-6.09663793176625
30
0
41
1
10
83.0975411863391
20
-6.23349292991452
30
0
41
1
10
83.2190665068903
20
-6.4577198209941
30
0
41
1
10
83.279829167166
20
-6.54511264566506
30
0
41
1
10
83.4013544877171
20
-6.67297703011195
30
0
41
1
10
83.4621171479928
20
-6.71347906851324
30
0
41
1
10
83.5380704733373
20
-6.73788461160839
30
0
41
1
10
83.5532611384062
20
-6.74145914301883
30
0
41
1
10
83.5836424685441
20
-6.74608781223557
30
0
41
1
10
83.598833133613
20
-6.74714237059535
30
0
41
1
10
83.6444051288197
20
-6.74666926584939
30
0
41
1
10
83.6747864589574
20
-6.74147994300034
30
0
41
1
10
83.7659304493709
20
-6.71015589529136
30
0
41
1
10
83.8266931096465
20
-6.66820118492569
30
0
41
1
10
83.9482184301977
20
-6.53730530492498
30
0
41
1
10
84.0089810904733
20
-6.44833383100431
30
0
41
1
10
84.1305064110245
20
-6.22091590425907
30
0
41
1
10
84.1912690713001
20
-6.08244897093562
30
0
41
1
10
84.3127943918514
20
-5.75676414353597
30
0
41
1
10
84.373557052127
20
-5.56954325091777
30
0
41
1
10
84.4950823726782
20
-5.15066657739226
30
0
41
1
10
84.5558450329539
20
-4.91902881320232
30
0
41
1
10
84.6773703535051
20
-4.41900929831837
30
0
41
1
10
84.7381330137807
20
-4.15066365773541
30
0
41
1
10
84.8596583343319
20
-3.58746427527177
30
0
41
1
10
84.9204209946075
20
-3.29265597576278
30
0
41
1
10
85.0419463151587
20
-2.68805057026538
30
0
41
1
10
85.1027089754343
20
-2.37829714242028
30
0
41
1
10
85.2242342959856
20
-1.75522429694087
30
0
41
1
10
85.2849969562612
20
-1.44193771382044
30
0
41
1
10
85.4065222768124
20
-0.821945625589848
30
0
41
1
10
85.4672849370881
20
-0.515257820175833
30
0
41
1
10
85.5432382624326
20
-0.141074739509094
30
0
41
1
10
85.5584289275015
20
-0.0667534867398274
30
0
41
1
10
85.5888102576394
20
0.0811335125960397
30
0
41
1
10
85.6040009227082
20
0.155578848527057
30
0
41
1
10
85.6495729179149
20
0.380264212935543
30
0
41
1
10
85.6799542480528
20
0.531858102760083
30
0
41
1
10
85.7710982384662
20
0.990637255339522
30
0
41
1
10
85.8318608987417
20
1.30188271340973
30
0
41
1
10
85.9533862192928
20
1.92598592791771
30
0
41
1
10
86.0141488795686
20
2.23881796659103
30
0
41
1
10
86.1356742001198
20
2.85519083869437
30
0
41
1
10
86.1964368603955
20
3.15869236735747
30
0
41
1
10
86.3179621809467
20
3.74477834377419
30
0
41
1
10
86.3787248412223
20
4.02731684830732
30
0
41
1
10
86.5002501617735
20
4.56043912447328
30
0
41
1
10
86.5610128220491
20
4.81098092779555
30
0
41
1
10
86.6825381426004
20
5.27102222804047
30
0
41
1
10
86.7433008028759
20
5.48049417531283
30
0
41
1
10
86.8648261234272
20
5.85233912769138
30
0
41
1
10
86.9255887837028
20
6.01470503262291
30
0
41
1
10
87.047114104254
20
6.28984950268512
30
0
41
1
10
87.1078767645297
20
6.40264087192293
30
0
41
1
10
87.2294020850808
20
6.579622159292
30
0
41
1
10
87.2901647453564
20
6.64383870422623
30
0
41
1
10
87.4116900659077
20
6.72751159777599
30
0
41
1
10
87.4724527261833
20
6.74700000000001
30
0
41
1
10
87.5332153864589
20
6.74700000000001
30
0
0
SPLINE
5
F1
100
AcDbEntity
8
1
62
256
6
ByLayer
370
13
48
1
60
0
100
AcDbSpline
70
4
71
3
72
77
73
73
40
0
40
0
40
0
40
0
40
0.0312500000000001
40
0.0312500000000001
40
0.0625000000000002
40
0.0625000000000002
40
0.0937500000000002
40
0.0937500000000002
40
0.125
40
0.125
40
0.15625
40
0.15625
40
0.187500000000001
40
0.187500000000001
40
0.218750000000001
40
0.218750000000001
40
0.250000000000001
40
0.250000000000001
40
0.257812500000001
40
0.257812500000001
40
0.265625000000001
40
0.265625000000001
40
0.281250000000001
40
0.281250000000001
40
0.3125
40
0.3125
40
0.343749999999998
40
0.343749999999998
40
0.374999999999997
40
0.374999999999997
40
0.406249999999996
40
0.406249999999996
40
0.437499999999995
40
0.437499999999995
40
0.468749999999993
40
0.468749999999993
40
0.499999999999992
40
0.499999999999992
40
0.531249999999991
40
0.531249999999991
40
0.56249999999999
40
0.56249999999999
40
0.593749999999988
40
0.593749999999988
40
0.624999999999987
40
0.624999999999987
40
0.632812499999987
40
0.632812499999987
40
0.640624999999987
40
0.656249999999987
40
0.656249999999987
40
0.687499999999988
40
0.687499999999988
40
0.718749999999989
40
0.718749999999989
40
0.749999999999991
40
0.749999999999991
40
0.781249999999992
40
0.781249999999992
40
0.812499999999993
40
0.812499999999993
40
0.843749999999994
40
0.843749999999994
40
0.874999999999995
40
0.874999999999995
40
0.906249999999997
40
0.906249999999997
40
0.937499999999998
40
0.937499999999998
40
0.968749999999999
40
0.968749999999999
40
1
40
1
40
1
40
1
41
1
10
81.7
20
-2.79944744139092
30
0
41
1
10
81.7555254784132
20
-3.07832471205217
30
0
41
1
10
81.8110509568264
20
-3.35196688080819
30
0
41
1
10
81.9221019136529
20
-3.87997836272632
30
0
41
1
10
81.9776273920661
20
-4.1343182676238
30
0
41
1
10
82.0886783488925
20
-4.61546361140074
30
0
41
1
10
82.1442038273057
20
-4.84224291467143
30
0
41
1
10
82.2552547841321
20
-5.26145667627966
30
0
41
1
10
82.3107802625453
20
-5.45387373473483
30
0
41
1
10
82.4218312193718
20
-5.79967672689909
30
0
41
1
10
82.477356697785
20
-5.95305718074314
30
0
41
1
10
82.5884076546114
20
-6.21857747214636
30
0
41
1
10
82.6439331330246
20
-6.3307236966516
30
0
41
1
10
82.754984089851
20
-6.51402589003382
30
0
41
1
10
82.8105095682643
20
-6.58519720450425
30
0
41
1
10
82.9215605250907
20
-6.68892035603199
30
0
41
1
10
82.9770860035038
20
-6.72149210826018
30
0
41
1
10
83.0464928515204
20
-6.74053500917469
30
0
41
1
10
83.0603742211237
20
-6.7432629785535
30
0
41
1
10
83.0881369603303
20
-6.74662936755354
30
0
41
1
10
83.1020183299336
20
-6.74726986753623
30
0
41
1
10
83.1436624387436
20
-6.74615556237055
30
0
41
1
10
83.1714251779501
20
-6.74132633692923
30
0
41
1
10
83.25471339557
20
-6.71371457645699
30
0
41
1
10
83.3102388739832
20
-6.67776485968261
30
0
41
1
10
83.4212898308096
20
-6.56699457679233
30
0
41
1
10
83.4768153092228
20
-6.49215432295469
30
0
41
1
10
83.5878662660492
20
-6.30139517578593
30
0
41
1
10
83.6433917444624
20
-6.18546158276098
30
0
41
1
10
83.7544427012889
20
-5.91246134214023
30
0
41
1
10
83.8099681797021
20
-5.75538930498743
30
0
41
1
10
83.9210191365285
20
-5.40252847185701
30
0
41
1
10
83.9765446149418
20
-5.2067462913256
30
0
41
1
10
84.0875955717682
20
-4.78134187282421
30
0
41
1
10
84.1431210501814
20
-4.55173800907232
30
0
41
1
10
84.2541720070079
20
-4.06564827564003
30
0
41
1
10
84.3096974854211
20
-3.80918908771574
30
0
41
1
10
84.4207484422475
20
-3.27773605047133
30
0
41
1
10
84.4762739206607
20
-3.00277160591708
30
0
41
1
10
84.5873248774871
20
-2.44318050382131
30
0
41
1
10
84.6428503559003
20
-2.15858017704142
30
0
41
1
10
84.7539013127267
20
-1.58825706742402
30
0
41
1
10
84.8094267911399
20
-1.30255334072407
30
0
41
1
10
84.9204777479664
20
-0.73753548491959
30
0
41
1
10
84.9760032263796
20
-0.458231439935958
30
0
41
1
10
85.0454100743962
20
-0.116871792317483
30
0
41
1
10
85.0592914439993
20
-0.0491168348614508
30
0
41
1
10
85.087054183206
20
0.0861168495092386
30
0
41
1
10
85.1286982920159
20
0.290216446742818
30
0
41
1
10
85.1703424008258
20
0.49771656428257
30
0
41
1
10
85.2536306184456
20
0.916183315719962
30
0
41
1
10
85.3091560968588
20
1.19982807152408
30
0
41
1
10
85.4202070536853
20
1.76959880045331
30
0
41
1
10
85.4757325320985
20
2.05570973847927
30
0
41
1
10
85.5867834889249
20
2.62228465617929
30
0
41
1
10
85.6423089673383
20
2.90272523224351
30
0
41
1
10
85.7533599241646
20
3.44914909356191
30
0
41
1
10
85.8088854025779
20
3.71510371384673
30
0
41
1
10
85.9199363594042
20
4.22385882998265
30
0
41
1
10
85.9754618378174
20
4.46663065351518
30
0
41
1
10
86.0865127946439
20
4.92131888548761
30
0
41
1
10
86.1420382730571
20
5.13321255029811
30
0
41
1
10
86.2530892298836
20
5.52023272688913
30
0
41
1
10
86.3086147082967
20
5.69534704767023
30
0
41
1
10
86.4196656651231
20
6.00522614688336
30
0
41
1
10
86.4751911435363
20
6.13999103911132
30
0
41
1
10
86.5862421003627
20
6.36810304435991
30
0
41
1
10
86.641767578776
20
6.46146110268191
30
0
41
1
10
86.7528185356025
20
6.60803094426328
30
0
41
1
10
86.8083440140157
20
6.66126072137166
30
0
41
1
10
86.9193949708421
20
6.7307349904622
30
0
41
1
10
86.9749204492551
20
6.74699999999999
30
0
41
1
10
87.0304459276684
20
6.74700000000001
30
0
0
SPLINE
5
F2
100
AcDbEntity
8
1
62
256
6
ByLayer
370
13
48
1
60
0
100
AcDbSpline
70
4
71
3
72
70
73
66
40
0
40
0
40
0
40
0
40
0.03125
40
0.03125
40
0.0625000000000001
40
0.0625000000000001
40
0.0937500000000001
40
0.0937500000000001
40
0.125
40
0.125
40
0.15625
40
0.15625
40
0.1875
40
0.1875
40
0.21875
40
0.21875
40
0.25
40
0.25
40
0.28125
40
0.28125
40
0.3125
40
0.3125
40
0.34375
40
0.34375
40
0.375
40
0.375
40
0.40625
40
0.40625
40
0.437500000000001
40
0.437500000000001
40
0.46875
40
0.46875
40
0.5
40
0.5
40
0.53125
40
0.53125
40
0.562500000000001
40
0.562500000000001
40
0.59375
40
0.59375
40
0.625
40
0.625
40
0.65625
40
0.65625
40
0.6875
40
0.6875
40
0.71875
40
0.71875
40
0.75
40
0.75
40
0.78125
40
0.78125
40
0.8125
40
0.8125
40
0.84375
40
0.84375
40
0.875
40
0.875
40
0.90625
40
0.90625
40
0.9375
40
0.9375
40
0.96875
40
0.96875
40
1
40
1
40
1
40
1
41
1
10
81.7
20
-5.0633091757995
30
0
41
1
10
81.7502882965508
20
-5.2525798947797
30
0
41
1
10
81.8005765931017
20
-5.42772175632561
30
0
41
1
10
81.9011531862033
20
-5.74624088846781
30
0
41
1
10
81.9514414827541
20
-5.8896142421153
30
0
41
1
10
82.0520180758558
20
-6.14272590820158
30
0
41
1
10
82.1023063724065
20
-6.25246697983636
30
0
41
1
10
82.2028829655081
20
-6.43811734711227
30
0
41
1
10
82.2531712620589
20
-6.51403481240897
30
0
41
1
10
82.3537478551606
20
-6.63334500269403
30
0
41
1
10
82.4040361517114
20
-6.67674921022538
30
0
41
1
10
82.504612744813
20
-6.73354027555618
30
0
41
1
10
82.5549010413638
20
-6.74693966798435
30
0
41
1
10
82.6554776344655
20
-6.7470599246513
30
0
41
1
10
82.7057659310162
20
-6.73378894916428
30
0
41
1
10
82.8063425241179
20
-6.67726825307241
30
0
41
1
10
82.8566308206687
20
-6.63400597947128
30
0
41
1
10
82.9572074137703
20
-6.51498856690469
30
0
41
1
10
83.0074957103211
20
-6.43922193567855
30
0
41
1
10
83.1080723034227
20
-6.25387598756453
30
0
41
1
10
83.1583605999736
20
-6.14428848096884
30
0
41
1
10
83.2589371930752
20
-5.89147941366511
30
0
41
1
10
83.309225489626
20
-5.74825506560904
30
0
41
1
10
83.4098020827277
20
-5.43002174244961
30
0
41
1
10
83.4600903792785
20
-5.25501665320579
30
0
41
1
10
83.5606669723801
20
-4.87672940932873
30
0
41
1
10
83.6109552689309
20
-4.67345772626268
30
0
41
1
10
83.7115318620325
20
-4.243585807964
30
0
41
1
10
83.7618201585833
20
-4.01700106021917
30
0
41
1
10
83.862396751685
20
-3.54649564337666
30
0
41
1
10
83.9126850482357
20
-3.30259281393651
30
0
41
1
10
84.0132616413374
20
-2.80397697840158
30
0
41
1
10
84.0635499378882
20
-2.54928116690266
30
0
41
1
10
84.1641265309898
20
-2.0356011354948
30
0
41
1
10
84.2144148275406
20
-1.77663094790742
30
0
41
1
10
84.3149914206423
20
-1.26044253019089
30
0
41
1
10
84.3652797171931
20
-1.00323368296188
30
0
41
1
10
84.4658563102947
20
-0.495770989579057
30
0
41
1
10
84.5161446068456
20
-0.245521555581007
30
0
41
1
10
84.6167211999472
20
0.243863741551223
30
0
41
1
10
84.6670094964981
20
0.494067481898441
30
0
41
1
10
84.7675860895996
20
1.00149910442269
30
0
41
1
10
84.8178743861504
20
1.25869772526227
30
0
41
1
10
84.918450979252
20
1.77487846830618
30
0
41
1
10
84.9687392758028
20
2.03385121889241
30
0
41
1
10
85.0693158689045
20
2.5475507020453
30
0
41
1
10
85.1196041654553
20
2.80226341156069
30
0
41
1
10
85.2201807585569
20
3.30092796401328
30
0
41
1
10
85.2704690551078
20
3.54486261697372
30
0
41
1
10
85.3710456482094
20
4.01544602606762
30
0
41
1
10
85.4213339447602
20
4.24207694066087
30
0
41
1
10
85.5219105378619
20
4.67205374440991
30
0
41
1
10
85.5721988344126
20
4.87538413747842
30
0
41
1
10
85.6727754275142
20
5.25379850014608
30
0
41
1
10
85.7230637240651
20
5.42887198455924
30
0
41
1
10
85.8236403171667
20
5.74724822597429
30
0
41
1
10
85.8739286137176
20
5.89054708157184
30
0
41
1
10
85.9745052068191
20
6.1435074534499
30
0
41
1
10
86.0247935033699
20
6.25317174300579
30
0
41
1
10
86.1253700964716
20
6.43866989771979
30
0
41
1
10
86.1756583930224
20
6.51451194256506
30
0
41
1
10
86.276234986124
20
6.6336757340857
30
0
41
1
10
86.3265232826748
20
6.67700896816876
30
0
41
1
10
86.4270998757764
20
6.73366483379581
30
0
41
1
10
86.4773881723272
20
6.74700000000001
30
0
41
1
10
86.527676468878
20
6.74700000000001
30
0
0
SPLINE
5
F3
100
AcDbEntity
8
1
62
256
6
ByLayer
370
13
48
1
60
0
100
AcDbSpline
70
4
71
3
72
10
73
6
40
0
40
0
40
0
40
0
40
0.5
40
0.5
40
1
40
1
40
1
40
1
41
1
10
89.241542274071
20
6.74700000000001
30
0
41
1
10
89.2920006999601
20
6.74700000000001
30
0
41
1
10
89.3424591258492
20
6.73357426040917
30
0
41
1
10
89.4433759776275
20
6.67652349980207
30
0
41
1
10
89.4938344035168
20
6.63288573133383
30
0
41
1
10
89.5442928294059
20
6.57288219043755
30
0
0
SPLINE
5
F4
100
AcDbEntity
8
1
62
256
6
ByLayer
370
13
48
1
60
0
100
AcDbSpline
70
4
71
3
72
8
73
4
40
0
40
0
40
0
40
0
40
1
40
1
40
1
40
1
41
1
10
89.544292829406
20
-6.14653323521477
30
0
41
1
10
90.3628618862707
20
-4.09541117979634
30
0
41
1
10
91.1814309431355
20
-2.04656059257448
30
0
41
1
10
92.0000000000002
20
4.832E-13
30
0
0
SPLINE
5
F5
100
AcDbEntity
8
1
62
256
6
ByLayer
370
13
48
1
60
0
100
AcDbSpline
70
4
71
3
72
8
73
4
40
0
40
0
40
0
40
0
40
1
40
1
40
1
40
1
41
1
10
89.544292829406
20
-1.41516282337747
30
0
41
1
10
90.3628618862707
20
-0.948841914954187
30
0
41
1
10
91.1814309431353
20
-0.4771195460456
30
0
41
1
10
92
20
-2.84E-14
30
0
0
SPLINE
5
F6
100
AcDbEntity
8
1
62
256
6
ByLayer
370
13
48
1
60
0
100
AcDbSpline
70
4
71
3
72
8
73
4
40
0
40
0
40
0
40
0
40
1
40
1
40
1
40
1
41
1
10
89.544292829406
20
0.696998247539113
30
0
41
1
10
90.3628618862707
20
0.470158834884444
30
0
41
1
10
91.1814309431353
20
0.237825379642771
30
0
41
1
10
92
20
0
30
0
0
SPLINE
5
F7
100
AcDbEntity
8
1
62
256
6
ByLayer
370
13
48
1
60
0
100
AcDbSpline
70
4
71
3
72
8
73
4
40
0
40
0
40
0
40
0
40
1
40
1
40
1
40
1
41
1
10
89.544292829406
20
-6.46769876220606
30
0
41
1
10
90.3628618862706
20
-4.31337178246741
30
0
41
1
10
91.1814309431352
20
-2.15746569291454
30
0
41
1
10
91.9999999999998
20
-6.821E-13
30
0
0
SPLINE
5
F8
100
AcDbEntity
8
1
62
256
6
ByLayer
370
13
48
1
60
0
100
AcDbSpline
70
4
71
3
72
8
73
4
40
0
40
0
40
0
40
0
40
1
40
1
40
1
40
1
41
1
10
89.544292829406
20
6.64277066682109
30
0
41
1
10
90.3628618862707
20
4.42754675472705
30
0
41
1
10
91.1814309431353
20
2.21328319022646
30
0
41
1
10
92
20
8.53E-14
30
0
0
SPLINE
5
F9
100
AcDbEntity
8
1
62
256
6
ByLayer
370
13
48
1
60
0
100
AcDbSpline
70
4
71
3
72
8
73
4
40
0
40
0
40
0
40
0
40
1
40
1
40
1
40
1
41
1
10
89.544292829406
20
-4.58263444038252
30
0
41
1
10
90.3628618862707
20
-3.0591431120086
30
0
41
1
10
91.1814309431355
20
-1.53159368854813
30
0
41
1
10
92.0000000000002
20
3.695E-13
30
0
0
SPLINE
5
FA
100
AcDbEntity
8
1
62
256
6
ByLayer
370
13
48
1
60
0
100
AcDbSpline
70
4
71
3
72
8
73
4
40
0
40
0
40
0
40
0
40
1
40
1
40
1
40
1
41
1
10
89.544292829406
20
-3.63083656465179
30
0
41
1
10
90.3628618862707
20
-2.42521270082261
30
0
41
1
10
91.1814309431353
20
-1.21493019196996
30
0
41
1
10
92
20
-5.68E-14
30
0
0
SPLINE
5
FB
100
AcDbEntity
8
1
62
256
6
ByLayer
370
13
48
1
60
0
100
AcDbSpline
70
4
71
3
72
8
73
4
40
0
40
0
40
0
40
0
40
1
40
1
40
1
40
1
41
1
10
89.544292829406
20
5.81139297123718
30
0
41
1
10
90.3628618862705
20
3.8714561008097
30
0
41
1
10
91.181430943135
20
1.93431927228877
30
0
41
1
10
91.9999999999995
20
1.1653E-12
30
0
0
SPLINE
5
FC
100
AcDbEntity
8
1
62
256
6
ByLayer
370
13
48
1
60
0
100
AcDbSpline
70
4
71
3
72
8
73
4
40
0
40
0
40
0
40
0
40
1
40
1
40
1
40
1
41
1
10
89.5442928294059
20
6.74169655636859
30
0
41
1
10
90.3628618862707
20
4.49468330797885
30
0
41
1
10
91.1814309431353
20
2.24744434634175
30
0
41
1
10
92
20
0
30
0
0
SPLINE
5
FD
100
AcDbEntity
8
1
62
256
6
ByLayer
370
13
48
1
60
0
100
AcDbSpline
70
4
71
3
72
8
73
4
40
0
40
0
40
0
40
0
40
1
40
1
40
1
40
1
41
1
10
89.544292829406
20
3.24954243426956
30
0
41
1
10
90.3628618862707
20
2.16152149918642
30
0
41
1
10
91.1814309431353
20
1.07833742656993
30
0
41
1
10
92
20
5.68E-14
30
0
0
SPLINE
5
FE
100
AcDbEntity
8
1
62
256
6
ByLayer
370
13
48
1
60
0
100
AcDbSpline
70
4
71
3
72
8
73
4
40
0
40
0
40
0
40
0
40
1
40
1
40
1
40
1
41
1
10
89.5442928294059
20
6.22338481896739
30
0
41
1
10
90.3628618862706
20
4.15105644356072
30
0
41
1
10
91.1814309431353
20
2.07658858007937
30
0
41
1
10
92
20
8.53E-14
30
0
0
SPLINE
5
FF
100
AcDbEntity
8
1
62
256
6
ByLayer
370
13
48
1
60
0
100
AcDbSpline
70
4
71
3
72
8
73
4
40
0
40
0
40
0
40
0
40
1
40
1
40
1
40
1
41
1
10
89.544292829406
20
-2.82415768278503
30
0
41
1
10
90.3628618862707
20
-1.87775601423317
30
0
41
1
10
91.1814309431353
20
-0.936367286501451
30
0
41
1
10
92
20
-2.84E-14
30
0
0
SPLINE
5
100
100
AcDbEntity
8
1
62
256
6
ByLayer
370
13
48
1
60
0
100
AcDbSpline
70
4
71
3
72
8
73
4
40
0
40
0
40
0
40
0
40
1
40
1
40
1
40
1
41
1
10
89.544292829406
20
-6.73132687102128
30
0
41
1
10
90.3628618862707
20
-4.48717501929926
30
0
41
1
10
91.1814309431353
20
-2.2433926304652
30
0
41
1
10
92
20
-8.53E-14
30
0
0
SPLINE
5
101
100
AcDbEntity
8
1
62
256
6
ByLayer
370
13
48
1
60
0
100
AcDbSpline
70
4
71
3
72
8
73
4
40
0
40
0
40
0
40
0
40
1
40
1
40
1
40
1
41
1
10
89.544292829406
20
5.1106308231324
30
0
41
1
10
90.3628618862708
20
3.40348147107468
30
0
41
1
10
91.1814309431356
20
1.69993273038236
30
0
41
1
10
92.0000000000005
20
-8.811E-13
30
0
0
SPLINE
5
102
100
AcDbEntity
8
1
62
256
6
ByLayer
370
13
48
1
60
0
100
AcDbSpline
70
4
71
3
72
8
73
4
40
0
40
0
40
0
40
0
40
1
40
1
40
1
40
1
41
1
10
89.5442928294059
20
4.92067275355785
30
0
41
1
10
90.3628618862707
20
3.2842271530308
30
0
41
1
10
91.1814309431354
20
1.64399795236514
30
0
41
1
10
92.0000000000001
20
-1.421E-13
30
0
0
SPLINE
5
103
100
AcDbEntity
8
1
62
256
6
ByLayer
370
13
48
1
60
0
100
AcDbSpline
70
4
71
3
72
8
73
4
40
0
40
0
40
0
40
0
40
1
40
1
40
1
40
1
41
1
10
89.544292829406
20
-1.69160892912672
30
0
41
1
10
90.3628618862707
20
-1.1223928037947
30
0
41
1
10
91.1814309431353
20
-0.558521465919682
30
0
41
1
10
92
20
-2.84E-14
30
0
0
SPLINE
5
104
100
AcDbEntity
8
1
62
256
6
ByLayer
370
13
48
1
60
0
100
AcDbSpline
70
4
71
3
72
8
73
4
40
0
40
0
40
0
40
0
40
1
40
1
40
1
40
1
41
1
10
89.544292829406
20
-3.86700438299741
30
0
41
1
10
90.3628618862707
20
-2.57347716878576
30
0
41
1
10
91.1814309431353
20
-1.28447182567717
30
0
41
1
10
92
20
-5.68E-14
30
0
0
SPLINE
5
105
100
AcDbEntity
8
1
62
256
6
ByLayer
370
13
48
1
60
0
100
AcDbSpline
70
4
71
3
72
8
73
4
40
0
40
0
40
0
40
0
40
1
40
1
40
1
40
1
41
1
10
89.544292829406
20
-5.3888768034023
30
0
41
1
10
90.3628618862707
20
-3.59590776626658
30
0
41
1
10
91.1814309431355
20
-1.79961007886007
30
0
41
1
10
92.0000000000002
20
4.263E-13
30
0
0
SPLINE
5
106
100
AcDbEntity
8
1
62
256
6
ByLayer
370
13
48
1
60
0
100
AcDbSpline
70
4
71
3
72
8
73
4
40
0
40
0
40
0
40
0
40
1
40
1
40
1
40
1
41
1
10
89.5442928294059
20
4.02310575124295
30
0
41
1
10
90.3628618862706
20
2.68650414085096
30
0
41
1
10
91.1814309431353
20
1.3454648424275
30
0
41
1
10
92
20
5.68E-14
30
0
0
SPLINE
5
107
100
AcDbEntity
8
1
62
256
6
ByLayer
370
13
48
1
60
0
100
AcDbSpline
70
4
71
3
72
8
73
4
40
0
40
0
40
0
40
0
40
1
40
1
40
1
40
1
41
1
10
89.544292829406
20
-6.02395545343995
30
0
41
1
10
90.3628618862706
20
-4.01845772472288
30
0
41
1
10
91.1814309431352
20
-2.01046651650449
30
0
41
1
10
91.9999999999998
20
-6.537E-13
30
0
0
SPLINE
5
108
100
AcDbEntity
8
1
62
256
6
ByLayer
370
13
48
1
60
0
100
AcDbSpline
70
4
71
3
72
8
73
4
40
0
40
0
40
0
40
0
40
1
40
1
40
1
40
1
41
1
10
89.544292829406
20
-2.56371457031355
30
0
41
1
10
90.3628618862707
20
-1.71425169016499
30
0
41
1
10
91.1814309431353
20
-0.859677584848043
30
0
41
1
10
92
20
-2.84E-14
30
0
0
SPLINE
5
109
100
AcDbEntity
8
1
62
256
6
ByLayer
370
13
48
1
60
0
100
AcDbSpline
70
4
71
3
72
8
73
4
40
0
40
0
40
0
40
0
40
1
40
1
40
1
40
1
41
1
10
89.544292829406
20
4.2475427248749
30
0
41
1
10
90.3628618862707
20
2.8274040683682
30
0
41
1
10
91.1814309431353
20
1.41155222859217
30
0
41
1
10
92
20
5.68E-14
30
0
0
SPLINE
5
10A
100
AcDbEntity
8
1
62
256
6
ByLayer
370
13
48
1
60
0
100
AcDbSpline
70
4
71
3
72
8
73
4
40
0
40
0
40
0
40
0
40
1
40
1
40
1
40
1
41
1
10
89.544292829406
20
6.32757127472206
30
0
41
1
10
90.3628618862705
20
4.21646395564147
30
0
41
1
10
91.181430943135
20
2.10726717293034
30
0
41
1
10
91.9999999999995
20
1.2506E-12
30
0
0
SPLINE
5
10B
100
AcDbEntity
8
1
62
256
6
ByLayer
370
13
48
1
60
0
100
AcDbSpline
70
4
71
3
72
8
73
4
40
0
40
0
40
0
40
0
40
1
40
1
40
1
40
1
41
1
10
89.5442928294059
20
5.66194733175627
30
0
41
1
10
90.3628618862706
20
3.77763519674934
30
0
41
1
10
91.1814309431354
20
1.89031372575445
30
0
41
1
10
92
20
-5.68E-14
30
0
0
SPLINE
5
10C
100
AcDbEntity
8
1
62
256
6
ByLayer
370
13
48
1
60
0
100
AcDbSpline
70
4
71
3
72
8
73
4
40
0
40
0
40
0
40
0
40
1
40
1
40
1
40
1
41
1
10
89.544292829406
20
-0.221662095019013
30
0
41
1
10
90.3628618862707
20
-0.15329463407727
30
0
41
1
10
91.1814309431353
20
-0.0794070407343099
30
0
41
1
10
92
20
0
30
0
0
SPLINE
5
10D
100
AcDbEntity
8
1
62
256
6
ByLayer
370
13
48
1
60
0
100
AcDbSpline
70
4
71
3
72
8
73
4
40
0
40
0
40
0
40
0
40
1
40
1
40
1
40
1
41
1
10
89.544292829406
20
-0.505330599568595
30
0
41
1
10
90.3628618862707
20
-0.331379693250739
30
0
41
1
10
91.1814309431353
20
-0.162935657697659
30
0
41
1
10
92
20
0
30
0
0
SPLINE
5
10E
100
AcDbEntity
8
1
62
256
6
ByLayer
370
13
48
1
60
0
100
AcDbSpline
70
4
71
3
72
8
73
4
40
0
40
0
40
0
40
0
40
1
40
1
40
1
40
1
41
1
10
89.544292829406
20
2.14832884545123
30
0
41
1
10
90.3628618862707
20
1.42698379852016
30
0
41
1
10
91.1814309431353
20
0.710872029384177
30
0
41
1
10
92
20
2.84E-14
30
0
0
SPLINE
5
10F
100
AcDbEntity
8
1
62
256
6
ByLayer
370
13
48
1
60
0
100
AcDbSpline
70
4
71
3
72
8
73
4
40
0
40
0
40
0
40
0
40
1
40
1
40
1
40
1
41
1
10
89.544292829406
20
2.99775521569384
30
0
41
1
10
90.3628618862707
20
2.00345128342391
30
0
41
1
10
91.1814309431353
20
1.00419652689521
30
0
41
1
10
92
20
5.68E-14
30
0
0
SPLINE
5
110
100
AcDbEntity
8
1
62
256
6
ByLayer
370
13
48
1
60
0
100
AcDbSpline
70
4
71
3
72
8
73
4
40
0
40
0
40
0
40
0
40
1
40
1
40
1
40
1
41
1
10
89.544292829406
20
1.87718875073153
30
0
41
1
10
90.3628618862707
20
1.25676398547066
30
0
41
1
10
91.1814309431353
20
0.631032509832238
30
0
41
1
10
92
20
2.84E-14
30
0
0
SPLINE
5
111
100
AcDbEntity
8
1
62
256
6
ByLayer
370
13
48
1
60
0
100
AcDbSpline
70
4
71
3
72
8
73
4
40
0
40
0
40
0
40
0
40
1
40
1
40
1
40
1
41
1
10
89.544292829406
20
-6.70601237291521
30
0
41
1
10
90.3628618862706
20
-4.47128275836508
30
0
41
1
10
91.1814309431352
20
-2.23593856002066
30
0
41
1
10
91.9999999999998
20
-7.105E-13
30
0
0
SPLINE
5
112
100
AcDbEntity
8
1
62
256
6
ByLayer
370
13
48
1
60
0
100
AcDbSpline
70
4
71
3
72
8
73
4
40
0
40
0
40
0
40
0
40
1
40
1
40
1
40
1
41
1
10
89.544292829406
20
-6.54283820706348
30
0
41
1
10
90.3628618862707
20
-4.36054378876713
30
0
41
1
10
91.1814309431353
20
-2.17959114500937
30
0
41
1
10
92
20
-8.53E-14
30
0
0
SPLINE
5
113
100
AcDbEntity
8
1
62
256
6
ByLayer
370
13
48
1
60
0
100
AcDbSpline
70
4
71
3
72
8
73
4
40
0
40
0
40
0
40
0
40
1
40
1
40
1
40
1
41
1
10
89.544292829406
20
-4.78702570559233
30
0
41
1
10
90.3628618862707
20
-3.18745848708792
30
0
41
1
10
91.1814309431353
20
-1.59177844444676
30
0
41
1
10
92
20
-5.68E-14
30
0
0
SPLINE
5
114
100
AcDbEntity
8
1
62
256
6
ByLayer
370
13
48
1
60
0
100
AcDbSpline
70
4
71
3
72
8
73
4
40
0
40
0
40
0
40
0
40
1
40
1
40
1
40
1
41
1
10
89.544292829406
20
-5.55499955636665
30
0
41
1
10
90.3628618862707
20
-3.70019844294478
30
0
41
1
10
91.1814309431353
20
-1.84852634407389
30
0
41
1
10
92
20
-8.53E-14
30
0
0
SPLINE
5
115
100
AcDbEntity
8
1
62
256
6
ByLayer
370
13
48
1
60
0
100
AcDbSpline
70
4
71
3
72
8
73
4
40
0
40
0
40
0
40
0
40
1
40
1
40
1
40
1
41
1
10
89.544292829406
20
0.978879155621712
30
0
41
1
10
90.3628618862707
20
0.647121653775713
30
0
41
1
10
91.1814309431353
20
0.320827623539771
30
0
41
1
10
92
20
0
30
0
0
SPLINE
5
116
100
AcDbEntity
8
1
62
256
6
ByLayer
370
13
48
1
60
0
100
AcDbSpline
70
4
71
3
72
8
73
4
40
0
40
0
40
0
40
0
40
1
40
1
40
1
40
1
41
1
10
89.5442928294059
20
6.58715260768815
30
0
41
1
10
90.3628618862707
20
4.392630134824
30
0
41
1
10
91.1814309431354
20
2.19690597709536
30
0
41
1
10
92
20
-5.68E-14
30
0
0
LINE
5
7D
100
AcDbEntity
8
4
62
256
6
ByLayer
370
18
48
0.05
60
0
100
AcDbLine
10
-5
20
0
30
0
11
97
21
0
31
0
39
0
210
0
220
0
230
1
0
LINE
5
7F
100
AcDbEntity
8
81
62
256
6
ByLayer
370
18
48
1
60
0
100
AcDbLine
10
92
20
0
30
0
11
97
21
0
31
0
39
0
210
0
220
0
230
1
0
LINE
5
80
100
AcDbEntity
8
SK4
62
256
6
ByLayer
370
18
48
0.05
60
0
100
AcDbLine
10
-53
20
0
30
0
11
97
21
0
31
0
39
0
210
0
220
0
230
1
0
LINE
5
82
100
AcDbEntity
8
80
62
256
6
ByLayer
370
18
48
1
60
0
100
AcDbLine
10
0
20
0
30
0
11
-5
21
0
31
0
39
0
210
0
220
0
230
1
0
LINE
5
83
100
AcDbEntity
8
1
62
256
6
ByLayer
370
18
48
1
60
0
100
AcDbLine
10
26.723863
20
-6.65
30
0
11
57.664761
21
-6.65
31
0
39
0
210
0
220
0
230
1
0
LINE
5
84
100
AcDbEntity
8
1
62
256
6
ByLayer
370
18
48
1
60
0
100
AcDbLine
10
57.664761
20
6.65
30
0
11
26.723863
21
6.65
31
0
39
0
210
0
220
0
230
1
0
LINE
5
85
100
AcDbEntity
8
1
62
256
6
ByLayer
370
18
48
1
60
0
100
AcDbLine
10
92
20
0
30
0
11
89.544293
21
6.747
31
0
39
0
210
0
220
0
230
1
0
LINE
5
86
100
AcDbEntity
8
1
62
256
6
ByLayer
370
18
48
1
60
0
100
AcDbLine
10
89.544293
20
-6.747
30
0
11
92
21
0
31
0
39
0
210
0
220
0
230
1
0
LINE
5
87
100
AcDbEntity
8
1
62
256
6
ByLayer
370
18
48
1
60
0
100
AcDbLine
10
3.607926
20
7.472979
30
0
11
0
21
7.9375
31
0
39
0
210
0
220
0
230
1
0
LINE
5
88
100
AcDbEntity
8
1
62
256
6
ByLayer
370
18
48
1
60
0
100
AcDbLine
10
0
20
-7.9375
30
0
11
3.607926
21
-7.472979
31
0
39
0
210
0
220
0
230
1
0
LINE
5
89
100
AcDbEntity
8
1
62
256
6
ByLayer
370
18
48
1
60
0
100
AcDbLine
10
81.7
20
-6.747
30
0
11
89.544293
21
-6.747
31
0
39
0
210
0
220
0
230
1
0
LINE
5
8A
100
AcDbEntity
8
1
62
256
6
ByLayer
370
18
48
1
60
0
100
AcDbLine
10
92
20
0
30
0
11
89.544293
21
6.747
31
0
39
0
210
0
220
0
230
1
0
LINE
5
8B
100
AcDbEntity
8
1
62
256
6
ByLayer
370
18
48
1
60
0
100
AcDbLine
10
89.544293
20
-6.747
30
0
11
92
21
0
31
0
39
0
210
0
220
0
230
1
0
LINE
5
8C
100
AcDbEntity
8
SK1
62
256
6
ByLayer
370
18
48
1
60
0
100
AcDbLine
10
-48
20
-6.9375
30
0
11
-47
21
-7.9375
31
0
39
0
210
0
220
0
230
1
0
LINE
5
8E
100
AcDbEntity
8
SK1
62
256
6
ByLayer
370
18
48
1
60
0
100
AcDbLine
10
-47
20
7.9375
30
0
11
-48
21
6.9375
31
0
39
0
210
0
220
0
230
1
0
LINE
5
8F
100
AcDbEntity
8
SK1
62
256
6
ByLayer
370
18
48
1
60
0
100
AcDbLine
10
-47
20
-7.9375
30
0
11
0
21
-7.9375
31
0
39
0
210
0
220
0
230
1
0
LINE
5
90
100
AcDbEntity
8
SK1
62
256
6
ByLayer
370
18
48
1
60
0
100
AcDbLine
10
0
20
7.9375
30
0
11
-47
21
7.9375
31
0
39
0
210
0
220
0
230
1
0
LINE
5
91
100
AcDbEntity
8
1
62
256
6
ByLayer
370
18
48
1
60
0
100
AcDbLine
10
0
20
7.9375
30
0
11
0
21
-7.9375
31
0
39
0
210
0
220
0
230
1
0
LINE
5
92
100
AcDbEntity
8
1
62
256
6
ByLayer
370
18
48
1
60
0
100
AcDbLine
10
89.544293
20
6.747
30
0
11
89.544293
21
6.532764
31
0
39
0
210
0
220
0
230
1
0
LINE
5
93
100
AcDbEntity
8
1
62
256
6
ByLayer
370
18
48
1
60
0
100
AcDbLine
10
89.544293
20
-6.747
30
0
11
89.544293
21
-0.963852
31
0
39
0
210
0
220
0
230
1
0
LINE
5
94
100
AcDbEntity
8
1
62
256
6
ByLayer
370
18
48
1
60
0
100
AcDbLine
10
10
20
-4.712497
30
0
11
10
21
5.652487
31
0
39
0
210
0
220
0
230
1
0
LINE
5
95
100
AcDbEntity
8
SK1
62
256
6
ByLayer
370
18
48
1
60
0
100
AcDbLine
10
-8.796218
20
-4.876987
30
0
11
-8.796218
21
4.876987
31
0
39
0
210
0
220
0
230
1
0
LINE
5
96
100
AcDbEntity
8
SK1
62
256
6
ByLayer
370
18
48
1
60
0
100
AcDbLine
10
-48
20
-6.9375
30
0
11
-48
21
6.9375
31
0
39
0
210
0
220
0
230
1
0
LINE
5
97
100
AcDbEntity
8
SK1
62
256
6
ByLayer
370
18
48
1
60
0
100
AcDbLine
10
0
20
7.9375
30
0
11
0
21
-7.9375
31
0
39
0
210
0
220
0
230
1
0
LINE
5
98
100
AcDbEntity
8
SK1
62
256
6
ByLayer
370
18
48
1
60
0
100
AcDbLine
10
-47
20
-7.9375
30
0
11
-47
21
7.9375
31
0
39
0
210
0
220
0
230
1
0
LINE
5
99
100
AcDbEntity
8
SK1
62
256
6
ByLayer
370
18
48
1
60
0
100
AcDbLine
10
-8.796218
20
-4.876987
30
0
11
-39.438037
21
-4.876987
31
0
39
0
210
0
220
0
230
1
0
LINE
5
9A
100
AcDbEntity
8
SK1
62
256
6
ByLayer
370
18
48
1
60
0
100
AcDbLine
10
-39.438037
20
4.876987
30
0
11
-8.796218
21
4.876987
31
0
39
0
210
0
220
0
230
1
0
LINE
5
9B
100
AcDbEntity
8
SK1
62
256
6
ByLayer
370
18
48
1
60
0
100
AcDbLine
10
-39.438037
20
-4.876987
30
0
11
-39.438037
21
4.876987
31
0
39
0
210
0
220
0
230
1
0
LINE
5
9C
100
AcDbEntity
8
1
62
256
6
ByLayer
370
18
48
1
60
0
100
AcDbLine
10
89.544293
20
6.747
30
0
11
89.544293
21
-6.747
31
0
39
0
210
0
220
0
230
1
0
LINE
5
9D
100
AcDbEntity
8
1
62
256
6
ByLayer
370
18
48
1
60
0
100
AcDbLine
10
89.544293
20
6.747
30
0
11
89.544293
21
-6.747
31
0
39
0
210
0
220
0
230
1
0
LINE
5
9E
100
AcDbEntity
8
1
62
256
6
ByLayer
370
18
48
1
60
0
100
AcDbLine
10
89.544293
20
6.747
30
0
11
89.544293
21
-6.747
31
0
39
0
210
0
220
0
230
1
0
LINE
5
9F
100
AcDbEntity
8
1
62
256
6
ByLayer
370
18
48
1
60
0
100
AcDbLine
10
81.7
20
6.747
30
0
11
81.7
21
-6.747
31
0
39
0
210
0
220
0
230
1
0
LINE
5
A0
100
AcDbEntity
8
1
62
256
6
ByLayer
370
18
48
1
60
0
100
AcDbLine
10
81.7
20
6.747
30
0
11
81.7
21
-6.747
31
0
39
0
210
0
220
0
230
1
0
LINE
5
A1
100
AcDbEntity
8
1
62
256
6
ByLayer
370
18
48
1
60
0
100
AcDbLine
10
89.544293
20
6.747
30
0
11
89.544293
21
-6.747
31
0
39
0
210
0
220
0
230
1
0
LINE
5
A2
100
AcDbEntity
8
1
62
256
6
ByLayer
370
18
48
1
60
0
100
AcDbLine
10
81.7
20
6.747
30
0
11
81.7
21
-6.747
31
0
39
0
210
0
220
0
230
1
0
LINE
5
A3
100
AcDbEntity
8
1
62
256
6
ByLayer
370
18
48
1
60
0
100
AcDbLine
10
89.544293
20
6.747
30
0
11
89.544293
21
-6.747
31
0
39
0
210
0
220
0
230
1
0
LINE
5
A4
100
AcDbEntity
8
SK2
62
256
6
ByLayer
370
13
48
1
60
0
100
AcDbLine
10
-54.5
20
-7.9375
30
0
11
-54.5
21
36.212183
31
0
39
0
210
0
220
0
230
1
0
LINE
5
A6
100
AcDbEntity
8
SK2
62
256
6
ByLayer
370
13
48
1
60
0
100
AcDbLine
10
-49.5875
20
7.9375
30
0
11
-56.5
21
7.9375
31
0
39
0
210
0
220
0
230
1
0
LINE
5
A7
100
AcDbEntity
8
SK2
62
256
6
ByLayer
370
13
48
1
60
0
100
AcDbLine
10
-49.5875
20
-7.9375
30
0
11
-56.5
21
-7.9375
31
0
39
0
210
0
220
0
230
1
0
LINE
5
A8
100
AcDbEntity
8
1
62
256
6
ByLayer
370
18
48
1
60
1
100
AcDbLine
10
-54.5
20
7.9375
30
0
11
-54.039216
21
4.437502
31
0
39
0
210
0
220
0
230
1
0
LINE
5
A9
100
AcDbEntity
8
1
62
256
6
ByLayer
370
18
48
1
60
1
100
AcDbLine
10
-54.039216
20
4.437502
30
0
11
-54.960784
21
4.437498
31
0
39
0
210
0
220
0
230
1
0
LINE
5
AA
100
AcDbEntity
8
1
62
256
6
ByLayer
370
18
48
1
60
1
100
AcDbLine
10
-54.960784
20
4.437498
30
0
11
-54.5
21
7.9375
31
0
39
0
210
0
220
0
230
1
0
LINE
5
AB
100
AcDbEntity
8
1
62
256
6
ByLayer
370
18
48
1
60
1
100
AcDbLine
10
-54.5
20
-7.9375
30
0
11
-54.960784
21
-4.437502
31
0
39
0
210
0
220
0
230
1
0
LINE
5
AC
100
AcDbEntity
8
1
62
256
6
ByLayer
370
18
48
1
60
1
100
AcDbLine
10
-54.960784
20
-4.437502
30
0
11
-54.039216
21
-4.437498
31
0
39
0
210
0
220
0
230
1
0
LINE
5
AD
100
AcDbEntity
8
1
62
256
6
ByLayer
370
18
48
1
60
1
100
AcDbLine
10
-54.039216
20
-4.437498
30
0
11
-54.5
21
-7.9375
31
0
39
0
210
0
220
0
230
1
0
LINE
5
AE
100
AcDbEntity
8
2
62
256
6
ByLayer
370
13
48
1
60
0
100
AcDbLine
10
99.5
20
-6.747
30
0
11
99.5
21
35.653455
31
0
39
0
210
0
220
0
230
1
0
LINE
5
B0
100
AcDbEntity
8
2
62
256
6
ByLayer
370
13
48
1
60
0
100
AcDbLine
10
91.131793
20
6.747
30
0
11
101.5
21
6.747
31
0
39
0
210
0
220
0
230
1
0
LINE
5
B1
100
AcDbEntity
8
2
62
256
6
ByLayer
370
13
48
1
60
0
100
AcDbLine
10
91.131793
20
-6.747
30
0
11
101.5
21
-6.747
31
0
39
0
210
0
220
0
230
1
0
LINE
5
B2
100
AcDbEntity
8
1
62
256
6
ByLayer
370
18
48
1
60
1
100
AcDbLine
10
99.5
20
6.747
30
0
11
99.960784
21
3.247002
31
0
39
0
210
0
220
0
230
1
0
LINE
5
B3
100
AcDbEntity
8
1
62
256
6
ByLayer
370
18
48
1
60
1
100
AcDbLine
10
99.960784
20
3.247002
30
0
11
99.039216
21
3.246998
31
0
39
0
210
0
220
0
230
1
0
LINE
5
B4
100
AcDbEntity
8
1
62
256
6
ByLayer
370
18
48
1
60
1
100
AcDbLine
10
99.039216
20
3.246998
30
0
11
99.5
21
6.747
31
0
39
0
210
0
220
0
230
1
0
LINE
5
B5
100
AcDbEntity
8
1
62
256
6
ByLayer
370
18
48
1
60
1
100
AcDbLine
10
99.5
20
-6.747
30
0
11
99.039216
21
-3.247002
31
0
39
0
210
0
220
0
230
1
0
LINE
5
B6
100
AcDbEntity
8
1
62
256
6
ByLayer
370
18
48
1
60
1
100
AcDbLine
10
99.039216
20
-3.247002
30
0
11
99.960784
21
-3.246998
31
0
39
0
210
0
220
0
230
1
0
LINE
5
B7
100
AcDbEntity
8
1
62
256
6
ByLayer
370
18
48
1
60
1
100
AcDbLine
10
99.960784
20
-3.246998
30
0
11
99.5
21
-6.747
31
0
39
0
210
0
220
0
230
1
0
LINE
5
B8
100
AcDbEntity
8
SK2
62
256
6
ByLayer
370
13
48
1
60
0
100
AcDbLine
10
92.542957
20
-1.491762
30
0
11
99.182423
21
-19.733545
31
0
39
0
210
0
220
0
230
1
0
LINE
5
B9
100
AcDbEntity
8
SK2
62
256
6
ByLayer
370
13
48
1
60
0
100
AcDbLine
10
92.542957
20
1.491762
30
0
11
99.182423
21
19.733545
31
0
39
0
210
0
220
0
230
1
0
LINE
5
BA
100
AcDbEntity
8
1
62
256
6
ByLayer
370
18
48
1
60
1
100
AcDbLine
10
98.498383
20
-17.85416
30
0
11
101.551575
21
-16.082064
31
0
39
0
210
0
220
0
230
1
0
LINE
5
BB
100
AcDbEntity
8
1
62
256
6
ByLayer
370
18
48
1
60
1
100
AcDbLine
10
101.551575
20
-16.082064
30
0
11
101.906196
21
-16.93267
31
0
39
0
210
0
220
0
230
1
0
LINE
5
BC
100
AcDbEntity
8
1
62
256
6
ByLayer
370
18
48
1
60
1
100
AcDbLine
10
101.906196
20
-16.93267
30
0
11
98.498383
21
-17.85416
31
0
39
0
210
0
220
0
230
1
0
LINE
5
BD
100
AcDbEntity
8
1
62
256
6
ByLayer
370
18
48
1
60
1
100
AcDbLine
10
98.498383
20
17.85416
30
0
11
101.906193
21
16.932671
31
0
39
0
210
0
220
0
230
1
0
LINE
5
BE
100
AcDbEntity
8
1
62
256
6
ByLayer
370
18
48
1
60
1
100
AcDbLine
10
101.906193
20
16.932671
30
0
11
101.551579
21
16.082063
31
0
39
0
210
0
220
0
230
1
0
LINE
5
BF
100
AcDbEntity
8
1
62
256
6
ByLayer
370
18
48
1
60
1
100
AcDbLine
10
101.551579
20
16.082063
30
0
11
98.498383
21
17.85416
31
0
39
0
210
0
220
0
230
1
0
LINE
5
11B
100
AcDbEntity
8
1
62
256
6
ByLayer
370
18
48
1
60
1
100
AcDbLine
10
-54.5
20
7.9375
30
0
11
-54.039216
21
4.437502
31
0
39
0
210
0
220
0
230
1
0
LINE
5
11C
100
AcDbEntity
8
1
62
256
6
ByLayer
370
18
48
1
60
1
100
AcDbLine
10
-54.039216
20
4.437502
30
0
11
-54.960784
21
4.437498
31
0
39
0
210
0
220
0
230
1
0
LINE
5
11D
100
AcDbEntity
8
1
62
256
6
ByLayer
370
18
48
1
60
1
100
AcDbLine
10
-54.960784
20
4.437498
30
0
11
-54.5
21
7.9375
31
0
39
0
210
0
220
0
230
1
0
LINE
5
11F
100
AcDbEntity
8
1
62
256
6
ByLayer
370
18
48
1
60
1
100
AcDbLine
10
-54.5
20
-7.9375
30
0
11
-54.960784
21
-4.437502
31
0
39
0
210
0
220
0
230
1
0
LINE
5
120
100
AcDbEntity
8
1
62
256
6
ByLayer
370
18
48
1
60
1
100
AcDbLine
10
-54.960784
20
-4.437502
30
0
11
-54.039216
21
-4.437498
31
0
39
0
210
0
220
0
230
1
0
LINE
5
121
100
AcDbEntity
8
1
62
256
6
ByLayer
370
18
48
1
60
1
100
AcDbLine
10
-54.039216
20
-4.437498
30
0
11
-54.5
21
-7.9375
31
0
39
0
210
0
220
0
230
1
0
LINE
5
125
100
AcDbEntity
8
1
62
256
6
ByLayer
370
18
48
1
60
1
100
AcDbLine
10
99.5
20
6.747
30
0
11
99.960784
21
3.247002
31
0
39
0
210
0
220
0
230
1
0
LINE
5
126
100
AcDbEntity
8
1
62
256
6
ByLayer
370
18
48
1
60
1
100
AcDbLine
10
99.960784
20
3.247002
30
0
11
99.039216
21
3.246998
31
0
39
0
210
0
220
0
230
1
0
LINE
5
127
100
AcDbEntity
8
1
62
256
6
ByLayer
370
18
48
1
60
1
100
AcDbLine
10
99.039216
20
3.246998
30
0
11
99.5
21
6.747
31
0
39
0
210
0
220
0
230
1
0
LINE
5
129
100
AcDbEntity
8
1
62
256
6
ByLayer
370
18
48
1
60
1
100
AcDbLine
10
99.5
20
-6.747
30
0
11
99.039216
21
-3.247002
31
0
39
0
210
0
220
0
230
1
0
LINE
5
12A
100
AcDbEntity
8
1
62
256
6
ByLayer
370
18
48
1
60
1
100
AcDbLine
10
99.039216
20
-3.247002
30
0
11
99.960784
21
-3.246998
31
0
39
0
210
0
220
0
230
1
0
LINE
5
12B
100
AcDbEntity
8
1
62
256
6
ByLayer
370
18
48
1
60
1
100
AcDbLine
10
99.960784
20
-3.246998
30
0
11
99.5
21
-6.747
31
0
39
0
210
0
220
0
230
1
0
LINE
5
12E
100
AcDbEntity
8
1
62
256
6
ByLayer
370
18
48
1
60
1
100
AcDbLine
10
98.498383
20
-17.85416
30
0
11
101.551575
21
-16.082064
31
0
39
0
210
0
220
0
230
1
0
LINE
5
12F
100
AcDbEntity
8
1
62
256
6
ByLayer
370
18
48
1
60
1
100
AcDbLine
10
101.551575
20
-16.082064
30
0
11
101.906196
21
-16.93267
31
0
39
0
210
0
220
0
230
1
0
LINE
5
130
100
AcDbEntity
8
1
62
256
6
ByLayer
370
18
48
1
60
1
100
AcDbLine
10
101.906196
20
-16.93267
30
0
11
98.498383
21
-17.85416
31
0
39
0
210
0
220
0
230
1
0
LINE
5
132
100
AcDbEntity
8
1
62
256
6
ByLayer
370
18
48
1
60
1
100
AcDbLine
10
98.498383
20
17.85416
30
0
11
101.906193
21
16.932671
31
0
39
0
210
0
220
0
230
1
0
LINE
5
133
100
AcDbEntity
8
1
62
256
6
ByLayer
370
18
48
1
60
1
100
AcDbLine
10
101.906193
20
16.932671
30
0
11
101.551579
21
16.082063
31
0
39
0
210
0
220
0
230
1
0
LINE
5
134
100
AcDbEntity
8
1
62
256
6
ByLayer
370
18
48
1
60
1
100
AcDbLine
10
101.551579
20
16.082063
30
0
11
98.498383
21
17.85416
31
0
39
0
210
0
220
0
230
1
0
MTEXT
5
117
100
AcDbEntity
8
SK2
62
256
6
ByLayer
370
18
48
1
60
0
100
AcDbMText
10
-55.841114
20
19.595938
30
0
210
0
220
0
230
1
1
%%c
40
3
41
0
44
1.084337
50
90
71
7
72
5
7
iso_b_vert
0
MTEXT
5
11A
100
AcDbEntity
8
SK2
62
256
6
ByLayer
370
18
48
1
60
0
100
AcDbMText
10
-55.841114
20
25.5725
30
0
210
0
220
0
230
1
1
\W0.7022;15.875
40
3
41
0
44
1.084337
50
90
71
7
72
5
7
iso_b_vert
0
MTEXT
5
123
100
AcDbEntity
8
2
62
256
6
ByLayer
370
18
48
1
60
0
100
AcDbMText
10
98.158886
20
18.405437
30
0
210
0
220
0
230
1
1
%%c
40
3
41
0
44
1.084337
50
90
71
7
72
5
7
iso_b_vert
0
MTEXT
5
124
100
AcDbEntity
8
2
62
256
6
ByLayer
370
18
48
1
60
0
100
AcDbMText
10
98.158886
20
24.382
30
0
210
0
220
0
230
1
1
\W0.7383;13.494
40
3
41
0
44
1.084337
50
90
71
7
72
5
7
iso_b_vert
0
MTEXT
5
12D
100
AcDbEntity
8
SK2
62
256
6
ByLayer
370
18
48
1
60
0
100
AcDbMText
10
111.909114
20
3.734657
30
0
210
0
220
0
230
1
1
\W0.7071;140%%d
40
3
41
0
44
1.084337
50
270
71
7
72
5
7
iso_b_vert
0
MTEXT
5
136
100
AcDbEntity
8
SK6
62
256
6
ByLayer
370
18
48
1
60
0
100
AcDbMText
10
-5.476626
20
-67.114886
30
0
210
0
220
0
230
1
1
\W0.7564;H85517/32
40
3
41
0
44
1.084337
50
0
71
7
72
5
7
iso_b_vert
0
HATCH
5
11E
100
AcDbEntity
8
SK2
62
256
6
ByLayer
370
13
48
1
60
0
100
AcDbHatch
10
0
20
0
30
0
210
0
220
0
230
1
2
ANSI31
70
0
71
0
91
1
92
5
93
3
72
1
10
-54.5
20
7.9375
11
-54.0392162584472
21
4.43750169255318
72
1
10
-54.0392162584472
20
4.43750169255318
11
-54.9607837415528
21
4.43749830744682
72
1
10
-54.9607837415528
20
4.43749830744682
11
-54.5
21
7.9375
97
0
75
0
76
1
52
0
41
0.0062
77
0
78
1
53
45
43
0
44
0
45
-0.0139193969876572
46
0.0139193969876572
79
0
47
0
98
1
10
0
20
0
0
HATCH
5
122
100
AcDbEntity
8
SK2
62
256
6
ByLayer
370
13
48
1
60
0
100
AcDbHatch
10
0
20
0
30
0
210
0
220
0
230
1
2
ANSI31
70
0
71
0
91
1
92
5
93
3
72
1
10
-54.5
20
-7.9375
11
-54.9607837415528
21
-4.43750169255318
72
1
10
-54.9607837415528
20
-4.43750169255318
11
-54.0392162584472
21
-4.43749830744682
72
1
10
-54.0392162584472
20
-4.43749830744682
11
-54.5
21
-7.9375
97
0
75
0
76
1
52
0
41
0.0062
77
0
78
1
53
45
43
0
44
0
45
-0.0139193969876572
46
0.0139193969876572
79
0
47
0
98
1
10
0
20
0
0
HATCH
5
128
100
AcDbEntity
8
2
62
256
6
ByLayer
370
13
48
1
60
0
100
AcDbHatch
10
0
20
0
30
0
210
0
220
0
230
1
2
ANSI31
70
0
71
0
91
1
92
5
93
3
72
1
10
99.4999999999999
20
6.74699999999999
11
99.9607837415527
21
3.24700169255317
72
1
10
99.9607837415527
20
3.24700169255317
11
99.0392162584471
21
3.2469983074468
72
1
10
99.0392162584471
20
3.2469983074468
11
99.4999999999999
21
6.74699999999999
97
0
75
0
76
1
52
0
41
0.0062
77
0
78
1
53
45
43
0
44
0
45
-0.0139193969876572
46
0.0139193969876572
79
0
47
0
98
1
10
0
20
0
0
HATCH
5
12C
100
AcDbEntity
8
2
62
256
6
ByLayer
370
13
48
1
60
0
100
AcDbHatch
10
0
20
0
30
0
210
0
220
0
230
1
2
ANSI31
70
0
71
0
91
1
92
5
93
3
72
1
10
99.4999999999999
20
-6.74700000000001
11
99.0392162584471
21
-3.2470016925532
72
1
10
99.0392162584471
20
-3.2470016925532
11
99.9607837415527
21
-3.24699830744683
72
1
10
99.9607837415527
20
-3.24699830744683
11
99.4999999999999
21
-6.74700000000001
97
0
75
0
76
1
52
0
41
0.0062
77
0
78
1
53
45
43
0
44
0
45
-0.0139193969876572
46
0.0139193969876572
79
0
47
0
98
1
10
0
20
0
0
HATCH
5
131
100
AcDbEntity
8
SK2
62
256
6
ByLayer
370
13
48
1
60
0
100
AcDbHatch
10
0
20
0
30
0
210
0
220
0
230
1
2
ANSI31
70
0
71
0
91
1
92
5
93
3
72
1
10
98.4983827231878
20
-17.8541597949323
11
101.551575425693
21
-16.0820638240608
72
1
10
101.551575425693
20
-16.0820638240608
11
101.906195833975
21
-16.9326700737196
72
1
10
101.906195833975
20
-16.9326700737196
11
98.4983827231878
21
-17.8541597949323
97
0
75
0
76
1
52
0
41
0.0062
77
0
78
1
53
45
43
0
44
0
45
-0.0139193969876572
46
0.0139193969876572
79
0
47
0
98
1
10
0
20
0
0
HATCH
5
135
100
AcDbEntity
8
SK2
62
256
6
ByLayer
370
13
48
1
60
0
100
AcDbHatch
10
0
20
0
30
0
210
0
220
0
230
1
2
ANSI31
70
0
71
0
91
1
92
5
93
3
72
1
10
98.4983827231878
20
17.8541597949323
11
101.906192709519
21
16.9326713763016
72
1
10
101.906192709519
20
16.9326713763016
11
101.551578550149
21
16.0820625214787
72
1
10
101.551578550149
20
16.0820625214787
11
98.4983827231878
21
17.8541597949323
97
0
75
0
76
1
52
0
41
0.0062
77
0
78
1
53
45
43
0
44
0
45
-0.0139193969876572
46
0.0139193969876572
79
0
47
0
98
1
10
0
20
0
0
DIMENSION
5
139
100
AcDbEntity
8
SK2
62
256
6
ByLayer
370
18
48
1
60
0
100
AcDbDimension
2
_U0
10
92
20
-45.952229
30
0
11
22
21
-45.952229
31
0
70
32
71
1
72
1
41
1
210
0
220
0
230
1
3
Standard
100
AcDbAlignedDimension
13
-48
23
-7.9375
33
0
14
92
24
0
34
0
50
0
100
AcDbRotatedDimension
1001
ACAD
1000
DSTYLE
1002
{
1070
   371
1070
    13
1070
   372
1070
    13
1070
     3
1000

1070
   170
1070
     0
1070
   144
1040
1.0
1070
   277
1070
     2
1070
   284
1070
     8
1070
   278
1070
    46
1070
   146
1040
1.166667
1070
   345
1005
16
1070
   347
1005
16
1070
   346
1005
16
1070
   344
1005
0
1070
   343
1005
0
1070
   172
1070
     1
1070
    76
1070
     0
1070
    75
1070
     0
1070
   282
1070
     0
1070
   281
1070
     0
1070
    71
1070
     0
1070
    74
1070
     0
1070
   279
1070
     0
1070
   173
1070
     1
1070
   340
1005
118
1070
   271
1070
     2
1070
   272
1070
     3
1070
    77
1070
     1
1070
    73
1070
     1
1070
   171
1070
     3
1070
   274
1070
     4
1070
   177
1070
     2
1070
   176
1070
     2
1070
   178
1070
     2
1070
    78
1070
     8
1070
    48
1040
-0.1
1070
    41
1040
3.5
1070
   147
1040
1.5
1070
    42
1040
1.5875
1070
    44
1040
2.0
1070
   140
1040
3.0
1002
}
1001
ACAD_DSTYLE_DIM_LINETYPE
1070
   380
1005
16
1001
ACAD_DSTYLE_DIM_EXT1_LINETYPE
1070
   381
1005
16
1001
ACAD_DSTYLE_DIM_EXT2_LINETYPE
1070
   382
1005
16
0
DIMENSION
5
152
100
AcDbEntity
8
SK2
62
256
6
ByLayer
370
18
48
1
60
0
100
AcDbDimension
2
_U1
10
3
20
-35.952229
30
0
11
47.5
21
-35.952229
31
0
70
32
71
1
72
1
41
1
210
0
220
0
230
1
3
Standard
100
AcDbAlignedDimension
13
92
23
0
33
0
14
3
24
-6.747
34
0
50
0
100
AcDbRotatedDimension
1001
ACAD
1000
DSTYLE
1002
{
1070
   371
1070
    13
1070
   372
1070
    13
1070
     3
1000

1070
   170
1070
     0
1070
   144
1040
1.0
1070
   277
1070
     2
1070
   284
1070
     8
1070
   278
1070
    46
1070
   146
1040
1.166667
1070
   345
1005
16
1070
   347
1005
16
1070
   346
1005
16
1070
   344
1005
0
1070
   343
1005
0
1070
   172
1070
     1
1070
    76
1070
     0
1070
    75
1070
     0
1070
   282
1070
     0
1070
   281
1070
     0
1070
    71
1070
     0
1070
    74
1070
     0
1070
   279
1070
     0
1070
   173
1070
     1
1070
   340
1005
118
1070
   271
1070
     2
1070
   272
1070
     3
1070
    77
1070
     1
1070
    73
1070
     1
1070
   171
1070
     3
1070
   274
1070
     4
1070
   177
1070
     2
1070
   176
1070
     2
1070
   178
1070
     2
1070
    78
1070
     8
1070
    48
1040
-0.1
1070
    41
1040
3.5
1070
   147
1040
1.5
1070
    42
1040
1.5875
1070
    44
1040
2.0
1070
   140
1040
3.0
1002
}
1001
ACAD_DSTYLE_DIM_LINETYPE
1070
   380
1005
16
1001
ACAD_DSTYLE_DIM_EXT1_LINETYPE
1070
   381
1005
16
1001
ACAD_DSTYLE_DIM_EXT2_LINETYPE
1070
   382
1005
16
0
DIMENSION
5
16A
100
AcDbEntity
8
SK2
62
256
6
ByLayer
370
18
48
1
60
0
100
AcDbDimension
2
_U2
10
0
20
-35.952229
30
0
11
-24
21
-35.952229
31
0
70
32
71
1
72
1
41
1
210
0
220
0
230
1
3
Standard
100
AcDbAlignedDimension
13
-48
23
-7.9375
33
0
14
0
24
-7.9375
34
0
50
0
100
AcDbRotatedDimension
1001
ACAD
1000
DSTYLE
1002
{
1070
   371
1070
    13
1070
   372
1070
    13
1070
     3
1000

1070
   170
1070
     0
1070
   144
1040
1.0
1070
   277
1070
     2
1070
   284
1070
     8
1070
   278
1070
    46
1070
   146
1040
1.166667
1070
   345
1005
16
1070
   347
1005
16
1070
   346
1005
16
1070
   344
1005
0
1070
   343
1005
0
1070
   172
1070
     1
1070
    76
1070
     0
1070
    75
1070
     0
1070
   282
1070
     0
1070
   281
1070
     0
1070
    71
1070
     0
1070
    74
1070
     0
1070
   279
1070
     0
1070
   173
1070
     1
1070
   340
1005
118
1070
   271
1070
     2
1070
   272
1070
     3
1070
    77
1070
     1
1070
    73
1070
     1
1070
   171
1070
     3
1070
   274
1070
     4
1070
   177
1070
     2
1070
   176
1070
     2
1070
   178
1070
     2
1070
    78
1070
     8
1070
    48
1040
-0.1
1070
    41
1040
3.5
1070
   147
1040
1.5
1070
    42
1040
1.5875
1070
    44
1040
2.0
1070
   140
1040
3.0
1002
}
1001
ACAD_DSTYLE_DIM_LINETYPE
1070
   380
1005
16
1001
ACAD_DSTYLE_DIM_EXT1_LINETYPE
1070
   381
1005
16
1001
ACAD_DSTYLE_DIM_EXT2_LINETYPE
1070
   382
1005
16
0
DIMENSION
5
182
100
AcDbEntity
8
SK2
62
256
6
ByLayer
370
18
48
1
60
0
100
AcDbDimension
2
_U3
10
18
20
32.952229
30
0
11
55
21
32.952229
31
0
70
32
71
1
72
1
41
1
210
0
220
0
230
1
3
Standard
100
AcDbAlignedDimension
13
92
23
0
33
0
14
18
24
6.747
34
0
50
0
100
AcDbRotatedDimension
1001
ACAD
1000
DSTYLE
1002
{
1070
   371
1070
    13
1070
   372
1070
    13
1070
     3
1000

1070
   170
1070
     0
1070
   144
1040
1.0
1070
   277
1070
     2
1070
   284
1070
     8
1070
   278
1070
    46
1070
   146
1040
1.166667
1070
   345
1005
16
1070
   347
1005
16
1070
   346
1005
16
1070
   344
1005
0
1070
   343
1005
0
1070
   172
1070
     1
1070
    76
1070
     0
1070
    75
1070
     0
1070
   282
1070
     0
1070
   281
1070
     0
1070
    71
1070
     0
1070
    74
1070
     0
1070
   279
1070
     0
1070
   173
1070
     1
1070
   340
1005
118
1070
   271
1070
     2
1070
   272
1070
     3
1070
    77
1070
     1
1070
    73
1070
     1
1070
   171
1070
     3
1070
   274
1070
     4
1070
   177
1070
     2
1070
   176
1070
     2
1070
   178
1070
     2
1070
    78
1070
     8
1070
    48
1040
-0.1
1070
    41
1040
3.5
1070
   147
1040
1.5
1070
    42
1040
1.5875
1070
    44
1040
2.0
1070
   140
1040
3.0
1002
}
1001
ACAD_DSTYLE_DIM_LINETYPE
1070
   380
1005
16
1001
ACAD_DSTYLE_DIM_EXT1_LINETYPE
1070
   381
1005
16
1001
ACAD_DSTYLE_DIM_EXT2_LINETYPE
1070
   382
1005
16
0
ENDSEC
0
SECTION
2
OBJECTS
0
DICTIONARY
5
20a
330
0
100
AcDbDictionary
280
0
281
1
3
ACAD_GROUP
350
20b
3
ACAD_MLINESTYLE
350
20c
0
DICTIONARY
5
20b
330
0
100
AcDbDictionary
280
0
281
1
0
DICTIONARY
5
20c
330
0
100
AcDbDictionary
280
0
281
1
3
Standard
350
18
0
MLINESTYLE
5
18
330
20c
100
AcDbMlineStyle
2
Standard
70
0
3

62
256
51
90
52
90
71
2
49
-0.5
62
256
6
ByLayer
49
0.5
62
256
6
ByLayer
0
RASTERVARIABLES
5
1f8
330

100
AcDbRasterVariables
90
0
70
1
71
1
72
1
0
ENDSEC
0
EOF
