0
SECTION
2
HEADER
9
$ACADVER
1
AC1015
9
$DWGCODEPAGE
3
ANSI_1252
9
$HANDSEED
5
225
9
$ANGBASE
50
0
9
$ANGDIR
70
0
9
$ATTMODE
70
1
9
$AUNITS
70
0
9
$AUPREC
70
0
9
$CECOLOR
62
256
9
$CELTSCALE
40
1
9
$CELTYPE
6
ByLayer
9
$CELWEIGHT
370
18
9
$CLAYER
8
0
9
$CMLJUST
70
0
9
$CMLSCALE
40
1
9
$CMLSTYLE
2
Standard
9
$DIMSTYLE
2
Standard
9
$TEXTSIZE
40
0.2
9
$TEXTSTYLE
7
Standard
9
$LUNITS
70
2
9
$LUPREC
70
4
9
$EXTNAMES
290
1
9
$INSUNITS
70
4
9
$LTSCALE
40
1
9
$LWDISPLAY
290
1
9
$PDMODE
70
0
9
$PDSIZE
40
0
9
$PLINEGEN
70
0
0
ENDSEC
0
SECTION
2
CLASSES
0
CLASS
1
RASTERVARIABLES
2
AcDbRasterVariables
3
ISM
90
0
280
0
281
0
0
ENDSEC
0
SECTION
2
TABLES
0
TABLE
2
VPORT
5
21b
100
AcDbSymbolTable
0
VPORT
5
1
100
AcDbSymbolTableRecord
100
AcDbViewportTableRecord
2
*Active
70
0
10
0
20
0
11
1
21
1
12
-1
22
1
13
0
23
0
14
0.5
24
0.5
15
10
25
10
16
0
26
0
36
1
17
0
27
0
37
0
0
ENDTAB
0
TABLE
2
LTYPE
5
21c
100
AcDbSymbolTable
0
LTYPE
5
14
100
AcDbSymbolTableRecord
100
AcDbLinetypeTableRecord
70
0
2
ByBlock
3

72
65
73
0
40
0
0
LTYPE
5
15
100
AcDbSymbolTableRecord
100
AcDbLinetypeTableRecord
70
0
2
ByLayer
3

72
65
73
0
40
0
0
LTYPE
5
16
100
AcDbSymbolTableRecord
100
AcDbLinetypeTableRecord
70
0
2
Continuous
3
Solid line
72
65
73
0
40
0
0
LTYPE
5
6E
100
AcDbSymbolTableRecord
100
AcDbLinetypeTableRecord
70
0
2
CENTER
3
____ _ ____ _ ____ _ ____
72
65
73
4
40
47.5
49
22
74
0
49
-8.5
74
0
49
8.5
74
0
49
-8.5
74
0
0
LTYPE
5
6F
100
AcDbSymbolTableRecord
100
AcDbLinetypeTableRecord
70
0
2
DASHED
3
__ __ __ __ __ __ __ __ __
72
65
73
2
40
25.72
49
12.86
74
0
49
-12.86
74
0
0
ENDTAB
0
TABLE
2
LAYER
5
21d
100
AcDbSymbolTable
0
LAYER
5
10
100
AcDbSymbolTableRecord
100
AcDbLayerTableRecord
2
0
70
0
62
7
6
Continuous
290
1
370
-3
390
0
0
LAYER
5
71
100
AcDbSymbolTableRecord
100
AcDbLayerTableRecord
2
80
70
0
62
-6
6
Continuous
290
1
370
-3
390
0
0
LAYER
5
73
100
AcDbSymbolTableRecord
100
AcDbLayerTableRecord
2
81
70
0
62
-3
6
Continuous
290
1
370
-3
390
0
0
LAYER
5
75
100
AcDbSymbolTableRecord
100
AcDbLayerTableRecord
2
1
70
0
62
4
6
Continuous
290
1
370
-3
390
0
0
LAYER
5
7F
100
AcDbSymbolTableRecord
100
AcDbLayerTableRecord
2
4
70
0
62
-2
6
CENTER
290
1
370
-3
390
0
0
LAYER
5
AF
100
AcDbSymbolTableRecord
100
AcDbLayerTableRecord
2
2
70
0
62
7
6
Continuous
290
1
370
-3
390
0
0
LAYER
5
14A
100
AcDbSymbolTableRecord
100
AcDbLayerTableRecord
2
Defpoints
70
0
62
7
6
Continuous
290
0
370
-3
390
0
0
LAYER
5
207
100
AcDbSymbolTableRecord
100
AcDbLayerTableRecord
2
SK4
70
0
62
2
6
CENTER
290
1
370
-3
390
0
0
LAYER
5
208
100
AcDbSymbolTableRecord
100
AcDbLayerTableRecord
2
SK1
70
0
62
4
6
Continuous
290
1
370
-3
390
0
0
LAYER
5
209
100
AcDbSymbolTableRecord
100
AcDbLayerTableRecord
2
SK2
70
0
62
7
6
Continuous
290
1
370
-3
390
0
0
LAYER
5
20a
100
AcDbSymbolTableRecord
100
AcDbLayerTableRecord
2
SK6
70
0
62
5
6
Continuous
290
1
370
-3
390
0
0
ENDTAB
0
TABLE
2
STYLE
5
21e
100
AcDbSymbolTable
0
STYLE
5
11
100
AcDbSymbolTableRecord
100
AcDbTextStyleTableRecord
2
Standard
3
txt
70
0
71
0
40
0
41
1
42
0
50
0
0
STYLE
5
126
100
AcDbSymbolTableRecord
100
AcDbTextStyleTableRecord
2
iso_b_vert
3
simplex.shx
70
0
71
0
40
0
41
1
42
0
50
0
0
STYLE
5
127
100
AcDbSymbolTableRecord
100
AcDbTextStyleTableRecord
2
DWGDirectTextStyle
3
simplex
70
0
71
0
40
0
41
1
42
0
50
0
0
ENDTAB
0
TABLE
2
DIMSTYLE
5
21f
100
AcDbSymbolTable
100
AcDbDimStyleTable
0
DIMSTYLE
105
27
100
AcDbSymbolTableRecord
100
AcDbDimStyleTableRecord
2
Standard
70
0
3
<>
41
0.18
42
0.0625
44
0.18
140
0.18
147
0.09
73
0
74
0
77
1
271
2
275
0
278
52
280
0
340
11
0
ENDTAB
0
TABLE
2
VIEW
5
220
100
AcDbSymbolTable
0
ENDTAB
0
TABLE
2
UCS
5
221
100
AcDbSymbolTable
0
ENDTAB
0
TABLE
2
APPID
5
222
100
AcDbSymbolTable
0
APPID
5
12
100
AcDbSymbolTableRecord
100
AcDbRegAppTableRecord
2
ACAD
70
0
0
APPID
5
146
100
AcDbSymbolTableRecord
100
AcDbRegAppTableRecord
2
ACAD_DSTYLE_DIMBREAK
70
0
0
APPID
5
1C6
100
AcDbSymbolTableRecord
100
AcDbRegAppTableRecord
2
ACAD_DSTYLE_DIM_LINETYPE
70
0
0
APPID
5
1C7
100
AcDbSymbolTableRecord
100
AcDbRegAppTableRecord
2
ACAD_DSTYLE_DIM_EXT1_LINETYPE
70
0
0
APPID
5
1C8
100
AcDbSymbolTableRecord
100
AcDbRegAppTableRecord
2
ACAD_DSTYLE_DIM_EXT2_LINETYPE
70
0
0
APPID
5
203
100
AcDbSymbolTableRecord
100
AcDbRegAppTableRecord
2
ACAD_MLEADERVER
70
0
0
ENDTAB
0
TABLE
2
BLOCK_RECORD
5
223
100
AcDbSymbolTable
0
BLOCK_RECORD
5
1F
100
AcDbSymbolTableRecord
100
AcDbBlockTableRecord
2
*Model_Space
340
0
70
0
0
BLOCK_RECORD
5
1B
100
AcDbSymbolTableRecord
100
AcDbBlockTableRecord
2
*Paper_Space
340
0
70
0
0
BLOCK_RECORD
5
23
100
AcDbSymbolTableRecord
100
AcDbBlockTableRecord
2
*Paper_Space0
340
0
70
0
0
BLOCK_RECORD
5
14B
100
AcDbSymbolTableRecord
100
AcDbBlockTableRecord
2
*D1
340
0
70
0
0
BLOCK_RECORD
5
157
100
AcDbSymbolTableRecord
100
AcDbBlockTableRecord
2
_U0
340
0
70
0
0
BLOCK_RECORD
5
163
100
AcDbSymbolTableRecord
100
AcDbBlockTableRecord
2
*D3
340
0
70
0
0
BLOCK_RECORD
5
16F
100
AcDbSymbolTableRecord
100
AcDbBlockTableRecord
2
_U1
340
0
70
0
0
BLOCK_RECORD
5
17B
100
AcDbSymbolTableRecord
100
AcDbBlockTableRecord
2
*D5
340
0
70
0
0
BLOCK_RECORD
5
187
100
AcDbSymbolTableRecord
100
AcDbBlockTableRecord
2
_U2
340
0
70
0
0
BLOCK_RECORD
5
193
100
AcDbSymbolTableRecord
100
AcDbBlockTableRecord
2
*D7
340
0
70
0
0
BLOCK_RECORD
5
19F
100
AcDbSymbolTableRecord
100
AcDbBlockTableRecord
2
_U3
340
0
70
0
0
ENDTAB
0
ENDSEC
0
SECTION
2
BLOCKS
0
BLOCK
5
20
100
AcDbEntity
8
0
100
AcDbBlockBegin
2
*Model_Space
70
0
10
0
20
0
30
0
3
*Model_Space
0
ENDBLK
5
21
100
AcDbEntity
8
0
100
AcDbBlockEnd
0
BLOCK
5
1C
100
AcDbEntity
8
0
100
AcDbBlockBegin
2
*Paper_Space
70
0
10
0
20
0
30
0
3
*Paper_Space
0
ENDBLK
5
1D
100
AcDbEntity
8
0
100
AcDbBlockEnd
0
BLOCK
5
24
100
AcDbEntity
8
0
100
AcDbBlockBegin
2
*Paper_Space0
70
0
10
0
20
0
30
0
3
*Paper_Space0
0
ENDBLK
5
25
100
AcDbEntity
8
0
100
AcDbBlockEnd
0
BLOCK
5
14C
100
AcDbEntity
8
0
100
AcDbBlockBegin
2
*D1
70
1
10
0
20
0
30
0
3
*D1
0
LINE
5
14E
100
AcDbEntity
8
0
62
256
6
ByLayer
370
-2
48
1
60
0
100
AcDbLine
10
-50
20
-11.5875
30
0
11
-50
21
-47.952229
31
0
39
0
210
0
220
0
230
1
0
LINE
5
14F
100
AcDbEntity
8
0
62
256
6
ByLayer
370
-2
48
1
60
0
100
AcDbLine
10
116.5
20
-1.5875
30
0
11
116.5
21
-47.952229
31
0
39
0
210
0
220
0
230
1
0
LINE
5
150
100
AcDbEntity
8
0
62
256
6
ByLayer
370
-2
48
1
60
0
100
AcDbLine
10
-46.5
20
-45.952229
30
0
11
113
21
-45.952229
31
0
39
0
210
0
220
0
230
1
0
SOLID
5
151
100
AcDbEntity
8
0
62
256
6
ByLayer
370
-1
48
1
60
0
100
AcDbTrace
10
-46.5
20
-45.368896
30
0
11
-46.5
21
-46.535563
31
0
12
-50
22
-45.952229
32
0
13
-50
23
-45.952229
33
0
39
0
210
0
220
0
230
1
0
SOLID
5
152
100
AcDbEntity
8
0
62
256
6
ByLayer
370
-1
48
1
60
0
100
AcDbTrace
10
113
20
-46.535563
30
0
11
113
21
-45.368896
31
0
12
116.5
22
-45.952229
32
0
13
116.5
23
-45.952229
33
0
39
0
210
0
220
0
230
1
0
MTEXT
5
153
100
AcDbEntity
8
0
62
256
6
ByLayer
370
18
48
1
60
0
100
AcDbMText
10
33.25
20
-39.952229
30
0
210
0
220
0
230
1
1
\A1;166.5
40
3
41
0
44
1
50
0
71
5
72
5
7
iso_b_vert
0
POINT
5
154
100
AcDbEntity
8
Defpoints
62
0
6
ByLayer
370
-1
48
1
60
0
100
AcDbPoint
10
-50
20
-10
30
0
39
0
210
0
220
0
230
1
50
360
0
POINT
5
155
100
AcDbEntity
8
Defpoints
62
0
6
ByLayer
370
-1
48
1
60
0
100
AcDbPoint
10
116.5
20
0
30
0
39
0
210
0
220
0
230
1
50
360
0
POINT
5
156
100
AcDbEntity
8
Defpoints
62
0
6
ByLayer
370
-1
48
1
60
0
100
AcDbPoint
10
116.5
20
-45.952229
30
0
39
0
210
0
220
0
230
1
50
360
0
ENDBLK
5
14D
100
AcDbEntity
8
0
100
AcDbBlockEnd
0
BLOCK
5
15E
100
AcDbEntity
8
0
100
AcDbBlockBegin
2
_U0
70
0
10
0
20
0
30
0
3
_U0
0
MTEXT
5
158
100
AcDbEntity
8
SK2
62
256
6
ByLayer
370
18
48
1
60
0
100
AcDbMText
10
28.021658
20
-45.067115
30
0
210
0
220
0
230
1
1
\W0.7022;166.50
40
3
41
0
44
1.084337
50
0
71
7
72
5
7
iso_b_vert
0
LINE
5
159
100
AcDbEntity
8
SK2
62
256
6
ByLayer
370
13
48
1
60
0
100
AcDbLine
10
-50
20
-11.5875
30
0
11
-50
21
-47.952229
31
0
39
0
210
0
220
0
230
1
0
LINE
5
15A
100
AcDbEntity
8
SK2
62
256
6
ByLayer
370
13
48
1
60
0
100
AcDbLine
10
116.5
20
-1.5875
30
0
11
116.5
21
-47.952229
31
0
39
0
210
0
220
0
230
1
0
LINE
5
15B
100
AcDbEntity
8
SK2
62
256
6
ByLayer
370
13
48
1
60
0
100
AcDbLine
10
-50
20
-45.952229
30
0
11
116.5
21
-45.952229
31
0
39
0
210
0
220
0
230
1
0
SOLID
5
15C
100
AcDbEntity
8
SK2
62
256
6
ByLayer
370
18
48
1
60
0
100
AcDbTrace
10
-50
20
-45.952229
30
0
11
-46.500002
21
-45.491446
31
0
12
-46.499998
22
-46.413013
32
0
13
-46.499998
23
-46.413013
33
0
39
0
210
0
220
0
230
1
0
SOLID
5
15D
100
AcDbEntity
8
SK2
62
256
6
ByLayer
370
18
48
1
60
0
100
AcDbTrace
10
116.5
20
-45.952229
30
0
11
113.000002
21
-46.413013
31
0
12
112.999998
22
-45.491446
32
0
13
112.999998
23
-45.491446
33
0
39
0
210
0
220
0
230
1
0
ENDBLK
5
15F
100
AcDbEntity
8
0
100
AcDbBlockEnd
0
BLOCK
5
164
100
AcDbEntity
8
0
100
AcDbBlockBegin
2
*D3
70
1
10
0
20
0
30
0
3
*D3
0
LINE
5
166
100
AcDbEntity
8
0
62
256
6
ByLayer
370
-2
48
1
60
0
100
AcDbLine
10
116.5
20
-1.5875
30
0
11
116.5
21
-37.952229
31
0
39
0
210
0
220
0
230
1
0
LINE
5
167
100
AcDbEntity
8
0
62
256
6
ByLayer
370
-2
48
1
60
0
100
AcDbLine
10
3
20
-9.5875
30
0
11
3
21
-37.952229
31
0
39
0
210
0
220
0
230
1
0
LINE
5
168
100
AcDbEntity
8
0
62
256
6
ByLayer
370
-2
48
1
60
0
100
AcDbLine
10
113
20
-35.952229
30
0
11
6.5
21
-35.952229
31
0
39
0
210
0
220
0
230
1
0
SOLID
5
169
100
AcDbEntity
8
0
62
256
6
ByLayer
370
-1
48
1
60
0
100
AcDbTrace
10
113
20
-36.535563
30
0
11
113
21
-35.368896
31
0
12
116.5
22
-35.952229
32
0
13
116.5
23
-35.952229
33
0
39
0
210
0
220
0
230
1
0
SOLID
5
16A
100
AcDbEntity
8
0
62
256
6
ByLayer
370
-1
48
1
60
0
100
AcDbTrace
10
6.5
20
-35.368896
30
0
11
6.5
21
-36.535563
31
0
12
3
22
-35.952229
32
0
13
3
23
-35.952229
33
0
39
0
210
0
220
0
230
1
0
MTEXT
5
16B
100
AcDbEntity
8
0
62
256
6
ByLayer
370
18
48
1
60
0
100
AcDbMText
10
59.75
20
-29.952229
30
0
210
0
220
0
230
1
1
\A1;113.5
40
3
41
0
44
1
50
0
71
5
72
5
7
iso_b_vert
0
POINT
5
16C
100
AcDbEntity
8
Defpoints
62
0
6
ByLayer
370
-1
48
1
60
0
100
AcDbPoint
10
116.5
20
0
30
0
39
0
210
0
220
0
230
1
50
360
0
POINT
5
16D
100
AcDbEntity
8
Defpoints
62
0
6
ByLayer
370
-1
48
1
60
0
100
AcDbPoint
10
3
20
-8
30
0
39
0
210
0
220
0
230
1
50
360
0
POINT
5
16E
100
AcDbEntity
8
Defpoints
62
0
6
ByLayer
370
-1
48
1
60
0
100
AcDbPoint
10
3
20
-35.952229
30
0
39
0
210
0
220
0
230
1
50
360
0
ENDBLK
5
165
100
AcDbEntity
8
0
100
AcDbBlockEnd
0
BLOCK
5
176
100
AcDbEntity
8
0
100
AcDbBlockBegin
2
_U1
70
0
10
0
20
0
30
0
3
_U1
0
MTEXT
5
170
100
AcDbEntity
8
SK2
62
256
6
ByLayer
370
18
48
1
60
0
100
AcDbMText
10
54.896601
20
-35.067115
30
0
210
0
220
0
230
1
1
\W0.6532;113.50
40
3
41
0
44
1.084337
50
0
71
7
72
5
7
iso_b_vert
0
LINE
5
171
100
AcDbEntity
8
SK2
62
256
6
ByLayer
370
13
48
1
60
0
100
AcDbLine
10
116.5
20
-1.5875
30
0
11
116.5
21
-37.952229
31
0
39
0
210
0
220
0
230
1
0
LINE
5
172
100
AcDbEntity
8
SK2
62
256
6
ByLayer
370
13
48
1
60
0
100
AcDbLine
10
3
20
-9.5875
30
0
11
3
21
-37.952229
31
0
39
0
210
0
220
0
230
1
0
LINE
5
173
100
AcDbEntity
8
SK2
62
256
6
ByLayer
370
13
48
1
60
0
100
AcDbLine
10
116.5
20
-35.952229
30
0
11
3
21
-35.952229
31
0
39
0
210
0
220
0
230
1
0
SOLID
5
174
100
AcDbEntity
8
SK2
62
256
6
ByLayer
370
18
48
1
60
0
100
AcDbTrace
10
116.5
20
-35.952229
30
0
11
113.000002
21
-36.413013
31
0
12
112.999998
22
-35.491446
32
0
13
112.999998
23
-35.491446
33
0
39
0
210
0
220
0
230
1
0
SOLID
5
175
100
AcDbEntity
8
SK2
62
256
6
ByLayer
370
18
48
1
60
0
100
AcDbTrace
10
3
20
-35.952229
30
0
11
6.499998
21
-35.491446
31
0
12
6.500002
22
-36.413013
32
0
13
6.500002
23
-36.413013
33
0
39
0
210
0
220
0
230
1
0
ENDBLK
5
177
100
AcDbEntity
8
0
100
AcDbBlockEnd
0
BLOCK
5
17C
100
AcDbEntity
8
0
100
AcDbBlockBegin
2
*D5
70
1
10
0
20
0
30
0
3
*D5
0
LINE
5
17E
100
AcDbEntity
8
0
62
256
6
ByLayer
370
-2
48
1
60
0
100
AcDbLine
10
-50
20
-11.5875
30
0
11
-50
21
-37.952229
31
0
39
0
210
0
220
0
230
1
0
LINE
5
17F
100
AcDbEntity
8
0
62
256
6
ByLayer
370
-2
48
1
60
0
100
AcDbLine
10
0
20
-11.5875
30
0
11
0
21
-37.952229
31
0
39
0
210
0
220
0
230
1
0
LINE
5
180
100
AcDbEntity
8
0
62
256
6
ByLayer
370
-2
48
1
60
0
100
AcDbLine
10
-46.5
20
-35.952229
30
0
11
-3.5
21
-35.952229
31
0
39
0
210
0
220
0
230
1
0
SOLID
5
181
100
AcDbEntity
8
0
62
256
6
ByLayer
370
-1
48
1
60
0
100
AcDbTrace
10
-46.5
20
-35.368896
30
0
11
-46.5
21
-36.535563
31
0
12
-50
22
-35.952229
32
0
13
-50
23
-35.952229
33
0
39
0
210
0
220
0
230
1
0
SOLID
5
182
100
AcDbEntity
8
0
62
256
6
ByLayer
370
-1
48
1
60
0
100
AcDbTrace
10
-3.5
20
-36.535563
30
0
11
-3.5
21
-35.368896
31
0
12
0
22
-35.952229
32
0
13
0
23
-35.952229
33
0
39
0
210
0
220
0
230
1
0
MTEXT
5
183
100
AcDbEntity
8
0
62
256
6
ByLayer
370
18
48
1
60
0
100
AcDbMText
10
-25
20
-29.952229
30
0
210
0
220
0
230
1
1
\A1;50
40
3
41
0
44
1
50
0
71
5
72
5
7
iso_b_vert
0
POINT
5
184
100
AcDbEntity
8
Defpoints
62
0
6
ByLayer
370
-1
48
1
60
0
100
AcDbPoint
10
-50
20
-10
30
0
39
0
210
0
220
0
230
1
50
360
0
POINT
5
185
100
AcDbEntity
8
Defpoints
62
0
6
ByLayer
370
-1
48
1
60
0
100
AcDbPoint
10
0
20
-10
30
0
39
0
210
0
220
0
230
1
50
360
0
POINT
5
186
100
AcDbEntity
8
Defpoints
62
0
6
ByLayer
370
-1
48
1
60
0
100
AcDbPoint
10
0
20
-35.952229
30
0
39
0
210
0
220
0
230
1
50
360
0
ENDBLK
5
17D
100
AcDbEntity
8
0
100
AcDbBlockEnd
0
BLOCK
5
18E
100
AcDbEntity
8
0
100
AcDbBlockBegin
2
_U2
70
0
10
0
20
0
30
0
3
_U2
0
MTEXT
5
188
100
AcDbEntity
8
SK2
62
256
6
ByLayer
370
18
48
1
60
0
100
AcDbMText
10
-29.48237
20
-35.067115
30
0
210
0
220
0
230
1
1
\W0.7468;50.00
40
3
41
0
44
1.084337
50
0
71
7
72
5
7
iso_b_vert
0
LINE
5
189
100
AcDbEntity
8
SK2
62
256
6
ByLayer
370
13
48
1
60
0
100
AcDbLine
10
-50
20
-11.5875
30
0
11
-50
21
-37.952229
31
0
39
0
210
0
220
0
230
1
0
LINE
5
18A
100
AcDbEntity
8
SK2
62
256
6
ByLayer
370
13
48
1
60
0
100
AcDbLine
10
0
20
-11.5875
30
0
11
0
21
-37.952229
31
0
39
0
210
0
220
0
230
1
0
LINE
5
18B
100
AcDbEntity
8
SK2
62
256
6
ByLayer
370
13
48
1
60
0
100
AcDbLine
10
-50
20
-35.952229
30
0
11
0
21
-35.952229
31
0
39
0
210
0
220
0
230
1
0
SOLID
5
18C
100
AcDbEntity
8
SK2
62
256
6
ByLayer
370
18
48
1
60
0
100
AcDbTrace
10
-50
20
-35.952229
30
0
11
-46.500002
21
-35.491446
31
0
12
-46.499998
22
-36.413013
32
0
13
-46.499998
23
-36.413013
33
0
39
0
210
0
220
0
230
1
0
SOLID
5
18D
100
AcDbEntity
8
SK2
62
256
6
ByLayer
370
18
48
1
60
0
100
AcDbTrace
10
0
20
-35.952229
30
0
11
-3.499998
21
-36.413013
31
0
12
-3.500002
22
-35.491446
32
0
13
-3.500002
23
-35.491446
33
0
39
0
210
0
220
0
230
1
0
ENDBLK
5
18F
100
AcDbEntity
8
0
100
AcDbBlockEnd
0
BLOCK
5
194
100
AcDbEntity
8
0
100
AcDbBlockBegin
2
*D7
70
1
10
0
20
0
30
0
3
*D7
0
LINE
5
196
100
AcDbEntity
8
0
62
256
6
ByLayer
370
-2
48
1
60
0
100
AcDbLine
10
116.5
20
1.5875
30
0
11
116.5
21
34.952229
31
0
39
0
210
0
220
0
230
1
0
LINE
5
197
100
AcDbEntity
8
0
62
256
6
ByLayer
370
-2
48
1
60
0
100
AcDbLine
10
24
20
9.5875
30
0
11
24
21
34.952229
31
0
39
0
210
0
220
0
230
1
0
LINE
5
198
100
AcDbEntity
8
0
62
256
6
ByLayer
370
-2
48
1
60
0
100
AcDbLine
10
113
20
32.952229
30
0
11
27.5
21
32.952229
31
0
39
0
210
0
220
0
230
1
0
SOLID
5
199
100
AcDbEntity
8
0
62
256
6
ByLayer
370
-1
48
1
60
0
100
AcDbTrace
10
113
20
32.368896
30
0
11
113
21
33.535563
31
0
12
116.5
22
32.952229
32
0
13
116.5
23
32.952229
33
0
39
0
210
0
220
0
230
1
0
SOLID
5
19A
100
AcDbEntity
8
0
62
256
6
ByLayer
370
-1
48
1
60
0
100
AcDbTrace
10
27.5
20
33.535563
30
0
11
27.5
21
32.368896
31
0
12
24
22
32.952229
32
0
13
24
23
32.952229
33
0
39
0
210
0
220
0
230
1
0
MTEXT
5
19B
100
AcDbEntity
8
0
62
256
6
ByLayer
370
18
48
1
60
0
100
AcDbMText
10
70.25
20
38.952229
30
0
210
0
220
0
230
1
1
\A1;92.5
40
3
41
0
44
1
50
0
71
5
72
5
7
iso_b_vert
0
POINT
5
19C
100
AcDbEntity
8
Defpoints
62
0
6
ByLayer
370
-1
48
1
60
0
100
AcDbPoint
10
116.5
20
0
30
0
39
0
210
0
220
0
230
1
50
360
0
POINT
5
19D
100
AcDbEntity
8
Defpoints
62
0
6
ByLayer
370
-1
48
1
60
0
100
AcDbPoint
10
24
20
8
30
0
39
0
210
0
220
0
230
1
50
360
0
POINT
5
19E
100
AcDbEntity
8
Defpoints
62
0
6
ByLayer
370
-1
48
1
60
0
100
AcDbPoint
10
24
20
32.952229
30
0
39
0
210
0
220
0
230
1
50
360
0
ENDBLK
5
195
100
AcDbEntity
8
0
100
AcDbBlockEnd
0
BLOCK
5
1A6
100
AcDbEntity
8
0
100
AcDbBlockBegin
2
_U3
70
0
10
0
20
0
30
0
3
_U3
0
MTEXT
5
1A0
100
AcDbEntity
8
SK2
62
256
6
ByLayer
370
18
48
1
60
0
100
AcDbMText
10
65.76763
20
33.837344
30
0
210
0
220
0
230
1
1
\W0.7468;92.50
40
3
41
0
44
1.084337
50
0
71
7
72
5
7
iso_b_vert
0
LINE
5
1A1
100
AcDbEntity
8
SK2
62
256
6
ByLayer
370
13
48
1
60
0
100
AcDbLine
10
116.5
20
1.5875
30
0
11
116.5
21
34.952229
31
0
39
0
210
0
220
0
230
1
0
LINE
5
1A2
100
AcDbEntity
8
SK2
62
256
6
ByLayer
370
13
48
1
60
0
100
AcDbLine
10
24
20
9.5875
30
0
11
24
21
34.952229
31
0
39
0
210
0
220
0
230
1
0
LINE
5
1A3
100
AcDbEntity
8
SK2
62
256
6
ByLayer
370
13
48
1
60
0
100
AcDbLine
10
116.5
20
32.952229
30
0
11
24
21
32.952229
31
0
39
0
210
0
220
0
230
1
0
SOLID
5
1A4
100
AcDbEntity
8
SK2
62
256
6
ByLayer
370
18
48
1
60
0
100
AcDbTrace
10
116.5
20
32.952229
30
0
11
113.000002
21
32.491446
31
0
12
112.999998
22
33.413013
32
0
13
112.999998
23
33.413013
33
0
39
0
210
0
220
0
230
1
0
SOLID
5
1A5
100
AcDbEntity
8
SK2
62
256
6
ByLayer
370
18
48
1
60
0
100
AcDbTrace
10
24
20
32.952229
30
0
11
27.499998
21
33.413013
31
0
12
27.500002
22
32.491446
32
0
13
27.500002
23
32.491446
33
0
39
0
210
0
220
0
230
1
0
ENDBLK
5
1A7
100
AcDbEntity
8
0
100
AcDbBlockEnd
0
ENDSEC
0
SECTION
2
ENTITIES
0
ARC
5
C0
100
AcDbEntity
8
SK2
62
256
6
ByLayer
370
13
48
1
60
0
100
AcDbCircle
39
0
10
116.5
20
0
30
0
40
19
210
0
220
0
230
1
100
AcDbArc
50
290
51
70
0
ELLIPSE
5
C1
100
AcDbEntity
8
SK1
62
256
6
ByLayer
370
18
48
1
60
0
100
AcDbEllipse
10
209.817277
20
0
30
0
11
286.362532830084
21
-3.24477297310427E-13
31
0
210
0
220
0
230
1
40
0.034921
41
2.47357625657654
42
2.64710298745217
0
ELLIPSE
5
C2
100
AcDbEntity
8
SK1
62
256
6
ByLayer
370
18
48
1
60
0
100
AcDbEllipse
10
-22.723687
20
0
30
0
11
10.7236871002449
21
-1.21510065339267E-14
31
0
210
0
220
0
230
1
40
0.932515
41
-0.59537570803654
42
0.595375708036542
0
ELLIPSE
5
C3
100
AcDbEntity
8
SK1
62
256
6
ByLayer
370
18
48
1
60
0
100
AcDbEllipse
10
209.817277
20
0
30
0
11
286.362532824103
21
-3.2447729730365E-13
31
0
210
0
220
0
230
1
40
0.034921
41
-2.64710298745053
42
-2.47357625657208
0
ELLIPSE
5
C4
100
AcDbEntity
8
SK1
62
256
6
ByLayer
370
18
48
1
60
0
100
AcDbEllipse
10
-34.674849
20
0
30
0
11
-1.83690953073338E-15
21
-9.99999999999897
31
0
210
0
220
0
230
1
40
0.932515
41
-1.94446667349865
42
-1.19712598009114
0
POINT
5
70
100
AcDbEntity
8
80
62
256
6
ByLayer
370
18
48
1
60
0
100
AcDbPoint
10
0
20
0
30
0
39
0
210
0
220
0
230
1
50
360
0
POINT
5
72
100
AcDbEntity
8
81
62
256
6
ByLayer
370
18
48
1
60
0
100
AcDbPoint
10
116.5
20
0
30
0
39
0
210
0
220
0
230
1
50
360
0
POINT
5
74
100
AcDbEntity
8
1
62
256
6
ByLayer
370
18
48
1
60
1
100
AcDbPoint
10
-50
20
-10
30
0
39
0
210
0
220
0
230
1
50
360
0
POINT
5
76
100
AcDbEntity
8
1
62
256
6
ByLayer
370
18
48
1
60
1
100
AcDbPoint
10
116.5
20
0
30
0
39
0
210
0
220
0
230
1
50
360
0
POINT
5
77
100
AcDbEntity
8
1
62
256
6
ByLayer
370
18
48
1
60
1
100
AcDbPoint
10
116.5
20
0
30
0
39
0
210
0
220
0
230
1
50
360
0
POINT
5
78
100
AcDbEntity
8
1
62
256
6
ByLayer
370
18
48
1
60
1
100
AcDbPoint
10
3
20
-8
30
0
39
0
210
0
220
0
230
1
50
360
0
POINT
5
79
100
AcDbEntity
8
1
62
256
6
ByLayer
370
18
48
1
60
1
100
AcDbPoint
10
-50
20
-10
30
0
39
0
210
0
220
0
230
1
50
360
0
POINT
5
7A
100
AcDbEntity
8
1
62
256
6
ByLayer
370
18
48
1
60
1
100
AcDbPoint
10
0
20
-10
30
0
39
0
210
0
220
0
230
1
50
360
0
POINT
5
7B
100
AcDbEntity
8
1
62
256
6
ByLayer
370
18
48
1
60
1
100
AcDbPoint
10
116.5
20
0
30
0
39
0
210
0
220
0
230
1
50
360
0
POINT
5
7C
100
AcDbEntity
8
1
62
256
6
ByLayer
370
18
48
1
60
1
100
AcDbPoint
10
24
20
8
30
0
39
0
210
0
220
0
230
1
50
360
0
SPLINE
5
C5
100
AcDbEntity
8
1
62
256
6
ByLayer
370
18
48
1
60
0
100
AcDbSpline
70
4
71
3
72
14
73
10
40
0
40
0
40
0
40
0
40
0.25
40
0.25
40
0.5
40
0.5
40
0.75
40
0.75
40
1
40
1
40
1
40
1
41
1
10
13.2170359482112
20
7.34868804320737
30
0
41
1
10
12.9441237916812
20
7.37822173949857
30
0
41
1
10
12.6728227823621
20
7.40705216370336
30
0
41
1
10
12.1326700756917
20
7.46200243461354
30
0
41
1
10
11.8638152273148
20
7.48812414915932
30
0
41
1
10
11.3280574373039
20
7.53672779318126
30
0
41
1
10
11.0611528574353
20
7.55921481919859
30
0
41
1
10
10.5291563429855
20
7.59989165206653
30
0
41
1
10
10.264064475539
20
7.61808878006167
30
0
41
1
10
10
20
7.63384918249369
30
0
0
SPLINE
5
C6
100
AcDbEntity
8
1
62
256
6
ByLayer
370
18
48
1
60
0
100
AcDbSpline
70
4
71
3
72
22
73
18
40
0
40
0
40
0
40
0
40
0.125000000000006
40
0.125000000000006
40
0.187500000000005
40
0.187500000000005
40
0.250000000000004
40
0.250000000000004
40
0.5
40
0.5
40
0.749999999999996
40
0.749999999999996
40
0.812499999999997
40
0.812499999999997
40
0.874999999999998
40
0.874999999999998
40
1
40
1
40
1
40
1
41
1
10
113.58823812589
20
-1.14371115914122
30
0
41
1
10
113.225592976769
20
-1.01330230265253
30
0
41
1
10
112.863230709819
20
-0.882285447499157
30
0
41
1
10
112.320150171779
20
-0.684743966488895
30
0
41
1
10
112.139214292981
20
-0.618689099975995
30
0
41
1
10
111.777371872758
20
-0.486588656981809
30
0
41
1
10
111.596444748949
20
-0.420600192423933
30
0
41
1
10
110.69176387122
20
-0.0910079377410398
30
0
41
1
10
109.967909838965
20
0.171646697986574
30
0
41
1
10
108.52030688123
20
0.695837154312926
30
0
41
1
10
107.796574580139
20
0.95741901662845
30
0
41
1
10
106.892229820088
20
1.28437706412913
30
0
41
1
10
106.711362026939
20
1.34972660247089
30
0
41
1
10
106.349454649456
20
1.47986404804615
30
0
41
1
10
106.168430134936
20
1.54469338800141
30
0
41
1
10
105.625153676953
20
1.73849046207187
30
0
41
1
10
105.26270041
20
1.86677172618204
30
0
41
1
10
104.9
20
1.99419714067605
30
0
0
SPLINE
5
C7
100
AcDbEntity
8
1
62
256
6
ByLayer
370
18
48
1
60
0
100
AcDbSpline
70
4
71
3
72
83
73
79
40
0
40
0
40
0
40
0
40
0.0312499999999987
40
0.0312499999999987
40
0.0624999999999974
40
0.0624999999999974
40
0.124999999999995
40
0.124999999999995
40
0.140624999999993
40
0.140624999999993
40
0.156249999999992
40
0.156249999999992
40
0.187499999999991
40
0.187499999999991
40
0.24999999999999
40
0.24999999999999
40
0.281249999999989
40
0.281249999999989
40
0.296874999999989
40
0.296874999999989
40
0.312499999999988
40
0.312499999999988
40
0.343749999999989
40
0.343749999999989
40
0.374999999999989
40
0.374999999999989
40
0.40624999999999
40
0.40624999999999
40
0.43749999999999
40
0.43749999999999
40
0.453124999999991
40
0.453124999999991
40
0.468749999999992
40
0.468749999999992
40
0.499999999999993
40
0.499999999999993
40
0.531249999999994
40
0.531249999999994
40
0.539062499999994
40
0.539062499999994
40
0.546874999999994
40
0.562499999999995
40
0.562499999999995
40
0.593749999999997
40
0.593749999999997
40
0.624999999999998
40
0.624999999999998
40
0.640624999999999
40
0.640624999999999
40
0.65625
40
0.65625
40
0.687500000000003
40
0.687500000000003
40
0.718750000000007
40
0.718750000000007
40
0.726562500000007
40
0.726562500000007
40
0.734375000000007
40
0.734375000000007
40
0.750000000000006
40
0.750000000000006
40
0.781250000000003
40
0.781250000000003
40
0.812500000000001
40
0.843749999999998
40
0.843749999999998
40
0.851562499999997
40
0.851562499999997
40
0.859374999999996
40
0.874999999999997
40
0.874999999999997
40
0.906249999999998
40
0.937499999999999
40
0.96875
40
0.96875
40
0.984375
40
0.984375
40
1
40
1
40
1
40
1
41
1
10
113.588238125896
20
7.74597354346318
30
0
41
1
10
113.638197335203
20
7.62211491443355
30
0
41
1
10
113.688235100425
20
7.49639386226642
30
0
41
1
10
113.788553144356
20
7.24151908046326
30
0
41
1
10
113.83883333697
20
7.1123646947014
30
0
41
1
10
113.990127642491
20
6.72006831719082
30
0
41
1
10
114.091609351708
20
6.45212040754501
30
0
41
1
10
114.219344804811
20
6.1097536053598
30
0
41
1
10
114.244934950699
20
6.04090643958099
30
0
41
1
10
114.296199137408
20
5.90247049115175
30
0
41
1
10
114.321883283598
20
5.83285335982526
30
0
41
1
10
114.398594974017
20
5.62414846630449
30
0
41
1
10
114.449436908072
20
5.48479608143387
30
0
41
1
10
114.601001863916
20
5.06608657342909
30
0
41
1
10
114.700815485996
20
4.78609681701968
30
0
41
1
10
114.847703172054
20
4.36452627448062
30
0
41
1
10
114.896182921487
20
4.2237343635411
30
0
41
1
10
114.96791165464
20
4.01205204298913
30
0
41
1
10
114.991654806451
20
3.9414083840432
30
0
41
1
10
115.038744653196
20
3.79993285806628
30
0
41
1
10
115.062097284178
20
3.72908108240841
30
0
41
1
10
115.131108972617
20
3.51722790563986
30
0
41
1
10
115.17584653029
20
3.37659319164135
30
0
41
1
10
115.261962643542
20
3.09629772201186
30
0
41
1
10
115.303346851805
20
2.95663787096311
30
0
41
1
10
115.381499468787
20
2.67800539837222
30
0
41
1
10
115.418274478045
20
2.5390333661224
30
0
41
1
10
115.485316629585
20
2.26140427553904
30
0
41
1
10
115.515586797236
20
2.12274608884655
30
0
41
1
10
115.554089510268
20
1.91465255454617
30
0
41
1
10
115.565777719028
20
1.84515480676549
30
0
41
1
10
115.58625226212
20
1.70742830661388
30
0
41
1
10
115.595067432607
20
1.63905828415312
30
0
41
1
10
115.616817143594
20
1.43548580236057
30
0
41
1
10
115.625009633468
20
1.30181402779246
30
0
41
1
10
115.627252872556
20
1.03903402041217
30
0
41
1
10
115.621290810945
20
0.909927988844458
30
0
41
1
10
115.605055192794
20
0.751817486047401
30
0
41
1
10
115.601369941858
20
0.720335235145313
30
0
41
1
10
115.59316089861
20
0.657813832313082
30
0
41
1
10
115.579635935761
20
0.565030884607381
30
0
41
1
10
115.562687028513
20
0.47520799870253
30
0
41
1
10
115.524794475054
20
0.299411981634478
30
0
41
1
10
115.494228407592
20
0.187340462396349
30
0
41
1
10
115.425249261837
20
-0.026958430394501
30
0
41
1
10
115.386841973087
20
-0.129188697631548
30
0
41
1
10
115.324879113095
20
-0.275267984100878
30
0
41
1
10
115.303462888894
20
-0.322800458713772
30
0
41
1
10
115.259760947959
20
-0.41461209596568
30
0
41
1
10
115.237432494195
20
-0.458999139963453
30
0
41
1
10
115.169274711309
20
-0.587741543498396
30
0
41
1
10
115.12228849471
20
-0.667690477940454
30
0
41
1
10
115.026133557749
20
-0.816227445323847
30
0
41
1
10
114.97695832121
20
-0.884813319924746
30
0
41
1
10
114.91442157463
20
-0.963459001335963
30
0
41
1
10
114.901860044486
20
-0.978832972310272
30
0
41
1
10
114.876633307321
20
-1.00886771479168
30
0
41
1
10
114.863957322995
20
-1.02353992668878
30
0
41
1
10
114.825937848232
20
-1.0663063938843
30
0
41
1
10
114.800561826645
20
-1.09320333185048
30
0
41
1
10
114.724384368455
20
-1.16916165438832
30
0
41
1
10
114.67353731853
20
-1.21350031888517
30
0
41
1
10
114.571811512904
20
-1.28989999413975
30
0
41
1
10
114.47005082285
20
-1.35401944944741
30
0
41
1
10
114.368194849637
20
-1.39362356546872
30
0
41
1
10
114.304451803981
20
-1.41055326752692
30
0
41
1
10
114.291688365802
20
-1.41354880010832
30
0
41
1
10
114.266262683962
20
-1.41872943199132
30
0
41
1
10
114.228241074692
20
-1.42529567837499
30
0
41
1
10
114.190557716762
20
-1.42828827138732
30
0
41
1
10
114.115608906182
20
-1.42959016775959
30
0
41
1
10
114.016791329612
20
-1.41885317261367
30
0
41
1
10
113.871385950347
20
-1.36601591522489
30
0
41
1
10
113.775987888855
20
-1.30626080530052
30
0
41
1
10
113.704887890191
20
-1.25204588686529
30
0
41
1
10
113.681319258347
20
-1.23244613050858
30
0
41
1
10
113.634543220406
20
-1.19030520695537
30
0
41
1
10
113.611316371298
20
-1.16774938589518
30
0
41
1
10
113.588238125896
20
-1.14371115914372
30
0
0
SPLINE
5
C8
100
AcDbEntity
8
1
62
256
6
ByLayer
370
18
48
1
60
0
100
AcDbSpline
70
4
71
3
72
16
73
12
40
0
40
0
40
0
40
0
40
0.218043710157074
40
0.218043710157074
40
0.413532782617809
40
0.413532782617809
40
0.511277318848169
40
0.511277318848169
40
0.60902185507853
40
0.60902185507853
40
1
40
1
40
1
40
1
41
1
10
108.033521503443
20
7.99901221653371
30
0
41
1
10
108.437269908382
20
7.99909147058972
30
0
41
1
10
108.840918218531
20
7.99514617907721
30
0
41
1
10
109.606145101927
20
7.97999845636005
30
0
41
1
10
109.967745594711
20
7.96957273465412
30
0
41
1
10
110.509932059745
20
7.948930774584
30
0
41
1
10
110.690652807936
20
7.94122135800677
30
0
41
1
10
111.052293679552
20
7.92422600238723
30
0
41
1
10
111.233190414525
20
7.91493445181769
30
0
41
1
10
112.137993721928
20
7.86452908251792
30
0
41
1
10
112.862815937346
20
7.81161387007552
30
0
41
1
10
113.58823812589
20
7.7459735434638
30
0
0
SPLINE
5
C9
100
AcDbEntity
8
1
62
256
6
ByLayer
370
18
48
1
60
0
100
AcDbSpline
70
4
71
3
72
54
73
50
40
0
40
0
40
0
40
0
40
0.0609718921817955
40
0.0609718921817955
40
0.121943784363591
40
0.121943784363591
40
0.182915676545387
40
0.182915676545387
40
0.213401622636284
40
0.213401622636284
40
0.243887568727182
40
0.243887568727182
40
0.304859460908979
40
0.304859460908979
40
0.365831353090777
40
0.365831353090777
40
0.426803245272574
40
0.426803245272574
40
0.457289191363472
40
0.457289191363472
40
0.47253216440892
40
0.47253216440892
40
0.487775137454369
40
0.487775137454369
40
0.548747029636162
40
0.548747029636162
40
0.609718921817954
40
0.609718921817954
40
0.670690813999746
40
0.670690813999746
40
0.701176760090642
40
0.701176760090642
40
0.731662706181538
40
0.731662706181538
40
0.792634598363329
40
0.792634598363329
40
0.85360649054512
40
0.85360649054512
40
0.884092436636016
40
0.884092436636016
40
0.914578382726912
40
0.914578382726912
40
0.92982135577236
40
0.92982135577236
40
0.945064328817808
40
0.945064328817808
40
0.975550274908704
40
0.975550274908704
40
1
40
1
40
1
40
1
41
1
10
16.6798623052549
20
-3.97312127155388
30
0
41
1
10
17.1397162242124
20
-4.11241219409669
30
0
41
1
10
17.5995844115398
20
-4.24798570675406
30
0
41
1
10
18.5191344871663
20
-4.51247196876869
30
0
41
1
10
18.9788155578326
20
-4.64138555352264
30
0
41
1
10
19.8977983351359
20
-4.89307310348127
30
0
41
1
10
20.3570986295605
20
-5.01585003989402
30
0
41
1
10
21.0456208070652
20
-5.19566521183754
30
0
41
1
10
21.2750574251782
20
-5.25487583195272
30
0
41
1
10
21.7337715015447
20
-5.37185467183306
30
0
41
1
10
21.9630134367577
20
-5.42969206054764
30
0
41
1
10
22.6510627254352
20
-5.59987157857213
30
0
41
1
10
23.110163119026
20
-5.70897112480546
30
0
41
1
10
24.0288275760439
20
-5.91929558411559
30
0
41
1
10
24.4884056957408
20
-6.02049055482684
30
0
41
1
10
25.4078735997917
20
-6.21527695439519
30
0
41
1
10
25.8677572087037
20
-6.30887935023088
30
0
41
1
10
26.5576845044748
20
-6.44368820660259
30
0
41
1
10
26.7877285360904
20
-6.48771611746665
30
0
41
1
10
27.1325731628592
20
-6.55223955814955
30
0
41
1
10
27.2474914716772
20
-6.57348336503946
30
0
41
1
10
27.4773392842981
20
-6.61533659833566
30
0
41
1
10
27.5922668113565
20
-6.63594960061792
30
0
41
1
10
28.1669084633205
20
-6.73748345282422
30
0
41
1
10
28.6266234456845
20
-6.81383919219149
30
0
41
1
10
29.5457943117999
20
-6.95739019956838
30
0
41
1
10
30.005264012945
20
-7.0245649474158
30
0
41
1
10
30.9237805948464
20
-7.14994427647648
30
0
41
1
10
31.382821879685
20
-7.20815430400833
30
0
41
1
10
32.0709381857952
20
-7.28871990113632
30
0
41
1
10
32.3001968916002
20
-7.31448026946478
30
0
41
1
10
32.758864801405
20
-7.36345274657126
30
0
41
1
10
32.9883085623449
20
-7.3866407759096
30
0
41
1
10
33.6768987037625
20
-7.45242820982349
30
0
41
1
10
34.1362902309709
20
-7.49126867723774
30
0
41
1
10
35.0555179209616
20
-7.55918281659737
30
0
41
1
10
35.5153622102915
20
-7.58825112078381
30
0
41
1
10
36.2053282407713
20
-7.62452678606567
30
0
41
1
10
36.4353500615057
20
-7.63539554816097
30
0
41
1
10
36.8954425163827
20
-7.65466167977183
30
0
41
1
10
37.1255084142799
20
-7.6630588938277
30
0
41
1
10
37.4702818472687
20
-7.67375924993192
30
0
41
1
10
37.5851714262527
20
-7.67700911452823
30
0
41
1
10
37.8149471523205
20
-7.68286049251293
30
0
41
1
10
37.9298388626676
20
-7.68546135378605
30
0
41
1
10
38.2745250907168
20
-7.692299685969
30
0
41
1
10
38.50432724793
20
-7.69557440936822
30
0
41
1
10
38.9184113233867
20
-7.69920145440716
30
0
41
1
10
39.102696366702
20
-7.7000050468572
30
0
41
1
10
39.2869681435769
20
-7.70000168908479
30
0
0
SPLINE
5
CA
100
AcDbEntity
8
1
62
256
6
ByLayer
370
18
48
1
60
0
100
AcDbSpline
70
4
71
3
72
32
73
28
40
0
40
0
40
0
40
0
40
0.0404094374683708
40
0.0404094374683708
40
0.147030611082997
40
0.147030611082997
40
0.200341197890308
40
0.200341197890308
40
0.253651784697619
40
0.253651784697619
40
0.306962371504929
40
0.306962371504929
40
0.360272958312239
40
0.360272958312239
40
0.466894131926867
40
0.466894131926867
40
0.573515305541493
40
0.573515305541493
40
0.626825892348806
40
0.626825892348806
40
0.68013647915612
40
0.68013647915612
40
0.786757652770747
40
0.786757652770747
40
0.893378826385374
40
0.893378826385374
40
1
40
1
40
1
40
1
41
1
10
91.9663908619639
20
5.66054034547989
30
0
41
1
10
92.1405676250436
20
5.70171615361471
30
0
41
1
10
92.3147499628511
20
5.7423570796937
30
0
41
1
10
92.9485188572734
20
5.88832185531942
30
0
41
1
10
93.4081045372138
20
5.99052951334505
30
0
41
1
10
94.0973458853993
20
6.13853678986652
30
0
41
1
10
94.327071013925
20
6.18698545673058
30
0
41
1
10
94.7864617088203
20
6.2821054795628
30
0
41
1
10
95.0161389241456
20
6.32875217328913
30
0
41
1
10
95.4758736484034
20
6.4195344370697
30
0
41
1
10
95.7058891257431
20
6.46374378596445
30
0
41
1
10
96.1661682996944
20
6.54989971255583
30
0
41
1
10
96.3963882474824
20
6.59183964303597
30
0
41
1
10
97.0867766466183
20
6.71424740673638
30
0
41
1
10
97.546859636222
20
6.79133902500871
30
0
41
1
10
98.4664898023334
20
6.93678257659738
30
0
41
1
10
98.9260306902497
20
7.00514224445021
30
0
41
1
10
99.6148021345607
20
7.10116352086376
30
0
41
1
10
99.8442760871152
20
7.13210976094524
30
0
41
1
10
100.30318305822
20
7.19164233126534
30
0
41
1
10
100.532699764819
20
7.22014222007661
30
0
41
1
10
101.221520822404
20
7.30182004911029
30
0
41
1
10
101.681021370178
20
7.35126217515335
30
0
41
1
10
102.600348629802
20
7.44049639220214
30
0
41
1
10
103.060187019453
20
7.48027776607714
30
0
41
1
10
103.980018299885
20
7.550248766229
30
0
41
1
10
104.440006842341
20
7.58044008477134
30
0
41
1
10
104.899999999999
20
7.60573960824539
30
0
0
SPLINE
5
CB
100
AcDbEntity
8
1
62
256
6
ByLayer
370
18
48
1
60
0
100
AcDbSpline
70
4
71
3
72
60
73
56
40
0
40
0
40
0
40
0
40
0.0488854128523393
40
0.0488854128523393
40
0.0977708257046786
40
0.0977708257046786
40
0.122213532130847
40
0.122213532130847
40
0.146656238557015
40
0.146656238557015
40
0.195541651409352
40
0.195541651409352
40
0.244427064261689
40
0.244427064261689
40
0.268869770687857
40
0.268869770687857
40
0.293312477114026
40
0.293312477114026
40
0.342197889966363
40
0.342197889966363
40
0.36664059639253
40
0.36664059639253
40
0.391083302818697
40
0.391083302818697
40
0.439968715671034
40
0.439968715671034
40
0.464411422097202
40
0.464411422097202
40
0.48885412852337
40
0.48885412852337
40
0.586624954228046
40
0.586624954228046
40
0.635510367080384
40
0.635510367080384
40
0.659953073506555
40
0.659953073506555
40
0.684395779932725
40
0.684395779932725
40
0.708838486358895
40
0.708838486358895
40
0.733281192785065
40
0.733281192785065
40
0.782166605637406
40
0.782166605637406
40
0.806609312063575
40
0.806609312063575
40
0.831052018489744
40
0.831052018489744
40
0.879937431342082
40
0.879937431342082
40
0.92882284419442
40
0.92882284419442
40
0.977708257046758
40
0.977708257046758
40
1
40
1
40
1
40
1
41
1
10
104.9
20
1.81539783677815
30
0
41
1
10
104.421537124913
20
1.97784664107337
30
0
41
1
10
103.943394529723
20
2.13869849888712
30
0
41
1
10
102.987834747802
20
2.45746349061437
30
0
41
1
10
102.510423226801
20
2.61539251779516
30
0
41
1
10
101.794934357606
20
2.85025812853766
30
0
41
1
10
101.556551203973
20
2.92822809868861
30
0
41
1
10
101.07967111161
20
3.08262301101817
30
0
41
1
10
100.841200363328
20
3.15912004625082
30
0
41
1
10
100.125712421581
20
3.38657299289852
30
0
41
1
10
99.6486213087137
20
3.53549806962647
30
0
41
1
10
98.6943163828533
20
3.82816466667097
30
0
41
1
10
98.2171000999834
20
3.97190042392072
30
0
41
1
10
97.5012609949407
20
4.18377814089874
30
0
41
1
10
97.2626456724813
20
4.25378265331969
30
0
41
1
10
96.7854203363739
20
4.39255918508735
30
0
41
1
10
96.5468404610809
20
4.46140158354822
30
0
41
1
10
95.8307915881908
20
4.66530750085411
30
0
41
1
10
95.3528970007747
20
4.79748638515164
30
0
41
1
10
94.6353340214952
20
4.99033870687123
30
0
41
1
10
94.3961399674731
20
5.05368770759506
30
0
41
1
10
93.9179765549053
20
5.17848546691215
30
0
41
1
10
93.6789713597698
20
5.23994377046921
30
0
41
1
10
92.9622004105241
20
5.42153478603802
30
0
41
1
10
92.4846806045703
20
5.5388920975717
30
0
41
1
10
91.7689762850147
20
5.70947635906714
30
0
41
1
10
91.5305193097467
20
5.7654562440708
30
0
41
1
10
91.0537245191481
20
5.87543413417066
30
0
41
1
10
90.815322826024
20
5.92931160828473
30
0
41
1
10
89.623070284875
20
6.1927886817719
30
0
41
1
10
88.668724010193
20
6.3852069536928
30
0
41
1
10
87.2368868559369
20
6.64735500613997
30
0
41
1
10
86.7595668664321
20
6.73032236535215
30
0
41
1
10
86.0435677799076
20
6.84806772572134
30
0
41
1
10
85.8048652685122
20
6.88614897765376
30
0
41
1
10
85.3271274623345
20
6.95964128096816
30
0
41
1
10
85.0881229806855
20
6.9950954337786
30
0
41
1
10
84.6098558429761
20
7.0634523818367
30
0
41
1
10
84.3706432682396
20
7.09634754432017
30
0
41
1
10
83.8924692795352
20
7.15954370876435
30
0
41
1
10
83.6534505457154
20
7.18985304241741
30
0
41
1
10
82.9366127654031
20
7.27694453496849
30
0
41
1
10
82.4590095391787
20
7.32989472233805
30
0
41
1
10
81.7431235139734
20
7.4016865480138
30
0
41
1
10
81.5045810855956
20
7.42434296750238
30
0
41
1
10
81.0276804974368
20
7.46709079996177
30
0
41
1
10
80.789344917977
20
7.48719329513318
30
0
41
1
10
80.0741630350813
20
7.54332801491435
30
0
41
1
10
79.597202740495
20
7.57525529811835
30
0
41
1
10
78.6430263090843
20
7.62835239049937
30
0
41
1
10
78.1658081635296
20
7.64952094298258
30
0
41
1
10
77.2111932088109
20
7.68113286358937
30
0
41
1
10
76.7338001618591
20
7.69157812417433
30
0
41
1
10
76.0386626039138
20
7.69885759551764
30
0
41
1
10
75.8209685645385
20
7.70000256573317
30
0
41
1
10
75.6032074405938
20
7.6999999360288
30
0
0
SPLINE
5
CC
100
AcDbEntity
8
1
62
256
6
ByLayer
370
18
48
1
60
0
100
AcDbSpline
70
4
71
3
72
24
73
20
40
0
40
0
40
0
40
0
40
0.113867985602416
40
0.113867985602416
40
0.261556654668684
40
0.261556654668684
40
0.335400989201817
40
0.335400989201817
40
0.40924532373495
40
0.40924532373495
40
0.483089658268083
40
0.483089658268083
40
0.556933992801215
40
0.556933992801215
40
0.704622661867477
40
0.704622661867477
40
0.852311330933738
40
0.852311330933738
40
1
40
1
40
1
40
1
41
1
10
22.926575462691
20
-5.66094353272368
30
0
41
1
10
22.5582470443139
20
-5.74860275800731
30
0
41
1
10
22.1898185611533
20
-5.83361999847909
30
0
41
1
10
21.3433496789223
20
-6.02300183304899
30
0
41
1
10
20.8652529570359
20
-6.12560867743002
30
0
41
1
10
20.1479659167044
20
-6.27313769856889
30
0
41
1
10
19.9088468238235
20
-6.32124981148581
30
0
41
1
10
19.4305771659379
20
-6.41535759100441
30
0
41
1
10
19.1914053540511
20
-6.46135658989502
30
0
41
1
10
18.7133480898284
20
-6.5511732574117
30
0
41
1
10
18.4744555362793
20
-6.59503825304353
30
0
41
1
10
17.9967102559114
20
-6.68031906072602
30
0
41
1
10
17.7578130603042
20
-6.72167345623569
30
0
41
1
10
17.0410494295542
20
-6.84192599229516
30
0
41
1
10
16.5631191061998
20
-6.917030653437
30
0
41
1
10
15.6071587535406
20
-7.05732506180135
30
0
41
1
10
15.1291267837698
20
-7.12251293312221
30
0
41
1
10
14.173052815646
20
-7.24302315438641
30
0
41
1
10
13.6950114467587
20
-7.2983478923415
30
0
41
1
10
13.2170359482112
20
-7.34868804320737
30
0
0
SPLINE
5
CD
100
AcDbEntity
8
1
62
256
6
ByLayer
370
18
48
1
60
0
100
AcDbSpline
70
4
71
3
72
14
73
10
40
0
40
0
40
0
40
0
40
0.173332729233117
40
0.173332729233117
40
0.346665458466235
40
0.346665458466235
40
0.69333091693247
40
0.69333091693247
40
1
40
1
40
1
40
1
41
1
10
104.9
20
-7.91717117107581
30
0
41
1
10
105.081155850826
20
-7.92663481133059
30
0
41
1
10
105.262192728258
20
-7.93530334561578
30
0
41
1
10
105.624258794147
20
-7.95096340786355
30
0
41
1
10
105.805308397514
20
-7.9579511641187
30
0
41
1
10
106.34848026429
20
-7.97643316780233
30
0
41
1
10
106.71061603388
20
-7.9854524916658
30
0
41
1
10
107.393018442242
20
-7.99635491997338
30
0
41
1
10
107.713301931193
20
-7.99894936384848
30
0
41
1
10
108.033522456711
20
-7.99901221672079
30
0
0
SPLINE
5
CE
100
AcDbEntity
8
1
62
256
6
ByLayer
370
18
48
1
60
0
100
AcDbSpline
70
4
71
3
72
173
73
169
40
0
40
0
40
0
40
0
40
0.0078530900098928
40
0.0078530900098928
40
0.0246691393317573
40
0.0246691393317573
40
0.0414851886536218
40
0.0414851886536218
40
0.0498932133145543
40
0.0498932133145543
40
0.0540972256450205
40
0.0540972256450205
40
0.0583012379754867
40
0.0583012379754867
40
0.0751172872973521
40
0.0751172872973521
40
0.0919333366192176
40
0.0919333366192176
40
0.108749385941083
40
0.108749385941083
40
0.117157410602016
40
0.117157410602016
40
0.125565435262948
40
0.125565435262948
40
0.142381484584814
40
0.142381484584814
40
0.15919753390668
40
0.15919753390668
40
0.167605558567613
40
0.167605558567613
40
0.176013583228546
40
0.176013583228546
40
0.180217595559012
40
0.180217595559012
40
0.184421607889479
40
0.184421607889479
40
0.192829632550411
40
0.192829632550411
40
0.209645681872275
40
0.226461731194139
40
0.226461731194139
40
0.234869755855071
40
0.234869755855071
40
0.243277780516003
40
0.243277780516003
40
0.260093829837867
40
0.260093829837867
40
0.276909879159731
40
0.276909879159731
40
0.293725928481595
40
0.293725928481595
40
0.302133953142528
40
0.302133953142528
40
0.31054197780346
40
0.31054197780346
40
0.327358027125324
40
0.327358027125324
40
0.344174076447189
40
0.344174076447189
40
0.360990125769053
40
0.360990125769053
40
0.369398150429986
40
0.369398150429986
40
0.377806175090918
40
0.377806175090918
40
0.394622224412783
40
0.394622224412783
40
0.411438273734648
40
0.411438273734648
40
0.419846298395581
40
0.419846298395581
40
0.428254323056514
40
0.428254323056514
40
0.436662347717446
40
0.436662347717446
40
0.445070372378379
40
0.445070372378379
40
0.461886421700245
40
0.461886421700245
40
0.478702471022111
40
0.478702471022111
40
0.487110495683044
40
0.487110495683044
40
0.495518520343977
40
0.495518520343977
40
0.499722532674443
40
0.499722532674443
40
0.50392654500491
40
0.512334569665843
40
0.512334569665843
40
0.52915061898771
40
0.52915061898771
40
0.537558643648643
40
0.537558643648643
40
0.545966668309577
40
0.545966668309577
40
0.554374692970511
40
0.554374692970511
40
0.562782717631444
40
0.562782717631444
40
0.579598766953311
40
0.579598766953311
40
0.596414816275178
40
0.596414816275178
40
0.613230865597045
40
0.613230865597045
40
0.621638890257978
40
0.621638890257978
40
0.625842902588445
40
0.625842902588445
40
0.630046914918912
40
0.630046914918912
40
0.64686296424078
40
0.64686296424078
40
0.663679013562648
40
0.663679013562648
40
0.680495062884516
40
0.680495062884516
40
0.688903087545451
40
0.688903087545451
40
0.697311112206385
40
0.697311112206385
40
0.714127161528253
40
0.714127161528253
40
0.730943210850122
40
0.730943210850122
40
0.74775926017199
40
0.74775926017199
40
0.756167284832924
40
0.756167284832924
40
0.764575309493858
40
0.764575309493858
40
0.781391358815726
40
0.781391358815726
40
0.78979938347666
40
0.78979938347666
40
0.798207408137594
40
0.806615432798528
40
0.806615432798528
40
0.815023457459462
40
0.815023457459462
40
0.83183950678133
40
0.83183950678133
40
0.848655556103199
40
0.848655556103199
40
0.865471605425067
40
0.865471605425067
40
0.873879630086001
40
0.873879630086001
40
0.882287654746935
40
0.882287654746935
40
0.890695679407869
40
0.890695679407869
40
0.899103704068803
40
0.899103704068803
40
0.91591975339067
40
0.91591975339067
40
0.932735802712537
40
0.932735802712537
40
0.941143827373471
40
0.941143827373471
40
0.949551852034404
40
0.949551852034404
40
0.966367901356269
40
0.966367901356269
40
0.983183950678135
40
0.983183950678135
40
1
40
1
40
1
40
1
41
1
10
22.9261402043363
20
5.66418272824725
30
0
41
1
10
23.1405298811186
20
5.71505321045569
30
0
41
1
10
23.3549873340362
20
5.7650226246264
30
0
41
1
10
24.0288275760437
20
5.91929558411553
30
0
41
1
10
24.4884056957405
20
6.02049055482678
30
0
41
1
10
25.4078735997914
20
6.21527695439516
30
0
41
1
10
25.8677572087034
20
6.30887935023082
30
0
41
1
10
26.5576845044745
20
6.44368820660253
30
0
41
1
10
26.7877285360901
20
6.48771611746656
30
0
41
1
10
27.1325731628589
20
6.55223955814952
30
0
41
1
10
27.2474914716769
20
6.57348336503941
30
0
41
1
10
27.4773392842977
20
6.6153365983356
30
0
41
1
10
27.5922668113561
20
6.63594960061786
30
0
41
1
10
28.1669084633202
20
6.73748345282416
30
0
41
1
10
28.6266234456841
20
6.81383919219144
30
0
41
1
10
29.5457943117995
20
6.95739019956832
30
0
41
1
10
30.0052640129446
20
7.02456494741577
30
0
41
1
10
30.9237805948459
20
7.14994427647642
30
0
41
1
10
31.3828218796845
20
7.20815430400827
30
0
41
1
10
32.0709381857947
20
7.28871990113626
30
0
41
1
10
32.3001968915996
20
7.31448026946472
30
0
41
1
10
32.7588648014044
20
7.36345274657123
30
0
41
1
10
32.9883085623444
20
7.38664077590954
30
0
41
1
10
33.676898703762
20
7.45242820982344
30
0
41
1
10
34.1362902309703
20
7.49126867723771
30
0
41
1
10
35.0555179209611
20
7.55918281659734
30
0
41
1
10
35.5153622102908
20
7.58825112078378
30
0
41
1
10
36.2053282407706
20
7.62452678606564
30
0
41
1
10
36.4353500615051
20
7.63539554816094
30
0
41
1
10
36.895442516382
20
7.65466167977183
30
0
41
1
10
37.1255084142793
20
7.66305889382767
30
0
41
1
10
37.470281847268
20
7.67375924993189
30
0
41
1
10
37.5851714262519
20
7.6770091145282
30
0
41
1
10
37.8149471523198
20
7.6828604925129
30
0
41
1
10
37.9298388626669
20
7.68546135378605
30
0
41
1
10
38.2745250907161
20
7.692299685969
30
0
41
1
10
38.5043272479292
20
7.69557440936822
30
0
41
1
10
39.1937014485068
20
7.70161277554161
30
0
41
1
10
40.1127721251015
20
7.69958110622758
30
0
41
1
10
41.0313034254814
20
7.6776141591159
30
0
41
1
10
41.7198492849917
20
7.65355735480992
30
0
41
1
10
41.9493063306638
20
7.64427284892651
30
0
41
1
10
42.4080860659785
20
7.62313418110381
30
0
41
1
10
42.6373735939585
20
7.61126224102
30
0
41
1
10
43.3253542234528
20
7.57188301267539
30
0
41
1
10
43.78445476721
20
7.54077703884514
30
0
41
1
10
44.7032563065564
20
7.46896003948919
30
0
41
1
10
45.1629565163848
20
7.42824504934563
30
0
41
1
10
46.0827794142551
20
7.33709259199151
30
0
41
1
10
46.5429025769231
20
7.28665051193028
30
0
41
1
10
47.2332504839608
20
7.20341990960313
30
0
41
1
10
47.4632178452955
20
7.17443520738431
30
0
41
1
10
47.9228371750426
20
7.11393604486435
30
0
41
1
10
48.1525026717553
20
7.08243081145901
30
0
41
1
10
48.8416829836134
20
6.98487544146948
30
0
41
1
10
49.3012064309517
20
6.91561244455011
30
0
41
1
10
50.2200979012587
20
6.7684791666843
30
0
41
1
10
50.679480741079
20
6.69062532274887
30
0
41
1
10
51.5979353363834
20
6.52609833327872
30
0
41
1
10
52.0570008142447
20
6.43941549721293
30
0
41
1
10
52.7452304954506
20
6.30244026488438
30
0
41
1
10
52.9745527119254
20
6.25557631151099
30
0
41
1
10
53.4332127194705
20
6.15973016967556
30
0
41
1
10
53.6626336717817
20
6.11089160124854
30
0
41
1
10
54.3512499978477
20
5.96182088958079
30
0
41
1
10
54.8107239423699
20
5.85891226669079
30
0
41
1
10
55.7302166897729
20
5.6456999983985
30
0
41
1
10
56.1902470961634
20
5.53541764523186
30
0
41
1
10
56.8805755416662
20
5.36414090333133
30
0
41
1
10
57.110791574149
20
5.30605508525673
30
0
41
1
10
57.5709316664029
20
5.18795504692915
30
0
41
1
10
57.8008596222228
20
5.12794103401399
30
0
41
1
10
58.260412696783
20
5.00592778526666
30
0
41
1
10
58.4900191664534
20
4.9438836453219
30
0
41
1
10
58.9493483826459
20
4.81874419116025
30
0
41
1
10
59.1790408454626
20
4.75558456440805
30
0
41
1
10
59.8681340608608
20
4.56421452729984
30
0
41
1
10
60.3275406056048
20
4.43409325211272
30
0
41
1
10
61.2461865069512
20
4.16839332253582
30
0
41
1
10
61.7054300223338
20
4.03282471476007
30
0
41
1
10
62.3940242574507
20
3.82499207565712
30
0
41
1
10
62.6235106039756
20
3.75496708858765
30
0
41
1
10
63.0823749015074
20
3.61336090220544
30
0
41
1
10
63.3117348922539
20
3.54173328092375
30
0
41
1
10
63.6557498814708
20
3.43325402659937
30
0
41
1
10
63.7704278869315
20
3.39694832271803
30
0
41
1
10
63.9998570113676
20
3.32420325240364
30
0
41
1
10
64.3440929909153
20
3.21484057361079
30
0
41
1
10
64.6885775156374
20
3.10468223590539
30
0
41
1
10
65.3778095291609
20
2.88314493346397
30
0
41
1
10
65.8376505611893
20
2.73383549401427
30
0
41
1
10
66.5278099632289
20
2.50710215258084
30
0
41
1
10
66.7579291241163
20
2.43106111379356
30
0
41
1
10
67.2182750120742
20
2.27797615683096
30
0
41
1
10
67.4484967380859
20
2.20093308556864
30
0
41
1
10
67.9085497465354
20
2.04593417183494
30
0
41
1
10
68.1384406260982
20
1.96795940807277
30
0
41
1
10
68.5979323652574
20
1.81100387058166
30
0
41
1
10
68.8274967916655
20
1.73191926942135
30
0
41
1
10
69.5163096880095
20
1.49473006884276
30
0
41
1
10
69.9756573289697
20
1.33663490775419
30
0
41
1
10
70.8943046684672
20
1.01959769420225
30
0
41
1
10
71.3536182568803
20
0.860694953195633
30
0
41
1
10
72.2720453987075
20
0.541609074728598
30
0
41
1
10
72.7311527414411
20
0.38140811985545
30
0
41
1
10
73.4195225926271
20
0.139731011479682
30
0
41
1
10
73.6489220565927
20
0.0589176360097383
30
0
41
1
10
73.9929705046204
20
-0.0625851023152961
30
0
41
1
10
74.1076515109648
20
-0.103113961741826
30
0
41
1
10
74.3370813533354
20
-0.184021019220722
30
0
41
1
10
74.4518290801959
20
-0.224402381611441
30
0
41
1
10
75.0257162810267
20
-0.42599208430272
30
0
41
1
10
75.4852893406101
20
-0.586283281013806
30
0
41
1
10
76.4050812377118
20
-0.905706933628693
30
0
41
1
10
76.8653261539053
20
-1.06480294795577
30
0
41
1
10
77.7862555363721
20
-1.3822838878456
30
0
41
1
10
78.2462470862286
20
-1.54044836150152
30
0
41
1
10
78.935399773149
20
-1.77713704756167
30
0
41
1
10
79.1649390903038
20
-1.85604873639309
30
0
41
1
10
79.6240313528222
20
-2.01285144341446
30
0
41
1
10
79.8536213305898
20
-2.09064074568019
30
0
41
1
10
80.5424564469219
20
-2.32238472136601
30
0
41
1
10
81.0017529532907
20
-2.47475666353648
30
0
41
1
10
81.9202791731742
20
-2.77589681659961
30
0
41
1
10
82.37951715028
20
-2.92464242898623
30
0
41
1
10
83.2977420059008
20
-3.21899811944053
30
0
41
1
10
83.7567201725686
20
-3.36463022138824
30
0
41
1
10
84.4449084880275
20
-3.58088363010162
30
0
41
1
10
84.6743040409586
20
-3.6524814871064
30
0
41
1
10
85.1334354155904
20
-3.79384027586408
30
0
41
1
10
85.3631280276712
20
-3.8637131013065
30
0
41
1
10
86.052515880498
20
-4.07110825883521
30
0
41
1
10
86.5125156046801
20
-4.20642352862993
30
0
41
1
10
87.2029917445628
20
-4.40532459473016
30
0
41
1
10
87.4332855025209
20
-4.47095986206671
30
0
41
1
10
87.893662747503
20
-4.60082773946493
30
0
41
1
10
88.353842550192
20
-4.72929768764413
30
0
41
1
10
88.8135793515497
20
-4.85505919696982
30
0
41
1
10
89.2730761605138
20
-4.97948635675434
30
0
41
1
10
89.5026694117585
20
-5.04110775201875
30
0
41
1
10
90.1914022443444
20
-5.22325505145986
30
0
41
1
10
90.6507931525058
20
-5.34044163127336
30
0
41
1
10
91.5697665685194
20
-5.56712614623478
30
0
41
1
10
92.0293472259211
20
-5.67662531717656
30
0
41
1
10
92.9485188572708
20
-5.88832185531888
30
0
41
1
10
93.4081045372113
20
-5.99052951334451
30
0
41
1
10
94.0973458853969
20
-6.13853678986601
30
0
41
1
10
94.3270710139225
20
-6.18698545673004
30
0
41
1
10
94.7864617088177
20
-6.28210547956229
30
0
41
1
10
95.016138924143
20
-6.32875217328862
30
0
41
1
10
95.4758736484008
20
-6.41953443706922
30
0
41
1
10
95.7058891257404
20
-6.46374378596397
30
0
41
1
10
96.1661682996919
20
-6.54989971255537
30
0
41
1
10
96.3963882474798
20
-6.59183964303551
30
0
41
1
10
97.0867766466157
20
-6.71424740673595
30
0
41
1
10
97.5468596362193
20
-6.79133902500828
30
0
41
1
10
98.4664898023307
20
-6.93678257659698
30
0
41
1
10
98.926030690247
20
-7.00514224444981
30
0
41
1
10
99.6148021345579
20
-7.10116352086339
30
0
41
1
10
99.8442760871125
20
-7.13210976094487
30
0
41
1
10
100.303183058217
20
-7.191642331265
30
0
41
1
10
100.532699764816
20
-7.22014222007627
30
0
41
1
10
101.221520822401
20
-7.30182004911001
30
0
41
1
10
101.681021370176
20
-7.35126217515307
30
0
41
1
10
102.600348629799
20
-7.44049639220188
30
0
41
1
10
103.06018701945
20
-7.48027776607691
30
0
41
1
10
103.980018299882
20
-7.5502487662288
30
0
41
1
10
104.440006842342
20
-7.58044008477137
30
0
41
1
10
104.9
20
-7.60573960824541
30
0
0
SPLINE
5
CF
100
AcDbEntity
8
1
62
256
6
ByLayer
370
18
48
1
60
0
100
AcDbSpline
70
4
71
3
72
154
73
150
40
0
40
0
40
0
40
0
40
0.0085681494712741
40
0.0085681494712741
40
0.0176638545219971
40
0.0176638545219971
40
0.0540466747248866
40
0.0540466747248866
40
0.0722380848263313
40
0.0722380848263313
40
0.0813337898770537
40
0.0813337898770537
40
0.0904294949277761
40
0.0904294949277761
40
0.0995251999784985
40
0.0995251999784985
40
0.108620905029221
40
0.108620905029221
40
0.126812315130666
40
0.126812315130666
40
0.135908020181388
40
0.135908020181388
40
0.145003725232109
40
0.145003725232109
40
0.163195135333553
40
0.163195135333553
40
0.181386545434997
40
0.181386545434997
40
0.199577955536441
40
0.199577955536441
40
0.208673660587163
40
0.208673660587163
40
0.217769365637886
40
0.217769365637886
40
0.226865070688609
40
0.226865070688609
40
0.235960775739331
40
0.235960775739331
40
0.254152185840776
40
0.254152185840776
40
0.263247890891499
40
0.263247890891499
40
0.272343595942222
40
0.272343595942222
40
0.281439300992945
40
0.281439300992945
40
0.290535006043667
40
0.290535006043667
40
0.308726416145112
40
0.308726416145112
40
0.326917826246558
40
0.326917826246558
40
0.33601353129728
40
0.33601353129728
40
0.345109236348002
40
0.345109236348002
40
0.354204941398725
40
0.354204941398725
40
0.363300646449447
40
0.363300646449447
40
0.381492056550892
40
0.381492056550892
40
0.399683466652337
40
0.399683466652337
40
0.408779171703059
40
0.408779171703059
40
0.417874876753781
40
0.417874876753781
40
0.436066286855226
40
0.436066286855226
40
0.45425769695667
40
0.45425769695667
40
0.463353402007392
40
0.463353402007392
40
0.472449107058114
40
0.472449107058114
40
0.481544812108836
40
0.481544812108836
40
0.490640517159558
40
0.490640517159558
40
0.508831927261002
40
0.508831927261002
40
0.527023337362446
40
0.527023337362446
40
0.536119042413168
40
0.536119042413168
40
0.54521474746389
40
0.54521474746389
40
0.563406157565334
40
0.563406157565334
40
0.581597567666778
40
0.581597567666778
40
0.599788977768222
40
0.599788977768222
40
0.608884682818944
40
0.608884682818944
40
0.617980387869666
40
0.617980387869666
40
0.63617179797111
40
0.63617179797111
40
0.654363208072554
40
0.654363208072554
40
0.663458913123276
40
0.663458913123276
40
0.672554618173998
40
0.672554618173998
40
0.708937438376885
40
0.708937438376885
40
0.727128848478328
40
0.727128848478328
40
0.73622455352905
40
0.73622455352905
40
0.745320258579773
40
0.745320258579773
40
0.763511668681217
40
0.763511668681217
40
0.781703078782661
40
0.781703078782661
40
0.799894488884106
40
0.799894488884106
40
0.808990193934828
40
0.808990193934828
40
0.81808589898555
40
0.81808589898555
40
0.836277309086994
40
0.836277309086994
40
0.854468719188438
40
0.854468719188438
40
0.863564424239161
40
0.863564424239161
40
0.872660129289883
40
0.872660129289883
40
0.890851539391328
40
0.890851539391328
40
0.909042949492773
40
0.909042949492773
40
0.918138654543496
40
0.918138654543496
40
0.927234359594219
40
0.927234359594219
40
0.936330064644942
40
0.936330064644942
40
0.945425769695664
40
0.945425769695664
40
0.96361717979711
40
0.96361717979711
40
0.981808589898555
40
0.981808589898555
40
1
40
1
40
1
40
1
41
1
10
91.9660342837346
20
-5.66249999566688
30
0
41
1
10
91.741315230587
20
-5.71596674983289
30
0
41
1
10
91.5166921379866
20
-5.76864563121643
30
0
41
1
10
91.0537245191481
20
-5.87543413417063
30
0
41
1
10
90.8153228260241
20
-5.92931160828473
30
0
41
1
10
89.6230702848751
20
-6.1927886817719
30
0
41
1
10
88.668724010193
20
-6.38520695369277
30
0
41
1
10
87.2368868559369
20
-6.64735500613995
30
0
41
1
10
86.7595668664321
20
-6.73032236535218
30
0
41
1
10
86.0435677799076
20
-6.84806772572131
30
0
41
1
10
85.8048652685123
20
-6.88614897765376
30
0
41
1
10
85.3271274623347
20
-6.95964128096816
30
0
41
1
10
85.0881229806855
20
-6.99509543377857
30
0
41
1
10
84.6098558429761
20
-7.0634523818367
30
0
41
1
10
84.3706432682396
20
-7.09634754432017
30
0
41
1
10
83.8924692795352
20
-7.15954370876435
30
0
41
1
10
83.6534505457155
20
-7.18985304241741
30
0
41
1
10
82.9366127654031
20
-7.27694453496849
30
0
41
1
10
82.4590095391787
20
-7.32989472233803
30
0
41
1
10
81.7431235139734
20
-7.4016865480138
30
0
41
1
10
81.5045810855956
20
-7.42434296750238
30
0
41
1
10
81.0276804974368
20
-7.46709079996177
30
0
41
1
10
80.789344917977
20
-7.48719329513318
30
0
41
1
10
80.0741630350813
20
-7.54332801491435
30
0
41
1
10
79.597202740495
20
-7.57525529811835
30
0
41
1
10
78.6430263090844
20
-7.62835239049937
30
0
41
1
10
78.1658081635296
20
-7.64952094298258
30
0
41
1
10
77.2111932088109
20
-7.68113286358937
30
0
41
1
10
76.7338001618592
20
-7.69157812417433
30
0
41
1
10
76.0176556462899
20
-7.69907758010098
30
0
41
1
10
75.7789574493421
20
-7.70021295922359
30
0
41
1
10
75.3013809681015
20
-7.69972125837108
30
0
41
1
10
75.0624536103228
20
-7.69809788820885
30
0
41
1
10
74.5843167120648
20
-7.69212188578129
30
0
41
1
10
74.3451097421203
20
-7.68776825691376
30
0
41
1
10
73.8669458842905
20
-7.67636042240309
30
0
41
1
10
73.6279240590187
20
-7.66930567953421
30
0
41
1
10
72.9110515744348
20
-7.64410924062162
30
0
41
1
10
72.433391467728
20
-7.62194265039
30
0
41
1
10
71.7173570823534
20
-7.58060208554846
30
0
41
1
10
71.4787561702169
20
-7.56547123780945
30
0
41
1
10
71.0017204407762
20
-7.53248265791052
30
0
41
1
10
70.7632962967054
20
-7.51461773823493
30
0
41
1
10
70.2865734282797
20
-7.47615811742531
30
0
41
1
10
70.0482168709089
20
-7.45560033223947
30
0
41
1
10
69.5713670089118
20
-7.4119569411246
30
0
41
1
10
69.3328952975816
20
-7.38885751259707
30
0
41
1
10
68.6173584645009
20
-7.31574528561322
30
0
41
1
10
68.1401706126483
20
-7.26192506916675
30
0
41
1
10
67.1855452915273
20
-7.14410495824978
30
0
41
1
10
66.7081070515412
20
-7.08010705152358
30
0
41
1
10
65.991842628742
20
-6.97628736959328
30
0
41
1
10
65.7530695132255
20
-6.94037580802677
30
0
41
1
10
65.2754953152569
20
-6.86589692321817
30
0
41
1
10
65.0366817914863
20
-6.82734079116804
30
0
41
1
10
64.5586976729882
20
-6.74800871467875
30
0
41
1
10
64.3195218089995
20
-6.7071880360655
30
0
41
1
10
63.8413885446139
20
-6.62334312995154
30
0
41
1
10
63.6023739964418
20
-6.58030913493926
30
0
41
1
10
62.885498381683
20
-6.44787930362307
30
0
41
1
10
62.4078041120358
20
-6.35516230392884
30
0
41
1
10
61.4529432287667
20
-6.16076182621231
30
0
41
1
10
60.9757816080224
20
-6.05907029004999
30
0
41
1
10
60.2605199098472
20
-5.8995711967851
30
0
41
1
10
60.0222089764819
20
-5.84518537904594
30
0
41
1
10
59.5454806983449
20
-5.73457659088533
30
0
41
1
10
59.3070611132271
20
-5.67836179140113
30
0
41
1
10
58.5916519993289
20
-5.50698837193107
30
0
41
1
10
58.1145146481626
20
-5.3891002058063
30
0
41
1
10
57.1599224610656
20
-5.14595790725375
30
0
41
1
10
56.682465000437
20
-5.02070996072879
30
0
41
1
10
55.9661125636982
20
-4.82710867217773
30
0
41
1
10
55.7273014758373
20
-4.76161700436617
30
0
41
1
10
55.2496345821558
20
-4.628674599893
30
0
41
1
10
55.010800205338
20
-4.56117215529568
30
0
41
1
10
54.5329722225235
20
-4.42445269473032
30
0
41
1
10
54.2938605413453
20
-4.35536461355122
30
0
41
1
10
53.8157798881035
20
-4.21600679610612
30
0
41
1
10
53.5767825779797
20
-4.14570910049883
30
0
41
1
10
52.8599350451695
20
-3.93293730773402
30
0
41
1
10
52.3822272913323
20
-3.78859152183278
30
0
41
1
10
51.4272662257465
20
-3.49475029067031
30
0
41
1
10
50.9500135871517
20
-3.34525350563692
30
0
41
1
10
50.2345619570644
20
-3.11689283055318
30
0
41
1
10
49.9961547969912
20
-3.04007138778874
30
0
41
1
10
49.5194654989253
20
-2.88509029387569
30
0
41
1
10
49.2811363707431
20
-2.80705458205935
30
0
41
1
10
48.5658893481243
20
-2.57214298798758
30
0
41
1
10
48.0888227198341
20
-2.41417117635149
30
0
41
1
10
47.1343059745206
20
-2.09531482357909
30
0
41
1
10
46.6568532852643
20
-1.93443741222975
30
0
41
1
10
45.701645757019
20
-1.60952799996608
30
0
41
1
10
45.2238966256036
20
-1.44548000643232
30
0
41
1
10
44.5071174076376
20
-1.1967728899827
30
0
41
1
10
44.2681070147153
20
-1.11338614474187
30
0
41
1
10
43.7901008144928
20
-0.946802108890012
30
0
41
1
10
43.5511322056307
20
-0.863528616098364
30
0
41
1
10
42.8343438542407
20
-0.613718420111695
30
0
41
1
10
42.3566430409541
20
-0.447187244153042
30
0
41
1
10
41.4016268718093
20
-0.113930258483038
30
0
41
1
10
40.9243090374164
20
0.0527884486051846
30
0
41
1
10
40.2087010075923
20
0.303239161174048
30
0
41
1
10
39.9702266538244
20
0.386785275525739
30
0
41
1
10
39.4934124129028
20
0.554032536396988
30
0
41
1
10
39.2551031557012
20
0.637821381984338
30
0
41
1
10
38.0633498054356
20
1.05558889720044
30
0
41
1
10
37.1088669099746
20
1.38485656414775
30
0
41
1
10
35.6760215525944
20
1.87281353033993
30
0
41
1
10
35.1982206564363
20
2.0344760642374
30
0
41
1
10
34.4813147508511
20
2.27568277043863
30
0
41
1
10
34.2422735276991
20
2.35593084315928
30
0
41
1
10
33.7643129166758
20
2.51568778868548
30
0
41
1
10
33.5253786758273
20
2.59500330640398
30
0
41
1
10
32.8085849710392
20
2.83093053912972
30
0
41
1
10
32.3307917307251
20
2.98568518938265
30
0
41
1
10
31.3754200176981
20
3.29042257860471
30
0
41
1
10
30.8978388509236
20
3.44039832013726
30
0
41
1
10
29.9429792924526
20
3.73579825763795
30
0
41
1
10
29.4657120790352
20
3.88125041589447
30
0
41
1
10
28.7500992660044
20
4.09609036008308
30
0
41
1
10
28.5115738285281
20
4.16705668977787
30
0
41
1
10
28.0342910512809
20
4.30708042141438
30
0
41
1
10
27.7955644630759
20
4.37621386480657
30
0
41
1
10
27.0791480769347
20
4.58104132411779
30
0
41
1
10
26.6012221998431
20
4.71416666424625
30
0
41
1
10
25.6448174764415
20
4.97376585497054
30
0
41
1
10
25.1662096467177
20
5.10026703978207
30
0
41
1
10
24.4490499741408
20
5.28487033376672
30
0
41
1
10
24.2100829955872
20
5.34555579423929
30
0
41
1
10
23.7323334170773
20
5.4652334212831
30
0
41
1
10
23.4935717305105
20
5.52426407950773
30
0
41
1
10
22.7770987946145
20
5.69787293730386
30
0
41
1
10
22.2992715443481
20
5.80913190778642
30
0
41
1
10
21.3433496789223
20
6.02300183304899
30
0
41
1
10
20.8652529570359
20
6.12560867743002
30
0
41
1
10
20.1479659167044
20
6.27313769856889
30
0
41
1
10
19.9088468238235
20
6.32124981148579
30
0
41
1
10
19.4305771659379
20
6.41535759100441
30
0
41
1
10
19.1914053540511
20
6.46135658989502
30
0
41
1
10
18.7133480898283
20
6.55117325741168
30
0
41
1
10
18.4744555362794
20
6.59503825304347
30
0
41
1
10
17.9967102559114
20
6.68031906072602
30
0
41
1
10
17.7578130603042
20
6.72167345623566
30
0
41
1
10
17.0410494295542
20
6.84192599229516
30
0
41
1
10
16.5631191061997
20
6.917030653437
30
0
41
1
10
15.6071587535405
20
7.05732506180135
30
0
41
1
10
15.1291267837698
20
7.12251293312221
30
0
41
1
10
14.173052815646
20
7.24302315438641
30
0
41
1
10
13.6950114467587
20
7.29834789234147
30
0
41
1
10
13.2170359482112
20
7.34868804320735
30
0
0
SPLINE
5
D0
100
AcDbEntity
8
1
62
256
6
ByLayer
370
18
48
1
60
0
100
AcDbSpline
70
4
71
3
72
14
73
10
40
0
40
0
40
0
40
0
40
0.207083446686376
40
0.207083446686376
40
0.471388964457585
40
0.471388964457585
40
0.735694482228792
40
0.735694482228792
40
1
40
1
40
1
40
1
41
1
10
8.0002095943517
20
8.15995190558641
30
0
41
1
10
8.13670788600922
20
8.12854258122096
30
0
41
1
10
8.27361666260134
20
8.09604064681662
30
0
41
1
10
8.5860631300136
20
8.01969410690097
30
0
41
1
10
8.7618208170295
20
7.97519568618341
30
0
41
1
10
9.11434992340699
20
7.88296039180392
30
0
41
1
10
9.29115755803062
20
7.8352107235784
30
0
41
1
10
9.64514888777347
20
7.73675176051003
30
0
41
1
10
9.82240958473795
20
7.686021658432
30
0
41
1
10
10
20
7.63384918249366
30
0
0
SPLINE
5
D1
100
AcDbEntity
8
1
62
256
6
ByLayer
370
18
48
1
60
0
100
AcDbSpline
70
4
71
3
72
102
73
98
40
0
40
0
40
0
40
0
40
0.0624999999999998
40
0.0624999999999998
40
0.125
40
0.125
40
0.15625
40
0.15625
40
0.1875
40
0.1875
40
0.203125000000001
40
0.203125000000001
40
0.210937500000001
40
0.210937500000001
40
0.218750000000001
40
0.218750000000001
40
0.25
40
0.25
40
0.28125
40
0.28125
40
0.296875
40
0.296875
40
0.304687499999999
40
0.304687499999999
40
0.312499999999999
40
0.312499999999999
40
0.343749999999998
40
0.343749999999998
40
0.374999999999998
40
0.374999999999998
40
0.390624999999998
40
0.390624999999998
40
0.398437499999997
40
0.398437499999997
40
0.406249999999997
40
0.406249999999997
40
0.421874999999996
40
0.421874999999996
40
0.437499999999994
40
0.437499999999994
40
0.445312499999994
40
0.445312499999994
40
0.453124999999993
40
0.453124999999993
40
0.468749999999991
40
0.48437499999999
40
0.48437499999999
40
0.492187499999989
40
0.492187499999989
40
0.499999999999988
40
0.499999999999988
40
0.515624999999986
40
0.515624999999986
40
0.531249999999985
40
0.531249999999985
40
0.539062499999984
40
0.542968749999984
40
0.542968749999984
40
0.546874999999983
40
0.546874999999983
40
0.562499999999982
40
0.562499999999982
40
0.59374999999998
40
0.59374999999998
40
0.60156249999998
40
0.60156249999998
40
0.609374999999979
40
0.609374999999979
40
0.624999999999978
40
0.624999999999978
40
0.656249999999977
40
0.656249999999977
40
0.687499999999975
40
0.687499999999975
40
0.695312499999975
40
0.695312499999975
40
0.703124999999976
40
0.703124999999976
40
0.718749999999977
40
0.718749999999977
40
0.74999999999998
40
0.74999999999998
40
0.781249999999982
40
0.781249999999982
40
0.812499999999985
40
0.812499999999985
40
0.843749999999987
40
0.843749999999987
40
0.87499999999999
40
0.87499999999999
40
0.906249999999992
40
0.906249999999992
40
0.937499999999995
40
0.937499999999995
40
0.968749999999997
40
0.968749999999997
40
1
40
1
40
1
40
1
41
1
10
10
20
-3.05902426781202
30
0
41
1
10
9.60659686261747
20
-3.14239357172698
30
0
41
1
10
9.21820853507541
20
-3.24084423527003
30
0
41
1
10
8.45162488106268
20
-3.46895520067861
30
0
41
1
10
8.073422825291
20
-3.59859142876471
30
0
41
1
10
7.51401903480354
20
-3.81788198928697
30
0
41
1
10
7.32886965915384
20
-3.89512712214216
30
0
41
1
10
6.96129029078801
20
-4.05831893990921
30
0
41
1
10
6.77885968101495
20
-4.14426320262058
30
0
41
1
10
6.50734655418785
20
-4.28013824294752
30
0
41
1
10
6.41719803289988
20
-4.32659127776421
30
0
41
1
10
6.28252521895354
20
-4.39808518982426
30
0
41
1
10
6.23772597790941
20
-4.4222190304495
30
0
41
1
10
6.1483140678157
20
-4.47110576982163
30
0
41
1
10
6.10366041997321
20
-4.49588190586439
30
0
41
1
10
5.88142812718917
20
-4.62103154199244
30
0
41
1
10
5.7071692359284
20
-4.72506701286949
30
0
41
1
10
5.3661746786228
20
-4.94122507034001
30
0
41
1
10
5.19943452155673
20
-5.05334379893947
30
0
41
1
10
4.95552833319078
20
-5.22796320713999
30
0
41
1
10
4.87526288350784
20
-5.28724551032605
30
0
41
1
10
4.75652163807592
20
-5.37785744760305
30
0
41
1
10
4.71721763373705
20
-5.40834306330532
30
0
41
1
10
4.63918300410953
20
-5.46989311618108
30
0
41
1
10
4.60046467324952
20
-5.50094967488823
30
0
41
1
10
4.4094046640154
20
-5.65685445725268
30
0
41
1
10
4.26378827737653
20
-5.78421346011692
30
0
41
1
10
3.98860483143574
20
-6.04414044325264
30
0
41
1
10
3.8590134027578
20
-6.1767033646943
30
0
41
1
10
3.67873367954036
20
-6.37961754811857
30
0
41
1
10
3.62100292012744
20
-6.44793650764245
30
0
41
1
10
3.53836315984168
20
-6.55149137199092
30
0
41
1
10
3.51147726530985
20
-6.58618935442743
30
0
41
1
10
3.45911475295898
20
-6.65595815156973
30
0
41
1
10
3.43378769783647
20
-6.69083288288249
30
0
41
1
10
3.36071213736841
20
-6.79503175633548
30
0
41
1
10
3.31574508321529
20
-6.8640887308766
30
0
41
1
10
3.23376879719348
20
-7.00124017275826
30
0
41
1
10
3.19675756384399
20
-7.06933491730911
30
0
41
1
10
3.14769881326413
20
-7.17063354749459
30
0
41
1
10
3.13242397269787
20
-7.20425901118284
30
0
41
1
10
3.10413704798987
20
-7.27120563857949
30
0
41
1
10
3.09110315773788
20
-7.30460418474522
30
0
41
1
10
3.05599373863455
20
-7.40306283134822
30
0
41
1
10
3.01947726986938
20
-7.53041653034234
30
0
41
1
10
3.00363086507036
20
-7.64979215409804
30
0
41
1
10
2.99967030696126
20
-7.73624778095683
30
0
41
1
10
2.99967234437543
20
-7.76455325565482
30
0
41
1
10
3.00236879115155
20
-7.82011904260358
30
0
41
1
10
3.005066610418
20
-7.84740161725978
30
0
41
1
10
3.01726974157961
20
-7.92750963222755
30
0
41
1
10
3.03072027081026
20
-7.97764171862846
30
0
41
1
10
3.06754748826458
20
-8.07182296376243
30
0
41
1
10
3.09092637939244
20
-8.11587095031979
30
0
41
1
10
3.13307747275064
20
-8.17764069989323
30
0
41
1
10
3.15592593779527
20
-8.20744884197325
30
0
41
1
10
3.18138323042541
20
-8.23568152787132
30
0
41
1
10
3.19892995414591
20
-8.25415705874437
30
0
41
1
10
3.20799813995629
20
-8.26322744134532
30
0
41
1
10
3.25450280029892
20
-8.30748445082762
30
0
41
1
10
3.29559624991066
20
-8.33959268697257
30
0
41
1
10
3.4292575278763
20
-8.42723465911189
30
0
41
1
10
3.53214486933982
20
-8.47414123952592
30
0
41
1
10
3.67509518913968
20
-8.52115862294855
30
0
41
1
10
3.7044075662721
20
-8.52997657863781
30
0
41
1
10
3.76442308841848
20
-8.5464945143961
30
0
41
1
10
3.79513099359187
20
-8.55419225514007
30
0
41
1
10
3.88856127069627
20
-8.57553915396181
30
0
41
1
10
3.95281292642431
20
-8.58751266170876
30
0
41
1
10
4.15077282908524
20
-8.61755717296222
30
0
41
1
10
4.28965729591994
20
-8.62979229439233
30
0
41
1
10
4.57858811506276
20
-8.64208151731455
30
0
41
1
10
4.7286508453559
20
-8.64211487597507
30
0
41
1
10
4.92204257716963
20
-8.63596514034555
30
0
41
1
10
4.96101287375458
20
-8.6344237020233
30
0
41
1
10
5.03951235834953
20
-8.63074707312083
30
0
41
1
10
5.0790349563718
20
-8.62861152903369
30
0
41
1
10
5.1979441277692
20
-8.62138728747567
30
0
41
1
10
5.2778267510852
20
-8.61547586342698
30
0
41
1
10
5.51910389084412
20
-8.59482949068868
30
0
41
1
10
5.68212134609939
20
-8.57719854203609
30
0
41
1
10
6.01161899383655
20
-8.53570047299135
30
0
41
1
10
6.17810168517917
20
-8.51182703682508
30
0
41
1
10
6.51384335007245
20
-8.45887772089139
30
0
41
1
10
6.68310343182614
20
-8.42979827871224
30
0
41
1
10
7.02383608297811
20
-8.36716963432008
30
0
41
1
10
7.19530898468995
20
-8.33361821323348
30
0
41
1
10
7.54000656270193
20
-8.26255933300024
30
0
41
1
10
7.71323111408651
20
-8.22505030162966
30
0
41
1
10
8.06107235710658
20
-8.14642547718452
30
0
41
1
10
8.23568867676266
20
-8.10530837997018
30
0
41
1
10
8.58606313001363
20
-8.01969410690097
30
0
41
1
10
8.76182081702947
20
-7.97519568618341
30
0
41
1
10
9.11434992340702
20
-7.88296039180392
30
0
41
1
10
9.29115755803062
20
-7.83521072357837
30
0
41
1
10
9.64514888777347
20
-7.73675176051003
30
0
41
1
10
9.82240958473795
20
-7.68602165843203
30
0
41
1
10
10
20
-7.63384918249369
30
0
0
SPLINE
5
D2
100
AcDbEntity
8
1
62
256
6
ByLayer
370
18
48
1
60
0
100
AcDbSpline
70
4
71
3
72
14
73
10
40
0
40
0
40
0
40
0
40
0.25
40
0.25
40
0.5
40
0.5
40
0.75
40
0.75
40
1
40
1
40
1
40
1
41
1
10
13.2170359482112
20
-7.34868804320737
30
0
41
1
10
12.9441237916812
20
-7.37822173949857
30
0
41
1
10
12.6728227823622
20
-7.40705216370336
30
0
41
1
10
12.1326700756917
20
-7.46200243461351
30
0
41
1
10
11.8638152273148
20
-7.48812414915932
30
0
41
1
10
11.3280574373039
20
-7.53672779318123
30
0
41
1
10
11.0611528574353
20
-7.55921481919859
30
0
41
1
10
10.5291563429855
20
-7.59989165206653
30
0
41
1
10
10.264064475539
20
-7.6180887800617
30
0
41
1
10
10
20
-7.63384918249372
30
0
0
SPLINE
5
D3
100
AcDbEntity
8
1
62
256
6
ByLayer
370
18
48
1
60
0
100
AcDbSpline
70
4
71
4
72
13
73
8
40
0
40
0
40
0
40
0
40
0
40
0.149488134248035
40
0.149488134248035
40
0.149488134248035
40
1
40
1
40
1
40
1
40
1
41
0.999183672646238
10
14.2374508099578
20
-3.33132318933848
30
0
41
0.999535460882424
10
14.185004995592
20
-3.44312746143554
30
0
41
0.999823766294438
10
14.1339073394299
20
-3.55909527216429
30
0
41
1
10
14.0843233455987
20
-3.67861739235565
30
0
41
1
10
13.7637097086576
20
-4.49715678178654
30
0
41
0.994295254376361
10
13.5074243496609
20
-5.38152246752192
30
0
41
0.994702535052078
10
13.3223656302198
20
-6.37763852286001
30
0
41
0.996720492408031
10
13.2170359482111
20
-7.34868804320738
30
0
0
SPLINE
5
D4
100
AcDbEntity
8
1
62
256
6
ByLayer
370
18
48
1
60
0
100
AcDbSpline
70
4
71
3
72
25
73
21
40
0
40
0
40
0
40
0
40
0.125000000000007
40
0.125000000000007
40
0.250000000000013
40
0.250000000000013
40
0.37500000000002
40
0.37500000000002
40
0.500000000000027
40
0.500000000000027
40
0.562500000000033
40
0.562500000000033
40
0.593750000000033
40
0.593750000000033
40
0.625000000000033
40
0.750000000000022
40
0.750000000000022
40
0.875000000000011
40
0.875000000000011
40
1
40
1
40
1
40
1
41
1
10
10
20
-3.05902426781202
30
0
41
1
10
10.2846492183042
20
-3.02880546865023
30
0
41
1
10
10.5686609885416
20
-3.00939153925412
30
0
41
1
10
11.1355161264832
20
-2.99058532295965
30
0
41
1
10
11.4183588709168
20
-2.99120156991404
30
0
41
1
10
11.9829585158831
20
-3.01103304458434
30
0
41
1
10
12.2647149513648
20
-3.03025466819835
30
0
41
1
10
12.8272182717304
20
-3.08579662417958
30
0
41
1
10
13.1079647896513
20
-3.12212165689843
30
0
41
1
10
13.5283891762029
20
-3.18812535296664
30
0
41
1
10
13.6684148218872
20
-3.2120435939174
30
0
41
1
10
13.8782883498119
20
-3.2506083014226
30
0
41
1
10
13.9482055029384
20
-3.2639090481232
30
0
41
1
10
14.0876891634742
20
-3.29131110922231
30
0
41
1
10
14.4357093418076
20
-3.36185100322263
30
0
41
1
10
14.780414479234
20
-3.44206065229665
30
0
41
1
10
15.3283931665636
20
-3.58012184218535
30
0
41
1
10
15.600608773825
20
-3.65401045092409
30
0
41
1
10
16.1421973878976
20
-3.80887110220701
30
0
41
1
10
16.4115725559946
20
-3.88983578122665
30
0
41
1
10
16.6798623052549
20
-3.97312127155388
30
0
0
SPLINE
5
D5
100
AcDbEntity
8
SK1
62
256
6
ByLayer
370
18
48
1
60
0
100
AcDbSpline
70
4
71
3
72
32
73
28
40
0
40
0
40
0
40
0
40
0.124999999999998
40
0.124999999999998
40
0.249999999999995
40
0.249999999999995
40
0.374999999999994
40
0.374999999999994
40
0.437499999999993
40
0.437499999999993
40
0.499999999999992
40
0.499999999999992
40
0.624999999999988
40
0.624999999999988
40
0.656249999999988
40
0.656249999999988
40
0.687499999999988
40
0.687499999999988
40
0.74999999999999
40
0.74999999999999
40
0.874999999999995
40
0.874999999999995
40
0.906249999999996
40
0.906249999999996
40
0.937499999999998
40
0.937499999999998
40
1
40
1
40
1
40
1
41
1
10
-43.3565069115799
20
-3.65034953143106
30
0
41
1
10
-43.3331458400142
20
-3.71424193668162
30
0
41
1
10
-43.3079887114829
20
-3.77702079626832
30
0
41
1
10
-43.2534212788423
20
-3.90009490817781
30
0
41
1
10
-43.2240149751524
20
-3.96039186522651
30
0
41
1
10
-43.1600568886594
20
-4.07814914960466
30
0
41
1
10
-43.1255132756746
20
-4.13561297938583
30
0
41
1
10
-43.0688646453433
20
-4.21928792338744
30
0
41
1
10
-43.0491724017425
20
-4.24675781820287
30
0
41
1
10
-43.0079384175976
20
-4.30075945417201
30
0
41
1
10
-42.9863407519915
20
-4.32734895814056
30
0
41
1
10
-42.9191284528727
20
-4.40464696643178
30
0
41
1
10
-42.8709653357112
20
-4.45314968312832
30
0
41
1
10
-42.8054200814028
20
-4.509129269905
30
0
41
1
10
-42.7920414880158
20
-4.52009075475445
30
0
41
1
10
-42.7647046009874
20
-4.54151368998052
30
0
41
1
10
-42.7507137384423
20
-4.55199803198428
30
0
41
1
10
-42.7080552923505
20
-4.58246627252342
30
0
41
1
10
-42.6787844981831
20
-4.60141919352105
30
0
41
1
10
-42.588250922941
20
-4.65388326760876
30
0
41
1
10
-42.5243097226538
20
-4.68306815187688
30
0
41
1
10
-42.4386823815538
20
-4.71050598268181
30
0
41
1
10
-42.4212064346087
20
-4.71554997578619
30
0
41
1
10
-42.3860524535981
20
-4.72455026306568
30
0
41
1
10
-42.3683576016114
20
-4.72851630488563
30
0
41
1
10
-42.3149119913326
20
-4.73878190613445
30
0
41
1
10
-42.2788010667419
20
-4.74345326345804
30
0
41
1
10
-42.2421801837133
20
-4.74582511601491
30
0
0
SPLINE
5
D6
100
AcDbEntity
8
SK1
62
256
6
ByLayer
370
18
48
1
60
0
100
AcDbSpline
70
4
71
3
72
32
73
28
40
0
40
0
40
0
40
0
40
0.125000000000003
40
0.125000000000003
40
0.156250000000003
40
0.156250000000003
40
0.187500000000004
40
0.187500000000004
40
0.250000000000005
40
0.250000000000005
40
0.312500000000005
40
0.312500000000005
40
0.343750000000005
40
0.343750000000005
40
0.375000000000006
40
0.375000000000006
40
0.500000000000003
40
0.500000000000003
40
0.625
40
0.625
40
0.6875
40
0.6875
40
0.749999999999999
40
0.749999999999999
40
0.875
40
0.875
40
1
40
1
40
1
40
1
41
1
10
-42.2421801837133
20
4.74582511601491
30
0
41
1
10
-42.3153322469605
20
4.74108722075121
30
0
41
1
10
-42.3858382182456
20
4.7272872503076
30
0
41
1
10
-42.4711061087408
20
4.70015187597528
30
0
41
1
10
-42.48801508965
20
4.69422552159887
30
0
41
1
10
-42.5215500807622
20
4.68139247012627
30
0
41
1
10
-42.538108088977
20
4.67450874413797
30
0
41
1
10
-42.5867495214036
20
4.65272655031879
30
0
41
1
10
-42.6179919315484
20
4.63663028483114
30
0
41
1
10
-42.6784054316375
20
4.60165673094545
30
0
41
1
10
-42.707575323895
20
4.58277786641952
30
0
41
1
10
-42.7499378830322
20
4.55256723042981
30
0
41
1
10
-42.7638261651475
20
4.54218093900309
30
0
41
1
10
-42.7911594285605
20
4.52080182261719
30
0
41
1
10
-42.8046315534326
20
4.50978473494575
30
0
41
1
10
-42.8704332773146
20
4.45367358335039
30
0
41
1
10
-42.9183823606968
20
4.40538606397868
30
0
41
1
10
-43.007200043589
20
4.30347549467811
30
0
41
1
10
-43.0480454261384
20
4.2498368571521
30
0
41
1
10
-43.1050091824334
20
4.16599396786131
30
0
41
1
10
-43.1233071500575
20
4.13742383693679
30
0
41
1
10
-43.1584042823023
20
4.07953032751405
30
0
41
1
10
-43.1751994309136
20
4.05022195040382
30
0
41
1
10
-43.2235710813646
20
3.96130068776944
30
0
41
1
10
-43.2531438067293
20
3.90069540381026
30
0
41
1
10
-43.3079263511211
20
3.77718661911314
30
0
41
1
10
-43.3331314373585
20
3.7142813278675
30
0
41
1
10
-43.3565069115799
20
3.65034953143106
30
0
0
SPLINE
5
D7
100
AcDbEntity
8
SK1
62
256
6
ByLayer
370
18
48
1
60
0
100
AcDbSpline
70
4
71
3
72
30
73
26
40
0
40
0
40
0
40
0
40
0.124999999999979
40
0.124999999999979
40
0.249999999999958
40
0.249999999999958
40
0.374999999999936
40
0.374999999999936
40
0.437499999999926
40
0.437499999999926
40
0.499999999999916
40
0.499999999999916
40
0.624999999999908
40
0.624999999999908
40
0.656249999999909
40
0.656249999999909
40
0.68749999999991
40
0.68749999999991
40
0.749999999999925
40
0.749999999999925
40
0.874999999999955
40
0.874999999999955
40
0.937499999999978
40
0.937499999999978
40
1
40
1
40
1
40
1
41
1
10
-13.8451406288876
20
5.60819856978108
30
0
41
1
10
-13.8759395902576
20
5.65059861248182
30
0
41
1
10
-13.9086043985849
20
5.69152013904011
30
0
41
1
10
-13.97811386775
20
5.77019024979575
30
0
41
1
10
-14.014955839279
20
5.80794050815649
30
0
41
1
10
-14.0934302354091
20
5.87995203844818
30
0
41
1
10
-14.1350574932389
20
5.91421654427231
30
0
41
1
10
-14.2017568377706
20
5.9626308553903
30
0
41
1
10
-14.2245427507748
20
5.97815093867467
30
0
41
1
10
-14.271111369383
20
6.00780504420359
30
0
41
1
10
-14.2949186549204
20
6.02195716348245
30
0
41
1
10
-14.3679929543377
20
6.06230994483028
30
0
41
1
10
-14.4189025587777
20
6.08641928516369
30
0
41
1
10
-14.4856782999412
20
6.11265441828212
30
0
41
1
10
-14.4991911565357
20
6.11770540783806
30
0
41
1
10
-14.5265457311327
20
6.12740066932034
30
0
41
1
10
-14.5403907312758
20
6.13204445753533
30
0
41
1
10
-14.5820565255816
20
6.14522762072318
30
0
41
1
10
-14.6101298025697
20
6.1530644585383
30
0
41
1
10
-14.6952537679042
20
6.17368858860661
30
0
41
1
10
-14.7532042147282
20
6.18360487337517
30
0
41
1
10
-14.8420639597241
20
6.19236276786617
30
0
41
1
10
-14.8721089186227
20
6.1942576600421
30
0
41
1
10
-14.9321260265236
20
6.19588455534111
30
0
41
1
10
-14.9621459212296
20
6.19562887243728
30
0
41
1
10
-14.9921771997116
20
6.19429975368809
30
0
0
SPLINE
5
D8
100
AcDbEntity
8
SK1
62
256
6
ByLayer
370
18
48
1
60
0
100
AcDbSpline
70
4
71
3
72
29
73
25
40
0
40
0
40
0
40
0
40
0.125000000000045
40
0.125000000000045
40
0.25000000000009
40
0.25000000000009
40
0.281250000000093
40
0.281250000000093
40
0.312500000000097
40
0.375000000000092
40
0.375000000000092
40
0.500000000000084
40
0.500000000000084
40
0.562500000000073
40
0.562500000000073
40
0.625000000000062
40
0.625000000000062
40
0.750000000000038
40
0.750000000000038
40
0.875000000000015
40
0.875000000000015
40
0.937500000000008
40
0.937500000000008
40
1
40
1
40
1
40
1
41
1
10
-14.9921771997116
20
-6.19429975368809
30
0
41
1
10
-14.9320573843484
20
-6.19696052531805
30
0
41
1
10
-14.8726744232101
20
-6.19530622075879
30
0
41
1
10
-14.7552923361598
20
-6.18388224594813
30
0
41
1
10
-14.6972937188803
20
-6.17410945589265
30
0
41
1
10
-14.6256493001772
20
-6.15684175670819
30
0
41
1
10
-14.6113371248737
20
-6.15312631775188
30
0
41
1
10
-14.5830607924918
20
-6.14526136952958
30
0
41
1
10
-14.5410867139313
20
-6.13279564418732
30
0
41
1
10
-14.500383626949
20
-6.118393573753
30
0
41
1
10
-14.4205661285236
20
-6.08714648466275
30
0
41
1
10
-14.3694669105832
20
-6.06306708368854
30
0
41
1
10
-14.2956992221607
20
-6.02241573888855
30
0
41
1
10
-14.2715415923124
20
-6.00806907471573
30
0
41
1
10
-14.2247924605031
20
-5.97831973436635
30
0
41
1
10
-14.2021202056678
20
-5.96287721339851
30
0
41
1
10
-14.1360355381032
20
-5.91496059376203
30
0
41
1
10
-14.0945476428777
20
-5.88090305019935
30
0
41
1
10
-14.0160214797599
20
-5.80899071657845
30
0
41
1
10
-13.9789867514485
20
-5.77113330484545
30
0
41
1
10
-13.9264169069796
20
-5.7117020344985
30
0
41
1
10
-13.9093970751005
20
-5.69145219620981
30
0
41
1
10
-13.8764815896183
20
-5.65032851626569
30
0
41
1
10
-13.8605603440826
20
-5.62942644739971
30
0
41
1
10
-13.845140628887
20
-5.60819856978154
30
0
0
SPLINE
5
D9
100
AcDbEntity
8
1
62
256
6
ByLayer
370
13
48
1
60
0
100
AcDbSpline
70
4
71
3
72
40
73
36
40
0
40
0
40
0
40
0
40
0.124999999999999
40
0.124999999999999
40
0.187499999999999
40
0.187499999999999
40
0.25
40
0.25
40
0.3125
40
0.3125
40
0.375
40
0.375
40
0.4375
40
0.4375
40
0.5
40
0.5
40
0.5625
40
0.5625
40
0.625
40
0.625
40
0.6875
40
0.6875
40
0.75
40
0.75
40
0.8125
40
0.8125
40
0.875
40
0.875
40
0.9375
40
0.9375
40
0.96875
40
0.96875
40
0.984375
40
0.984375
40
1
40
1
40
1
40
1
41
1
10
111.368759396879
20
8
30
0
41
1
10
111.461237677254
20
8
30
0
41
1
10
111.553715957628
20
7.95623041265239
30
0
41
1
10
111.69243337819
20
7.81243917804602
30
0
41
1
10
111.738672518377
20
7.75153558494947
30
0
41
1
10
111.831150798752
20
7.60253052725233
30
0
41
1
10
111.87738993894
20
7.51442429994424
30
0
41
1
10
111.969868219314
20
7.3105156122688
30
0
41
1
10
112.016107359501
20
7.19471003005651
30
0
41
1
10
112.108585639876
20
6.93578986083944
30
0
41
1
10
112.154824780063
20
6.79267441556095
30
0
41
1
10
112.247303060438
20
6.48046928159977
30
0
41
1
10
112.293542200625
20
6.31138135608748
30
0
41
1
10
112.386020481
20
5.94950105415899
30
0
41
1
10
112.432259621187
20
5.75671304420089
30
0
41
1
10
112.524737901562
20
5.35054498226992
30
0
41
1
10
112.570977041749
20
5.13717147465297
30
0
41
1
10
112.663455322124
20
4.69362173981207
30
0
41
1
10
112.709694462311
20
4.46345346939853
30
0
41
1
10
112.802172742686
20
3.99055967226533
30
0
41
1
10
112.848411882873
20
3.74784255987623
30
0
41
1
10
112.940890163248
20
3.25430329519585
30
0
41
1
10
112.987129303435
20
3.00348906011055
30
0
41
1
10
113.07960758381
20
2.49816590973441
30
0
41
1
10
113.125846723997
20
2.24366363369003
30
0
41
1
10
113.218325004372
20
1.73511173975041
30
0
41
1
10
113.264564144559
20
1.48106698865777
30
0
41
1
10
113.357042424934
20
0.977140238478057
30
0
41
1
10
113.403281565121
20
0.727261158200918
30
0
41
1
10
113.472640275402
20
0.357931354313422
30
0
41
1
10
113.495759845496
20
0.235731631255334
30
0
41
1
10
113.530439200636
20
0.0540500491296712
30
0
41
1
10
113.541998985683
20
-0.0060553833736492
30
0
41
1
10
113.565118555777
20
-0.126887942024041
30
0
41
1
10
113.576678340824
20
-0.187578807114619
30
0
41
1
10
113.58823812587
20
-0.248524128794884
30
0
0
SPLINE
5
DA
100
AcDbEntity
8
1
62
256
6
ByLayer
370
13
48
1
60
0
100
AcDbSpline
70
4
71
3
72
46
73
42
40
0
40
0
40
0
40
0
40
0.062500000000002
40
0.062500000000002
40
0.125000000000004
40
0.125000000000004
40
0.187500000000006
40
0.187500000000006
40
0.218750000000007
40
0.218750000000007
40
0.250000000000007
40
0.250000000000007
40
0.312500000000009
40
0.312500000000009
40
0.37500000000001
40
0.37500000000001
40
0.437500000000012
40
0.437500000000012
40
0.468750000000012
40
0.468750000000012
40
0.484375000000012
40
0.484375000000012
40
0.500000000000012
40
0.500000000000012
40
0.562500000000011
40
0.562500000000011
40
0.62500000000001
40
0.62500000000001
40
0.687500000000008
40
0.687500000000008
40
0.718750000000008
40
0.718750000000008
40
0.750000000000007
40
0.750000000000007
40
0.812500000000005
40
0.812500000000005
40
0.875000000000004
40
0.875000000000004
40
0.937500000000002
40
0.937500000000002
40
1
40
1
40
1
40
1
41
1
10
104.9
20
-7.96836283897821
30
0
41
1
10
104.987705561893
20
-7.92634746827849
30
0
41
1
10
105.075411123787
20
-7.84091327573577
30
0
41
1
10
105.250822247573
20
-7.5721918359431
30
0
41
1
10
105.338527809467
20
-7.38878584062505
30
0
41
1
10
105.513938933254
20
-6.92240679260348
30
0
41
1
10
105.601644495147
20
-6.63939963794098
30
0
41
1
10
105.733202837987
20
-6.14801029513762
30
0
41
1
10
105.777055618934
20
-5.97316520326919
30
0
41
1
10
105.864761180827
20
-5.60377623782722
30
0
41
1
10
105.908613961774
20
-5.40923678799123
30
0
41
1
10
106.040172304614
20
-4.80058604319211
30
0
41
1
10
106.127877866507
20
-4.3613251061918
30
0
41
1
10
106.303288990294
20
-3.44457594449781
30
0
41
1
10
106.390994552187
20
-2.96728879362232
30
0
41
1
10
106.566405675974
20
-2.00487841491127
30
0
41
1
10
106.654111237867
20
-1.51990284064016
30
0
41
1
10
106.785669580708
20
-0.806189062105744
30
0
41
1
10
106.829522361654
20
-0.570529099023958
30
0
41
1
10
106.895301533074
20
-0.222337719533243
30
0
41
1
10
106.917227923548
20
-0.107233648602545
30
0
41
1
10
106.961080704494
20
0.121267252739983
30
0
41
1
10
106.983007094968
20
0.236529386103399
30
0
41
1
10
107.092639047334
20
0.817206678780138
30
0
41
1
10
107.180344609228
20
1.29601448344724
30
0
41
1
10
107.355755733015
20
2.25961355761532
30
0
41
1
10
107.443461294908
20
2.74429877081479
30
0
41
1
10
107.618872418695
20
3.69091240164514
30
0
41
1
10
107.706577980588
20
4.15265853839182
30
0
41
1
10
107.838136323428
20
4.80534928880218
30
0
41
1
10
107.881989104375
20
5.01626319515421
30
0
41
1
10
107.969694666268
20
5.42134735469924
30
0
41
1
10
108.013547447215
20
5.61551191751272
30
0
41
1
10
108.145105790055
20
6.16838697001367
30
0
41
1
10
108.232811351948
20
6.49710783409455
30
0
41
1
10
108.408222475735
20
7.05856246586572
30
0
41
1
10
108.495928037628
20
7.29127296487684
30
0
41
1
10
108.671339161415
20
7.656418431899
30
0
41
1
10
108.759044723309
20
7.78893774703391
30
0
41
1
10
108.934455847095
20
7.96065941034203
30
0
41
1
10
109.022161408989
20
8
30
0
41
1
10
109.109866970882
20
8
30
0
0
SPLINE
5
DB
100
AcDbEntity
8
1
62
256
6
ByLayer
370
13
48
1
60
0
100
AcDbSpline
70
4
71
3
72
42
73
38
40
0
40
0
40
0
40
0
40
0.062499999999999
40
0.062499999999999
40
0.124999999999998
40
0.124999999999998
40
0.187499999999997
40
0.187499999999997
40
0.249999999999996
40
0.249999999999996
40
0.312499999999995
40
0.312499999999995
40
0.374999999999994
40
0.374999999999994
40
0.437499999999993
40
0.437499999999993
40
0.499999999999993
40
0.499999999999993
40
0.562499999999992
40
0.562499999999992
40
0.624999999999991
40
0.624999999999991
40
0.68749999999999
40
0.68749999999999
40
0.749999999999989
40
0.749999999999989
40
0.781249999999989
40
0.781249999999989
40
0.796874999999989
40
0.796874999999989
40
0.81249999999999
40
0.81249999999999
40
0.874999999999993
40
0.874999999999993
40
0.937499999999997
40
0.937499999999997
40
1
40
1
40
1
40
1
41
1
10
110.871162553612
20
8
30
0
41
1
10
110.927768294701
20
8
30
0
41
1
10
110.98437403579
20
7.98366800345917
30
0
41
1
10
111.097585517967
20
7.91422084280441
30
0
41
1
10
111.154191259056
20
7.86108957033974
30
0
41
1
10
111.267402741233
20
7.71494809576811
30
0
41
1
10
111.324008482322
20
7.62192322340104
30
0
41
1
10
111.437219964499
20
7.39442449483462
30
0
41
1
10
111.493825705588
20
7.25994041039837
30
0
41
1
10
111.607037187765
20
6.94986426834978
30
0
41
1
10
111.663642928854
20
6.77426917372622
30
0
41
1
10
111.776854411032
20
6.38443206020793
30
0
41
1
10
111.83346015212
20
6.17019577591083
30
0
41
1
10
111.946671634298
20
5.70762148386592
30
0
41
1
10
112.003277375386
20
5.45929769791354
30
0
41
1
10
112.116488857564
20
4.93487529522821
30
0
41
1
10
112.173094598653
20
4.6587971268392
30
0
41
1
10
112.28630608083
20
4.08644394968627
30
0
41
1
10
112.342911821919
20
3.79019197493278
30
0
41
1
10
112.456123304096
20
3.18565301164571
30
0
41
1
10
112.512729045185
20
2.87738769450962
30
0
41
1
10
112.625940527362
20
2.25688202699771
30
0
41
1
10
112.682546268451
20
1.94465881603355
30
0
41
1
10
112.795757750628
20
1.3236021446782
30
0
41
1
10
112.852363491717
20
1.01477957570924
30
0
41
1
10
112.93727210335
20
0.558770991855909
30
0
41
1
10
112.965574973894
20
0.407962602007529
30
0
41
1
10
113.008029279711
20
0.184032188014498
30
0
41
1
10
113.022180714983
20
0.109768406981175
30
0
41
1
10
113.050483585528
20
-0.0379261673786289
30
0
41
1
10
113.0646350208
20
-0.111720138087463
30
0
41
1
10
113.135392197161
20
-0.483685879683861
30
0
41
1
10
113.191997938249
20
-0.787582777478576
30
0
41
1
10
113.305209420427
20
-1.40256476705952
30
0
41
1
10
113.361815161516
20
-1.7136427635445
30
0
41
1
10
113.475026643693
20
-2.33624724738351
30
0
41
1
10
113.531632384782
20
-2.64776012113981
30
0
41
1
10
113.58823812587
20
-2.95564366565196
30
0
0
SPLINE
5
DC
100
AcDbEntity
8
1
62
256
6
ByLayer
370
13
48
1
60
0
100
AcDbSpline
70
4
71
3
72
42
73
38
40
0
40
0
40
0
40
0
40
0.0625000000000018
40
0.0625000000000018
40
0.125000000000004
40
0.125000000000004
40
0.187500000000005
40
0.187500000000005
40
0.250000000000007
40
0.250000000000007
40
0.312500000000009
40
0.312500000000009
40
0.375000000000011
40
0.375000000000011
40
0.406250000000012
40
0.406250000000012
40
0.421875000000012
40
0.421875000000012
40
0.437500000000012
40
0.437500000000012
40
0.500000000000011
40
0.500000000000011
40
0.562500000000009
40
0.562500000000009
40
0.625000000000008
40
0.625000000000008
40
0.687500000000007
40
0.687500000000007
40
0.750000000000005
40
0.750000000000005
40
0.812500000000004
40
0.812500000000004
40
0.875000000000003
40
0.875000000000003
40
0.937500000000001
40
0.937500000000001
40
1
40
1
40
1
40
1
41
1
10
104.9
20
-7.22997968859656
30
0
41
1
10
104.977338960992
20
-7.03383728824011
30
0
41
1
10
105.054677921984
20
-6.79888975565004
30
0
41
1
10
105.209355843968
20
-6.25715356053203
30
0
41
1
10
105.28669480496
20
-5.95039582210424
30
0
41
1
10
105.441372726944
20
-5.27796217824451
30
0
41
1
10
105.518711687936
20
-4.91236864629948
30
0
41
1
10
105.67338960992
20
-4.14065033597379
30
0
41
1
10
105.750728570912
20
-3.73463362260131
30
0
41
1
10
105.905406492896
20
-2.90294740578969
30
0
41
1
10
105.982745453888
20
-2.4773774452683
30
0
41
1
10
106.137423375872
20
-1.62670918117723
30
0
41
1
10
106.214762336864
20
-1.20167640916597
30
0
41
1
10
106.330770778352
20
-0.577088764341852
30
0
41
1
10
106.369440258848
20
-0.371021215642628
30
0
41
1
10
106.427444479592
20
-0.0663598904207561
30
0
41
1
10
106.44677921984
20
0.0339920709925252
30
0
41
1
10
106.485448700336
20
0.236782548373213
30
0
41
1
10
106.504783440584
20
0.338925485994764
30
0
41
1
10
106.601457141824
20
0.852887416172933
30
0
41
1
10
106.678796102816
20
1.27462483208347
30
0
41
1
10
106.8334740248
20
2.12374405550131
30
0
41
1
10
106.910812985792
20
2.55107187563939
30
0
41
1
10
107.065490907776
20
3.39203093103592
30
0
41
1
10
107.142829868768
20
3.80557018054265
30
0
41
1
10
107.297507790752
20
4.59800570396115
30
0
41
1
10
107.374846751744
20
4.97679293417704
30
0
41
1
10
107.529524673727
20
5.6802866607745
30
0
41
1
10
107.60686363472
20
6.00490040933812
30
0
41
1
10
107.761541556704
20
6.58527928357387
30
0
41
1
10
107.838880517695
20
6.84099779247015
30
0
41
1
10
107.993558439679
20
7.27568149184719
30
0
41
1
10
108.070897400671
20
7.45465693465317
30
0
41
1
10
108.225575322656
20
7.73537725954208
30
0
41
1
10
108.302914283647
20
7.83717731894686
30
0
41
1
10
108.457592205631
20
7.96945108772354
30
0
41
1
10
108.534931166623
20
8
30
0
41
1
10
108.612270127615
20
8
30
0
0
SPLINE
5
DD
100
AcDbEntity
8
1
62
256
6
ByLayer
370
13
48
1
60
0
100
AcDbSpline
70
4
71
3
72
44
73
40
40
0
40
0
40
0
40
0
40
0.0624999999999988
40
0.0624999999999988
40
0.124999999999998
40
0.124999999999998
40
0.187499999999996
40
0.187499999999996
40
0.249999999999995
40
0.249999999999995
40
0.312499999999994
40
0.312499999999994
40
0.374999999999993
40
0.374999999999993
40
0.437499999999992
40
0.437499999999992
40
0.49999999999999
40
0.49999999999999
40
0.562499999999989
40
0.562499999999989
40
0.624999999999988
40
0.624999999999988
40
0.656249999999987
40
0.656249999999987
40
0.671874999999987
40
0.671874999999987
40
0.679687499999988
40
0.679687499999988
40
0.687499999999988
40
0.687499999999988
40
0.749999999999991
40
0.749999999999991
40
0.812499999999993
40
0.812499999999993
40
0.874999999999995
40
0.874999999999995
40
0.937499999999998
40
0.937499999999998
40
1
40
1
40
1
40
1
41
1
10
110.373565710346
20
8
30
0
41
1
10
110.440538052336
20
8
30
0
41
1
10
110.507510394326
20
7.97711751607073
30
0
41
1
10
110.641455078306
20
7.87890031427682
30
0
41
1
10
110.708427420296
20
7.80352849462011
30
0
41
1
10
110.842372104276
20
7.59581144556216
30
0
41
1
10
110.909344446266
20
7.46343529191333
30
0
41
1
10
111.043289130247
20
7.14048002292313
30
0
41
1
10
111.110261472237
20
6.94988579218747
30
0
41
1
10
111.244206156217
20
6.51328389011459
30
0
41
1
10
111.311178498207
20
6.26728395467657
30
0
41
1
10
111.445123182187
20
5.72681260324231
30
0
41
1
10
111.512095524177
20
5.43237254727663
30
0
41
1
10
111.646040208157
20
4.80552450368188
30
0
41
1
10
111.713012550148
20
4.47316475463157
30
0
41
1
10
111.846957234128
20
3.78331555286579
30
0
41
1
10
111.913929576118
20
3.42587932732209
30
0
41
1
10
112.047874260098
20
2.69947916149559
30
0
41
1
10
112.114846602088
20
2.33056119277901
30
0
41
1
10
112.248791286068
20
1.59402990143659
30
0
41
1
10
112.315763628058
20
1.22644711356992
30
0
41
1
10
112.416222141044
20
0.684217860839567
30
0
41
1
10
112.449708312039
20
0.504980949451863
30
0
41
1
10
112.499937568531
20
0.239223232916658
30
0
41
1
10
112.516680654029
20
0.151152299459028
30
0
41
1
10
112.541795282275
20
0.0199112557732803
30
0
41
1
10
112.550166825024
20
-0.0236221602199294
30
0
41
1
10
112.566909910521
20
-0.11113251141424
30
0
41
1
10
112.57528145327
20
-0.155031619533901
30
0
41
1
10
112.650625338009
20
-0.551350730180047
30
0
41
1
10
112.717597679999
20
-0.912469666480774
30
0
41
1
10
112.851542363979
20
-1.64310001679573
30
0
41
1
10
112.918514705969
20
-2.0125919982066
30
0
41
1
10
113.05245938995
20
-2.74827270323632
30
0
41
1
10
113.11943173194
20
-3.11442445729972
30
0
41
1
10
113.25337641592
20
-3.83016403280001
30
0
41
1
10
113.32034875791
20
-4.17970188124073
30
0
41
1
10
113.45429344189
20
-4.84871587317909
30
0
41
1
10
113.52126578388
20
-5.16813914259927
30
0
41
1
10
113.58823812587
20
-5.46645736698335
30
0
0
SPLINE
5
DE
100
AcDbEntity
8
1
62
256
6
ByLayer
370
13
48
1
60
0
100
AcDbSpline
70
4
71
3
72
44
73
40
40
0
40
0
40
0
40
0
40
0.0624999999999973
40
0.0624999999999973
40
0.124999999999995
40
0.124999999999995
40
0.187499999999992
40
0.187499999999992
40
0.249999999999989
40
0.249999999999989
40
0.312499999999987
40
0.312499999999987
40
0.320312499999987
40
0.320312499999987
40
0.328124999999988
40
0.328124999999988
40
0.343749999999989
40
0.343749999999989
40
0.37499999999999
40
0.37499999999999
40
0.437499999999991
40
0.437499999999991
40
0.499999999999992
40
0.499999999999992
40
0.562499999999993
40
0.562499999999993
40
0.624999999999994
40
0.624999999999994
40
0.687499999999995
40
0.687499999999995
40
0.749999999999996
40
0.749999999999996
40
0.812499999999997
40
0.812499999999997
40
0.874999999999998
40
0.874999999999998
40
0.937499999999999
40
0.937499999999999
40
1
40
1
40
1
40
1
41
1
10
104.9
20
-5.46646123702709
30
0
41
1
10
104.966972360091
20
-5.16814311372229
30
0
41
1
10
105.033944720181
20
-4.84871991025381
30
0
41
1
10
105.167889440362
20
-4.17970598075954
30
0
41
1
10
105.234861800453
20
-3.83016812886854
30
0
41
1
10
105.368806520634
20
-3.11442848578031
30
0
41
1
10
105.435778880725
20
-2.74827666767953
30
0
41
1
10
105.569723600906
20
-2.01259578817681
30
0
41
1
10
105.636695960997
20
-1.64310369643741
30
0
41
1
10
105.770640681178
20
-0.912473095621323
30
0
41
1
10
105.837613041268
20
-0.551354019232036
30
0
41
1
10
105.91295694637
20
-0.155034743113873
30
0
41
1
10
105.921328491382
20
-0.111135616497791
30
0
41
1
10
105.938071581404
20
-0.0236252281175382
30
0
41
1
10
105.946443126416
20
0.0199082002050375
30
0
41
1
10
105.97155776145
20
0.151149259263065
30
0
41
1
10
105.988300851472
20
0.239220203969609
30
0
41
1
10
106.03853012154
20
0.50497795728748
30
0
41
1
10
106.072016301585
20
0.68421489725182
30
0
41
1
10
106.172474841721
20
1.22644424790562
30
0
41
1
10
106.239447201812
20
1.59402711744613
30
0
41
1
10
106.373391921993
20
2.33055860212241
30
0
41
1
10
106.440364282084
20
2.69947668250049
30
0
41
1
10
106.574309002265
20
3.42587709456788
30
0
41
1
10
106.641281362356
20
3.78331345465563
30
0
41
1
10
106.775226082537
20
4.47316293751078
30
0
41
1
10
106.842198442627
20
4.80552283303768
30
0
41
1
10
106.976143162808
20
5.43237116841263
30
0
41
1
10
107.043115522899
20
5.72681136959852
30
0
41
1
10
107.17706024308
20
6.26728299723661
30
0
41
1
10
107.244032603171
20
6.5132830635871
30
0
41
1
10
107.377977323352
20
6.94988520271932
30
0
41
1
10
107.444949683443
20
7.14047953956492
30
0
41
1
10
107.578894403624
20
7.46343498971055
30
0
41
1
10
107.645866763714
20
7.59581121840881
30
0
41
1
10
107.779811483896
20
7.80352838493749
30
0
41
1
10
107.846783843986
20
7.87890024705104
30
0
41
1
10
107.980728564168
20
7.97711750366153
30
0
41
1
10
108.047700924258
20
8
30
0
41
1
10
108.114673284349
20
8
30
0
0
SPLINE
5
DF
100
AcDbEntity
8
1
62
256
6
ByLayer
370
13
48
1
60
0
100
AcDbSpline
70
4
71
3
72
42
73
38
40
0
40
0
40
0
40
0
40
0.062499999999999
40
0.062499999999999
40
0.124999999999998
40
0.124999999999998
40
0.187499999999997
40
0.187499999999997
40
0.249999999999996
40
0.249999999999996
40
0.312499999999995
40
0.312499999999995
40
0.374999999999994
40
0.374999999999994
40
0.437499999999993
40
0.437499999999993
40
0.499999999999992
40
0.499999999999992
40
0.562499999999991
40
0.562499999999991
40
0.578124999999991
40
0.578124999999991
40
0.593749999999991
40
0.593749999999991
40
0.624999999999992
40
0.624999999999992
40
0.687499999999993
40
0.687499999999993
40
0.749999999999994
40
0.749999999999994
40
0.812499999999996
40
0.812499999999996
40
0.874999999999997
40
0.874999999999997
40
0.937499999999999
40
0.937499999999999
40
1
40
1
40
1
40
1
41
1
10
109.875968867079
20
8
30
0
41
1
10
109.95330780997
20
8
30
0
41
1
10
110.030646752862
20
7.96945110208878
30
0
41
1
10
110.185324638645
20
7.8371773974541
30
0
41
1
10
110.262663581536
20
7.73537738791197
30
0
41
1
10
110.417341467319
20
7.45465720048378
30
0
41
1
10
110.494680410211
20
7.27568184532421
30
0
41
1
10
110.649358295994
20
6.8409983545977
30
0
41
1
10
110.726697238885
20
6.58527996667922
30
0
41
1
10
110.881375124668
20
6.00490135622275
30
0
41
1
10
110.95871406756
20
5.68028775035438
30
0
41
1
10
111.113391953343
20
4.97679431429367
30
0
41
1
10
111.190730896234
20
4.59800723177244
30
0
41
1
10
111.345408782017
20
3.80557199105587
30
0
41
1
10
111.422747724909
20
3.39203287643144
30
0
41
1
10
111.577425610692
20
2.55107406344246
30
0
41
1
10
111.654764553583
20
2.12374635077242
30
0
41
1
10
111.809442439366
20
1.27462730630364
30
0
41
1
10
111.886781382258
20
0.852889961890128
30
0
41
1
10
111.983455060872
20
0.33892809734752
30
0
41
1
10
112.002789796595
20
0.236785171681021
30
0
41
1
10
112.04145926804
20
0.0339947158901737
30
0
41
1
10
112.060794003764
20
-0.0663572177710137
30
0
41
1
10
112.118798210932
20
-0.37101843236951
30
0
41
1
10
112.157467682378
20
-0.577085909293032
30
0
41
1
10
112.273476096715
20
-1.20167334851311
30
0
41
1
10
112.350815039607
20
-1.62670599641126
30
0
41
1
10
112.50549292539
20
-2.47737406002008
30
0
41
1
10
112.582831868281
20
-2.90294394435426
30
0
41
1
10
112.737509754064
20
-3.73463007668093
30
0
41
1
10
112.814848696955
20
-4.14064678193867
30
0
41
1
10
112.969526582738
20
-4.91236515639508
30
0
41
1
10
113.04686552563
20
-5.27795876068544
30
0
41
1
10
113.201543411413
20
-5.95039262982272
30
0
41
1
10
113.278882354304
20
-6.25715052114273
30
0
41
1
10
113.433560240087
20
-6.79888708955252
30
0
41
1
10
113.510899182979
20
-7.03383484237602
30
0
41
1
10
113.58823812587
20
-7.22997748513652
30
0
0
SPLINE
5
E0
100
AcDbEntity
8
1
62
256
6
ByLayer
370
13
48
1
60
0
100
AcDbSpline
70
4
71
3
72
41
73
37
40
0
40
0
40
0
40
0
40
0.0625000000000002
40
0.0625000000000002
40
0.125
40
0.125
40
0.1875
40
0.1875
40
0.203125
40
0.203125
40
0.21875
40
0.25
40
0.25
40
0.3125
40
0.3125
40
0.375
40
0.375
40
0.4375
40
0.4375
40
0.5
40
0.5
40
0.5625
40
0.5625
40
0.625
40
0.625
40
0.6875
40
0.6875
40
0.75
40
0.75
40
0.8125
40
0.8125
40
0.875
40
0.875
40
0.9375
40
0.9375
40
1
40
1
40
1
40
1
41
1
10
104.9
20
-2.95564839125981
30
0
41
1
10
104.956605759189
20
-2.64776478572631
30
0
41
1
10
105.013211518378
20
-2.33625182808433
30
0
41
1
10
105.126423036757
20
-1.71364714174493
30
0
41
1
10
105.183028795946
20
-1.40256902669754
30
0
41
1
10
105.296240314324
20
-0.787586777111272
30
0
41
1
10
105.352846073514
20
-0.483689737913693
30
0
41
1
10
105.4236032725
20
-0.11172381224381
30
0
41
1
10
105.437754712297
20
-0.0379297903153031
30
0
41
1
10
105.466057591892
20
0.109764804118072
30
0
41
1
10
105.508511911284
20
0.332554836861817
30
0
41
1
10
105.550966230676
20
0.558767461963299
30
0
41
1
10
105.63587486946
20
1.01477613679563
30
0
41
1
10
105.692480628649
20
1.32359878025693
30
0
41
1
10
105.805692147027
20
1.94465562692693
30
0
41
1
10
105.862297906216
20
2.25687893871915
30
0
41
1
10
105.975509424595
20
2.87738483032103
30
0
41
1
10
106.032115183784
20
3.18565027070983
30
0
41
1
10
106.145326702163
20
3.79018949649875
30
0
41
1
10
106.201932461352
20
4.08644161047593
30
0
41
1
10
106.31514397973
20
4.6587950736143
30
0
41
1
10
106.371749738919
20
4.93487338872691
30
0
41
1
10
106.484961257298
20
5.45929608289148
30
0
41
1
10
106.541567016487
20
5.70762001355672
30
0
41
1
10
106.654778534865
20
6.17019458375415
30
0
41
1
10
106.711384294055
20
6.38443100145355
30
0
41
1
10
106.824595812433
20
6.77426836264036
30
0
41
1
10
106.881201571622
20
6.94986357150654
30
0
41
1
10
106.994413090001
20
7.25993991742601
30
0
41
1
10
107.05101884919
20
7.39442409148472
30
0
41
1
10
107.164230367568
20
7.62192297203703
30
0
41
1
10
107.220836126758
20
7.71494790677809
30
0
41
1
10
107.334047645136
20
7.86108947894473
30
0
41
1
10
107.390653404325
20
7.91422078665198
30
0
41
1
10
107.503864922703
20
7.98366799299143
30
0
41
1
10
107.560470681893
20
8
30
0
41
1
10
107.617076441082
20
8
30
0
0
SPLINE
5
E1
100
AcDbEntity
8
1
62
256
6
ByLayer
370
13
48
1
60
0
100
AcDbSpline
70
4
71
3
72
46
73
42
40
0
40
0
40
0
40
0
40
0.062500000000001
40
0.062500000000001
40
0.125000000000002
40
0.125000000000002
40
0.187500000000003
40
0.187500000000003
40
0.250000000000004
40
0.250000000000004
40
0.281250000000004
40
0.281250000000004
40
0.312500000000005
40
0.312500000000005
40
0.375000000000006
40
0.375000000000006
40
0.437500000000007
40
0.437500000000007
40
0.500000000000008
40
0.500000000000008
40
0.515625000000007
40
0.515625000000007
40
0.531250000000007
40
0.531250000000007
40
0.562500000000006
40
0.562500000000006
40
0.625000000000005
40
0.625000000000005
40
0.687500000000004
40
0.687500000000004
40
0.750000000000003
40
0.750000000000003
40
0.781250000000002
40
0.781250000000002
40
0.812500000000002
40
0.812500000000002
40
0.875000000000001
40
0.875000000000001
40
0.937500000000001
40
0.937500000000001
40
1
40
1
40
1
40
1
41
1
10
109.378372023812
20
8
30
0
41
1
10
109.466077567605
20
8
30
0
41
1
10
109.553783111398
20
7.96065942668136
30
0
41
1
10
109.729194198984
20
7.78893783701326
30
0
41
1
10
109.816899742776
20
7.65641857931595
30
0
41
1
10
109.992310830362
20
7.29127326960773
30
0
41
1
10
110.080016374155
20
7.0585628705237
30
0
41
1
10
110.255427461741
20
6.49710847228323
30
0
41
1
10
110.343133005534
20
6.16838774170631
30
0
41
1
10
110.474691321223
20
5.61551290088104
30
0
41
1
10
110.51854409312
20
5.42134841046476
30
0
41
1
10
110.606249636912
20
5.01626439660058
30
0
41
1
10
110.650102408809
20
4.80535056352448
30
0
41
1
10
110.781660724498
20
4.15266002997669
30
0
41
1
10
110.869366268291
20
3.69091403364382
30
0
41
1
10
111.044777355877
20
2.74430065529958
30
0
41
1
10
111.13248289967
20
2.2596155540532
30
0
41
1
10
111.307893987255
20
1.29601666318743
30
0
41
1
10
111.395599531048
20
0.817208929888835
30
0
41
1
10
111.50523146079
20
0.236531699462404
30
0
41
1
10
111.527157846738
20
0.121269577222392
30
0
41
1
10
111.571010618634
20
-0.107231304487016
30
0
41
1
10
111.592937004582
20
-0.222335312600819
30
0
41
1
10
111.658716162427
20
-0.570526583268162
30
0
41
1
10
111.702568934323
20
-0.806186476424955
30
0
41
1
10
111.834127250013
20
-1.51990005808278
30
0
41
1
10
111.921832793806
20
-2.00487551835559
30
0
41
1
10
112.097243881391
20
-2.96728573156889
30
0
41
1
10
112.184949425184
20
-3.44457283125925
30
0
41
1
10
112.36036051277
20
-4.36132197593437
30
0
41
1
10
112.448066056563
20
-4.80058294735346
30
0
41
1
10
112.579624372252
20
-5.40923381387387
30
0
41
1
10
112.623477144149
20
-5.60377331582458
30
0
41
1
10
112.711182687942
20
-5.97316240773944
30
0
41
1
10
112.755035459838
20
-6.14800757396259
30
0
41
1
10
112.886593775527
20
-6.63939717015728
30
0
41
1
10
112.97429931932
20
-6.92240453454139
30
0
41
1
10
113.149710406906
20
-7.3887840561695
30
0
41
1
10
113.237415950699
20
-7.57219031501998
30
0
41
1
10
113.412827038285
20
-7.84091230103775
30
0
41
1
10
113.500532582078
20
-7.92634677598255
30
0
41
1
10
113.58823812587
20
-7.96836242276657
30
0
0
SPLINE
5
E2
100
AcDbEntity
8
1
62
256
6
ByLayer
370
13
48
1
60
0
100
AcDbSpline
70
4
71
3
72
40
73
36
40
0
40
0
40
0
40
0
40
0.015625
40
0.015625
40
0.03125
40
0.03125
40
0.0625
40
0.0625
40
0.125
40
0.125
40
0.1875
40
0.1875
40
0.25
40
0.25
40
0.3125
40
0.3125
40
0.375
40
0.375
40
0.4375
40
0.4375
40
0.5
40
0.5
40
0.562500000000001
40
0.562500000000001
40
0.625000000000001
40
0.625000000000001
40
0.687500000000001
40
0.687500000000001
40
0.750000000000001
40
0.750000000000001
40
0.812500000000001
40
0.812500000000001
40
0.875000000000001
40
0.875000000000001
40
1
40
1
40
1
40
1
41
1
10
104.9
20
-0.24852870939489
30
0
41
1
10
104.911559789572
20
-0.187583351112607
30
0
41
1
10
104.923119579144
20
-0.126892449099756
30
0
41
1
10
104.946239158288
20
-0.0060598160720815
30
0
41
1
10
104.95779894786
20
0.0540456290548832
30
0
41
1
10
104.992478316576
20
0.235727243090139
30
0
41
1
10
105.015597895719
20
0.357926990193732
30
0
41
1
10
105.084956633151
20
0.727256874635202
30
0
41
1
10
105.131195791439
20
0.977136019878202
30
0
41
1
10
105.223674108015
20
1.48106292216428
30
0
41
1
10
105.269913266302
20
1.73510776040234
30
0
41
1
10
105.362391582878
20
2.24365984912615
30
0
41
1
10
105.408630741166
20
2.49816223280948
30
0
41
1
10
105.501109057742
20
3.00348561584778
30
0
41
1
10
105.54734821603
20
3.25429997595066
30
0
41
1
10
105.639826532605
20
3.74783950358986
30
0
41
1
10
105.686065690893
20
3.99055675390875
30
0
41
1
10
105.778544007469
20
4.46345083426965
30
0
41
1
10
105.824783165756
20
4.6936192499648
30
0
41
1
10
105.917261482332
20
5.13716927650819
30
0
41
1
10
105.96350064062
20
5.3505429305271
30
0
41
1
10
106.055978957195
20
5.75671128003654
30
0
41
1
10
106.102218115483
20
5.94949943115256
30
0
41
1
10
106.194696432059
20
6.31138000424414
30
0
41
1
10
106.240935590347
20
6.48046805974633
30
0
41
1
10
106.333413906922
20
6.79267343756297
30
0
41
1
10
106.37965306521
20
6.93578899669723
30
0
41
1
10
106.472131381786
20
7.19470937386842
30
0
41
1
10
106.518370540074
20
7.31051505017581
30
0
41
1
10
106.610848856649
20
7.5144239041866
30
0
41
1
10
106.657088014937
20
7.60253020373793
30
0
41
1
10
106.749566331513
20
7.75153538350617
30
0
41
1
10
106.795805489801
20
7.8124390264384
30
0
41
1
10
106.934522964664
20
7.9562303781417
30
0
41
1
10
107.02700128124
20
8
30
0
41
1
10
107.119479597815
20
8
30
0
0
SPLINE
5
E3
100
AcDbEntity
8
1
62
256
6
ByLayer
370
13
48
1
60
0
100
AcDbSpline
70
4
71
3
72
76
73
72
40
0
40
0
40
0
40
0
40
0.0312500000000002
40
0.0312500000000002
40
0.0625000000000004
40
0.0625000000000004
40
0.0937500000000006
40
0.0937500000000006
40
0.125000000000001
40
0.125000000000001
40
0.156250000000001
40
0.156250000000001
40
0.187500000000001
40
0.187500000000001
40
0.218750000000001
40
0.218750000000001
40
0.250000000000002
40
0.250000000000002
40
0.281250000000002
40
0.281250000000002
40
0.312500000000002
40
0.312500000000002
40
0.343750000000002
40
0.343750000000002
40
0.375000000000002
40
0.375000000000002
40
0.406250000000002
40
0.406250000000002
40
0.437500000000002
40
0.437500000000002
40
0.453125000000003
40
0.453125000000003
40
0.468750000000003
40
0.468750000000003
40
0.500000000000003
40
0.500000000000003
40
0.531250000000003
40
0.531250000000003
40
0.562500000000003
40
0.562500000000003
40
0.593750000000003
40
0.593750000000003
40
0.625000000000003
40
0.625000000000003
40
0.656250000000003
40
0.656250000000003
40
0.687500000000004
40
0.687500000000004
40
0.718750000000004
40
0.718750000000004
40
0.750000000000004
40
0.750000000000004
40
0.781250000000004
40
0.781250000000004
40
0.812500000000004
40
0.812500000000004
40
0.843750000000005
40
0.843750000000005
40
0.875000000000005
40
0.875000000000005
40
0.906250000000005
40
0.906250000000005
40
0.921875000000005
40
0.921875000000005
40
0.929687500000005
40
0.929687500000005
40
0.937500000000005
40
0.937500000000005
40
0.968750000000002
40
0.968750000000002
40
1
40
1
40
1
40
1
41
1
10
108.880775180545
20
8
30
0
41
1
10
108.929811252893
20
8
30
0
41
1
10
108.97884732524
20
7.98775055580188
30
0
41
1
10
109.076919469934
20
7.93603835265034
30
0
41
1
10
109.125955542281
20
7.89656772851751
30
0
41
1
10
109.224027686975
20
7.78824112724124
30
0
41
1
10
109.273063759323
20
7.71937764959375
30
0
41
1
10
109.371135904017
20
7.55088457954372
30
0
41
1
10
109.420171976364
20
7.45124893243155
30
0
41
1
10
109.518244121058
20
7.2208297087264
30
0
41
1
10
109.567280193405
20
7.09004261773222
30
0
41
1
10
109.6653523381
20
6.79808534270023
30
0
41
1
10
109.714388410447
20
6.6369150433087
30
0
41
1
10
109.812460555141
20
6.28616027419773
30
0
41
1
10
109.861496627488
20
6.09657946731664
30
0
41
1
10
109.959568772182
20
5.69212438987776
30
0
41
1
10
110.00860484453
20
5.47725730785467
30
0
41
1
10
110.106676989224
20
5.02633777089321
30
0
41
1
10
110.155713061571
20
4.79029515322816
30
0
41
1
10
110.253785206265
20
4.30186066608269
30
0
41
1
10
110.302821278612
20
4.04947996015312
30
0
41
1
10
110.400893423307
20
3.53361297828931
30
0
41
1
10
110.449929495654
20
3.27013772081409
30
0
41
1
10
110.548001640348
20
2.7373944230711
30
0
41
1
10
110.597037712695
20
2.46813595171173
30
0
41
1
10
110.695109857389
20
1.92889451016148
30
0
41
1
10
110.744145929737
20
1.6589187587827
30
0
41
1
10
110.842218074431
20
1.12281166142202
30
0
41
1
10
110.891254146778
20
0.856684788726824
30
0
41
1
10
110.964808255299
20
0.463297591079481
30
0
41
1
10
110.989326291472
20
0.333130029658946
30
0
41
1
10
111.038362363819
20
0.0751324555689905
30
0
41
1
10
111.062880399993
20
-0.0519959581496892
30
0
41
1
10
111.136434508514
20
-0.438568902455728
30
0
41
1
10
111.185470580861
20
-0.701030173015113
30
0
41
1
10
111.283542725555
20
-1.23195885388088
30
0
41
1
10
111.332578797902
20
-1.50042324142513
30
0
41
1
10
111.430650942597
20
-2.03913637447289
30
0
41
1
10
111.479687014943
20
-2.30937933935058
30
0
41
1
10
111.577759159638
20
-2.84682426880977
30
0
41
1
10
111.626795231985
20
-3.11401782955247
30
0
41
1
10
111.724867376679
20
-3.6401487801588
30
0
41
1
10
111.773903449026
20
-3.89907577908198
30
0
41
1
10
111.871975593721
20
-4.40335353736327
30
0
41
1
10
111.921011666068
20
-4.64869303057975
30
0
41
1
10
112.019083810762
20
-5.12070041706079
30
0
41
1
10
112.068119883109
20
-5.34735758815566
30
0
41
1
10
112.166192027804
20
-5.77746521669891
30
0
41
1
10
112.215228100151
20
-5.98090693803715
30
0
41
1
10
112.313300244845
20
-6.36090616360468
30
0
41
1
10
112.362336317192
20
-6.53745806263467
30
0
41
1
10
112.460408461886
20
-6.86107690604754
30
0
41
1
10
112.509444534233
20
-7.00814197198761
30
0
41
1
10
112.607516678928
20
-7.27137715035653
30
0
41
1
10
112.656552751275
20
-7.38754905689584
30
0
41
1
10
112.754624895969
20
-7.58877909668357
30
0
41
1
10
112.803660968316
20
-7.67384206555107
30
0
41
1
10
112.901733113011
20
-7.81372421645204
30
0
41
1
10
112.950769185358
20
-7.86855027342827
30
0
41
1
10
113.048841330052
20
-7.9497375951801
30
0
41
1
10
113.097877402399
20
-7.9761066576113
30
0
41
1
10
113.17143151092
20
-7.99615933152299
30
0
41
1
10
113.195949547093
20
-7.99959799761734
30
0
41
1
10
113.232726601354
20
-8.00015110034639
30
0
41
1
10
113.24498561944
20
-7.99957241299552
30
0
41
1
10
113.269503655614
20
-7.99684757532617
30
0
41
1
10
113.281762673701
20
-7.99470083783828
30
0
41
1
10
113.343057764135
20
-7.97993675364788
30
0
41
1
10
113.392093836482
20
-7.95520731902616
30
0
41
1
10
113.490165981176
20
-7.87743056500165
30
0
41
1
10
113.539202053523
20
-7.82437542652289
30
0
41
1
10
113.58823812587
20
-7.75624708260156
30
0
0
SPLINE
5
E4
100
AcDbEntity
8
1
62
256
6
ByLayer
370
13
48
1
60
0
100
AcDbSpline
70
4
71
3
72
22
73
18
40
0
40
0
40
0
40
0
40
0.125
40
0.125
40
0.25
40
0.25
40
0.375
40
0.375
40
0.5
40
0.5
40
0.625
40
0.625
40
0.75
40
0.75
40
0.875
40
0.875
40
1
40
1
40
1
40
1
41
1
10
104.9
20
2.43707196361066
30
0
41
1
10
104.971745114773
20
2.83091794508093
30
0
41
1
10
105.043490229546
20
3.22245580077768
30
0
41
1
10
105.186980459091
20
3.98461601996488
30
0
41
1
10
105.258725573864
20
4.35516658850608
30
0
41
1
10
105.40221580341
20
5.05887782149762
30
0
41
1
10
105.473960918183
20
5.39196529783067
30
0
41
1
10
105.617451147729
20
6.00645554985886
30
0
41
1
10
105.689196262501
20
6.28780410026457
30
0
41
1
10
105.832686492047
20
6.78869008166023
30
0
41
1
10
105.90443160682
20
7.00820674900854
30
0
41
1
10
106.047921836366
20
7.38064212705063
30
0
41
1
10
106.119666951139
20
7.5335758084598
30
0
41
1
10
106.263157180684
20
7.77348093670042
30
0
41
1
10
106.334902295457
20
7.86049354574308
30
0
41
1
10
106.478392525003
20
7.97372703970652
30
0
41
1
10
106.550137639776
20
8
30
0
41
1
10
106.621882754549
20
8
30
0
0
SPLINE
5
E5
100
AcDbEntity
8
1
62
256
6
ByLayer
370
13
48
1
60
0
100
AcDbSpline
70
4
71
3
72
78
73
74
40
0
40
0
40
0
40
0
40
0.0312500000000005
40
0.0312500000000005
40
0.0625000000000011
40
0.0625000000000011
40
0.0937500000000016
40
0.0937500000000016
40
0.125000000000002
40
0.125000000000002
40
0.156250000000003
40
0.156250000000003
40
0.187500000000003
40
0.187500000000003
40
0.218750000000004
40
0.218750000000004
40
0.250000000000004
40
0.250000000000004
40
0.281250000000005
40
0.281250000000005
40
0.312500000000005
40
0.312500000000005
40
0.343750000000006
40
0.343750000000006
40
0.375000000000006
40
0.375000000000006
40
0.406250000000007
40
0.406250000000007
40
0.414062500000007
40
0.414062500000007
40
0.421875000000007
40
0.421875000000007
40
0.437500000000007
40
0.437500000000007
40
0.468750000000006
40
0.468750000000006
40
0.500000000000006
40
0.500000000000006
40
0.531250000000005
40
0.531250000000005
40
0.562500000000004
40
0.562500000000004
40
0.593750000000004
40
0.593750000000004
40
0.625000000000003
40
0.625000000000003
40
0.656250000000003
40
0.656250000000003
40
0.687500000000002
40
0.687500000000002
40
0.718750000000002
40
0.718750000000002
40
0.750000000000001
40
0.750000000000001
40
0.781250000000001
40
0.781250000000001
40
0.8125
40
0.8125
40
0.828125
40
0.828125
40
0.8359375
40
0.8359375
40
0.84375
40
0.84375
40
0.875
40
0.875
40
0.90625
40
0.90625
40
0.9375
40
0.9375
40
0.96875
40
0.96875
40
1
40
1
40
1
40
1
41
1
10
108.383178337279
20
8
30
0
41
1
10
108.437397710076
20
8
30
0
41
1
10
108.491617082874
20
7.98501871774235
30
0
41
1
10
108.60005582847
20
7.92145786519777
30
0
41
1
10
108.654275201268
20
7.87286529947539
30
0
41
1
10
108.762713946863
20
7.73929162269388
30
0
41
1
10
108.816933319661
20
7.65429848505832
30
0
41
1
10
108.925372065257
20
7.4463861718894
30
0
41
1
10
108.979591438055
20
7.32345815378036
30
0
41
1
10
109.088030183651
20
7.03971319822844
30
0
41
1
10
109.142249556448
20
6.87889270453189
30
0
41
1
10
109.250688302044
20
6.52116828457196
30
0
41
1
10
109.304907674842
20
6.32426745400449
30
0
41
1
10
109.413346420438
20
5.89796741639682
30
0
41
1
10
109.467565793235
20
5.66857806400878
30
0
41
1
10
109.576004538831
20
5.1824703708894
30
0
41
1
10
109.630223911629
20
4.92576731585675
30
0
41
1
10
109.738662657224
20
4.39140232468992
30
0
41
1
10
109.792882030022
20
4.11375863280088
30
0
41
1
10
109.901320775618
20
3.5445697872415
30
0
41
1
10
109.955540148416
20
3.25304288597331
30
0
41
1
10
110.063978894011
20
2.66327333559713
30
0
41
1
10
110.118198266809
20
2.36504629647982
30
0
41
1
10
110.226637012405
20
1.76867283592927
30
0
41
1
10
110.280856385203
20
1.47053762344908
30
0
41
1
10
110.389295130799
20
0.880346710509656
30
0
41
1
10
110.443514503596
20
0.588297181277227
30
0
41
1
10
110.511288719594
20
0.230122012689037
30
0
41
1
10
110.524843562793
20
0.158828536363984
30
0
41
1
10
110.551953249192
20
0.0169904065570279
30
0
41
1
10
110.565508092391
20
-0.053444488621011
30
0
41
1
10
110.60617262199
20
-0.266584579689379
30
0
41
1
10
110.633282308389
20
-0.410155982032961
30
0
41
1
10
110.714611367585
20
-0.844478826873285
30
0
41
1
10
110.768830740383
20
-1.13887285222981
30
0
41
1
10
110.877269485979
20
-1.73209933104175
30
0
41
1
10
110.931488858777
20
-2.03092413554413
30
0
41
1
10
111.039927604372
20
-2.626755592356
30
0
41
1
10
111.09414697717
20
-2.92374963011088
30
0
41
1
10
111.202585722766
20
-3.50896897527915
30
0
41
1
10
111.256805095564
20
-3.79717766881464
30
0
41
1
10
111.365243841159
20
-4.35762508053784
30
0
41
1
10
111.419463213957
20
-4.62984524690535
30
0
41
1
10
111.527901959553
20
-5.1514001942933
30
0
41
1
10
111.582121332351
20
-5.40071729843334
30
0
41
1
10
111.690560077946
20
-5.87039138682394
30
0
41
1
10
111.744779450744
20
-6.09073446118038
30
0
41
1
10
111.85321819634
20
-6.49771118692084
30
0
41
1
10
111.907437569138
20
-6.68433688879713
30
0
41
1
10
112.015876314733
20
-7.02079041668321
30
0
41
1
10
112.070095687531
20
-7.17061717012129
30
0
41
1
10
112.178534433127
20
-7.43218271885723
30
0
41
1
10
112.232753805925
20
-7.54392680521065
30
0
41
1
10
112.34119255152
20
-7.729768746974
30
0
41
1
10
112.395411924318
20
-7.80387661198779
30
0
41
1
10
112.503850669914
20
-7.91638290978165
30
0
41
1
10
112.558070042712
20
-7.95479387275444
30
0
41
1
10
112.639399101908
20
-7.98794198737437
30
0
41
1
10
112.666508788307
20
-7.99492104807928
30
0
41
1
10
112.707173317906
20
-7.99962838871943
30
0
41
1
10
112.720728161105
20
-8.00023912840362
30
0
41
1
10
112.747837847504
20
-7.99959506538363
30
0
41
1
10
112.761392690704
20
-7.9983330106503
30
0
41
1
10
112.829166906701
20
-7.98717229479794
30
0
41
1
10
112.883386279499
20
-7.96269245121871
30
0
41
1
10
112.991825025094
20
-7.87920943309098
30
0
41
1
10
113.046044397892
20
-7.82019333305993
30
0
41
1
10
113.154483143488
20
-7.66517631837135
30
0
41
1
10
113.208702516285
20
-7.56916407420857
30
0
41
1
10
113.317141261881
20
-7.33904969915551
30
0
41
1
10
113.371360634679
20
-7.20494007742084
30
0
41
1
10
113.479799380275
20
-6.89917334911539
30
0
41
1
10
113.534018753073
20
-6.72751454192931
30
0
41
1
10
113.58823812587
20
-6.53824936558505
30
0
0
SPLINE
5
E6
100
AcDbEntity
8
1
62
256
6
ByLayer
370
13
48
1
60
0
100
AcDbSpline
70
4
71
3
72
22
73
18
40
0
40
0
40
0
40
0
40
0.125
40
0.125
40
0.25
40
0.25
40
0.375
40
0.375
40
0.5
40
0.5
40
0.625
40
0.625
40
0.75
40
0.75
40
0.875
40
0.875
40
1
40
1
40
1
40
1
41
1
10
104.9
20
5.03055258184958
30
0
41
1
10
104.95101191297
20
5.27193048878561
30
0
41
1
10
105.00202382594
20
5.50265027944994
30
0
41
1
10
105.10404765188
20
5.93788507509399
30
0
41
1
10
105.15505956485
20
6.14239027920684
30
0
41
1
10
105.257083390791
20
6.52135995406434
30
0
41
1
10
105.308095303761
20
6.69581886672702
30
0
41
1
10
105.410119129701
20
7.01217298659773
30
0
41
1
10
105.461131042671
20
7.15406741963798
30
0
41
1
10
105.563154868611
20
7.4041788207409
30
0
41
1
10
105.614166781581
20
7.51239945796414
30
0
41
1
10
105.716190607521
20
7.69541317572063
30
0
41
1
10
105.767202520491
20
7.77021332189713
30
0
41
1
10
105.869226346431
20
7.88783400459354
30
0
41
1
10
105.920238259402
20
7.9306635830238
30
0
41
1
10
106.022262085342
20
7.98674178900808
30
0
41
1
10
106.073273998312
20
8
30
0
41
1
10
106.124285911282
20
8
30
0
0
SPLINE
5
E7
100
AcDbEntity
8
1
62
256
6
ByLayer
370
13
48
1
60
0
100
AcDbSpline
70
4
71
3
72
77
73
73
40
0
40
0
40
0
40
0
40
0.0312500000000009
40
0.0312500000000009
40
0.0625000000000018
40
0.0625000000000018
40
0.0937500000000028
40
0.0937500000000028
40
0.125000000000004
40
0.125000000000004
40
0.156250000000005
40
0.156250000000005
40
0.187500000000005
40
0.187500000000005
40
0.218750000000006
40
0.218750000000006
40
0.250000000000007
40
0.250000000000007
40
0.281250000000008
40
0.281250000000008
40
0.312500000000009
40
0.312500000000009
40
0.34375000000001
40
0.34375000000001
40
0.375000000000011
40
0.375000000000011
40
0.382812500000011
40
0.382812500000011
40
0.39062500000001
40
0.406250000000011
40
0.406250000000011
40
0.43750000000001
40
0.43750000000001
40
0.46875000000001
40
0.46875000000001
40
0.50000000000001
40
0.50000000000001
40
0.53125000000001
40
0.53125000000001
40
0.56250000000001
40
0.56250000000001
40
0.59375000000001
40
0.59375000000001
40
0.62500000000001
40
0.62500000000001
40
0.65625000000001
40
0.65625000000001
40
0.68750000000001
40
0.68750000000001
40
0.718750000000009
40
0.718750000000009
40
0.750000000000009
40
0.750000000000009
40
0.757812500000009
40
0.757812500000009
40
0.765625000000008
40
0.765625000000008
40
0.781250000000008
40
0.781250000000008
40
0.812500000000007
40
0.812500000000007
40
0.843750000000006
40
0.843750000000006
40
0.875000000000005
40
0.875000000000005
40
0.906250000000004
40
0.906250000000004
40
0.937500000000002
40
0.937500000000002
40
0.968750000000001
40
0.968750000000001
40
1
40
1
40
1
40
1
41
1
10
107.885581494012
20
8
30
0
41
1
10
107.944984167261
20
8
30
0
41
1
10
108.004386840509
20
7.98201013763668
30
0
41
1
10
108.123192187006
20
7.90531507575957
30
0
41
1
10
108.182594860255
20
7.84658939843536
30
0
41
1
10
108.301400206752
20
7.68495520433046
30
0
41
1
10
108.36080288
20
7.58202842060484
30
0
41
1
10
108.479608226497
20
7.3304270038727
30
0
41
1
10
108.539010899746
20
7.18174052883288
30
0
41
1
10
108.657816246243
20
6.83942538878821
30
0
41
1
10
108.717218919491
20
6.64579497957237
30
0
41
1
10
108.836024265988
20
6.21698513077251
30
0
41
1
10
108.895426939237
20
5.98181578889162
30
0
41
1
10
109.014232285734
20
5.47578771115636
30
0
41
1
10
109.073634958983
20
5.20494980850822
30
0
41
1
10
109.19244030548
20
4.63543951029075
30
0
41
1
10
109.251842978728
20
4.33679482885159
30
0
41
1
10
109.370648325225
20
3.72077569627174
30
0
41
1
10
109.430050998474
20
3.40343042418289
30
0
41
1
10
109.548856344971
20
2.75948951054178
30
0
41
1
10
109.608259018219
20
2.43291926892951
30
0
41
1
10
109.727064364716
20
1.77954438885681
30
0
41
1
10
109.786467037965
20
1.4527577739743
30
0
41
1
10
109.905272384462
20
0.806839360813115
30
0
41
1
10
109.96467505771
20
0.487716904320649
30
0
41
1
10
110.038928399271
20
0.0975662438654012
30
0
41
1
10
110.053779067583
20
0.0202585228543057
30
0
41
1
10
110.083480404207
20
-0.134901753947531
30
0
41
1
10
110.128032409144
20
-0.3690052844359
30
0
41
1
10
110.17258441408
20
-0.606823280824074
30
0
41
1
10
110.261688423953
20
-1.08626481063962
30
0
41
1
10
110.321091097202
20
-1.41101295843342
30
0
41
1
10
110.439896443699
20
-2.06343646943341
30
0
41
1
10
110.499299116947
20
-2.3910970494025
30
0
41
1
10
110.618104463444
20
-3.04070485040242
30
0
41
1
10
110.677507136693
20
-3.36262914718893
30
0
41
1
10
110.79631248319
20
-3.9913788814159
30
0
41
1
10
110.855715156438
20
-4.29817601121124
30
0
41
1
10
110.974520502935
20
-4.88732250466077
30
0
41
1
10
111.033923176184
20
-5.16964293701272
30
0
41
1
10
111.152728522681
20
-5.70140235176413
30
0
41
1
10
111.212131195929
20
-5.9508173372929
30
0
41
1
10
111.330936542427
20
-6.41006290001297
30
0
41
1
10
111.390339215675
20
-6.61987904309592
30
0
41
1
10
111.509144562172
20
-6.99554741159386
30
0
41
1
10
111.56854723542
20
-7.16139698312932
30
0
41
1
10
111.687352581917
20
-7.44733831621738
30
0
41
1
10
111.746755255166
20
-7.56743847218331
30
0
41
1
10
111.865560601663
20
-7.76258104725659
30
0
41
1
10
111.924963274912
20
-7.83763980954728
30
0
41
1
10
112.043768621409
20
-7.94550883643893
30
0
41
1
10
112.103171294657
20
-7.97833921935632
30
0
41
1
10
112.177424636218
20
-7.9956937103228
30
0
41
1
10
112.19227530453
20
-7.99798334396539
30
0
41
1
10
112.221976641154
20
-8.00027789240863
30
0
41
1
10
112.236827309467
20
-8.00029279716696
30
0
41
1
10
112.281379314403
20
-7.99694281344446
30
0
41
1
10
112.311080651027
20
-7.99014039781207
30
0
41
1
10
112.4001846609
20
-7.95511293096712
30
0
41
1
10
112.459587334148
20
-7.91222245002808
30
0
41
1
10
112.578392680646
20
-7.78337208372389
30
0
41
1
10
112.637795353894
20
-7.69739261828332
30
0
41
1
10
112.756600700391
20
-7.48001796984198
30
0
41
1
10
112.81600337364
20
-7.3486080333285
30
0
41
1
10
112.934808720137
20
-7.0402436615687
30
0
41
1
10
112.994211393385
20
-6.86328334165933
30
0
41
1
10
113.113016739882
20
-6.46623154824985
30
0
41
1
10
113.172419413131
20
-6.24614567813268
30
0
41
1
10
113.291224759628
20
-5.76781056854264
30
0
41
1
10
113.350627432876
20
-5.50957843888438
30
0
41
1
10
113.469432779373
20
-4.96212949873765
30
0
41
1
10
113.528835452622
20
-4.67293839800178
30
0
41
1
10
113.58823812587
20
-4.37262163637141
30
0
0
SPLINE
5
E8
100
AcDbEntity
8
1
62
256
6
ByLayer
370
13
48
1
60
0
100
AcDbSpline
70
4
71
3
72
14
73
10
40
0
40
0
40
0
40
0
40
0.25
40
0.25
40
0.5
40
0.5
40
0.75
40
0.75
40
1
40
1
40
1
40
1
41
1
10
104.9
20
6.97025149287063
30
0
41
1
10
104.960557422335
20
7.1482753337437
30
0
41
1
10
105.021114844669
20
7.303030218657
30
0
41
1
10
105.142229689338
20
7.56494154336241
30
0
41
1
10
105.202787111673
20
7.6721104631614
30
0
41
1
10
105.323901956342
20
7.84038189138738
30
0
41
1
10
105.384459378677
20
7.90150431636647
30
0
41
1
10
105.505574223346
20
7.98130210391494
30
0
41
1
10
105.566131645681
20
8
30
0
41
1
10
105.626689068015
20
8
30
0
0
SPLINE
5
E9
100
AcDbEntity
8
1
62
256
6
ByLayer
370
13
48
1
60
0
100
AcDbSpline
70
4
71
3
72
78
73
74
40
0
40
0
40
0
40
0
40
0.0312499999999976
40
0.0312499999999976
40
0.0624999999999953
40
0.0624999999999953
40
0.093749999999993
40
0.093749999999993
40
0.124999999999991
40
0.124999999999991
40
0.156249999999988
40
0.156249999999988
40
0.187499999999986
40
0.187499999999986
40
0.218749999999984
40
0.218749999999984
40
0.249999999999981
40
0.249999999999981
40
0.281249999999979
40
0.281249999999979
40
0.312499999999977
40
0.312499999999977
40
0.343749999999974
40
0.343749999999974
40
0.351562499999974
40
0.351562499999974
40
0.359374999999974
40
0.359374999999974
40
0.374999999999974
40
0.374999999999974
40
0.406249999999974
40
0.406249999999974
40
0.437499999999974
40
0.437499999999974
40
0.468749999999974
40
0.468749999999974
40
0.499999999999974
40
0.499999999999974
40
0.531249999999974
40
0.531249999999974
40
0.562499999999974
40
0.562499999999974
40
0.593749999999973
40
0.593749999999973
40
0.624999999999973
40
0.624999999999973
40
0.656249999999973
40
0.656249999999973
40
0.687499999999973
40
0.687499999999973
40
0.695312499999974
40
0.695312499999974
40
0.703124999999974
40
0.703124999999974
40
0.718749999999975
40
0.718749999999975
40
0.749999999999978
40
0.749999999999978
40
0.781249999999981
40
0.781249999999981
40
0.812499999999983
40
0.812499999999983
40
0.843749999999986
40
0.843749999999986
40
0.874999999999989
40
0.874999999999989
40
0.906249999999992
40
0.906249999999992
40
0.937499999999994
40
0.937499999999994
40
0.968749999999997
40
0.968749999999997
40
1
40
1
40
1
40
1
41
1
10
107.387984650745
20
8
30
0
41
1
10
107.452570624445
20
8
30
0
41
1
10
107.517156598144
20
7.97872399984746
30
0
41
1
10
107.646328545542
20
7.88759394134868
30
0
41
1
10
107.710914519241
20
7.81770887278557
30
0
41
1
10
107.84008646664
20
7.62517622379707
30
0
41
1
10
107.904672440339
20
7.50250218462537
30
0
41
1
10
108.033844387738
20
7.20299622638882
30
0
41
1
10
108.098430361437
20
7.02614992058125
30
0
41
1
10
108.227602308835
20
6.62033486631412
30
0
41
1
10
108.292188282534
20
6.39136966244794
30
0
41
1
10
108.421360229933
20
5.88696527559193
30
0
41
1
10
108.485946203632
20
5.61154899527642
30
0
41
1
10
108.615118151031
20
5.02310737939089
30
0
41
1
10
108.67970412473
20
4.71012004278586
30
0
41
1
10
108.808876072128
20
4.05768225041697
30
0
41
1
10
108.873462045827
20
3.71827620796464
30
0
41
1
10
109.002633993226
20
3.02515517795666
30
0
41
1
10
109.067219966925
20
2.67148118195706
30
0
41
1
10
109.196391914323
20
1.96166810850951
30
0
41
1
10
109.260977888023
20
1.60555908627802
30
0
41
1
10
109.390149835421
20
0.901318095073407
30
0
41
1
10
109.45473580912
20
0.553202000940104
30
0
41
1
10
109.535468276244
20
0.128256969621816
30
0
41
1
10
109.551614769669
20
0.0440387714322981
30
0
41
1
10
109.583907756519
20
-0.124514650778167
30
0
41
1
10
109.600054249944
20
-0.209332757402706
30
0
41
1
10
109.648493730218
20
-0.465246169373785
30
0
41
1
10
109.680786717068
20
-0.637805093012389
30
0
41
1
10
109.777665677616
20
-1.15984601295961
30
0
41
1
10
109.842251651316
20
-1.51375560829968
30
0
41
1
10
109.971423598714
20
-2.22376839699933
30
0
41
1
10
110.036009572413
20
-2.57984736302353
30
0
41
1
10
110.165181519812
20
-3.28285741214199
30
0
41
1
10
110.229767493511
20
-3.6297514108569
30
0
41
1
10
110.358939440909
20
-4.30222895670724
30
0
41
1
10
110.423525414609
20
-4.62776839591009
30
0
41
1
10
110.552697362007
20
-5.24579801823754
30
0
41
1
10
110.617283335706
20
-5.53824629523783
30
0
41
1
10
110.746455283105
20
-6.0801067210983
30
0
41
1
10
110.811041256804
20
-6.32948879014683
30
0
41
1
10
110.940213204202
20
-6.77809756562883
30
0
41
1
10
111.004799177902
20
-6.97731243863561
30
0
41
1
10
111.1339711253
20
-7.32198426478925
30
0
41
1
10
111.198557098999
20
-7.46744857957933
30
0
41
1
10
111.327729046398
20
-7.70459861618178
30
0
41
1
10
111.392315020097
20
-7.79630661197081
30
0
41
1
10
111.521486967495
20
-7.92903999220198
30
0
41
1
10
111.586072941195
20
-7.97009537487986
30
0
41
1
10
111.666805408319
20
-7.99311255671657
30
0
41
1
10
111.682951901743
20
-7.99630520601102
30
0
41
1
10
111.715244888593
20
-7.99996771839341
30
0
41
1
10
111.731391382018
20
-8.00044480120997
30
0
41
1
10
111.779830862292
20
-7.99789356032303
30
0
41
1
10
111.812123849142
20
-7.99081868742158
30
0
41
1
10
111.909002809691
20
-7.95229541081792
30
0
41
1
10
111.97358878339
20
-7.90348358131931
30
0
41
1
10
112.102760730788
20
-7.7545647468155
30
0
41
1
10
112.167346704488
20
-7.65442846119603
30
0
41
1
10
112.296518651886
20
-7.40019522780875
30
0
41
1
10
112.361104625585
20
-7.24607793989887
30
0
41
1
10
112.490276572984
20
-6.88442316726085
30
0
41
1
10
112.554862546683
20
-6.6768812074462
30
0
41
1
10
112.684034494081
20
-6.21252073098984
30
0
41
1
10
112.74862046778
20
-5.9557171706129
30
0
41
1
10
112.877792415179
20
-5.40043227416712
30
0
41
1
10
112.942378388878
20
-5.10198345316479
30
0
41
1
10
113.071550336277
20
-4.47373690390947
30
0
41
1
10
113.136136309976
20
-4.14398211128375
30
0
41
1
10
113.265308257374
20
-3.46501892578004
30
0
41
1
10
113.329894231073
20
-3.11585407942147
30
0
41
1
10
113.459066178472
20
-2.41019641186182
30
0
41
1
10
113.523652152171
20
-2.05373890344134
30
0
41
1
10
113.58823812587
20
-1.69918802091081
30
0
0
SPLINE
5
EA
100
AcDbEntity
8
1
62
256
6
ByLayer
370
13
48
1
60
0
100
AcDbSpline
70
4
71
3
72
8
73
4
40
0
40
0
40
0
40
0
40
1
40
1
40
1
40
1
41
1
10
104.9
20
7.90579835371372
30
0
41
1
10
104.976364074916
20
7.97021982003304
30
0
41
1
10
105.052728149832
20
8
30
0
41
1
10
105.129092224748
20
8
30
0
0
SPLINE
5
EB
100
AcDbEntity
8
1
62
256
6
ByLayer
370
13
48
1
60
0
100
AcDbSpline
70
4
71
3
72
82
73
78
40
0
40
0
40
0
40
0
40
0.0312500000000002
40
0.0312500000000002
40
0.0625000000000003
40
0.0625000000000003
40
0.0937500000000005
40
0.0937500000000005
40
0.125000000000001
40
0.125000000000001
40
0.156250000000001
40
0.156250000000001
40
0.187500000000001
40
0.187500000000001
40
0.218750000000001
40
0.218750000000001
40
0.250000000000001
40
0.250000000000001
40
0.281250000000001
40
0.281250000000001
40
0.312500000000002
40
0.312500000000002
40
0.320312500000002
40
0.320312500000002
40
0.328125000000002
40
0.328125000000002
40
0.343750000000002
40
0.343750000000002
40
0.375000000000002
40
0.375000000000002
40
0.406250000000002
40
0.406250000000002
40
0.437500000000002
40
0.437500000000002
40
0.468750000000002
40
0.468750000000002
40
0.500000000000003
40
0.500000000000003
40
0.531250000000003
40
0.531250000000003
40
0.562500000000003
40
0.562500000000003
40
0.593750000000003
40
0.593750000000003
40
0.625000000000003
40
0.625000000000003
40
0.640625000000003
40
0.640625000000003
40
0.648437500000003
40
0.648437500000003
40
0.656250000000003
40
0.656250000000003
40
0.687500000000003
40
0.687500000000003
40
0.718750000000003
40
0.718750000000003
40
0.750000000000002
40
0.750000000000002
40
0.781250000000002
40
0.781250000000002
40
0.812500000000002
40
0.812500000000002
40
0.843750000000002
40
0.843750000000002
40
0.875000000000001
40
0.875000000000001
40
0.906250000000001
40
0.906250000000001
40
0.937500000000001
40
0.937500000000001
40
0.96875
40
0.96875
40
0.9765625
40
0.9765625
40
0.984375
40
0.984375
40
1
40
1
40
1
40
1
41
1
10
106.890387807479
20
8
30
0
41
1
10
106.960157081629
20
8
30
0
41
1
10
107.029926355779
20
7.97515937692137
30
0
41
1
10
107.169464904078
20
7.86827898626578
30
0
41
1
10
107.239234178228
20
7.78619382492519
30
0
41
1
10
107.378772726528
20
7.55990838478181
30
0
41
1
10
107.448542000678
20
7.41567138921636
30
0
41
1
10
107.588080548978
20
7.06413293070347
30
0
41
1
10
107.657849823128
20
6.85681611565093
30
0
41
1
10
107.797388371428
20
6.38296430542013
30
0
41
1
10
107.867157645577
20
6.11644383027644
30
0
41
1
10
108.006696193877
20
5.53286498094243
30
0
41
1
10
108.076465468027
20
5.21585033349052
30
0
41
1
10
108.216004016327
20
4.54391067686444
30
0
41
1
10
108.285773290477
20
4.18904782257266
30
0
41
1
10
108.425311838777
20
3.45634805504784
30
0
41
1
10
108.495081112927
20
3.07857520423127
30
0
41
1
10
108.634619661226
20
2.31534109190861
30
0
41
1
10
108.704388935376
20
1.9299306454468
30
0
41
1
10
108.843927483676
20
1.16527895348426
30
0
41
1
10
108.913696757826
20
0.786066951194186
30
0
41
1
10
109.000908350514
20
0.322910274359998
30
0
41
1
10
109.018350669051
20
0.230814447898524
30
0
41
1
10
109.053235306126
20
0.0478375782343221
30
0
41
1
10
109.070677624664
20
-0.0427115564832263
30
0
41
1
10
109.123004580276
20
-0.317108472886446
30
0
41
1
10
109.157889217351
20
-0.502480712529405
30
0
41
1
10
109.262543128576
20
-1.06412302578599
30
0
41
1
10
109.332312402726
20
-1.4460068264552
30
0
41
1
10
109.471850951025
20
-2.21282384596154
30
0
41
1
10
109.541620225175
20
-2.59772221511403
30
0
41
1
10
109.681158773475
20
-3.35626229741973
30
0
41
1
10
109.750928047625
20
-3.72984885748025
30
0
41
1
10
109.890466595925
20
-4.45040604593123
30
0
41
1
10
109.960235870075
20
-4.79731150569589
30
0
41
1
10
110.099774418375
20
-5.44994656351125
30
0
41
1
10
110.169543692525
20
-5.75561710441784
30
0
41
1
10
110.309082240824
20
-6.31395080177927
30
0
41
1
10
110.378851514974
20
-6.56657675052966
30
0
41
1
10
110.518390063274
20
-7.01121905547049
30
0
41
1
10
110.588159337424
20
-7.20322856735612
30
0
41
1
10
110.727697885724
20
-7.52394946088671
30
0
41
1
10
110.797467159874
20
-7.65268248489622
30
0
41
1
10
110.937005708174
20
-7.84883663708891
30
0
41
1
10
111.006774982324
20
-7.91629781621663
30
0
41
1
10
111.111428893549
20
-7.97577407509138
30
0
41
1
10
111.146313530623
20
-7.98867176823623
30
0
41
1
10
111.198640486236
20
-7.99833304008445
30
0
41
1
10
111.216082804773
20
-7.99994026833855
30
0
41
1
10
111.250967441848
20
-8.00005646209067
30
0
41
1
10
111.268409760386
20
-7.99856779683591
30
0
41
1
10
111.355621353073
20
-7.98307047109375
30
0
41
1
10
111.425390627223
20
-7.94481108505511
30
0
41
1
10
111.564929175523
20
-7.8095854116163
30
0
41
1
10
111.634698449673
20
-7.71257467845768
30
0
41
1
10
111.774236997973
20
-7.45579560961608
30
0
41
1
10
111.844006272122
20
-7.29599468257115
30
0
41
1
10
111.983544820422
20
-6.91381118599216
30
0
41
1
10
112.053314094572
20
-6.69142009267603
30
0
41
1
10
112.192852642872
20
-6.18912028872407
30
0
41
1
10
112.262621917022
20
-5.90923373922007
30
0
41
1
10
112.402160465322
20
-5.3017078929507
30
0
41
1
10
112.471929739472
20
-4.97411817089744
30
0
41
1
10
112.611468287772
20
-4.2845524725636
30
0
41
1
10
112.681237561922
20
-3.92264071810067
30
0
41
1
10
112.820776110221
20
-3.17963543081299
30
0
41
1
10
112.890545384371
20
-2.79860391468654
30
0
41
1
10
113.030083932671
20
-2.03244232407778
30
0
41
1
10
113.099853206821
20
-1.64735822056068
30
0
41
1
10
113.239391755121
20
-0.886385663508378
30
0
41
1
10
113.309161029271
20
-0.510520842455492
30
0
41
1
10
113.396372621958
20
-0.0529649300983692
30
0
41
1
10
113.413814940496
20
0.0375868674831565
30
0
41
1
10
113.448699577571
20
0.220472456406469
30
0
41
1
10
113.466141896108
20
0.312525217514519
30
0
41
1
10
113.51846885172
20
0.590298459507608
30
0
41
1
10
113.553353488795
20
0.777639980786091
30
0
41
1
10
113.58823812587
20
0.966493337570114
30
0
0
SPLINE
5
EC
100
AcDbEntity
8
1
62
256
6
ByLayer
370
13
48
1
60
0
100
AcDbSpline
70
4
71
3
72
85
73
81
40
0
40
0
40
0
40
0
40
0.0312499999999995
40
0.0312499999999995
40
0.062499999999999
40
0.062499999999999
40
0.0937499999999985
40
0.0937499999999985
40
0.124999999999998
40
0.124999999999998
40
0.156249999999998
40
0.156249999999998
40
0.187499999999997
40
0.187499999999997
40
0.218749999999997
40
0.218749999999997
40
0.249999999999996
40
0.249999999999996
40
0.281249999999996
40
0.281249999999996
40
0.296874999999995
40
0.296874999999995
40
0.300781249999995
40
0.300781249999995
40
0.304687499999995
40
0.304687499999995
40
0.312499999999996
40
0.312499999999996
40
0.343749999999997
40
0.343749999999997
40
0.374999999999998
40
0.374999999999998
40
0.406249999999999
40
0.406249999999999
40
0.437500000000001
40
0.437500000000001
40
0.468750000000002
40
0.468750000000002
40
0.500000000000003
40
0.500000000000003
40
0.531250000000004
40
0.531250000000004
40
0.562500000000005
40
0.562500000000005
40
0.593750000000007
40
0.593750000000007
40
0.601562500000007
40
0.601562500000007
40
0.605468750000007
40
0.605468750000007
40
0.609375000000007
40
0.625000000000007
40
0.625000000000007
40
0.656250000000006
40
0.656250000000006
40
0.687500000000006
40
0.687500000000006
40
0.718750000000005
40
0.718750000000005
40
0.750000000000005
40
0.750000000000005
40
0.781250000000005
40
0.781250000000005
40
0.812500000000004
40
0.812500000000004
40
0.843750000000004
40
0.843750000000004
40
0.875000000000004
40
0.875000000000004
40
0.890625000000003
40
0.890625000000003
40
0.898437500000003
40
0.898437500000003
40
0.906250000000002
40
0.906250000000002
40
0.937500000000002
40
0.937500000000002
40
0.968750000000001
40
0.968750000000001
40
1
40
1
40
1
40
1
41
1
10
106.392790964212
20
8
30
0
41
1
10
106.467743538813
20
8
30
0
41
1
10
106.542696113413
20
7.97131522338555
30
0
41
1
10
106.692601262614
20
7.84735532708868
30
0
41
1
10
106.767553837215
20
7.75201567988915
30
0
41
1
10
106.917458986416
20
7.48911520146081
30
0
41
1
10
106.992411561017
20
7.32150541014568
30
0
41
1
10
107.142316710218
20
6.91392766305415
30
0
41
1
10
107.217269284819
20
6.67394666510387
30
0
41
1
10
107.36717443402
20
6.12798840545912
30
0
41
1
10
107.44212700862
20
5.82204509653482
30
0
41
1
10
107.592032157822
20
5.15673769591609
30
0
41
1
10
107.666984732422
20
4.79744826160598
30
0
41
1
10
107.816889881624
20
4.04256577739631
30
0
41
1
10
107.891842456224
20
3.64706574055583
30
0
41
1
10
108.041747605425
20
2.83880805910184
30
0
41
1
10
108.116700180026
20
2.42613430034115
30
0
41
1
10
108.266605329227
20
1.60174610351314
30
0
41
1
10
108.341557903828
20
1.19008666048484
30
0
41
1
10
108.453986765729
20
0.584746957265082
30
0
41
1
10
108.491463053029
20
0.384963661814851
30
0
41
1
10
108.538308412154
20
0.138679568246943
30
0
41
1
10
108.547677483979
20
0.0895943534532364
30
0
41
1
10
108.56641562763
20
-0.0082117416784229
30
0
41
1
10
108.575784699455
20
-0.0569773218588239
30
0
41
1
10
108.60389191493
20
-0.20416625120717
30
0
41
1
10
108.62263005858
20
-0.303002865434365
30
0
41
1
10
108.716320776831
20
-0.800296907521641
30
0
41
1
10
108.791273351431
20
-1.20824451401097
30
0
41
1
10
108.941178500633
20
-2.03045435077774
30
0
41
1
10
109.016131075233
20
-2.44467269065771
30
0
41
1
10
109.166036224435
20
-3.26203344094668
30
0
41
1
10
109.240988799035
20
-3.66509967750849
30
0
41
1
10
109.390893948236
20
-4.44112523420281
30
0
41
1
10
109.465846522837
20
-4.81399161451404
30
0
41
1
10
109.615751672038
20
-5.51155698591518
30
0
41
1
10
109.690704246639
20
-5.83617250225387
30
0
41
1
10
109.84060939584
20
-6.42289979079001
30
0
41
1
10
109.915561970441
20
-6.68496302329373
30
0
41
1
10
110.065467119642
20
-7.13804457574884
30
0
41
1
10
110.140419694242
20
-7.32906139716968
30
0
41
1
10
110.290324843444
20
-7.63808444702508
30
0
41
1
10
110.365277418044
20
-7.7561301553701
30
0
41
1
10
110.515182567246
20
-7.92321162640087
30
0
41
1
10
110.590135141846
20
-7.97230926419769
30
0
41
1
10
110.683825860097
20
-7.99578008483238
30
0
41
1
10
110.702564003747
20
-7.99858709674575
30
0
41
1
10
110.730671219222
20
-8.00008423105194
30
0
41
1
10
110.740040291047
20
-8.00013334237474
30
0
41
1
10
110.758778434698
20
-7.99933502893174
30
0
41
1
10
110.805623793823
20
-7.99508552268333
30
0
41
1
10
110.852469152948
20
-7.97930195780589
30
0
41
1
10
110.964898014849
20
-7.91750467968583
30
0
41
1
10
111.03985058945
20
-7.84428391830622
30
0
41
1
10
111.189755738651
20
-7.62689819581323
30
0
41
1
10
111.264708313252
20
-7.48267695839377
30
0
41
1
10
111.414613462453
20
-7.12123940385706
30
0
41
1
10
111.489566037053
20
-6.90399670414672
30
0
41
1
10
111.639471186254
20
-6.40076471847601
30
0
41
1
10
111.714423760855
20
-6.11479414710115
30
0
41
1
10
111.864328910056
20
-5.48481670749698
30
0
41
1
10
111.939281484657
20
-5.14087330666715
30
0
41
1
10
112.089186633858
20
-4.41086991003846
30
0
41
1
10
112.164139208459
20
-4.02490008873519
30
0
41
1
10
112.31404435766
20
-3.2295838623443
30
0
41
1
10
112.388996932261
20
-2.82032698837517
30
0
41
1
10
112.538902081462
20
-1.99719316701149
30
0
41
1
10
112.613854656062
20
-1.58338176072385
30
0
41
1
10
112.726283517963
20
-0.971474143361377
30
0
41
1
10
112.763759805264
20
-0.768948366512035
30
0
41
1
10
112.819974236214
20
-0.468588363542722
30
0
41
1
10
112.838712379864
20
-0.369037829484995
30
0
41
1
10
112.876188667165
20
-0.17126189085019
30
0
41
1
10
112.894926810815
20
-0.0732527085577601
30
0
41
1
10
112.988617529065
20
0.415373667234604
30
0
41
1
10
113.063570103666
20
0.818178833360491
30
0
41
1
10
113.213475252867
20
1.63498781928666
30
0
41
1
10
113.288427827468
20
2.04895895014764
30
0
41
1
10
113.438332976669
20
2.87166533151384
30
0
41
1
10
113.51328555127
20
3.28033372899483
30
0
41
1
10
113.58823812587
20
3.6770028647903
30
0
0
SPLINE
5
ED
100
AcDbEntity
8
1
62
256
6
ByLayer
370
13
48
1
60
0
100
AcDbSpline
70
4
71
3
72
84
73
80
40
0
40
0
40
0
40
0
40
0.03125
40
0.03125
40
0.0624999999999999
40
0.0624999999999999
40
0.0937499999999999
40
0.0937499999999999
40
0.125
40
0.125
40
0.15625
40
0.15625
40
0.1875
40
0.1875
40
0.21875
40
0.21875
40
0.25
40
0.25
40
0.28125
40
0.28125
40
0.28515625
40
0.28515625
40
0.2890625
40
0.296875
40
0.296875
40
0.3125
40
0.3125
40
0.34375
40
0.34375
40
0.375
40
0.375
40
0.40625
40
0.40625
40
0.4375
40
0.4375
40
0.46875
40
0.46875
40
0.5
40
0.5
40
0.53125
40
0.53125
40
0.5625
40
0.5625
40
0.56640625
40
0.56640625
40
0.5703125
40
0.578125
40
0.578125
40
0.59375
40
0.59375
40
0.624999999999999
40
0.624999999999999
40
0.656249999999999
40
0.656249999999999
40
0.687499999999999
40
0.687499999999999
40
0.718749999999998
40
0.718749999999998
40
0.749999999999998
40
0.749999999999998
40
0.781249999999998
40
0.781249999999998
40
0.812499999999998
40
0.812499999999998
40
0.843749999999997
40
0.843749999999997
40
0.851562499999997
40
0.851562499999997
40
0.859374999999998
40
0.859374999999998
40
0.874999999999998
40
0.874999999999998
40
0.906249999999999
40
0.906249999999999
40
0.937499999999999
40
0.937499999999999
40
0.96875
40
0.96875
40
1
40
1
40
1
40
1
41
1
10
105.895194120945
20
8
30
0
41
1
10
105.975329995997
20
8
30
0
41
1
10
106.055465871048
20
7.96719036961829
30
0
41
1
10
106.21573762115
20
7.82480869754616
30
0
41
1
10
106.295873496202
20
7.71514725701235
30
0
41
1
10
106.456145246304
20
7.4127704272307
30
0
41
1
10
106.536281121356
20
7.21999221155937
30
0
41
1
10
106.696552871458
20
6.75252344618539
30
0
41
1
10
106.77668874651
20
6.47782780499676
30
0
41
1
10
106.936960496612
20
5.8562288683581
30
0
41
1
10
107.017096371663
20
5.50939062636598
30
0
41
1
10
107.177368121766
20
4.76089536363753
30
0
41
1
10
107.257503996817
20
4.35935555537867
30
0
41
1
10
107.41777574692
20
3.52369722315694
30
0
41
1
10
107.497911621971
20
3.08970748772353
30
0
41
1
10
107.658183372074
20
2.21238208279573
30
0
41
1
10
107.738319247125
20
1.76914622762456
30
0
41
1
10
107.898590997228
20
0.893980043240731
30
0
41
1
10
107.978726872279
20
0.462099573779199
30
0
41
1
10
108.068879731712
20
-0.0085377536664737
30
0
41
1
10
108.078896716093
20
-0.0606723507328297
30
0
41
1
10
108.098930684856
20
-0.165620733503999
30
0
41
1
10
108.128981638
20
-0.323650059003313
30
0
41
1
10
108.159032591145
20
-0.483382774725754
30
0
41
1
10
108.219134497433
20
-0.804777128738323
30
0
41
1
10
108.259202434959
20
-1.02162219145362
30
0
41
1
10
108.379406247536
20
-1.6767827154128
30
0
41
1
10
108.459542122587
20
-2.11984734252187
30
0
41
1
10
108.61981387269
20
-2.99838476006349
30
0
41
1
10
108.699949747741
20
-3.43376083180147
30
0
41
1
10
108.860221497844
20
-4.27382561017825
30
0
41
1
10
108.940357372895
20
-4.67838638125994
30
0
41
1
10
109.100629122997
20
-5.43436499039044
30
0
41
1
10
109.180764998049
20
-5.78566334880762
30
0
41
1
10
109.341036748151
20
-6.41717920002887
30
0
41
1
10
109.421172623203
20
-6.69732705962048
30
0
41
1
10
109.581444373305
20
-7.17610732631505
30
0
41
1
10
109.661580248357
20
-7.37474000728668
30
0
41
1
10
109.821851998459
20
-7.68864786442845
30
0
41
1
10
109.90198787351
20
-7.80398274009383
30
0
41
1
10
110.062259623613
20
-7.9570788097345
30
0
41
1
10
110.142395498664
20
-7.99492864813013
30
0
41
1
10
110.232548358097
20
-8.00009424503355
30
0
41
1
10
110.242565342479
20
-8.00015355670359
30
0
41
1
10
110.262599311241
20
-7.9992471910129
30
0
41
1
10
110.292650264386
20
-7.9963400940309
30
0
41
1
10
110.32270121753
20
-7.98867986603275
30
0
41
1
10
110.382803123818
20
-7.96674355532454
30
0
41
1
10
110.422871061344
20
-7.94328980169348
30
0
41
1
10
110.543074873921
20
-7.8444733412947
30
0
41
1
10
110.623210748972
20
-7.74045377481133
30
0
41
1
10
110.783482499075
20
-7.44958160198516
30
0
41
1
10
110.863618374126
20
-7.26266320272617
30
0
41
1
10
111.023890124229
20
-6.806559225288
30
0
41
1
10
111.10402599928
20
-6.53736380400116
30
0
41
1
10
111.264297749382
20
-5.92581607151249
30
0
41
1
10
111.344433624434
20
-5.5835241429391
30
0
41
1
10
111.504705374536
20
-4.84270869663226
30
0
41
1
10
111.584841249588
20
-4.44429991614575
30
0
41
1
10
111.74511299969
20
-3.61327286145223
30
0
41
1
10
111.825248874742
20
-3.18078402247289
30
0
41
1
10
111.985520624844
20
-2.30488661550686
30
0
41
1
10
112.065656499896
20
-1.86158085395314
30
0
41
1
10
112.225928249998
20
-0.984974031379153
30
0
41
1
10
112.30606412505
20
-0.551726477592808
30
0
41
1
10
112.406233968864
20
-0.0265133778079303
30
0
41
1
10
112.426267937627
20
0.0774738229604282
30
0
41
1
10
112.466335875152
20
0.288075079195863
30
0
41
1
10
112.486369843915
20
0.394162780140192
30
0
41
1
10
112.546471750203
20
0.714453716094624
30
0
41
1
10
112.586539687729
20
0.930695184903044
30
0
41
1
10
112.706743500306
20
1.58451047935912
30
0
41
1
10
112.786879375357
20
2.0273039909651
30
0
41
1
10
112.94715112546
20
2.90683928322787
30
0
41
1
10
113.027287000511
20
3.34348753549119
30
0
41
1
10
113.187558750614
20
4.18773337694796
30
0
41
1
10
113.267694625665
20
4.59520408514194
30
0
41
1
10
113.427966375768
20
5.35846638054701
30
0
41
1
10
113.508102250819
20
5.71413643316961
30
0
41
1
10
113.58823812587
20
6.03478308399525
30
0
0
SPLINE
5
EE
100
AcDbEntity
8
1
62
256
6
ByLayer
370
13
48
1
60
0
100
AcDbSpline
70
4
71
3
72
86
73
82
40
0
40
0
40
0
40
0
40
0.0312499999999998
40
0.0312499999999998
40
0.0624999999999995
40
0.0624999999999995
40
0.0937499999999993
40
0.0937499999999993
40
0.124999999999999
40
0.124999999999999
40
0.156249999999999
40
0.156249999999999
40
0.187499999999999
40
0.187499999999999
40
0.218749999999998
40
0.218749999999998
40
0.249999999999998
40
0.249999999999998
40
0.257812499999998
40
0.257812499999998
40
0.265624999999998
40
0.265624999999998
40
0.281249999999998
40
0.281249999999998
40
0.3125
40
0.3125
40
0.343750000000001
40
0.343750000000001
40
0.375000000000002
40
0.375000000000002
40
0.406250000000003
40
0.406250000000003
40
0.437500000000004
40
0.437500000000004
40
0.468750000000005
40
0.468750000000005
40
0.500000000000007
40
0.500000000000007
40
0.515625000000007
40
0.515625000000007
40
0.523437500000007
40
0.523437500000007
40
0.527343750000007
40
0.527343750000007
40
0.531250000000007
40
0.531250000000007
40
0.562500000000007
40
0.562500000000007
40
0.593750000000007
40
0.593750000000007
40
0.625000000000006
40
0.625000000000006
40
0.656250000000006
40
0.656250000000006
40
0.687500000000006
40
0.687500000000006
40
0.718750000000006
40
0.718750000000006
40
0.750000000000006
40
0.750000000000006
40
0.781250000000006
40
0.781250000000006
40
0.789062500000006
40
0.789062500000006
40
0.792968750000006
40
0.792968750000006
40
0.796875000000006
40
0.796875000000006
40
0.812500000000006
40
0.812500000000006
40
0.843750000000005
40
0.843750000000005
40
0.875000000000004
40
0.875000000000004
40
0.906250000000003
40
0.906250000000003
40
0.937500000000002
40
0.937500000000002
40
0.968750000000001
40
0.968750000000001
40
1
40
1
40
1
40
1
41
1
10
105.397597277679
20
8
30
0
41
1
10
105.48291645318
20
8
30
0
41
1
10
105.568235628683
20
7.96278351581293
30
0
41
1
10
105.738873979687
20
7.80062547323087
30
0
41
1
10
105.824193155189
20
7.67556284592851
30
0
41
1
10
105.994831506193
20
7.33085844955028
30
0
41
1
10
106.080150681695
20
7.11113910465897
30
0
41
1
10
106.250789032699
20
6.58011626968138
30
0
41
1
10
106.336108208201
20
6.26882438352982
30
0
41
1
10
106.506746559205
20
5.568646450881
30
0
41
1
10
106.592065734707
20
5.17987164988736
30
0
41
1
10
106.76270408571
20
4.34786220986769
30
0
41
1
10
106.848023261213
20
3.90479941905781
30
0
41
1
10
107.018661612217
20
2.99205249410659
30
0
41
1
10
107.103980787719
20
2.52253436588117
30
0
41
1
10
107.274619138723
20
1.58408939271556
30
0
41
1
10
107.359938314225
20
1.11526956561684
30
0
41
1
10
107.466587283602
20
0.543561749813364
30
0
41
1
10
107.487917077478
20
0.429920511569662
30
0
41
1
10
107.530576665228
20
0.204318867741961
30
0
41
1
10
107.551906459104
20
0.0925549794777965
30
0
41
1
10
107.615895840731
20
-0.241070145054835
30
0
41
1
10
107.658555428482
20
-0.467313335663306
30
0
41
1
10
107.786534191734
20
-1.15429028487
30
0
41
1
10
107.871853367236
20
-1.62346181433017
30
0
41
1
10
108.04249171824
20
-2.5619043458191
30
0
41
1
10
108.127810893743
20
-3.03106628224091
30
0
41
1
10
108.298449244747
20
-3.94230880188292
30
0
41
1
10
108.383768420249
20
-4.38422234692399
30
0
41
1
10
108.554406771253
20
-5.21319596190531
30
0
41
1
10
108.639725946754
20
-5.6000850098813
30
0
41
1
10
108.810364297758
20
-6.29595523155146
30
0
41
1
10
108.895683473261
20
-6.60482762899912
30
0
41
1
10
109.066321824265
20
-7.13077135642428
30
0
41
1
10
109.151640999766
20
-7.34783394725483
30
0
41
1
10
109.322279350771
20
-7.68729030883847
30
0
41
1
10
109.407598526272
20
-7.80976358173282
30
0
41
1
10
109.535577289526
20
-7.927726145821
30
0
41
1
10
109.578236877276
20
-7.95615741400576
30
0
41
1
10
109.642226258903
20
-7.98361338346498
30
0
41
1
10
109.663556052779
20
-7.99023641140647
30
0
41
1
10
109.695550743592
20
-7.99654245449105
30
0
41
1
10
109.70621564053
20
-7.99803985174842
30
0
41
1
10
109.727545434405
20
-7.9998543432032
30
0
41
1
10
109.738210331343
20
-8.00017260520002
30
0
41
1
10
109.834194403783
20
-7.99783551825834
30
0
41
1
10
109.919513579284
20
-7.95832339023079
30
0
41
1
10
110.090151930288
20
-7.79127429873836
30
0
41
1
10
110.175471105791
20
-7.66361676776779
30
0
41
1
10
110.346109456794
20
-7.31366107986582
30
0
41
1
10
110.431428632296
20
-7.09128731160595
30
0
41
1
10
110.6020669833
20
-6.55519884006608
30
0
41
1
10
110.687386158802
20
-6.24149861483045
30
0
41
1
10
110.858024509806
20
-5.5370426053336
30
0
41
1
10
110.943343685308
20
-5.14640050366609
30
0
41
1
10
111.113982036312
20
-4.3113958834046
30
0
41
1
10
111.199301211814
20
-3.86720598427337
30
0
41
1
10
111.369939562818
20
-2.95299836148649
30
0
41
1
10
111.45525873832
20
-2.48314556819588
30
0
41
1
10
111.625897089324
20
-1.54473722466261
30
0
41
1
10
111.711216264826
20
-1.07628663294525
30
0
41
1
10
111.817865234204
20
-0.505370190458621
30
0
41
1
10
111.83919502808
20
-0.391903589509155
30
0
41
1
10
111.871189718893
20
-0.22298652474575
30
0
41
1
10
111.88185461583
20
-0.166894425412522
30
0
41
1
10
111.903184409706
20
-0.055169413286734
30
0
41
1
10
111.913849306644
20
0.000303746604601
30
0
41
1
10
111.967173791332
20
0.278853388627454
30
0
41
1
10
112.009833379083
20
0.505465184074268
30
0
41
1
10
112.137812142336
20
1.1933473963164
30
0
41
1
10
112.223131317838
20
1.66285295264032
30
0
41
1
10
112.393769668842
20
2.60125375752415
30
0
41
1
10
112.479088844344
20
3.07003790517891
30
0
41
1
10
112.649727195348
20
3.97973228490872
30
0
41
1
10
112.73504637085
20
4.42047449055062
30
0
41
1
10
112.905684721854
20
5.24637184196308
30
0
41
1
10
112.991003897356
20
5.63135684685784
30
0
41
1
10
113.16164224836
20
6.32289012466183
30
0
41
1
10
113.246961423862
20
6.62933212170029
30
0
41
1
10
113.417599774866
20
7.15018375315171
30
0
41
1
10
113.502918950368
20
7.36458750277356
30
0
41
1
10
113.58823812587
20
7.53169351043843
30
0
0
SPLINE
5
EF
100
AcDbEntity
8
1
62
256
6
ByLayer
370
13
48
1
60
0
100
AcDbSpline
70
4
71
3
72
102
73
98
40
0
40
0
40
0
40
0
40
0.0312499999999996
40
0.0312499999999996
40
0.0624999999999992
40
0.0624999999999992
40
0.0781249999999989
40
0.0781249999999989
40
0.0937499999999986
40
0.0937499999999986
40
0.109374999999998
40
0.109374999999998
40
0.124999999999998
40
0.124999999999998
40
0.140624999999998
40
0.140624999999998
40
0.156249999999997
40
0.156249999999997
40
0.171874999999997
40
0.171874999999997
40
0.187499999999997
40
0.187499999999997
40
0.218749999999996
40
0.218749999999996
40
0.249999999999996
40
0.249999999999996
40
0.281249999999996
40
0.281249999999996
40
0.312499999999995
40
0.312499999999995
40
0.328124999999995
40
0.328124999999995
40
0.343749999999995
40
0.343749999999995
40
0.359374999999995
40
0.359374999999995
40
0.374999999999995
40
0.374999999999995
40
0.390624999999995
40
0.390624999999995
40
0.406249999999994
40
0.406249999999994
40
0.421874999999994
40
0.421874999999994
40
0.437499999999994
40
0.437499999999994
40
0.468749999999994
40
0.468749999999994
40
0.499999999999994
40
0.499999999999994
40
0.531249999999994
40
0.531249999999994
40
0.562499999999994
40
0.562499999999994
40
0.578124999999994
40
0.578124999999994
40
0.593749999999995
40
0.593749999999995
40
0.609374999999995
40
0.609374999999995
40
0.624999999999995
40
0.624999999999995
40
0.640624999999995
40
0.640624999999995
40
0.656249999999995
40
0.656249999999995
40
0.671874999999995
40
0.671874999999995
40
0.687499999999995
40
0.687499999999995
40
0.718749999999996
40
0.718749999999996
40
0.749999999999997
40
0.749999999999997
40
0.781249999999997
40
0.781249999999997
40
0.812499999999998
40
0.812499999999998
40
0.828124999999998
40
0.828124999999998
40
0.843749999999998
40
0.843749999999998
40
0.859374999999998
40
0.859374999999998
40
0.874999999999998
40
0.874999999999998
40
0.890624999999998
40
0.890624999999998
40
0.906249999999999
40
0.906249999999999
40
0.921874999999999
40
0.921874999999999
40
0.937499999999999
40
0.937499999999999
40
0.968749999999999
40
0.968749999999999
40
1
40
1
40
1
40
1
41
1
10
104.900000434412
20
8
30
0
41
1
10
104.990502910365
20
8
30
0
41
1
10
105.081005386317
20
7.95809322605459
30
0
41
1
10
105.262010338223
20
7.77479269610569
30
0
41
1
10
105.352512814175
20
7.63323828714871
30
0
41
1
10
105.488266528104
20
7.34084055689414
30
0
41
1
10
105.533517766081
20
7.23011482789894
30
0
41
1
10
105.624020242033
20
6.98242946714112
30
0
41
1
10
105.66927148001
20
6.8454688266342
30
0
41
1
10
105.759773955963
20
6.54645962197253
30
0
41
1
10
105.805025193939
20
6.38441233198296
30
0
41
1
10
105.895527669891
20
6.03723903374649
30
0
41
1
10
105.940778907868
20
5.85211661183143
30
0
41
1
10
106.031281383821
20
5.46159235578244
30
0
41
1
10
106.076532621797
20
5.25619610493322
30
0
41
1
10
106.16703509775
20
4.82857449474366
30
0
41
1
10
106.212286335726
20
4.60635609931862
30
0
41
1
10
106.302788811679
20
4.14900064087686
30
0
41
1
10
106.348040049655
20
3.91387111957059
30
0
41
1
10
106.438542525608
20
3.43484315972162
30
0
41
1
10
106.483793763584
20
3.19095200533309
30
0
41
1
10
106.619547477513
20
2.45237034826579
30
0
41
1
10
106.710049953466
20
1.95097143427421
30
0
41
1
10
106.891054905371
20
0.960438444379776
30
0
41
1
10
106.981557381324
20
0.471405076713324
30
0
41
1
10
107.162562333229
20
-0.471403945342502
30
0
41
1
10
107.253064809182
20
-0.960437265140172
30
0
41
1
10
107.434069761087
20
-1.95097023623461
30
0
41
1
10
107.52457223704
20
-2.45236915176727
30
0
41
1
10
107.660325950969
20
-3.19095083098631
30
0
41
1
10
107.705577188945
20
-3.43484199603785
30
0
41
1
10
107.796079664898
20
-3.91386998392005
30
0
41
1
10
107.841330902874
20
-4.14899952259765
30
0
41
1
10
107.931833378827
20
-4.60635502229152
30
0
41
1
10
107.977084616803
20
-4.82857344159714
30
0
41
1
10
108.067587092756
20
-5.25619510549586
30
0
41
1
10
108.112838330732
20
-5.46159138617205
30
0
41
1
10
108.203340806685
20
-5.85211570692522
30
0
41
1
10
108.248592044662
20
-6.0372381637147
30
0
41
1
10
108.339094520614
20
-6.38441153558273
30
0
41
1
10
108.38434575859
20
-6.54645886432584
30
0
41
1
10
108.474848234543
20
-6.84546814903646
30
0
41
1
10
108.52009947252
20
-6.98242883083498
30
0
41
1
10
108.610601948472
20
-7.23011427531515
30
0
41
1
10
108.655853186449
20
-7.34084004673767
30
0
41
1
10
108.791606900378
20
-7.63323790395222
30
0
41
1
10
108.88210937633
20
-7.77479239700671
30
0
41
1
10
109.063114328236
20
-7.95809308523209
30
0
41
1
10
109.153616804189
20
-7.99999993333324
30
0
41
1
10
109.334621756094
20
-8.00000006666659
30
0
41
1
10
109.425124232047
20
-7.95809336687688
30
0
41
1
10
109.606129183952
20
-7.77479299520448
30
0
41
1
10
109.696631659905
20
-7.63323867034498
30
0
41
1
10
109.832385373834
20
-7.34084106705041
30
0
41
1
10
109.87763661181
20
-7.23011538048254
30
0
41
1
10
109.968139087763
20
-6.98243010344709
30
0
41
1
10
110.013390325739
20
-6.84546950423174
30
0
41
1
10
110.103892801692
20
-6.54646037961899
30
0
41
1
10
110.149144039668
20
-6.38441312838305
30
0
41
1
10
110.239646515621
20
-6.03723990377813
30
0
41
1
10
110.284897753597
20
-5.85211751673751
30
0
41
1
10
110.37540022955
20
-5.4615933253927
30
0
41
1
10
110.420651467526
20
-5.25619710437044
30
0
41
1
10
110.511153943479
20
-4.82857554789007
30
0
41
1
10
110.556405181455
20
-4.60635717634563
30
0
41
1
10
110.646907657408
20
-4.14900175915602
30
0
41
1
10
110.692158895384
20
-3.91387225522104
30
0
41
1
10
110.782661371337
20
-3.43484432340537
30
0
41
1
10
110.827912609313
20
-3.19095317967981
30
0
41
1
10
110.963666323242
20
-2.45237154476433
30
0
41
1
10
111.054168799195
20
-1.95097263231378
30
0
41
1
10
111.2351737511
20
-0.960439623619436
30
0
41
1
10
111.325676227053
20
-0.471406235698453
30
0
41
1
10
111.506681178959
20
0.471402841585842
30
0
41
1
10
111.597183654911
20
0.960436085900596
30
0
41
1
10
111.778188606816
20
1.95096903819504
30
0
41
1
10
111.868691082769
20
2.4523679552687
30
0
41
1
10
112.004444796698
20
3.1909496566395
30
0
41
1
10
112.049696034674
20
3.43484083235401
30
0
41
1
10
112.140198510627
20
3.91386884826943
30
0
41
1
10
112.185449748604
20
4.14899840431832
30
0
41
1
10
112.275952224556
20
4.60635394526429
30
0
41
1
10
112.321203462533
20
4.82857238845048
30
0
41
1
10
112.411705938485
20
5.25619410605833
30
0
41
1
10
112.456957176462
20
5.46159041656151
30
0
41
1
10
112.547459652414
20
5.85211480201883
30
0
41
1
10
112.592710890391
20
6.03723729368275
30
0
41
1
10
112.683213366343
20
6.3844107391823
30
0
41
1
10
112.72846460432
20
6.54645810667898
30
0
41
1
10
112.818967080272
20
6.84546747143852
30
0
41
1
10
112.864218318249
20
6.98242819452861
30
0
41
1
10
112.954720794202
20
7.23011372273115
30
0
41
1
10
112.999972032178
20
7.34083953658097
30
0
41
1
10
113.135725746107
20
7.63323752075553
30
0
41
1
10
113.22622822206
20
7.77479209790755
30
0
41
1
10
113.407233173965
20
7.9580929444094
30
0
41
1
10
113.497735649918
20
7.99999986666634
30
0
41
1
10
113.58823812587
20
7.99999999999969
30
0
0
SPLINE
5
F0
100
AcDbEntity
8
1
62
256
6
ByLayer
370
13
48
1
60
0
100
AcDbSpline
70
4
71
3
72
84
73
80
40
0
40
0
40
0
40
0
40
0.0312499999999999
40
0.0312499999999999
40
0.0624999999999998
40
0.0624999999999998
40
0.0937499999999997
40
0.0937499999999997
40
0.125
40
0.125
40
0.15625
40
0.15625
40
0.187499999999999
40
0.187499999999999
40
0.203124999999999
40
0.203124999999999
40
0.207031249999999
40
0.207031249999999
40
0.210937499999999
40
0.218749999999999
40
0.218749999999999
40
0.25
40
0.25
40
0.28125
40
0.28125
40
0.3125
40
0.3125
40
0.34375
40
0.34375
40
0.375000000000001
40
0.375000000000001
40
0.406250000000001
40
0.406250000000001
40
0.437500000000001
40
0.437500000000001
40
0.468750000000001
40
0.468750000000001
40
0.472656250000001
40
0.472656250000001
40
0.476562500000001
40
0.484375000000002
40
0.484375000000002
40
0.500000000000002
40
0.500000000000002
40
0.531250000000001
40
0.531250000000001
40
0.562500000000001
40
0.562500000000001
40
0.593750000000001
40
0.593750000000001
40
0.625000000000001
40
0.625000000000001
40
0.656250000000001
40
0.656250000000001
40
0.687500000000001
40
0.687500000000001
40
0.718750000000001
40
0.718750000000001
40
0.734375000000001
40
0.734375000000001
40
0.742187500000001
40
0.742187500000001
40
0.750000000000001
40
0.750000000000001
40
0.781250000000001
40
0.781250000000001
40
0.812500000000001
40
0.812500000000001
40
0.843750000000001
40
0.843750000000001
40
0.875000000000001
40
0.875000000000001
40
0.90625
40
0.90625
40
0.9375
40
0.9375
40
0.96875
40
0.96875
40
1
40
1
40
1
40
1
41
1
10
104.9
20
7.53169521211376
30
0
41
1
10
104.985319184552
20
7.3645895048372
30
0
41
1
10
105.070638369105
20
7.15018605016155
30
0
41
1
10
105.241276738209
20
6.62933496288505
30
0
41
1
10
105.326595922761
20
6.32289321474363
30
0
41
1
10
105.497234291866
20
5.63136035868087
30
0
41
1
10
105.582553476418
20
5.24637552640007
30
0
41
1
10
105.753191845522
20
4.42047842794014
30
0
41
1
10
105.838511030075
20
3.97973630262649
30
0
41
1
10
106.009149399179
20
3.07004199312485
30
0
41
1
10
106.094468583731
20
2.60125783556117
30
0
41
1
10
106.265106952836
20
1.6628569374279
30
0
41
1
10
106.350426137388
20
1.19335129802991
30
0
41
1
10
106.478404914216
20
0.505468924662352
30
0
41
1
10
106.521064506493
20
0.278857069454375
30
0
41
1
10
106.574388996838
20
0.000307347120895
30
0
41
1
10
106.585053894907
20
-0.0551658085398117
30
0
41
1
10
106.606383691045
20
-0.166890812747596
30
0
41
1
10
106.638378385252
20
-0.335166665643783
30
0
41
1
10
106.670373079459
20
-0.505366559922635
30
0
41
1
10
106.777022060149
20
-1.07628298706919
30
0
41
1
10
106.862341244702
20
-1.54473359393825
30
0
41
1
10
107.032979613806
20
-2.48314203190748
30
0
41
1
10
107.118298798358
20
-2.95299490461477
30
0
41
1
10
107.288937167463
20
-3.86720274988699
30
0
41
1
10
107.374256352015
20
-4.31139279209566
30
0
41
1
10
107.54489472112
20
-5.146397749138
30
0
41
1
10
107.630213905672
20
-5.53704004435608
30
0
41
1
10
107.800852274776
20
-6.24149646811256
30
0
41
1
10
107.886171459329
20
-6.55519691380459
30
0
41
1
10
108.056809828433
20
-7.09128582592498
30
0
41
1
10
108.142129012985
20
-7.3136598140828
30
0
41
1
10
108.31276738209
20
-7.66361591761753
30
0
41
1
10
108.398086566642
20
-7.79127364421956
30
0
41
1
10
108.568724935747
20
-7.95832308788135
30
0
41
1
10
108.654044120299
20
-7.99783537247464
30
0
41
1
10
108.75002820292
20
-8.00017261077932
30
0
41
1
10
108.760693100989
20
-7.99985436537366
30
0
41
1
10
108.782022897127
20
-7.99803990752861
30
0
41
1
10
108.814017591334
20
-7.9935480318268
30
0
41
1
10
108.846012285541
20
-7.98361354125322
30
0
41
1
10
108.910001673956
20
-7.95615767508284
30
0
41
1
10
108.952661266232
20
-7.92772647658063
30
0
41
1
10
109.08064004306
20
-7.80976412145091
30
0
41
1
10
109.165959227612
20
-7.68729098779278
30
0
41
1
10
109.336597596717
20
-7.34783488865526
30
0
41
1
10
109.421916781269
20
-7.13077242088451
30
0
41
1
10
109.592555150373
20
-6.60482890770072
30
0
41
1
10
109.677874334926
20
-6.29595660128751
30
0
41
1
10
109.84851270403
20
-5.60008651891289
30
0
41
1
10
109.933831888583
20
-5.21319751913276
30
0
41
1
10
110.104470257687
20
-4.38422395530353
30
0
41
1
10
110.189789442239
20
-3.94231041326984
30
0
41
1
10
110.360427811344
20
-3.03106786064129
30
0
41
1
10
110.445746995896
20
-2.56190588835577
30
0
41
1
10
110.616385365
20
-1.62346325815764
30
0
41
1
10
110.701704549553
20
-1.15429166598707
30
0
41
1
10
110.829683326381
20
-0.467314612627519
30
0
41
1
10
110.872342918657
20
-0.241071385618511
30
0
41
1
10
110.936332307071
20
0.0925537949027841
30
0
41
1
10
110.957662103209
20
0.204317677080724
30
0
41
1
10
111.000321695485
20
0.429919333087923
30
0
41
1
10
111.021651491624
20
0.543560578066035
30
0
41
1
10
111.128300472314
20
1.11526843078079
30
0
41
1
10
111.213619656866
20
1.58408829793993
30
0
41
1
10
111.384258025971
20
2.52253337019647
30
0
41
1
10
111.469577210523
20
2.99205155745034
30
0
41
1
10
111.640215579627
20
3.90479861295753
30
0
41
1
10
111.72553476418
20
4.34786147523141
30
0
41
1
10
111.896173133284
20
5.17987106069015
30
0
41
1
10
111.981492317836
20
5.56864593555326
30
0
41
1
10
112.152130686941
20
6.26882400759939
30
0
41
1
10
112.237449871493
20
6.58011595918302
30
0
41
1
10
112.408088240598
20
7.11113890820218
30
0
41
1
10
112.49340742515
20
7.33085830166411
30
0
41
1
10
112.664045794254
20
7.67556277442714
30
0
41
1
10
112.749364978807
20
7.80062542956958
30
0
41
1
10
112.920003347911
20
7.96278350787139
30
0
41
1
10
113.005322532463
20
8
30
0
41
1
10
113.090641717016
20
8
30
0
0
SPLINE
5
F1
100
AcDbEntity
8
1
62
256
6
ByLayer
370
13
48
1
60
0
100
AcDbSpline
70
4
71
3
72
84
73
80
40
0
40
0
40
0
40
0
40
0.0312500000000022
40
0.0312500000000022
40
0.0625000000000044
40
0.0625000000000044
40
0.0937500000000066
40
0.0937500000000066
40
0.125000000000009
40
0.125000000000009
40
0.14062500000001
40
0.14062500000001
40
0.14843750000001
40
0.14843750000001
40
0.15625000000001
40
0.15625000000001
40
0.18750000000001
40
0.18750000000001
40
0.218750000000011
40
0.218750000000011
40
0.250000000000011
40
0.250000000000011
40
0.281250000000012
40
0.281250000000012
40
0.312500000000012
40
0.312500000000012
40
0.343750000000012
40
0.343750000000012
40
0.375000000000013
40
0.375000000000013
40
0.406250000000013
40
0.406250000000013
40
0.421875000000013
40
0.421875000000013
40
0.429687500000013
40
0.433593750000014
40
0.433593750000014
40
0.437500000000014
40
0.437500000000014
40
0.468750000000014
40
0.468750000000014
40
0.500000000000014
40
0.500000000000014
40
0.531250000000014
40
0.531250000000014
40
0.562500000000014
40
0.562500000000014
40
0.593750000000014
40
0.593750000000014
40
0.625000000000014
40
0.625000000000014
40
0.656250000000014
40
0.656250000000014
40
0.687500000000014
40
0.687500000000014
40
0.703125000000014
40
0.703125000000014
40
0.710937500000013
40
0.714843750000013
40
0.714843750000013
40
0.718750000000013
40
0.718750000000013
40
0.750000000000012
40
0.750000000000012
40
0.78125000000001
40
0.78125000000001
40
0.812500000000009
40
0.812500000000009
40
0.843750000000007
40
0.843750000000007
40
0.875000000000006
40
0.875000000000006
40
0.906250000000004
40
0.906250000000004
40
0.937500000000003
40
0.937500000000003
40
0.968750000000001
40
0.968750000000001
40
1
40
1
40
1
40
1
41
1
10
104.9
20
6.03478656040744
30
0
41
1
10
104.980135884102
20
5.7141401246181
30
0
41
1
10
105.060271768203
20
5.35847025182267
30
0
41
1
10
105.220543536406
20
4.59520823046503
30
0
41
1
10
105.300679420508
20
4.18773761646182
30
0
41
1
10
105.460951188711
20
3.34349187711524
30
0
41
1
10
105.541087072812
20
2.90684363289856
30
0
41
1
10
105.701358841016
20
2.02730828313008
30
0
41
1
10
105.781494725117
20
1.58451470617612
30
0
41
1
10
105.901698551269
20
0.930699274010266
30
0
41
1
10
105.94176649332
20
0.714457752725309
30
0
41
1
10
106.001868406396
20
0.394166730282535
30
0
41
1
10
106.021902377422
20
0.28807899921344
30
0
41
1
10
106.061970319472
20
0.0774776804826445
30
0
41
1
10
106.082004290498
20
-0.026509541886071
30
0
41
1
10
106.182174145625
20
-0.551722603022654
30
0
41
1
10
106.262310029726
20
-0.984970149253968
30
0
41
1
10
106.422581797929
20
-1.86157701402266
30
0
41
1
10
106.502717682031
20
-2.30488282544948
30
0
41
1
10
106.662989450234
20
-3.18078039348515
30
0
41
1
10
106.743125334336
20
-3.61326934372198
30
0
41
1
10
106.903397102539
20
-4.44429667645153
30
0
41
1
10
106.98353298664
20
-4.84270562366498
30
0
41
1
10
107.143804754844
20
-5.58352144302418
30
0
41
1
10
107.223940638945
20
-5.92581357776277
30
0
41
1
10
107.384212407148
20
-6.53736173939831
30
0
41
1
10
107.46434829125
20
-6.80655738346519
30
0
41
1
10
107.624620059453
20
-7.26266179937428
30
0
41
1
10
107.704755943554
20
-7.44958041416933
30
0
41
1
10
107.865027711757
20
-7.74045299162458
30
0
41
1
10
107.945163595859
20
-7.84447274714441
30
0
41
1
10
108.065367422011
20
-7.94328946264989
30
0
41
1
10
108.105435364062
20
-7.96674329664114
30
0
41
1
10
108.165537277138
20
-7.98867972038178
30
0
41
1
10
108.195588233676
20
-7.99634000302493
30
0
41
1
10
108.225639190214
20
-7.99924715180154
30
0
41
1
10
108.24567316124
20
-8.00015355138686
30
0
41
1
10
108.255690146752
20
-8.00009425627414
30
0
41
1
10
108.345843016367
20
-7.99492881022331
30
0
41
1
10
108.425978900468
20
-7.95707911134443
30
0
41
1
10
108.586250668671
20
-7.80398332027821
30
0
41
1
10
108.666386552773
20
-7.68864858359785
30
0
41
1
10
108.826658320976
20
-7.3747409897926
30
0
41
1
10
108.906794205078
20
-7.17610843305604
30
0
41
1
10
109.067065973281
20
-6.69732838610366
30
0
41
1
10
109.147201857382
20
-6.41718062190151
30
0
41
1
10
109.307473625585
20
-5.7856649224187
30
0
41
1
10
109.387609509687
20
-5.43436662028699
30
0
41
1
10
109.54788127789
20
-4.67838808108218
30
0
41
1
10
109.628017161991
20
-4.2738273236622
30
0
41
1
10
109.788288930195
20
-3.43376253377392
30
0
41
1
10
109.868424814296
20
-2.99838643695298
30
0
41
1
10
110.028696582499
20
-2.11984893985112
30
0
41
1
10
110.108832466601
20
-1.67678425837514
30
0
41
1
10
110.229036292753
20
-1.02162363971431
30
0
41
1
10
110.269104234804
20
-0.804778543247608
30
0
41
1
10
110.32920614788
20
-0.483384136404936
30
0
41
1
10
110.359257104418
20
-0.323651393715835
30
0
41
1
10
110.389308060956
20
-0.165622040612646
30
0
41
1
10
110.409342031982
20
-0.0606736393174572
30
0
41
1
10
110.419359017494
20
-0.0085390318392911
30
0
41
1
10
110.509511887109
20
0.462098318323513
30
0
41
1
10
110.58964777121
20
0.893978817668739
30
0
41
1
10
110.749919539413
20
1.76914508108419
30
0
41
1
10
110.830055423515
20
2.21238098542224
30
0
41
1
10
110.990327191718
20
3.08970650437772
30
0
41
1
10
111.070463075819
20
3.52369630465026
30
0
41
1
10
111.230734844023
20
4.3593547751147
30
0
41
1
10
111.310870728124
20
4.76089465671211
30
0
41
1
10
111.471142496327
20
5.50939006530726
30
0
41
1
10
111.551278380429
20
5.85622837974253
30
0
41
1
10
111.711550148632
20
6.47782745119943
30
0
41
1
10
111.791686032733
20
6.75252315469666
30
0
41
1
10
111.951957800936
20
7.21999202790039
30
0
41
1
10
112.032093685038
20
7.41277028907237
30
0
41
1
10
112.192365453241
20
7.71514719027476
30
0
41
1
10
112.272501337343
20
7.82480865675393
30
0
41
1
10
112.432773105546
20
7.96719036217033
30
0
41
1
10
112.512908989647
20
8
30
0
41
1
10
112.593044873749
20
8
30
0
0
SPLINE
5
F2
100
AcDbEntity
8
1
62
256
6
ByLayer
370
13
48
1
60
0
100
AcDbSpline
70
4
71
3
72
85
73
81
40
0
40
0
40
0
40
0
40
0.0312500000000001
40
0.0312500000000001
40
0.0625000000000003
40
0.0625000000000003
40
0.0937500000000004
40
0.0937500000000004
40
0.101562500000001
40
0.101562500000001
40
0.109375000000001
40
0.109375000000001
40
0.125000000000001
40
0.125000000000001
40
0.156250000000001
40
0.156250000000001
40
0.187500000000002
40
0.187500000000002
40
0.218750000000003
40
0.218750000000003
40
0.250000000000003
40
0.250000000000003
40
0.281250000000004
40
0.281250000000004
40
0.312500000000004
40
0.312500000000004
40
0.343750000000005
40
0.343750000000005
40
0.375000000000006
40
0.375000000000006
40
0.390625000000006
40
0.390625000000006
40
0.394531250000006
40
0.394531250000006
40
0.398437500000006
40
0.398437500000006
40
0.406250000000006
40
0.406250000000006
40
0.437500000000006
40
0.437500000000006
40
0.468750000000006
40
0.468750000000006
40
0.500000000000005
40
0.500000000000005
40
0.531250000000005
40
0.531250000000005
40
0.562500000000005
40
0.562500000000005
40
0.593750000000004
40
0.593750000000004
40
0.625000000000004
40
0.625000000000004
40
0.656250000000004
40
0.656250000000004
40
0.687500000000003
40
0.687500000000003
40
0.695312500000003
40
0.695312500000003
40
0.699218750000003
40
0.699218750000003
40
0.703125000000003
40
0.718750000000003
40
0.718750000000003
40
0.750000000000003
40
0.750000000000003
40
0.781250000000002
40
0.781250000000002
40
0.812500000000002
40
0.812500000000002
40
0.843750000000002
40
0.843750000000002
40
0.875000000000001
40
0.875000000000001
40
0.906250000000001
40
0.906250000000001
40
0.937500000000001
40
0.937500000000001
40
0.96875
40
0.96875
40
1
40
1
40
1
40
1
41
1
10
104.9
20
3.67700746283839
30
0
41
1
10
104.974952583651
20
3.28033837217634
30
0
41
1
10
105.049905167302
20
2.87166997989189
30
0
41
1
10
105.199810334603
20
2.04896354027508
30
0
41
1
10
105.274762918254
20
1.63499234612394
30
0
41
1
10
105.424668085556
20
0.818183182925083
30
0
41
1
10
105.499620669207
20
0.415377902962405
30
0
41
1
10
105.59331139877
20
-0.0732486345032157
30
0
41
1
10
105.612049544683
20
-0.171257777867737
30
0
41
1
10
105.649525836509
20
-0.369033703620659
30
0
41
1
10
105.668263982421
20
-0.468584232632679
30
0
41
1
10
105.724478420159
20
-0.768944224893801
30
0
41
1
10
105.761954711985
20
-0.971470000518167
30
0
41
1
10
105.874383587461
20
-1.58337763363085
30
0
41
1
10
105.949336171112
20
-1.99718907652957
30
0
41
1
10
106.099241338414
20
-2.82032302823589
30
0
41
1
10
106.174193922065
20
-3.22957999600024
30
0
41
1
10
106.324099089366
20
-4.02489646462072
30
0
41
1
10
106.399051673017
20
-4.41086643434855
30
0
41
1
10
106.548956840319
20
-5.14087017146389
30
0
41
1
10
106.62390942397
20
-5.48481376426096
30
0
41
1
10
106.773814591271
20
-6.11479161347856
30
0
41
1
10
106.848767174922
20
-6.40076240235052
30
0
41
1
10
106.998672342224
20
-6.90399482759517
30
0
41
1
10
107.073624925875
20
-7.12123774923757
30
0
41
1
10
107.223530093177
20
-7.48267573262279
30
0
41
1
10
107.298482676827
20
-7.62689717686979
30
0
41
1
10
107.448387844129
20
-7.8442832835911
30
0
41
1
10
107.52334042778
20
-7.91750422235594
30
0
41
1
10
107.635769303256
20
-7.97930173876236
30
0
41
1
10
107.673245595081
20
-7.99192866551482
30
0
41
1
10
107.720090959863
20
-7.99848476103659
30
0
41
1
10
107.72946003282
20
-7.99933498958876
30
0
41
1
10
107.748198178732
20
-8.00013333689384
30
0
41
1
10
107.757567251689
20
-8.00008424213564
30
0
41
1
10
107.785674470558
20
-7.9985871580943
30
0
41
1
10
107.804412616471
20
-7.99578018000062
30
0
41
1
10
107.898103346034
20
-7.9723095296778
30
0
41
1
10
107.973055929685
20
-7.92321203212515
30
0
41
1
10
108.122961096987
20
-7.75613083906643
30
0
41
1
10
108.197913680638
20
-7.63808526838696
30
0
41
1
10
108.347818847939
20
-7.32906247879015
30
0
41
1
10
108.42277143159
20
-7.13804577987116
30
0
41
1
10
108.572676598892
20
-6.68496444515136
30
0
41
1
10
108.647629182543
20
-6.42290130779151
30
0
41
1
10
108.797534349845
20
-5.83617417328409
30
0
41
1
10
108.872486933495
20
-5.51155871577976
30
0
41
1
10
109.022392100797
20
-4.81399342224415
30
0
41
1
10
109.097344684448
20
-4.44112706097451
30
0
41
1
10
109.24724985175
20
-3.66510150512369
30
0
41
1
10
109.3222024354
20
-3.26203525042686
30
0
41
1
10
109.472107602702
20
-2.44467443413646
30
0
41
1
10
109.547060186353
20
-2.03045604647485
30
0
41
1
10
109.696965353655
20
-1.20824609451481
30
0
41
1
10
109.771917937306
20
-0.800298420687028
30
0
41
1
10
109.865608666869
20
-0.303004288535902
30
0
41
1
10
109.884346812782
20
-0.204167655998873
30
0
41
1
10
109.912454031651
20
-0.0569786988481553
30
0
41
1
10
109.921823104607
20
-0.008213108220076
30
0
41
1
10
109.94056125052
20
0.0895929919481659
30
0
41
1
10
109.987406615302
20
0.335016489736063
30
0
41
1
10
110.034251980084
20
0.584745625866475
30
0
41
1
10
110.14668085556
20
1.19008537628477
30
0
41
1
10
110.221633439211
20
1.60174485998766
30
0
41
1
10
110.371538606512
20
2.42613315486236
30
0
41
1
10
110.446491190163
20
2.83880697099497
30
0
41
1
10
110.596396357465
20
3.64706477918563
30
0
41
1
10
110.671348941116
20
4.04256488535827
30
0
41
1
10
110.821254108418
20
4.79744751295684
30
0
41
1
10
110.896206692069
20
5.15673702126475
30
0
41
1
10
111.04611185937
20
5.82204456618476
30
0
41
1
10
111.121064443021
20
6.12798794534871
30
0
41
1
10
111.270969610323
20
6.67394633414477
30
0
41
1
10
111.345922193974
20
6.91392739096355
30
0
41
1
10
111.495827361275
20
7.32150523931458
30
0
41
1
10
111.570779944926
20
7.48911507301256
30
0
41
1
10
111.720685112228
20
7.75201561787179
30
0
41
1
10
111.795637695879
20
7.84735528914231
30
0
41
1
10
111.945542863181
20
7.97131521642882
30
0
41
1
10
112.020495446831
20
8
30
0
41
1
10
112.095448030482
20
8
30
0
0
SPLINE
5
F3
100
AcDbEntity
8
1
62
256
6
ByLayer
370
13
48
1
60
0
100
AcDbSpline
70
4
71
3
72
82
73
78
40
0
40
0
40
0
40
0
40
0.0156250000000011
40
0.0156250000000011
40
0.0234375000000014
40
0.0234375000000014
40
0.0312500000000017
40
0.0312500000000017
40
0.0625000000000016
40
0.0625000000000016
40
0.0937500000000015
40
0.0937500000000015
40
0.125000000000001
40
0.125000000000001
40
0.156250000000001
40
0.156250000000001
40
0.187500000000001
40
0.187500000000001
40
0.218750000000001
40
0.218750000000001
40
0.250000000000001
40
0.250000000000001
40
0.281250000000001
40
0.281250000000001
40
0.312500000000001
40
0.312500000000001
40
0.343750000000001
40
0.343750000000001
40
0.351562500000001
40
0.351562500000001
40
0.359375
40
0.359375
40
0.375
40
0.375
40
0.40625
40
0.40625
40
0.4375
40
0.4375
40
0.46875
40
0.46875
40
0.5
40
0.5
40
0.53125
40
0.53125
40
0.5625
40
0.5625
40
0.593749999999999
40
0.593749999999999
40
0.624999999999999
40
0.624999999999999
40
0.656249999999999
40
0.656249999999999
40
0.671874999999999
40
0.671874999999999
40
0.6796875
40
0.6796875
40
0.6875
40
0.6875
40
0.71875
40
0.71875
40
0.75
40
0.75
40
0.78125
40
0.78125
40
0.8125
40
0.8125
40
0.84375
40
0.84375
40
0.875
40
0.875
40
0.90625
40
0.90625
40
0.9375
40
0.9375
40
0.96875
40
0.96875
40
1
40
1
40
1
40
1
41
1
10
104.9
20
0.966498041081877
30
0
41
1
10
104.9348846416
20
0.777644634832455
30
0
41
1
10
104.9697692832
20
0.590303058703228
30
0
41
1
10
105.0220962456
20
0.312529727938824
30
0
41
1
10
105.0395385664
20
0.22047693615778
30
0
41
1
10
105.074423208
20
0.0375912839836872
30
0
41
1
10
105.0918655288
20
-0.0529605218691245
30
0
41
1
10
105.179077132801
20
-0.510516396172449
30
0
41
1
10
105.248846416001
20
-0.886381207135798
30
0
41
1
10
105.388384982401
20
-1.64735379294956
30
0
41
1
10
105.458154265601
20
-2.03243793539082
30
0
41
1
10
105.597692832002
20
-2.7985996569619
30
0
41
1
10
105.667462115202
20
-3.17963126517429
30
0
41
1
10
105.807000681602
20
-3.92263678779528
30
0
41
1
10
105.876769964802
20
-4.28454868550236
30
0
41
1
10
106.016308531202
20
-4.974114712648
30
0
41
1
10
106.086077814403
20
-5.3017046202055
30
0
41
1
10
106.225616380803
20
-5.90923086507098
30
0
41
1
10
106.295385664003
20
-6.18911762755971
30
0
41
1
10
106.434924230403
20
-6.69141786708389
30
0
41
1
10
106.504693513604
20
-6.91380918287317
30
0
41
1
10
106.644232080004
20
-7.29599311624335
30
0
41
1
10
106.714001363204
20
-7.4557942575222
30
0
41
1
10
106.853539929605
20
-7.7125737322591
30
0
41
1
10
106.923309212805
20
-7.80958465704518
30
0
41
1
10
107.062847779205
20
-7.94481068191593
30
0
41
1
10
107.132617062405
20
-7.98307022777246
30
0
41
1
10
107.219828666405
20
-7.99856773101891
30
0
41
1
10
107.237270987205
20
-8.00005643062192
30
0
41
1
10
107.272155628806
20
-7.99994030355924
30
0
41
1
10
107.289597949606
20
-7.99833310895337
30
0
41
1
10
107.341924912006
20
-7.98867193879116
30
0
41
1
10
107.376809553606
20
-7.97577431443023
30
0
41
1
10
107.481463478406
20
-7.91629826334577
30
0
41
1
10
107.551232761606
20
-7.84883722471776
30
0
41
1
10
107.690771328007
20
-7.65268334760228
30
0
41
1
10
107.760540611207
20
-7.52395045811502
30
0
41
1
10
107.900079177607
20
-7.20322981668298
30
0
41
1
10
107.969848460807
20
-7.01122042230273
30
0
41
1
10
108.109387027208
20
-6.56657832525329
30
0
41
1
10
108.179156310408
20
-6.31395246682465
30
0
41
1
10
108.318694876808
20
-5.75561891578462
30
0
41
1
10
108.388464160008
20
-5.44994843084407
30
0
41
1
10
108.528002726409
20
-4.79731344796085
30
0
41
1
10
108.597772009609
20
-4.45040800717186
30
0
41
1
10
108.737310576009
20
-3.72985082191141
30
0
41
1
10
108.807079859209
20
-3.35626424611243
30
0
41
1
10
108.946618425609
20
-2.59772410384193
30
0
41
1
10
109.01638770881
20
-2.21282569052656
30
0
41
1
10
109.15592627521
20
-1.44600856277634
30
0
41
1
10
109.22569555841
20
-1.06412469808407
30
0
41
1
10
109.33034948321
20
-0.502482280577311
30
0
41
1
10
109.36523412481
20
-0.317110004812491
30
0
41
1
10
109.41756108721
20
-0.0427130329355805
30
0
41
1
10
109.43500340801
20
0.0478361131085592
30
0
41
1
10
109.469888049611
20
0.230812993597681
30
0
41
1
10
109.487330370411
20
0.322908825994972
30
0
41
1
10
109.574541974411
20
0.786065535149618
30
0
41
1
10
109.644311257611
20
1.16527757183442
30
0
41
1
10
109.783849824011
20
1.92992934901579
30
0
41
1
10
109.853619107212
20
2.31533984630954
30
0
41
1
10
109.993157673612
20
3.0785740737272
30
0
41
1
10
110.062926956812
20
3.45634698879348
30
0
41
1
10
110.202465523212
20
4.18904689291389
30
0
41
1
10
110.272234806412
20
4.54390981951599
30
0
41
1
10
110.411773372813
20
5.2158496219252
30
0
41
1
10
110.481542656013
20
5.53286434280159
30
0
41
1
10
110.621081222413
20
6.11644333291738
30
0
41
1
10
110.690850505613
20
6.38296387537378
30
0
41
1
10
110.830389072014
20
6.85681580809867
30
0
41
1
10
110.900158355214
20
7.06413267830692
30
0
41
1
10
111.039696921614
20
7.41567123120885
30
0
41
1
10
111.109466204814
20
7.55990826600697
30
0
41
1
10
111.249004771215
20
7.78619376758184
30
0
41
1
10
111.318774054415
20
7.86827895114092
30
0
41
1
10
111.458312620815
20
7.9751593704537
30
0
41
1
10
111.528081904015
20
8
30
0
41
1
10
111.597851187215
20
8
30
0
0
SPLINE
5
F4
100
AcDbEntity
8
1
62
256
6
ByLayer
370
13
48
1
60
0
100
AcDbSpline
70
4
71
3
72
8
73
4
40
0
40
0
40
0
40
0
40
1
40
1
40
1
40
1
41
1
10
113.359146769946
20
8
30
0
41
1
10
113.435510555254
20
8
30
0
41
1
10
113.511874340562
20
7.9702200469217
30
0
41
1
10
113.58823812587
20
7.90579908666032
30
0
0
SPLINE
5
F5
100
AcDbEntity
8
1
62
256
6
ByLayer
370
13
48
1
60
0
100
AcDbSpline
70
4
71
3
72
78
73
74
40
0
40
0
40
0
40
0
40
0.0312499999999994
40
0.0312499999999994
40
0.0624999999999988
40
0.0624999999999988
40
0.0937499999999981
40
0.0937499999999981
40
0.124999999999998
40
0.124999999999998
40
0.156249999999997
40
0.156249999999997
40
0.187499999999996
40
0.187499999999996
40
0.218749999999996
40
0.218749999999996
40
0.249999999999995
40
0.249999999999995
40
0.281249999999994
40
0.281249999999994
40
0.296874999999994
40
0.296874999999994
40
0.304687499999994
40
0.304687499999994
40
0.312499999999994
40
0.312499999999994
40
0.343749999999995
40
0.343749999999995
40
0.374999999999997
40
0.374999999999997
40
0.406249999999998
40
0.406249999999998
40
0.437499999999999
40
0.437499999999999
40
0.46875
40
0.46875
40
0.500000000000001
40
0.500000000000001
40
0.531250000000003
40
0.531250000000003
40
0.562500000000004
40
0.562500000000004
40
0.593750000000005
40
0.593750000000005
40
0.625000000000006
40
0.625000000000006
40
0.640625000000007
40
0.640625000000007
40
0.648437500000007
40
0.648437500000007
40
0.656250000000007
40
0.656250000000007
40
0.687500000000006
40
0.687500000000006
40
0.718750000000006
40
0.718750000000006
40
0.750000000000005
40
0.750000000000005
40
0.781250000000004
40
0.781250000000004
40
0.812500000000004
40
0.812500000000004
40
0.843750000000003
40
0.843750000000003
40
0.875000000000002
40
0.875000000000002
40
0.906250000000002
40
0.906250000000002
40
0.937500000000001
40
0.937500000000001
40
0.968750000000001
40
0.968750000000001
40
1
40
1
40
1
40
1
41
1
10
104.9
20
-1.69918325141958
30
0
41
1
10
104.964585982749
20
-2.05373416711419
30
0
41
1
10
105.029171965499
20
-2.41019173239243
30
0
41
1
10
105.158343930998
20
-3.11584956288382
30
0
41
1
10
105.222929913747
20
-3.46501451534189
30
0
41
1
10
105.352101879246
20
-4.14397795901556
30
0
41
1
10
105.416687861996
20
-4.4737329036993
30
0
41
1
10
105.545859827495
20
-5.10197979438124
30
0
41
1
10
105.610445810244
20
-5.40042880469923
30
0
41
1
10
105.739617775743
20
-5.9557141039981
30
0
41
1
10
105.804203758493
20
-6.21251787783206
30
0
41
1
10
105.933375723992
20
-6.67687878997191
30
0
41
1
10
105.997961706741
20
-6.88442097192893
30
0
41
1
10
106.12713367224
20
-7.24607618237204
30
0
41
1
10
106.191719654989
20
-7.40019368588054
30
0
41
1
10
106.320891620488
20
-7.65442733124905
30
0
41
1
10
106.385477603238
20
-7.75456381322078
30
0
41
1
10
106.514649568737
20
-7.90348301244723
30
0
41
1
10
106.579235551486
20
-7.95229501031946
30
0
41
1
10
106.67611452561
20
-7.99081851519693
30
0
41
1
10
106.708407516985
20
-7.99789346017525
30
0
41
1
10
106.756847004047
20
-8.00044480302063
30
0
41
1
10
106.772993499734
20
-7.99996775321216
30
0
41
1
10
106.805286491109
20
-7.99630530822003
30
0
41
1
10
106.821432986797
20
-7.99311269287026
30
0
41
1
10
106.902165465233
20
-7.97009568174954
30
0
41
1
10
106.966751447983
20
-7.92904043889305
30
0
41
1
10
107.095923413482
20
-7.79630733705002
30
0
41
1
10
107.160509396231
20
-7.70459947979523
30
0
41
1
10
107.28968136173
20
-7.46744970983403
30
0
41
1
10
107.35426734448
20
-7.32198552310302
30
0
41
1
10
107.483439309979
20
-6.97731393329974
30
0
41
1
10
107.548025292728
20
-6.77809916853181
30
0
41
1
10
107.677197258227
20
-6.3294905818052
30
0
41
1
10
107.741783240977
20
-6.08010859323181
30
0
41
1
10
107.870955206476
20
-5.53824829550055
30
0
41
1
10
107.935541189225
20
-5.24580006613763
30
0
41
1
10
108.064713154724
20
-4.62777050494029
30
0
41
1
10
108.129299137473
20
-4.30223107924314
30
0
41
1
10
108.258471102972
20
-3.62975352877675
30
0
41
1
10
108.323057085722
20
-3.28285951197668
30
0
41
1
10
108.452229051221
20
-2.57984940064185
30
0
41
1
10
108.51681503397
20
-2.22377039053319
30
0
41
1
10
108.645986999469
20
-1.51375749495628
30
0
41
1
10
108.710572982218
20
-1.15984783686636
30
0
41
1
10
108.807451956343
20
-0.63780681453477
30
0
41
1
10
108.839744947718
20
-0.465247855390032
30
0
41
1
10
108.88818443478
20
-0.209334388763295
30
0
41
1
10
108.904330930467
20
-0.124516263686985
30
0
41
1
10
108.936623921842
20
0.0440371957882064
30
0
41
1
10
108.952770417529
20
0.12825539190456
30
0
41
1
10
109.033502895966
20
0.553200451693613
30
0
41
1
10
109.098088878715
20
0.901316576442781
30
0
41
1
10
109.227260844214
20
1.60555764441037
30
0
41
1
10
109.291846826964
20
1.96166671279792
30
0
41
1
10
109.421018792463
20
2.67147989213859
30
0
41
1
10
109.485604775212
20
3.02515394787105
30
0
41
1
10
109.614776740711
20
3.71827510704856
30
0
41
1
10
109.679362723461
20
4.05768121891768
30
0
41
1
10
109.808534688959
20
4.71011915437597
30
0
41
1
10
109.873120671709
20
5.02310656462134
30
0
41
1
10
110.002292637208
20
5.61154832582639
30
0
41
1
10
110.066878619957
20
5.88696467778513
30
0
41
1
10
110.196050585456
20
6.39136920004353
30
0
41
1
10
110.260636568206
20
6.62033446764011
30
0
41
1
10
110.389808533705
20
7.02614963686676
30
0
41
1
10
110.454394516454
20
7.20299599389
30
0
41
1
10
110.583566481953
20
7.50250203940391
30
0
41
1
10
110.648152464703
20
7.62517611464079
30
0
41
1
10
110.777324430201
20
7.81770882006754
30
0
41
1
10
110.841910412951
20
7.88759390901987
30
0
41
1
10
110.97108237845
20
7.97872399386691
30
0
41
1
10
111.035668361199
20
8
30
0
41
1
10
111.100254343949
20
8
30
0
0
SPLINE
5
F6
100
AcDbEntity
8
1
62
256
6
ByLayer
370
13
48
1
60
0
100
AcDbSpline
70
4
71
3
72
14
73
10
40
0
40
0
40
0
40
0
40
0.25
40
0.25
40
0.5
40
0.5
40
0.75
40
0.75
40
1
40
1
40
1
40
1
41
1
10
112.861549926679
20
8
30
0
41
1
10
112.922107276612
20
8
30
0
41
1
10
112.982664626544
20
7.98130214874021
30
0
41
1
10
113.103779326409
20
7.90150455775787
30
0
41
1
10
113.164336676342
20
7.84038228465349
30
0
41
1
10
113.285451376207
20
7.67211127699861
30
0
41
1
10
113.34600872614
20
7.56494262600256
30
0
41
1
10
113.467123426005
20
7.30303195426731
30
0
41
1
10
113.527680775938
20
7.1482774535603
30
0
41
1
10
113.58823812587
20
6.9702540469961
30
0
0
SPLINE
5
F7
100
AcDbEntity
8
1
62
256
6
ByLayer
370
13
48
1
60
0
100
AcDbSpline
70
4
71
3
72
78
73
74
40
0
40
0
40
0
40
0
40
0.0312499999999996
40
0.0312499999999996
40
0.0624999999999993
40
0.0624999999999993
40
0.0937499999999989
40
0.0937499999999989
40
0.124999999999999
40
0.124999999999999
40
0.156249999999998
40
0.156249999999998
40
0.187499999999998
40
0.187499999999998
40
0.218749999999998
40
0.218749999999998
40
0.234374999999998
40
0.234374999999998
40
0.242187499999998
40
0.242187499999998
40
0.249999999999998
40
0.249999999999998
40
0.281249999999998
40
0.281249999999998
40
0.312499999999998
40
0.312499999999998
40
0.343749999999998
40
0.343749999999998
40
0.374999999999998
40
0.374999999999998
40
0.406249999999998
40
0.406249999999998
40
0.437499999999998
40
0.437499999999998
40
0.468749999999998
40
0.468749999999998
40
0.499999999999998
40
0.499999999999998
40
0.531249999999999
40
0.531249999999999
40
0.562499999999999
40
0.562499999999999
40
0.593749999999999
40
0.593749999999999
40
0.609374999999999
40
0.609374999999999
40
0.617187499999999
40
0.617187499999999
40
0.624999999999999
40
0.624999999999999
40
0.656249999999999
40
0.656249999999999
40
0.687499999999999
40
0.687499999999999
40
0.718749999999999
40
0.718749999999999
40
0.749999999999999
40
0.749999999999999
40
0.781249999999999
40
0.781249999999999
40
0.812499999999999
40
0.812499999999999
40
0.843749999999999
40
0.843749999999999
40
0.875
40
0.875
40
0.90625
40
0.90625
40
0.9375
40
0.9375
40
0.96875
40
0.96875
40
1
40
1
40
1
40
1
41
1
10
104.9
20
-4.37261724393613
30
0
41
1
10
104.959402682299
20
-4.67293415937604
30
0
41
1
10
105.018805364597
20
-4.96212543303136
30
0
41
1
10
105.137610729195
20
-5.50957474781612
30
0
41
1
10
105.197013411494
20
-5.76780707914358
30
0
41
1
10
105.315818776092
20
-6.24614260865587
30
0
41
1
10
105.37522145839
20
-6.46622869696512
30
0
41
1
10
105.494026822988
20
-6.86328093009269
30
0
41
1
10
105.553429505287
20
-7.04024147147084
30
0
41
1
10
105.672234869884
20
-7.34860627705243
30
0
41
1
10
105.731637552183
20
-7.48001642587838
30
0
41
1
10
105.85044291678
20
-7.69739147969111
30
0
41
1
10
105.909845599079
20
-7.7833711381731
30
0
41
1
10
106.028650963677
20
-7.9122218643669
30
0
41
1
10
106.088053645976
20
-7.95511251215834
30
0
41
1
10
106.177157669424
20
-7.99014020697152
30
0
41
1
10
106.206859010573
20
-7.99694269490072
30
0
41
1
10
106.251411022297
20
-8.00029278141119
30
0
41
1
10
106.266261692872
20
-8.00027790968679
30
0
41
1
10
106.295963034021
20
-7.99798342841473
30
0
41
1
10
106.310813704596
20
-7.99569382859676
30
0
41
1
10
106.385067057469
20
-7.97833950773739
30
0
41
1
10
106.444469739768
20
-7.9455092641129
30
0
41
1
10
106.563275104366
20
-7.83764051583853
30
0
41
1
10
106.622677786664
20
-7.76258189285104
30
0
41
1
10
106.741483151262
20
-7.56743958881978
30
0
41
1
10
106.800885833561
20
-7.44733956456042
30
0
41
1
10
106.919691198158
20
-7.16139847934008
30
0
41
1
10
106.979093880457
20
-6.99554902392805
30
0
41
1
10
107.097899245055
20
-6.61988086484013
30
0
41
1
10
107.157301927353
20
-6.41006481500963
30
0
41
1
10
107.276107291951
20
-5.95081941047121
30
0
41
1
10
107.33550997425
20
-5.70140448985038
30
0
41
1
10
107.454315338847
20
-5.16964517377841
30
0
41
1
10
107.513718021146
20
-4.88732477519545
30
0
41
1
10
107.632523385743
20
-4.29817831838272
30
0
41
1
10
107.691926068042
20
-3.99138119147153
30
0
41
1
10
107.81073143264
20
-3.36263143518139
30
0
41
1
10
107.870134114939
20
-3.040707113477
30
0
41
1
10
107.988939479536
20
-2.39109923999985
30
0
41
1
10
108.048342161835
20
-2.0634386125052
30
0
41
1
10
108.167147526433
20
-1.41101499013962
30
0
41
1
10
108.226550208731
20
-1.0862667785357
30
0
41
1
10
108.315654232179
20
-0.606825145628761
30
0
41
1
10
108.345355573329
20
-0.448279779108475
30
0
41
1
10
108.389907585053
20
-0.212938579617514
30
0
41
1
10
108.404758255627
20
-0.134903510045547
30
0
41
1
10
108.434459596777
20
0.020256803971705
30
0
41
1
10
108.449310267352
20
0.0975645264111051
30
0
41
1
10
108.523563620225
20
0.48771521461984
30
0
41
1
10
108.582966302524
20
0.806837700503309
30
0
41
1
10
108.701771667121
20
1.45275618680714
30
0
41
1
10
108.76117434942
20
1.77954284544856
30
0
41
1
10
108.879979714018
20
2.4329178260052
30
0
41
1
10
108.939382396317
20
2.75948812434157
30
0
41
1
10
109.058187760914
20
3.40342916149092
30
0
41
1
10
109.117590443213
20
3.72077450035277
30
0
41
1
10
109.23639580781
20
4.33679377229575
30
0
41
1
10
109.295798490109
20
4.63543852630457
30
0
41
1
10
109.414603854707
20
5.20494897038108
30
0
41
1
10
109.474006537005
20
5.47578694629306
30
0
41
1
10
109.592811901603
20
5.9818151660356
30
0
41
1
10
109.652214583902
20
6.2169845766357
30
0
41
1
10
109.771019948499
20
6.64579455374425
30
0
41
1
10
109.830422630798
20
6.83942502253285
30
0
41
1
10
109.949227995396
20
7.18174026925027
30
0
41
1
10
110.008630677694
20
7.33042679138441
30
0
41
1
10
110.127436042292
20
7.58202828810025
30
0
41
1
10
110.186838724591
20
7.6849551047203
30
0
41
1
10
110.305644089188
20
7.84658935029159
30
0
41
1
10
110.365046771487
20
7.90531504620029
30
0
41
1
10
110.483852136085
20
7.98201013214154
30
0
41
1
10
110.543254818383
20
8
30
0
41
1
10
110.602657500682
20
8
30
0
0
SPLINE
5
F8
100
AcDbEntity
8
1
62
256
6
ByLayer
370
13
48
1
60
0
100
AcDbSpline
70
4
71
3
72
22
73
18
40
0
40
0
40
0
40
0
40
0.125
40
0.125
40
0.25
40
0.25
40
0.375
40
0.375
40
0.5
40
0.5
40
0.625
40
0.625
40
0.75
40
0.75
40
0.875
40
0.875
40
1
40
1
40
1
40
1
41
1
10
112.363953083412
20
8
30
0
41
1
10
112.414964960181
20
8
30
0
41
1
10
112.465976836951
20
7.98674180785818
30
0
41
1
10
112.568000590489
20
7.93066368356264
30
0
41
1
10
112.619012467258
20
7.88783416800504
30
0
41
1
10
112.721036220796
20
7.7702136593079
30
0
41
1
10
112.772048097565
20
7.69541362428831
30
0
41
1
10
112.874071851103
20
7.51240017828968
30
0
41
1
10
112.925083727872
20
7.40417970168664
30
0
41
1
10
113.02710748141
20
7.15406866861289
30
0
41
1
10
113.07811935818
20
7.01217444298322
30
0
41
1
10
113.180143111718
20
6.69582077788689
30
0
41
1
10
113.231154988487
20
6.52136211256834
30
0
41
1
10
113.333178742025
20
6.14239296159795
30
0
41
1
10
113.384190618794
20
5.93788803398851
30
0
41
1
10
113.486214372332
20
5.50265380677473
30
0
41
1
10
113.537226249101
20
5.27193430798431
30
0
41
1
10
113.58823812587
20
5.03055669294451
30
0
0
SPLINE
5
F9
100
AcDbEntity
8
1
62
256
6
ByLayer
370
13
48
1
60
0
100
AcDbSpline
70
4
71
3
72
78
73
74
40
0
40
0
40
0
40
0
40
0.0312499999999982
40
0.0312499999999982
40
0.0624999999999964
40
0.0624999999999964
40
0.0937499999999946
40
0.0937499999999946
40
0.124999999999993
40
0.124999999999993
40
0.156249999999991
40
0.156249999999991
40
0.164062499999991
40
0.164062499999991
40
0.171874999999991
40
0.171874999999991
40
0.187499999999991
40
0.187499999999991
40
0.218749999999991
40
0.218749999999991
40
0.249999999999992
40
0.249999999999992
40
0.281249999999992
40
0.281249999999992
40
0.312499999999992
40
0.312499999999992
40
0.343749999999993
40
0.343749999999993
40
0.374999999999993
40
0.374999999999993
40
0.406249999999993
40
0.406249999999993
40
0.437499999999994
40
0.437499999999994
40
0.468749999999994
40
0.468749999999994
40
0.499999999999994
40
0.499999999999994
40
0.531249999999995
40
0.531249999999995
40
0.562499999999995
40
0.562499999999995
40
0.578124999999995
40
0.578124999999995
40
0.585937499999996
40
0.585937499999996
40
0.593749999999996
40
0.593749999999996
40
0.624999999999996
40
0.624999999999996
40
0.656249999999997
40
0.656249999999997
40
0.687499999999997
40
0.687499999999997
40
0.718749999999997
40
0.718749999999997
40
0.749999999999997
40
0.749999999999997
40
0.781249999999998
40
0.781249999999998
40
0.812499999999998
40
0.812499999999998
40
0.843749999999998
40
0.843749999999998
40
0.874999999999999
40
0.874999999999999
40
0.906249999999999
40
0.906249999999999
40
0.937499999999999
40
0.937499999999999
40
0.96875
40
0.96875
40
1
40
1
40
1
40
1
41
1
10
104.9
20
-6.53824633275448
30
0
41
1
10
104.954219381848
20
-6.72751172798201
30
0
41
1
10
105.008438763696
20
-6.89917075678085
30
0
41
1
10
105.116877527392
20
-7.20493792319036
30
0
41
1
10
105.17109690924
20
-7.33904776138405
30
0
41
1
10
105.279535672936
20
-7.56916255503398
30
0
41
1
10
105.333755054785
20
-7.66517500131619
30
0
41
1
10
105.442193818481
20
-7.82019239896164
30
0
41
1
10
105.496413200329
20
-7.87920867982641
30
0
41
1
10
105.604851964025
20
-7.96269203394874
30
0
41
1
10
105.659071345873
20
-7.98717203269715
30
0
41
1
10
105.726845573183
20
-7.99833292527646
30
0
41
1
10
105.740400418645
20
-7.99959501449905
30
0
41
1
10
105.767510109569
20
-8.00023914477683
30
0
41
1
10
105.781064955031
20
-7.99962843830542
30
0
41
1
10
105.821729491417
20
-7.99492119877146
30
0
41
1
10
105.848839182341
20
-7.98794220630836
30
0
41
1
10
105.930168255114
20
-7.95479429803996
30
0
41
1
10
105.984387636962
20
-7.91638347483442
30
0
41
1
10
106.092826400658
20
-7.80387745539173
30
0
41
1
10
106.147045782506
20
-7.7297697289456
30
0
41
1
10
106.255484546202
20
-7.54392805671802
30
0
41
1
10
106.30970392805
20
-7.43218410130973
30
0
41
1
10
106.418142691746
20
-7.17061880022652
30
0
41
1
10
106.472362073594
20
-7.02079216346982
30
0
41
1
10
106.58080083729
20
-6.68433884860289
30
0
41
1
10
106.635020219138
20
-6.49771324304015
30
0
41
1
10
106.743458982835
20
-6.09073668478723
30
0
41
1
10
106.797678364683
20
-5.87039368158807
30
0
41
1
10
106.906117128379
20
-5.40071970752228
30
0
41
1
10
106.960336510227
20
-5.15140264654448
30
0
41
1
10
107.068775273923
20
-4.62984775692939
30
0
41
1
10
107.122994655771
20
-4.35762760517963
30
0
41
1
10
107.231433419467
20
-3.79718019583822
30
0
41
1
10
107.285652801315
20
-3.50897149008404
30
0
41
1
10
107.394091565012
20
-2.92375209720382
30
0
41
1
10
107.44831094686
20
-2.62675802397845
30
0
41
1
10
107.556749710556
20
-2.03092647779229
30
0
41
1
10
107.610969092404
20
-1.73210161940909
30
0
41
1
10
107.7194078561
20
-1.1388750197994
30
0
41
1
10
107.773627237948
20
-0.844480927545078
30
0
41
1
10
107.85495631072
20
-0.41015797656155
30
0
41
1
10
107.882066001644
20
-0.266586537868278
30
0
41
1
10
107.92273053803
20
-0.0534463912806871
30
0
41
1
10
107.936285383492
20
0.0169885191391472
30
0
41
1
10
107.963395074416
20
0.158826659379088
30
0
41
1
10
107.976949919878
20
0.230120141326211
30
0
41
1
10
108.044724147189
20
0.588295340070772
30
0
41
1
10
108.098943529037
20
0.880344900013853
30
0
41
1
10
108.207382292733
20
1.47053588743648
30
0
41
1
10
108.261601674581
20
1.76867114369409
30
0
41
1
10
108.370040438277
20
2.36504470369337
30
0
41
1
10
108.424259820125
20
2.66327179848165
30
0
41
1
10
108.532698583821
20
3.25304146977504
30
0
41
1
10
108.586917965669
20
3.54456843628265
30
0
41
1
10
108.695356729366
20
4.11375741853072
30
0
41
1
10
108.749576111214
20
4.39140118185597
30
0
41
1
10
108.85801487491
20
4.92576631799343
30
0
41
1
10
108.912234256758
20
5.18246944654339
30
0
41
1
10
109.020673020454
20
5.66857728440107
30
0
41
1
10
109.074892402302
20
5.89796670799234
30
0
41
1
10
109.183331165998
20
6.3242668815719
30
0
41
1
10
109.237550547846
20
6.52116777689355
30
0
41
1
10
109.345989311542
20
6.87889231654475
30
0
41
1
10
109.40020869339
20
7.03971286517006
30
0
41
1
10
109.508647457087
20
7.32345791848934
30
0
41
1
10
109.562866838935
20
7.44638597943583
30
0
41
1
10
109.671305602631
20
7.65429836517109
30
0
41
1
10
109.725524984479
20
7.73929153254073
30
0
41
1
10
109.833963748175
20
7.87286525585256
30
0
41
1
10
109.888183130023
20
7.92145783838049
30
0
41
1
10
109.996621893719
20
7.98501871273109
30
0
41
1
10
110.050841275567
20
8
30
0
41
1
10
110.105060657415
20
8
30
0
0
SPLINE
5
FA
100
AcDbEntity
8
1
62
256
6
ByLayer
370
13
48
1
60
0
100
AcDbSpline
70
4
71
3
72
22
73
18
40
0
40
0
40
0
40
0
40
0.125
40
0.125
40
0.25
40
0.25
40
0.375
40
0.375
40
0.5
40
0.5
40
0.625
40
0.625
40
0.75
40
0.75
40
0.875
40
0.875
40
1
40
1
40
1
40
1
41
1
10
111.866356240146
20
8
30
0
41
1
10
111.938101318718
20
8
30
0
41
1
10
112.009846397289
20
7.97372706632203
30
0
41
1
10
112.153336554433
20
7.86049369053288
30
0
41
1
10
112.225081633005
20
7.77348117317811
30
0
41
1
10
112.368571790149
20
7.5335762982867
30
0
41
1
10
112.440316868721
20
7.38064277862293
30
0
41
1
10
112.583807025864
20
7.00820778873938
30
0
41
1
10
112.655552104436
20
6.78869134779222
30
0
41
1
10
112.79904226158
20
6.28780586696317
30
0
41
1
10
112.870787340152
20
6.00645759059626
30
0
41
1
10
113.014277497295
20
5.3919679079643
30
0
41
1
10
113.086022575867
20
5.05888072678218
30
0
41
1
10
113.229512733011
20
4.3551700746076
30
0
41
1
10
113.301257811583
20
3.98461979152162
30
0
41
1
10
113.444747968727
20
3.22246010517171
30
0
41
1
10
113.516493047298
20
2.8309224967162
30
0
41
1
10
113.58823812587
20
2.43707673303302
30
0
0
SPLINE
5
FB
100
AcDbEntity
8
1
62
256
6
ByLayer
370
13
48
1
60
0
100
AcDbSpline
70
4
71
3
72
76
73
72
40
0
40
0
40
0
40
0
40
0.0312499999999996
40
0.0312499999999996
40
0.0624999999999992
40
0.0624999999999992
40
0.0703124999999991
40
0.0703124999999991
40
0.078124999999999
40
0.078124999999999
40
0.0937499999999987
40
0.0937499999999987
40
0.124999999999998
40
0.124999999999998
40
0.156249999999998
40
0.156249999999998
40
0.187499999999998
40
0.187499999999998
40
0.218749999999997
40
0.218749999999997
40
0.249999999999997
40
0.249999999999997
40
0.281249999999996
40
0.281249999999996
40
0.312499999999996
40
0.312499999999996
40
0.343749999999996
40
0.343749999999996
40
0.374999999999996
40
0.374999999999996
40
0.406249999999995
40
0.406249999999995
40
0.437499999999995
40
0.437499999999995
40
0.468749999999995
40
0.468749999999995
40
0.499999999999995
40
0.499999999999995
40
0.531249999999994
40
0.531249999999994
40
0.546874999999994
40
0.546874999999994
40
0.562499999999994
40
0.562499999999994
40
0.593749999999995
40
0.593749999999995
40
0.624999999999995
40
0.624999999999995
40
0.656249999999995
40
0.656249999999995
40
0.687499999999996
40
0.687499999999996
40
0.718749999999996
40
0.718749999999996
40
0.749999999999997
40
0.749999999999997
40
0.781249999999997
40
0.781249999999997
40
0.812499999999998
40
0.812499999999998
40
0.843749999999998
40
0.843749999999998
40
0.874999999999998
40
0.874999999999998
40
0.906249999999999
40
0.906249999999999
40
0.937499999999999
40
0.937499999999999
40
0.96875
40
0.96875
40
1
40
1
40
1
40
1
41
1
10
104.9
20
-7.75624587549828
30
0
41
1
10
104.949036081397
20
-7.82437440964148
30
0
41
1
10
104.998072162795
20
-7.87742972858294
30
0
41
1
10
105.09614432559
20
-7.95520682045347
30
0
41
1
10
105.145180406987
20
-7.97993641246381
30
0
41
1
10
105.206475508734
20
-7.99470067789139
30
0
41
1
10
105.218734529083
20
-7.996847450856
30
0
41
1
10
105.243252569782
20
-7.99957235792655
30
0
41
1
10
105.255511590131
20
-8.0001510790066
30
0
41
1
10
105.292288651179
20
-7.99959807643077
30
0
41
1
10
105.316806691878
20
-7.99615947794973
30
0
41
1
10
105.390360813974
20
-7.97610700872551
30
0
41
1
10
105.439396895371
20
-7.94973808524142
30
0
41
1
10
105.537469058166
20
-7.8685510420359
30
0
41
1
10
105.586505139563
20
-7.81372512464964
30
0
41
1
10
105.684577302358
20
-7.67384324853461
30
0
41
1
10
105.733613383755
20
-7.58878041484934
30
0
41
1
10
105.83168554655
20
-7.38755063561931
30
0
41
1
10
105.880721627948
20
-7.27137885443867
30
0
41
1
10
105.978793790742
20
-7.0081439116654
30
0
41
1
10
106.02782987214
20
-6.86107895594481
30
0
41
1
10
106.125902034935
20
-6.53746031315785
30
0
41
1
10
106.174938116332
20
-6.36090850451916
30
0
41
1
10
106.273010279127
20
-5.98090943635495
30
0
41
1
10
106.322046360524
20
-5.77746778201893
30
0
41
1
10
106.420118523319
20
-5.34736026204536
30
0
41
1
10
106.469154604716
20
-5.12070313251527
30
0
41
1
10
106.567226767511
20
-4.64869580337765
30
0
41
1
10
106.616262848908
20
-4.40335632594463
30
0
41
1
10
106.714335011703
20
-3.89907857476302
30
0
41
1
10
106.763371093101
20
-3.64015156716712
30
0
41
1
10
106.861443255895
20
-3.11402057749129
30
0
41
1
10
106.910479337293
20
-2.84682698636666
30
0
41
1
10
107.008551500087
20
-2.30938197818773
30
0
41
1
10
107.057587581485
20
-2.0391389649879
30
0
41
1
10
107.15565974428
20
-1.5004257216641
30
0
41
1
10
107.204695825677
20
-1.23196127217994
30
0
41
1
10
107.302767988472
20
-0.701032458227814
30
0
41
1
10
107.351804069869
20
-0.438571116532614
30
0
41
1
10
107.425358191965
20
-0.0519980617303588
30
0
41
1
10
107.449876232664
20
0.0751303729184372
30
0
41
1
10
107.498912314061
20
0.333127969646085
30
0
41
1
10
107.52343035476
20
0.463295543861761
30
0
41
1
10
107.596984476856
20
0.85668278436367
30
0
41
1
10
107.646020558253
20
1.12280969161191
30
0
41
1
10
107.744092721048
20
1.65891686971568
30
0
41
1
10
107.793128802445
20
1.92889266728707
30
0
41
1
10
107.89120096524
20
2.46813421172018
30
0
41
1
10
107.940237046638
20
2.73739273976898
30
0
41
1
10
108.038309209433
20
3.27013615939984
30
0
41
1
10
108.08734529083
20
3.53361148206875
30
0
41
1
10
108.185417453625
20
4.04947860007383
30
0
41
1
10
108.234453535022
20
4.30185937694239
30
0
41
1
10
108.332525697817
20
4.79029400840022
30
0
41
1
10
108.381561779214
20
5.02633669942739
30
0
41
1
10
108.479633942009
20
5.47725638196616
30
0
41
1
10
108.528670023406
20
5.69212353619233
30
0
41
1
10
108.626742186201
20
6.09657875340505
30
0
41
1
10
108.675778267598
20
6.28615962784613
30
0
41
1
10
108.773850430393
20
6.6369145244054
30
0
41
1
10
108.822886511791
20
6.79808488367766
30
0
41
1
10
108.920958674585
20
7.0900422684868
30
0
41
1
10
108.969994755983
20
7.22082940937409
30
0
41
1
10
109.068066918778
20
7.45124872146127
30
0
41
1
10
109.117103000175
20
7.55088440706336
30
0
41
1
10
109.21517516297
20
7.7193775421957
30
0
41
1
10
109.264211244367
20
7.78824104644002
30
0
41
1
10
109.362283407162
20
7.89656768936015
30
0
41
1
10
109.411319488559
20
7.9360383285466
30
0
41
1
10
109.509391651354
20
7.98775055127314
30
0
41
1
10
109.558427732751
20
8
30
0
41
1
10
109.607463814149
20
8
30
0
0
SPLINE
5
FC
100
AcDbEntity
8
1
62
256
6
ByLayer
370
13
48
1
60
0
100
AcDbSpline
70
4
71
3
72
8
73
4
40
0
40
0
40
0
40
0
40
1
40
1
40
1
40
1
41
1
10
113.588238125871
20
0.8296990066859
30
0
41
1
10
114.558825417247
20
0.560855497007822
30
0
41
1
10
115.529412708623
20
0.284287978119778
30
0
41
1
10
116.5
20
0
30
0
0
SPLINE
5
FD
100
AcDbEntity
8
1
62
256
6
ByLayer
370
13
48
1
60
0
100
AcDbSpline
70
4
71
3
72
8
73
4
40
0
40
0
40
0
40
0
40
1
40
1
40
1
40
1
41
1
10
113.588238125871
20
4.96856595869733
30
0
41
1
10
114.558825417247
20
3.3062916884727
30
0
41
1
10
115.529412708623
20
1.65009602329846
30
0
41
1
10
116.5
20
2.842E-13
30
0
0
SPLINE
5
FE
100
AcDbEntity
8
1
62
256
6
ByLayer
370
13
48
1
60
0
100
AcDbSpline
70
4
71
3
72
8
73
4
40
0
40
0
40
0
40
0
40
1
40
1
40
1
40
1
41
1
10
113.58823812587
20
-4.83576253159274
30
0
41
1
10
114.558825417247
20
-3.21765611422813
30
0
41
1
10
115.529412708623
20
-1.6057284458889
30
0
41
1
10
116.5
20
1.137E-13
30
0
0
SPLINE
5
FF
100
AcDbEntity
8
1
62
256
6
ByLayer
370
13
48
1
60
0
100
AcDbSpline
70
4
71
3
72
8
73
4
40
0
40
0
40
0
40
0
40
1
40
1
40
1
40
1
41
1
10
113.58823812587
20
-5.93515851399818
30
0
41
1
10
114.558825417247
20
-3.96197869932195
30
0
41
1
10
115.529412708624
20
-1.98358413390574
30
0
41
1
10
116.5
20
5.969E-13
30
0
0
SPLINE
5
100
100
AcDbEntity
8
1
62
256
6
ByLayer
370
13
48
1
60
0
100
AcDbSpline
70
4
71
3
72
8
73
4
40
0
40
0
40
0
40
0
40
1
40
1
40
1
40
1
41
1
10
113.588238125871
20
5.85303002867093
30
0
41
1
10
114.558825417247
20
3.89672679876531
30
0
41
1
10
115.529412708623
20
1.94570852601404
30
0
41
1
10
116.5
20
3.126E-13
30
0
0
SPLINE
5
101
100
AcDbEntity
8
1
62
256
6
ByLayer
370
13
48
1
60
0
100
AcDbSpline
70
4
71
3
72
8
73
4
40
0
40
0
40
0
40
0
40
1
40
1
40
1
40
1
41
1
10
113.588238125871
20
-0.662375744823322
30
0
41
1
10
114.558825417247
20
-0.449321867627361
30
0
41
1
10
115.529412708623
20
-0.228529005776238
30
0
41
1
10
116.5
20
-2.84E-14
30
0
0
SPLINE
5
102
100
AcDbEntity
8
1
62
256
6
ByLayer
370
13
48
1
60
0
100
AcDbSpline
70
4
71
3
72
8
73
4
40
0
40
0
40
0
40
0
40
1
40
1
40
1
40
1
41
1
10
113.58823812587
20
6.04652679835581
30
0
41
1
10
114.558825417247
20
4.03610206766751
30
0
41
1
10
115.529412708623
20
2.02058458360165
30
0
41
1
10
116.5
20
-2.84E-14
30
0
0
SPLINE
5
103
100
AcDbEntity
8
1
62
256
6
ByLayer
370
13
48
1
60
0
100
AcDbSpline
70
4
71
3
72
8
73
4
40
0
40
0
40
0
40
0
40
1
40
1
40
1
40
1
41
1
10
113.58823812587
20
-5.73718079000906
30
0
41
1
10
114.558825417247
20
-3.81937580955491
30
0
41
1
10
115.529412708624
20
-1.90697411355936
30
0
41
1
10
116.5
20
5.684E-13
30
0
0
SPLINE
5
104
100
AcDbEntity
8
1
62
256
6
ByLayer
370
13
48
1
60
0
100
AcDbSpline
70
4
71
3
72
8
73
4
40
0
40
0
40
0
40
0
40
1
40
1
40
1
40
1
41
1
10
113.588238125871
20
6.60499598016506
30
0
41
1
10
114.558825417247
20
4.39894965548402
30
0
41
1
10
115.529412708623
20
2.19727500170711
30
0
41
1
10
116.5
20
3.695E-13
30
0
0
SPLINE
5
105
100
AcDbEntity
8
1
62
256
6
ByLayer
370
13
48
1
60
0
100
AcDbSpline
70
4
71
3
72
8
73
4
40
0
40
0
40
0
40
0
40
1
40
1
40
1
40
1
41
1
10
113.58823812587
20
-7.99869024226001
30
0
41
1
10
114.558825417247
20
-5.33231966280798
30
0
41
1
10
115.529412708623
20
-2.6660782796358
30
0
41
1
10
116.5
20
-4.547E-13
30
0
0
SPLINE
5
106
100
AcDbEntity
8
1
62
256
6
ByLayer
370
13
48
1
60
0
100
AcDbSpline
70
4
71
3
72
8
73
4
40
0
40
0
40
0
40
0
40
1
40
1
40
1
40
1
41
1
10
113.588238125871
20
0.541251336672246
30
0
41
1
10
114.558825417247
20
0.353087317529344
30
0
41
1
10
115.529412708623
20
0.172669451432256
30
0
41
1
10
116.5
20
2.84E-14
30
0
0
SPLINE
5
107
100
AcDbEntity
8
1
62
256
6
ByLayer
370
13
48
1
60
0
100
AcDbSpline
70
4
71
3
72
8
73
4
40
0
40
0
40
0
40
0
40
1
40
1
40
1
40
1
41
1
10
113.58823812587
20
5.19218219167826
30
0
41
1
10
114.558825417247
20
3.46736193607109
30
0
41
1
10
115.529412708623
20
1.73662719364054
30
0
41
1
10
116.5
20
1.99E-13
30
0
0
SPLINE
5
108
100
AcDbEntity
8
1
62
256
6
ByLayer
370
13
48
1
60
0
100
AcDbSpline
70
4
71
3
72
8
73
4
40
0
40
0
40
0
40
0
40
1
40
1
40
1
40
1
41
1
10
113.58823812587
20
-5.06319206032401
30
0
41
1
10
114.558825417247
20
-3.38147306980261
30
0
41
1
10
115.529412708623
20
-1.6937352199464
30
0
41
1
10
116.5
20
-2.842E-13
30
0
0
SPLINE
5
109
100
AcDbEntity
8
1
62
256
6
ByLayer
370
13
48
1
60
0
100
AcDbSpline
70
4
71
3
72
8
73
4
40
0
40
0
40
0
40
0
40
1
40
1
40
1
40
1
41
1
10
113.588238125871
20
-0.373470549216847
30
0
41
1
10
114.558825417247
20
-0.241224133538537
30
0
41
1
10
115.529412708623
20
-0.116733433690513
30
0
41
1
10
116.5
20
-2.84E-14
30
0
0
SPLINE
5
10A
100
AcDbEntity
8
1
62
256
6
ByLayer
370
13
48
1
60
0
100
AcDbSpline
70
4
71
3
72
8
73
4
40
0
40
0
40
0
40
0
40
1
40
1
40
1
40
1
41
1
10
113.588238125871
20
-2.99773856402632
30
0
41
1
10
114.558825417247
20
-2.00569133151942
30
0
41
1
10
115.529412708623
20
-1.00644089735806
30
0
41
1
10
116.5
20
-1.705E-13
30
0
0
SPLINE
5
10B
100
AcDbEntity
8
1
62
256
6
ByLayer
370
13
48
1
60
0
100
AcDbSpline
70
4
71
3
72
8
73
4
40
0
40
0
40
0
40
0
40
1
40
1
40
1
40
1
41
1
10
113.588238125871
20
1.73262582705138
30
0
41
1
10
114.558825417247
20
1.1475034794139
30
0
41
1
10
115.529412708623
20
0.569959099473294
30
0
41
1
10
116.5
20
8.53E-14
30
0
0
SPLINE
5
10C
100
AcDbEntity
8
1
62
256
6
ByLayer
370
13
48
1
60
0
100
AcDbSpline
70
4
71
3
72
8
73
4
40
0
40
0
40
0
40
0
40
1
40
1
40
1
40
1
41
1
10
113.58823812587
20
6.76399299843143
30
0
41
1
10
114.558825417247
20
4.51347483443973
30
0
41
1
10
115.529412708623
20
2.25880093785241
30
0
41
1
10
116.5
20
-2.84E-14
30
0
0
SPLINE
5
10D
100
AcDbEntity
8
1
62
256
6
ByLayer
370
13
48
1
60
0
100
AcDbSpline
70
4
71
3
72
8
73
4
40
0
40
0
40
0
40
0
40
1
40
1
40
1
40
1
41
1
10
113.58823812587
20
7.32833913226608
30
0
41
1
10
114.558825417247
20
4.88867369804757
30
0
41
1
10
115.529412708623
20
2.44588362751935
30
0
41
1
10
116.5
20
-2.84E-14
30
0
0
SPLINE
5
10E
100
AcDbEntity
8
1
62
256
6
ByLayer
370
13
48
1
60
0
100
AcDbSpline
70
4
71
3
72
8
73
4
40
0
40
0
40
0
40
0
40
1
40
1
40
1
40
1
41
1
10
113.58823812587
20
-6.50872347007896
30
0
41
1
10
114.558825417247
20
-4.33463428632459
30
0
41
1
10
115.529412708623
20
-2.1650506054705
30
0
41
1
10
116.5
20
1.421E-13
30
0
0
SPLINE
5
10F
100
AcDbEntity
8
1
62
256
6
ByLayer
370
13
48
1
60
0
100
AcDbSpline
70
4
71
3
72
8
73
4
40
0
40
0
40
0
40
0
40
1
40
1
40
1
40
1
41
1
10
113.588238125871
20
-4.07660746558298
30
0
41
1
10
114.558825417247
20
-2.72441925630915
30
0
41
1
10
115.529412708623
20
-1.36554433118934
30
0
41
1
10
116.5
20
-2.274E-13
30
0
0
SPLINE
5
110
100
AcDbEntity
8
1
62
256
6
ByLayer
370
13
48
1
60
0
100
AcDbSpline
70
4
71
3
72
8
73
4
40
0
40
0
40
0
40
0
40
1
40
1
40
1
40
1
41
1
10
113.58823812587
20
-7.9298729608995
30
0
41
1
10
114.558825417247
20
-5.2876078230949
30
0
41
1
10
115.529412708623
20
-2.64430562930428
30
0
41
1
10
116.5
20
-4.263E-13
30
0
0
SPLINE
5
111
100
AcDbEntity
8
1
62
256
6
ByLayer
370
13
48
1
60
0
100
AcDbSpline
70
4
71
3
72
8
73
4
40
0
40
0
40
0
40
0
40
1
40
1
40
1
40
1
41
1
10
113.58823812587
20
-7.68154297552863
30
0
41
1
10
114.558825417247
20
-5.12319762468763
30
0
41
1
10
115.529412708624
20
-2.56267244197639
30
0
41
1
10
116.5
20
7.674E-13
30
0
0
SPLINE
5
112
100
AcDbEntity
8
1
62
256
6
ByLayer
370
13
48
1
60
0
100
AcDbSpline
70
4
71
3
72
8
73
4
40
0
40
0
40
0
40
0
40
1
40
1
40
1
40
1
41
1
10
113.58823812587
20
4.22029942650329
30
0
41
1
10
114.558825417247
20
2.82012930907192
30
0
41
1
10
115.529412708623
20
1.41335686071963
30
0
41
1
10
116.5
20
0
30
0
0
SPLINE
5
113
100
AcDbEntity
8
1
62
256
6
ByLayer
370
13
48
1
60
0
100
AcDbSpline
70
4
71
3
72
8
73
4
40
0
40
0
40
0
40
0
40
1
40
1
40
1
40
1
41
1
10
113.58823812587
20
-7.1329247544505
30
0
41
1
10
114.558825417247
20
-4.7517673674578
30
0
41
1
10
115.529412708623
20
-2.37411570836872
30
0
41
1
10
116.5
20
1.705E-13
30
0
0
SPLINE
5
114
100
AcDbEntity
8
1
62
256
6
ByLayer
370
13
48
1
60
0
100
AcDbSpline
70
4
71
3
72
8
73
4
40
0
40
0
40
0
40
0
40
1
40
1
40
1
40
1
41
1
10
113.588238125871
20
-1.56818565591357
30
0
41
1
10
114.558825417247
20
-1.03784304653019
30
0
41
1
10
115.529412708623
20
-0.515112289379971
30
0
41
1
10
116.5
20
-2.84E-14
30
0
0
SPLINE
5
115
100
AcDbEntity
8
1
62
256
6
ByLayer
370
13
48
1
60
0
100
AcDbSpline
70
4
71
3
72
8
73
4
40
0
40
0
40
0
40
0
40
1
40
1
40
1
40
1
41
1
10
113.588238125871
20
-2.72740091931251
30
0
41
1
10
114.558825417247
20
-1.81096776074469
30
0
41
1
10
115.529412708623
20
-0.901830277311348
30
0
41
1
10
116.5
20
-5.68E-14
30
0
0
SPLINE
5
116
100
AcDbEntity
8
1
62
256
6
ByLayer
370
13
48
1
60
0
100
AcDbSpline
70
4
71
3
72
8
73
4
40
0
40
0
40
0
40
0
40
1
40
1
40
1
40
1
41
1
10
113.588238125871
20
2.88477795551051
30
0
41
1
10
114.558825417247
20
1.91594300163894
30
0
41
1
10
115.529412708623
20
0.954346283675847
30
0
41
1
10
116.5
20
1.705E-13
30
0
0
SPLINE
5
117
100
AcDbEntity
8
1
62
256
6
ByLayer
370
13
48
1
60
0
100
AcDbSpline
70
4
71
3
72
8
73
4
40
0
40
0
40
0
40
0
40
1
40
1
40
1
40
1
41
1
10
113.588238125871
20
3.15287952403486
30
0
41
1
10
114.558825417247
20
2.1090559319843
30
0
41
1
10
115.529412708623
20
1.05809162535209
30
0
41
1
10
116.5
20
5.68E-14
30
0
0
SPLINE
5
118
100
AcDbEntity
8
1
62
256
6
ByLayer
370
13
48
1
60
0
100
AcDbSpline
70
4
71
3
72
8
73
4
40
0
40
0
40
0
40
0
40
1
40
1
40
1
40
1
41
1
10
113.588238125871
20
7.2074411645267
30
0
41
1
10
114.558825417247
20
4.80159117573555
30
0
41
1
10
115.529412708623
20
2.39910060778527
30
0
41
1
10
116.5
20
3.979E-13
30
0
0
SPLINE
5
119
100
AcDbEntity
8
1
62
256
6
ByLayer
370
13
48
1
60
0
100
AcDbSpline
70
4
71
3
72
8
73
4
40
0
40
0
40
0
40
0
40
1
40
1
40
1
40
1
41
1
10
113.588238125871
20
7.6467277133315
30
0
41
1
10
114.558825417247
20
5.09553655170348
30
0
41
1
10
115.529412708623
20
2.54661651187709
30
0
41
1
10
116.5
20
4.263E-13
30
0
0
SPLINE
5
11A
100
AcDbEntity
8
1
62
256
6
ByLayer
370
13
48
1
60
0
100
AcDbSpline
70
4
71
3
72
8
73
4
40
0
40
0
40
0
40
0
40
1
40
1
40
1
40
1
41
1
10
113.58823812587
20
-7.25932186260656
30
0
41
1
10
114.558825417247
20
-4.84281090770094
30
0
41
1
10
115.529412708623
20
-2.42302669104117
30
0
41
1
10
116.5
20
1.705E-13
30
0
0
SPLINE
5
11B
100
AcDbEntity
8
1
62
256
6
ByLayer
370
13
48
1
60
0
100
AcDbSpline
70
4
71
3
72
8
73
4
40
0
40
0
40
0
40
0
40
1
40
1
40
1
40
1
41
1
10
113.58823812587
20
7.95032506338398
30
0
41
1
10
114.558825417247
20
5.30108065777176
30
0
41
1
10
115.529412708623
20
2.65096106781493
30
0
41
1
10
116.5
20
0
30
0
0
SPLINE
5
11C
100
AcDbEntity
8
1
62
256
6
ByLayer
370
13
48
1
60
0
100
AcDbSpline
70
4
71
3
72
8
73
4
40
0
40
0
40
0
40
0
40
1
40
1
40
1
40
1
41
1
10
113.58823812587
20
7.72678979967591
30
0
41
1
10
114.558825417247
20
5.15320508452331
30
0
41
1
10
115.529412708623
20
2.57759756338211
30
0
41
1
10
116.5
20
-2.84E-14
30
0
0
SPLINE
5
11D
100
AcDbEntity
8
1
62
256
6
ByLayer
370
13
48
1
60
0
100
AcDbSpline
70
4
71
3
72
8
73
4
40
0
40
0
40
0
40
0
40
1
40
1
40
1
40
1
41
1
10
113.588238125871
20
-1.85100827828384
30
0
41
1
10
114.558825417247
20
-1.24155951739797
30
0
41
1
10
115.529412708623
20
-0.624554131712756
30
0
41
1
10
116.5
20
-1.137E-13
30
0
0
SPLINE
5
11E
100
AcDbEntity
8
1
62
256
6
ByLayer
370
13
48
1
60
0
100
AcDbSpline
70
4
71
3
72
8
73
4
40
0
40
0
40
0
40
0
40
1
40
1
40
1
40
1
41
1
10
113.58823812587
20
-3.82487457394183
30
0
41
1
10
114.558825417247
20
-2.54309664549137
30
0
41
1
10
115.529412708623
20
-1.26813305904244
30
0
41
1
10
116.5
20
8.53E-14
30
0
0
SPLINE
5
11F
100
AcDbEntity
8
1
62
256
6
ByLayer
370
13
48
1
60
0
100
AcDbSpline
70
4
71
3
72
8
73
4
40
0
40
0
40
0
40
0
40
1
40
1
40
1
40
1
41
1
10
113.588238125871
20
3.97162584847726
30
0
41
1
10
114.558825417247
20
2.64101031466851
30
0
41
1
10
115.529412708623
20
1.31712942922738
30
0
41
1
10
116.5
20
2.274E-13
30
0
0
SPLINE
5
120
100
AcDbEntity
8
1
62
256
6
ByLayer
370
13
48
1
60
0
100
AcDbSpline
70
4
71
3
72
8
73
4
40
0
40
0
40
0
40
0
40
1
40
1
40
1
40
1
41
1
10
113.58823812587
20
-7.59565427042335
30
0
41
1
10
114.558825417247
20
-5.06133219205424
30
0
41
1
10
115.529412708624
20
-2.52943670558616
30
0
41
1
10
116.5
20
7.674E-13
30
0
0
SPLINE
5
121
100
AcDbEntity
8
1
62
256
6
ByLayer
370
13
48
1
60
0
100
AcDbSpline
70
4
71
3
72
8
73
4
40
0
40
0
40
0
40
0
40
1
40
1
40
1
40
1
41
1
10
113.58823812587
20
-7.88643696662561
30
0
41
1
10
114.558825417247
20
-5.25632097840028
30
0
41
1
10
115.529412708624
20
-2.62749751403655
30
0
41
1
10
116.5
20
7.958E-13
30
0
0
SPLINE
5
122
100
AcDbEntity
8
1
62
256
6
ByLayer
370
13
48
1
60
0
100
AcDbSpline
70
4
71
3
72
8
73
4
40
0
40
0
40
0
40
0
40
1
40
1
40
1
40
1
41
1
10
113.588238125871
20
7.91291126598247
30
0
41
1
10
114.558825417247
20
5.27413158734566
30
0
41
1
10
115.529412708623
20
2.63648331889272
30
0
41
1
10
116.5
20
4.263E-13
30
0
0
SPLINE
5
123
100
AcDbEntity
8
1
62
256
6
ByLayer
370
13
48
1
60
0
100
AcDbSpline
70
4
71
3
72
8
73
4
40
0
40
0
40
0
40
0
40
1
40
1
40
1
40
1
41
1
10
113.58823812587
20
-6.67276766348459
30
0
41
1
10
114.558825417247
20
-4.45279493368307
30
0
41
1
10
115.529412708624
20
-2.22852961079099
30
0
41
1
10
116.5
20
6.821E-13
30
0
0
SPLINE
5
124
100
AcDbEntity
8
1
62
256
6
ByLayer
370
13
48
1
60
0
100
AcDbSpline
70
4
71
3
72
8
73
4
40
0
40
0
40
0
40
0
40
1
40
1
40
1
40
1
41
1
10
113.588238125871
20
2.01408622989061
30
0
41
1
10
114.558825417247
20
1.3502387467517
30
0
41
1
10
115.529412708623
20
0.678873813481204
30
0
41
1
10
116.5
20
2.84E-14
30
0
0
LINE
5
7D
100
AcDbEntity
8
80
62
256
6
ByLayer
370
18
48
1
60
0
100
AcDbLine
10
0
20
0
30
0
11
-5
21
0
31
0
39
0
210
0
220
0
230
1
0
LINE
5
7E
100
AcDbEntity
8
4
62
256
6
ByLayer
370
18
48
0.05
60
0
100
AcDbLine
10
-5
20
0
30
0
11
121.5
21
0
31
0
39
0
210
0
220
0
230
1
0
LINE
5
80
100
AcDbEntity
8
81
62
256
6
ByLayer
370
18
48
1
60
0
100
AcDbLine
10
116.5
20
0
30
0
11
121.5
21
0
31
0
39
0
210
0
220
0
230
1
0
LINE
5
81
100
AcDbEntity
8
SK4
62
256
6
ByLayer
370
18
48
0.05
60
0
100
AcDbLine
10
-55
20
0
30
0
11
121.5
21
0
31
0
39
0
210
0
220
0
230
1
0
LINE
5
83
100
AcDbEntity
8
1
62
256
6
ByLayer
370
18
48
1
60
0
100
AcDbLine
10
0
20
10
30
0
11
0
21
-10
31
0
39
0
210
0
220
0
230
1
0
LINE
5
84
100
AcDbEntity
8
1
62
256
6
ByLayer
370
18
48
1
60
0
100
AcDbLine
10
113.588238
20
8
30
0
11
113.588238
21
7.745974
31
0
39
0
210
0
220
0
230
1
0
LINE
5
85
100
AcDbEntity
8
1
62
256
6
ByLayer
370
18
48
1
60
0
100
AcDbLine
10
113.588238
20
-8
30
0
11
113.588238
21
-1.143711
31
0
39
0
210
0
220
0
230
1
0
LINE
5
86
100
AcDbEntity
8
1
62
256
6
ByLayer
370
18
48
1
60
0
100
AcDbLine
10
10
20
-3.059024
30
0
11
10
21
7.633849
31
0
39
0
210
0
220
0
230
1
0
LINE
5
87
100
AcDbEntity
8
SK1
62
256
6
ByLayer
370
13
48
1
60
0
100
AcDbLine
10
-14.992177
20
-6.1943
30
0
11
-14.992177
21
6.1943
31
0
39
0
210
0
220
0
230
1
0
LINE
5
89
100
AcDbEntity
8
SK1
62
256
6
ByLayer
370
13
48
1
60
0
100
AcDbLine
10
-42.24218
20
4.745825
30
0
11
-42.24218
21
-4.745825
31
0
39
0
210
0
220
0
230
1
0
LINE
5
8A
100
AcDbEntity
8
SK1
62
256
6
ByLayer
370
13
48
1
60
0
100
AcDbLine
10
-13.845141
20
5.608199
30
0
11
-13.845141
21
-5.608199
31
0
39
0
210
0
220
0
230
1
0
LINE
5
8B
100
AcDbEntity
8
SK1
62
256
6
ByLayer
370
18
48
1
60
0
100
AcDbLine
10
0
20
10
30
0
11
0
21
-10
31
0
39
0
210
0
220
0
230
1
0
LINE
5
8C
100
AcDbEntity
8
SK1
62
256
6
ByLayer
370
13
48
1
60
0
100
AcDbLine
10
-43.356507
20
-3.65035
30
0
11
-43.356507
21
3.65035
31
0
39
0
210
0
220
0
230
1
0
LINE
5
8D
100
AcDbEntity
8
SK1
62
256
6
ByLayer
370
18
48
1
60
0
100
AcDbLine
10
-50
20
-9
30
0
11
-50
21
9
31
0
39
0
210
0
220
0
230
1
0
LINE
5
8E
100
AcDbEntity
8
SK1
62
256
6
ByLayer
370
18
48
1
60
0
100
AcDbLine
10
-49
20
-10
30
0
11
-49
21
10
31
0
39
0
210
0
220
0
230
1
0
LINE
5
8F
100
AcDbEntity
8
1
62
256
6
ByLayer
370
18
48
1
60
0
100
AcDbLine
10
39.286577
20
-7.7
30
0
11
75.604245
21
-7.7
31
0
39
0
210
0
220
0
230
1
0
LINE
5
90
100
AcDbEntity
8
1
62
256
6
ByLayer
370
18
48
1
60
0
100
AcDbLine
10
75.604245
20
7.7
30
0
11
39.286577
21
7.7
31
0
39
0
210
0
220
0
230
1
0
LINE
5
91
100
AcDbEntity
8
1
62
256
6
ByLayer
370
18
48
1
60
0
100
AcDbLine
10
116.5
20
0
30
0
11
113.588238
21
8
31
0
39
0
210
0
220
0
230
1
0
LINE
5
92
100
AcDbEntity
8
1
62
256
6
ByLayer
370
18
48
1
60
0
100
AcDbLine
10
113.588238
20
-8
30
0
11
116.5
21
0
31
0
39
0
210
0
220
0
230
1
0
LINE
5
93
100
AcDbEntity
8
1
62
256
6
ByLayer
370
18
48
1
60
0
100
AcDbLine
10
8.001097
20
8.159748
30
0
11
0
21
10
31
0
39
0
210
0
220
0
230
1
0
LINE
5
94
100
AcDbEntity
8
1
62
256
6
ByLayer
370
18
48
1
60
0
100
AcDbLine
10
0
20
-10
30
0
11
8.001097
21
-8.159748
31
0
39
0
210
0
220
0
230
1
0
LINE
5
95
100
AcDbEntity
8
1
62
256
6
ByLayer
370
18
48
1
60
0
100
AcDbLine
10
116.5
20
0
30
0
11
113.588238
21
8
31
0
39
0
210
0
220
0
230
1
0
LINE
5
96
100
AcDbEntity
8
1
62
256
6
ByLayer
370
18
48
1
60
0
100
AcDbLine
10
113.588238
20
-8
30
0
11
116.5
21
0
31
0
39
0
210
0
220
0
230
1
0
LINE
5
97
100
AcDbEntity
8
1
62
256
6
ByLayer
370
18
48
1
60
0
100
AcDbLine
10
104.9
20
-8
30
0
11
113.588238
21
-8
31
0
39
0
210
0
220
0
230
1
0
LINE
5
98
100
AcDbEntity
8
SK1
62
256
6
ByLayer
370
18
48
1
60
0
100
AcDbLine
10
-49
20
-10
30
0
11
0
21
-10
31
0
39
0
210
0
220
0
230
1
0
LINE
5
99
100
AcDbEntity
8
SK1
62
256
6
ByLayer
370
18
48
1
60
0
100
AcDbLine
10
0
20
10
30
0
11
-49
21
10
31
0
39
0
210
0
220
0
230
1
0
LINE
5
9A
100
AcDbEntity
8
SK1
62
256
6
ByLayer
370
18
48
1
60
0
100
AcDbLine
10
-50
20
-9
30
0
11
-49
21
-10
31
0
39
0
210
0
220
0
230
1
0
LINE
5
9B
100
AcDbEntity
8
SK1
62
256
6
ByLayer
370
18
48
1
60
0
100
AcDbLine
10
-49
20
10
30
0
11
-50
21
9
31
0
39
0
210
0
220
0
230
1
0
LINE
5
9C
100
AcDbEntity
8
1
62
256
6
ByLayer
370
18
48
1
60
0
100
AcDbLine
10
113.588238
20
8
30
0
11
113.588238
21
-8
31
0
39
0
210
0
220
0
230
1
0
LINE
5
9D
100
AcDbEntity
8
1
62
256
6
ByLayer
370
18
48
1
60
0
100
AcDbLine
10
113.588238
20
8
30
0
11
113.588238
21
-8
31
0
39
0
210
0
220
0
230
1
0
LINE
5
9E
100
AcDbEntity
8
1
62
256
6
ByLayer
370
18
48
1
60
0
100
AcDbLine
10
113.588238
20
8
30
0
11
113.588238
21
-8
31
0
39
0
210
0
220
0
230
1
0
LINE
5
9F
100
AcDbEntity
8
1
62
256
6
ByLayer
370
18
48
1
60
0
100
AcDbLine
10
104.9
20
8
30
0
11
104.9
21
-8
31
0
39
0
210
0
220
0
230
1
0
LINE
5
A0
100
AcDbEntity
8
1
62
256
6
ByLayer
370
18
48
1
60
0
100
AcDbLine
10
104.9
20
8
30
0
11
104.9
21
-8
31
0
39
0
210
0
220
0
230
1
0
LINE
5
A1
100
AcDbEntity
8
1
62
256
6
ByLayer
370
18
48
1
60
0
100
AcDbLine
10
113.588238
20
8
30
0
11
113.588238
21
-8
31
0
39
0
210
0
220
0
230
1
0
LINE
5
A2
100
AcDbEntity
8
1
62
256
6
ByLayer
370
18
48
1
60
0
100
AcDbLine
10
104.9
20
8
30
0
11
104.9
21
-8
31
0
39
0
210
0
220
0
230
1
0
LINE
5
A3
100
AcDbEntity
8
1
62
256
6
ByLayer
370
18
48
1
60
0
100
AcDbLine
10
113.588238
20
8
30
0
11
113.588238
21
-8
31
0
39
0
210
0
220
0
230
1
0
LINE
5
A4
100
AcDbEntity
8
SK2
62
256
6
ByLayer
370
13
48
1
60
0
100
AcDbLine
10
-56.5
20
-10
30
0
11
-56.5
21
39.024569
31
0
39
0
210
0
220
0
230
1
0
LINE
5
A6
100
AcDbEntity
8
SK2
62
256
6
ByLayer
370
13
48
1
60
0
100
AcDbLine
10
-51.5875
20
10
30
0
11
-58.5
21
10
31
0
39
0
210
0
220
0
230
1
0
LINE
5
A7
100
AcDbEntity
8
SK2
62
256
6
ByLayer
370
13
48
1
60
0
100
AcDbLine
10
-51.5875
20
-10
30
0
11
-58.5
21
-10
31
0
39
0
210
0
220
0
230
1
0
LINE
5
A8
100
AcDbEntity
8
1
62
256
6
ByLayer
370
18
48
1
60
1
100
AcDbLine
10
-56.5
20
10
30
0
11
-56.039216
21
6.500002
31
0
39
0
210
0
220
0
230
1
0
LINE
5
A9
100
AcDbEntity
8
1
62
256
6
ByLayer
370
18
48
1
60
1
100
AcDbLine
10
-56.039216
20
6.500002
30
0
11
-56.960784
21
6.499998
31
0
39
0
210
0
220
0
230
1
0
LINE
5
AA
100
AcDbEntity
8
1
62
256
6
ByLayer
370
18
48
1
60
1
100
AcDbLine
10
-56.960784
20
6.499998
30
0
11
-56.5
21
10
31
0
39
0
210
0
220
0
230
1
0
LINE
5
AB
100
AcDbEntity
8
1
62
256
6
ByLayer
370
18
48
1
60
1
100
AcDbLine
10
-56.5
20
-10
30
0
11
-56.960784
21
-6.500002
31
0
39
0
210
0
220
0
230
1
0
LINE
5
AC
100
AcDbEntity
8
1
62
256
6
ByLayer
370
18
48
1
60
1
100
AcDbLine
10
-56.960784
20
-6.500002
30
0
11
-56.039216
21
-6.499998
31
0
39
0
210
0
220
0
230
1
0
LINE
5
AD
100
AcDbEntity
8
1
62
256
6
ByLayer
370
18
48
1
60
1
100
AcDbLine
10
-56.039216
20
-6.499998
30
0
11
-56.5
21
-10
31
0
39
0
210
0
220
0
230
1
0
LINE
5
AE
100
AcDbEntity
8
2
62
256
6
ByLayer
370
13
48
1
60
0
100
AcDbLine
10
124
20
-8
30
0
11
124
21
36.274683
31
0
39
0
210
0
220
0
230
1
0
LINE
5
B0
100
AcDbEntity
8
2
62
256
6
ByLayer
370
13
48
1
60
0
100
AcDbLine
10
115.175738
20
8
30
0
11
126
21
8
31
0
39
0
210
0
220
0
230
1
0
LINE
5
B1
100
AcDbEntity
8
2
62
256
6
ByLayer
370
13
48
1
60
0
100
AcDbLine
10
115.175738
20
-8
30
0
11
126
21
-8
31
0
39
0
210
0
220
0
230
1
0
LINE
5
B2
100
AcDbEntity
8
1
62
256
6
ByLayer
370
18
48
1
60
1
100
AcDbLine
10
124
20
8
30
0
11
124.460784
21
4.500002
31
0
39
0
210
0
220
0
230
1
0
LINE
5
B3
100
AcDbEntity
8
1
62
256
6
ByLayer
370
18
48
1
60
1
100
AcDbLine
10
124.460784
20
4.500002
30
0
11
123.539216
21
4.499998
31
0
39
0
210
0
220
0
230
1
0
LINE
5
B4
100
AcDbEntity
8
1
62
256
6
ByLayer
370
18
48
1
60
1
100
AcDbLine
10
123.539216
20
4.499998
30
0
11
124
21
8
31
0
39
0
210
0
220
0
230
1
0
LINE
5
B5
100
AcDbEntity
8
1
62
256
6
ByLayer
370
18
48
1
60
1
100
AcDbLine
10
124
20
-8
30
0
11
123.539216
21
-4.500002
31
0
39
0
210
0
220
0
230
1
0
LINE
5
B6
100
AcDbEntity
8
1
62
256
6
ByLayer
370
18
48
1
60
1
100
AcDbLine
10
123.539216
20
-4.500002
30
0
11
124.460784
21
-4.499998
31
0
39
0
210
0
220
0
230
1
0
LINE
5
B7
100
AcDbEntity
8
1
62
256
6
ByLayer
370
18
48
1
60
1
100
AcDbLine
10
124.460784
20
-4.499998
30
0
11
124
21
-8
31
0
39
0
210
0
220
0
230
1
0
LINE
5
B8
100
AcDbEntity
8
SK2
62
256
6
ByLayer
370
13
48
1
60
0
100
AcDbLine
10
117.042957
20
-1.491762
30
0
11
123.682423
21
-19.733545
31
0
39
0
210
0
220
0
230
1
0
LINE
5
B9
100
AcDbEntity
8
SK2
62
256
6
ByLayer
370
13
48
1
60
0
100
AcDbLine
10
117.042957
20
1.491762
30
0
11
123.682423
21
19.733545
31
0
39
0
210
0
220
0
230
1
0
LINE
5
BA
100
AcDbEntity
8
1
62
256
6
ByLayer
370
18
48
1
60
1
100
AcDbLine
10
122.998383
20
-17.85416
30
0
11
126.051575
21
-16.082064
31
0
39
0
210
0
220
0
230
1
0
LINE
5
BB
100
AcDbEntity
8
1
62
256
6
ByLayer
370
18
48
1
60
1
100
AcDbLine
10
126.051575
20
-16.082064
30
0
11
126.406196
21
-16.93267
31
0
39
0
210
0
220
0
230
1
0
LINE
5
BC
100
AcDbEntity
8
1
62
256
6
ByLayer
370
18
48
1
60
1
100
AcDbLine
10
126.406196
20
-16.93267
30
0
11
122.998383
21
-17.85416
31
0
39
0
210
0
220
0
230
1
0
LINE
5
BD
100
AcDbEntity
8
1
62
256
6
ByLayer
370
18
48
1
60
1
100
AcDbLine
10
122.998383
20
17.85416
30
0
11
126.406193
21
16.932671
31
0
39
0
210
0
220
0
230
1
0
LINE
5
BE
100
AcDbEntity
8
1
62
256
6
ByLayer
370
18
48
1
60
1
100
AcDbLine
10
126.406193
20
16.932671
30
0
11
126.051579
21
16.082063
31
0
39
0
210
0
220
0
230
1
0
LINE
5
BF
100
AcDbEntity
8
1
62
256
6
ByLayer
370
18
48
1
60
1
100
AcDbLine
10
126.051579
20
16.082063
30
0
11
122.998383
21
17.85416
31
0
39
0
210
0
220
0
230
1
0
LINE
5
129
100
AcDbEntity
8
1
62
256
6
ByLayer
370
18
48
1
60
1
100
AcDbLine
10
-56.5
20
10
30
0
11
-56.039216
21
6.500002
31
0
39
0
210
0
220
0
230
1
0
LINE
5
12A
100
AcDbEntity
8
1
62
256
6
ByLayer
370
18
48
1
60
1
100
AcDbLine
10
-56.039216
20
6.500002
30
0
11
-56.960784
21
6.499998
31
0
39
0
210
0
220
0
230
1
0
LINE
5
12B
100
AcDbEntity
8
1
62
256
6
ByLayer
370
18
48
1
60
1
100
AcDbLine
10
-56.960784
20
6.499998
30
0
11
-56.5
21
10
31
0
39
0
210
0
220
0
230
1
0
LINE
5
12D
100
AcDbEntity
8
1
62
256
6
ByLayer
370
18
48
1
60
1
100
AcDbLine
10
-56.5
20
-10
30
0
11
-56.960784
21
-6.500002
31
0
39
0
210
0
220
0
230
1
0
LINE
5
12E
100
AcDbEntity
8
1
62
256
6
ByLayer
370
18
48
1
60
1
100
AcDbLine
10
-56.960784
20
-6.500002
30
0
11
-56.039216
21
-6.499998
31
0
39
0
210
0
220
0
230
1
0
LINE
5
12F
100
AcDbEntity
8
1
62
256
6
ByLayer
370
18
48
1
60
1
100
AcDbLine
10
-56.039216
20
-6.499998
30
0
11
-56.5
21
-10
31
0
39
0
210
0
220
0
230
1
0
LINE
5
133
100
AcDbEntity
8
1
62
256
6
ByLayer
370
18
48
1
60
1
100
AcDbLine
10
124
20
8
30
0
11
124.460784
21
4.500002
31
0
39
0
210
0
220
0
230
1
0
LINE
5
134
100
AcDbEntity
8
1
62
256
6
ByLayer
370
18
48
1
60
1
100
AcDbLine
10
124.460784
20
4.500002
30
0
11
123.539216
21
4.499998
31
0
39
0
210
0
220
0
230
1
0
LINE
5
135
100
AcDbEntity
8
1
62
256
6
ByLayer
370
18
48
1
60
1
100
AcDbLine
10
123.539216
20
4.499998
30
0
11
124
21
8
31
0
39
0
210
0
220
0
230
1
0
LINE
5
137
100
AcDbEntity
8
1
62
256
6
ByLayer
370
18
48
1
60
1
100
AcDbLine
10
124
20
-8
30
0
11
123.539216
21
-4.500002
31
0
39
0
210
0
220
0
230
1
0
LINE
5
138
100
AcDbEntity
8
1
62
256
6
ByLayer
370
18
48
1
60
1
100
AcDbLine
10
123.539216
20
-4.500002
30
0
11
124.460784
21
-4.499998
31
0
39
0
210
0
220
0
230
1
0
LINE
5
139
100
AcDbEntity
8
1
62
256
6
ByLayer
370
18
48
1
60
1
100
AcDbLine
10
124.460784
20
-4.499998
30
0
11
124
21
-8
31
0
39
0
210
0
220
0
230
1
0
LINE
5
13C
100
AcDbEntity
8
1
62
256
6
ByLayer
370
18
48
1
60
1
100
AcDbLine
10
122.998383
20
-17.85416
30
0
11
126.051575
21
-16.082064
31
0
39
0
210
0
220
0
230
1
0
LINE
5
13D
100
AcDbEntity
8
1
62
256
6
ByLayer
370
18
48
1
60
1
100
AcDbLine
10
126.051575
20
-16.082064
30
0
11
126.406196
21
-16.93267
31
0
39
0
210
0
220
0
230
1
0
LINE
5
13E
100
AcDbEntity
8
1
62
256
6
ByLayer
370
18
48
1
60
1
100
AcDbLine
10
126.406196
20
-16.93267
30
0
11
122.998383
21
-17.85416
31
0
39
0
210
0
220
0
230
1
0
LINE
5
140
100
AcDbEntity
8
1
62
256
6
ByLayer
370
18
48
1
60
1
100
AcDbLine
10
122.998383
20
17.85416
30
0
11
126.406193
21
16.932671
31
0
39
0
210
0
220
0
230
1
0
LINE
5
141
100
AcDbEntity
8
1
62
256
6
ByLayer
370
18
48
1
60
1
100
AcDbLine
10
126.406193
20
16.932671
30
0
11
126.051579
21
16.082063
31
0
39
0
210
0
220
0
230
1
0
LINE
5
142
100
AcDbEntity
8
1
62
256
6
ByLayer
370
18
48
1
60
1
100
AcDbLine
10
126.051579
20
16.082063
30
0
11
122.998383
21
17.85416
31
0
39
0
210
0
220
0
230
1
0
MTEXT
5
125
100
AcDbEntity
8
SK2
62
256
6
ByLayer
370
18
48
1
60
0
100
AcDbMText
10
-57.841114
20
21.658438
30
0
210
0
220
0
230
1
1
%%c
40
3
41
0
44
1.084337
50
90
71
7
72
5
7
iso_b_vert
0
MTEXT
5
128
100
AcDbEntity
8
SK2
62
256
6
ByLayer
370
18
48
1
60
0
100
AcDbMText
10
-57.841114
20
27.635
30
0
210
0
220
0
230
1
1
\W0.7513;20.000
40
3
41
0
44
1.084337
50
90
71
7
72
5
7
iso_b_vert
0
MTEXT
5
131
100
AcDbEntity
8
2
62
256
6
ByLayer
370
18
48
1
60
0
100
AcDbMText
10
122.658886
20
19.658438
30
0
210
0
220
0
230
1
1
%%c
40
3
41
0
44
1.084337
50
90
71
7
72
5
7
iso_b_vert
0
MTEXT
5
132
100
AcDbEntity
8
2
62
256
6
ByLayer
370
18
48
1
60
0
100
AcDbMText
10
122.658886
20
25.635
30
0
210
0
220
0
230
1
1
\W0.7022;16.000
40
3
41
0
44
1.084337
50
90
71
7
72
5
7
iso_b_vert
0
MTEXT
5
13B
100
AcDbEntity
8
SK2
62
256
6
ByLayer
370
18
48
1
60
0
100
AcDbMText
10
136.409114
20
3.734657
30
0
210
0
220
0
230
1
1
\W0.7071;140%%d
40
3
41
0
44
1.084337
50
270
71
7
72
5
7
iso_b_vert
0
MTEXT
5
144
100
AcDbEntity
8
SK6
62
256
6
ByLayer
370
18
48
1
60
0
100
AcDbMText
10
9.712746
20
-67.114886
30
0
210
0
220
0
230
1
1
\W0.7358;H85516.0
40
3
41
0
44
1.084337
50
0
71
7
72
5
7
iso_b_vert
0
HATCH
5
12C
100
AcDbEntity
8
SK2
62
256
6
ByLayer
370
13
48
1
60
0
100
AcDbHatch
10
0
20
0
30
0
210
0
220
0
230
1
2
ANSI31
70
0
71
0
91
1
92
5
93
3
72
1
10
-56.5
20
10
11
-56.0392162584472
21
6.50000169255318
72
1
10
-56.0392162584472
20
6.50000169255318
11
-56.9607837415528
21
6.49999830744682
72
1
10
-56.9607837415528
20
6.49999830744682
11
-56.5
21
10
97
0
75
0
76
1
52
0
41
0.0062
77
0
78
1
53
45
43
0
44
0
45
-0.0139193969876572
46
0.0139193969876572
79
0
47
0
98
1
10
0
20
0
0
HATCH
5
130
100
AcDbEntity
8
SK2
62
256
6
ByLayer
370
13
48
1
60
0
100
AcDbHatch
10
0
20
0
30
0
210
0
220
0
230
1
2
ANSI31
70
0
71
0
91
1
92
5
93
3
72
1
10
-56.5
20
-10
11
-56.9607837415528
21
-6.50000169255318
72
1
10
-56.9607837415528
20
-6.50000169255318
11
-56.0392162584472
21
-6.49999830744682
72
1
10
-56.0392162584472
20
-6.49999830744682
11
-56.5
21
-10
97
0
75
0
76
1
52
0
41
0.0062
77
0
78
1
53
45
43
0
44
0
45
-0.0139193969876572
46
0.0139193969876572
79
0
47
0
98
1
10
0
20
0
0
HATCH
5
136
100
AcDbEntity
8
2
62
256
6
ByLayer
370
13
48
1
60
0
100
AcDbHatch
10
0
20
0
30
0
210
0
220
0
230
1
2
ANSI31
70
0
71
0
91
1
92
5
93
3
72
1
10
124
20
8
11
124.460783741553
21
4.50000169255318
72
1
10
124.460783741553
20
4.50000169255318
11
123.539216258447
21
4.49999830744682
72
1
10
123.539216258447
20
4.49999830744682
11
124
21
8
97
0
75
0
76
1
52
0
41
0.0062
77
0
78
1
53
45
43
0
44
0
45
-0.0139193969876572
46
0.0139193969876572
79
0
47
0
98
1
10
0
20
0
0
HATCH
5
13A
100
AcDbEntity
8
2
62
256
6
ByLayer
370
13
48
1
60
0
100
AcDbHatch
10
0
20
0
30
0
210
0
220
0
230
1
2
ANSI31
70
0
71
0
91
1
92
5
93
3
72
1
10
124
20
-8
11
123.539216258447
21
-4.50000169255318
72
1
10
123.539216258447
20
-4.50000169255318
11
124.460783741553
21
-4.49999830744682
72
1
10
124.460783741553
20
-4.49999830744682
11
124
21
-8
97
0
75
0
76
1
52
0
41
0.0062
77
0
78
1
53
45
43
0
44
0
45
-0.0139193969876572
46
0.0139193969876572
79
0
47
0
98
1
10
0
20
0
0
HATCH
5
13F
100
AcDbEntity
8
SK2
62
256
6
ByLayer
370
13
48
1
60
0
100
AcDbHatch
10
0
20
0
30
0
210
0
220
0
230
1
2
ANSI31
70
0
71
0
91
1
92
5
93
3
72
1
10
122.998382723188
20
-17.8541597949322
11
126.051575425693
21
-16.0820638240608
72
1
10
126.051575425693
20
-16.0820638240608
11
126.406195833975
21
-16.9326700737196
72
1
10
126.406195833975
20
-16.9326700737196
11
122.998382723188
21
-17.8541597949322
97
0
75
0
76
1
52
0
41
0.0062
77
0
78
1
53
45
43
0
44
0
45
-0.0139193969876572
46
0.0139193969876572
79
0
47
0
98
1
10
0
20
0
0
HATCH
5
143
100
AcDbEntity
8
SK2
62
256
6
ByLayer
370
13
48
1
60
0
100
AcDbHatch
10
0
20
0
30
0
210
0
220
0
230
1
2
ANSI31
70
0
71
0
91
1
92
5
93
3
72
1
10
122.998382723188
20
17.8541597949322
11
126.406192709519
21
16.9326713763016
72
1
10
126.406192709519
20
16.9326713763016
11
126.051578550149
21
16.0820625214787
72
1
10
126.051578550149
20
16.0820625214787
11
122.998382723188
21
17.8541597949322
97
0
75
0
76
1
52
0
41
0.0062
77
0
78
1
53
45
43
0
44
0
45
-0.0139193969876572
46
0.0139193969876572
79
0
47
0
98
1
10
0
20
0
0
DIMENSION
5
147
100
AcDbEntity
8
SK2
62
256
6
ByLayer
370
18
48
1
60
0
100
AcDbDimension
2
_U0
10
116.5
20
-45.952229
30
0
11
33.25
21
-45.952229
31
0
70
32
71
1
72
1
41
1
210
0
220
0
230
1
3
Standard
100
AcDbAlignedDimension
13
-50
23
-10
33
0
14
116.5
24
0
34
0
50
0
100
AcDbRotatedDimension
1001
ACAD
1000
DSTYLE
1002
{
1070
   371
1070
    13
1070
   372
1070
    13
1070
     3
1000

1070
   170
1070
     0
1070
   144
1040
1.0
1070
   277
1070
     2
1070
   284
1070
     8
1070
   278
1070
    46
1070
   146
1040
1.166667
1070
   345
1005
16
1070
   347
1005
16
1070
   346
1005
16
1070
   344
1005
0
1070
   343
1005
0
1070
   172
1070
     1
1070
    76
1070
     0
1070
    75
1070
     0
1070
   282
1070
     0
1070
   281
1070
     0
1070
    71
1070
     0
1070
    74
1070
     0
1070
   279
1070
     0
1070
   173
1070
     1
1070
   340
1005
126
1070
   271
1070
     2
1070
   272
1070
     3
1070
    77
1070
     1
1070
    73
1070
     1
1070
   171
1070
     3
1070
   274
1070
     4
1070
   177
1070
     2
1070
   176
1070
     2
1070
   178
1070
     2
1070
    78
1070
     8
1070
    48
1040
-0.1
1070
    41
1040
3.5
1070
   147
1040
1.5
1070
    42
1040
1.5875
1070
    44
1040
2.0
1070
   140
1040
3.0
1002
}
1001
ACAD_DSTYLE_DIM_LINETYPE
1070
   380
1005
16
1001
ACAD_DSTYLE_DIM_EXT1_LINETYPE
1070
   381
1005
16
1001
ACAD_DSTYLE_DIM_EXT2_LINETYPE
1070
   382
1005
16
0
DIMENSION
5
160
100
AcDbEntity
8
SK2
62
256
6
ByLayer
370
18
48
1
60
0
100
AcDbDimension
2
_U1
10
3
20
-35.952229
30
0
11
59.75
21
-35.952229
31
0
70
32
71
1
72
1
41
1
210
0
220
0
230
1
3
Standard
100
AcDbAlignedDimension
13
116.5
23
0
33
0
14
3
24
-8
34
0
50
0
100
AcDbRotatedDimension
1001
ACAD
1000
DSTYLE
1002
{
1070
   371
1070
    13
1070
   372
1070
    13
1070
     3
1000

1070
   170
1070
     0
1070
   144
1040
1.0
1070
   277
1070
     2
1070
   284
1070
     8
1070
   278
1070
    46
1070
   146
1040
1.166667
1070
   345
1005
16
1070
   347
1005
16
1070
   346
1005
16
1070
   344
1005
0
1070
   343
1005
0
1070
   172
1070
     1
1070
    76
1070
     0
1070
    75
1070
     0
1070
   282
1070
     0
1070
   281
1070
     0
1070
    71
1070
     0
1070
    74
1070
     0
1070
   279
1070
     0
1070
   173
1070
     1
1070
   340
1005
126
1070
   271
1070
     2
1070
   272
1070
     3
1070
    77
1070
     1
1070
    73
1070
     1
1070
   171
1070
     3
1070
   274
1070
     4
1070
   177
1070
     2
1070
   176
1070
     2
1070
   178
1070
     2
1070
    78
1070
     8
1070
    48
1040
-0.1
1070
    41
1040
3.5
1070
   147
1040
1.5
1070
    42
1040
1.5875
1070
    44
1040
2.0
1070
   140
1040
3.0
1002
}
1001
ACAD_DSTYLE_DIM_LINETYPE
1070
   380
1005
16
1001
ACAD_DSTYLE_DIM_EXT1_LINETYPE
1070
   381
1005
16
1001
ACAD_DSTYLE_DIM_EXT2_LINETYPE
1070
   382
1005
16
0
DIMENSION
5
178
100
AcDbEntity
8
SK2
62
256
6
ByLayer
370
18
48
1
60
0
100
AcDbDimension
2
_U2
10
0
20
-35.952229
30
0
11
-25
21
-35.952229
31
0
70
32
71
1
72
1
41
1
210
0
220
0
230
1
3
Standard
100
AcDbAlignedDimension
13
-50
23
-10
33
0
14
0
24
-10
34
0
50
0
100
AcDbRotatedDimension
1001
ACAD
1000
DSTYLE
1002
{
1070
   371
1070
    13
1070
   372
1070
    13
1070
     3
1000

1070
   170
1070
     0
1070
   144
1040
1.0
1070
   277
1070
     2
1070
   284
1070
     8
1070
   278
1070
    46
1070
   146
1040
1.166667
1070
   345
1005
16
1070
   347
1005
16
1070
   346
1005
16
1070
   344
1005
0
1070
   343
1005
0
1070
   172
1070
     1
1070
    76
1070
     0
1070
    75
1070
     0
1070
   282
1070
     0
1070
   281
1070
     0
1070
    71
1070
     0
1070
    74
1070
     0
1070
   279
1070
     0
1070
   173
1070
     1
1070
   340
1005
126
1070
   271
1070
     2
1070
   272
1070
     3
1070
    77
1070
     1
1070
    73
1070
     1
1070
   171
1070
     3
1070
   274
1070
     4
1070
   177
1070
     2
1070
   176
1070
     2
1070
   178
1070
     2
1070
    78
1070
     8
1070
    48
1040
-0.1
1070
    41
1040
3.5
1070
   147
1040
1.5
1070
    42
1040
1.5875
1070
    44
1040
2.0
1070
   140
1040
3.0
1002
}
1001
ACAD_DSTYLE_DIM_LINETYPE
1070
   380
1005
16
1001
ACAD_DSTYLE_DIM_EXT1_LINETYPE
1070
   381
1005
16
1001
ACAD_DSTYLE_DIM_EXT2_LINETYPE
1070
   382
1005
16
0
DIMENSION
5
190
100
AcDbEntity
8
SK2
62
256
6
ByLayer
370
18
48
1
60
0
100
AcDbDimension
2
_U3
10
24
20
32.952229
30
0
11
70.25
21
32.952229
31
0
70
32
71
1
72
1
41
1
210
0
220
0
230
1
3
Standard
100
AcDbAlignedDimension
13
116.5
23
0
33
0
14
24
24
8
34
0
50
0
100
AcDbRotatedDimension
1001
ACAD
1000
DSTYLE
1002
{
1070
   371
1070
    13
1070
   372
1070
    13
1070
     3
1000

1070
   170
1070
     0
1070
   144
1040
1.0
1070
   277
1070
     2
1070
   284
1070
     8
1070
   278
1070
    46
1070
   146
1040
1.166667
1070
   345
1005
16
1070
   347
1005
16
1070
   346
1005
16
1070
   344
1005
0
1070
   343
1005
0
1070
   172
1070
     1
1070
    76
1070
     0
1070
    75
1070
     0
1070
   282
1070
     0
1070
   281
1070
     0
1070
    71
1070
     0
1070
    74
1070
     0
1070
   279
1070
     0
1070
   173
1070
     1
1070
   340
1005
126
1070
   271
1070
     2
1070
   272
1070
     3
1070
    77
1070
     1
1070
    73
1070
     1
1070
   171
1070
     3
1070
   274
1070
     4
1070
   177
1070
     2
1070
   176
1070
     2
1070
   178
1070
     2
1070
    78
1070
     8
1070
    48
1040
-0.1
1070
    41
1040
3.5
1070
   147
1040
1.5
1070
    42
1040
1.5875
1070
    44
1040
2.0
1070
   140
1040
3.0
1002
}
1001
ACAD_DSTYLE_DIM_LINETYPE
1070
   380
1005
16
1001
ACAD_DSTYLE_DIM_EXT1_LINETYPE
1070
   381
1005
16
1001
ACAD_DSTYLE_DIM_EXT2_LINETYPE
1070
   382
1005
16
0
ENDSEC
0
SECTION
2
OBJECTS
0
DICTIONARY
5
218
330
0
100
AcDbDictionary
280
0
281
1
3
ACAD_GROUP
350
219
3
ACAD_MLINESTYLE
350
21a
0
DICTIONARY
5
219
330
0
100
AcDbDictionary
280
0
281
1
0
DICTIONARY
5
21a
330
0
100
AcDbDictionary
280
0
281
1
3
Standard
350
18
0
MLINESTYLE
5
18
330
21a
100
AcDbMlineStyle
2
Standard
70
0
3

62
256
51
90
52
90
71
2
49
-0.5
62
256
6
ByLayer
49
0.5
62
256
6
ByLayer
0
RASTERVARIABLES
5
206
330

100
AcDbRasterVariables
90
0
70
1
71
1
72
1
0
ENDSEC
0
EOF
