0
SECTION
2
HEADER
9
$ACADVER
1
AC1015
9
$DWGCODEPAGE
3
ANSI_1252
9
$HANDSEED
5
21c
9
$ANGBASE
50
0
9
$ANGDIR
70
0
9
$ATTMODE
70
1
9
$AUNITS
70
0
9
$AUPREC
70
0
9
$CECOLOR
62
256
9
$CELTSCALE
40
1
9
$CELTYPE
6
ByLayer
9
$CELWEIGHT
370
18
9
$CLAYER
8
0
9
$CMLJUST
70
0
9
$CMLSCALE
40
1
9
$CMLSTYLE
2
Standard
9
$DIMSTYLE
2
Standard
9
$TEXTSIZE
40
0.2
9
$TEXTSTYLE
7
Standard
9
$LUNITS
70
2
9
$LUPREC
70
4
9
$EXTNAMES
290
1
9
$INSUNITS
70
4
9
$LTSCALE
40
1
9
$LWDISPLAY
290
1
9
$PDMODE
70
0
9
$PDSIZE
40
0
9
$PLINEGEN
70
0
0
ENDSEC
0
SECTION
2
CLASSES
0
CLASS
1
RASTERVARIABLES
2
AcDbRasterVariables
3
ISM
90
0
280
0
281
0
0
ENDSEC
0
SECTION
2
TABLES
0
TABLE
2
VPORT
5
212
100
AcDbSymbolTable
0
VPORT
5
1
100
AcDbSymbolTableRecord
100
AcDbViewportTableRecord
2
*Active
70
0
10
0
20
0
11
1
21
1
12
-1
22
1
13
0
23
0
14
0.5
24
0.5
15
10
25
10
16
0
26
0
36
1
17
0
27
0
37
0
0
ENDTAB
0
TABLE
2
LTYPE
5
213
100
AcDbSymbolTable
0
LTYPE
5
14
100
AcDbSymbolTableRecord
100
AcDbLinetypeTableRecord
70
0
2
ByBlock
3

72
65
73
0
40
0
0
LTYPE
5
15
100
AcDbSymbolTableRecord
100
AcDbLinetypeTableRecord
70
0
2
ByLayer
3

72
65
73
0
40
0
0
LTYPE
5
16
100
AcDbSymbolTableRecord
100
AcDbLinetypeTableRecord
70
0
2
Continuous
3
Solid line
72
65
73
0
40
0
0
LTYPE
5
6E
100
AcDbSymbolTableRecord
100
AcDbLinetypeTableRecord
70
0
2
CENTER
3
____ _ ____ _ ____ _ ____
72
65
73
4
40
47.5
49
22
74
0
49
-8.5
74
0
49
8.5
74
0
49
-8.5
74
0
0
LTYPE
5
6F
100
AcDbSymbolTableRecord
100
AcDbLinetypeTableRecord
70
0
2
DASHED
3
__ __ __ __ __ __ __ __ __
72
65
73
2
40
25.72
49
12.86
74
0
49
-12.86
74
0
0
ENDTAB
0
TABLE
2
LAYER
5
214
100
AcDbSymbolTable
0
LAYER
5
10
100
AcDbSymbolTableRecord
100
AcDbLayerTableRecord
2
0
70
0
62
7
6
Continuous
290
1
370
-3
390
0
0
LAYER
5
71
100
AcDbSymbolTableRecord
100
AcDbLayerTableRecord
2
81
70
0
62
-3
6
Continuous
290
1
370
-3
390
0
0
LAYER
5
73
100
AcDbSymbolTableRecord
100
AcDbLayerTableRecord
2
80
70
0
62
-6
6
Continuous
290
1
370
-3
390
0
0
LAYER
5
75
100
AcDbSymbolTableRecord
100
AcDbLayerTableRecord
2
1
70
0
62
4
6
Continuous
290
1
370
-3
390
0
0
LAYER
5
7F
100
AcDbSymbolTableRecord
100
AcDbLayerTableRecord
2
4
70
0
62
-2
6
CENTER
290
1
370
-3
390
0
0
LAYER
5
AF
100
AcDbSymbolTableRecord
100
AcDbLayerTableRecord
2
2
70
0
62
7
6
Continuous
290
1
370
-3
390
0
0
LAYER
5
141
100
AcDbSymbolTableRecord
100
AcDbLayerTableRecord
2
Defpoints
70
0
62
7
6
Continuous
290
0
370
-3
390
0
0
LAYER
5
1fe
100
AcDbSymbolTableRecord
100
AcDbLayerTableRecord
2
SK4
70
0
62
2
6
CENTER
290
1
370
-3
390
0
0
LAYER
5
1ff
100
AcDbSymbolTableRecord
100
AcDbLayerTableRecord
2
SK1
70
0
62
4
6
Continuous
290
1
370
-3
390
0
0
LAYER
5
200
100
AcDbSymbolTableRecord
100
AcDbLayerTableRecord
2
SK2
70
0
62
7
6
Continuous
290
1
370
-3
390
0
0
LAYER
5
201
100
AcDbSymbolTableRecord
100
AcDbLayerTableRecord
2
SK6
70
0
62
5
6
Continuous
290
1
370
-3
390
0
0
ENDTAB
0
TABLE
2
STYLE
5
215
100
AcDbSymbolTable
0
STYLE
5
11
100
AcDbSymbolTableRecord
100
AcDbTextStyleTableRecord
2
Standard
3
txt
70
0
71
0
40
0
41
1
42
0
50
0
0
STYLE
5
11D
100
AcDbSymbolTableRecord
100
AcDbTextStyleTableRecord
2
iso_b_vert
3
simplex.shx
70
0
71
0
40
0
41
1
42
0
50
0
0
STYLE
5
11E
100
AcDbSymbolTableRecord
100
AcDbTextStyleTableRecord
2
DWGDirectTextStyle
3
simplex
70
0
71
0
40
0
41
1
42
0
50
0
0
ENDTAB
0
TABLE
2
DIMSTYLE
5
216
100
AcDbSymbolTable
100
AcDbDimStyleTable
0
DIMSTYLE
105
27
100
AcDbSymbolTableRecord
100
AcDbDimStyleTableRecord
2
Standard
70
0
3
<>
41
0.18
42
0.0625
44
0.18
140
0.18
147
0.09
73
0
74
0
77
1
271
2
275
0
278
52
280
0
340
11
0
ENDTAB
0
TABLE
2
VIEW
5
217
100
AcDbSymbolTable
0
ENDTAB
0
TABLE
2
UCS
5
218
100
AcDbSymbolTable
0
ENDTAB
0
TABLE
2
APPID
5
219
100
AcDbSymbolTable
0
APPID
5
12
100
AcDbSymbolTableRecord
100
AcDbRegAppTableRecord
2
ACAD
70
0
0
APPID
5
13D
100
AcDbSymbolTableRecord
100
AcDbRegAppTableRecord
2
ACAD_DSTYLE_DIMBREAK
70
0
0
APPID
5
1BD
100
AcDbSymbolTableRecord
100
AcDbRegAppTableRecord
2
ACAD_DSTYLE_DIM_LINETYPE
70
0
0
APPID
5
1BE
100
AcDbSymbolTableRecord
100
AcDbRegAppTableRecord
2
ACAD_DSTYLE_DIM_EXT1_LINETYPE
70
0
0
APPID
5
1BF
100
AcDbSymbolTableRecord
100
AcDbRegAppTableRecord
2
ACAD_DSTYLE_DIM_EXT2_LINETYPE
70
0
0
APPID
5
1FA
100
AcDbSymbolTableRecord
100
AcDbRegAppTableRecord
2
ACAD_MLEADERVER
70
0
0
ENDTAB
0
TABLE
2
BLOCK_RECORD
5
21a
100
AcDbSymbolTable
0
BLOCK_RECORD
5
1F
100
AcDbSymbolTableRecord
100
AcDbBlockTableRecord
2
*Model_Space
340
0
70
0
0
BLOCK_RECORD
5
1B
100
AcDbSymbolTableRecord
100
AcDbBlockTableRecord
2
*Paper_Space
340
0
70
0
0
BLOCK_RECORD
5
23
100
AcDbSymbolTableRecord
100
AcDbBlockTableRecord
2
*Paper_Space0
340
0
70
0
0
BLOCK_RECORD
5
142
100
AcDbSymbolTableRecord
100
AcDbBlockTableRecord
2
*D1
340
0
70
0
0
BLOCK_RECORD
5
14E
100
AcDbSymbolTableRecord
100
AcDbBlockTableRecord
2
_U0
340
0
70
0
0
BLOCK_RECORD
5
15A
100
AcDbSymbolTableRecord
100
AcDbBlockTableRecord
2
*D3
340
0
70
0
0
BLOCK_RECORD
5
166
100
AcDbSymbolTableRecord
100
AcDbBlockTableRecord
2
_U1
340
0
70
0
0
BLOCK_RECORD
5
172
100
AcDbSymbolTableRecord
100
AcDbBlockTableRecord
2
*D5
340
0
70
0
0
BLOCK_RECORD
5
17E
100
AcDbSymbolTableRecord
100
AcDbBlockTableRecord
2
_U2
340
0
70
0
0
BLOCK_RECORD
5
18A
100
AcDbSymbolTableRecord
100
AcDbBlockTableRecord
2
*D7
340
0
70
0
0
BLOCK_RECORD
5
196
100
AcDbSymbolTableRecord
100
AcDbBlockTableRecord
2
_U3
340
0
70
0
0
ENDTAB
0
ENDSEC
0
SECTION
2
BLOCKS
0
BLOCK
5
20
100
AcDbEntity
8
0
100
AcDbBlockBegin
2
*Model_Space
70
0
10
0
20
0
30
0
3
*Model_Space
0
ENDBLK
5
21
100
AcDbEntity
8
0
100
AcDbBlockEnd
0
BLOCK
5
1C
100
AcDbEntity
8
0
100
AcDbBlockBegin
2
*Paper_Space
70
0
10
0
20
0
30
0
3
*Paper_Space
0
ENDBLK
5
1D
100
AcDbEntity
8
0
100
AcDbBlockEnd
0
BLOCK
5
24
100
AcDbEntity
8
0
100
AcDbBlockBegin
2
*Paper_Space0
70
0
10
0
20
0
30
0
3
*Paper_Space0
0
ENDBLK
5
25
100
AcDbEntity
8
0
100
AcDbBlockEnd
0
BLOCK
5
143
100
AcDbEntity
8
0
100
AcDbBlockBegin
2
*D1
70
1
10
0
20
0
30
0
3
*D1
0
LINE
5
145
100
AcDbEntity
8
0
62
256
6
ByLayer
370
-2
48
1
60
0
100
AcDbLine
10
-48
20
-9.5875
30
0
11
-48
21
-47.952229
31
0
39
0
210
0
220
0
230
1
0
LINE
5
146
100
AcDbEntity
8
0
62
256
6
ByLayer
370
-2
48
1
60
0
100
AcDbLine
10
98.5
20
-1.5875
30
0
11
98.5
21
-47.952229
31
0
39
0
210
0
220
0
230
1
0
LINE
5
147
100
AcDbEntity
8
0
62
256
6
ByLayer
370
-2
48
1
60
0
100
AcDbLine
10
-44.5
20
-45.952229
30
0
11
95
21
-45.952229
31
0
39
0
210
0
220
0
230
1
0
SOLID
5
148
100
AcDbEntity
8
0
62
256
6
ByLayer
370
-1
48
1
60
0
100
AcDbTrace
10
-44.5
20
-45.368896
30
0
11
-44.5
21
-46.535563
31
0
12
-48
22
-45.952229
32
0
13
-48
23
-45.952229
33
0
39
0
210
0
220
0
230
1
0
SOLID
5
149
100
AcDbEntity
8
0
62
256
6
ByLayer
370
-1
48
1
60
0
100
AcDbTrace
10
95
20
-46.535563
30
0
11
95
21
-45.368896
31
0
12
98.5
22
-45.952229
32
0
13
98.5
23
-45.952229
33
0
39
0
210
0
220
0
230
1
0
MTEXT
5
14A
100
AcDbEntity
8
0
62
256
6
ByLayer
370
18
48
1
60
0
100
AcDbMText
10
25.25
20
-39.952229
30
0
210
0
220
0
230
1
1
\A1;146.5
40
3
41
0
44
1
50
0
71
5
72
5
7
iso_b_vert
0
POINT
5
14B
100
AcDbEntity
8
Defpoints
62
0
6
ByLayer
370
-1
48
1
60
0
100
AcDbPoint
10
-48
20
-8
30
0
39
0
210
0
220
0
230
1
50
360
0
POINT
5
14C
100
AcDbEntity
8
Defpoints
62
0
6
ByLayer
370
-1
48
1
60
0
100
AcDbPoint
10
98.5
20
0
30
0
39
0
210
0
220
0
230
1
50
360
0
POINT
5
14D
100
AcDbEntity
8
Defpoints
62
0
6
ByLayer
370
-1
48
1
60
0
100
AcDbPoint
10
98.5
20
-45.952229
30
0
39
0
210
0
220
0
230
1
50
360
0
ENDBLK
5
144
100
AcDbEntity
8
0
100
AcDbBlockEnd
0
BLOCK
5
155
100
AcDbEntity
8
0
100
AcDbBlockBegin
2
_U0
70
0
10
0
20
0
30
0
3
_U0
0
MTEXT
5
14F
100
AcDbEntity
8
SK2
62
256
6
ByLayer
370
18
48
1
60
0
100
AcDbMText
10
19.863715
20
-45.067115
30
0
210
0
220
0
230
1
1
\W0.7237;146.50
40
3
41
0
44
1.084337
50
0
71
7
72
5
7
iso_b_vert
0
LINE
5
150
100
AcDbEntity
8
SK2
62
256
6
ByLayer
370
13
48
1
60
0
100
AcDbLine
10
-48
20
-9.5875
30
0
11
-48
21
-47.952229
31
0
39
0
210
0
220
0
230
1
0
LINE
5
151
100
AcDbEntity
8
SK2
62
256
6
ByLayer
370
13
48
1
60
0
100
AcDbLine
10
98.5
20
-1.5875
30
0
11
98.5
21
-47.952229
31
0
39
0
210
0
220
0
230
1
0
LINE
5
152
100
AcDbEntity
8
SK2
62
256
6
ByLayer
370
13
48
1
60
0
100
AcDbLine
10
-48
20
-45.952229
30
0
11
98.5
21
-45.952229
31
0
39
0
210
0
220
0
230
1
0
SOLID
5
153
100
AcDbEntity
8
SK2
62
256
6
ByLayer
370
18
48
1
60
0
100
AcDbTrace
10
-48
20
-45.952229
30
0
11
-44.500002
21
-45.491446
31
0
12
-44.499998
22
-46.413013
32
0
13
-44.499998
23
-46.413013
33
0
39
0
210
0
220
0
230
1
0
SOLID
5
154
100
AcDbEntity
8
SK2
62
256
6
ByLayer
370
18
48
1
60
0
100
AcDbTrace
10
98.5
20
-45.952229
30
0
11
95.000002
21
-46.413013
31
0
12
94.999998
22
-45.491446
32
0
13
94.999998
23
-45.491446
33
0
39
0
210
0
220
0
230
1
0
ENDBLK
5
156
100
AcDbEntity
8
0
100
AcDbBlockEnd
0
BLOCK
5
15B
100
AcDbEntity
8
0
100
AcDbBlockBegin
2
*D3
70
1
10
0
20
0
30
0
3
*D3
0
LINE
5
15D
100
AcDbEntity
8
0
62
256
6
ByLayer
370
-2
48
1
60
0
100
AcDbLine
10
98.5
20
-1.5875
30
0
11
98.5
21
-37.952229
31
0
39
0
210
0
220
0
230
1
0
LINE
5
15E
100
AcDbEntity
8
0
62
256
6
ByLayer
370
-2
48
1
60
0
100
AcDbLine
10
3
20
-8.5875
30
0
11
3
21
-37.952229
31
0
39
0
210
0
220
0
230
1
0
LINE
5
15F
100
AcDbEntity
8
0
62
256
6
ByLayer
370
-2
48
1
60
0
100
AcDbLine
10
95
20
-35.952229
30
0
11
6.5
21
-35.952229
31
0
39
0
210
0
220
0
230
1
0
SOLID
5
160
100
AcDbEntity
8
0
62
256
6
ByLayer
370
-1
48
1
60
0
100
AcDbTrace
10
95
20
-36.535563
30
0
11
95
21
-35.368896
31
0
12
98.5
22
-35.952229
32
0
13
98.5
23
-35.952229
33
0
39
0
210
0
220
0
230
1
0
SOLID
5
161
100
AcDbEntity
8
0
62
256
6
ByLayer
370
-1
48
1
60
0
100
AcDbTrace
10
6.5
20
-35.368896
30
0
11
6.5
21
-36.535563
31
0
12
3
22
-35.952229
32
0
13
3
23
-35.952229
33
0
39
0
210
0
220
0
230
1
0
MTEXT
5
162
100
AcDbEntity
8
0
62
256
6
ByLayer
370
18
48
1
60
0
100
AcDbMText
10
50.75
20
-29.952229
30
0
210
0
220
0
230
1
1
\A1;95.5
40
3
41
0
44
1
50
0
71
5
72
5
7
iso_b_vert
0
POINT
5
163
100
AcDbEntity
8
Defpoints
62
0
6
ByLayer
370
-1
48
1
60
0
100
AcDbPoint
10
98.5
20
0
30
0
39
0
210
0
220
0
230
1
50
360
0
POINT
5
164
100
AcDbEntity
8
Defpoints
62
0
6
ByLayer
370
-1
48
1
60
0
100
AcDbPoint
10
3
20
-7
30
0
39
0
210
0
220
0
230
1
50
360
0
POINT
5
165
100
AcDbEntity
8
Defpoints
62
0
6
ByLayer
370
-1
48
1
60
0
100
AcDbPoint
10
3
20
-35.952229
30
0
39
0
210
0
220
0
230
1
50
360
0
ENDBLK
5
15C
100
AcDbEntity
8
0
100
AcDbBlockEnd
0
BLOCK
5
16D
100
AcDbEntity
8
0
100
AcDbBlockBegin
2
_U1
70
0
10
0
20
0
30
0
3
_U1
0
MTEXT
5
167
100
AcDbEntity
8
SK2
62
256
6
ByLayer
370
18
48
1
60
0
100
AcDbMText
10
46.26763
20
-35.067115
30
0
210
0
220
0
230
1
1
\W0.7468;95.50
40
3
41
0
44
1.084337
50
0
71
7
72
5
7
iso_b_vert
0
LINE
5
168
100
AcDbEntity
8
SK2
62
256
6
ByLayer
370
13
48
1
60
0
100
AcDbLine
10
98.5
20
-1.5875
30
0
11
98.5
21
-37.952229
31
0
39
0
210
0
220
0
230
1
0
LINE
5
169
100
AcDbEntity
8
SK2
62
256
6
ByLayer
370
13
48
1
60
0
100
AcDbLine
10
3
20
-8.5875
30
0
11
3
21
-37.952229
31
0
39
0
210
0
220
0
230
1
0
LINE
5
16A
100
AcDbEntity
8
SK2
62
256
6
ByLayer
370
13
48
1
60
0
100
AcDbLine
10
98.5
20
-35.952229
30
0
11
3
21
-35.952229
31
0
39
0
210
0
220
0
230
1
0
SOLID
5
16B
100
AcDbEntity
8
SK2
62
256
6
ByLayer
370
18
48
1
60
0
100
AcDbTrace
10
98.5
20
-35.952229
30
0
11
95.000002
21
-36.413013
31
0
12
94.999998
22
-35.491446
32
0
13
94.999998
23
-35.491446
33
0
39
0
210
0
220
0
230
1
0
SOLID
5
16C
100
AcDbEntity
8
SK2
62
256
6
ByLayer
370
18
48
1
60
0
100
AcDbTrace
10
3
20
-35.952229
30
0
11
6.499998
21
-35.491446
31
0
12
6.500002
22
-36.413013
32
0
13
6.500002
23
-36.413013
33
0
39
0
210
0
220
0
230
1
0
ENDBLK
5
16E
100
AcDbEntity
8
0
100
AcDbBlockEnd
0
BLOCK
5
173
100
AcDbEntity
8
0
100
AcDbBlockBegin
2
*D5
70
1
10
0
20
0
30
0
3
*D5
0
LINE
5
175
100
AcDbEntity
8
0
62
256
6
ByLayer
370
-2
48
1
60
0
100
AcDbLine
10
-48
20
-9.5875
30
0
11
-48
21
-37.952229
31
0
39
0
210
0
220
0
230
1
0
LINE
5
176
100
AcDbEntity
8
0
62
256
6
ByLayer
370
-2
48
1
60
0
100
AcDbLine
10
0
20
-9.5875
30
0
11
0
21
-37.952229
31
0
39
0
210
0
220
0
230
1
0
LINE
5
177
100
AcDbEntity
8
0
62
256
6
ByLayer
370
-2
48
1
60
0
100
AcDbLine
10
-44.5
20
-35.952229
30
0
11
-3.5
21
-35.952229
31
0
39
0
210
0
220
0
230
1
0
SOLID
5
178
100
AcDbEntity
8
0
62
256
6
ByLayer
370
-1
48
1
60
0
100
AcDbTrace
10
-44.5
20
-35.368896
30
0
11
-44.5
21
-36.535563
31
0
12
-48
22
-35.952229
32
0
13
-48
23
-35.952229
33
0
39
0
210
0
220
0
230
1
0
SOLID
5
179
100
AcDbEntity
8
0
62
256
6
ByLayer
370
-1
48
1
60
0
100
AcDbTrace
10
-3.5
20
-36.535563
30
0
11
-3.5
21
-35.368896
31
0
12
0
22
-35.952229
32
0
13
0
23
-35.952229
33
0
39
0
210
0
220
0
230
1
0
MTEXT
5
17A
100
AcDbEntity
8
0
62
256
6
ByLayer
370
18
48
1
60
0
100
AcDbMText
10
-24
20
-29.952229
30
0
210
0
220
0
230
1
1
\A1;48
40
3
41
0
44
1
50
0
71
5
72
5
7
iso_b_vert
0
POINT
5
17B
100
AcDbEntity
8
Defpoints
62
0
6
ByLayer
370
-1
48
1
60
0
100
AcDbPoint
10
-48
20
-8
30
0
39
0
210
0
220
0
230
1
50
360
0
POINT
5
17C
100
AcDbEntity
8
Defpoints
62
0
6
ByLayer
370
-1
48
1
60
0
100
AcDbPoint
10
0
20
-8
30
0
39
0
210
0
220
0
230
1
50
360
0
POINT
5
17D
100
AcDbEntity
8
Defpoints
62
0
6
ByLayer
370
-1
48
1
60
0
100
AcDbPoint
10
0
20
-35.952229
30
0
39
0
210
0
220
0
230
1
50
360
0
ENDBLK
5
174
100
AcDbEntity
8
0
100
AcDbBlockEnd
0
BLOCK
5
185
100
AcDbEntity
8
0
100
AcDbBlockBegin
2
_U2
70
0
10
0
20
0
30
0
3
_U2
0
MTEXT
5
17F
100
AcDbEntity
8
SK2
62
256
6
ByLayer
370
18
48
1
60
0
100
AcDbMText
10
-28.640313
20
-35.067115
30
0
210
0
220
0
230
1
1
\W0.7694;48.00
40
3
41
0
44
1.084337
50
0
71
7
72
5
7
iso_b_vert
0
LINE
5
180
100
AcDbEntity
8
SK2
62
256
6
ByLayer
370
13
48
1
60
0
100
AcDbLine
10
-48
20
-9.5875
30
0
11
-48
21
-37.952229
31
0
39
0
210
0
220
0
230
1
0
LINE
5
181
100
AcDbEntity
8
SK2
62
256
6
ByLayer
370
13
48
1
60
0
100
AcDbLine
10
0
20
-9.5875
30
0
11
0
21
-37.952229
31
0
39
0
210
0
220
0
230
1
0
LINE
5
182
100
AcDbEntity
8
SK2
62
256
6
ByLayer
370
13
48
1
60
0
100
AcDbLine
10
-48
20
-35.952229
30
0
11
0
21
-35.952229
31
0
39
0
210
0
220
0
230
1
0
SOLID
5
183
100
AcDbEntity
8
SK2
62
256
6
ByLayer
370
18
48
1
60
0
100
AcDbTrace
10
-48
20
-35.952229
30
0
11
-44.500002
21
-35.491446
31
0
12
-44.499998
22
-36.413013
32
0
13
-44.499998
23
-36.413013
33
0
39
0
210
0
220
0
230
1
0
SOLID
5
184
100
AcDbEntity
8
SK2
62
256
6
ByLayer
370
18
48
1
60
0
100
AcDbTrace
10
0
20
-35.952229
30
0
11
-3.499998
21
-36.413013
31
0
12
-3.500002
22
-35.491446
32
0
13
-3.500002
23
-35.491446
33
0
39
0
210
0
220
0
230
1
0
ENDBLK
5
186
100
AcDbEntity
8
0
100
AcDbBlockEnd
0
BLOCK
5
18B
100
AcDbEntity
8
0
100
AcDbBlockBegin
2
*D7
70
1
10
0
20
0
30
0
3
*D7
0
LINE
5
18D
100
AcDbEntity
8
0
62
256
6
ByLayer
370
-2
48
1
60
0
100
AcDbLine
10
98.5
20
1.5875
30
0
11
98.5
21
34.952229
31
0
39
0
210
0
220
0
230
1
0
LINE
5
18E
100
AcDbEntity
8
0
62
256
6
ByLayer
370
-2
48
1
60
0
100
AcDbLine
10
17
20
8.5875
30
0
11
17
21
34.952229
31
0
39
0
210
0
220
0
230
1
0
LINE
5
18F
100
AcDbEntity
8
0
62
256
6
ByLayer
370
-2
48
1
60
0
100
AcDbLine
10
95
20
32.952229
30
0
11
20.5
21
32.952229
31
0
39
0
210
0
220
0
230
1
0
SOLID
5
190
100
AcDbEntity
8
0
62
256
6
ByLayer
370
-1
48
1
60
0
100
AcDbTrace
10
95
20
32.368896
30
0
11
95
21
33.535563
31
0
12
98.5
22
32.952229
32
0
13
98.5
23
32.952229
33
0
39
0
210
0
220
0
230
1
0
SOLID
5
191
100
AcDbEntity
8
0
62
256
6
ByLayer
370
-1
48
1
60
0
100
AcDbTrace
10
20.5
20
33.535563
30
0
11
20.5
21
32.368896
31
0
12
17
22
32.952229
32
0
13
17
23
32.952229
33
0
39
0
210
0
220
0
230
1
0
MTEXT
5
192
100
AcDbEntity
8
0
62
256
6
ByLayer
370
18
48
1
60
0
100
AcDbMText
10
57.75
20
38.952229
30
0
210
0
220
0
230
1
1
\A1;81.5
40
3
41
0
44
1
50
0
71
5
72
5
7
iso_b_vert
0
POINT
5
193
100
AcDbEntity
8
Defpoints
62
0
6
ByLayer
370
-1
48
1
60
0
100
AcDbPoint
10
98.5
20
0
30
0
39
0
210
0
220
0
230
1
50
360
0
POINT
5
194
100
AcDbEntity
8
Defpoints
62
0
6
ByLayer
370
-1
48
1
60
0
100
AcDbPoint
10
17
20
7
30
0
39
0
210
0
220
0
230
1
50
360
0
POINT
5
195
100
AcDbEntity
8
Defpoints
62
0
6
ByLayer
370
-1
48
1
60
0
100
AcDbPoint
10
17
20
32.952229
30
0
39
0
210
0
220
0
230
1
50
360
0
ENDBLK
5
18C
100
AcDbEntity
8
0
100
AcDbBlockEnd
0
BLOCK
5
19D
100
AcDbEntity
8
0
100
AcDbBlockBegin
2
_U3
70
0
10
0
20
0
30
0
3
_U3
0
MTEXT
5
197
100
AcDbEntity
8
SK2
62
256
6
ByLayer
370
18
48
1
60
0
100
AcDbMText
10
53.642572
20
33.837344
30
0
210
0
220
0
230
1
1
\W0.6864;81.50
40
3
41
0
44
1.084337
50
0
71
7
72
5
7
iso_b_vert
0
LINE
5
198
100
AcDbEntity
8
SK2
62
256
6
ByLayer
370
13
48
1
60
0
100
AcDbLine
10
98.5
20
1.5875
30
0
11
98.5
21
34.952229
31
0
39
0
210
0
220
0
230
1
0
LINE
5
199
100
AcDbEntity
8
SK2
62
256
6
ByLayer
370
13
48
1
60
0
100
AcDbLine
10
17
20
8.5875
30
0
11
17
21
34.952229
31
0
39
0
210
0
220
0
230
1
0
LINE
5
19A
100
AcDbEntity
8
SK2
62
256
6
ByLayer
370
13
48
1
60
0
100
AcDbLine
10
98.5
20
32.952229
30
0
11
17
21
32.952229
31
0
39
0
210
0
220
0
230
1
0
SOLID
5
19B
100
AcDbEntity
8
SK2
62
256
6
ByLayer
370
18
48
1
60
0
100
AcDbTrace
10
98.5
20
32.952229
30
0
11
95.000002
21
32.491446
31
0
12
94.999998
22
33.413013
32
0
13
94.999998
23
33.413013
33
0
39
0
210
0
220
0
230
1
0
SOLID
5
19C
100
AcDbEntity
8
SK2
62
256
6
ByLayer
370
18
48
1
60
0
100
AcDbTrace
10
17
20
32.952229
30
0
11
20.499998
21
33.413013
31
0
12
20.500002
22
32.491446
32
0
13
20.500002
23
32.491446
33
0
39
0
210
0
220
0
230
1
0
ENDBLK
5
19E
100
AcDbEntity
8
0
100
AcDbBlockEnd
0
ENDSEC
0
SECTION
2
ENTITIES
0
ARC
5
C0
100
AcDbEntity
8
SK2
62
256
6
ByLayer
370
13
48
1
60
0
100
AcDbCircle
39
0
10
98.5
20
0
30
0
40
19
210
0
220
0
230
1
100
AcDbArc
50
290
51
70
0
ELLIPSE
5
C1
100
AcDbEntity
8
SK1
62
256
6
ByLayer
370
18
48
1
60
0
100
AcDbEllipse
10
153.54477
20
0
30
0
11
229.090026261202
21
-2.59581837845095E-13
31
0
210
0
220
0
230
1
40
0.034921
41
2.39723378988983
42
2.57876881051445
0
ELLIPSE
5
C2
100
AcDbEntity
8
SK1
62
256
6
ByLayer
370
18
48
1
60
0
100
AcDbEllipse
10
-20.57895
20
0
30
0
11
8.57894968019762
21
-9.72080522714331E-15
31
0
210
0
220
0
230
1
40
0.932515
41
-0.661405283579246
42
0.661405283579253
0
ELLIPSE
5
C3
100
AcDbEntity
8
SK1
62
256
6
ByLayer
370
18
48
1
60
0
100
AcDbEllipse
10
153.54477
20
0
30
0
11
229.090026264126
21
-2.59581837848408E-13
31
0
210
0
220
0
230
1
40
0.034921
41
-2.57876881051488
42
-2.39723378989224
0
ELLIPSE
5
C4
100
AcDbEntity
8
SK1
62
256
6
ByLayer
370
18
48
1
60
0
100
AcDbEllipse
10
-34.539879
20
0
30
0
11
-1.46952762458688E-15
21
-8.00000000000015
31
0
210
0
220
0
230
1
40
0.932515
41
-2.00016141679846
42
-1.14143123679134
0
POINT
5
70
100
AcDbEntity
8
81
62
256
6
ByLayer
370
18
48
1
60
0
100
AcDbPoint
10
98.5
20
0
30
0
39
0
210
0
220
0
230
1
50
360
0
POINT
5
72
100
AcDbEntity
8
80
62
256
6
ByLayer
370
18
48
1
60
0
100
AcDbPoint
10
0
20
0
30
0
39
0
210
0
220
0
230
1
50
360
0
POINT
5
74
100
AcDbEntity
8
1
62
256
6
ByLayer
370
18
48
1
60
1
100
AcDbPoint
10
-48
20
-8
30
0
39
0
210
0
220
0
230
1
50
360
0
POINT
5
76
100
AcDbEntity
8
1
62
256
6
ByLayer
370
18
48
1
60
1
100
AcDbPoint
10
98.5
20
0
30
0
39
0
210
0
220
0
230
1
50
360
0
POINT
5
77
100
AcDbEntity
8
1
62
256
6
ByLayer
370
18
48
1
60
1
100
AcDbPoint
10
98.5
20
0
30
0
39
0
210
0
220
0
230
1
50
360
0
POINT
5
78
100
AcDbEntity
8
1
62
256
6
ByLayer
370
18
48
1
60
1
100
AcDbPoint
10
3
20
-7
30
0
39
0
210
0
220
0
230
1
50
360
0
POINT
5
79
100
AcDbEntity
8
1
62
256
6
ByLayer
370
18
48
1
60
1
100
AcDbPoint
10
-48
20
-8
30
0
39
0
210
0
220
0
230
1
50
360
0
POINT
5
7A
100
AcDbEntity
8
1
62
256
6
ByLayer
370
18
48
1
60
1
100
AcDbPoint
10
0
20
-8
30
0
39
0
210
0
220
0
230
1
50
360
0
POINT
5
7B
100
AcDbEntity
8
1
62
256
6
ByLayer
370
18
48
1
60
1
100
AcDbPoint
10
98.5
20
0
30
0
39
0
210
0
220
0
230
1
50
360
0
POINT
5
7C
100
AcDbEntity
8
1
62
256
6
ByLayer
370
18
48
1
60
1
100
AcDbPoint
10
17
20
7
30
0
39
0
210
0
220
0
230
1
50
360
0
SPLINE
5
C5
100
AcDbEntity
8
1
62
256
6
ByLayer
370
18
48
1
60
0
100
AcDbSpline
70
4
71
3
72
14
73
10
40
0
40
0
40
0
40
0
40
0.25
40
0.25
40
0.5
40
0.5
40
0.75
40
0.75
40
1
40
1
40
1
40
1
41
1
10
12.3486833988207
20
5.7484449868906
30
0
41
1
10
12.1503456184721
20
5.78411278170506
30
0
41
1
10
11.9528577550109
20
5.81983937848767
30
0
41
1
10
11.5592430040193
20
5.890658604511
30
0
41
1
10
11.3631153074361
20
5.92575098918707
30
0
41
1
10
10.9719550465843
20
5.99471172659207
30
0
41
1
10
10.7769218698845
20
6.02858056914798
30
0
41
1
10
10.3877814137449
20
6.09466401835709
30
0
41
1
10
10.1936738100458
20
6.12687981171379
30
0
41
1
10
10
20
6.15812059914228
30
0
0
SPLINE
5
C6
100
AcDbEntity
8
1
62
256
6
ByLayer
370
18
48
1
60
0
100
AcDbSpline
70
4
71
3
72
21
73
17
40
0
40
0
40
0
40
0
40
0.0624999999999994
40
0.0624999999999994
40
0.124999999999999
40
0.249999999999988
40
0.249999999999988
40
0.499999999999967
40
0.499999999999967
40
0.562499999999966
40
0.562499999999966
40
0.624999999999966
40
0.624999999999966
40
0.749999999999974
40
0.749999999999974
40
1
40
1
40
1
40
1
41
1
10
95.9522083601119
20
-0.997939326007639
30
0
41
1
10
95.7905649782652
20
-0.939380046156913
30
0
41
1
10
95.6289553275579
20
-0.880771516180431
30
0
41
1
10
95.3057360399062
20
-0.763643563428531
30
0
41
1
10
94.8209364312534
20
-0.588003376922359
30
0
41
1
10
94.3362581590221
20
-0.412421254820913
30
0
41
1
10
93.3671196467971
20
-0.0611725281475799
30
0
41
1
10
92.7213109942875
20
0.173088762270567
30
0
41
1
10
91.9146923480254
20
0.466820311712581
30
0
41
1
10
91.7534073080884
20
0.525629839556245
30
0
41
1
10
91.4308674484108
20
0.643244370205736
30
0
41
1
10
91.269587430921
20
0.701979815635355
30
0
41
1
10
90.7855735578653
20
0.877575777910067
30
0
41
1
10
90.4627182770012
20
0.99397068994196
30
0
41
1
10
89.4936969342658
20
1.34138174455168
30
0
41
1
10
88.8470578987934
20
1.57057840908885
30
0
41
1
10
88.1999999999999
20
1.7979222651274
30
0
0
SPLINE
5
C7
100
AcDbEntity
8
1
62
256
6
ByLayer
370
18
48
1
60
0
100
AcDbSpline
70
4
71
3
72
81
73
77
40
0
40
0
40
0
40
0
40
0.0624999999999986
40
0.0624999999999986
40
0.124999999999997
40
0.124999999999997
40
0.140624999999997
40
0.140624999999997
40
0.156249999999997
40
0.156249999999997
40
0.187499999999996
40
0.187499999999996
40
0.249999999999997
40
0.249999999999997
40
0.281249999999999
40
0.281249999999999
40
0.296874999999998
40
0.296874999999998
40
0.312499999999998
40
0.312499999999998
40
0.343749999999996
40
0.343749999999996
40
0.374999999999993
40
0.374999999999993
40
0.406249999999991
40
0.406249999999991
40
0.437499999999988
40
0.437499999999988
40
0.453124999999987
40
0.453124999999987
40
0.468749999999985
40
0.468749999999985
40
0.499999999999983
40
0.499999999999983
40
0.53124999999998
40
0.53124999999998
40
0.53906249999998
40
0.53906249999998
40
0.546874999999979
40
0.562499999999977
40
0.562499999999977
40
0.593749999999974
40
0.593749999999974
40
0.624999999999971
40
0.624999999999971
40
0.64062499999997
40
0.64062499999997
40
0.656249999999969
40
0.656249999999969
40
0.687499999999968
40
0.687499999999968
40
0.718749999999967
40
0.718749999999967
40
0.726562499999966
40
0.726562499999966
40
0.734374999999966
40
0.734374999999966
40
0.749999999999968
40
0.749999999999968
40
0.78124999999997
40
0.78124999999997
40
0.812499999999973
40
0.843749999999976
40
0.843749999999976
40
0.851562499999978
40
0.851562499999978
40
0.85937499999998
40
0.874999999999981
40
0.874999999999981
40
0.906249999999986
40
0.93749999999999
40
0.968749999999995
40
0.968749999999995
40
0.984374999999997
40
0.984374999999997
40
1
40
1
40
1
40
1
41
1
10
95.9522083601053
20
6.77771771418784
30
0
41
1
10
96.0396504631652
20
6.56090557904867
30
0
41
1
10
96.1273791235234
20
6.33762204784588
30
0
41
1
10
96.3039143178293
20
5.87987868358462
30
0
41
1
10
96.3927219157518
20
5.6454082982618
30
0
41
1
10
96.5045020154161
20
5.34584104585727
30
0
41
1
10
96.5268956056357
20
5.28560168263306
30
0
41
1
10
96.5717560315261
20
5.16447639928495
30
0
41
1
10
96.5942312936064
20
5.10356681100427
30
0
41
1
10
96.6613608324902
20
4.92096400916893
30
0
41
1
10
96.7058540832126
20
4.79903842984817
30
0
41
1
10
96.8384998399647
20
4.4326866863575
30
0
41
1
10
96.9258631279096
20
4.18770274541984
30
0
41
1
10
97.0544496556981
20
3.81883341137183
30
0
41
1
10
97.0968926743942
20
3.69564104432965
30
0
41
1
10
97.1596919688161
20
3.51041592221594
30
0
41
1
10
97.1804797214518
20
3.44860102608706
30
0
41
1
10
97.22170805291
20
3.32480472566454
30
0
41
1
10
97.2421578365422
20
3.26279355874175
30
0
41
1
10
97.3025867604259
20
3.0773805973011
30
0
41
1
10
97.3417536993067
20
2.95430995044185
30
0
41
1
10
97.4171335406985
20
2.70904068170128
30
0
41
1
10
97.4533513741253
20
2.5868428554314
30
0
41
1
10
97.5217325480837
20
2.34306336280946
30
0
41
1
10
97.5539016217909
20
2.22148220672173
30
0
41
1
10
97.6125287918501
20
1.97860523845489
30
0
41
1
10
97.6389891252451
20
1.85730859715119
30
0
41
1
10
97.6726293419944
20
1.67527365142047
30
0
41
1
10
97.6828357103989
20
1.61449383610963
30
0
41
1
10
97.7007078354923
20
1.49405598274961
30
0
41
1
10
97.7083998391562
20
1.43426678950863
30
0
41
1
10
97.7273698143867
20
1.25623691457724
30
0
41
1
10
97.7345016173355
20
1.13932750966109
30
0
41
1
10
97.7364033141139
20
0.909478156631621
30
0
41
1
10
97.731161625208
20
0.796540626407165
30
0
41
1
10
97.7169288360512
20
0.658221684788799
30
0
41
1
10
97.7136982322822
20
0.630673119370385
30
0
41
1
10
97.7065080613264
20
0.575995211203946
30
0
41
1
10
97.6946641052552
20
0.494849832589779
30
0
41
1
10
97.6798273047167
20
0.416287203788073
30
0
41
1
10
97.6466608804215
20
0.262523055468193
30
0
41
1
10
97.6199119332541
20
0.1644889382531
30
0
41
1
10
97.5595490367992
20
-0.0229762182032971
30
0
41
1
10
97.5259402045095
20
-0.112409843626807
30
0
41
1
10
97.4717178718751
20
-0.240205991573504
30
0
41
1
10
97.4529783722287
20
-0.281786347851408
30
0
41
1
10
97.4147399421219
20
-0.362098424414086
30
0
41
1
10
97.3952028578938
20
-0.400926040780888
30
0
41
1
10
97.3355653522153
20
-0.513543207690532
30
0
41
1
10
97.2944522615416
20
-0.583477818402116
30
0
41
1
10
97.2103148766302
20
-0.71340476357517
30
0
41
1
10
97.1672848919001
20
-0.773395237650732
30
0
41
1
10
97.1125620548501
20
-0.84217981071248
30
0
41
1
10
97.1015700233471
20
-0.855625821177512
30
0
41
1
10
97.0794951263777
20
-0.881893477421613
30
0
41
1
10
97.068403192506
20
-0.894724695144447
30
0
41
1
10
97.0351359043216
20
-0.932122716988914
30
0
41
1
10
97.0129316640844
20
-0.955641820743494
30
0
41
1
10
96.9462755596544
20
-1.02205594222954
30
0
41
1
10
96.9017836219209
20
-1.06081633011408
30
0
41
1
10
96.812771539405
20
-1.12758599660032
30
0
41
1
10
96.7237291052949
20
-1.1836023200139
30
0
41
1
10
96.6346008581785
20
-1.21814626595725
30
0
41
1
10
96.5788229033387
20
-1.23288238558135
30
0
41
1
10
96.5676548311419
20
-1.23548740617795
30
0
41
1
10
96.5454082169425
20
-1.2399874305612
30
0
41
1
10
96.5121407108112
20
-1.24568225606424
30
0
41
1
10
96.4791695146017
20
-1.24824673223682
30
0
41
1
10
96.4135932210745
20
-1.24927292220451
30
0
41
1
10
96.3271341429522
20
-1.23971501808794
30
0
41
1
10
96.1999170205145
20
-1.19318994711807
30
0
41
1
10
96.1164538033387
20
-1.14067515748735
30
0
41
1
10
96.0542489950395
20
-1.09305113337012
30
0
41
1
10
96.0336327637967
20
-1.07584025606886
30
0
41
1
10
95.9927141615302
20
-1.03884003545332
30
0
41
1
10
95.9723961454882
20
-1.01903882598427
30
0
41
1
10
95.9522083601053
20
-0.997939326005252
30
0
0
SPLINE
5
C8
100
AcDbEntity
8
1
62
256
6
ByLayer
370
18
48
1
60
0
100
AcDbSpline
70
4
71
3
72
18
73
14
40
0
40
0
40
0
40
0
40
0.0023693296387354
40
0.0023693296387354
40
0.201895463710998
40
0.201895463710998
40
0.600947731855506
40
0.600947731855506
40
0.70071079889163
40
0.70071079889163
40
0.800473865927753
40
0.800473865927753
40
1
40
1
40
1
40
1
41
1
10
91.0959671883326
20
6.99912579264335
30
0
41
1
10
91.0998005870826
20
6.9991262651925
30
0
41
1
10
91.1036339975892
20
6.9991263205784
30
0
41
1
10
91.4302877996059
20
6.99909550353635
30
0
41
1
10
91.7531841745114
20
6.99611014467311
30
0
41
1
10
92.7219545130624
20
6.9783767031858
30
0
41
1
10
93.3679219424475
20
6.95489975644185
30
0
41
1
10
94.1750832623228
20
6.9105740652156
30
0
41
1
10
94.3365004714638
20
6.90095600686206
30
0
41
1
10
94.6593050155402
20
6.88019482823927
30
0
41
1
10
94.8207047516484
20
6.86905517035609
30
0
41
1
10
95.3052254445658
20
6.83354166299674
30
0
41
1
10
95.6285866276466
20
6.80704356189455
30
0
41
1
10
95.952208360112
20
6.77771771418725
30
0
0
SPLINE
5
C9
100
AcDbEntity
8
1
62
256
6
ByLayer
370
18
48
1
60
0
100
AcDbSpline
70
4
71
3
72
39
73
35
40
0
40
0
40
0
40
0
40
0.0726058252331567
40
0.0726058252331567
40
0.145211650466313
40
0.21781747569947
40
0.21781747569947
40
0.25412038831605
40
0.25412038831605
40
0.290423300932629
40
0.290423300932629
40
0.363029126165786
40
0.363029126165786
40
0.435634951398942
40
0.435634951398942
40
0.508240776632099
40
0.508240776632099
40
0.544543689248678
40
0.544543689248678
40
0.580846601865256
40
0.580846601865256
40
0.653452427098415
40
0.653452427098415
40
0.726058252331574
40
0.726058252331574
40
0.798664077564733
40
0.798664077564733
40
0.834966990181312
40
0.834966990181312
40
0.871269902797892
40
0.871269902797892
40
0.943875728031051
40
0.943875728031051
40
1
40
1
40
1
40
1
41
1
10
15.3578155935707
20
-4.56185400420998
30
0
41
1
10
15.7375071559149
20
-4.65822830616219
30
0
41
1
10
16.1172036116934
20
-4.75120994364175
30
0
41
1
10
16.8764488635015
20
-4.93092940652295
30
0
41
1
10
17.6355454571823
20
-5.10440578548963
30
0
41
1
10
18.3940531435958
20
-5.26609776843981
30
0
41
1
10
18.9626072467844
20
-5.38309114700755
30
0
41
1
10
19.1520711005688
20
-5.4213746905761
30
0
41
1
10
19.5308760648265
20
-5.49651823332579
30
0
41
1
10
19.7201892618021
20
-5.53342167101113
30
0
41
1
10
20.2882234277652
20
-5.64151907602636
30
0
41
1
10
20.6672098551988
20
-5.70984723671236
30
0
41
1
10
21.4255384628822
20
-5.83955647891128
30
0
41
1
10
21.804883848566
20
-5.90093033134772
30
0
41
1
10
22.5638044833962
20
-6.01691833670534
30
0
41
1
10
22.9433763839298
20
-6.07153720358082
30
0
41
1
10
23.5127996398418
20
-6.1484448527967
30
0
41
1
10
23.70261892466
20
-6.17324197906245
30
0
41
1
10
24.0822688971673
20
-6.22114581072094
30
0
41
1
10
24.2721246729761
20
-6.24427016305208
30
0
41
1
10
24.8416811057303
20
-6.31055963635856
30
0
41
1
10
25.2213906745763
20
-6.35076314721596
30
0
41
1
10
25.9805897908723
20
-6.42361068459485
30
0
41
1
10
26.3600895730833
20
-6.45624293615339
30
0
41
1
10
27.1187563322552
20
-6.51405989578012
30
0
41
1
10
27.4979190614732
20
-6.53924737556881
30
0
41
1
10
28.0663038725651
20
-6.5714176906979
30
0
41
1
10
28.2557028585235
20
-6.58120557622004
30
0
41
1
10
28.6343831968428
20
-6.5988799334599
30
0
41
1
10
28.8237011935992
20
-6.6067487272247
30
0
41
1
10
29.3919504629682
20
-6.62735241088814
30
0
41
1
10
29.7710445853059
20
-6.63714757966198
30
0
41
1
10
30.443446403331
20
-6.64769922272589
30
0
41
1
10
30.7366996659344
20
-6.65000053023019
30
0
41
1
10
31.0300176271239
20
-6.65000068009198
30
0
0
SPLINE
5
CA
100
AcDbEntity
8
1
62
256
6
ByLayer
370
18
48
1
60
0
100
AcDbSpline
70
4
71
3
72
34
73
30
40
0
40
0
40
0
40
0
40
0.0284311979810623
40
0.0284311979810623
40
0.0795663980873193
40
0.0795663980873193
40
0.181836798299834
40
0.181836798299834
40
0.284107198512348
40
0.284107198512348
40
0.33524239861861
40
0.33524239861861
40
0.38637759872487
40
0.38637759872487
40
0.437512798831132
40
0.437512798831132
40
0.488647998937393
40
0.488647998937393
40
0.590918399149914
40
0.590918399149914
40
0.693188799362435
40
0.693188799362435
40
0.744323999468696
40
0.744323999468696
40
0.795459199574957
40
0.795459199574957
40
0.897729599787478
40
0.897729599787478
40
1
40
1
40
1
40
1
41
1
10
77.0587073574881
20
4.87386951063615
30
0
41
1
10
77.1641621115509
20
4.89886807171229
30
0
41
1
10
77.2696398081293
20
4.92363935531984
30
0
41
1
10
77.5649628741069
20
4.99218005653603
30
0
41
1
10
77.7548958915796
20
5.03538981448429
30
0
41
1
10
78.3249755684052
20
5.16260800019231
30
0
41
1
10
78.7050200589116
20
5.24413813808147
30
0
41
1
10
79.464953114648
20
5.40096783426489
30
0
41
1
10
79.8448441257617
20
5.4762633622673
30
0
41
1
10
80.4144519163093
20
5.5846839918882
30
0
41
1
10
80.6042830841218
20
5.6200691068608
30
0
41
1
10
80.9838547358719
20
5.68933352641531
30
0
41
1
10
81.173584670561
20
5.72322805603673
30
0
41
1
10
81.5529919388861
20
5.78943103916629
30
0
41
1
10
81.742724875214
20
5.82165747582582
30
0
41
1
10
82.1224020581814
20
5.88416430151278
30
0
41
1
10
82.3123212077739
20
5.91448163294231
30
0
41
1
10
82.8822684309799
20
6.00272255142781
30
0
41
1
10
83.2625555700149
20
6.05794763918084
30
0
41
1
10
84.0226918556045
20
6.16127430590393
30
0
41
1
10
84.4026277570071
20
6.2093923836791
30
0
41
1
10
84.9722192792383
20
6.27631984525632
30
0
41
1
10
85.1620314275957
20
6.29775225752979
30
0
41
1
10
85.5415381376002
20
6.33885458470127
30
0
41
1
10
85.7312067233157
20
6.35854498558433
30
0
41
1
10
86.3002680880693
20
6.41474132786109
30
0
41
1
10
86.6799461613641
20
6.44820277832167
30
0
41
1
10
87.4397087008657
20
6.50745957322988
30
0
41
1
10
87.8197884126004
20
6.53325614578839
30
0
41
1
10
88.2
20
6.55527220788119
30
0
0
SPLINE
5
CB
100
AcDbEntity
8
1
62
256
6
ByLayer
370
18
48
1
60
0
100
AcDbSpline
70
4
71
3
72
60
73
56
40
0
40
0
40
0
40
0
40
0.0231781936121919
40
0.0231781936121919
40
0.0463563872243839
40
0.0463563872243839
40
0.0927127744487677
40
0.0927127744487677
40
0.185425548897533
40
0.185425548897533
40
0.208603742509724
40
0.208603742509724
40
0.231781936121916
40
0.231781936121916
40
0.2781383233463
40
0.2781383233463
40
0.324494710570684
40
0.324494710570684
40
0.370851097795068
40
0.370851097795068
40
0.39402929140726
40
0.39402929140726
40
0.417207485019452
40
0.417207485019452
40
0.463563872243836
40
0.463563872243836
40
0.50992025946822
40
0.50992025946822
40
0.533098453080412
40
0.533098453080412
40
0.556276646692605
40
0.556276646692605
40
0.579454840304798
40
0.579454840304798
40
0.60263303391699
40
0.60263303391699
40
0.648989421141375
40
0.648989421141375
40
0.672167614753568
40
0.672167614753568
40
0.695345808365761
40
0.695345808365761
40
0.718524001977953
40
0.718524001977953
40
0.741702195590146
40
0.741702195590146
40
0.834414970038918
40
0.834414970038918
40
0.880771357263304
40
0.880771357263304
40
0.903949550875497
40
0.903949550875497
40
0.92712774448769
40
0.92712774448769
40
1
40
1
40
1
40
1
41
1
10
88.2
20
1.59054173801502
30
0
41
1
10
88.0021057265096
20
1.65695511956935
30
0
41
1
10
87.8043144533078
20
1.72317586369718
30
0
41
1
10
87.4089453260558
20
1.85524639620922
30
0
41
1
10
87.2113895690942
20
1.92115805702545
30
0
41
1
10
86.6188063373073
20
2.11765721592084
30
0
41
1
10
86.223774050299
20
2.24676612280152
30
0
41
1
10
85.038849367377
20
2.62882514433079
30
0
41
1
10
84.2491113755003
20
2.87649266960742
30
0
41
1
10
83.2625834345022
20
3.17822501547445
30
0
41
1
10
83.0653150419892
20
3.2381887824765
30
0
41
1
10
82.6708249075145
20
3.3572697114995
30
0
41
1
10
82.4735666110376
20
3.4162933346947
30
0
41
1
10
81.8815329437298
20
3.59127246208365
30
0
41
1
10
81.4865797257505
20
3.70534453166718
30
0
41
1
10
80.6962190310976
20
3.92855299007033
30
0
41
1
10
80.3008089817004
20
4.03768316156336
30
0
41
1
10
79.509597364941
20
4.25114075218701
30
0
41
1
10
79.113670343093
20
4.35551246557989
30
0
41
1
10
78.5206748421894
20
4.50823177356648
30
0
41
1
10
78.3231375110856
20
4.55854853089036
30
0
41
1
10
77.9280685589114
20
4.65746035922868
30
0
41
1
10
77.7305411701392
20
4.70606769486392
30
0
41
1
10
77.1379927342885
20
4.84940032276847
30
0
41
1
10
76.7430075908055
20
4.94164417699238
30
0
41
1
10
75.9531907044984
20
5.11970425959498
30
0
41
1
10
75.558356825096
20
5.20551685969735
30
0
41
1
10
74.9662803197273
20
5.32950312345019
30
0
41
1
10
74.7689514103907
20
5.37004364104732
30
0
41
1
10
74.3743600902569
20
5.44954563574905
30
0
41
1
10
74.1771086951318
20
5.48852486185766
30
0
41
1
10
73.7826222163412
20
5.56480314884902
30
0
41
1
10
73.5853412936782
20
5.60202763159793
30
0
41
1
10
73.1906240770779
20
5.67453517873614
30
0
41
1
10
72.9932005467008
20
5.70983915157782
30
0
41
1
10
72.4007516118223
20
5.81294484389278
30
0
41
1
10
72.0055469083119
20
5.87794227574767
30
0
41
1
10
71.4124275497768
20
5.96990719254276
30
0
41
1
10
71.2146690020984
20
5.99963939202624
30
0
41
1
10
70.8190577057198
20
6.05726337062109
30
0
41
1
10
70.6211771897838
20
6.08515957413562
30
0
41
1
10
70.2254566371892
20
6.13909138517735
30
0
41
1
10
70.0277018992452
20
6.16511495468507
30
0
41
1
10
69.6324112797894
20
6.21526875478145
30
0
41
1
10
69.4348809915796
20
6.23940110956522
30
0
41
1
10
68.4471763329568
20
6.35470420527696
30
0
41
1
10
67.6571522532357
20
6.4302609170112
30
0
41
1
10
66.4727090216877
20
6.51940427522874
30
0
41
1
10
66.0779974985132
20
6.54507197041067
30
0
41
1
10
65.4861416403925
20
6.57745023529998
30
0
41
1
10
65.2889081231687
20
6.58722683419532
30
0
41
1
10
64.8944140829259
20
6.60467636646882
30
0
41
1
10
64.6971105327441
20
6.61233487297548
30
0
41
1
10
63.8792001956582
20
6.63967952621965
30
0
41
1
10
63.2580409531018
20
6.65002448726005
30
0
41
1
10
62.6363906727947
20
6.65000811912574
30
0
0
SPLINE
5
CC
100
AcDbEntity
8
1
62
256
6
ByLayer
370
18
48
1
60
0
100
AcDbSpline
70
4
71
3
72
14
73
10
40
0
40
0
40
0
40
0
40
0.0334162233273514
40
0.0334162233273514
40
0.171499619994877
40
0.171499619994877
40
0.447666413329919
40
0.447666413329919
40
1
40
1
40
1
40
1
41
1
10
16.640491757581
20
-4.86610282898531
30
0
41
1
10
16.5927549297068
20
-4.8774111427509
30
0
41
1
10
16.5450169103237
20
-4.88867166533851
30
0
41
1
10
16.2999995046869
20
-4.94619982860081
30
0
41
1
10
16.1026731636761
20
-4.99164588621503
30
0
41
1
10
15.5105574389126
20
-5.12541392690449
30
0
41
1
10
15.1156326648464
20
-5.21117157854079
30
0
41
1
10
13.930420293802
20
-5.45845073094782
30
0
41
1
10
13.1396796595105
20
-5.61001453298326
30
0
41
1
10
12.3486833988207
20
-5.74844498689058
30
0
0
SPLINE
5
CD
100
AcDbEntity
8
1
62
256
6
ByLayer
370
18
48
1
60
0
100
AcDbSpline
70
4
71
3
72
14
73
10
40
0
40
0
40
0
40
0
40
0.334657981014778
40
0.334657981014778
40
0.669315962029557
40
0.669315962029557
40
0.836644952536933
40
0.836644952536933
40
1
40
1
40
1
40
1
41
1
10
88.2
20
-6.91930034968004
30
0
41
1
10
88.5236950798595
20
-6.93696967586189
30
0
41
1
10
88.8471819746275
20
-6.9517243167833
30
0
41
1
10
89.493642792519
20
-6.97539978062989
30
0
41
1
10
89.8166088477773
20
-6.98432090597405
30
0
41
1
10
90.300648103205
20
-6.99324545865298
30
0
41
1
10
90.4619522388929
20
-6.99547116641384
30
0
41
1
10
90.7808354847324
20
-6.99838206066286
30
0
41
1
10
90.938391473398
20
-6.99910636844945
30
0
41
1
10
91.0959673272866
20
-6.99912579266052
30
0
0
SPLINE
5
CE
100
AcDbEntity
8
1
62
256
6
ByLayer
370
18
48
1
60
0
100
AcDbSpline
70
4
71
3
72
151
73
147
40
0
40
0
40
0
40
0
40
0.0139008236862859
40
0.0298056491107001
40
0.0298056491107001
40
0.0377580618229074
40
0.0377580618229074
40
0.0457104745351147
40
0.0457104745351147
40
0.0616152999595299
40
0.0616152999595299
40
0.0775201253839451
40
0.0775201253839451
40
0.0934249508083603
40
0.0934249508083603
40
0.101377363520568
40
0.101377363520568
40
0.109329776232775
40
0.109329776232775
40
0.125234601657191
40
0.125234601657191
40
0.141139427081606
40
0.141139427081606
40
0.157044252506021
40
0.157044252506021
40
0.164996665218229
40
0.164996665218229
40
0.172949077930436
40
0.172949077930436
40
0.188853903354851
40
0.188853903354851
40
0.204758728779267
40
0.204758728779267
40
0.220663554203682
40
0.220663554203682
40
0.228615966915889
40
0.228615966915889
40
0.236568379628097
40
0.236568379628097
40
0.252473205052512
40
0.252473205052512
40
0.268378030476927
40
0.268378030476927
40
0.284282855901342
40
0.284282855901342
40
0.292235268613549
40
0.292235268613549
40
0.300187681325757
40
0.300187681325757
40
0.331997332174587
40
0.331997332174587
40
0.347902157599002
40
0.347902157599002
40
0.355854570311209
40
0.355854570311209
40
0.363806983023417
40
0.363806983023417
40
0.395616633872248
40
0.395616633872248
40
0.411521459296664
40
0.411521459296664
40
0.419473872008872
40
0.419473872008872
40
0.42742628472108
40
0.42742628472108
40
0.459235935569911
40
0.459235935569911
40
0.467188348282119
40
0.467188348282119
40
0.475140760994327
40
0.475140760994327
40
0.483093173706534
40
0.483093173706534
40
0.491045586418742
40
0.491045586418742
40
0.522855237267573
40
0.522855237267573
40
0.530807649979781
40
0.530807649979781
40
0.538760062691989
40
0.538760062691989
40
0.554664888116404
40
0.554664888116404
40
0.586474538965235
40
0.586474538965235
40
0.594426951677443
40
0.594426951677443
40
0.602379364389651
40
0.602379364389651
40
0.618284189814066
40
0.618284189814066
40
0.650093840662898
40
0.650093840662898
40
0.658046253375105
40
0.658046253375105
40
0.665998666087313
40
0.665998666087313
40
0.681903491511727
40
0.681903491511727
40
0.713713142360557
40
0.713713142360557
40
0.721665555072764
40
0.721665555072764
40
0.729617967784972
40
0.729617967784972
40
0.745522793209387
40
0.745522793209387
40
0.777332444058216
40
0.777332444058216
40
0.785284856770424
40
0.785284856770424
40
0.793237269482631
40
0.793237269482631
40
0.809142094907045
40
0.809142094907045
40
0.82504692033146
40
0.82504692033146
40
0.840951745755874
40
0.840951745755874
40
0.848904158468081
40
0.848904158468081
40
0.856856571180288
40
0.856856571180288
40
0.872761396604702
40
0.872761396604702
40
0.888666222029116
40
0.888666222029116
40
0.896618634741322
40
0.896618634741322
40
0.904571047453528
40
0.904571047453528
40
0.912523460165735
40
0.912523460165735
40
0.920475872877941
40
0.920475872877941
40
0.936380698302353
40
0.936380698302353
40
0.952285523726765
40
0.952285523726765
40
0.960237936438971
40
0.960237936438971
40
0.968190349151176
40
0.968190349151176
40
0.984095174575588
40
0.984095174575588
40
1
40
1
40
1
40
1
41
1
10
16.6403194556137
20
4.87488822645017
30
0
41
1
10
16.9720923979179
20
4.95274058996034
30
0
41
1
10
17.6833312920278
20
5.11459234856807
30
0
41
1
10
18.3940531435958
20
5.26609776843981
30
0
41
1
10
18.9626072467845
20
5.38309114700758
30
0
41
1
10
19.1520711005688
20
5.42137469057613
30
0
41
1
10
19.5308760648265
20
5.49651823332579
30
0
41
1
10
19.7201892618021
20
5.53342167101113
30
0
41
1
10
20.2882234277652
20
5.64151907602638
30
0
41
1
10
20.6672098551988
20
5.70984723671239
30
0
41
1
10
21.4255384628822
20
5.83955647891128
30
0
41
1
10
21.8048838485661
20
5.90093033134775
30
0
41
1
10
22.5638044833962
20
6.01691833670534
30
0
41
1
10
22.9433763839298
20
6.07153720358082
30
0
41
1
10
23.5127996398418
20
6.1484448527967
30
0
41
1
10
23.70261892466
20
6.17324197906248
30
0
41
1
10
24.0822688971672
20
6.22114581072094
30
0
41
1
10
24.2721246729761
20
6.24427016305208
30
0
41
1
10
24.8416811057303
20
6.31055963635856
30
0
41
1
10
25.2213906745762
20
6.35076314721596
30
0
41
1
10
25.9805897908723
20
6.42361068459485
30
0
41
1
10
26.3600895730834
20
6.45624293615339
30
0
41
1
10
27.1187563322552
20
6.51405989578012
30
0
41
1
10
27.4979190614732
20
6.53924737556881
30
0
41
1
10
28.0663038725651
20
6.5714176906979
30
0
41
1
10
28.2557028585235
20
6.58120557622004
30
0
41
1
10
28.6343831968428
20
6.5988799334599
30
0
41
1
10
28.8237011935992
20
6.6067487272247
30
0
41
1
10
29.3919504629682
20
6.62735241088814
30
0
41
1
10
29.7710445853059
20
6.63714757966198
30
0
41
1
10
30.5295352560515
20
6.64905016917092
30
0
41
1
10
30.9089425585554
20
6.65115387939028
30
0
41
1
10
31.6679421841275
20
6.64765696476158
30
0
41
1
10
32.0475301988157
20
6.64205599935713
30
0
41
1
10
32.6169547287104
20
6.62773500313219
30
0
41
1
10
32.8067534524316
20
6.62196786483398
30
0
41
1
10
33.1864477171245
20
6.60844901732091
30
0
41
1
10
33.3763271697113
20
6.60071893580616
30
0
41
1
10
33.9459087723683
20
6.57471480969764
30
0
41
1
10
34.3255933173611
20
6.55360694632176
30
0
41
1
10
35.0847075015494
20
6.50391088040746
30
0
41
1
10
35.4641463771092
20
6.47532645190108
30
0
41
1
10
36.2226431646681
20
6.41058968258983
30
0
41
1
10
36.6016973166383
20
6.37443402335109
30
0
41
1
10
37.1698942664592
20
6.31433413968446
30
0
41
1
10
37.3592006070287
20
6.29329257988982
30
0
41
1
10
37.7378982116728
20
6.24943373566731
30
0
41
1
10
37.9273205167143
20
6.2266506925244
30
0
41
1
10
38.874721770682
20
6.10846202047608
30
0
41
1
10
39.6335032499567
20
6.0002704526365
30
0
41
1
10
40.772084666611
20
5.81657296150541
30
0
41
1
10
41.1516782603393
20
5.75174737416174
30
0
41
1
10
41.7210903897162
20
5.64885413662631
30
0
41
1
10
41.9109356830326
20
5.61358620757636
30
0
41
1
10
42.2906847993833
20
5.54171115378978
30
0
41
1
10
42.4805593903533
20
5.50507022359295
30
0
41
1
10
43.4298516455305
20
5.31827160009695
30
0
41
1
10
44.1889998485626
20
5.15736277841037
30
0
41
1
10
45.3264505701167
20
4.89740906035928
30
0
41
1
10
45.7053730420533
20
4.80761091133002
30
0
41
1
10
46.2733869208778
20
4.66803935874981
30
0
41
1
10
46.4627130143393
20
4.62080275448918
30
0
41
1
10
46.8415545727698
20
4.5253639861649
30
0
41
1
10
47.0310401513031
20
4.47710099952084
30
0
41
1
10
47.9787065328606
20
4.23292604552046
30
0
41
1
10
48.7375951361449
20
4.02849243564452
30
0
41
1
10
49.6864504865994
20
3.75990405030976
30
0
41
1
10
49.8762337139184
20
3.70552891735636
30
0
41
1
10
50.2558118944295
20
3.59541404912701
30
0
41
1
10
50.4455870396758
20
3.53962348011362
30
0
41
1
10
50.8252503382706
20
3.42691225086713
30
0
41
1
10
51.0151708248104
20
3.37015377170957
30
0
41
1
10
51.3949320126286
20
3.25606150183435
30
0
41
1
10
51.5848031874802
20
3.19868323705052
30
0
41
1
10
52.5340350508272
20
2.9099507654997
30
0
41
1
10
53.2930495407721
20
2.67317444699802
30
0
41
1
10
54.2406486867906
20
2.3680755361836
30
0
41
1
10
54.4301100412025
20
2.3065970844838
30
0
41
1
10
54.808901820766
20
2.18267709905291
30
0
41
1
10
54.9982030176614
20
2.12015386768996
30
0
41
1
10
55.5662677141413
20
1.9321199919915
30
0
41
1
10
55.9452644966933
20
1.80635382584896
30
0
41
1
10
57.0827271995748
20
1.42682433685991
30
0
41
1
10
57.8417056247303
20
1.17096696018416
30
0
41
1
10
58.7905711379097
20
0.845503042388913
30
0
41
1
10
58.9803522178387
20
0.780128440119967
30
0
41
1
10
59.3599187619034
20
0.64877168830634
30
0
41
1
10
59.5497430333945
20
0.582777814758003
30
0
41
1
10
60.1194339535436
20
0.385420641887947
30
0
41
1
10
60.499213727718
20
0.254394043556317
30
0
41
1
10
61.6381779324614
20
-0.138083734296146
30
0
41
1
10
62.397034202279
20
-0.398805432061863
30
0
41
1
10
63.3443294106998
20
-0.725589029653349
30
0
41
1
10
63.5337177174348
20
-0.791008969322462
30
0
41
1
10
63.9123911778799
20
-0.921860336557842
30
0
41
1
10
64.1017262511017
20
-0.987146998504073
30
0
41
1
10
64.6700021879733
20
-1.1817990208686
30
0
41
1
10
65.0490947608081
20
-1.31030209901255
30
0
41
1
10
66.1867830404871
20
-1.69295136331135
30
0
41
1
10
66.9458235624141
20
-1.9441516222609
30
0
41
1
10
67.894674744733
20
-2.25511999079271
30
0
41
1
10
68.0844266659962
20
-2.31721907585918
30
0
41
1
10
68.4640613718077
20
-2.44075584894569
30
0
41
1
10
68.6540106221575
20
-2.50203613851255
30
0
41
1
10
69.2236952493288
20
-2.68413889675395
30
0
41
1
10
69.6034114812747
20
-2.80341399344155
30
0
41
1
10
70.7420830110204
20
-3.15569054595849
30
0
41
1
10
71.500586417413
20
-3.38312436616337
30
0
41
1
10
72.4472564515645
20
-3.65968394570086
30
0
41
1
10
72.6364905465737
20
-3.71466860341218
30
0
41
1
10
73.0150774170711
20
-3.82320607454659
30
0
41
1
10
73.2044363789427
20
-3.87674698354866
30
0
41
1
10
73.772657690844
20
-4.03533698549518
30
0
41
1
10
74.1516551406099
20
-4.13837826361058
30
0
41
1
10
74.9098576601679
20
-4.33951161412554
30
0
41
1
10
75.2890684486758
20
-4.43759065800606
30
0
41
1
10
76.0475611423317
20
-4.6290651405242
30
0
41
1
10
76.426840714731
20
-4.72246508223566
30
0
41
1
10
76.9957330091401
20
-4.85912691909908
30
0
41
1
10
77.1853703718001
20
-4.90408149844203
30
0
41
1
10
77.5649628741069
20
-4.99218005653606
30
0
41
1
10
77.7548958915796
20
-5.03538981448432
30
0
41
1
10
78.3249755684053
20
-5.16260800019231
30
0
41
1
10
78.7050200589116
20
-5.24413813808147
30
0
41
1
10
79.464953114648
20
-5.40096783426489
30
0
41
1
10
79.8448441257616
20
-5.4762633622673
30
0
41
1
10
80.4144519163092
20
-5.5846839918882
30
0
41
1
10
80.6042830841218
20
-5.6200691068608
30
0
41
1
10
80.9838547358719
20
-5.68933352641534
30
0
41
1
10
81.173584670561
20
-5.72322805603676
30
0
41
1
10
81.5529919388862
20
-5.78943103916629
30
0
41
1
10
81.742724875214
20
-5.82165747582582
30
0
41
1
10
82.1224020581814
20
-5.88416430151278
30
0
41
1
10
82.3123212077739
20
-5.91448163294231
30
0
41
1
10
82.8822684309799
20
-6.00272255142784
30
0
41
1
10
83.2625555700149
20
-6.05794763918084
30
0
41
1
10
84.0226918556044
20
-6.16127430590393
30
0
41
1
10
84.4026277570072
20
-6.2093923836791
30
0
41
1
10
84.9722192792383
20
-6.27631984525632
30
0
41
1
10
85.1620314275958
20
-6.29775225752979
30
0
41
1
10
85.5415381376004
20
-6.33885458470127
30
0
41
1
10
85.7312067233156
20
-6.35854498558433
30
0
41
1
10
86.3002680880693
20
-6.41474132786109
30
0
41
1
10
86.6799461613641
20
-6.44820277832167
30
0
41
1
10
87.4397087008657
20
-6.50745957322988
30
0
41
1
10
87.8197884126003
20
-6.53325614578839
30
0
41
1
10
88.1999999999999
20
-6.55527220788116
30
0
0
SPLINE
5
CF
100
AcDbEntity
8
1
62
256
6
ByLayer
370
18
48
1
60
0
100
AcDbSpline
70
4
71
3
72
136
73
132
40
0
40
0
40
0
40
0
40
0.0109890100830182
40
0.0109890100830182
40
0.0293040284148123
40
0.0293040284148123
40
0.0384615375807096
40
0.0384615375807096
40
0.0476190467466069
40
0.0476190467466069
40
0.0567765559125043
40
0.0567765559125043
40
0.0659340650784016
40
0.0659340650784016
40
0.0842490834101962
40
0.0842490834101962
40
0.0934065925760936
40
0.0934065925760936
40
0.102564101741991
40
0.102564101741991
40
0.111721610907888
40
0.111721610907888
40
0.120879120073785
40
0.120879120073785
40
0.157509156737375
40
0.157509156737375
40
0.175824175069171
40
0.175824175069171
40
0.184981684235068
40
0.184981684235068
40
0.194139193400966
40
0.194139193400966
40
0.230769230064556
40
0.230769230064556
40
0.239926739230454
40
0.239926739230454
40
0.249084248396351
40
0.249084248396351
40
0.258241757562248
40
0.258241757562248
40
0.267399266728146
40
0.267399266728146
40
0.304029303391735
40
0.304029303391735
40
0.313186812557632
40
0.313186812557632
40
0.32234432172353
40
0.32234432172353
40
0.340659340055325
40
0.340659340055325
40
0.358974358387121
40
0.358974358387121
40
0.368131867553019
40
0.368131867553019
40
0.377289376718916
40
0.377289376718916
40
0.386446885884814
40
0.386446885884814
40
0.395604395050712
40
0.395604395050712
40
0.413919413382507
40
0.413919413382507
40
0.450549450046099
40
0.450549450046099
40
0.459706959211996
40
0.459706959211996
40
0.468864468377894
40
0.468864468377894
40
0.48717948670969
40
0.48717948670969
40
0.505494505041486
40
0.505494505041486
40
0.514652014207384
40
0.514652014207384
40
0.523809523373281
40
0.523809523373281
40
0.532967032539179
40
0.532967032539179
40
0.542124541705077
40
0.542124541705077
40
0.560439560036872
40
0.560439560036872
40
0.578754578368668
40
0.578754578368668
40
0.587912087534566
40
0.587912087534566
40
0.597069596700465
40
0.597069596700465
40
0.633699633364059
40
0.633699633364059
40
0.642857142529958
40
0.642857142529958
40
0.652014651695856
40
0.652014651695856
40
0.661172160861754
40
0.661172160861754
40
0.670329670027653
40
0.670329670027653
40
0.706959706691247
40
0.706959706691247
40
0.725274725023044
40
0.725274725023044
40
0.734432234188942
40
0.734432234188942
40
0.743589743354841
40
0.743589743354841
40
0.780219780018434
40
0.780219780018434
40
0.789377289184332
40
0.789377289184332
40
0.79853479835023
40
0.79853479835023
40
0.816849816682027
40
0.816849816682027
40
0.85347985334562
40
0.85347985334562
40
0.862637362511518
40
0.862637362511518
40
0.871794871677416
40
0.871794871677416
40
0.890109890009213
40
0.890109890009213
40
0.926739926672807
40
0.926739926672807
40
0.935897435838706
40
0.935897435838706
40
0.945054945004605
40
0.945054945004605
40
0.963369963336404
40
0.963369963336404
40
1
40
1
40
1
40
1
41
1
10
77.0590107389147
20
-4.86692819762328
30
0
41
1
10
76.8220168520459
20
-4.92268120517889
30
0
41
1
10
76.5850441937918
20
-4.97725619796591
30
0
41
1
10
75.9531907044983
20
-5.11970425959501
30
0
41
1
10
75.558356825096
20
-5.20551685969735
30
0
41
1
10
74.9662803197273
20
-5.32950312345019
30
0
41
1
10
74.7689514103906
20
-5.37004364104729
30
0
41
1
10
74.3743600902569
20
-5.44954563574905
30
0
41
1
10
74.1771086951318
20
-5.48852486185766
30
0
41
1
10
73.7826222163411
20
-5.56480314884905
30
0
41
1
10
73.5853412936781
20
-5.60202763159793
30
0
41
1
10
73.1906240770779
20
-5.67453517873616
30
0
41
1
10
72.9932005467008
20
-5.70983915157782
30
0
41
1
10
72.4007516118222
20
-5.81294484389278
30
0
41
1
10
72.0055469083118
20
-5.87794227574767
30
0
41
1
10
71.4124275497767
20
-5.96990719254276
30
0
41
1
10
71.2146690020984
20
-5.99963939202624
30
0
41
1
10
70.8190577057197
20
-6.05726337062109
30
0
41
1
10
70.6211771897838
20
-6.08515957413562
30
0
41
1
10
70.2254566371892
20
-6.13909138517735
30
0
41
1
10
70.0277018992451
20
-6.16511495468507
30
0
41
1
10
69.6324112797894
20
-6.21526875478145
30
0
41
1
10
69.4348809915795
20
-6.23940110956522
30
0
41
1
10
68.4471763329568
20
-6.35470420527696
30
0
41
1
10
67.6571522532357
20
-6.4302609170112
30
0
41
1
10
66.4727090216876
20
-6.51940427522874
30
0
41
1
10
66.0779974985132
20
-6.54507197041065
30
0
41
1
10
65.4861416403925
20
-6.57745023529998
30
0
41
1
10
65.2889081231686
20
-6.58722683419529
30
0
41
1
10
64.8944140829259
20
-6.60467636646882
30
0
41
1
10
64.6971105327441
20
-6.61233487297548
30
0
41
1
10
63.7102497568087
20
-6.64532793406624
30
0
41
1
10
62.9197558521067
20
-6.65488660581812
30
0
41
1
10
61.9307165711188
20
-6.64589255060309
30
0
41
1
10
61.7328258662098
20
-6.64304011281928
30
0
41
1
10
61.3371406222492
20
-6.63521231862279
30
0
41
1
10
61.1394055756188
20
-6.63023841530682
30
0
41
1
10
60.7441539733034
20
-6.61815200320962
30
0
41
1
10
60.5466200347757
20
-6.61104088321073
30
0
41
1
10
60.1515261699701
20
-6.59476064689773
30
0
41
1
10
59.9539889396128
20
-6.58558681869204
30
0
41
1
10
58.9663743090026
20
-6.53459457085842
30
0
41
1
10
58.1765009257854
20
-6.47749974823873
30
0
41
1
10
57.1897874467427
20
-6.38559553299228
30
0
41
1
10
56.9924772189252
20
-6.36618155751103
30
0
41
1
10
56.5979282919504
20
-6.32526303108278
30
0
41
1
10
56.4007114773159
20
-6.30373646026334
30
0
41
1
10
55.8089402876664
20
-6.23620656840916
30
0
41
1
10
55.4141609155327
20
-6.18736940170805
30
0
41
1
10
54.6241465591506
20
-6.08211409203855
30
0
41
1
10
54.2289110016505
20
-6.02569629678598
30
0
41
1
10
53.6357618059855
20
-5.93533161615988
30
0
41
1
10
53.4379961589688
20
-5.90425263601503
30
0
41
1
10
53.0423771177259
20
-5.84015359275986
30
0
41
1
10
52.8444796165813
20
-5.80712482412127
30
0
41
1
10
52.4488305652018
20
-5.73913382540164
30
0
41
1
10
52.2511188810134
20
-5.70417111454654
30
0
41
1
10
51.8558984262615
20
-5.63233245641621
30
0
41
1
10
51.6583548435891
20
-5.59550917831348
30
0
41
1
10
51.0656974342018
20
-5.48270918789191
30
0
41
1
10
50.670638083176
20
-5.40428135431861
30
0
41
1
10
49.4856964348259
20
-5.15929769878073
30
0
41
1
10
48.6960362022163
20
-4.98312235322368
30
0
41
1
10
47.7097202530068
20
-4.74587863623393
30
0
41
1
10
47.5125149594762
20
-4.69753115199805
30
0
41
1
10
47.1179708741359
20
-4.5995474424972
30
0
41
1
10
46.9206335731682
20
-4.54991097269303
30
0
41
1
10
46.3284404609893
20
-4.39905937037588
30
0
41
1
10
45.9334059426311
20
-4.29589980672597
30
0
41
1
10
45.1429225290415
20
-4.08430081269927
30
0
41
1
10
44.747471503104
20
-3.97586675212932
30
0
41
1
10
44.1540396011332
20
-3.8090861925277
30
0
41
1
10
43.9561386390849
20
-3.75278741399191
30
0
41
1
10
43.5605266713005
20
-3.63885537687651
30
0
41
1
10
43.3628405099951
20
-3.58120063522008
30
0
41
1
10
42.9676423957159
20
-3.46467159579717
30
0
41
1
10
42.770085624356
20
-3.40591015062284
30
0
41
1
10
42.3749705529263
20
-3.28762038378912
30
0
41
1
10
42.1774255089406
20
-3.22805873952825
30
0
41
1
10
41.5848424778759
20
-3.04809689292801
30
0
41
1
10
41.1898554045768
20
-2.92642435069263
30
0
41
1
10
40.400076711437
20
-2.67955140129334
30
0
41
1
10
40.0052847995324
20
-2.5543520689834
30
0
41
1
10
39.413310481825
20
-2.36370818942757
30
0
41
1
10
39.2160206578488
20
-2.29968736069489
30
0
41
1
10
38.8215177326067
20
-2.170673506182
30
0
41
1
10
38.6243127007531
20
-2.10565687011379
30
0
41
1
10
37.6378776936326
20
-1.77980183620556
30
0
41
1
10
36.8477190829671
20
-1.51586627424896
30
0
41
1
10
35.8590973000911
20
-1.1810129412647
30
0
41
1
10
35.661326657935
20
-1.11379388507993
30
0
41
1
10
35.2657042799825
20
-0.978820089016466
30
0
41
1
10
35.0678015880031
20
-0.911047500398382
30
0
41
1
10
34.6722340162223
20
-0.775050992893341
30
0
41
1
10
34.4745821521675
20
-0.70677707949622
30
0
41
1
10
34.0794208505767
20
-0.570040372395795
30
0
41
1
10
33.8818681341591
20
-0.501705898765181
30
0
41
1
10
32.8941705673953
20
-0.160414071356314
30
0
41
1
10
32.1043174202513
20
0.111689534628198
30
0
41
1
10
30.9203841083978
20
0.51962947126151
30
0
41
1
10
30.5258895025196
20
0.655597157337638
30
0
41
1
10
29.9344131924023
20
0.859637288047281
30
0
41
1
10
29.7372834912935
20
0.927620877774046
30
0
41
1
10
29.342863218089
20
1.06289531470239
30
0
41
1
10
29.1455956387153
20
1.13025299139289
30
0
41
1
10
28.1589964529974
20
1.46572342211269
30
0
41
1
10
27.3688765971635
20
1.72987951065619
30
0
41
1
10
26.3805252250426
20
2.05578757863827
30
0
41
1
10
26.1828206408941
20
2.12075639184553
30
0
41
1
10
25.7873479857818
20
2.25028035927872
30
0
41
1
10
25.5895632362359
20
2.31490649173838
30
0
41
1
10
24.9963066231899
20
2.50742672071516
30
0
41
1
10
24.6007482190879
20
2.63366681611265
30
0
41
1
10
23.4140084723904
20
3.00644159261699
30
0
41
1
10
22.6227511319236
20
3.24703514538666
30
0
41
1
10
21.6339391722852
20
3.53876711532533
30
0
41
1
10
21.4361938002175
20
3.59667008882173
30
0
41
1
10
21.0407151128075
20
3.71152409463056
30
0
41
1
10
20.8429168119786
20
3.76839837849119
30
0
41
1
10
20.2496160967138
20
3.93665786668635
30
0
41
1
10
19.8541882680006
20
4.04592201936256
30
0
41
1
10
18.6683188540038
20
4.36537838191506
30
0
41
1
10
17.8782756757669
20
4.56725377879201
30
0
41
1
10
16.8917786475331
20
4.80636663861452
30
0
41
1
10
16.694552397737
20
4.85356190686616
30
0
41
1
10
16.2999995046869
20
4.94619982860081
30
0
41
1
10
16.1026731636761
20
4.99164588621503
30
0
41
1
10
15.5105574389126
20
5.12541392690446
30
0
41
1
10
15.1156326648464
20
5.21117157854076
30
0
41
1
10
13.930420293802
20
5.45845073094785
30
0
41
1
10
13.1396796595105
20
5.61001453298326
30
0
41
1
10
12.3486833988207
20
5.74844498689058
30
0
0
SPLINE
5
D0
100
AcDbEntity
8
1
62
256
6
ByLayer
370
18
48
1
60
0
100
AcDbSpline
70
4
71
3
72
30
73
26
40
0
40
0
40
0
40
0
40
0.002792277567547
40
0.002792277567547
40
0.102513049810792
40
0.102513049810792
40
0.202233822054038
40
0.202233822054038
40
0.301954594297283
40
0.301954594297283
40
0.401675366540528
40
0.401675366540528
40
0.501396138783774
40
0.501396138783774
40
0.551256524905396
40
0.551256524905396
40
0.601116911027019
40
0.601116911027019
40
0.700837683270264
40
0.700837683270264
40
0.800558455513509
40
0.800558455513509
40
0.900279227756755
40
0.900279227756755
40
1
40
1
40
1
40
1
41
1
10
4.97206635036926
20
7.32876416500741
30
0
41
1
10
4.97636772337032
20
7.32817912852198
30
0
41
1
10
4.9806711354756
20
7.32759177498417
30
0
41
1
10
5.1387368614686
20
7.30594384882548
30
0
41
1
10
5.29506924349764
20
7.28196918140074
30
0
41
1
10
5.61180110318986
20
7.22940777811158
30
0
41
1
10
5.77220474661561
20
7.20081462646766
30
0
41
1
10
6.09626731549594
20
7.13980685036572
30
0
41
1
10
6.25992823090527
20
7.10738866204994
30
0
41
1
10
6.58985676196764
20
7.0392551948801
30
0
41
1
10
6.75612524356384
20
7.00353766673223
30
0
41
1
10
7.09074411575054
20
6.92914590760267
30
0
41
1
10
7.25909473669213
20
6.89047003177606
30
0
41
1
10
7.51287024768496
20
6.83039802729152
30
0
41
1
10
7.59767118601462
20
6.81003013951553
30
0
41
1
10
7.76764940129135
20
6.76862510177963
30
0
41
1
10
7.85285101458641
20
6.74758172704315
30
0
41
1
10
8.10870204233959
20
6.68353652931359
30
0
41
1
10
8.27964142098801
20
6.63960950353086
30
0
41
1
10
8.62212221343131
20
6.54939351454439
30
0
41
1
10
8.79366338823198
20
6.50310319091227
30
0
41
1
10
9.1373011061799
20
6.40825679796143
30
0
41
1
10
9.30939750676282
20
6.35969946544853
30
0
41
1
10
9.65420095933212
20
6.26045528163289
30
0
41
1
10
9.82690805239866
20
6.20976733742873
30
0
41
1
10
10
20
6.15812059914228
30
0
0
SPLINE
5
D1
100
AcDbEntity
8
1
62
256
6
ByLayer
370
18
48
1
60
0
100
AcDbSpline
70
4
71
3
72
107
73
103
40
0
40
0
40
0
40
0
40
0.0625000000000165
40
0.0625000000000165
40
0.125000000000033
40
0.125000000000033
40
0.156250000000041
40
0.156250000000041
40
0.18750000000005
40
0.18750000000005
40
0.218750000000058
40
0.218750000000058
40
0.22656250000006
40
0.22656250000006
40
0.234375000000061
40
0.250000000000064
40
0.250000000000064
40
0.28125000000007
40
0.28125000000007
40
0.296875000000074
40
0.296875000000074
40
0.304687500000075
40
0.304687500000075
40
0.312500000000077
40
0.312500000000077
40
0.34375000000008
40
0.34375000000008
40
0.359375000000082
40
0.359375000000082
40
0.375000000000084
40
0.375000000000084
40
0.390625000000085
40
0.390625000000085
40
0.394531250000086
40
0.394531250000086
40
0.398437500000086
40
0.398437500000086
40
0.406250000000086
40
0.406250000000086
40
0.421875000000086
40
0.421875000000086
40
0.437500000000085
40
0.437500000000085
40
0.445312500000085
40
0.445312500000085
40
0.453125000000085
40
0.453125000000085
40
0.468750000000084
40
0.468750000000084
40
0.484375000000084
40
0.484375000000084
40
0.488281250000084
40
0.488281250000084
40
0.492187500000084
40
0.500000000000083
40
0.500000000000083
40
0.515625000000083
40
0.515625000000083
40
0.523437500000082
40
0.523437500000082
40
0.531250000000082
40
0.531250000000082
40
0.546875000000081
40
0.546875000000081
40
0.56250000000008
40
0.56250000000008
40
0.578125000000078
40
0.578125000000078
40
0.585937500000078
40
0.585937500000078
40
0.593750000000077
40
0.593750000000077
40
0.625000000000073
40
0.625000000000073
40
0.65625000000007
40
0.65625000000007
40
0.664062500000069
40
0.664062500000069
40
0.671875000000068
40
0.687500000000065
40
0.687500000000065
40
0.718750000000058
40
0.718750000000058
40
0.750000000000052
40
0.750000000000052
40
0.781250000000045
40
0.781250000000045
40
0.812500000000039
40
0.812500000000039
40
0.843750000000032
40
0.843750000000032
40
0.859375000000029
40
0.859375000000029
40
0.875000000000026
40
0.875000000000026
40
0.90625000000002
40
0.90625000000002
40
0.937500000000013
40
0.937500000000013
40
0.968750000000007
40
0.968750000000007
40
1
40
1
40
1
40
1
41
1
10
10
20
-3.7611176187946
30
0
41
1
10
9.61905282339211
20
-3.80097407203567
30
0
41
1
10
9.24155266860234
20
-3.8542871182205
30
0
41
1
10
8.4937371988496
20
-3.98884731182827
30
0
41
1
10
8.12341564730437
20
-4.07007132783636
30
0
41
1
10
7.57357962470573
20
-4.21366863810786
30
0
41
1
10
7.39124302338513
20
-4.26516404686222
30
0
41
1
10
7.02852223859421
20
-4.3756291903419
30
0
41
1
10
6.84813758343563
20
-4.4345972802929
30
0
41
1
10
6.48941789973125
20
-4.56031843391668
30
0
41
1
10
6.31108207978653
20
-4.62706876603283
30
0
41
1
10
6.08953391623885
20
-4.71566696828003
30
0
41
1
10
6.04533917091675
20
-4.73362715677638
30
0
41
1
10
5.95739095417784
20
-4.76994591254635
30
0
41
1
10
5.82603880428016
20
-4.82505838013574
30
0
41
1
10
5.69642433160661
20
-4.88207175830613
30
0
41
1
10
5.43960400764365
20
-4.99863891734378
30
0
41
1
10
5.27159105627803
20
-5.07973117152895
30
0
41
1
10
5.02490019415268
20
-5.2065588316996
30
0
41
1
10
4.94356041738806
20
-5.24970101790561
30
0
41
1
10
4.82298150087749
20
-5.3157454713448
30
0
41
1
10
4.78302722795897
20
-5.33798229213869
30
0
41
1
10
4.70361528067914
20
-5.38290718952095
30
0
41
1
10
4.6641579874007
20
-5.40559630634564
30
0
41
1
10
4.46915303386783
20
-5.51960334505449
30
0
41
1
10
4.31962037600141
20
-5.61304464674902
30
0
41
1
10
4.10635563822467
20
-5.75629261379459
30
0
41
1
10
4.03711333781507
20
-5.80455714060909
30
0
41
1
10
3.90265735312511
20
-5.90208516524248
30
0
41
1
10
3.83744219280658
20
-5.95134852940828
30
0
41
1
10
3.71149352468257
20
-6.05085497486638
30
0
41
1
10
3.65075752296536
20
-6.10109781951121
30
0
41
1
10
3.57803140806229
20
-6.16451270892557
30
0
41
1
10
3.56364642776259
20
-6.17722630810752
30
0
41
1
10
3.53520927793119
20
-6.20271497291304
30
0
41
1
10
3.52115644959656
20
-6.2154913062293
30
0
41
1
10
3.47973974224729
20
-6.25370395105688
30
0
41
1
10
3.45304046982608
20
-6.27909209463652
30
0
41
1
10
3.37577867916679
20
-6.35495797941581
30
0
41
1
10
3.3280443032582
20
-6.40513813087145
30
0
41
1
10
3.24082206741048
20
-6.50448445633822
30
0
41
1
10
3.20133034555573
20
-6.55365123253048
30
0
41
1
10
3.14902118693098
20
-6.62644852880095
30
0
41
1
10
3.13270843833979
20
-6.65061851586719
30
0
41
1
10
3.10294180763265
20
-6.69796021707594
30
0
41
1
10
3.08943462607923
20
-6.7211982646831
30
0
41
1
10
3.05308028548583
20
-6.78958180041855
30
0
41
1
10
3.03439245966777
20
-6.83339822360458
30
0
41
1
10
3.00849954724467
20
-6.91728120717437
30
0
41
1
10
3.00129280329674
20
-6.95734830914611
30
0
41
1
10
2.99987052762441
20
-7.00492630585464
30
0
41
1
10
2.99996719451045
20
-7.01433306187684
30
0
41
1
10
3.00092897207509
20
-7.03280975014027
30
0
41
1
10
3.00351697994245
20
-7.05996671293448
30
0
41
1
10
3.00947323986884
20
-7.08548139178833
30
0
41
1
10
3.02572493991465
20
-7.1343954827714
30
0
41
1
10
3.04233750505503
20
-7.16418728746763
30
0
41
1
10
3.07547340813187
20
-7.20488822549078
30
0
41
1
10
3.0878902076542
20
-7.21779000712124
30
0
41
1
10
3.11541293849916
20
-7.24229529038163
30
0
41
1
10
3.13057074257887
20
-7.25392707107633
30
0
41
1
10
3.17939574307499
20
-7.28654098064325
30
0
41
1
10
3.21648923140714
20
-7.3053693162027
30
0
41
1
10
3.2986359260056
20
-7.3379886622555
30
0
41
1
10
3.34369335573967
20
-7.35177707876332
30
0
41
1
10
3.44094154101964
20
-7.37491351337505
30
0
41
1
10
3.49313484421498
20
-7.38425996900671
30
0
41
1
10
3.57629714464588
20
-7.39530260872519
30
0
41
1
10
3.60469570477247
20
-7.39846785850449
30
0
41
1
10
3.66261073560247
20
-7.40383803712388
30
0
41
1
10
3.69214991931179
20
-7.40604591523098
30
0
41
1
10
3.84254592245353
20
-7.41489266269184
30
0
41
1
10
3.9714267668883
20
-7.41502633656197
30
0
41
1
10
4.24244830987431
20
-7.40497735265782
30
0
41
1
10
4.38462031066686
20
-7.39476675574136
30
0
41
1
10
4.56907211039967
20
-7.3769384414141
30
0
41
1
10
4.60629225307247
20
-7.37311763407448
30
0
41
1
10
4.68103819475402
20
-7.36503223093928
30
0
41
1
10
4.79374423135408
20
-7.35222567854211
30
0
41
1
10
4.90809642656339
20
-7.33753126015498
30
0
41
1
10
5.1387368614686
20
-7.30594384882548
30
0
41
1
10
5.29506924349761
20
-7.28196918140074
30
0
41
1
10
5.61180110318981
20
-7.22940777811158
30
0
41
1
10
5.77220474661556
20
-7.20081462646769
30
0
41
1
10
6.09626731549594
20
-7.13980685036574
30
0
41
1
10
6.25992823090525
20
-7.10738866204991
30
0
41
1
10
6.58985676196761
20
-7.03925519488007
30
0
41
1
10
6.75612524356382
20
-7.00353766673223
30
0
41
1
10
7.09074411575054
20
-6.92914590760267
30
0
41
1
10
7.25909473669213
20
-6.89047003177606
30
0
41
1
10
7.51287024768496
20
-6.83039802729155
30
0
41
1
10
7.59767118601462
20
-6.81003013951553
30
0
41
1
10
7.76764940129135
20
-6.76862510177963
30
0
41
1
10
7.85285101458638
20
-6.74758172704315
30
0
41
1
10
8.10870204233959
20
-6.68353652931361
30
0
41
1
10
8.27964142098801
20
-6.63960950353086
30
0
41
1
10
8.62212221343128
20
-6.54939351454436
30
0
41
1
10
8.79366338823198
20
-6.5031031909123
30
0
41
1
10
9.13730110617993
20
-6.40825679796146
30
0
41
1
10
9.30939750676282
20
-6.35969946544853
30
0
41
1
10
9.65420095933212
20
-6.26045528163289
30
0
41
1
10
9.82690805239861
20
-6.2097673374287
30
0
41
1
10
9.99999999999997
20
-6.15812059914225
30
0
0
SPLINE
5
D2
100
AcDbEntity
8
1
62
256
6
ByLayer
370
18
48
1
60
0
100
AcDbSpline
70
4
71
3
72
14
73
10
40
0
40
0
40
0
40
0
40
0.25
40
0.25
40
0.5
40
0.5
40
0.75
40
0.75
40
1
40
1
40
1
40
1
41
1
10
12.3486833988207
20
-5.7484449868906
30
0
41
1
10
12.1503456184722
20
-5.78411278170509
30
0
41
1
10
11.9528577550109
20
-5.81983937848767
30
0
41
1
10
11.5592430040193
20
-5.890658604511
30
0
41
1
10
11.3631153074361
20
-5.92575098918707
30
0
41
1
10
10.9719550465842
20
-5.99471172659207
30
0
41
1
10
10.7769218698845
20
-6.02858056914795
30
0
41
1
10
10.3877814137449
20
-6.09466401835709
30
0
41
1
10
10.1936738100458
20
-6.12687981171379
30
0
41
1
10
10
20
-6.15812059914228
30
0
0
SPLINE
5
D3
100
AcDbEntity
8
1
62
256
6
ByLayer
370
18
48
1
60
0
100
AcDbSpline
70
4
71
4
72
10
73
5
40
0
40
0
40
0
40
0
40
0
40
1
40
1
40
1
40
1
40
1
41
0.997082919515024
10
12.694571251543
20
-3.97723280614218
30
0
41
0.995835803481298
10
12.5808343438929
20
-4.36946102027137
30
0
41
0.994972904456114
10
12.4820064084849
20
-4.8063585090976
30
0
41
0.995442889472639
10
12.4041691325761
20
-5.27312794265453
30
0
41
0.996506464969356
10
12.3486833988207
20
-5.74844498689059
30
0
0
SPLINE
5
D4
100
AcDbEntity
8
1
62
256
6
ByLayer
370
18
48
1
60
0
100
AcDbSpline
70
4
71
3
72
20
73
16
40
0
40
0
40
0
40
0
40
0.125000000000001
40
0.125000000000001
40
0.250000000000003
40
0.250000000000003
40
0.500000000000005
40
0.500000000000005
40
0.625000000000007
40
0.625000000000007
40
0.687500000000007
40
0.687500000000007
40
0.750000000000008
40
0.750000000000008
40
1
40
1
40
1
40
1
41
1
10
10
20
-3.7611176187946
30
0
41
1
10
10.2304988119912
20
-3.75740931536973
30
0
41
1
10
10.4599164321796
20
-3.75981980275563
30
0
41
1
10
10.91675875023
20
-3.7758888116181
30
0
41
1
10
11.1441828100275
20
-3.78954962579249
30
0
41
1
10
11.8236907475978
20
-3.84586798018446
30
0
41
1
10
12.2730038067774
20
-3.90392916763094
30
0
41
1
10
12.9423607420863
20
-4.01468210296864
30
0
41
1
10
13.1647121442205
20
-4.05552698100743
30
0
41
1
10
13.497220400847
20
-4.12165435670255
30
0
41
1
10
13.6078868261004
20
-4.14450587980056
30
0
41
1
10
13.8289041536902
20
-4.19164586462477
30
0
41
1
10
13.9393033764148
20
-4.21594526095447
30
0
41
1
10
14.4899813770276
20
-4.34043691119382
30
0
41
1
10
14.925514669827
20
-4.44934263875572
30
0
41
1
10
15.3578155935707
20
-4.56185400420995
30
0
0
SPLINE
5
D5
100
AcDbEntity
8
SK1
62
256
6
ByLayer
370
18
48
1
60
0
100
AcDbSpline
70
4
71
3
72
31
73
27
40
0
40
0
40
0
40
0
40
0.125000000000001
40
0.125000000000001
40
0.250000000000003
40
0.250000000000003
40
0.375000000000004
40
0.375000000000004
40
0.500000000000005
40
0.500000000000005
40
0.562500000000006
40
0.562500000000006
40
0.625000000000007
40
0.687500000000007
40
0.687500000000007
40
0.718750000000008
40
0.718750000000008
40
0.750000000000008
40
0.750000000000008
40
0.875000000000003
40
0.875000000000003
40
0.937500000000001
40
0.937500000000001
40
0.96875
40
0.96875
40
1
40
1
40
1
40
1
41
1
10
-41.322846649578
20
-3.33034885603652
30
0
41
1
10
-41.2982183123488
20
-3.38803258877206
30
0
41
1
10
-41.2717267680571
20
-3.44436940557552
30
0
41
1
10
-41.2144104214618
20
-3.55410223850021
30
0
41
1
10
-41.1835888583784
20
-3.60749982049498
30
0
41
1
10
-41.1168132306847
20
-3.71101722712197
30
0
41
1
10
-41.0808655609651
20
-3.76114016706765
30
0
41
1
10
-41.0027064087883
20
-3.85761356828161
30
0
41
1
10
-40.9605092263353
20
-3.90397104557275
30
0
41
1
10
-40.8912034928284
20
-3.97008360471079
30
0
41
1
10
-40.8672955191393
20
-3.99134752800094
30
0
41
1
10
-40.8179396702517
20
-4.0320451182069
30
0
41
1
10
-40.7669822244289
20
-4.07097190163014
30
0
41
1
10
-40.7125214515213
20
-4.10609739988001
30
0
41
1
10
-40.670214663531
20
-4.13088316998613
30
0
41
1
10
-40.655868463324
20
-4.13888495820467
30
0
41
1
10
-40.6266576666279
20
-4.15434007152678
30
0
41
1
10
-40.6118286726114
20
-4.16177231338193
30
0
41
1
10
-40.5371050103957
20
-4.19714033207811
30
0
41
1
10
-40.4749740708276
20
-4.22001118907693
30
0
41
1
10
-40.3778268407505
20
-4.24538536593542
30
0
41
1
10
-40.3447830766741
20
-4.25234770684881
30
0
41
1
10
-40.2941359057272
20
-4.26035999417425
30
0
41
1
10
-40.2770624559109
20
-4.2626233218524
30
0
41
1
10
-40.2428795071773
20
-4.26626974627274
30
0
41
1
10
-40.22572940542
20
-4.26766016692457
30
0
41
1
10
-40.2085199217113
20
-4.26861273885882
30
0
0
SPLINE
5
D6
100
AcDbEntity
8
SK1
62
256
6
ByLayer
370
18
48
1
60
0
100
AcDbSpline
70
4
71
3
72
28
73
24
40
0
40
0
40
0
40
0
40
0.125000000000001
40
0.125000000000001
40
0.187500000000002
40
0.187500000000002
40
0.250000000000004
40
0.250000000000004
40
0.375000000000006
40
0.375000000000006
40
0.437500000000007
40
0.437500000000007
40
0.500000000000008
40
0.500000000000008
40
0.625000000000008
40
0.625000000000008
40
0.687500000000007
40
0.687500000000007
40
0.750000000000006
40
0.750000000000006
40
0.875000000000003
40
0.875000000000003
40
1
40
1
40
1
40
1
41
1
10
-40.2085199217113
20
4.26861273885839
30
0
41
1
10
-40.2770078954797
20
4.26482182201573
30
0
41
1
10
-40.3435159701705
20
4.25421034005257
30
0
41
1
10
-40.4406186748427
20
4.22904991330012
30
0
41
1
10
-40.4725401749683
20
4.21911183367274
30
0
41
1
10
-40.5355147747093
20
4.19619029939315
30
0
41
1
10
-40.566119882014
20
4.18336793011164
30
0
41
1
10
-40.6552476470727
20
4.1412976123425
30
0
41
1
10
-40.7112423032074
20
4.10841569067671
30
0
41
1
10
-40.7908488886551
20
4.05271054233145
30
0
41
1
10
-40.8163780326975
20
4.03326066129199
30
0
41
1
10
-40.8655003190458
20
3.99289517941517
30
0
41
1
10
-40.8891220708721
20
3.97195852720529
30
0
41
1
10
-40.9574656057434
20
3.90707900711414
30
0
41
1
10
-40.9996786915665
20
3.86107582099058
30
0
41
1
10
-41.0588219892095
20
3.78847288665983
30
0
41
1
10
-41.0778365663648
20
3.76366951078927
30
0
41
1
10
-41.1145716668491
20
3.71292056409152
30
0
41
1
10
-41.1321793223817
20
3.68713127494576
30
0
41
1
10
-41.1829286385602
20
3.60864716973444
30
0
41
1
10
-41.2140187173667
20
3.55482217194611
30
0
41
1
10
-41.2716651020537
20
3.44451721966016
30
0
41
1
10
-41.2982170704349
20
3.38803549754442
30
0
41
1
10
-41.322846649578
20
3.33034885603652
30
0
0
SPLINE
5
D7
100
AcDbEntity
8
SK1
62
256
6
ByLayer
370
18
48
1
60
0
100
AcDbSpline
70
4
71
3
72
28
73
24
40
0
40
0
40
0
40
0
40
0.250000000000005
40
0.250000000000005
40
0.312500000000006
40
0.312500000000006
40
0.375000000000007
40
0.375000000000007
40
0.5
40
0.5
40
0.624999999999992
40
0.624999999999992
40
0.65624999999999
40
0.65624999999999
40
0.687499999999989
40
0.687499999999989
40
0.749999999999985
40
0.749999999999985
40
0.874999999999993
40
0.874999999999993
40
0.937499999999996
40
0.937499999999996
40
1
40
1
40
1
40
1
41
1
10
-13.8090444171455
20
4.91381127456395
30
0
41
1
10
-13.8730250304025
20
4.99046340860016
30
0
41
1
10
-13.9444892601168
20
5.06075108627354
30
0
41
1
10
-14.0453442110783
20
5.13975030164355
30
0
41
1
10
-14.0660970839937
20
5.15510348386371
30
0
41
1
10
-14.108849096648
20
5.18487572838717
30
0
41
1
10
-14.1308767716723
20
5.19931243837365
30
0
41
1
10
-14.1987969608565
20
5.24103142381006
30
0
41
1
10
-14.2458698834865
20
5.2663349057469
30
0
41
1
10
-14.3438356225248
20
5.3117780788902
30
0
41
1
10
-14.3947259977568
20
5.33192086270162
30
0
41
1
10
-14.4609718435402
20
5.35364247707062
30
0
41
1
10
-14.4743531694453
20
5.35781325453198
30
0
41
1
10
-14.5013886431665
20
5.36579875975136
30
0
41
1
10
-14.5150720561229
20
5.36962082906823
30
0
41
1
10
-14.5562656757263
20
5.38046558406404
30
0
41
1
10
-14.5839366053628
20
5.38687714356516
30
0
41
1
10
-14.6675758493674
20
5.40367498823224
30
0
41
1
10
-14.7241681343673
20
5.41163572791979
30
0
41
1
10
-14.8103509838265
20
5.4186001914598
30
0
41
1
10
-14.839294928931
20
5.42008953290443
30
0
41
1
10
-14.8976311188396
20
5.42134736085288
30
0
41
1
10
-14.9268902583505
20
5.42110969918963
30
0
41
1
10
-14.9560809879695
20
5.42000303685279
30
0
0
SPLINE
5
D8
100
AcDbEntity
8
SK1
62
256
6
ByLayer
370
18
48
1
60
0
100
AcDbSpline
70
4
71
3
72
29
73
25
40
0
40
0
40
0
40
0
40
0.125000000000023
40
0.125000000000023
40
0.250000000000046
40
0.250000000000046
40
0.312500000000058
40
0.312500000000058
40
0.375000000000069
40
0.375000000000069
40
0.500000000000078
40
0.500000000000078
40
0.562500000000082
40
0.562500000000082
40
0.593750000000078
40
0.593750000000078
40
0.625000000000073
40
0.750000000000046
40
0.750000000000046
40
0.875000000000019
40
0.875000000000019
40
0.937500000000009
40
0.937500000000009
40
1
40
1
40
1
40
1
41
1
10
-14.9560809879695
20
-5.42000303685279
30
0
41
1
10
-14.8976517734494
20
-5.42221817199751
30
0
41
1
10
-14.8398504554356
20
-5.42094359808488
30
0
41
1
10
-14.7254362798095
20
-5.41177794727187
30
0
41
1
10
-14.6688237697278
20
-5.40388482792244
30
0
41
1
10
-14.5847891358201
20
-5.38706822462967
30
0
41
1
10
-14.5568094402394
20
-5.38059638684285
30
0
41
1
10
-14.5019506989544
20
-5.36617855475819
30
0
41
1
10
-14.4750261228712
20
-5.35823183005425
30
0
41
1
10
-14.395685497739
20
-5.33227249172961
30
0
41
1
10
-14.3446977675387
20
-5.31214836042813
30
0
41
1
10
-14.2708592175646
20
-5.27794120061839
30
0
41
1
10
-14.2466881934933
20
-5.26586656540695
30
0
41
1
10
-14.2110774186189
20
-5.24675579357759
30
0
41
1
10
-14.1993109081088
20
-5.24021577958535
30
0
41
1
10
-14.1761490644524
20
-5.22689762154863
30
0
41
1
10
-14.1190707984856
20
-5.19295097150575
30
0
41
1
10
-14.0659423088902
20
-5.15585567198329
30
0
41
1
10
-13.9853722790436
20
-5.09280324282167
30
0
41
1
10
-13.9473081932622
20
-5.05942484453377
30
0
41
1
10
-13.8932201680201
20
-5.0067258138026
30
0
41
1
10
-13.8756933478446
20
-4.98872006168716
30
0
41
1
10
-13.8416025059636
20
-4.95184585609991
30
0
41
1
10
-13.8250535884703
20
-4.9329911023857
30
0
41
1
10
-13.8090444171455
20
-4.91381127456395
30
0
0
SPLINE
5
D9
100
AcDbEntity
8
1
62
256
6
ByLayer
370
13
48
1
60
0
100
AcDbSpline
70
4
71
3
72
78
73
74
40
0
40
0
40
0
40
0
40
0.03125
40
0.03125
40
0.0625
40
0.0625
40
0.09375
40
0.09375
40
0.125
40
0.125
40
0.15625
40
0.15625
40
0.1875
40
0.1875
40
0.21875
40
0.21875
40
0.25
40
0.25
40
0.28125
40
0.28125
40
0.3125
40
0.3125
40
0.328125
40
0.328125
40
0.3359375
40
0.3359375
40
0.34375
40
0.34375
40
0.375
40
0.375
40
0.40625
40
0.40625
40
0.4375
40
0.4375
40
0.46875
40
0.46875
40
0.5
40
0.5
40
0.53125
40
0.53125
40
0.5625
40
0.5625
40
0.59375
40
0.59375
40
0.625
40
0.625
40
0.65625
40
0.65625
40
0.671875
40
0.671875
40
0.6796875
40
0.6796875
40
0.6875
40
0.6875
40
0.71875
40
0.71875
40
0.75
40
0.75
40
0.78125
40
0.78125
40
0.8125
40
0.8125
40
0.84375
40
0.84375
40
0.875
40
0.875
40
0.90625
40
0.90625
40
0.9375
40
0.9375
40
0.96875
40
0.96875
40
1
40
1
40
1
40
1
41
1
10
90.19617550848
20
7
30
0
41
1
10
90.256134184018
20
7
30
0
41
1
10
90.3160928595561
20
6.97984204559037
30
0
41
1
10
90.4360102106323
20
6.89330211957486
30
0
41
1
10
90.4959688861704
20
6.8268871395727
30
0
41
1
10
90.6158862372465
20
6.64384918069388
30
0
41
1
10
90.6758449127847
20
6.52719875310655
30
0
41
1
10
90.7957622638609
20
6.24263069525293
30
0
41
1
10
90.8557209393989
20
6.07469979797028
30
0
41
1
10
90.9756382904751
20
5.69008007344792
30
0
41
1
10
91.0355969660131
20
5.47339842464751
30
0
41
1
10
91.1555143170895
20
4.99746636056264
30
0
41
1
10
91.2154729926275
20
4.73824417005486
30
0
41
1
10
91.3353903437037
20
4.18656468618866
30
0
41
1
10
91.3953490192418
20
3.89415051855249
30
0
41
1
10
91.5152663703179
20
3.28746511157519
30
0
41
1
10
91.5752250458561
20
2.97324119866914
30
0
41
1
10
91.6951423969322
20
2.33495797903129
30
0
41
1
10
91.7551010724703
20
2.01093928058202
30
0
41
1
10
91.8750184235464
20
1.36437241014968
30
0
41
1
10
91.9349770990846
20
1.0418509339863
30
0
41
1
10
92.0249151123917
20
0.566339663260806
30
0
41
1
10
92.0548944501608
20
0.409198296490615
30
0
41
1
10
92.0998634568143
20
0.176263202761845
30
0
41
1
10
92.1148531256989
20
0.0990798379458511
30
0
41
1
10
92.1448324634679
20
-0.0542554322255739
30
0
41
1
10
92.1598221323525
20
-0.131072572238708
30
0
41
1
10
92.2347704767751
20
-0.518387510297998
30
0
41
1
10
92.2947291523132
20
-0.835892269167431
30
0
41
1
10
92.4146465033893
20
-1.47791683299411
30
0
41
1
10
92.4746051789274
20
-1.80241870253678
30
0
41
1
10
92.5945225300036
20
-2.4480229367372
30
0
41
1
10
92.6544812055417
20
-2.76909177304904
30
0
41
1
10
92.7743985566178
20
-3.39607106097782
30
0
41
1
10
92.8343572321559
20
-3.7019366899533
30
0
41
1
10
92.9542745832321
20
-4.28660379009028
30
0
41
1
10
93.0142332587702
20
-4.56535838266302
30
0
41
1
10
93.1341506098464
20
-5.08516608503982
30
0
41
1
10
93.1941092853845
20
-5.32618165414064
30
0
41
1
10
93.3140266364607
20
-5.7624529380347
30
0
41
1
10
93.3739853119988
20
-5.95768955475532
30
0
41
1
10
93.4939026630749
20
-6.29780403230166
30
0
41
1
10
93.553861338613
20
-6.44268441417483
30
0
41
1
10
93.6737786896892
20
-6.68120134728755
30
0
41
1
10
93.7337373652273
20
-6.77485856975261
30
0
41
1
10
93.8536547163035
20
-6.9133910166488
30
0
41
1
10
93.9136133918415
20
-6.95829727075778
30
0
41
1
10
94.0035514051486
20
-6.99282063230416
30
0
41
1
10
94.0335307429177
20
-6.99887246789123
30
0
41
1
10
94.0784997495713
20
-7.00034820702046
30
0
41
1
10
94.0934894184558
20
-6.99958670252192
30
0
41
1
10
94.1234687562248
20
-6.99547601319659
30
0
41
1
10
94.1384584251093
20
-6.99212366070785
30
0
41
1
10
94.213406769532
20
-6.96863562120816
30
0
41
1
10
94.2733654450701
20
-6.92824780001121
30
0
41
1
10
94.3932827961462
20
-6.7991445835228
30
0
41
1
10
94.4532414716844
20
-6.71039762134262
30
0
41
1
10
94.5731588227605
20
-6.48180719451261
30
0
41
1
10
94.6331174982986
20
-6.34194166634771
30
0
41
1
10
94.7530348493747
20
-6.01161272981011
30
0
41
1
10
94.8129935249129
20
-5.8211447829369
30
0
41
1
10
94.932910875989
20
-5.39380515791294
30
0
41
1
10
94.9928695515271
20
-5.15695049686138
30
0
41
1
10
95.1127869026033
20
-4.64454995634847
30
0
41
1
10
95.1727455781415
20
-4.36904014522867
30
0
41
1
10
95.2926629292176
20
-3.78974736612065
30
0
41
1
10
95.3526216047557
20
-3.48601086646909
30
0
41
1
10
95.4725389558319
20
-2.86211203057025
30
0
41
1
10
95.53249763137
20
-2.54199518823441
30
0
41
1
10
95.6524149824461
20
-1.89718831335787
30
0
41
1
10
95.7123736579842
20
-1.57253318832787
30
0
41
1
10
95.8322910090604
20
-0.929267929368308
30
0
41
1
10
95.8922496845985
20
-0.610677289609185
30
0
41
1
10
95.9522083601366
20
-0.299386159415462
30
0
0
SPLINE
5
DA
100
AcDbEntity
8
1
62
256
6
ByLayer
370
13
48
1
60
0
100
AcDbSpline
70
4
71
3
72
85
73
81
40
0
40
0
40
0
40
0
40
0.0312500000000015
40
0.0312500000000015
40
0.062500000000003
40
0.062500000000003
40
0.0937500000000045
40
0.0937500000000045
40
0.125000000000006
40
0.125000000000006
40
0.156250000000007
40
0.156250000000007
40
0.187500000000009
40
0.187500000000009
40
0.21875000000001
40
0.21875000000001
40
0.250000000000012
40
0.250000000000012
40
0.281250000000013
40
0.281250000000013
40
0.296875000000014
40
0.296875000000014
40
0.304687500000015
40
0.308593750000015
40
0.308593750000015
40
0.312500000000014
40
0.312500000000014
40
0.343750000000015
40
0.343750000000015
40
0.375000000000016
40
0.375000000000016
40
0.406250000000016
40
0.406250000000016
40
0.437500000000016
40
0.437500000000016
40
0.468750000000017
40
0.468750000000017
40
0.500000000000018
40
0.500000000000018
40
0.531250000000018
40
0.531250000000018
40
0.562500000000019
40
0.562500000000019
40
0.593750000000019
40
0.593750000000019
40
0.609375000000019
40
0.609375000000019
40
0.617187500000019
40
0.617187500000019
40
0.621093750000019
40
0.621093750000019
40
0.625000000000019
40
0.625000000000019
40
0.656250000000018
40
0.656250000000018
40
0.687500000000016
40
0.687500000000016
40
0.718750000000015
40
0.718750000000015
40
0.750000000000013
40
0.750000000000013
40
0.781250000000012
40
0.781250000000012
40
0.812500000000011
40
0.812500000000011
40
0.843750000000009
40
0.843750000000009
40
0.875000000000008
40
0.875000000000008
40
0.906250000000006
40
0.906250000000006
40
0.921875000000006
40
0.921875000000006
40
0.929687500000005
40
0.929687500000005
40
0.937500000000005
40
0.937500000000005
40
0.968750000000002
40
0.968750000000002
40
1
40
1
40
1
40
1
41
1
10
89.6971317282626
20
7
30
0
41
1
10
89.7622887765113
20
7
30
0
41
1
10
89.8274458247599
20
6.97618075117776
30
0
41
1
10
89.9577599212573
20
6.87341192959593
30
0
41
1
10
90.022916969506
20
6.79441266214286
30
0
41
1
10
90.1532310660033
20
6.57658585070354
30
0
41
1
10
90.2183881142521
20
6.43771964102498
30
0
41
1
10
90.3487022107494
20
6.09973184961783
30
0
41
1
10
90.4138592589981
20
5.9005976517015
30
0
41
1
10
90.5441733554956
20
5.44674279625409
30
0
41
1
10
90.6093304037442
20
5.19204448595909
30
0
41
1
10
90.7396445002416
20
4.63670504782525
30
0
41
1
10
90.8048015484902
20
4.33611804419715
30
0
41
1
10
90.9351156449876
20
3.70244699120974
30
0
41
1
10
91.0002726932364
20
3.36943366622393
30
0
41
1
10
91.1305867897338
20
2.68621727911213
30
0
41
1
10
91.1957438379824
20
2.33608135168916
30
0
41
1
10
91.3260579344798
20
1.63364243812393
30
0
41
1
10
91.3912149827283
20
1.28138700111472
30
0
41
1
10
91.4889505551015
20
0.761101114987355
30
0
41
1
10
91.5215290792258
20
0.589001518320714
30
0
41
1
10
91.5703968654124
20
0.333842844623177
30
0
41
1
10
91.5948307585056
20
0.207008818421713
30
0
41
1
10
91.6192646515989
20
0.0814578050734553
30
0
41
1
10
91.6355539136611
20
-0.0019409640184733
30
0
41
1
10
91.6436985446921
20
-0.0434988886561882
30
0
41
1
10
91.7170002239719
20
-0.419771608654059
30
0
41
1
10
91.7821572722205
20
-0.763841058360498
30
0
41
1
10
91.9124713687179
20
-1.46081995857915
30
0
41
1
10
91.9776284169666
20
-1.81370333148618
30
0
41
1
10
92.107942513464
20
-2.51495023744116
30
0
41
1
10
92.1730995617127
20
-2.8632621446697
30
0
41
1
10
92.30341365821
20
-3.54018805441149
30
0
41
1
10
92.3685707064587
20
-3.86873296214
30
0
41
1
10
92.4988848029562
20
-4.49098126727475
30
0
41
1
10
92.5640418512048
20
-4.78461535950044
30
0
41
1
10
92.6943559477022
20
-5.3240825820811
30
0
41
1
10
92.7595129959509
20
-5.56986620526672
30
0
41
1
10
92.8898270924482
20
-6.00471490044208
30
0
41
1
10
92.9549841406969
20
-6.19376373437373
30
0
41
1
10
93.0852982371944
20
-6.51129508885998
30
0
41
1
10
93.1504552854431
20
-6.63979556156971
30
0
41
1
10
93.2807693819403
20
-6.83741744413817
30
0
41
1
10
93.345926430189
20
-6.90658051246254
30
0
41
1
10
93.4436620025621
20
-6.96975039695914
30
0
41
1
10
93.4762405266865
20
-6.9840722275261
30
0
41
1
10
93.525108312873
20
-6.99614136242218
30
0
41
1
10
93.5413975749351
20
-6.99859661248044
30
0
41
1
10
93.5658314680285
20
-7.00002265155092
30
0
41
1
10
93.5739760990595
20
-7.00012329437439
30
0
41
1
10
93.5902653611216
20
-6.99958168180521
30
0
41
1
10
93.5984099921528
20
-6.99893700525038
30
0
41
1
10
93.6717116714326
20
-6.98969754201954
30
0
41
1
10
93.7368687196812
20
-6.95694846656929
30
0
41
1
10
93.8671828161786
20
-6.83527324591483
30
0
41
1
10
93.9323398644273
20
-6.74629819719488
30
0
41
1
10
94.0626539609246
20
-6.50811270924225
30
0
41
1
10
94.1278110091733
20
-6.35886705207778
30
0
41
1
10
94.2581251056707
20
-6.00054578310514
30
0
41
1
10
94.3232821539194
20
-5.79146316594819
30
0
41
1
10
94.4535962504168
20
-5.31902318195876
30
0
41
1
10
94.5187532986655
20
-5.05569417903516
30
0
41
1
10
94.6490673951629
20
-4.48516288406532
30
0
41
1
10
94.7142244434115
20
-4.17801887421311
30
0
41
1
10
94.844538539909
20
-3.53377145569254
30
0
41
1
10
94.9096955881577
20
-3.19673958018564
30
0
41
1
10
95.040009684655
20
-2.50812322576911
30
0
41
1
10
95.1051667329037
20
-2.15660344308532
30
0
41
1
10
95.235480829401
20
-1.45379122019676
30
0
41
1
10
95.3006378776497
20
-1.10254207121639
30
0
41
1
10
95.3983734500227
20
-0.585202782195438
30
0
41
1
10
95.4309519741471
20
-0.414323512713224
30
0
41
1
10
95.4798197603336
20
-0.161300113751906
30
0
41
1
10
95.4961090223957
20
-0.0775605586739232
30
0
41
1
10
95.5286875465201
20
0.0889050569935534
30
0
41
1
10
95.5449768085822
20
0.172751412405915
30
0
41
1
10
95.6264231188931
20
0.594704928250451
30
0
41
1
10
95.6915801671419
20
0.941103414370247
30
0
41
1
10
95.8218942636392
20
1.64065206620714
30
0
41
1
10
95.8870513118879
20
1.99377167958525
30
0
41
1
10
95.9522083601366
20
2.34338016277377
30
0
0
SPLINE
5
DB
100
AcDbEntity
8
1
62
256
6
ByLayer
370
13
48
1
60
0
100
AcDbSpline
70
4
71
3
72
85
73
81
40
0
40
0
40
0
40
0
40
0.0312500000000023
40
0.0312500000000023
40
0.0625000000000046
40
0.0625000000000046
40
0.0937500000000069
40
0.0937500000000069
40
0.125000000000009
40
0.125000000000009
40
0.156250000000011
40
0.156250000000011
40
0.187500000000014
40
0.187500000000014
40
0.218750000000016
40
0.218750000000016
40
0.250000000000018
40
0.250000000000018
40
0.281250000000021
40
0.281250000000021
40
0.28515625000002
40
0.28515625000002
40
0.28906250000002
40
0.28906250000002
40
0.29687500000002
40
0.29687500000002
40
0.312500000000021
40
0.312500000000021
40
0.343750000000021
40
0.343750000000021
40
0.375000000000022
40
0.375000000000022
40
0.406250000000022
40
0.406250000000022
40
0.437500000000023
40
0.437500000000023
40
0.468750000000023
40
0.468750000000023
40
0.500000000000024
40
0.500000000000024
40
0.531250000000024
40
0.531250000000024
40
0.562500000000025
40
0.562500000000025
40
0.570312500000025
40
0.570312500000025
40
0.578125000000025
40
0.578125000000025
40
0.593750000000024
40
0.593750000000024
40
0.625000000000023
40
0.625000000000023
40
0.656250000000021
40
0.656250000000021
40
0.68750000000002
40
0.68750000000002
40
0.718750000000019
40
0.718750000000019
40
0.750000000000018
40
0.750000000000018
40
0.781250000000017
40
0.781250000000017
40
0.812500000000016
40
0.812500000000016
40
0.843750000000014
40
0.843750000000014
40
0.859375000000014
40
0.859375000000014
40
0.863281250000013
40
0.863281250000013
40
0.867187500000013
40
0.875000000000012
40
0.875000000000012
40
0.906250000000009
40
0.906250000000009
40
0.937500000000006
40
0.937500000000006
40
0.968750000000003
40
0.968750000000003
40
1
40
1
40
1
40
1
41
1
10
89.1980879480452
20
7
30
0
41
1
10
89.2684433690044
20
7
30
0
41
1
10
89.3387987899637
20
6.97220964849166
30
0
41
1
10
89.4795096318823
20
6.8517334130658
30
0
41
1
10
89.5498650528416
20
6.75897522010951
30
0
41
1
10
89.6905758947602
20
6.50319516170413
30
0
41
1
10
89.7609313157196
20
6.34012143580813
30
0
41
1
10
89.9016421576381
20
5.94438866708535
30
0
41
1
10
89.9719975785973
20
5.71172284706404
30
0
41
1
10
90.1127084205159
20
5.18449894467614
30
0
41
1
10
90.1830638414751
20
4.88998992069378
30
0
41
1
10
90.3237746833937
20
4.25317409665769
30
0
41
1
10
90.3941301043531
20
3.91095963285599
30
0
41
1
10
90.5348409462716
20
3.19703621580788
30
0
41
1
10
90.6051963672309
20
2.82543192821444
30
0
41
1
10
90.7459072091494
20
2.07215582750763
30
0
41
1
10
90.8162626301088
20
1.69056843803296
30
0
41
1
10
90.9569734720274
20
0.934922052998786
30
0
41
1
10
91.0273288929866
20
0.560908712576719
30
0
41
1
10
91.1064787415658
20
0.152118096581461
30
0
41
1
10
91.1152731691858
20
0.106860400601619
30
0
41
1
10
91.1328620244257
20
0.0166937438526418
30
0
41
1
10
91.1416564520455
20
-0.0281428259268068
30
0
41
1
10
91.1680397349053
20
-0.1634813196587
30
0
41
1
10
91.185628590145
20
-0.254401407361399
30
0
41
1
10
91.2383951558644
20
-0.52897584956952
30
0
41
1
10
91.2735728663441
20
-0.714453037081626
30
0
41
1
10
91.3791059977831
20
-1.27569630854197
30
0
41
1
10
91.4494614187423
20
-1.65638516974266
30
0
41
1
10
91.5901722606608
20
-2.41459375200026
30
0
41
1
10
91.6605276816202
20
-2.79204203910837
30
0
41
1
10
91.8012385235387
20
-3.52476296932656
30
0
41
1
10
91.871593944498
20
-3.8799350453111
30
0
41
1
10
92.0123047864165
20
-4.54901883307321
30
0
41
1
10
92.082660207376
20
-4.86282962957296
30
0
41
1
10
92.2233710492944
20
-5.4331743929657
30
0
41
1
10
92.2937264702538
20
-5.68964083846626
30
0
41
1
10
92.4344373121723
20
-6.13500129360619
30
0
41
1
10
92.5047927331316
20
-6.32388183238461
30
0
41
1
10
92.6455035750501
20
-6.63077024856099
30
0
41
1
10
92.7158589960094
20
-6.74881599696292
30
0
41
1
10
92.856569837928
20
-6.91733120365831
30
0
41
1
10
92.9269252588873
20
-6.96786861914592
30
0
41
1
10
93.0148695350865
20
-6.9939378693457
30
0
41
1
10
93.0324583903263
20
-6.99730551576374
30
0
41
1
10
93.0676361008059
20
-7.000505772174
30
0
41
1
10
93.0852249560456
20
-7.00036072503858
30
0
41
1
10
93.1379915217651
20
-6.99465903655894
30
0
41
1
10
93.1731692322448
20
-6.98375511910479
30
0
41
1
10
93.2787023636838
20
-6.92791919503725
30
0
41
1
10
93.349057784643
20
-6.85971858841063
30
0
41
1
10
93.4897686265616
20
-6.65439958373219
30
0
41
1
10
93.5601240475208
20
-6.51721876039645
30
0
41
1
10
93.7008348894395
20
-6.17223326708057
30
0
41
1
10
93.7711903103988
20
-5.96440310440292
30
0
41
1
10
93.9119011523173
20
-5.48323623871758
30
0
41
1
10
93.9822565732766
20
-5.2099284130758
30
0
41
1
10
94.1229674151953
20
-4.60974728787201
30
0
41
1
10
94.1933228361545
20
-4.2829534557778
30
0
41
1
10
94.3340336780731
20
-3.59290124058717
30
0
41
1
10
94.4043890990323
20
-3.22974713166025
30
0
41
1
10
94.5450999409509
20
-2.48636288271209
30
0
41
1
10
94.6154553619101
20
-2.10622765720743
30
0
41
1
10
94.7561662038288
20
-1.34743870976146
30
0
41
1
10
94.826521624788
20
-0.968845701813081
30
0
41
1
10
94.932054756227
20
-0.413550815376197
30
0
41
1
10
94.9672324667066
20
-0.23052070740448
30
0
41
1
10
95.0112046048062
20
-0.0052523430693441
30
0
41
1
10
95.0199990324261
20
0.0395995510419596
30
0
41
1
10
95.0375878876659
20
0.129883912617316
30
0
41
1
10
95.0639711705256
20
0.265827858093701
30
0
41
1
10
95.0903544533854
20
0.403227144199974
30
0
41
1
10
95.1782987295844
20
0.863986417962167
30
0
41
1
10
95.2486541505438
20
1.24159426784078
30
0
41
1
10
95.3893649924623
20
1.99999733376612
30
0
41
1
10
95.4597204134216
20
2.38073564436462
30
0
41
1
10
95.6004312553402
20
3.12713038882009
30
0
41
1
10
95.6707866762995
20
3.49269430178242
30
0
41
1
10
95.8114975182181
20
4.18932679399643
30
0
41
1
10
95.8818529391773
20
4.52029055276287
30
0
41
1
10
95.9522083601365
20
4.82526139376077
30
0
0
SPLINE
5
DC
100
AcDbEntity
8
1
62
256
6
ByLayer
370
13
48
1
60
0
100
AcDbSpline
70
4
71
3
72
85
73
81
40
0
40
0
40
0
40
0
40
0.0312499999999996
40
0.0312499999999996
40
0.0624999999999992
40
0.0624999999999992
40
0.0937499999999987
40
0.0937499999999987
40
0.124999999999998
40
0.124999999999998
40
0.156249999999998
40
0.156249999999998
40
0.187499999999997
40
0.187499999999997
40
0.218749999999997
40
0.218749999999997
40
0.249999999999997
40
0.249999999999997
40
0.265624999999996
40
0.265624999999996
40
0.269531249999996
40
0.269531249999996
40
0.273437499999996
40
0.281249999999996
40
0.281249999999996
40
0.312499999999995
40
0.312499999999995
40
0.343749999999995
40
0.343749999999995
40
0.374999999999994
40
0.374999999999994
40
0.406249999999994
40
0.406249999999994
40
0.437499999999993
40
0.437499999999993
40
0.468749999999993
40
0.468749999999993
40
0.499999999999993
40
0.499999999999993
40
0.531249999999992
40
0.531249999999992
40
0.539062499999992
40
0.539062499999992
40
0.546874999999992
40
0.546874999999992
40
0.562499999999993
40
0.562499999999993
40
0.593749999999994
40
0.593749999999994
40
0.624999999999995
40
0.624999999999995
40
0.656249999999997
40
0.656249999999997
40
0.687499999999998
40
0.687499999999998
40
0.718749999999999
40
0.718749999999999
40
0.75
40
0.75
40
0.781250000000002
40
0.781250000000002
40
0.796875000000002
40
0.796875000000002
40
0.800781250000002
40
0.800781250000002
40
0.804687500000002
40
0.804687500000002
40
0.812500000000002
40
0.812500000000002
40
0.843750000000002
40
0.843750000000002
40
0.875000000000002
40
0.875000000000002
40
0.906250000000001
40
0.906250000000001
40
0.937500000000001
40
0.937500000000001
40
0.96875
40
0.96875
40
1
40
1
40
1
40
1
41
1
10
88.6990441678278
20
7
30
0
41
1
10
88.7745979614977
20
7
30
0
41
1
10
88.8501517551675
20
6.96792717316873
30
0
41
1
10
89.0012593425074
20
6.82824939162177
30
0
41
1
10
89.0768131361772
20
6.72054229379094
30
0
41
1
10
89.2279207235169
20
6.42365358370333
30
0
41
1
10
89.3034745171868
20
6.23440570314833
30
0
41
1
10
89.4545821045267
20
5.77682425039734
30
0
41
1
10
89.5301358981965
20
5.50849849596239
30
0
41
1
10
89.6812434855364
20
4.90448959735244
30
0
41
1
10
89.7567972792062
20
4.56889796277181
30
0
41
1
10
89.9079048665459
20
3.8499327325429
30
0
41
1
10
89.9834586602159
20
3.46670301893505
30
0
41
1
10
90.1345662475555
20
2.67619624857122
30
0
41
1
10
90.2101200412254
20
2.26906047892811
30
0
41
1
10
90.3612276285652
20
1.45413955901665
30
0
41
1
10
90.4367814222352
20
1.046447829361
30
0
41
1
10
90.55011211274
20
0.448965284180275
30
0
41
1
10
90.5878890095749
20
0.252106986425304
30
0
41
1
10
90.6351101306185
20
0.0100805082944078
30
0
41
1
10
90.6445543548273
20
-0.0380716242901258
30
0
41
1
10
90.6634428032448
20
-0.135036767360788
30
0
41
1
10
90.6917754758709
20
-0.28108064960773
30
0
41
1
10
90.7201081484972
20
-0.428792926908358
30
0
41
1
10
90.8145503905845
20
-0.924285235443932
30
0
41
1
10
90.8901041842544
20
-1.33087038447323
30
0
41
1
10
91.0412117715941
20
-2.14575008049351
30
0
41
1
10
91.1167655652641
20
-2.55395739718023
30
0
41
1
10
91.2678731526038
20
-3.34904835319978
30
0
41
1
10
91.3434269462737
20
-3.73579390713567
30
0
41
1
10
91.4945345336134
20
-4.46407496009212
30
0
41
1
10
91.5700883272834
20
-4.80546424180093
30
0
41
1
10
91.7211959146231
20
-5.42274890059772
30
0
41
1
10
91.796749708293
20
-5.6985454390566
30
0
41
1
10
91.9478572956327
20
-6.17184921910635
30
0
41
1
10
92.0234110893026
20
-6.36933996271185
30
0
41
1
10
92.1745186766424
20
-6.68255547687326
30
0
41
1
10
92.2500724703123
20
-6.79834050600272
30
0
41
1
10
92.401180057652
20
-6.95327009844706
30
0
41
1
10
92.476733851322
20
-6.99251517145808
30
0
41
1
10
92.5711760934093
20
-7.00064537227303
30
0
41
1
10
92.5900645418268
20
-7.00026476544002
30
0
41
1
10
92.6278414386618
20
-6.99543262508641
30
0
41
1
10
92.6467298870792
20
-6.99096109365624
30
0
41
1
10
92.7033952323316
20
-6.97109174823143
30
0
41
1
10
92.7411721291666
20
-6.94922996287869
30
0
41
1
10
92.8545028196714
20
-6.85577284014084
30
0
41
1
10
92.9300566133412
20
-6.75608117685087
30
0
41
1
10
93.081164200681
20
-6.47548048706952
30
0
41
1
10
93.1567179943509
20
-6.29449959678732
30
0
41
1
10
93.3078255816907
20
-5.85278596960313
30
0
41
1
10
93.3833793753606
20
-5.59205248051816
30
0
41
1
10
93.5344869627003
20
-5.00164410978334
30
0
41
1
10
93.6100407563703
20
-4.67205307376446
30
0
41
1
10
93.76114834371
20
-3.96285258463524
30
0
41
1
10
93.8367021373799
20
-3.58338408724336
30
0
41
1
10
93.9878097247196
20
-2.79794804843928
30
0
41
1
10
94.0633635183896
20
-2.39212451623106
30
0
41
1
10
94.2144711057292
20
-1.57760136293871
30
0
41
1
10
94.2900248993992
20
-1.16900120943126
30
0
41
1
10
94.403355589904
20
-0.568877937636415
30
0
41
1
10
94.4411324867389
20
-0.37092806369742
30
0
41
1
10
94.4883536077825
20
-0.127320463418556
30
0
41
1
10
94.4977978319912
20
-0.0787895109165504
30
0
41
1
10
94.5166862804087
20
0.0178645719203701
30
0
41
1
10
94.5261305046176
20
0.066108216905036
30
0
41
1
10
94.5544631772439
20
0.211784791976584
30
0
41
1
10
94.5733516256613
20
0.309688337112874
30
0
41
1
10
94.6677938677486
20
0.802569239930108
30
0
41
1
10
94.7433476614185
20
1.207855330846
30
0
41
1
10
94.8944552487583
20
2.02226337573785
30
0
41
1
10
94.9700090424282
20
2.43130439776021
30
0
41
1
10
95.1211166297678
20
3.23049423730635
30
0
41
1
10
95.1966704234378
20
3.62050862249419
30
0
41
1
10
95.3477780107776
20
4.35764861181391
30
0
41
1
10
95.4233318044474
20
4.70462625986383
30
0
41
1
10
95.5744393917872
20
5.33484614475768
30
0
41
1
10
95.6499931854571
20
5.61798258860026
30
0
41
1
10
95.8011007727969
20
6.10684401912033
30
0
41
1
10
95.8766545664668
20
6.31254376080167
30
0
41
1
10
95.9522083601366
20
6.47732561778622
30
0
0
SPLINE
5
DD
100
AcDbEntity
8
1
62
256
6
ByLayer
370
13
48
1
60
0
100
AcDbSpline
70
4
71
3
72
70
73
66
40
0
40
0
40
0
40
0
40
0.03125
40
0.03125
40
0.0625
40
0.0625
40
0.09375
40
0.09375
40
0.125
40
0.125
40
0.15625
40
0.15625
40
0.1875
40
0.1875
40
0.21875
40
0.21875
40
0.25
40
0.25
40
0.28125
40
0.28125
40
0.3125
40
0.3125
40
0.34375
40
0.34375
40
0.375
40
0.375
40
0.40625
40
0.40625
40
0.4375
40
0.4375
40
0.46875
40
0.46875
40
0.5
40
0.5
40
0.53125
40
0.53125
40
0.5625
40
0.5625
40
0.59375
40
0.59375
40
0.625
40
0.625
40
0.65625
40
0.65625
40
0.6875
40
0.6875
40
0.71875
40
0.71875
40
0.75
40
0.75
40
0.78125
40
0.78125
40
0.8125
40
0.8125
40
0.84375
40
0.84375
40
0.875
40
0.875
40
0.90625
40
0.90625
40
0.9375
40
0.9375
40
0.96875
40
0.96875
40
1
40
1
40
1
40
1
41
1
10
88.2000003876104
20
7
30
0
41
1
10
88.2807525539909
20
7
30
0
41
1
10
88.3615047203713
20
6.96333157279776
30
0
41
1
10
88.5230090531322
20
6.80294360909247
30
0
41
1
10
88.6037612195128
20
6.67908350125512
30
0
41
1
10
88.7652655522737
20
6.33795281595812
30
0
41
1
10
88.8460177186542
20
6.12060175034441
30
0
41
1
10
89.0075220514152
20
5.59733564218647
30
0
41
1
10
89.0882742177956
20
5.29145639737396
30
0
41
1
10
89.2497785505566
20
4.60803894928819
30
0
41
1
10
89.3305307169371
20
4.23065459997207
30
0
41
1
10
89.4920350496982
20
3.43028254769899
30
0
41
1
10
89.5727872160786
20
3.00750265464441
30
0
41
1
10
89.7342915488396
20
2.14582405473257
30
0
41
1
10
89.81504371522
20
1.70710000498991
30
0
41
1
10
89.976548047981
20
0.840383638832293
30
0
41
1
10
90.0573002143616
20
0.41247944212418
30
0
41
1
10
90.2188045471225
20
-0.412478452174696
30
0
41
1
10
90.299556713503
20
-0.84038260699765
30
0
41
1
10
90.4610610462639
20
-1.70709895670529
30
0
41
1
10
90.5418132126445
20
-2.14582300779637
30
0
41
1
10
90.7033175454054
20
-3.00750163355193
30
0
41
1
10
90.7840697117858
20
-3.43028155115687
30
0
41
1
10
90.9455740445467
20
-4.23065367562114
30
0
41
1
10
91.0263262109273
20
-4.60803807257102
30
0
41
1
10
91.1878305436883
20
-5.29145563388909
30
0
41
1
10
91.2685827100687
20
-5.59733494422423
30
0
41
1
10
91.4300870428297
20
-6.1206011924678
30
0
41
1
10
91.5108392092101
20
-6.33795233254119
30
0
41
1
10
91.672343541971
20
-6.67908316595819
30
0
41
1
10
91.7530957083516
20
-6.80294334738088
30
0
41
1
10
91.9146000411125
20
-6.96333144957808
30
0
41
1
10
91.9953522074931
20
-6.9999999416666
30
0
41
1
10
92.156856540254
20
-7.00000005833326
30
0
41
1
10
92.2376087066344
20
-6.96333169601729
30
0
41
1
10
92.3991130393954
20
-6.80294387080392
30
0
41
1
10
92.4798652057759
20
-6.67908383655185
30
0
41
1
10
92.6413695385369
20
-6.33795329937487
30
0
41
1
10
92.7221217049174
20
-6.12060230822084
30
0
41
1
10
92.8836260376783
20
-5.59733634014856
30
0
41
1
10
92.9643782040588
20
-5.29145716085867
30
0
41
1
10
93.1258825368197
20
-4.60803982600524
30
0
41
1
10
93.2066347032003
20
-4.23065552432288
30
0
41
1
10
93.3681390359612
20
-3.43028354424106
30
0
41
1
10
93.4488912023417
20
-3.00750367573684
30
0
41
1
10
93.6103955351026
20
-2.14582510166878
30
0
41
1
10
93.6911477014831
20
-1.70710105327456
30
0
41
1
10
93.852652034244
20
-0.840384670666992
30
0
41
1
10
93.9334042006246
20
-0.412480456236153
30
0
41
1
10
94.0949085333855
20
0.412477486387616
30
0
41
1
10
94.175660699766
20
0.840381575163008
30
0
41
1
10
94.3371650325269
20
1.70709790842065
30
0
41
1
10
94.4179171989075
20
2.14582196086013
30
0
41
1
10
94.5794215316685
20
3.00750061245938
30
0
41
1
10
94.6601736980489
20
3.43028055461465
30
0
41
1
10
94.8216780308098
20
4.23065275127013
30
0
41
1
10
94.9024301971904
20
4.60803719585371
30
0
41
1
10
95.0639345299513
20
5.29145487040407
30
0
41
1
10
95.1446866963318
20
5.59733424626182
30
0
41
1
10
95.3061910290928
20
6.120600634591
30
0
41
1
10
95.3869431954732
20
6.33795184912412
30
0
41
1
10
95.5484475282342
20
6.67908283066109
30
0
41
1
10
95.6291996946147
20
6.80294308566909
30
0
41
1
10
95.7907040273756
20
6.96333132635823
30
0
41
1
10
95.871456193756
20
6.99999988333303
30
0
41
1
10
95.9522083601365
20
6.99999999999972
30
0
0
SPLINE
5
DE
100
AcDbEntity
8
1
62
256
6
ByLayer
370
13
48
1
60
0
100
AcDbSpline
70
4
71
3
72
85
73
81
40
0
40
0
40
0
40
0
40
0.0312499999999998
40
0.0312499999999998
40
0.0624999999999996
40
0.0624999999999996
40
0.0937499999999994
40
0.0937499999999994
40
0.124999999999999
40
0.124999999999999
40
0.156249999999999
40
0.156249999999999
40
0.187499999999999
40
0.187499999999999
40
0.195312499999999
40
0.195312499999999
40
0.199218749999998
40
0.199218749999998
40
0.203124999999998
40
0.203124999999998
40
0.218749999999998
40
0.218749999999998
40
0.249999999999998
40
0.249999999999998
40
0.281249999999997
40
0.281249999999997
40
0.312499999999997
40
0.312499999999997
40
0.343749999999997
40
0.343749999999997
40
0.374999999999997
40
0.374999999999997
40
0.406249999999997
40
0.406249999999997
40
0.437499999999996
40
0.437499999999996
40
0.453124999999996
40
0.453124999999996
40
0.460937499999996
40
0.460937499999996
40
0.468749999999996
40
0.468749999999996
40
0.499999999999996
40
0.499999999999996
40
0.531249999999996
40
0.531249999999996
40
0.562499999999995
40
0.562499999999995
40
0.593749999999995
40
0.593749999999995
40
0.624999999999995
40
0.624999999999995
40
0.656249999999995
40
0.656249999999995
40
0.687499999999995
40
0.687499999999995
40
0.718749999999994
40
0.718749999999994
40
0.726562499999994
40
0.730468749999994
40
0.730468749999994
40
0.734374999999994
40
0.734374999999994
40
0.749999999999995
40
0.749999999999995
40
0.781249999999995
40
0.781249999999995
40
0.812499999999996
40
0.812499999999996
40
0.843749999999997
40
0.843749999999997
40
0.874999999999997
40
0.874999999999997
40
0.906249999999998
40
0.906249999999998
40
0.937499999999999
40
0.937499999999999
40
0.968749999999999
40
0.968749999999999
40
1
40
1
40
1
40
1
41
1
10
88.1999999999999
20
6.4773273085315
30
0
41
1
10
88.275553801745
20
6.31254571120533
30
0
41
1
10
88.3511076034902
20
6.1068462207698
30
0
41
1
10
88.5022152069803
20
5.61798524616918
30
0
41
1
10
88.5777690087255
20
5.33484900672582
30
0
41
1
10
88.7288766122157
20
4.70462946012543
30
0
41
1
10
88.8044304139607
20
4.35765194581114
30
0
41
1
10
88.9555380174509
20
3.62051214285941
30
0
41
1
10
89.031091819196
20
3.23049781033816
30
0
41
1
10
89.1821994226863
20
2.43130799981469
30
0
41
1
10
89.2577532244314
20
2.02226695433461
30
0
41
1
10
89.4088608279216
20
1.20785880283171
30
0
41
1
10
89.4844146296667
20
0.802572628987036
30
0
41
1
10
89.5788568818481
20
0.309691598833524
30
0
41
1
10
89.5977453322844
20
0.211788027049664
30
0
41
1
10
89.6260780079388
20
0.0661114104881904
30
0
41
1
10
89.635522233157
20
0.0178677447576661
30
0
41
1
10
89.6544106835931
20
-0.0787863305439771
30
0
41
1
10
89.6638549088113
20
-0.127317279606132
30
0
41
1
10
89.711076034902
20
-0.370924864384847
30
0
41
1
10
89.7488529357745
20
-0.568874731371409
30
0
41
1
10
89.8621836383921
20
-1.16899800075288
30
0
41
1
10
89.9377374401373
20
-1.57759817749152
30
0
41
1
10
90.0888450436275
20
-2.39212143360803
30
0
41
1
10
90.1643988453726
20
-2.79794504550782
30
0
41
1
10
90.3155064488628
20
-3.58338129778383
30
0
41
1
10
90.3910602506079
20
-3.96284992893982
30
0
41
1
10
90.5421678540981
20
-4.67205072668509
30
0
41
1
10
90.6177216558432
20
-5.00164193740611
30
0
41
1
10
90.7688292593334
20
-5.59205067740152
30
0
41
1
10
90.8443830610785
20
-5.85278436082643
30
0
41
1
10
90.9954906645687
20
-6.29449837293217
30
0
41
1
10
91.0710444663138
20
-6.47547945361609
30
0
41
1
10
91.2221520698041
20
-6.75608050083324
30
0
41
1
10
91.2977058715491
20
-6.85577233108691
30
0
41
1
10
91.4110365741668
20
-6.94922967801358
30
0
41
1
10
91.4488134750393
20
-6.97109153378773
30
0
41
1
10
91.5054788263482
20
-6.99096097789504
30
0
41
1
10
91.5243672767843
20
-6.99543254106504
30
0
41
1
10
91.5621441776569
20
-7.0002647425533
30
0
41
1
10
91.5810326280932
20
-7.00064537831045
30
0
41
1
10
91.6754748802746
20
-6.99251532457441
30
0
41
1
10
91.7510286820196
20
-6.95327037409632
30
0
41
1
10
91.9021362855099
20
-6.79834102518146
30
0
41
1
10
91.9776900872549
20
-6.68255611696392
30
0
41
1
10
92.1287976907452
20
-6.36934082906703
30
0
41
1
10
92.2043514924903
20
-6.17185019068367
30
0
41
1
10
92.3554590959806
20
-5.69854659212771
30
0
41
1
10
92.4310128977257
20
-5.42275012982003
30
0
41
1
10
92.5821205012159
20
-4.80546558562699
30
0
41
1
10
92.6576743029609
20
-4.46407634232472
30
0
41
1
10
92.8087819064511
20
-3.7357953271048
30
0
41
1
10
92.8843357081962
20
-3.34904977255056
30
0
41
1
10
93.0354433116864
20
-2.55395878215649
30
0
41
1
10
93.1109971134314
20
-2.14575143182694
30
0
41
1
10
93.2621047169217
20
-1.33087164597893
30
0
41
1
10
93.3376585186668
20
-0.924286440877495
30
0
41
1
10
93.4321007708481
20
-0.428794055426721
30
0
41
1
10
93.4604334465027
20
-0.281081754536814
30
0
41
1
10
93.488766122157
20
-0.135037848114422
30
0
41
1
10
93.5076545725933
20
-0.038072688816186
30
0
41
1
10
93.5170987978114
20
0.0100794506379316
30
0
41
1
10
93.5643199239021
20
0.252105940004327
30
0
41
1
10
93.6020968247747
20
0.448964248968878
30
0
41
1
10
93.7154275273923
20
1.04644683454461
30
0
41
1
10
93.7909813291374
20
1.45413860027111
30
0
41
1
10
93.9420889326276
20
2.26905960859375
30
0
41
1
10
94.0176427343728
20
2.67619543057288
30
0
41
1
10
94.1687503378629
20
3.46670231611966
30
0
41
1
10
94.2443041396081
20
3.84993209251829
30
0
41
1
10
94.3954117430982
20
4.5688974501474
30
0
41
1
10
94.4709655448434
20
4.90448914924727
30
0
41
1
10
94.6220731483335
20
5.50849816938722
30
0
41
1
10
94.6976269500786
20
5.77682398075265
30
0
41
1
10
94.8487345535688
20
6.23440553263475
30
0
41
1
10
94.924288355314
20
6.4236534553587
30
0
41
1
10
95.0753959588042
20
6.72054223174612
30
0
41
1
10
95.1509497605493
20
6.82824935373051
30
0
41
1
10
95.3020573640395
20
6.96792716627354
30
0
41
1
10
95.3776111657845
20
7
30
0
41
1
10
95.4531649675296
20
7
30
0
0
SPLINE
5
DF
100
AcDbEntity
8
1
62
256
6
ByLayer
370
13
48
1
60
0
100
AcDbSpline
70
4
71
3
72
85
73
81
40
0
40
0
40
0
40
0
40
0.031250000000002
40
0.031250000000002
40
0.062500000000004
40
0.062500000000004
40
0.093750000000006
40
0.093750000000006
40
0.125000000000008
40
0.125000000000008
40
0.132812500000008
40
0.136718750000008
40
0.136718750000008
40
0.140625000000008
40
0.140625000000008
40
0.156250000000008
40
0.156250000000008
40
0.187500000000008
40
0.187500000000008
40
0.218750000000009
40
0.218750000000009
40
0.250000000000009
40
0.250000000000009
40
0.281250000000009
40
0.281250000000009
40
0.312500000000009
40
0.312500000000009
40
0.34375000000001
40
0.34375000000001
40
0.37500000000001
40
0.37500000000001
40
0.40625000000001
40
0.40625000000001
40
0.421875000000011
40
0.421875000000011
40
0.429687500000011
40
0.429687500000011
40
0.437500000000011
40
0.437500000000011
40
0.468750000000011
40
0.468750000000011
40
0.500000000000012
40
0.500000000000012
40
0.531250000000012
40
0.531250000000012
40
0.562500000000013
40
0.562500000000013
40
0.593750000000013
40
0.593750000000013
40
0.625000000000013
40
0.625000000000013
40
0.656250000000013
40
0.656250000000013
40
0.687500000000014
40
0.687500000000014
40
0.703125000000014
40
0.703125000000014
40
0.710937500000014
40
0.710937500000014
40
0.714843750000013
40
0.714843750000013
40
0.718750000000013
40
0.718750000000013
40
0.750000000000012
40
0.750000000000012
40
0.78125000000001
40
0.78125000000001
40
0.812500000000009
40
0.812500000000009
40
0.843750000000007
40
0.843750000000007
40
0.875000000000006
40
0.875000000000006
40
0.906250000000004
40
0.906250000000004
40
0.937500000000003
40
0.937500000000003
40
0.968750000000001
40
0.968750000000001
40
1
40
1
40
1
40
1
41
1
10
88.1999999999999
20
4.8252647541226
30
0
41
1
10
88.2703554290346
20
4.52029406789657
30
0
41
1
10
88.340710858069
20
4.18933042947347
30
0
41
1
10
88.4814217161379
20
3.49269810237124
30
0
41
1
10
88.5517771451725
20
3.12713423422218
30
0
41
1
10
88.6924880032415
20
2.38073950919869
30
0
41
1
10
88.762843432276
20
2.00000117336401
30
0
41
1
10
88.9035542903449
20
1.24159800138256
30
0
41
1
10
88.9739097193794
20
0.86399007085339
30
0
41
1
10
89.0618540056727
20
0.403230673299163
30
0
41
1
10
89.0882372915606
20
0.265831348336746
30
0
41
1
10
89.1146205774485
20
0.129887361756119
30
0
41
1
10
89.1322094347071
20
0.0396029723143556
30
0
41
1
10
89.1410038633364
20
-0.0052489337908526
30
0
41
1
10
89.184976006483
20
-0.230517279737228
30
0
41
1
10
89.2201537210003
20
-0.413547377913375
30
0
41
1
10
89.3256868645519
20
-0.968842251614433
30
0
41
1
10
89.3960422935866
20
-1.34743527345481
30
0
41
1
10
89.5367531516556
20
-2.10622430034812
30
0
41
1
10
89.60710858069
20
-2.48635959149453
30
0
41
1
10
89.7478194387591
20
-3.22974402359543
30
0
41
1
10
89.8181748677935
20
-3.59289825004947
30
0
41
1
10
89.9588857258625
20
-4.28295074373872
30
0
41
1
10
90.029241154897
20
-4.60974473672425
30
0
41
1
10
90.169952012966
20
-5.20992621100095
30
0
41
1
10
90.2403074420005
20
-5.48323422467178
30
0
41
1
10
90.3810183000695
20
-5.964401473458
30
0
41
1
10
90.451373729104
20
-6.17223183104798
30
0
41
1
10
90.5920845871731
20
-6.51721770184452
30
0
41
1
10
90.6624400162076
20
-6.65439870764646
30
0
41
1
10
90.8031508742766
20
-6.85971805053558
30
0
41
1
10
90.873506303311
20
-6.92791881288687
30
0
41
1
10
90.9790394468628
20
-6.98375494488309
30
0
41
1
10
91.0142171613801
20
-6.99465892742518
30
0
41
1
10
91.066983733156
20
-7.00036070696368
30
0
41
1
10
91.0845725904146
20
-7.00050578296577
30
0
41
1
10
91.1197503049318
20
-6.9973055854137
30
0
41
1
10
91.1373391621905
20
-6.99393796869788
30
0
41
1
10
91.2252834484837
20
-6.96786886804247
30
0
41
1
10
91.2956388775181
20
-6.9173315756068
30
0
41
1
10
91.4363497355871
20
-6.74881661144283
30
0
41
1
10
91.5067051646217
20
-6.63077098244898
30
0
41
1
10
91.6474160226907
20
-6.32388278924191
30
0
41
1
10
91.7177714517252
20
-6.13500235392468
30
0
41
1
10
91.8584823097941
20
-5.68964207842768
30
0
41
1
10
91.9288377388286
20
-5.43317570901908
30
0
41
1
10
92.0695485968976
20
-4.86283106295363
30
0
41
1
10
92.1399040259322
20
-4.54902030765186
30
0
41
1
10
92.2806148840012
20
-3.87993656576606
30
0
41
1
10
92.3509703130356
20
-3.52476449449171
30
0
41
1
10
92.4916811711046
20
-2.79204354153774
30
0
41
1
10
92.5620366001392
20
-2.41459522706441
30
0
41
1
10
92.7027474582081
20
-1.65638656651205
30
0
41
1
10
92.7731028872427
20
-1.27569765447089
30
0
41
1
10
92.8786360307944
20
-0.714454296659596
30
0
41
1
10
92.9138137453116
20
-0.528977078685074
30
0
41
1
10
92.9665803170875
20
-0.254402589156314
30
0
41
1
10
92.9841691743462
20
-0.163482485408252
30
0
41
1
10
93.0105524602341
20
-0.0281439673049135
30
0
41
1
10
93.0193468888634
20
0.0166926083728356
30
0
41
1
10
93.036935746122
20
0.106859269628558
30
0
41
1
10
93.0457301747513
20
0.152116967990622
30
0
41
1
10
93.1248800324151
20
0.560907606594355
30
0
41
1
10
93.1952354614498
20
0.934920975529309
30
0
41
1
10
93.3359463195187
20
1.69056743395421
30
0
41
1
10
93.4063017485532
20
2.07215486831876
30
0
41
1
10
93.5470126066222
20
2.82543107176176
30
0
41
1
10
93.6173680356567
20
3.19703541717948
30
0
41
1
10
93.7580788937257
20
3.91095895652262
30
0
41
1
10
93.8284343227601
20
4.25317348473899
30
0
41
1
10
93.9691451808291
20
4.88998943623085
30
0
41
1
10
94.0395006098636
20
5.18449852318463
30
0
41
1
10
94.1802114679327
20
5.71172254239445
30
0
41
1
10
94.2505668969673
20
5.94438841621363
30
0
41
1
10
94.3912777550362
20
6.34012127788895
30
0
41
1
10
94.4616331840707
20
6.5031950429248
30
0
41
1
10
94.6023440421397
20
6.75897516274208
30
0
41
1
10
94.6726994711742
20
6.8517333779921
30
0
41
1
10
94.8134103292432
20
6.97220964208148
30
0
41
1
10
94.8837657582778
20
7
30
0
41
1
10
94.9541211873122
20
7
30
0
0
SPLINE
5
E0
100
AcDbEntity
8
1
62
256
6
ByLayer
370
13
48
1
60
0
100
AcDbSpline
70
4
71
3
72
85
73
81
40
0
40
0
40
0
40
0
40
0.0312500000000012
40
0.0312500000000012
40
0.0625000000000023
40
0.0625000000000023
40
0.0703125000000022
40
0.0703125000000022
40
0.0781250000000022
40
0.0781250000000022
40
0.093750000000002
40
0.093750000000002
40
0.125000000000001
40
0.125000000000001
40
0.156250000000001
40
0.156250000000001
40
0.1875
40
0.1875
40
0.218749999999999
40
0.218749999999999
40
0.249999999999998
40
0.249999999999998
40
0.281249999999998
40
0.281249999999998
40
0.312499999999997
40
0.312499999999997
40
0.343749999999996
40
0.343749999999996
40
0.374999999999995
40
0.374999999999995
40
0.378906249999995
40
0.378906249999995
40
0.382812499999995
40
0.382812499999995
40
0.390624999999995
40
0.390624999999995
40
0.406249999999995
40
0.406249999999995
40
0.437499999999995
40
0.437499999999995
40
0.468749999999996
40
0.468749999999996
40
0.499999999999996
40
0.499999999999996
40
0.531249999999996
40
0.531249999999996
40
0.562499999999996
40
0.562499999999996
40
0.593749999999996
40
0.593749999999996
40
0.624999999999997
40
0.624999999999997
40
0.656249999999997
40
0.656249999999997
40
0.687499999999997
40
0.687499999999997
40
0.691406249999997
40
0.691406249999997
40
0.695312499999997
40
0.703124999999997
40
0.703124999999997
40
0.718749999999998
40
0.718749999999998
40
0.749999999999998
40
0.749999999999998
40
0.781249999999998
40
0.781249999999998
40
0.812499999999998
40
0.812499999999998
40
0.843749999999999
40
0.843749999999999
40
0.874999999999999
40
0.874999999999999
40
0.906249999999999
40
0.906249999999999
40
0.937499999999999
40
0.937499999999999
40
0.96875
40
0.96875
40
1
40
1
40
1
40
1
41
1
10
88.1999999999999
20
2.34338432232013
30
0
41
1
10
88.2651570563239
20
1.99377582435929
30
0
41
1
10
88.3303141126478
20
1.64065616596514
30
0
41
1
10
88.4606282252955
20
0.941107377556932
30
0
41
1
10
88.5257852816195
20
0.594708800001939
30
0
41
1
10
88.6072316020243
20
0.172755150988536
30
0
41
1
10
88.6235208661054
20
0.0889087679991007
30
0
41
1
10
88.6560993942674
20
-0.077556904461602
30
0
41
1
10
88.6723886583483
20
-0.161296419013269
30
0
41
1
10
88.7212564505912
20
-0.414319801328588
30
0
41
1
10
88.7538349787532
20
-0.585199064486744
30
0
41
1
10
88.8515705632391
20
-1.10253835040342
30
0
41
1
10
88.9167276195629
20
-1.45378751862333
30
0
41
1
10
89.0470417322107
20
-2.15659982802384
30
0
41
1
10
89.1121987885347
20
-2.50811967804151
30
0
41
1
10
89.2425129011824
20
-3.19673621509443
30
0
41
1
10
89.3076699575063
20
-3.53376820591623
30
0
41
1
10
89.4379840701541
20
-4.17801589611071
30
0
41
1
10
89.5031411264781
20
-4.48516006226831
30
0
41
1
10
89.6334552391259
20
-5.0556916976856
30
0
41
1
10
89.6986122954498
20
-5.31902088464417
30
0
41
1
10
89.8289264080975
20
-5.79146124753959
30
0
41
1
10
89.8940834644216
20
-6.00054405944627
30
0
41
1
10
90.0243975770693
20
-6.35886571155382
30
0
41
1
10
90.0895546333932
20
-6.50811155701189
30
0
41
1
10
90.219868746041
20
-6.74629740114096
30
0
41
1
10
90.285025802365
20
-6.83527261770672
30
0
41
1
10
90.4153399150128
20
-6.9569481447503
30
0
41
1
10
90.4804969713367
20
-6.98969735875872
30
0
41
1
10
90.553798659701
20
-6.9989369594521
30
0
41
1
10
90.5619432917415
20
-6.99958165102794
30
0
41
1
10
90.5782325558225
20
-7.00012329313239
30
0
41
1
10
90.5863771878629
20
-7.00002266480541
30
0
41
1
10
90.6108110839844
20
-6.99859666974285
30
0
41
1
10
90.6271003480655
20
-6.99614144928555
30
0
41
1
10
90.6759681403083
20
-6.98407240381158
30
0
41
1
10
90.7085466684704
20
-6.96975063369004
30
0
41
1
10
90.8062822529562
20
-6.90658093149838
30
0
41
1
10
90.8714393092801
20
-6.83741798605087
30
0
41
1
10
91.0017534219279
20
-6.63979634223503
30
0
41
1
10
91.0669104782518
20
-6.51129598533919
30
0
41
1
10
91.1972245908995
20
-6.19376484490394
30
0
41
1
10
91.2623816472235
20
-6.00471610913428
30
0
41
1
10
91.3926957598713
20
-5.56986758342956
30
0
41
1
10
91.4578528161952
20
-5.32408403149131
30
0
41
1
10
91.5881669288431
20
-4.78461691873073
30
0
41
1
10
91.6533239851669
20
-4.4909828650556
30
0
41
1
10
91.7836380978147
20
-3.86873460332046
30
0
41
1
10
91.8487951541387
20
-3.54018970046613
30
0
41
1
10
91.9791092667864
20
-2.86326377050369
30
0
41
1
10
92.0442663231104
20
-2.51495183823906
30
0
41
1
10
92.1745804357581
20
-1.81370485940505
30
0
41
1
10
92.239737492082
20
-1.46082143872158
30
0
41
1
10
92.3700516047299
20
-0.763842428753009
30
0
41
1
10
92.4352086610538
20
-0.419772917124845
30
0
41
1
10
92.5085103494182
20
-0.0435001240943791
30
0
41
1
10
92.5166549814587
20
-0.0019421910456572
30
0
41
1
10
92.5329442455396
20
0.0814565824691158
30
0
41
1
10
92.5573781416612
20
0.207007602809057
30
0
41
1
10
92.5818120377825
20
0.333841637082969
30
0
41
1
10
92.6306798300255
20
0.589000328378745
30
0
41
1
10
92.6632583581875
20
0.761099938719582
30
0
41
1
10
92.7609939426733
20
1.28138587165168
30
0
41
1
10
92.8261509989972
20
1.63364134765098
30
0
41
1
10
92.956465111645
20
2.33608035280534
30
0
41
1
10
93.0216221679689
20
2.68621633282228
30
0
41
1
10
93.1519362806167
20
3.36943283435568
30
0
41
1
10
93.2170933369407
20
3.70244622113896
30
0
41
1
10
93.3474074495884
20
4.33611740065933
30
0
41
1
10
93.4125645059124
20
4.6367044689745
30
0
41
1
10
93.5428786185602
20
5.1920440324227
30
0
41
1
10
93.608035674884
20
5.44674240329567
30
0
41
1
10
93.7383497875319
20
5.9005973696797
30
0
41
1
10
93.8035068438558
20
6.0997316179232
30
0
41
1
10
93.9338209565036
20
6.43771949572394
30
0
41
1
10
93.9989780128275
20
6.5765857414647
30
0
41
1
10
94.1292921254753
20
6.79441260940393
30
0
41
1
10
94.1944491817993
20
6.87341189731382
30
0
41
1
10
94.3247632944471
20
6.97618074524999
30
0
41
1
10
94.3899203507709
20
7
30
0
41
1
10
94.4550774070948
20
7
30
0
0
SPLINE
5
E1
100
AcDbEntity
8
1
62
256
6
ByLayer
370
13
48
1
60
0
100
AcDbSpline
70
4
71
3
72
78
73
74
40
0
40
0
40
0
40
0
40
0.0312499999999999
40
0.0312499999999999
40
0.0624999999999998
40
0.0624999999999998
40
0.0937499999999997
40
0.0937499999999997
40
0.125
40
0.125
40
0.15625
40
0.15625
40
0.1875
40
0.1875
40
0.21875
40
0.21875
40
0.249999999999999
40
0.249999999999999
40
0.281249999999999
40
0.281249999999999
40
0.3125
40
0.3125
40
0.320312499999999
40
0.320312499999999
40
0.328124999999999
40
0.328124999999999
40
0.343749999999999
40
0.343749999999999
40
0.374999999999999
40
0.374999999999999
40
0.40625
40
0.40625
40
0.4375
40
0.4375
40
0.46875
40
0.46875
40
0.5
40
0.5
40
0.53125
40
0.53125
40
0.5625
40
0.5625
40
0.59375
40
0.59375
40
0.625
40
0.625
40
0.65625
40
0.65625
40
0.6640625
40
0.6640625
40
0.671875
40
0.671875
40
0.6875
40
0.6875
40
0.71875
40
0.71875
40
0.75
40
0.75
40
0.78125
40
0.78125
40
0.8125
40
0.8125
40
0.84375
40
0.84375
40
0.875
40
0.875
40
0.90625
40
0.90625
40
0.9375
40
0.9375
40
0.96875
40
0.96875
40
1
40
1
40
1
40
1
41
1
10
88.2
20
-0.299382134654422
30
0
41
1
10
88.2599586836133
20
-0.610673244687973
30
0
41
1
10
88.3199173672267
20
-0.929263882151872
30
0
41
1
10
88.4398347344532
20
-1.57252917851039
30
0
41
1
10
88.4997934180665
20
-1.89718434328836
30
0
41
1
10
88.6197107852931
20
-2.54199134248759
30
0
41
1
10
88.6796694689064
20
-2.86210826943099
30
0
41
1
10
88.799586836133
20
-3.48600731730102
30
0
41
1
10
88.8595455197463
20
-3.78974394431074
30
0
41
1
10
88.979462886973
20
-4.36903701344286
30
0
41
1
10
89.0394215705862
20
-4.64454698717947
30
0
41
1
10
89.1593389378128
20
-5.15694787622255
30
0
41
1
10
89.2192976214262
20
-5.3938027231068
30
0
41
1
10
89.3392149886528
20
-5.82114272853124
30
0
41
1
10
89.3991736722662
20
-6.0116108698856
30
0
41
1
10
89.5190910394928
20
-6.34194018962518
30
0
41
1
10
89.5790497231061
20
-6.48180590644492
30
0
41
1
10
89.6989670903326
20
-6.7103966927813
30
0
41
1
10
89.758925773946
20
-6.79914382578295
30
0
41
1
10
89.8788431411725
20
-6.92824735800642
30
0
41
1
10
89.938801824786
20
-6.96863532412237
30
0
41
1
10
90.0137501793025
20
-6.99212352619668
30
0
41
1
10
90.0287398502059
20
-6.9954759102815
30
0
41
1
10
90.0587191920125
20
-6.99958666093943
30
0
41
1
10
90.0737088629157
20
-7.00034819484767
30
0
41
1
10
90.1186778756257
20
-6.9988725435133
30
0
41
1
10
90.1486572174324
20
-6.99282076745243
30
0
41
1
10
90.2385952428524
20
-6.95829758630882
30
0
41
1
10
90.2985539264657
20
-6.9133914549509
30
0
41
1
10
90.4184712936923
20
-6.77485925090005
30
0
41
1
10
90.4784299773056
20
-6.68120214849253
30
0
41
1
10
90.5983473445322
20
-6.44268544400214
30
0
41
1
10
90.6583060281455
20
-6.29780517064242
30
0
41
1
10
90.7782233953722
20
-5.95769088996568
30
0
41
1
10
90.8381820789855
20
-5.76245436154895
30
0
41
1
10
90.9580994462121
20
-5.32618322722701
30
0
41
1
10
91.0180581298254
20
-5.08516771935871
30
0
41
1
10
91.137975497052
20
-4.56536010870599
30
0
41
1
10
91.1979341806653
20
-4.28660554661835
30
0
41
1
10
91.317851547892
20
-3.70193847685061
30
0
41
1
10
91.3778102315052
20
-3.39607284778327
30
0
41
1
10
91.4977275987319
20
-2.76909353278168
30
0
41
1
10
91.5576862823452
20
-2.44802466953277
30
0
41
1
10
91.6776036495718
20
-1.80242036078295
30
0
41
1
10
91.7375623331851
20
-1.47791844367558
30
0
41
1
10
91.8574797004117
20
-0.835893771322532
30
0
41
1
10
91.9174383840249
20
-0.518388951529289
30
0
41
1
10
91.9923867385417
20
-0.131073933325183
30
0
41
1
10
92.0073764094449
20
-0.0542567685813822
30
0
41
1
10
92.0373557512515
20
0.0990785103035137
30
0
41
1
10
92.052345422155
20
0.17626187991462
30
0
41
1
10
92.0973144348649
20
0.409196989359799
30
0
41
1
10
92.1272937766715
20
0.566338368385487
30
0
41
1
10
92.2172318020916
20
1.04184968123394
30
0
41
1
10
92.2771904857048
20
1.36437119268018
30
0
41
1
10
92.3971078529314
20
2.01093814690674
30
0
41
1
10
92.4570665365447
20
2.33495689386848
30
0
41
1
10
92.5769839037714
20
2.97324022070077
30
0
41
1
10
92.6369425873846
20
3.28746419227355
30
0
41
1
10
92.7568599546113
20
3.89414972198159
30
0
41
1
10
92.8168186382246
20
4.18656395365159
30
0
41
1
10
92.9367360054512
20
4.73824356519128
30
0
41
1
10
92.9966946890645
20
4.99746581930177
30
0
41
1
10
93.116612056291
20
5.47339800443245
30
0
41
1
10
93.1765707399044
20
5.69007971064426
30
0
41
1
10
93.296488107131
20
6.07469953916825
30
0
41
1
10
93.3564467907443
20
6.24263048302447
30
0
41
1
10
93.4763641579709
20
6.5271986204051
30
0
41
1
10
93.5363228415843
20
6.6438490809474
30
0
41
1
10
93.656240208811
20
6.82688709141016
30
0
41
1
10
93.7161988924242
20
6.89330209005695
30
0
41
1
10
93.8361162596508
20
6.97984204014276
30
0
41
1
10
93.8960749432641
20
7
30
0
41
1
10
93.9560336268775
20
7
30
0
0
SPLINE
5
E2
100
AcDbEntity
8
1
62
256
6
ByLayer
370
13
48
1
60
0
100
AcDbSpline
70
4
71
3
72
77
73
73
40
0
40
0
40
0
40
0
40
0.0312499999999984
40
0.0312499999999984
40
0.0624999999999968
40
0.0624999999999968
40
0.0937499999999951
40
0.0937499999999951
40
0.124999999999994
40
0.124999999999994
40
0.156249999999992
40
0.156249999999992
40
0.18749999999999
40
0.18749999999999
40
0.218749999999989
40
0.218749999999989
40
0.249999999999987
40
0.249999999999987
40
0.257812499999987
40
0.257812499999987
40
0.265624999999987
40
0.265624999999987
40
0.281249999999987
40
0.281249999999987
40
0.312499999999988
40
0.312499999999988
40
0.343749999999988
40
0.343749999999988
40
0.374999999999989
40
0.374999999999989
40
0.406249999999989
40
0.406249999999989
40
0.43749999999999
40
0.43749999999999
40
0.468749999999991
40
0.468749999999991
40
0.499999999999991
40
0.499999999999991
40
0.531249999999991
40
0.531249999999991
40
0.562499999999992
40
0.562499999999992
40
0.593749999999992
40
0.593749999999992
40
0.624999999999993
40
0.624999999999993
40
0.632812499999994
40
0.632812499999994
40
0.640624999999994
40
0.656249999999995
40
0.656249999999995
40
0.687499999999995
40
0.687499999999995
40
0.718749999999996
40
0.718749999999996
40
0.749999999999996
40
0.749999999999996
40
0.781249999999997
40
0.781249999999997
40
0.812499999999997
40
0.812499999999997
40
0.843749999999998
40
0.843749999999998
40
0.874999999999998
40
0.874999999999998
40
0.906249999999999
40
0.906249999999999
40
0.937499999999999
40
0.937499999999999
40
0.96875
40
0.96875
40
1
40
1
40
1
40
1
41
1
10
88.1999999999999
20
-2.96172577897036
30
0
41
1
10
88.2547603109026
20
-3.24972669317839
30
0
41
1
10
88.3095206218054
20
-3.5320155467839
30
0
41
1
10
88.4190412436109
20
-4.07610540702402
30
0
41
1
10
88.4738015545136
20
-4.33787624345408
30
0
41
1
10
88.5833221763189
20
-4.83248111382926
30
0
41
1
10
88.6380824872217
20
-5.06528871828223
30
0
41
1
10
88.7476031090271
20
-5.49506163438033
30
0
41
1
10
88.8023634199297
20
-5.69200975087733
30
0
41
1
10
88.9118840417352
20
-6.04537584172903
30
0
41
1
10
88.9666443526379
20
-6.20178892813004
30
0
41
1
10
89.0761649744433
20
-6.47195494335656
30
0
41
1
10
89.1309252853459
20
-6.58571504442267
30
0
41
1
10
89.2404459071514
20
-6.77096452359504
30
0
41
1
10
89.2952062180542
20
-6.84247003217658
30
0
41
1
10
89.4047268398596
20
-6.94575550607362
30
0
41
1
10
89.4594871507622
20
-6.9775560371944
30
0
41
1
10
89.5279375393906
20
-6.9950609620476
30
0
41
1
10
89.5416276171163
20
-6.99745264636553
30
0
41
1
10
89.5690077725676
20
-7.00009199821278
30
0
41
1
10
89.5826978502934
20
-7.00034660716113
30
0
41
1
10
89.6237680834704
20
-6.99795688475916
30
0
41
1
10
89.6511482389218
20
-6.99211151561823
30
0
41
1
10
89.7332887052759
20
-6.9609349276534
30
0
41
1
10
89.7880490161786
20
-6.92191795474165
30
0
41
1
10
89.897569637984
20
-6.8035778190266
30
0
41
1
10
89.9523299488867
20
-6.72423456994179
30
0
41
1
10
90.0618505706921
20
-6.52305366242857
30
0
41
1
10
90.1166108815947
20
-6.40120123777135
30
0
41
1
10
90.2261315034001
20
-6.11504927485333
30
0
41
1
10
90.2808918143029
20
-5.95074467360561
30
0
41
1
10
90.3904124361084
20
-5.58228475176441
30
0
41
1
10
90.445172747011
20
-5.37813672525849
30
0
41
1
10
90.5546933688164
20
-4.93510979720782
30
0
41
1
10
90.6094536797192
20
-4.69625016263976
30
0
41
1
10
90.7189743015246
20
-4.19104007384715
30
0
41
1
10
90.7737346124273
20
-3.92471722108783
30
0
41
1
10
90.8832552342328
20
-3.37322097583771
30
0
41
1
10
90.9380155451354
20
-3.088077764242
30
0
41
1
10
91.0475361669409
20
-2.50809106116401
30
0
41
1
10
91.1022964778435
20
-2.21327442885459
30
0
41
1
10
91.211817099649
20
-1.6227234307147
30
0
41
1
10
91.2665774105517
20
-1.32700837769309
30
0
41
1
10
91.3760980323572
20
-0.742368558852263
30
0
41
1
10
91.4308583432598
20
-0.45345390004681
30
0
41
1
10
91.4993087318882
20
-0.100422129546388
30
0
41
1
10
91.5129988096139
20
-0.0304522276960597
30
0
41
1
10
91.5403789650652
20
0.109729409335813
30
0
41
1
10
91.5814491982422
20
0.321280906377467
30
0
41
1
10
91.6225194314192
20
0.536309154950004
30
0
41
1
10
91.7046598977734
20
0.969893378661794
30
0
41
1
10
91.759420208676
20
1.26369912458432
30
0
41
1
10
91.8689408304814
20
1.85371184535953
30
0
41
1
10
91.9237011413842
20
2.14990318977536
30
0
41
1
10
92.0332217631895
20
2.73628590658498
30
0
41
1
10
92.0879820740923
20
3.02645310915921
30
0
41
1
10
92.1975026958978
20
3.59169795147318
30
0
41
1
10
92.2522630068004
20
3.86674610768858
30
0
41
1
10
92.3617836286057
20
4.39279480958874
30
0
41
1
10
92.4165439395085
20
4.64376595789247
30
0
41
1
10
92.526064561314
20
5.11373991209885
30
0
41
1
10
92.5808248722167
20
5.33271947336513
30
0
41
1
10
92.690345494022
20
5.73263971034379
30
0
41
1
10
92.7451058049248
20
5.91356799485447
30
0
41
1
10
92.8546264267303
20
6.23371587195712
30
0
41
1
10
92.9093867376329
20
6.37293568402748
30
0
41
1
10
93.0189073594383
20
6.60858371973464
30
0
41
1
10
93.0736676703411
20
6.70502324157044
30
0
41
1
10
93.1831882921465
20
6.85643314194354
30
0
41
1
10
93.2379486030492
20
6.91142201819983
30
0
41
1
10
93.3474692248545
20
6.98319491243058
30
0
41
1
10
93.4022295357574
20
7
30
0
41
1
10
93.4569898466601
20
7
30
0
0
SPLINE
5
E3
100
AcDbEntity
8
1
62
256
6
ByLayer
370
13
48
1
60
0
100
AcDbSpline
70
4
71
3
72
78
73
74
40
0
40
0
40
0
40
0
40
0.031250000000001
40
0.031250000000001
40
0.0625000000000021
40
0.0625000000000021
40
0.0937500000000031
40
0.0937500000000031
40
0.125000000000004
40
0.125000000000004
40
0.156250000000005
40
0.156250000000005
40
0.171875000000006
40
0.171875000000006
40
0.179687500000006
40
0.179687500000006
40
0.187500000000006
40
0.187500000000006
40
0.218750000000004
40
0.218750000000004
40
0.250000000000003
40
0.250000000000003
40
0.281250000000001
40
0.281250000000001
40
0.3125
40
0.3125
40
0.343749999999998
40
0.343749999999998
40
0.374999999999997
40
0.374999999999997
40
0.406249999999995
40
0.406249999999995
40
0.437499999999993
40
0.437499999999993
40
0.468749999999992
40
0.468749999999992
40
0.49999999999999
40
0.49999999999999
40
0.531249999999989
40
0.531249999999989
40
0.562499999999987
40
0.562499999999987
40
0.578124999999987
40
0.578124999999987
40
0.585937499999986
40
0.585937499999986
40
0.593749999999986
40
0.593749999999986
40
0.624999999999987
40
0.624999999999987
40
0.656249999999988
40
0.656249999999988
40
0.68749999999999
40
0.68749999999999
40
0.718749999999991
40
0.718749999999991
40
0.749999999999992
40
0.749999999999992
40
0.781249999999993
40
0.781249999999993
40
0.812499999999994
40
0.812499999999994
40
0.843749999999995
40
0.843749999999995
40
0.874999999999996
40
0.874999999999996
40
0.906249999999997
40
0.906249999999997
40
0.937499999999998
40
0.937499999999998
40
0.968749999999999
40
0.968749999999999
40
1
40
1
40
1
40
1
41
1
10
88.2
20
-5.30443221833099
30
0
41
1
10
88.2495619381921
20
-5.49769701807219
30
0
41
1
10
88.2991238763842
20
-5.67619283398147
30
0
41
1
10
88.3982477527684
20
-6.00017783907484
30
0
41
1
10
88.4478096909605
20
-6.14566361752821
30
0
41
1
10
88.5469335673448
20
-6.40184992864863
30
0
41
1
10
88.5964955055368
20
-6.51255380472634
30
0
41
1
10
88.6956193819211
20
-6.69910755856083
30
0
41
1
10
88.7451813201133
20
-6.7749661515542
30
0
41
1
10
88.8443051964974
20
-6.89328313586333
30
0
41
1
10
88.8938671346895
20
-6.93575344098582
30
0
41
1
10
88.9682100419777
20
-6.97640226843356
30
0
41
1
10
88.9929910110738
20
-6.98611733877783
30
0
41
1
10
89.0301624647178
20
-6.99524698386199
30
0
41
1
10
89.0425529492659
20
-6.99738340241777
30
0
41
1
10
89.0673339183619
20
-6.99989798286023
30
0
41
1
10
89.07972440291
20
-7.00027935472892
30
0
41
1
10
89.1416768256502
20
-6.99789613066264
30
0
41
1
10
89.1912387638422
20
-6.98210168340643
30
0
41
1
10
89.2903626402264
20
-6.91937106404805
30
0
41
1
10
89.3399245784185
20
-6.872422068822
30
0
41
1
10
89.4390484548027
20
-6.74486634921334
30
0
41
1
10
89.4886103929948
20
-6.66424801266737
30
0
41
1
10
89.5877342693791
20
-6.46808645583533
30
0
41
1
10
89.6372962075712
20
-6.35253514385701
30
0
41
1
10
89.7364200839554
20
-6.08679400525807
30
0
41
1
10
89.7859820221476
20
-5.93660171207816
30
0
41
1
10
89.8851058985318
20
-5.60358453326594
30
0
41
1
10
89.9346678367239
20
-5.42076402906801
30
0
41
1
10
90.033791713108
20
-5.02619076078307
30
0
41
1
10
90.0833536513002
20
-4.81444904892277
30
0
41
1
10
90.1824775276844
20
-4.36719440382461
30
0
41
1
10
90.2320394658765
20
-4.13169751988144
30
0
41
1
10
90.3311633422608
20
-3.64313990199992
30
0
41
1
10
90.3807252804529
20
-3.39009746398006
30
0
41
1
10
90.479849156837
20
-2.8731758593886
30
0
41
1
10
90.5294110950292
20
-2.6093141899789
30
0
41
1
10
90.6285349714134
20
-2.07745237488823
30
0
41
1
10
90.6780969096055
20
-1.80946640462389
30
0
41
1
10
90.7772207859898
20
-1.27554127347744
30
0
41
1
10
90.8267827241818
20
-1.00961150479807
30
0
41
1
10
90.90112563147
20
-0.616237634507769
30
0
41
1
10
90.9259066005661
20
-0.486025482016316
30
0
41
1
10
90.9630780542102
20
-0.292498598210216
30
0
41
1
10
90.9754685387583
20
-0.228287656701497
30
0
41
1
10
91.0002495078543
20
-0.100525707965602
30
0
41
1
10
91.0126399924022
20
-0.0371304843288556
30
0
41
1
10
91.0745924151424
20
0.279808617509559
30
0
41
1
10
91.1241543533345
20
0.539031002725352
30
0
41
1
10
91.2232782297187
20
1.06451210105178
30
0
41
1
10
91.2728401679108
20
1.33076614890461
30
0
41
1
10
91.371964044295
20
1.86493792068313
30
0
41
1
10
91.4215259824872
20
2.13284590003522
30
0
41
1
10
91.5206498588715
20
2.66410106089845
30
0
41
1
10
91.5702117970636
20
2.92743377668302
30
0
41
1
10
91.6693356734478
20
3.44282779565523
30
0
41
1
10
91.7188976116399
20
3.69487145548271
30
0
41
1
10
91.818021488024
20
4.18097943916462
30
0
41
1
10
91.8675834262161
20
4.41502552292133
30
0
41
1
10
91.9667073026005
20
4.85898223873738
30
0
41
1
10
92.0162692407926
20
5.06887708683104
30
0
41
1
10
92.1153931171767
20
5.4594493497747
30
0
41
1
10
92.1649550553689
20
5.64011613542988
30
0
41
1
10
92.2640789317531
20
5.96863037172
30
0
41
1
10
92.3136408699452
20
6.11647392613122
30
0
41
1
10
92.4127647463293
20
6.37744255293069
30
0
41
1
10
92.4623266845215
20
6.49057053353079
30
0
41
1
10
92.5614505609058
20
6.68192525791036
30
0
41
1
10
92.6110124990978
20
6.76016041040521
30
0
41
1
10
92.710136375482
20
6.88308719137035
30
0
41
1
10
92.7596983136742
20
6.92779058842888
30
0
41
1
10
92.8588221900585
20
6.98624057863233
30
0
41
1
10
92.9083841282505
20
7
30
0
41
1
10
92.9579460664426
20
7
30
0
0
SPLINE
5
E4
100
AcDbEntity
8
1
62
256
6
ByLayer
370
13
48
1
60
0
100
AcDbSpline
70
4
71
3
72
10
73
6
40
0
40
0
40
0
40
0
40
0.5
40
0.5
40
1
40
1
40
1
40
1
41
1
10
95.6856570908713
20
7
30
0
41
1
10
95.7300823024156
20
7
30
0
41
1
10
95.7745075139597
20
6.98894939870527
30
0
41
1
10
95.8633579370482
20
6.94226400475731
30
0
41
1
10
95.9077831485924
20
6.90662178463742
30
0
41
1
10
95.9522083601366
20
6.85769976026674
30
0
0
SPLINE
5
E5
100
AcDbEntity
8
1
62
256
6
ByLayer
370
13
48
1
60
0
100
AcDbSpline
70
4
71
3
72
78
73
74
40
0
40
0
40
0
40
0
40
0.0312500000000006
40
0.0312500000000006
40
0.0625000000000013
40
0.0625000000000013
40
0.0781250000000019
40
0.0781250000000019
40
0.0859375000000023
40
0.0859375000000023
40
0.0937500000000026
40
0.0937500000000026
40
0.125000000000003
40
0.125000000000003
40
0.156250000000004
40
0.156250000000004
40
0.187500000000004
40
0.187500000000004
40
0.218750000000005
40
0.218750000000005
40
0.250000000000006
40
0.250000000000006
40
0.281250000000006
40
0.281250000000006
40
0.312500000000007
40
0.312500000000007
40
0.343750000000007
40
0.343750000000007
40
0.375000000000008
40
0.375000000000008
40
0.406250000000008
40
0.406250000000008
40
0.437500000000009
40
0.437500000000009
40
0.46875000000001
40
0.46875000000001
40
0.50000000000001
40
0.50000000000001
40
0.531250000000011
40
0.531250000000011
40
0.539062500000011
40
0.539062500000011
40
0.546875000000011
40
0.546875000000011
40
0.562500000000011
40
0.562500000000011
40
0.59375000000001
40
0.59375000000001
40
0.62500000000001
40
0.62500000000001
40
0.656250000000009
40
0.656250000000009
40
0.687500000000008
40
0.687500000000008
40
0.718750000000007
40
0.718750000000007
40
0.750000000000006
40
0.750000000000006
40
0.781250000000006
40
0.781250000000006
40
0.812500000000005
40
0.812500000000005
40
0.843750000000004
40
0.843750000000004
40
0.875000000000003
40
0.875000000000003
40
0.906250000000003
40
0.906250000000003
40
0.937500000000002
40
0.937500000000002
40
0.968750000000001
40
0.968750000000001
40
1
40
1
40
1
40
1
41
1
10
88.2
20
-6.69895781267161
30
0
41
1
10
88.2443635654815
20
-6.77142711674429
30
0
41
1
10
88.288727130963
20
-6.83009303672685
30
0
41
1
10
88.377454261926
20
-6.92113738861568
30
0
41
1
10
88.4218178274076
20
-6.95352292894449
30
0
41
1
10
88.4883631756298
20
-6.98391879897429
30
0
41
1
10
88.5105449583706
20
-6.9910252299766
30
0
41
1
10
88.5438176324817
20
-6.99737381051341
30
0
41
1
10
88.5549085238521
20
-6.99877171132553
30
0
41
1
10
88.5770903065929
20
-7.00017113150889
30
0
41
1
10
88.5881811979632
20
-7.00017779323949
30
0
41
1
10
88.6436356548151
20
-6.99674736386785
30
0
41
1
10
88.6879992202967
20
-6.9828188143633
30
0
41
1
10
88.7767263512596
20
-6.93017264221234
30
0
41
1
10
88.8210899167411
20
-6.89144763753853
30
0
41
1
10
88.9098170477042
20
-6.78731969879698
30
0
41
1
10
88.9541806131857
20
-6.72190987186144
30
0
41
1
10
89.0429077441487
20
-6.56328703035888
30
0
41
1
10
89.0872713096302
20
-6.47006866937699
30
0
41
1
10
89.1759984405932
20
-6.25565490482293
30
0
41
1
10
89.2203620060748
20
-6.13445673513661
30
0
41
1
10
89.3090891370377
20
-5.86498647949568
30
0
41
1
10
89.3534527025193
20
-5.716714966925
30
0
41
1
10
89.4421798334823
20
-5.39511358900978
30
0
41
1
10
89.4865433989639
20
-5.22178789009496
30
0
41
1
10
89.5752705299269
20
-4.85313544924264
30
0
41
1
10
89.6196340954085
20
-4.65781609119711
30
0
41
1
10
89.7083612263715
20
-4.2491000450122
30
0
41
1
10
89.752724791853
20
-4.0357129974669
30
0
41
1
10
89.841451922816
20
-3.59539208446591
30
0
41
1
10
89.8858154882975
20
-3.36846878013281
30
0
41
1
10
89.9745426192605
20
-2.90590420689742
30
0
41
1
10
90.018906184742
20
-2.67027301552375
30
0
41
1
10
90.1076333157051
20
-2.19510489547275
30
0
41
1
10
90.1519968811866
20
-1.95557638960918
30
0
41
1
10
90.2407240121496
20
-1.47712750728471
30
0
41
1
10
90.2850875776311
20
-1.23821316301581
30
0
41
1
10
90.3738147085941
20
-0.764988876016758
30
0
41
1
10
90.4181782740756
20
-0.530682334647935
30
0
41
1
10
90.4736327309275
20
-0.242762337810404
30
0
41
1
10
90.4847236222979
20
-0.185424778913131
30
0
41
1
10
90.5069054050387
20
-0.0712876045232633
30
0
41
1
10
90.5179962964091
20
-0.0146653157941046
30
0
41
1
10
90.5512689705202
20
0.155709510880627
30
0
41
1
10
90.5734507532609
20
0.270413377803493
30
0
41
1
10
90.6399961014832
20
0.617346359891201
30
0
41
1
10
90.6843596669647
20
0.852418375394251
30
0
41
1
10
90.7730867979278
20
1.32671324539322
30
0
41
1
10
90.8174503634093
20
1.56593237556703
30
0
41
1
10
90.9061774943724
20
2.04445706154729
30
0
41
1
10
90.9505410598538
20
2.28375626635796
30
0
41
1
10
91.0392681908169
20
2.75788159604639
30
0
41
1
10
91.0836317562984
20
2.99269904337305
30
0
41
1
10
91.1723588872615
20
3.45303334761652
30
0
41
1
10
91.2167224527429
20
3.67853999644117
30
0
41
1
10
91.3054495837059
20
4.11544405759997
30
0
41
1
10
91.3498131491874
20
4.32683094488686
30
0
41
1
10
91.4385402801505
20
4.73102175894491
30
0
41
1
10
91.482903845632
20
4.92381625689865
30
0
41
1
10
91.571630976595
20
5.28698836371314
30
0
41
1
10
91.6159945420765
20
5.45735894531688
30
0
41
1
10
91.7047216730396
20
5.77274075688453
30
0
41
1
10
91.749085238521
20
5.91774825789719
30
0
41
1
10
91.837812369484
20
6.18051723951433
30
0
41
1
10
91.8821759349656
20
6.29827858588953
30
0
41
1
10
91.9709030659286
20
6.50578287087617
30
0
41
1
10
92.0152666314101
20
6.59552894419821
30
0
41
1
10
92.1039937623731
20
6.74729775137229
30
0
41
1
10
92.1483573278546
20
6.80932608189232
30
0
41
1
10
92.2370844588178
20
6.90688745831434
30
0
41
1
10
92.2814480242993
20
6.94242751298569
30
0
41
1
10
92.3701751552622
20
6.98898009580393
30
0
41
1
10
92.4145387207437
20
7
30
0
41
1
10
92.4589022862252
20
7
30
0
0
SPLINE
5
E6
100
AcDbEntity
8
1
62
256
6
ByLayer
370
13
48
1
60
0
100
AcDbSpline
70
4
71
3
72
14
73
10
40
0
40
0
40
0
40
0
40
0.25
40
0.25
40
0.5
40
0.5
40
0.75
40
0.75
40
1
40
1
40
1
40
1
41
1
10
95.1866133106539
20
7
30
0
41
1
10
95.2504128981108
20
7
30
0
41
1
10
95.3142124855677
20
6.97716666008475
30
0
41
1
10
95.4418116604814
20
6.87877769656365
30
0
41
1
10
95.5056112479384
20
6.8031772574509
30
0
41
1
10
95.6332104228522
20
6.59474026741282
30
0
41
1
10
95.6970100103091
20
6.46186818957614
30
0
41
1
10
95.8246091852229
20
6.13825516113661
30
0
41
1
10
95.8884087726797
20
5.9475010448302
30
0
41
1
10
95.9522083601366
20
5.7298263601642
30
0
0
SPLINE
5
E7
100
AcDbEntity
8
1
62
256
6
ByLayer
370
13
48
1
60
0
100
AcDbSpline
70
4
71
3
72
42
73
38
40
0
40
0
40
0
40
0
40
0.0625
40
0.0625
40
0.125
40
0.125
40
0.1875
40
0.1875
40
0.25
40
0.25
40
0.3125
40
0.3125
40
0.375
40
0.375
40
0.4375
40
0.4375
40
0.46875
40
0.46875
40
0.484375
40
0.484375
40
0.5
40
0.5
40
0.5625
40
0.5625
40
0.625
40
0.625
40
0.6875
40
0.6875
40
0.75
40
0.75
40
0.8125
40
0.8125
40
0.875
40
0.875
40
0.9375
40
0.9375
40
1
40
1
40
1
40
1
41
1
10
88.2
20
-6.97395603955869
30
0
41
1
10
88.2783303855419
20
-6.93829620744401
30
0
41
1
10
88.3566607710836
20
-6.86467059785585
30
0
41
1
10
88.5133215421673
20
-6.63172461096099
30
0
41
1
10
88.5916519277091
20
-6.47229916885593
30
0
41
1
10
88.7483126987928
20
-6.0661141251357
30
0
41
1
10
88.8266430843346
20
-5.8193232716724
30
0
41
1
10
88.9833038554183
20
-5.24739063613686
30
0
41
1
10
89.0616342409601
20
-4.92232244609454
30
0
41
1
10
89.2182950120438
20
-4.2128830430849
30
0
41
1
10
89.2966253975856
20
-3.82866936105609
30
0
41
1
10
89.4532861686693
20
-3.02644929538229
30
0
41
1
10
89.5316165542111
20
-2.60861985943336
30
0
41
1
10
89.6882773252947
20
-1.76585135354031
30
0
41
1
10
89.7666077108366
20
-1.34104274000549
30
0
41
1
10
89.8841032891494
20
-0.715756809581393
30
0
41
1
10
89.9232684819203
20
-0.509274957697926
30
0
41
1
10
89.9820162710766
20
-0.204172600899284
30
0
41
1
10
90.0015988674621
20
-0.103238557404524
30
0
41
1
10
90.040764060233
20
0.0968534922214985
30
0
41
1
10
90.0603466566185
20
0.197714990332372
30
0
41
1
10
90.1582596385458
20
0.706055742893597
30
0
41
1
10
90.2365900240875
20
1.12529734277419
30
0
41
1
10
90.3932507951712
20
1.96917845548913
30
0
41
1
10
90.4715811807131
20
2.39372524795183
30
0
41
1
10
90.6282419517967
20
3.22302116565177
30
0
41
1
10
90.7065723373386
20
3.62761031939786
30
0
41
1
10
90.8632331084223
20
4.39023894191402
30
0
41
1
10
90.9415634939641
20
4.74810176514342
30
0
41
1
10
91.0982242650477
20
5.39425145560273
30
0
41
1
10
91.1765546505895
20
5.68241623379186
30
0
41
1
10
91.3332154216731
20
6.17462323123831
30
0
41
1
10
91.411545807215
20
6.37864469032223
30
0
41
1
10
91.5682065782987
20
6.69877634247976
30
0
41
1
10
91.6465369638406
20
6.81496054203944
30
0
41
1
10
91.8031977349242
20
6.96551161597992
30
0
41
1
10
91.8815281204661
20
7
30
0
41
1
10
91.9598585060078
20
7
30
0
0
SPLINE
5
E8
100
AcDbEntity
8
1
62
256
6
ByLayer
370
13
48
1
60
0
100
AcDbSpline
70
4
71
3
72
22
73
18
40
0
40
0
40
0
40
0
40
0.125
40
0.125
40
0.25
40
0.25
40
0.375
40
0.375
40
0.5
40
0.5
40
0.625
40
0.625
40
0.75
40
0.75
40
0.875
40
0.875
40
1
40
1
40
1
40
1
41
1
10
94.6875695304365
20
7
30
0
41
1
10
94.7402628150073
20
7
30
0
41
1
10
94.7929560995782
20
6.98444268776146
30
0
41
1
10
94.8983426687198
20
6.91813930520402
30
0
41
1
10
94.9510359532907
20
6.86737583119265
30
0
41
1
10
95.0564225224324
20
6.72766703278347
30
0
41
1
10
95.1091158070032
20
6.6387061418358
30
0
41
1
10
95.2145023761448
20
6.42123006378748
30
0
41
1
10
95.2671956607157
20
6.29270468658831
30
0
41
1
10
95.3725822298575
20
5.99674809341715
30
0
41
1
10
95.4252755144282
20
5.82931516859534
30
0
41
1
10
95.5306620835699
20
5.45840238144234
30
0
41
1
10
95.5833553681407
20
5.25493080687232
30
0
41
1
10
95.6887419372824
20
4.81691520314189
30
0
41
1
10
95.7414352218532
20
4.5823886026057
30
0
41
1
10
95.8468217909949
20
4.08896147413879
30
0
41
1
10
95.8995150755658
20
3.83008434547855
30
0
41
1
10
95.9522083601366
20
3.56291821018334
30
0
0
SPLINE
5
E9
100
AcDbEntity
8
1
62
256
6
ByLayer
370
13
48
1
60
0
100
AcDbSpline
70
4
71
3
72
40
73
36
40
0
40
0
40
0
40
0
40
0.0624999999999995
40
0.0624999999999995
40
0.124999999999999
40
0.124999999999999
40
0.187499999999998
40
0.187499999999998
40
0.249999999999998
40
0.249999999999998
40
0.312499999999997
40
0.312499999999997
40
0.374999999999997
40
0.374999999999997
40
0.406249999999997
40
0.406249999999997
40
0.437499999999996
40
0.437499999999996
40
0.499999999999997
40
0.499999999999997
40
0.562499999999997
40
0.562499999999997
40
0.624999999999997
40
0.624999999999997
40
0.687499999999998
40
0.687499999999998
40
0.749999999999998
40
0.749999999999998
40
0.812499999999999
40
0.812499999999999
40
0.874999999999999
40
0.874999999999999
40
0.9375
40
0.9375
40
1
40
1
40
1
40
1
41
1
10
88.1999999999999
20
-6.19187632404638
30
0
41
1
10
88.2679336401206
20
-6.00648970760932
30
0
41
1
10
88.3358672802412
20
-5.78852012752631
30
0
41
1
10
88.4717345604825
20
-5.29371799778468
30
0
41
1
10
88.5396682006032
20
-5.01692121656032
30
0
41
1
10
88.6755354808445
20
-4.41645494189748
30
0
41
1
10
88.743469120965
20
-4.09285888691329
30
0
41
1
10
88.8793364012063
20
-3.41480503757293
30
0
41
1
10
88.947270041327
20
-3.06043550879372
30
0
41
1
10
89.0831373215682
20
-2.33834246465196
30
0
41
1
10
89.1510709616889
20
-1.97069554857029
30
0
41
1
10
89.2869382419302
20
-1.23848014999936
30
0
41
1
10
89.3548718820507
20
-0.873958949603065
30
0
41
1
10
89.4567723422318
20
-0.339568178455863
30
0
41
1
10
89.4907391622921
20
-0.163673444901889
30
0
41
1
10
89.5586728024127
20
0.183532345478739
30
0
41
1
10
89.592639622473
20
0.359806154349599
30
0
41
1
10
89.6945400826539
20
0.894657710987673
30
0
41
1
10
89.7624737227746
20
1.25937555260427
30
0
41
1
10
89.8983410030158
20
1.99169549125168
30
0
41
1
10
89.9662746431364
20
2.35924966958541
30
0
41
1
10
90.1021419233778
20
3.08082677557829
30
0
41
1
10
90.1700755634983
20
3.43477267394675
30
0
41
1
10
90.3059428437396
20
4.1116512418663
30
0
41
1
10
90.3738764838603
20
4.43449567003054
30
0
41
1
10
90.5097437641016
20
5.03318421140807
30
0
41
1
10
90.5776774042222
20
5.30895542500809
30
0
41
1
10
90.7135446844634
20
5.80152811241706
30
0
41
1
10
90.7814783245841
20
6.01829466972939
30
0
41
1
10
90.9173456048254
20
6.38660048604459
30
0
41
1
10
90.985279244946
20
6.53815009053557
30
0
41
1
10
91.1211465251872
20
6.77585532566809
30
0
41
1
10
91.1890801653079
20
6.8620564593233
30
0
41
1
10
91.3249474455492
20
6.97409831839269
30
0
41
1
10
91.3928810856698
20
7
30
0
41
1
10
91.4608147257904
20
7
30
0
0
SPLINE
5
EA
100
AcDbEntity
8
1
62
256
6
ByLayer
370
13
48
1
60
0
100
AcDbSpline
70
4
71
3
72
22
73
18
40
0
40
0
40
0
40
0
40
0.125
40
0.125
40
0.25
40
0.25
40
0.375
40
0.375
40
0.5
40
0.5
40
0.625
40
0.625
40
0.75
40
0.75
40
0.875
40
0.875
40
1
40
1
40
1
40
1
41
1
10
94.1885257502191
20
7
30
0
41
1
10
94.2620125256324
20
7
30
0
41
1
10
94.3354993010456
20
6.96966740279635
30
0
41
1
10
94.482472851872
20
6.83780458294677
30
0
41
1
10
94.5559596272852
20
6.73618503114668
30
0
41
1
10
94.7029331781117
20
6.45601904583259
30
0
41
1
10
94.776419953525
20
6.27741214480949
30
0
41
1
10
94.9233935043515
20
5.84489880643133
30
0
41
1
10
94.9968802797646
20
5.59099306259034
30
0
41
1
10
95.1438538305911
20
5.01787590848429
30
0
41
1
10
95.2173406060043
20
4.69873696962063
30
0
41
1
10
95.3643141568307
20
4.01242653468626
30
0
41
1
10
95.437800932244
20
3.64537683662664
30
0
41
1
10
95.5847744830705
20
2.88476573796848
30
0
41
1
10
95.6582612584837
20
2.49133107468475
30
0
41
1
10
95.8052348093101
20
1.69981030729463
30
0
41
1
10
95.8787215847234
20
1.30181543421716
30
0
41
1
10
95.9522083601366
20
0.910889802071779
30
0
0
SPLINE
5
EB
100
AcDbEntity
8
1
62
256
6
ByLayer
370
13
48
1
60
0
100
AcDbSpline
70
4
71
3
72
42
73
38
40
0
40
0
40
0
40
0
40
0.0625
40
0.0625
40
0.125
40
0.125
40
0.1875
40
0.1875
40
0.25
40
0.25
40
0.28125
40
0.28125
40
0.296875
40
0.296875
40
0.3125
40
0.3125
40
0.375
40
0.375
40
0.4375
40
0.4375
40
0.5
40
0.5
40
0.5625
40
0.5625
40
0.625
40
0.625
40
0.6875
40
0.6875
40
0.75
40
0.75
40
0.8125
40
0.8125
40
0.875
40
0.875
40
0.9375
40
0.9375
40
1
40
1
40
1
40
1
41
1
10
88.2
20
-4.29918784923188
30
0
41
1
10
88.2575368946995
20
-4.02850306836316
30
0
41
1
10
88.3150737893989
20
-3.74352706743898
30
0
41
1
10
88.4301475787977
20
-3.15516197183518
30
0
41
1
10
88.4876844734972
20
-2.85181111007046
30
0
41
1
10
88.602758262896
20
-2.2372956748606
30
0
41
1
10
88.6602951575954
20
-1.92616309018555
30
0
41
1
10
88.7753689469944
20
-1.30595824513512
30
0
41
1
10
88.8329058416938
20
-0.996906762948583
30
0
41
1
10
88.919211183743
20
-0.541130839608599
30
0
41
1
10
88.9479796310927
20
-0.390491882973834
30
0
41
1
10
88.9911323021173
20
-0.167106427649145
30
0
41
1
10
89.005516525792
20
-0.093072453617026
30
0
41
1
10
89.0342849731418
20
0.0540445338855022
30
0
41
1
10
89.0486691968167
20
0.1277698599757
30
0
41
1
10
89.1205903151911
20
0.499314704236355
30
0
41
1
10
89.1781272098904
20
0.803613467910225
30
0
41
1
10
89.2932009992893
20
1.41906593668071
30
0
41
1
10
89.3507378939889
20
1.73020566440303
30
0
41
1
10
89.4658116833876
20
2.35024732925101
30
0
41
1
10
89.5233485780871
20
2.65912301046515
30
0
41
1
10
89.638422367486
20
3.26433058603507
30
0
41
1
10
89.6959592621854
20
3.56062680883693
30
0
41
1
10
89.8110330515842
20
4.13010019491523
30
0
41
1
10
89.8685699462837
20
4.40323881439704
30
0
41
1
10
89.9836437356826
20
4.91669421849949
30
0
41
1
10
90.041180630382
20
5.15697810710236
30
0
41
1
10
90.1562544197809
20
5.59699902776674
30
0
41
1
10
90.2137913144804
20
5.79671630138361
30
0
41
1
10
90.3288651038793
20
6.15067305019409
30
0
41
1
10
90.3864019985787
20
6.30490955558193
30
0
41
1
10
90.5014757879775
20
6.56611840647807
30
0
41
1
10
90.559012682677
20
6.67310330596968
30
0
41
1
10
90.6740864720758
20
6.84101401779697
30
0
41
1
10
90.7316233667754
20
6.90196282334966
30
0
41
1
10
90.8466971561742
20
6.98144235305091
30
0
41
1
10
90.9042340508736
20
7
30
0
41
1
10
90.9617709455731
20
7
30
0
0
SPLINE
5
EC
100
AcDbEntity
8
1
62
256
6
ByLayer
370
13
48
1
60
0
100
AcDbSpline
70
4
71
3
72
42
73
38
40
0
40
0
40
0
40
0
40
0.0624999999999995
40
0.0624999999999995
40
0.124999999999999
40
0.124999999999999
40
0.187499999999999
40
0.187499999999999
40
0.249999999999998
40
0.249999999999998
40
0.312499999999998
40
0.312499999999998
40
0.374999999999997
40
0.374999999999997
40
0.437499999999997
40
0.437499999999997
40
0.499999999999996
40
0.499999999999996
40
0.562499999999996
40
0.562499999999996
40
0.624999999999996
40
0.624999999999996
40
0.687499999999995
40
0.687499999999995
40
0.749999999999995
40
0.749999999999995
40
0.812499999999995
40
0.812499999999995
40
0.843749999999995
40
0.843749999999995
40
0.859374999999995
40
0.859374999999995
40
0.874999999999995
40
0.874999999999995
40
0.937499999999998
40
0.937499999999998
40
1
40
1
40
1
40
1
41
1
10
93.6894819700018
20
7
30
0
41
1
10
93.7366221031295
20
7
30
0
41
1
10
93.7837622362573
20
6.98755488999669
30
0
41
1
10
93.8780425025129
20
6.93482382280453
30
0
41
1
10
93.9251826356408
20
6.89452787470861
30
0
41
1
10
94.0194629018964
20
6.7838040917286
30
0
41
1
10
94.0666030350243
20
6.71336693037952
30
0
41
1
10
94.1608833012799
20
6.54104326759091
30
0
41
1
10
94.2080234344077
20
6.43914971627044
30
0
41
1
10
94.3023037006632
20
6.20382148172709
30
0
41
1
10
94.3494438337911
20
6.0703835847531
30
0
41
1
10
94.4437241000467
20
5.7732603012646
30
0
41
1
10
94.4908642331744
20
5.60957661185708
30
0
41
1
10
94.58514449943
20
5.25466706711401
30
0
41
1
10
94.6322846325579
20
5.06344803045309
30
0
41
1
10
94.7265648988135
20
4.65745690279169
30
0
41
1
10
94.7737050319412
20
4.44269593740461
30
0
41
1
10
94.8679852981969
20
3.99462053255144
30
0
41
1
10
94.9151254313248
20
3.76131983785385
30
0
41
1
10
95.0094056975803
20
3.28179471789966
30
0
41
1
10
95.0565458307082
20
3.03558452386307
30
0
41
1
10
95.1508260969638
20
2.53607219445024
30
0
41
1
10
95.1979662300917
20
2.28278274247532
30
0
41
1
10
95.2922464963473
20
1.77473442651092
30
0
41
1
10
95.3393866294751
20
1.51998521900043
30
0
41
1
10
95.4336668957308
20
1.0140904742704
30
0
41
1
10
95.4808070288585
20
0.762950871167448
30
0
41
1
10
95.5515172285502
20
0.392160087811988
30
0
41
1
10
95.5750872951141
20
0.269542930463757
30
0
41
1
10
95.61044239496
20
0.0874250260537508
30
0
41
1
10
95.6222274282418
20
0.0271908594609442
30
0
41
1
10
95.6457974948058
20
-0.0934381967168747
30
0
41
1
10
95.6575825280878
20
-0.154069927139034
30
0
41
1
10
95.7165076944975
20
-0.458683918349607
30
0
41
1
10
95.7636478276255
20
-0.707067509984682
30
0
41
1
10
95.8579280938811
20
-1.2093025353918
30
0
41
1
10
95.9050682270088
20
-1.46314957453083
30
0
41
1
10
95.9522083601366
20
-1.71734711376396
30
0
0
SPLINE
5
ED
100
AcDbEntity
8
1
62
256
6
ByLayer
370
13
48
1
60
0
100
AcDbSpline
70
4
71
3
72
42
73
38
40
0
40
0
40
0
40
0
40
0.0625000000000024
40
0.0625000000000024
40
0.125000000000005
40
0.125000000000005
40
0.140625000000005
40
0.140625000000005
40
0.156250000000005
40
0.156250000000005
40
0.187500000000004
40
0.187500000000004
40
0.250000000000004
40
0.250000000000004
40
0.312500000000004
40
0.312500000000004
40
0.375000000000003
40
0.375000000000003
40
0.437500000000003
40
0.437500000000003
40
0.500000000000003
40
0.500000000000003
40
0.562500000000002
40
0.562500000000002
40
0.625000000000002
40
0.625000000000002
40
0.687500000000002
40
0.687500000000002
40
0.750000000000001
40
0.750000000000001
40
0.812500000000001
40
0.812500000000001
40
0.875000000000001
40
0.875000000000001
40
0.9375
40
0.9375
40
1
40
1
40
1
40
1
41
1
10
88.1999999999999
20
-1.71735129404971
30
0
41
1
10
88.2471401492782
20
-1.46315366422593
30
0
41
1
10
88.2942802985565
20
-1.2093065206769
30
0
41
1
10
88.3885605971129
20
-0.707071267764888
30
0
41
1
10
88.4357007463912
20
-0.458687553061566
30
0
41
1
10
88.4946259329889
20
-0.154073401673941
30
0
41
1
10
88.5064109703085
20
-0.0934416388971044
30
0
41
1
10
88.5299810449476
20
0.0271874825058944
30
0
41
1
10
88.5417660822673
20
0.087421647081527
30
0
41
1
10
88.5771211942259
20
0.269539580506546
30
0
41
1
10
88.600691268865
20
0.392156759977979
30
0
41
1
10
88.6714014927824
20
0.762947618130653
30
0
41
1
10
88.7185416420606
20
1.01408728238937
30
0
41
1
10
88.8128219406171
20
1.51998217129159
30
0
41
1
10
88.8599620898954
20
1.77473146182396
30
0
41
1
10
88.9542423884519
20
2.2827799631898
30
0
41
1
10
89.0013825377301
20
2.53606951754094
30
0
41
1
10
89.0956628362866
20
3.03558206671312
30
0
41
1
10
89.1428029855648
20
3.28179237811938
30
0
41
1
10
89.2370832841214
20
3.76131774186888
30
0
41
1
10
89.2842234333997
20
3.99461856296963
30
0
41
1
10
89.3785037319561
20
4.44269422267962
30
0
41
1
10
89.4256438812342
20
4.65745531649256
30
0
41
1
10
89.5199241797907
20
5.06344669576751
30
0
41
1
10
89.567064329069
20
5.25466585558857
30
0
41
1
10
89.6613446276256
20
5.6095756346956
30
0
41
1
10
89.7084847769038
20
5.77325943528527
30
0
41
1
10
89.8027650754603
20
6.07038292379443
30
0
41
1
10
89.8499052247386
20
6.2038209145951
30
0
41
1
10
89.9441855232951
20
6.43914931590734
30
0
41
1
10
89.9913256725732
20
6.54104294016929
30
0
41
1
10
90.0856059711297
20
6.71336672645086
30
0
41
1
10
90.132746120408
20
6.78380393836022
30
0
41
1
10
90.2270264189644
20
6.89452780046997
30
0
41
1
10
90.2741665682428
20
6.93482377715026
30
0
41
1
10
90.3684468667992
20
6.98755488145321
30
0
41
1
10
90.4155870160774
20
7
30
0
41
1
10
90.4627271653557
20
7
30
0
0
SPLINE
5
EE
100
AcDbEntity
8
1
62
256
6
ByLayer
370
13
48
1
60
0
100
AcDbSpline
70
4
71
3
72
42
73
38
40
0
40
0
40
0
40
0
40
0.0624999999999993
40
0.0624999999999993
40
0.124999999999999
40
0.124999999999999
40
0.187499999999998
40
0.187499999999998
40
0.249999999999997
40
0.249999999999997
40
0.312499999999997
40
0.312499999999997
40
0.374999999999996
40
0.374999999999996
40
0.437499999999995
40
0.437499999999995
40
0.499999999999994
40
0.499999999999994
40
0.562499999999994
40
0.562499999999994
40
0.624999999999993
40
0.624999999999993
40
0.687499999999992
40
0.687499999999992
40
0.703124999999992
40
0.703124999999992
40
0.718749999999992
40
0.718749999999992
40
0.749999999999994
40
0.749999999999994
40
0.812499999999995
40
0.812499999999995
40
0.874999999999997
40
0.874999999999997
40
0.937499999999998
40
0.937499999999998
40
1
40
1
40
1
40
1
41
1
10
93.1904381897843
20
7
30
0
41
1
10
93.2479750683334
20
7
30
0
41
1
10
93.3055119468823
20
6.98144236350015
30
0
41
1
10
93.4205857039804
20
6.9019628798294
30
0
41
1
10
93.4781225825293
20
6.8410141098953
30
0
41
1
10
93.5931963396274
20
6.67310349666349
30
0
41
1
10
93.6507332181764
20
6.56611866017684
30
0
41
1
10
93.7658069752744
20
6.30490996176792
30
0
41
1
10
93.8233438538234
20
6.15067354586853
30
0
41
1
10
93.9384176109214
20
5.79671699796418
30
0
41
1
10
93.9959544894704
20
5.59699983574174
30
0
41
1
10
94.1110282465685
20
5.15697915181542
30
0
41
1
10
94.1685651251175
20
4.91669538850644
30
0
41
1
10
94.2836388822155
20
4.40324023864687
30
0
41
1
10
94.3411757607645
20
4.13010174805152
30
0
41
1
10
94.4562495178625
20
3.56062861253929
30
0
41
1
10
94.5137863964114
20
3.26433251136066
30
0
41
1
10
94.6288601535095
20
2.65912516225822
30
0
41
1
10
94.6863970320585
20
2.35024958585339
30
0
41
1
10
94.8014707891565
20
1.73020810698415
30
0
41
1
10
94.8590076677055
20
1.41906846042352
30
0
41
1
10
94.9740814248034
20
0.803616126837426
30
0
41
1
10
95.0316183033525
20
0.499317417201553
30
0
41
1
10
95.1035394015388
20
0.127772623354957
30
0
41
1
10
95.117923621176
20
0.0540472886667374
30
0
41
1
10
95.1466920604504
20
-0.0930696335335597
30
0
41
1
10
95.1610762800878
20
-0.167103575223763
30
0
41
1
10
95.2042289389995
20
-0.390488934724658
30
0
41
1
10
95.232997378274
20
-0.541127829076316
30
0
41
1
10
95.3193026960975
20
-0.996903572698358
30
0
41
1
10
95.3768395746466
20
-1.30595494457066
30
0
41
1
10
95.4919133317446
20
-1.92615960125411
30
0
41
1
10
95.5494502102936
20
-2.23729210795074
30
0
41
1
10
95.6645239673915
20
-2.85180743228906
30
0
41
1
10
95.7220608459406
20
-3.15515826124226
30
0
41
1
10
95.8371346030386
20
-3.7435233461766
30
0
41
1
10
95.8946714815876
20
-4.02849936930727
30
0
41
1
10
95.9522083601366
20
-4.29918420217152
30
0
0
SPLINE
5
EF
100
AcDbEntity
8
1
62
256
6
ByLayer
370
13
48
1
60
0
100
AcDbSpline
70
4
71
3
72
22
73
18
40
0
40
0
40
0
40
0
40
0.125
40
0.125
40
0.25
40
0.25
40
0.375
40
0.375
40
0.5
40
0.5
40
0.625
40
0.625
40
0.75
40
0.75
40
0.875
40
0.875
40
1
40
1
40
1
40
1
41
1
10
88.1999999999999
20
0.910885678150578
30
0
41
1
10
88.2734868077141
20
1.30181143371013
30
0
41
1
10
88.3469736154282
20
1.69980646549368
30
0
41
1
10
88.4939472308564
20
2.49132761036884
30
0
41
1
10
88.5674340385705
20
2.88476249238144
30
0
41
1
10
88.7144076539986
20
3.64537406437975
30
0
41
1
10
88.7878944617128
20
4.01242401682168
30
0
41
1
10
88.9348680771409
20
4.69873496250247
30
0
41
1
10
89.008354884855
20
5.01787415740128
30
0
41
1
10
89.1553285002832
20
5.59099179073186
30
0
41
1
10
89.2288153079973
20
5.84489775748804
30
0
41
1
10
89.3757889234255
20
6.27741148276422
30
0
41
1
10
89.4492757311396
20
6.45601854767358
30
0
41
1
10
89.5962493465678
20
6.73618479042935
30
0
41
1
10
89.6697361542819
20
6.83780443587514
30
0
41
1
10
89.8167097697101
20
6.96966737598834
30
0
41
1
10
89.8901965774241
20
7
30
0
41
1
10
89.9636833851383
20
7
30
0
0
SPLINE
5
F0
100
AcDbEntity
8
1
62
256
6
ByLayer
370
13
48
1
60
0
100
AcDbSpline
70
4
71
3
72
40
73
36
40
0
40
0
40
0
40
0
40
0.0624999999999994
40
0.0624999999999994
40
0.124999999999999
40
0.124999999999999
40
0.187499999999998
40
0.187499999999998
40
0.249999999999997
40
0.249999999999997
40
0.312499999999997
40
0.312499999999997
40
0.374999999999996
40
0.374999999999996
40
0.437499999999995
40
0.437499999999995
40
0.499999999999994
40
0.499999999999994
40
0.562499999999994
40
0.562499999999994
40
0.593749999999994
40
0.593749999999994
40
0.624999999999994
40
0.624999999999994
40
0.687499999999995
40
0.687499999999995
40
0.749999999999996
40
0.749999999999996
40
0.812499999999997
40
0.812499999999997
40
0.874999999999998
40
0.874999999999998
40
0.937499999999999
40
0.937499999999999
40
1
40
1
40
1
40
1
41
1
10
92.6913944095669
20
7
30
0
41
1
10
92.7593280335371
20
7
30
0
41
1
10
92.8272616575074
20
6.97409833076293
30
0
41
1
10
92.9631289054478
20
6.862056526863
30
0
41
1
10
93.031062529418
20
6.77585543607776
30
0
41
1
10
93.1669297773584
20
6.53815031919581
30
0
41
1
10
93.2348634013285
20
6.38660079012664
30
0
41
1
10
93.370730649269
20
6.01829515369113
30
0
41
1
10
93.4386642732392
20
5.80152870081824
30
0
41
1
10
93.5745315211796
20
5.30895624184797
30
0
41
1
10
93.6424651451498
20
5.03318515216324
30
0
41
1
10
93.7783323930902
20
4.43449686424384
30
0
41
1
10
93.8462660170604
20
4.11165256550245
30
0
41
1
10
93.9821332650008
20
3.43477424687072
30
0
41
1
10
94.0500668889709
20
3.08082846826079
30
0
41
1
10
94.1859341369113
20
2.35925157938087
30
0
41
1
10
94.2538677608816
20
1.99169749834763
30
0
41
1
10
94.389735008822
20
1.25937772392174
30
0
41
1
10
94.4576686327921
20
0.894659949232675
30
0
41
1
10
94.5595690687475
20
0.359808468405333
30
0
41
1
10
94.5935358807326
20
0.183534680750228
30
0
41
1
10
94.6614695047027
20
-0.163671075156884
30
0
41
1
10
94.6954363166879
20
-0.339565699178024
30
0
41
1
10
94.7973367526432
20
-0.873956285447264
30
0
41
1
10
94.8652703766134
20
-1.23847737233089
30
0
41
1
10
95.0011376245538
20
-1.97069258174054
30
0
41
1
10
95.069071248524
20
-2.33833942231712
30
0
41
1
10
95.2049384964644
20
-3.06043237103589
30
0
41
1
10
95.2728721204346
20
-3.41480188005264
30
0
41
1
10
95.4087393683749
20
-4.09285575765509
30
0
41
1
10
95.4766729923452
20
-4.41645186076499
30
0
41
1
10
95.6125402402856
20
-5.01691830202827
30
0
41
1
10
95.6804738642559
20
-5.29371520172089
30
0
41
1
10
95.8163411121962
20
-5.78851763008228
30
0
41
1
10
95.8842747361664
20
-6.00648739020014
30
0
41
1
10
95.9522083601366
20
-6.19187420851628
30
0
0
SPLINE
5
F1
100
AcDbEntity
8
1
62
256
6
ByLayer
370
13
48
1
60
0
100
AcDbSpline
70
4
71
3
72
22
73
18
40
0
40
0
40
0
40
0
40
0.125
40
0.125
40
0.25
40
0.25
40
0.375
40
0.375
40
0.5
40
0.5
40
0.625
40
0.625
40
0.75
40
0.75
40
0.875
40
0.875
40
1
40
1
40
1
40
1
41
1
10
88.2
20
3.56291427964862
30
0
41
1
10
88.2526933168717
20
3.83008065974804
30
0
41
1
10
88.3053866337434
20
4.08895804286993
30
0
41
1
10
88.4107732674868
20
4.58238568200852
30
0
41
1
10
88.4634665843585
20
4.81691253866691
30
0
41
1
10
88.5688532181019
20
5.25492863829919
30
0
41
1
10
88.6215465349736
20
5.45840045256662
30
0
41
1
10
88.7269331687171
20
5.8293136869392
30
0
41
1
10
88.7796264855887
20
5.99674681922718
30
0
41
1
10
88.8850131193321
20
6.29270378372868
30
0
41
1
10
88.9377064362038
20
6.42122932477358
30
0
41
1
10
89.0430930699472
20
6.63870568103809
30
0
41
1
10
89.095786386819
20
6.72766668637416
30
0
41
1
10
89.2011730205624
20
6.86737566375467
30
0
41
1
10
89.253866337434
20
6.91813920239201
30
0
41
1
10
89.3592529711775
20
6.98444266864192
30
0
41
1
10
89.4119462880491
20
7
30
0
41
1
10
89.4646396049209
20
7
30
0
0
SPLINE
5
F2
100
AcDbEntity
8
1
62
256
6
ByLayer
370
13
48
1
60
0
100
AcDbSpline
70
4
71
3
72
42
73
38
40
0
40
0
40
0
40
0
40
0.0624999999999999
40
0.0624999999999999
40
0.125
40
0.125
40
0.1875
40
0.1875
40
0.25
40
0.25
40
0.312499999999999
40
0.312499999999999
40
0.374999999999999
40
0.374999999999999
40
0.437499999999999
40
0.437499999999999
40
0.499999999999999
40
0.499999999999999
40
0.515625
40
0.515625
40
0.53125
40
0.53125
40
0.5625
40
0.5625
40
0.625
40
0.625
40
0.6875
40
0.6875
40
0.75
40
0.75
40
0.8125
40
0.8125
40
0.875
40
0.875
40
0.9375
40
0.9375
40
1
40
1
40
1
40
1
41
1
10
92.1923506293496
20
7
30
0
41
1
10
92.2706809987411
20
7
30
0
41
1
10
92.3490113681323
20
6.96551163029068
30
0
41
1
10
92.5056721069151
20
6.81496062085211
30
0
41
1
10
92.5840024763065
20
6.69877647160374
30
0
41
1
10
92.7406632150893
20
6.37864495723343
30
0
41
1
10
92.8189935844807
20
6.17462358566976
30
0
41
1
10
92.9756543232635
20
5.68241679272501
30
0
41
1
10
93.0539846926549
20
5.39425213142943
30
0
41
1
10
93.2106454314377
20
4.7481026880215
30
0
41
1
10
93.2889758008291
20
4.39023999475435
30
0
41
1
10
93.4456365396119
20
3.62761162517904
30
0
41
1
10
93.5239669090033
20
3.22302259421124
30
0
41
1
10
93.6806276477862
20
2.3937268971608
30
0
41
1
10
93.7589580171775
20
1.96918020246534
30
0
41
1
10
93.9156187559603
20
1.12529924967976
30
0
41
1
10
93.9939491253517
20
0.7060577119789
30
0
41
1
10
94.091862087091
20
0.197717013536703
30
0
41
1
10
94.1114446794387
20
0.0968555016811479
30
0
41
1
10
94.1506098641344
20
-0.103236482552006
30
0
41
1
10
94.1701924564823
20
-0.204170493761865
30
0
41
1
10
94.2289402335259
20
-0.509272755451519
30
0
41
1
10
94.2681054182216
20
-0.715754546249684
30
0
41
1
10
94.3856009723087
20
-1.34104030479219
30
0
41
1
10
94.4639313417
20
-1.76584881895562
30
0
41
1
10
94.6205920804828
20
-2.60861718106895
30
0
41
1
10
94.6989224498742
20
-3.02644657288582
30
0
41
1
10
94.855583188657
20
-3.82866662520195
30
0
41
1
10
94.9339135580485
20
-4.21288033822543
30
0
41
1
10
95.0905742968312
20
-4.92231988506353
30
0
41
1
10
95.1689046662227
20
-5.24738818796209
30
0
41
1
10
95.3255654050054
20
-5.81932112084547
30
0
41
1
10
95.4038957743968
20
-6.06611215859732
30
0
41
1
10
95.5605565131796
20
-6.47229761794853
30
0
41
1
10
95.638886882571
20
-6.63172329108616
30
0
41
1
10
95.7955476213538
20
-6.86466975639527
30
0
41
1
10
95.8738779907452
20
-6.93829561311154
30
0
41
1
10
95.9522083601366
20
-6.97395568663893
30
0
0
SPLINE
5
F3
100
AcDbEntity
8
1
62
256
6
ByLayer
370
13
48
1
60
0
100
AcDbSpline
70
4
71
3
72
14
73
10
40
0
40
0
40
0
40
0
40
0.25
40
0.25
40
0.5
40
0.5
40
0.75
40
0.75
40
1
40
1
40
1
40
1
41
1
10
88.2
20
5.72982371522494
30
0
41
1
10
88.2637996520587
20
5.94749883677619
30
0
41
1
10
88.3275993041173
20
6.13825334805873
30
0
41
1
10
88.4551986082345
20
6.4618670535163
30
0
41
1
10
88.5189982602931
20
6.59473941337623
30
0
41
1
10
88.6465975644104
20
6.80317684514083
30
0
41
1
10
88.710397216469
20
6.87877744410278
30
0
41
1
10
88.8379965205862
20
6.97716661366746
30
0
41
1
10
88.9017961726448
20
7
30
0
41
1
10
88.9655958247035
20
7
30
0
0
SPLINE
5
F4
100
AcDbEntity
8
1
62
256
6
ByLayer
370
13
48
1
60
0
100
AcDbSpline
70
4
71
3
72
77
73
73
40
0
40
0
40
0
40
0
40
0.0312500000000002
40
0.0312500000000002
40
0.0625000000000003
40
0.0625000000000003
40
0.0937500000000005
40
0.0937500000000005
40
0.125000000000001
40
0.125000000000001
40
0.156250000000001
40
0.156250000000001
40
0.187500000000001
40
0.187500000000001
40
0.218750000000001
40
0.218750000000001
40
0.250000000000002
40
0.250000000000002
40
0.281250000000002
40
0.281250000000002
40
0.312500000000002
40
0.312500000000002
40
0.343750000000002
40
0.343750000000002
40
0.375000000000002
40
0.375000000000002
40
0.406250000000003
40
0.406250000000003
40
0.437500000000003
40
0.437500000000003
40
0.453125000000003
40
0.453125000000003
40
0.460937500000003
40
0.460937500000003
40
0.468750000000003
40
0.468750000000003
40
0.500000000000004
40
0.500000000000004
40
0.531250000000004
40
0.531250000000004
40
0.562500000000004
40
0.562500000000004
40
0.593750000000005
40
0.593750000000005
40
0.625000000000005
40
0.625000000000005
40
0.656250000000006
40
0.656250000000006
40
0.687500000000006
40
0.687500000000006
40
0.718750000000006
40
0.718750000000006
40
0.750000000000007
40
0.750000000000007
40
0.781250000000007
40
0.781250000000007
40
0.812500000000008
40
0.812500000000008
40
0.843750000000008
40
0.843750000000008
40
0.875000000000008
40
0.875000000000008
40
0.906250000000009
40
0.906250000000009
40
0.914062500000008
40
0.914062500000008
40
0.921875000000008
40
0.937500000000006
40
0.937500000000006
40
0.968750000000003
40
0.968750000000003
40
1
40
1
40
1
40
1
41
1
10
91.6933068491321
20
7
30
0
41
1
10
91.7376704065384
20
7
30
0
41
1
10
91.7820339639448
20
6.98898009982221
30
0
41
1
10
91.8707610787574
20
6.9424275343884
30
0
41
1
10
91.9151246361637
20
6.9068874930899
30
0
41
1
10
92.0038517509763
20
6.80932615366766
30
0
41
1
10
92.0482153083825
20
6.74729784678061
30
0
41
1
10
92.1369424231951
20
6.59552909741944
30
0
41
1
10
92.1813059806014
20
6.50578305828134
30
0
41
1
10
92.270033095414
20
6.2982788517325
30
0
41
1
10
92.3143966528204
20
6.18051754961192
30
0
41
1
10
92.403123767633
20
5.91774866525199
30
0
41
1
10
92.4474873250392
20
5.77274121723857
30
0
41
1
10
92.5362144398518
20
5.45735951828769
30
0
41
1
10
92.5805779972581
20
5.28698899629418
30
0
41
1
10
92.6693051120707
20
4.92381701254146
30
0
41
1
10
92.713668669477
20
4.73102257802915
30
0
41
1
10
92.8023957842896
20
4.32683189153715
30
0
41
1
10
92.8467593416958
20
4.11544506836367
30
0
41
1
10
92.9354864565085
20
3.67854113290255
30
0
41
1
10
92.9798500139148
20
3.453034545652
30
0
41
1
10
93.0685771287274
20
2.99270035908898
30
0
41
1
10
93.1129406861336
20
2.75788296786126
30
0
41
1
10
93.2016678009463
20
2.28375774250935
30
0
41
1
10
93.2460313583525
20
2.04445858593243
30
0
41
1
10
93.334758473165
20
1.56593398688256
30
0
41
1
10
93.3791220305714
20
1.32671489540525
30
0
41
1
10
93.4678491453839
20
0.85242009236427
30
0
41
1
10
93.5122127027902
20
0.617348105125529
30
0
41
1
10
93.5787580388997
20
0.270415157486354
30
0
41
1
10
93.6009398176029
20
0.155711300727091
30
0
41
1
10
93.6342124856577
20
-0.0146635126520493
30
0
41
1
10
93.6453033750092
20
-0.0712857820397517
30
0
41
1
10
93.6674851537123
20
-0.185422924104671
30
0
41
1
10
93.6785760430639
20
-0.242760466975852
30
0
41
1
10
93.7340304898218
20
-0.530680384503228
30
0
41
1
10
93.7783940472281
20
-0.764986865035354
30
0
41
1
10
93.8671211620406
20
-1.2382110393734
30
0
41
1
10
93.911484719447
20
-1.47712533182866
30
0
41
1
10
94.0002118342596
20
-1.9555741235263
30
0
41
1
10
94.0445753916658
20
-2.19510259059018
30
0
41
1
10
94.1333025064784
20
-2.67027064984779
30
0
41
1
10
94.1776660638848
20
-2.90590181924233
30
0
41
1
10
94.2663931786974
20
-3.36846636851988
30
0
41
1
10
94.3107567361037
20
-3.59538967088739
30
0
41
1
10
94.3994838509162
20
-4.03571060211644
30
0
41
1
10
94.4438474083225
20
-4.24909766986428
30
0
41
1
10
94.5325745231352
20
-4.6578137793978
30
0
41
1
10
94.5769380805414
20
-4.85313318059195
30
0
41
1
10
94.665665195354
20
-5.22178572991672
30
0
41
1
10
94.7100287527603
20
-5.39511149415083
30
0
41
1
10
94.7987558675729
20
-5.71671302258835
30
0
41
1
10
94.8431194249793
20
-5.86498462035118
30
0
41
1
10
94.9318465397918
20
-6.13445506268303
30
0
41
1
10
94.9762100971981
20
-6.25565333385305
30
0
41
1
10
95.0649372120107
20
-6.47006731321738
30
0
41
1
10
95.1093007694169
20
-6.56328578750956
30
0
41
1
10
95.1980278842295
20
-6.72190886260677
30
0
41
1
10
95.2423914416358
20
-6.78731880981192
30
0
41
1
10
95.3311185564485
20
-6.89144699126834
30
0
41
1
10
95.3754821138547
20
-6.93017211837622
30
0
41
1
10
95.4642092286673
20
-6.98281853323834
30
0
41
1
10
95.5085727860736
20
-6.99674720301326
30
0
41
1
10
95.5640272328315
20
-7.00017777912751
30
0
41
1
10
95.5751181221831
20
-7.00017114634929
30
0
41
1
10
95.5972999008862
20
-6.99877178589259
30
0
41
1
10
95.6305725689409
20
-6.99457861170228
30
0
41
1
10
95.6638452369956
20
-6.98391906303436
30
0
41
1
10
95.7303905731051
20
-6.95352339671908
30
0
41
1
10
95.7747541305114
20
-6.92113800297741
30
0
41
1
10
95.8634812453241
20
-6.83009396357929
30
0
41
1
10
95.9078448027303
20
-6.77142820950252
30
0
41
1
10
95.9522083601365
20
-6.69895907901824
30
0
0
SPLINE
5
F5
100
AcDbEntity
8
1
62
256
6
ByLayer
370
13
48
1
60
0
100
AcDbSpline
70
4
71
3
72
10
73
6
40
0
40
0
40
0
40
0
40
0.5
40
0.5
40
1
40
1
40
1
40
1
41
1
10
88.1999999999999
20
6.85769890657511
30
0
41
1
10
88.2444253407476
20
6.90662122739855
30
0
41
1
10
88.2888506814953
20
6.94226366180902
30
0
41
1
10
88.3777013629907
20
6.98894933432243
30
0
41
1
10
88.4221267037385
20
7
30
0
41
1
10
88.4665520444861
20
7
30
0
0
SPLINE
5
F6
100
AcDbEntity
8
1
62
256
6
ByLayer
370
13
48
1
60
0
100
AcDbSpline
70
4
71
3
72
76
73
72
40
0
40
0
40
0
40
0
40
0.0312500000000008
40
0.0312500000000008
40
0.0625000000000015
40
0.0625000000000015
40
0.0937500000000023
40
0.0937500000000023
40
0.125000000000003
40
0.125000000000003
40
0.156250000000004
40
0.156250000000004
40
0.187500000000005
40
0.187500000000005
40
0.218750000000005
40
0.218750000000005
40
0.250000000000006
40
0.250000000000006
40
0.281250000000007
40
0.281250000000007
40
0.312500000000007
40
0.312500000000007
40
0.343750000000008
40
0.343750000000008
40
0.375000000000009
40
0.375000000000009
40
0.40625000000001
40
0.40625000000001
40
0.41406250000001
40
0.41406250000001
40
0.421875000000011
40
0.437500000000011
40
0.437500000000011
40
0.468750000000011
40
0.468750000000011
40
0.500000000000012
40
0.500000000000012
40
0.531250000000012
40
0.531250000000012
40
0.562500000000012
40
0.562500000000012
40
0.593750000000012
40
0.593750000000012
40
0.625000000000012
40
0.625000000000012
40
0.656250000000013
40
0.656250000000013
40
0.687500000000013
40
0.687500000000013
40
0.718750000000013
40
0.718750000000013
40
0.750000000000013
40
0.750000000000013
40
0.781250000000013
40
0.781250000000013
40
0.812500000000014
40
0.812500000000014
40
0.820312500000013
40
0.820312500000013
40
0.828125000000013
40
0.843750000000012
40
0.843750000000012
40
0.87500000000001
40
0.87500000000001
40
0.906250000000007
40
0.906250000000007
40
0.937500000000005
40
0.937500000000005
40
0.968750000000002
40
0.968750000000002
40
1
40
1
40
1
40
1
41
1
10
91.1942630689148
20
7
30
0
41
1
10
91.2438249990317
20
7
30
0
41
1
10
91.2933869291486
20
6.98624058312546
30
0
41
1
10
91.3925107893824
20
6.92779061250582
30
0
41
1
10
91.4420727194993
20
6.88308723054843
30
0
41
1
10
91.541196579733
20
6.76016049139923
30
0
41
1
10
91.5907585098498
20
6.6819253656281
30
0
41
1
10
91.6898823700836
20
6.490570706413
30
0
41
1
10
91.7394443002007
20
6.37744276425826
30
0
41
1
10
91.8385681604344
20
6.11647422504475
30
0
41
1
10
91.8881300905514
20
5.96863071977239
30
0
41
1
10
91.9872539507851
20
5.64011659025877
30
0
41
1
10
92.0368158809019
20
5.45944986223233
30
0
41
1
10
92.1359397411356
20
5.06887771983304
30
0
41
1
10
92.1855016712527
20
4.85898293464032
30
0
41
1
10
92.2846255314864
20
4.41502634604652
30
0
41
1
10
92.3341874616033
20
4.18098032659381
30
0
41
1
10
92.4333113218371
20
3.69487246891245
30
0
41
1
10
92.4828732519539
20
3.44282887076557
30
0
41
1
10
92.5819971121878
20
2.92743496887297
30
0
41
1
10
92.6315590423047
20
2.66410230847609
30
0
41
1
10
92.7306829025384
20
2.13284724920868
30
0
41
1
10
92.7802448326554
20
1.86493931605972
30
0
41
1
10
92.8793686928892
20
1.33076762563618
30
0
41
1
10
92.928930623006
20
1.06451361293637
30
0
41
1
10
93.0280544832398
20
0.539032573074167
30
0
41
1
10
93.0776164133567
20
0.279810211175374
30
0
41
1
10
93.1395688260029
20
-0.0371288688060645
30
0
41
1
10
93.1519593085321
20
-0.100524069158809
30
0
41
1
10
93.1767402735905
20
-0.228285985686995
30
0
41
1
10
93.2139117211781
20
-0.420917686921285
30
0
41
1
10
93.2510831687658
20
-0.616235869564264
30
0
41
1
10
93.3254260639412
20
-1.0096096508631
30
0
41
1
10
93.3749879940581
20
-1.2755393644737
30
0
41
1
10
93.4741118542919
20
-1.80946439892492
30
0
41
1
10
93.5236737844087
20
-2.07745032758291
30
0
41
1
10
93.6227976446426
20
-2.6093120777378
30
0
41
1
10
93.6723595747595
20
-2.87317372384069
30
0
41
1
10
93.7714834349933
20
-3.39009530415578
30
0
41
1
10
93.8210453651102
20
-3.64313774122641
30
0
41
1
10
93.9201692253439
20
-4.13169538216903
30
0
41
1
10
93.9697311554608
20
-4.36719229013531
30
0
41
1
10
94.0688550156946
20
-4.8144470089066
30
0
41
1
10
94.1184169458115
20
-5.02618877041834
30
0
41
1
10
94.2175408060453
20
-5.4207621621193
30
0
41
1
10
94.2671027361621
20
-5.60358274007103
30
0
41
1
10
94.366226596396
20
-5.93660008694894
30
0
41
1
10
94.4157885265129
20
-6.08679247442035
30
0
41
1
10
94.5149123867467
20
-6.35253381704601
30
0
41
1
10
94.5644743168635
20
-6.46808523873455
30
0
41
1
10
94.6635981770973
20
-6.66424702446048
30
0
41
1
10
94.7131601072142
20
-6.74486548016617
30
0
41
1
10
94.812283967448
20
-6.87242144149988
30
0
41
1
10
94.861845897565
20
-6.91937055927264
30
0
41
1
10
94.9609697577988
20
-6.98210142161923
30
0
41
1
10
95.0105316879155
20
-6.9978959893059
30
0
41
1
10
95.0724841005617
20
-7.00027935977951
30
0
41
1
10
95.084874583091
20
-6.99989801710643
30
0
41
1
10
95.1096555481494
20
-6.99738349722716
30
0
41
1
10
95.1468269957371
20
-6.99097506191072
30
0
41
1
10
95.1839984433248
20
-6.97640255642551
30
0
41
1
10
95.2583413385001
20
-6.93575393792321
30
0
41
1
10
95.307903268617
20
-6.89328378401703
30
0
41
1
10
95.4070271288508
20
-6.77496712271699
30
0
41
1
10
95.4565890589677
20
-6.69910870151685
30
0
41
1
10
95.5557129192014
20
-6.51255530618022
30
0
41
1
10
95.6052748493183
20
-6.40185161679361
30
0
41
1
10
95.704398709552
20
-6.14566568606196
30
0
41
1
10
95.753960639669
20
-6.00018010127837
30
0
41
1
10
95.8530844999028
20
-5.6761954810099
30
0
41
1
10
95.9026464300197
20
-5.49769985621739
30
0
41
1
10
95.9522083601366
20
-5.30443524127244
30
0
0
SPLINE
5
F7
100
AcDbEntity
8
1
62
256
6
ByLayer
370
13
48
1
60
0
100
AcDbSpline
70
4
71
3
72
78
73
74
40
0
40
0
40
0
40
0
40
0.0312499999999998
40
0.0312499999999998
40
0.0624999999999996
40
0.0624999999999996
40
0.0937499999999994
40
0.0937499999999994
40
0.124999999999999
40
0.124999999999999
40
0.156249999999999
40
0.156249999999999
40
0.187499999999999
40
0.187499999999999
40
0.218749999999999
40
0.218749999999999
40
0.249999999999998
40
0.249999999999998
40
0.281249999999998
40
0.281249999999998
40
0.312499999999998
40
0.312499999999998
40
0.343749999999998
40
0.343749999999998
40
0.359374999999997
40
0.359374999999997
40
0.367187499999997
40
0.367187499999997
40
0.374999999999997
40
0.374999999999997
40
0.406249999999997
40
0.406249999999997
40
0.437499999999997
40
0.437499999999997
40
0.468749999999997
40
0.468749999999997
40
0.499999999999997
40
0.499999999999997
40
0.531249999999996
40
0.531249999999996
40
0.562499999999996
40
0.562499999999996
40
0.593749999999996
40
0.593749999999996
40
0.624999999999996
40
0.624999999999996
40
0.656249999999996
40
0.656249999999996
40
0.687499999999996
40
0.687499999999996
40
0.718749999999996
40
0.718749999999996
40
0.734374999999996
40
0.734374999999996
40
0.742187499999996
40
0.742187499999996
40
0.749999999999996
40
0.749999999999996
40
0.781249999999997
40
0.781249999999997
40
0.812499999999997
40
0.812499999999997
40
0.843749999999998
40
0.843749999999998
40
0.874999999999998
40
0.874999999999998
40
0.906249999999999
40
0.906249999999999
40
0.937499999999999
40
0.937499999999999
40
0.968749999999999
40
0.968749999999999
40
1
40
1
40
1
40
1
41
1
10
90.6952192886974
20
7
30
0
41
1
10
90.7499795915249
20
7
30
0
41
1
10
90.8047398943524
20
6.98319491740008
30
0
41
1
10
90.9142605000073
20
6.91142204498226
30
0
41
1
10
90.9690208028348
20
6.85643318558485
30
0
41
1
10
91.0785414084898
20
6.70502333189489
30
0
41
1
10
91.1333017113172
20
6.60858383989552
30
0
41
1
10
91.2428223169723
20
6.37293587661463
30
0
41
1
10
91.2975826197998
20
6.23371610713824
30
0
41
1
10
91.4071032254546
20
5.91356832619974
30
0
41
1
10
91.4618635282822
20
5.73264009525212
30
0
41
1
10
91.5713841339373
20
5.33271997306898
30
0
41
1
10
91.6261444367648
20
5.113740473017
30
0
41
1
10
91.7356650424197
20
4.64376664445712
30
0
41
1
10
91.7904253452472
20
4.39279556056061
30
0
41
1
10
91.8999459509022
20
3.86674698576334
30
0
41
1
10
91.9547062537297
20
3.59169889221877
30
0
41
1
10
92.0642268593847
20
3.0264541689024
30
0
41
1
10
92.1189871622121
20
2.73628702263673
30
0
41
1
10
92.2285077678671
20
2.14990440843505
30
0
41
1
10
92.2832680706947
20
1.85371311031062
30
0
41
1
10
92.3927886763497
20
1.26370046981603
30
0
41
1
10
92.4475489791771
20
0.969894757884845
30
0
41
1
10
92.5296894334184
20
0.53631057530572
30
0
41
1
10
92.5570695848321
20
0.392958421670272
30
0
41
1
10
92.5981398119527
20
0.180248562290586
30
0
41
1
10
92.6118298876596
20
0.109730862279179
30
0
41
1
10
92.6392100390733
20
-0.0304507659079434
30
0
41
1
10
92.6529001147803
20
-0.100420646318469
30
0
41
1
10
92.7213504933147
20
-0.453452336354701
30
0
41
1
10
92.776110796142
20
-0.742366933588755
30
0
41
1
10
92.885631401797
20
-1.32700664061926
30
0
41
1
10
92.9403917046246
20
-1.62272164342704
30
0
41
1
10
93.0499123102796
20
-2.21327255855252
30
0
41
1
10
93.104672613107
20
-2.50808915809378
30
0
41
1
10
93.214193218762
20
-3.08807581856971
30
0
41
1
10
93.2689535215895
20
-3.37321902036419
30
0
41
1
10
93.3784741272445
20
-3.92471527290013
30
0
41
1
10
93.433234430072
20
-4.19103814276991
30
0
41
1
10
93.5427550357269
20
-4.6962482941812
30
0
41
1
10
93.5975153385546
20
-4.93510797426356
30
0
41
1
10
93.7070359442095
20
-5.37813502033524
30
0
41
1
10
93.761796247037
20
-5.58228311933379
30
0
41
1
10
93.871316852692
20
-5.9507432089483
30
0
41
1
10
93.9260771555194
20
-6.11504790544632
30
0
41
1
10
94.0355977611744
20
-6.40120007533716
30
0
41
1
10
94.0903580640019
20
-6.52305261167942
30
0
41
1
10
94.1998786696569
20
-6.72423375166261
30
0
41
1
10
94.2546389724844
20
-6.8035771214978
30
0
41
1
10
94.3641595781393
20
-6.92191750050307
30
0
41
1
10
94.4189198809669
20
-6.9609345959303
30
0
41
1
10
94.5010603352081
20
-6.9921113642549
30
0
41
1
10
94.5284404866218
20
-6.9979567929567
30
0
41
1
10
94.5695107137424
20
-7.00034660337306
30
0
41
1
10
94.5832007894493
20
-7.00009202344822
30
0
41
1
10
94.610580940863
20
-6.99745273205406
30
0
41
1
10
94.6242710165699
20
-6.99506107881319
30
0
41
1
10
94.6927213951043
20
-6.97755631356031
30
0
41
1
10
94.7474816979318
20
-6.94575592372584
30
0
41
1
10
94.8570023035867
20
-6.84247075684544
30
0
41
1
10
94.9117626064142
20
-6.77096541400161
30
0
41
1
10
95.0212832120692
20
-6.58571628480053
30
0
41
1
10
95.0760435148967
20
-6.47195636795377
30
0
41
1
10
95.1855641205517
20
-6.20179073056843
30
0
41
1
10
95.2403244233793
20
-6.04537783775118
30
0
41
1
10
95.3498450290342
20
-5.69201213201342
30
0
41
1
10
95.4046053318616
20
-5.49506420699043
30
0
41
1
10
95.5141259375166
20
-5.06529165941402
30
0
41
1
10
95.5688862403442
20
-4.83248423194783
30
0
41
1
10
95.6784068459991
20
-4.3378796896454
30
0
41
1
10
95.7331671488266
20
-4.07610900425206
30
0
41
1
10
95.8426877544816
20
-3.5320194113248
30
0
41
1
10
95.8974480573091
20
-3.24973067397028
30
0
41
1
10
95.9522083601366
20
-2.96172985608902
30
0
0
SPLINE
5
F8
100
AcDbEntity
8
1
62
256
6
ByLayer
370
13
48
1
60
0
100
AcDbSpline
70
4
71
3
72
8
73
4
40
0
40
0
40
0
40
0
40
1
40
1
40
1
40
1
41
1
10
95.9522083601368
20
6.59575181616788
30
0
41
1
10
96.801472240091
20
4.39517689098699
30
0
41
1
10
97.6507361200452
20
2.19658581865227
30
0
41
1
10
98.4999999999994
20
1.5348E-12
30
0
0
SPLINE
5
F9
100
AcDbEntity
8
1
62
256
6
ByLayer
370
13
48
1
60
0
100
AcDbSpline
70
4
71
3
72
8
73
4
40
0
40
0
40
0
40
0
40
1
40
1
40
1
40
1
41
1
10
95.9522083601365
20
-6.2458542942606
30
0
41
1
10
96.8014722400911
20
-4.16121869127437
30
0
41
1
10
97.6507361200457
20
-2.07926050553598
30
0
41
1
10
98.5000000000003
20
7.674E-13
30
0
0
SPLINE
5
FA
100
AcDbEntity
8
1
62
256
6
ByLayer
370
13
48
1
60
0
100
AcDbSpline
70
4
71
3
72
8
73
4
40
0
40
0
40
0
40
0
40
1
40
1
40
1
40
1
41
1
10
95.9522083601368
20
-3.3005478043379
30
0
41
1
10
96.8014722400911
20
-2.20560774013481
30
0
41
1
10
97.6507361200455
20
-1.10542156224321
30
0
41
1
10
98.4999999999999
20
-1.705E-13
30
0
0
SPLINE
5
FB
100
AcDbEntity
8
1
62
256
6
ByLayer
370
13
48
1
60
0
100
AcDbSpline
70
4
71
3
72
8
73
4
40
0
40
0
40
0
40
0
40
1
40
1
40
1
40
1
41
1
10
95.9522083601366
20
5.74238294333986
30
0
41
1
10
96.8014722400911
20
3.83165500803835
30
0
41
1
10
97.6507361200455
20
1.9175211440506
30
0
41
1
10
98.5
20
5.68E-14
30
0
0
SPLINE
5
FC
100
AcDbEntity
8
1
62
256
6
ByLayer
370
13
48
1
60
0
100
AcDbSpline
70
4
71
3
72
8
73
4
40
0
40
0
40
0
40
0
40
1
40
1
40
1
40
1
41
1
10
95.9522083601365
20
-5.61262929834524
30
0
41
1
10
96.801472240091
20
-3.73820030305137
30
0
41
1
10
97.6507361200455
20
-1.86731780196021
30
0
41
1
10
98.5000000000001
20
1.99E-13
30
0
0
SPLINE
5
FD
100
AcDbEntity
8
1
62
256
6
ByLayer
370
13
48
1
60
0
100
AcDbSpline
70
4
71
3
72
8
73
4
40
0
40
0
40
0
40
0
40
1
40
1
40
1
40
1
41
1
10
95.9522083601368
20
5.4184238429512
30
0
41
1
10
96.801472240091
20
3.60851881041904
30
0
41
1
10
97.6507361200452
20
1.80237167146052
30
0
41
1
10
98.4999999999994
20
1.279E-12
30
0
0
SPLINE
5
FE
100
AcDbEntity
8
1
62
256
6
ByLayer
370
13
48
1
60
0
100
AcDbSpline
70
4
71
3
72
8
73
4
40
0
40
0
40
0
40
0
40
1
40
1
40
1
40
1
41
1
10
95.9522083601366
20
4.97236187112557
30
0
41
1
10
96.8014722400911
20
3.31909226207782
30
0
41
1
10
97.6507361200455
20
1.66163292104437
30
0
41
1
10
98.5
20
5.68E-14
30
0
0
SPLINE
5
FF
100
AcDbEntity
8
1
62
256
6
ByLayer
370
13
48
1
60
0
100
AcDbSpline
70
4
71
3
72
8
73
4
40
0
40
0
40
0
40
0
40
1
40
1
40
1
40
1
41
1
10
95.9522083601368
20
3.60599054923716
30
0
41
1
10
96.8014722400911
20
2.39889834041114
30
0
41
1
10
97.6507361200455
20
1.19689759495375
30
0
41
1
10
98.4999999999999
20
1.99E-13
30
0
0
SPLINE
5
100
100
AcDbEntity
8
1
62
256
6
ByLayer
370
13
48
1
60
0
100
AcDbSpline
70
4
71
3
72
8
73
4
40
0
40
0
40
0
40
0
40
1
40
1
40
1
40
1
41
1
10
95.9522083601368
20
4.57980725432932
30
0
41
1
10
96.801472240091
20
3.04870891910403
30
0
41
1
10
97.6507361200452
20
1.52210155108827
30
0
41
1
10
98.4999999999994
20
1.08E-12
30
0
0
SPLINE
5
101
100
AcDbEntity
8
1
62
256
6
ByLayer
370
13
48
1
60
0
100
AcDbSpline
70
4
71
3
72
8
73
4
40
0
40
0
40
0
40
0
40
1
40
1
40
1
40
1
41
1
10
95.9522083601365
20
-5.189337884309
30
0
41
1
10
96.8014722400911
20
-3.46354839222948
30
0
41
1
10
97.6507361200457
20
-1.73376347893796
30
0
41
1
10
98.5000000000003
20
6.537E-13
30
0
0
SPLINE
5
102
100
AcDbEntity
8
1
62
256
6
ByLayer
370
13
48
1
60
0
100
AcDbSpline
70
4
71
3
72
8
73
4
40
0
40
0
40
0
40
0
40
1
40
1
40
1
40
1
41
1
10
95.9522083601368
20
2.52572169121063
30
0
41
1
10
96.801472240091
20
1.67827007944231
30
0
41
1
10
97.6507361200452
20
0.836360122526855
30
0
41
1
10
98.4999999999994
20
5.969E-13
30
0
0
SPLINE
5
103
100
AcDbEntity
8
1
62
256
6
ByLayer
370
13
48
1
60
0
100
AcDbSpline
70
4
71
3
72
8
73
4
40
0
40
0
40
0
40
0
40
1
40
1
40
1
40
1
41
1
10
95.9522083601365
20
-6.4698743105036
30
0
41
1
10
96.801472240091
20
-4.31551895496585
30
0
41
1
10
97.6507361200455
20
-2.15888718275957
30
0
41
1
10
98.5000000000001
20
2.274E-13
30
0
0
SPLINE
5
104
100
AcDbEntity
8
1
62
256
6
ByLayer
370
13
48
1
60
0
100
AcDbSpline
70
4
71
3
72
8
73
4
40
0
40
0
40
0
40
0
40
1
40
1
40
1
40
1
41
1
10
95.9522083601365
20
-5.91694289169487
30
0
41
1
10
96.8014722400909
20
-3.94780508965132
30
0
41
1
10
97.6507361200454
20
-1.97548438760177
30
0
41
1
10
98.4999999999999
20
-3.411E-13
30
0
0
SPLINE
5
105
100
AcDbEntity
8
1
62
256
6
ByLayer
370
13
48
1
60
0
100
AcDbSpline
70
4
71
3
72
8
73
4
40
0
40
0
40
0
40
0
40
1
40
1
40
1
40
1
41
1
10
95.9522083601365
20
-3.8726940947106
30
0
41
1
10
96.801472240091
20
-2.57684388315505
30
0
41
1
10
97.6507361200455
20
-1.2859416671788
30
0
41
1
10
98.5000000000001
20
1.421E-13
30
0
0
SPLINE
5
106
100
AcDbEntity
8
1
62
256
6
ByLayer
370
13
48
1
60
0
100
AcDbSpline
70
4
71
3
72
8
73
4
40
0
40
0
40
0
40
0
40
1
40
1
40
1
40
1
41
1
10
95.9522083601366
20
3.01901872500116
30
0
41
1
10
96.8014722400911
20
2.01804267507234
30
0
41
1
10
97.6507361200455
20
1.01169982807411
30
0
41
1
10
98.5
20
2.84E-14
30
0
0
SPLINE
5
107
100
AcDbEntity
8
1
62
256
6
ByLayer
370
13
48
1
60
0
100
AcDbSpline
70
4
71
3
72
8
73
4
40
0
40
0
40
0
40
0
40
1
40
1
40
1
40
1
41
1
10
95.9522083601366
20
-1.67883193823903
30
0
41
1
10
96.8014722400911
20
-1.11344995055808
30
0
41
1
10
97.6507361200455
20
-0.553837494439108
30
0
41
1
10
98.5
20
-2.84E-14
30
0
0
SPLINE
5
108
100
AcDbEntity
8
1
62
256
6
ByLayer
370
13
48
1
60
0
100
AcDbSpline
70
4
71
3
72
8
73
4
40
0
40
0
40
0
40
0
40
1
40
1
40
1
40
1
41
1
10
95.9522083601366
20
-2.81734837224545
30
0
41
1
10
96.801472240091
20
-1.87279015964469
30
0
41
1
10
97.6507361200455
20
-0.933670993437119
30
0
41
1
10
98.4999999999999
20
-1.421E-13
30
0
0
SPLINE
5
109
100
AcDbEntity
8
1
62
256
6
ByLayer
370
13
48
1
60
0
100
AcDbSpline
70
4
71
3
72
8
73
4
40
0
40
0
40
0
40
0
40
1
40
1
40
1
40
1
41
1
10
95.9522083601366
20
6.96994205075978
30
0
41
1
10
96.8014722400911
20
4.6471783593301
30
0
41
1
10
97.6507361200455
20
2.32385680122184
30
0
41
1
10
98.5
20
-2.84E-14
30
0
0
SPLINE
5
10A
100
AcDbEntity
8
1
62
256
6
ByLayer
370
13
48
1
60
0
100
AcDbSpline
70
4
71
3
72
8
73
4
40
0
40
0
40
0
40
0
40
1
40
1
40
1
40
1
41
1
10
95.9522083601365
20
-6.83180909741228
30
0
41
1
10
96.8014722400911
20
-4.55583473714276
30
0
41
1
10
97.6507361200457
20
-2.27855764545302
30
0
41
1
10
98.5000000000003
20
8.527E-13
30
0
0
SPLINE
5
10B
100
AcDbEntity
8
1
62
256
6
ByLayer
370
13
48
1
60
0
100
AcDbSpline
70
4
71
3
72
8
73
4
40
0
40
0
40
0
40
0
40
1
40
1
40
1
40
1
41
1
10
95.9522083601368
20
0.175590759424409
30
0
41
1
10
96.8014722400911
20
0.111117529746224
30
0
41
1
10
97.6507361200455
20
0.0525870930673875
30
0
41
1
10
98.4999999999999
20
0
30
0
0
SPLINE
5
10C
100
AcDbEntity
8
1
62
256
6
ByLayer
370
13
48
1
60
0
100
AcDbSpline
70
4
71
3
72
8
73
4
40
0
40
0
40
0
40
0
40
1
40
1
40
1
40
1
41
1
10
95.9522083601366
20
6.75613650121201
30
0
41
1
10
96.801472240091
20
4.50564648030886
30
0
41
1
10
97.6507361200455
20
2.25359366893952
30
0
41
1
10
98.5
20
0
30
0
0
SPLINE
5
10D
100
AcDbEntity
8
1
62
256
6
ByLayer
370
13
48
1
60
0
100
AcDbSpline
70
4
71
3
72
8
73
4
40
0
40
0
40
0
40
0
40
1
40
1
40
1
40
1
41
1
10
95.9522083601366
20
6.34288359697706
30
0
41
1
10
96.801472240091
20
4.2311037789793
30
0
41
1
10
97.6507361200455
20
2.11680238173778
30
0
41
1
10
98.5
20
5.68E-14
30
0
0
SPLINE
5
10E
100
AcDbEntity
8
1
62
256
6
ByLayer
370
13
48
1
60
0
100
AcDbSpline
70
4
71
3
72
8
73
4
40
0
40
0
40
0
40
0
40
1
40
1
40
1
40
1
41
1
10
95.9522083601366
20
-0.490754843493164
30
0
41
1
10
96.801472240091
20
-0.321239676283255
30
0
41
1
10
97.6507361200455
20
-0.157654203933475
30
0
41
1
10
98.4999999999999
20
-2.84E-14
30
0
0
SPLINE
5
10F
100
AcDbEntity
8
1
62
256
6
ByLayer
370
13
48
1
60
0
100
AcDbSpline
70
4
71
3
72
8
73
4
40
0
40
0
40
0
40
0
40
1
40
1
40
1
40
1
41
1
10
95.9522083601366
20
4.05555210961151
30
0
41
1
10
96.801472240091
20
2.70854686412153
30
0
41
1
10
97.6507361200455
20
1.35669176808275
30
0
41
1
10
98.4999999999999
20
1.421E-13
30
0
0
SPLINE
5
110
100
AcDbEntity
8
1
62
256
6
ByLayer
370
13
48
1
60
0
100
AcDbSpline
70
4
71
3
72
8
73
4
40
0
40
0
40
0
40
0
40
1
40
1
40
1
40
1
41
1
10
95.9522083601368
20
1.37089120911131
30
0
41
1
10
96.801472240091
20
0.908097744321509
30
0
41
1
10
97.6507361200452
20
0.451132531127854
30
0
41
1
10
98.4999999999994
20
3.126E-13
30
0
0
SPLINE
5
111
100
AcDbEntity
8
1
62
256
6
ByLayer
370
13
48
1
60
0
100
AcDbSpline
70
4
71
3
72
8
73
4
40
0
40
0
40
0
40
0
40
1
40
1
40
1
40
1
41
1
10
95.9522083601365
20
-6.94590400281265
30
0
41
1
10
96.801472240091
20
-4.62986502158563
30
0
41
1
10
97.6507361200455
20
-2.31455617352586
30
0
41
1
10
98.5000000000001
20
2.274E-13
30
0
0
SPLINE
5
112
100
AcDbEntity
8
1
62
256
6
ByLayer
370
13
48
1
60
0
100
AcDbSpline
70
4
71
3
72
8
73
4
40
0
40
0
40
0
40
0
40
1
40
1
40
1
40
1
41
1
10
95.9522083601368
20
-1.02489329075198
30
0
41
1
10
96.801472240091
20
-0.689142976362973
30
0
41
1
10
97.6507361200452
20
-0.347510764278951
30
0
41
1
10
98.4999999999994
20
-2.558E-13
30
0
0
SPLINE
5
113
100
AcDbEntity
8
1
62
256
6
ByLayer
370
13
48
1
60
0
100
AcDbSpline
70
4
71
3
72
8
73
4
40
0
40
0
40
0
40
0
40
1
40
1
40
1
40
1
41
1
10
95.9522083601365
20
-6.99206260509246
30
0
41
1
10
96.8014722400909
20
-4.66165809357486
30
0
41
1
10
97.6507361200454
20
-2.33096299371337
30
0
41
1
10
98.4999999999999
20
-3.979E-13
30
0
0
SPLINE
5
114
100
AcDbEntity
8
1
62
256
6
ByLayer
370
13
48
1
60
0
100
AcDbSpline
70
4
71
3
72
8
73
4
40
0
40
0
40
0
40
0
40
1
40
1
40
1
40
1
41
1
10
95.9522083601365
20
-6.69469593490652
30
0
41
1
10
96.8014722400909
20
-4.46139408186156
30
0
41
1
10
97.6507361200454
20
-2.2298215292933
30
0
41
1
10
98.4999999999999
20
-3.695E-13
30
0
0
SPLINE
5
115
100
AcDbEntity
8
1
62
256
6
ByLayer
370
13
48
1
60
0
100
AcDbSpline
70
4
71
3
72
8
73
4
40
0
40
0
40
0
40
0
40
1
40
1
40
1
40
1
41
1
10
95.9522083601366
20
0.711809784966249
30
0
41
1
10
96.8014722400911
20
0.480453888277907
30
0
41
1
10
97.6507361200455
20
0.243183183469739
30
0
41
1
10
98.5
20
0
30
0
0
SPLINE
5
116
100
AcDbEntity
8
1
62
256
6
ByLayer
370
13
48
1
60
0
100
AcDbSpline
70
4
71
3
72
8
73
4
40
0
40
0
40
0
40
0
40
1
40
1
40
1
40
1
41
1
10
95.9522083601368
20
6.09708358317948
30
0
41
1
10
96.8014722400911
20
4.06180191220716
30
0
41
1
10
97.6507361200455
20
2.02943412470285
30
0
41
1
10
98.4999999999999
20
3.411E-13
30
0
0
SPLINE
5
117
100
AcDbEntity
8
1
62
256
6
ByLayer
370
13
48
1
60
0
100
AcDbSpline
70
4
71
3
72
8
73
4
40
0
40
0
40
0
40
0
40
1
40
1
40
1
40
1
41
1
10
95.9522083601368
20
6.89970739767682
30
0
41
1
10
96.8014722400911
20
4.59880221119531
30
0
41
1
10
97.6507361200455
20
2.29889228177999
30
0
41
1
10
98.4999999999999
20
3.695E-13
30
0
0
SPLINE
5
118
100
AcDbEntity
8
1
62
256
6
ByLayer
370
13
48
1
60
0
100
AcDbSpline
70
4
71
3
72
8
73
4
40
0
40
0
40
0
40
0
40
1
40
1
40
1
40
1
41
1
10
95.9522083601365
20
-4.30853885643259
30
0
41
1
10
96.8014722400911
20
-2.87704456517446
30
0
41
1
10
97.6507361200457
20
-1.44086028000211
30
0
41
1
10
98.5000000000003
20
5.4E-13
30
0
0
SPLINE
5
119
100
AcDbEntity
8
1
62
256
6
ByLayer
370
13
48
1
60
0
100
AcDbSpline
70
4
71
3
72
8
73
4
40
0
40
0
40
0
40
0
40
1
40
1
40
1
40
1
41
1
10
95.9522083601368
20
-2.19512154967245
30
0
41
1
10
96.8014722400911
20
-1.46905934886669
30
0
41
1
10
97.6507361200455
20
-0.737349784692412
30
0
41
1
10
98.4999999999999
20
-1.137E-13
30
0
0
SPLINE
5
11A
100
AcDbEntity
8
1
62
256
6
ByLayer
370
13
48
1
60
0
100
AcDbSpline
70
4
71
3
72
8
73
4
40
0
40
0
40
0
40
0
40
1
40
1
40
1
40
1
41
1
10
95.9522083601366
20
1.89336113481198
30
0
41
1
10
96.8014722400911
20
1.2679640127844
30
0
41
1
10
97.6507361200455
20
0.636841579945383
30
0
41
1
10
98.5
20
2.84E-14
30
0
0
SPLINE
5
11B
100
AcDbEntity
8
1
62
256
6
ByLayer
370
13
48
1
60
0
100
AcDbSpline
70
4
71
3
72
8
73
4
40
0
40
0
40
0
40
0
40
1
40
1
40
1
40
1
41
1
10
95.9522083601365
20
-4.81371433062515
30
0
41
1
10
96.8014722400909
20
-3.2048268085334
30
0
41
1
10
97.6507361200454
20
-1.60025016183306
30
0
41
1
10
98.4999999999999
20
-2.558E-13
30
0
0
LINE
5
7D
100
AcDbEntity
8
80
62
256
6
ByLayer
370
18
48
1
60
0
100
AcDbLine
10
0
20
0
30
0
11
-5
21
0
31
0
39
0
210
0
220
0
230
1
0
LINE
5
7E
100
AcDbEntity
8
4
62
256
6
ByLayer
370
18
48
0.05
60
0
100
AcDbLine
10
-5
20
0
30
0
11
103.5
21
0
31
0
39
0
210
0
220
0
230
1
0
LINE
5
80
100
AcDbEntity
8
81
62
256
6
ByLayer
370
18
48
1
60
0
100
AcDbLine
10
98.5
20
0
30
0
11
103.5
21
0
31
0
39
0
210
0
220
0
230
1
0
LINE
5
81
100
AcDbEntity
8
SK4
62
256
6
ByLayer
370
18
48
0.05
60
0
100
AcDbLine
10
-53
20
0
30
0
11
103.5
21
0
31
0
39
0
210
0
220
0
230
1
0
LINE
5
83
100
AcDbEntity
8
1
62
256
6
ByLayer
370
18
48
1
60
0
100
AcDbLine
10
0
20
8
30
0
11
0
21
-8
31
0
39
0
210
0
220
0
230
1
0
LINE
5
84
100
AcDbEntity
8
1
62
256
6
ByLayer
370
18
48
1
60
0
100
AcDbLine
10
95.952208
20
7
30
0
11
95.952208
21
6.777718
31
0
39
0
210
0
220
0
230
1
0
LINE
5
85
100
AcDbEntity
8
1
62
256
6
ByLayer
370
18
48
1
60
0
100
AcDbLine
10
95.952208
20
-7
30
0
11
95.952208
21
-0.997939
31
0
39
0
210
0
220
0
230
1
0
LINE
5
86
100
AcDbEntity
8
1
62
256
6
ByLayer
370
18
48
1
60
0
100
AcDbLine
10
10
20
-3.761118
30
0
11
10
21
6.158121
31
0
39
0
210
0
220
0
230
1
0
LINE
5
87
100
AcDbEntity
8
SK1
62
256
6
ByLayer
370
13
48
1
60
0
100
AcDbLine
10
-14.956081
20
-5.420003
30
0
11
-14.956081
21
5.420003
31
0
39
0
210
0
220
0
230
1
0
LINE
5
89
100
AcDbEntity
8
SK1
62
256
6
ByLayer
370
13
48
1
60
0
100
AcDbLine
10
-40.20852
20
4.268613
30
0
11
-40.20852
21
-4.268613
31
0
39
0
210
0
220
0
230
1
0
LINE
5
8A
100
AcDbEntity
8
SK1
62
256
6
ByLayer
370
13
48
1
60
0
100
AcDbLine
10
-13.809044
20
4.913811
30
0
11
-13.809044
21
-4.913811
31
0
39
0
210
0
220
0
230
1
0
LINE
5
8B
100
AcDbEntity
8
SK1
62
256
6
ByLayer
370
18
48
1
60
0
100
AcDbLine
10
0
20
8
30
0
11
0
21
-8
31
0
39
0
210
0
220
0
230
1
0
LINE
5
8C
100
AcDbEntity
8
SK1
62
256
6
ByLayer
370
13
48
1
60
0
100
AcDbLine
10
-41.322847
20
-3.330349
30
0
11
-41.322847
21
3.330349
31
0
39
0
210
0
220
0
230
1
0
LINE
5
8D
100
AcDbEntity
8
SK1
62
256
6
ByLayer
370
18
48
1
60
0
100
AcDbLine
10
-48
20
-7
30
0
11
-48
21
7
31
0
39
0
210
0
220
0
230
1
0
LINE
5
8E
100
AcDbEntity
8
SK1
62
256
6
ByLayer
370
18
48
1
60
0
100
AcDbLine
10
-47
20
-8
30
0
11
-47
21
8
31
0
39
0
210
0
220
0
230
1
0
LINE
5
8F
100
AcDbEntity
8
1
62
256
6
ByLayer
370
18
48
1
60
0
100
AcDbLine
10
31.02917
20
-6.65
30
0
11
62.637085
21
-6.65
31
0
39
0
210
0
220
0
230
1
0
LINE
5
90
100
AcDbEntity
8
1
62
256
6
ByLayer
370
18
48
1
60
0
100
AcDbLine
10
62.637085
20
6.65
30
0
11
31.02917
21
6.65
31
0
39
0
210
0
220
0
230
1
0
LINE
5
91
100
AcDbEntity
8
1
62
256
6
ByLayer
370
18
48
1
60
0
100
AcDbLine
10
98.5
20
0
30
0
11
95.952208
21
7
31
0
39
0
210
0
220
0
230
1
0
LINE
5
92
100
AcDbEntity
8
1
62
256
6
ByLayer
370
18
48
1
60
0
100
AcDbLine
10
95.952208
20
-7
30
0
11
98.5
21
0
31
0
39
0
210
0
220
0
230
1
0
LINE
5
93
100
AcDbEntity
8
1
62
256
6
ByLayer
370
18
48
1
60
0
100
AcDbLine
10
4.97938
20
7.327784
30
0
11
0
21
8
31
0
39
0
210
0
220
0
230
1
0
LINE
5
94
100
AcDbEntity
8
1
62
256
6
ByLayer
370
18
48
1
60
0
100
AcDbLine
10
0
20
-8
30
0
11
4.97938
21
-7.327784
31
0
39
0
210
0
220
0
230
1
0
LINE
5
95
100
AcDbEntity
8
1
62
256
6
ByLayer
370
18
48
1
60
0
100
AcDbLine
10
98.5
20
0
30
0
11
95.952208
21
7
31
0
39
0
210
0
220
0
230
1
0
LINE
5
96
100
AcDbEntity
8
1
62
256
6
ByLayer
370
18
48
1
60
0
100
AcDbLine
10
95.952208
20
-7
30
0
11
98.5
21
0
31
0
39
0
210
0
220
0
230
1
0
LINE
5
97
100
AcDbEntity
8
1
62
256
6
ByLayer
370
18
48
1
60
0
100
AcDbLine
10
88.2
20
-7
30
0
11
95.952208
21
-7
31
0
39
0
210
0
220
0
230
1
0
LINE
5
98
100
AcDbEntity
8
SK1
62
256
6
ByLayer
370
18
48
1
60
0
100
AcDbLine
10
-47
20
-8
30
0
11
0
21
-8
31
0
39
0
210
0
220
0
230
1
0
LINE
5
99
100
AcDbEntity
8
SK1
62
256
6
ByLayer
370
18
48
1
60
0
100
AcDbLine
10
0
20
8
30
0
11
-47
21
8
31
0
39
0
210
0
220
0
230
1
0
LINE
5
9A
100
AcDbEntity
8
SK1
62
256
6
ByLayer
370
18
48
1
60
0
100
AcDbLine
10
-48
20
-7
30
0
11
-47
21
-8
31
0
39
0
210
0
220
0
230
1
0
LINE
5
9B
100
AcDbEntity
8
SK1
62
256
6
ByLayer
370
18
48
1
60
0
100
AcDbLine
10
-47
20
8
30
0
11
-48
21
7
31
0
39
0
210
0
220
0
230
1
0
LINE
5
9C
100
AcDbEntity
8
1
62
256
6
ByLayer
370
18
48
1
60
0
100
AcDbLine
10
95.952208
20
7
30
0
11
95.952208
21
-7
31
0
39
0
210
0
220
0
230
1
0
LINE
5
9D
100
AcDbEntity
8
1
62
256
6
ByLayer
370
18
48
1
60
0
100
AcDbLine
10
95.952208
20
7
30
0
11
95.952208
21
-7
31
0
39
0
210
0
220
0
230
1
0
LINE
5
9E
100
AcDbEntity
8
1
62
256
6
ByLayer
370
18
48
1
60
0
100
AcDbLine
10
95.952208
20
7
30
0
11
95.952208
21
-7
31
0
39
0
210
0
220
0
230
1
0
LINE
5
9F
100
AcDbEntity
8
1
62
256
6
ByLayer
370
18
48
1
60
0
100
AcDbLine
10
88.2
20
7
30
0
11
88.2
21
-7
31
0
39
0
210
0
220
0
230
1
0
LINE
5
A0
100
AcDbEntity
8
1
62
256
6
ByLayer
370
18
48
1
60
0
100
AcDbLine
10
88.2
20
7
30
0
11
88.2
21
-7
31
0
39
0
210
0
220
0
230
1
0
LINE
5
A1
100
AcDbEntity
8
1
62
256
6
ByLayer
370
18
48
1
60
0
100
AcDbLine
10
95.952208
20
7
30
0
11
95.952208
21
-7
31
0
39
0
210
0
220
0
230
1
0
LINE
5
A2
100
AcDbEntity
8
1
62
256
6
ByLayer
370
18
48
1
60
0
100
AcDbLine
10
88.2
20
7
30
0
11
88.2
21
-7
31
0
39
0
210
0
220
0
230
1
0
LINE
5
A3
100
AcDbEntity
8
1
62
256
6
ByLayer
370
18
48
1
60
0
100
AcDbLine
10
95.952208
20
7
30
0
11
95.952208
21
-7
31
0
39
0
210
0
220
0
230
1
0
LINE
5
A4
100
AcDbEntity
8
SK2
62
256
6
ByLayer
370
13
48
1
60
0
100
AcDbLine
10
-54.5
20
-8
30
0
11
-54.5
21
36.274683
31
0
39
0
210
0
220
0
230
1
0
LINE
5
A6
100
AcDbEntity
8
SK2
62
256
6
ByLayer
370
13
48
1
60
0
100
AcDbLine
10
-49.5875
20
8
30
0
11
-56.5
21
8
31
0
39
0
210
0
220
0
230
1
0
LINE
5
A7
100
AcDbEntity
8
SK2
62
256
6
ByLayer
370
13
48
1
60
0
100
AcDbLine
10
-49.5875
20
-8
30
0
11
-56.5
21
-8
31
0
39
0
210
0
220
0
230
1
0
LINE
5
A8
100
AcDbEntity
8
1
62
256
6
ByLayer
370
18
48
1
60
1
100
AcDbLine
10
-54.5
20
8
30
0
11
-54.039216
21
4.500002
31
0
39
0
210
0
220
0
230
1
0
LINE
5
A9
100
AcDbEntity
8
1
62
256
6
ByLayer
370
18
48
1
60
1
100
AcDbLine
10
-54.039216
20
4.500002
30
0
11
-54.960784
21
4.499998
31
0
39
0
210
0
220
0
230
1
0
LINE
5
AA
100
AcDbEntity
8
1
62
256
6
ByLayer
370
18
48
1
60
1
100
AcDbLine
10
-54.960784
20
4.499998
30
0
11
-54.5
21
8
31
0
39
0
210
0
220
0
230
1
0
LINE
5
AB
100
AcDbEntity
8
1
62
256
6
ByLayer
370
18
48
1
60
1
100
AcDbLine
10
-54.5
20
-8
30
0
11
-54.960784
21
-4.500002
31
0
39
0
210
0
220
0
230
1
0
LINE
5
AC
100
AcDbEntity
8
1
62
256
6
ByLayer
370
18
48
1
60
1
100
AcDbLine
10
-54.960784
20
-4.500002
30
0
11
-54.039216
21
-4.499998
31
0
39
0
210
0
220
0
230
1
0
LINE
5
AD
100
AcDbEntity
8
1
62
256
6
ByLayer
370
18
48
1
60
1
100
AcDbLine
10
-54.039216
20
-4.499998
30
0
11
-54.5
21
-8
31
0
39
0
210
0
220
0
230
1
0
LINE
5
AE
100
AcDbEntity
8
2
62
256
6
ByLayer
370
13
48
1
60
0
100
AcDbLine
10
106
20
-7
30
0
11
106
21
35.590569
31
0
39
0
210
0
220
0
230
1
0
LINE
5
B0
100
AcDbEntity
8
2
62
256
6
ByLayer
370
13
48
1
60
0
100
AcDbLine
10
97.539708
20
7
30
0
11
108
21
7
31
0
39
0
210
0
220
0
230
1
0
LINE
5
B1
100
AcDbEntity
8
2
62
256
6
ByLayer
370
13
48
1
60
0
100
AcDbLine
10
97.539708
20
-7
30
0
11
108
21
-7
31
0
39
0
210
0
220
0
230
1
0
LINE
5
B2
100
AcDbEntity
8
1
62
256
6
ByLayer
370
18
48
1
60
1
100
AcDbLine
10
106
20
7
30
0
11
106.460784
21
3.500002
31
0
39
0
210
0
220
0
230
1
0
LINE
5
B3
100
AcDbEntity
8
1
62
256
6
ByLayer
370
18
48
1
60
1
100
AcDbLine
10
106.460784
20
3.500002
30
0
11
105.539216
21
3.499998
31
0
39
0
210
0
220
0
230
1
0
LINE
5
B4
100
AcDbEntity
8
1
62
256
6
ByLayer
370
18
48
1
60
1
100
AcDbLine
10
105.539216
20
3.499998
30
0
11
106
21
7
31
0
39
0
210
0
220
0
230
1
0
LINE
5
B5
100
AcDbEntity
8
1
62
256
6
ByLayer
370
18
48
1
60
1
100
AcDbLine
10
106
20
-7
30
0
11
105.539216
21
-3.500002
31
0
39
0
210
0
220
0
230
1
0
LINE
5
B6
100
AcDbEntity
8
1
62
256
6
ByLayer
370
18
48
1
60
1
100
AcDbLine
10
105.539216
20
-3.500002
30
0
11
106.460784
21
-3.499998
31
0
39
0
210
0
220
0
230
1
0
LINE
5
B7
100
AcDbEntity
8
1
62
256
6
ByLayer
370
18
48
1
60
1
100
AcDbLine
10
106.460784
20
-3.499998
30
0
11
106
21
-7
31
0
39
0
210
0
220
0
230
1
0
LINE
5
B8
100
AcDbEntity
8
SK2
62
256
6
ByLayer
370
13
48
1
60
0
100
AcDbLine
10
99.042957
20
-1.491762
30
0
11
105.682423
21
-19.733545
31
0
39
0
210
0
220
0
230
1
0
LINE
5
B9
100
AcDbEntity
8
SK2
62
256
6
ByLayer
370
13
48
1
60
0
100
AcDbLine
10
99.042957
20
1.491762
30
0
11
105.682423
21
19.733545
31
0
39
0
210
0
220
0
230
1
0
LINE
5
BA
100
AcDbEntity
8
1
62
256
6
ByLayer
370
18
48
1
60
1
100
AcDbLine
10
104.998383
20
-17.85416
30
0
11
108.051575
21
-16.082064
31
0
39
0
210
0
220
0
230
1
0
LINE
5
BB
100
AcDbEntity
8
1
62
256
6
ByLayer
370
18
48
1
60
1
100
AcDbLine
10
108.051575
20
-16.082064
30
0
11
108.406196
21
-16.93267
31
0
39
0
210
0
220
0
230
1
0
LINE
5
BC
100
AcDbEntity
8
1
62
256
6
ByLayer
370
18
48
1
60
1
100
AcDbLine
10
108.406196
20
-16.93267
30
0
11
104.998383
21
-17.85416
31
0
39
0
210
0
220
0
230
1
0
LINE
5
BD
100
AcDbEntity
8
1
62
256
6
ByLayer
370
18
48
1
60
1
100
AcDbLine
10
104.998383
20
17.85416
30
0
11
108.406193
21
16.932671
31
0
39
0
210
0
220
0
230
1
0
LINE
5
BE
100
AcDbEntity
8
1
62
256
6
ByLayer
370
18
48
1
60
1
100
AcDbLine
10
108.406193
20
16.932671
30
0
11
108.051579
21
16.082063
31
0
39
0
210
0
220
0
230
1
0
LINE
5
BF
100
AcDbEntity
8
1
62
256
6
ByLayer
370
18
48
1
60
1
100
AcDbLine
10
108.051579
20
16.082063
30
0
11
104.998383
21
17.85416
31
0
39
0
210
0
220
0
230
1
0
LINE
5
120
100
AcDbEntity
8
1
62
256
6
ByLayer
370
18
48
1
60
1
100
AcDbLine
10
-54.5
20
8
30
0
11
-54.039216
21
4.500002
31
0
39
0
210
0
220
0
230
1
0
LINE
5
121
100
AcDbEntity
8
1
62
256
6
ByLayer
370
18
48
1
60
1
100
AcDbLine
10
-54.039216
20
4.500002
30
0
11
-54.960784
21
4.499998
31
0
39
0
210
0
220
0
230
1
0
LINE
5
122
100
AcDbEntity
8
1
62
256
6
ByLayer
370
18
48
1
60
1
100
AcDbLine
10
-54.960784
20
4.499998
30
0
11
-54.5
21
8
31
0
39
0
210
0
220
0
230
1
0
LINE
5
124
100
AcDbEntity
8
1
62
256
6
ByLayer
370
18
48
1
60
1
100
AcDbLine
10
-54.5
20
-8
30
0
11
-54.960784
21
-4.500002
31
0
39
0
210
0
220
0
230
1
0
LINE
5
125
100
AcDbEntity
8
1
62
256
6
ByLayer
370
18
48
1
60
1
100
AcDbLine
10
-54.960784
20
-4.500002
30
0
11
-54.039216
21
-4.499998
31
0
39
0
210
0
220
0
230
1
0
LINE
5
126
100
AcDbEntity
8
1
62
256
6
ByLayer
370
18
48
1
60
1
100
AcDbLine
10
-54.039216
20
-4.499998
30
0
11
-54.5
21
-8
31
0
39
0
210
0
220
0
230
1
0
LINE
5
12A
100
AcDbEntity
8
1
62
256
6
ByLayer
370
18
48
1
60
1
100
AcDbLine
10
106
20
7
30
0
11
106.460784
21
3.500002
31
0
39
0
210
0
220
0
230
1
0
LINE
5
12B
100
AcDbEntity
8
1
62
256
6
ByLayer
370
18
48
1
60
1
100
AcDbLine
10
106.460784
20
3.500002
30
0
11
105.539216
21
3.499998
31
0
39
0
210
0
220
0
230
1
0
LINE
5
12C
100
AcDbEntity
8
1
62
256
6
ByLayer
370
18
48
1
60
1
100
AcDbLine
10
105.539216
20
3.499998
30
0
11
106
21
7
31
0
39
0
210
0
220
0
230
1
0
LINE
5
12E
100
AcDbEntity
8
1
62
256
6
ByLayer
370
18
48
1
60
1
100
AcDbLine
10
106
20
-7
30
0
11
105.539216
21
-3.500002
31
0
39
0
210
0
220
0
230
1
0
LINE
5
12F
100
AcDbEntity
8
1
62
256
6
ByLayer
370
18
48
1
60
1
100
AcDbLine
10
105.539216
20
-3.500002
30
0
11
106.460784
21
-3.499998
31
0
39
0
210
0
220
0
230
1
0
LINE
5
130
100
AcDbEntity
8
1
62
256
6
ByLayer
370
18
48
1
60
1
100
AcDbLine
10
106.460784
20
-3.499998
30
0
11
106
21
-7
31
0
39
0
210
0
220
0
230
1
0
LINE
5
133
100
AcDbEntity
8
1
62
256
6
ByLayer
370
18
48
1
60
1
100
AcDbLine
10
104.998383
20
-17.85416
30
0
11
108.051575
21
-16.082064
31
0
39
0
210
0
220
0
230
1
0
LINE
5
134
100
AcDbEntity
8
1
62
256
6
ByLayer
370
18
48
1
60
1
100
AcDbLine
10
108.051575
20
-16.082064
30
0
11
108.406196
21
-16.93267
31
0
39
0
210
0
220
0
230
1
0
LINE
5
135
100
AcDbEntity
8
1
62
256
6
ByLayer
370
18
48
1
60
1
100
AcDbLine
10
108.406196
20
-16.93267
30
0
11
104.998383
21
-17.85416
31
0
39
0
210
0
220
0
230
1
0
LINE
5
137
100
AcDbEntity
8
1
62
256
6
ByLayer
370
18
48
1
60
1
100
AcDbLine
10
104.998383
20
17.85416
30
0
11
108.406193
21
16.932671
31
0
39
0
210
0
220
0
230
1
0
LINE
5
138
100
AcDbEntity
8
1
62
256
6
ByLayer
370
18
48
1
60
1
100
AcDbLine
10
108.406193
20
16.932671
30
0
11
108.051579
21
16.082063
31
0
39
0
210
0
220
0
230
1
0
LINE
5
139
100
AcDbEntity
8
1
62
256
6
ByLayer
370
18
48
1
60
1
100
AcDbLine
10
108.051579
20
16.082063
30
0
11
104.998383
21
17.85416
31
0
39
0
210
0
220
0
230
1
0
MTEXT
5
11C
100
AcDbEntity
8
SK2
62
256
6
ByLayer
370
18
48
1
60
0
100
AcDbMText
10
-55.841114
20
19.658438
30
0
210
0
220
0
230
1
1
%%c
40
3
41
0
44
1.084337
50
90
71
7
72
5
7
iso_b_vert
0
MTEXT
5
11F
100
AcDbEntity
8
SK2
62
256
6
ByLayer
370
18
48
1
60
0
100
AcDbMText
10
-55.841114
20
25.635
30
0
210
0
220
0
230
1
1
\W0.7022;16.000
40
3
41
0
44
1.084337
50
90
71
7
72
5
7
iso_b_vert
0
MTEXT
5
128
100
AcDbEntity
8
2
62
256
6
ByLayer
370
18
48
1
60
0
100
AcDbMText
10
104.658886
20
18.658438
30
0
210
0
220
0
230
1
1
%%c
40
3
41
0
44
1.084337
50
90
71
7
72
5
7
iso_b_vert
0
MTEXT
5
129
100
AcDbEntity
8
2
62
256
6
ByLayer
370
18
48
1
60
0
100
AcDbMText
10
104.658886
20
24.635
30
0
210
0
220
0
230
1
1
\W0.7237;14.000
40
3
41
0
44
1.084337
50
90
71
7
72
5
7
iso_b_vert
0
MTEXT
5
132
100
AcDbEntity
8
SK2
62
256
6
ByLayer
370
18
48
1
60
0
100
AcDbMText
10
118.409114
20
3.734657
30
0
210
0
220
0
230
1
1
\W0.7071;140%%d
40
3
41
0
44
1.084337
50
270
71
7
72
5
7
iso_b_vert
0
MTEXT
5
13B
100
AcDbEntity
8
SK6
62
256
6
ByLayer
370
18
48
1
60
0
100
AcDbMText
10
1.39686
20
-67.114886
30
0
210
0
220
0
230
1
1
\W0.7499;H85514.0
40
3
41
0
44
1.084337
50
0
71
7
72
5
7
iso_b_vert
0
HATCH
5
123
100
AcDbEntity
8
SK2
62
256
6
ByLayer
370
13
48
1
60
0
100
AcDbHatch
10
0
20
0
30
0
210
0
220
0
230
1
2
ANSI31
70
0
71
0
91
1
92
5
93
3
72
1
10
-54.5
20
8
11
-54.0392162584472
21
4.50000169255318
72
1
10
-54.0392162584472
20
4.50000169255318
11
-54.9607837415528
21
4.49999830744682
72
1
10
-54.9607837415528
20
4.49999830744682
11
-54.5
21
8
97
0
75
0
76
1
52
0
41
0.0062
77
0
78
1
53
45
43
0
44
0
45
-0.0139193969876572
46
0.0139193969876572
79
0
47
0
98
1
10
0
20
0
0
HATCH
5
127
100
AcDbEntity
8
SK2
62
256
6
ByLayer
370
13
48
1
60
0
100
AcDbHatch
10
0
20
0
30
0
210
0
220
0
230
1
2
ANSI31
70
0
71
0
91
1
92
5
93
3
72
1
10
-54.5
20
-8
11
-54.9607837415528
21
-4.50000169255318
72
1
10
-54.9607837415528
20
-4.50000169255318
11
-54.0392162584472
21
-4.49999830744682
72
1
10
-54.0392162584472
20
-4.49999830744682
11
-54.5
21
-8
97
0
75
0
76
1
52
0
41
0.0062
77
0
78
1
53
45
43
0
44
0
45
-0.0139193969876572
46
0.0139193969876572
79
0
47
0
98
1
10
0
20
0
0
HATCH
5
12D
100
AcDbEntity
8
2
62
256
6
ByLayer
370
13
48
1
60
0
100
AcDbHatch
10
0
20
0
30
0
210
0
220
0
230
1
2
ANSI31
70
0
71
0
91
1
92
5
93
3
72
1
10
106
20
7
11
106.460783741553
21
3.50000169255318
72
1
10
106.460783741553
20
3.50000169255318
11
105.539216258447
21
3.49999830744682
72
1
10
105.539216258447
20
3.49999830744682
11
106
21
7
97
0
75
0
76
1
52
0
41
0.0062
77
0
78
1
53
45
43
0
44
0
45
-0.0139193969876572
46
0.0139193969876572
79
0
47
0
98
1
10
0
20
0
0
HATCH
5
131
100
AcDbEntity
8
2
62
256
6
ByLayer
370
13
48
1
60
0
100
AcDbHatch
10
0
20
0
30
0
210
0
220
0
230
1
2
ANSI31
70
0
71
0
91
1
92
5
93
3
72
1
10
106
20
-7
11
105.539216258447
21
-3.50000169255318
72
1
10
105.539216258447
20
-3.50000169255318
11
106.460783741553
21
-3.49999830744682
72
1
10
106.460783741553
20
-3.49999830744682
11
106
21
-7
97
0
75
0
76
1
52
0
41
0.0062
77
0
78
1
53
45
43
0
44
0
45
-0.0139193969876572
46
0.0139193969876572
79
0
47
0
98
1
10
0
20
0
0
HATCH
5
136
100
AcDbEntity
8
SK2
62
256
6
ByLayer
370
13
48
1
60
0
100
AcDbHatch
10
0
20
0
30
0
210
0
220
0
230
1
2
ANSI31
70
0
71
0
91
1
92
5
93
3
72
1
10
104.998382723188
20
-17.8541597949323
11
108.051575425693
21
-16.0820638240608
72
1
10
108.051575425693
20
-16.0820638240608
11
108.406195833975
21
-16.9326700737197
72
1
10
108.406195833975
20
-16.9326700737197
11
104.998382723188
21
-17.8541597949323
97
0
75
0
76
1
52
0
41
0.0062
77
0
78
1
53
45
43
0
44
0
45
-0.0139193969876572
46
0.0139193969876572
79
0
47
0
98
1
10
0
20
0
0
HATCH
5
13A
100
AcDbEntity
8
SK2
62
256
6
ByLayer
370
13
48
1
60
0
100
AcDbHatch
10
0
20
0
30
0
210
0
220
0
230
1
2
ANSI31
70
0
71
0
91
1
92
5
93
3
72
1
10
104.998382723188
20
17.8541597949323
11
108.406192709519
21
16.9326713763017
72
1
10
108.406192709519
20
16.9326713763017
11
108.051578550149
21
16.0820625214788
72
1
10
108.051578550149
20
16.0820625214788
11
104.998382723188
21
17.8541597949323
97
0
75
0
76
1
52
0
41
0.0062
77
0
78
1
53
45
43
0
44
0
45
-0.0139193969876572
46
0.0139193969876572
79
0
47
0
98
1
10
0
20
0
0
DIMENSION
5
13E
100
AcDbEntity
8
SK2
62
256
6
ByLayer
370
18
48
1
60
0
100
AcDbDimension
2
_U0
10
98.5
20
-45.952229
30
0
11
25.25
21
-45.952229
31
0
70
32
71
1
72
1
41
1
210
0
220
0
230
1
3
Standard
100
AcDbAlignedDimension
13
-48
23
-8
33
0
14
98.5
24
0
34
0
50
0
100
AcDbRotatedDimension
1001
ACAD
1000
DSTYLE
1002
{
1070
   371
1070
    13
1070
   372
1070
    13
1070
     3
1000

1070
   170
1070
     0
1070
   144
1040
1.0
1070
   277
1070
     2
1070
   284
1070
     8
1070
   278
1070
    46
1070
   146
1040
1.166667
1070
   345
1005
16
1070
   347
1005
16
1070
   346
1005
16
1070
   344
1005
0
1070
   343
1005
0
1070
   172
1070
     1
1070
    76
1070
     0
1070
    75
1070
     0
1070
   282
1070
     0
1070
   281
1070
     0
1070
    71
1070
     0
1070
    74
1070
     0
1070
   279
1070
     0
1070
   173
1070
     1
1070
   340
1005
11D
1070
   271
1070
     2
1070
   272
1070
     3
1070
    77
1070
     1
1070
    73
1070
     1
1070
   171
1070
     3
1070
   274
1070
     4
1070
   177
1070
     2
1070
   176
1070
     2
1070
   178
1070
     2
1070
    78
1070
     8
1070
    48
1040
-0.1
1070
    41
1040
3.5
1070
   147
1040
1.5
1070
    42
1040
1.5875
1070
    44
1040
2.0
1070
   140
1040
3.0
1002
}
1001
ACAD_DSTYLE_DIM_LINETYPE
1070
   380
1005
16
1001
ACAD_DSTYLE_DIM_EXT1_LINETYPE
1070
   381
1005
16
1001
ACAD_DSTYLE_DIM_EXT2_LINETYPE
1070
   382
1005
16
0
DIMENSION
5
157
100
AcDbEntity
8
SK2
62
256
6
ByLayer
370
18
48
1
60
0
100
AcDbDimension
2
_U1
10
3
20
-35.952229
30
0
11
50.75
21
-35.952229
31
0
70
32
71
1
72
1
41
1
210
0
220
0
230
1
3
Standard
100
AcDbAlignedDimension
13
98.5
23
0
33
0
14
3
24
-7
34
0
50
0
100
AcDbRotatedDimension
1001
ACAD
1000
DSTYLE
1002
{
1070
   371
1070
    13
1070
   372
1070
    13
1070
     3
1000

1070
   170
1070
     0
1070
   144
1040
1.0
1070
   277
1070
     2
1070
   284
1070
     8
1070
   278
1070
    46
1070
   146
1040
1.166667
1070
   345
1005
16
1070
   347
1005
16
1070
   346
1005
16
1070
   344
1005
0
1070
   343
1005
0
1070
   172
1070
     1
1070
    76
1070
     0
1070
    75
1070
     0
1070
   282
1070
     0
1070
   281
1070
     0
1070
    71
1070
     0
1070
    74
1070
     0
1070
   279
1070
     0
1070
   173
1070
     1
1070
   340
1005
11D
1070
   271
1070
     2
1070
   272
1070
     3
1070
    77
1070
     1
1070
    73
1070
     1
1070
   171
1070
     3
1070
   274
1070
     4
1070
   177
1070
     2
1070
   176
1070
     2
1070
   178
1070
     2
1070
    78
1070
     8
1070
    48
1040
-0.1
1070
    41
1040
3.5
1070
   147
1040
1.5
1070
    42
1040
1.5875
1070
    44
1040
2.0
1070
   140
1040
3.0
1002
}
1001
ACAD_DSTYLE_DIM_LINETYPE
1070
   380
1005
16
1001
ACAD_DSTYLE_DIM_EXT1_LINETYPE
1070
   381
1005
16
1001
ACAD_DSTYLE_DIM_EXT2_LINETYPE
1070
   382
1005
16
0
DIMENSION
5
16F
100
AcDbEntity
8
SK2
62
256
6
ByLayer
370
18
48
1
60
0
100
AcDbDimension
2
_U2
10
0
20
-35.952229
30
0
11
-24
21
-35.952229
31
0
70
32
71
1
72
1
41
1
210
0
220
0
230
1
3
Standard
100
AcDbAlignedDimension
13
-48
23
-8
33
0
14
0
24
-8
34
0
50
0
100
AcDbRotatedDimension
1001
ACAD
1000
DSTYLE
1002
{
1070
   371
1070
    13
1070
   372
1070
    13
1070
     3
1000

1070
   170
1070
     0
1070
   144
1040
1.0
1070
   277
1070
     2
1070
   284
1070
     8
1070
   278
1070
    46
1070
   146
1040
1.166667
1070
   345
1005
16
1070
   347
1005
16
1070
   346
1005
16
1070
   344
1005
0
1070
   343
1005
0
1070
   172
1070
     1
1070
    76
1070
     0
1070
    75
1070
     0
1070
   282
1070
     0
1070
   281
1070
     0
1070
    71
1070
     0
1070
    74
1070
     0
1070
   279
1070
     0
1070
   173
1070
     1
1070
   340
1005
11D
1070
   271
1070
     2
1070
   272
1070
     3
1070
    77
1070
     1
1070
    73
1070
     1
1070
   171
1070
     3
1070
   274
1070
     4
1070
   177
1070
     2
1070
   176
1070
     2
1070
   178
1070
     2
1070
    78
1070
     8
1070
    48
1040
-0.1
1070
    41
1040
3.5
1070
   147
1040
1.5
1070
    42
1040
1.5875
1070
    44
1040
2.0
1070
   140
1040
3.0
1002
}
1001
ACAD_DSTYLE_DIM_LINETYPE
1070
   380
1005
16
1001
ACAD_DSTYLE_DIM_EXT1_LINETYPE
1070
   381
1005
16
1001
ACAD_DSTYLE_DIM_EXT2_LINETYPE
1070
   382
1005
16
0
DIMENSION
5
187
100
AcDbEntity
8
SK2
62
256
6
ByLayer
370
18
48
1
60
0
100
AcDbDimension
2
_U3
10
17
20
32.952229
30
0
11
57.75
21
32.952229
31
0
70
32
71
1
72
1
41
1
210
0
220
0
230
1
3
Standard
100
AcDbAlignedDimension
13
98.5
23
0
33
0
14
17
24
7
34
0
50
0
100
AcDbRotatedDimension
1001
ACAD
1000
DSTYLE
1002
{
1070
   371
1070
    13
1070
   372
1070
    13
1070
     3
1000

1070
   170
1070
     0
1070
   144
1040
1.0
1070
   277
1070
     2
1070
   284
1070
     8
1070
   278
1070
    46
1070
   146
1040
1.166667
1070
   345
1005
16
1070
   347
1005
16
1070
   346
1005
16
1070
   344
1005
0
1070
   343
1005
0
1070
   172
1070
     1
1070
    76
1070
     0
1070
    75
1070
     0
1070
   282
1070
     0
1070
   281
1070
     0
1070
    71
1070
     0
1070
    74
1070
     0
1070
   279
1070
     0
1070
   173
1070
     1
1070
   340
1005
11D
1070
   271
1070
     2
1070
   272
1070
     3
1070
    77
1070
     1
1070
    73
1070
     1
1070
   171
1070
     3
1070
   274
1070
     4
1070
   177
1070
     2
1070
   176
1070
     2
1070
   178
1070
     2
1070
    78
1070
     8
1070
    48
1040
-0.1
1070
    41
1040
3.5
1070
   147
1040
1.5
1070
    42
1040
1.5875
1070
    44
1040
2.0
1070
   140
1040
3.0
1002
}
1001
ACAD_DSTYLE_DIM_LINETYPE
1070
   380
1005
16
1001
ACAD_DSTYLE_DIM_EXT1_LINETYPE
1070
   381
1005
16
1001
ACAD_DSTYLE_DIM_EXT2_LINETYPE
1070
   382
1005
16
0
ENDSEC
0
SECTION
2
OBJECTS
0
DICTIONARY
5
20f
330
0
100
AcDbDictionary
280
0
281
1
3
ACAD_GROUP
350
210
3
ACAD_MLINESTYLE
350
211
0
DICTIONARY
5
210
330
0
100
AcDbDictionary
280
0
281
1
0
DICTIONARY
5
211
330
0
100
AcDbDictionary
280
0
281
1
3
Standard
350
18
0
MLINESTYLE
5
18
330
211
100
AcDbMlineStyle
2
Standard
70
0
3

62
256
51
90
52
90
71
2
49
-0.5
62
256
6
ByLayer
49
0.5
62
256
6
ByLayer
0
RASTERVARIABLES
5
1fd
330

100
AcDbRasterVariables
90
0
70
1
71
1
72
1
0
ENDSEC
0
EOF
